  0
SECTION
  2
HEADER
  9
$ACADVER
  1
AC1014
  9
$ACADMAINTVER
 70
     9
  9
$DWGCODEPAGE
  3
ANSI_1252
  9
$INSBASE
 10
0.0
 20
0.0
 30
0.0
  9
$EXTMIN
 10
1.000000E+20
 20
1.000000E+20
 30
1.000000E+20
  9
$EXTMAX
 10
-1.000000E+20
 20
-1.000000E+20
 30
-1.000000E+20
  9
$LIMMIN
 10
0.0
 20
0.0
  9
$LIMMAX
 10
420.0
 20
297.0
  9
$ORTHOMODE
 70
     0
  9
$REGENMODE
 70
     1
  9
$FILLMODE
 70
     1
  9
$QTEXTMODE
 70
     0
  9
$MIRRTEXT
 70
     1
  9
$DRAGMODE
 70
     2
  9
$LTSCALE
 40
1.0
  9
$OSMODE
 70
    37
  9
$ATTMODE
 70
     1
  9
$TEXTSIZE
 40
2.5
  9
$TRACEWID
 40
1.0
  9
$TEXTSTYLE
  7
STANDARD
  9
$CLAYER
  8
0
  9
$CELTYPE
  6
BYLAYER
  9
$CECOLOR
 62
   256
  9
$CELTSCALE
 40
1.0
  9
$DELOBJ
 70
     1
  9
$DISPSILH
 70
     0
  9
$DIMSCALE
 40
1.0
  9
$DIMASZ
 40
2.5
  9
$DIMEXO
 40
0.625
  9
$DIMDLI
 40
3.75
  9
$DIMRND
 40
0.0
  9
$DIMDLE
 40
0.0
  9
$DIMEXE
 40
1.25
  9
$DIMTP
 40
0.0
  9
$DIMTM
 40
0.0
  9
$DIMTXT
 40
2.5
  9
$DIMCEN
 40
2.5
  9
$DIMTSZ
 40
0.0
  9
$DIMTOL
 70
     0
  9
$DIMLIM
 70
     0
  9
$DIMTIH
 70
     0
  9
$DIMTOH
 70
     0
  9
$DIMSE1
 70
     0
  9
$DIMSE2
 70
     0
  9
$DIMTAD
 70
     1
  9
$DIMZIN
 70
     8
  9
$DIMBLK
  1

  9
$DIMASO
 70
     1
  9
$DIMSHO
 70
     1
  9
$DIMPOST
  1

  9
$DIMAPOST
  1

  9
$DIMALT
 70
     0
  9
$DIMALTD
 70
     3
  9
$DIMALTF
 40
0.03937
  9
$DIMLFAC
 40
1.0
  9
$DIMTOFL
 70
     1
  9
$DIMTVP
 40
0.0
  9
$DIMTIX
 70
     0
  9
$DIMSOXD
 70
     0
  9
$DIMSAH
 70
     0
  9
$DIMBLK1
  1

  9
$DIMBLK2
  1

  9
$DIMSTYLE
  2
ISO-25
  9
$DIMCLRD
 70
     0
  9
$DIMCLRE
 70
     0
  9
$DIMCLRT
 70
     0
  9
$DIMTFAC
 40
1.0
  9
$DIMGAP
 40
0.625
  9
$DIMJUST
 70
     0
  9
$DIMSD1
 70
     0
  9
$DIMSD2
 70
     0
  9
$DIMTOLJ
 70
     0
  9
$DIMTZIN
 70
     8
  9
$DIMALTZ
 70
     0
  9
$DIMALTTZ
 70
     0
  9
$DIMFIT
 70
     3
  9
$DIMUPT
 70
     0
  9
$DIMUNIT
 70
     2
  9
$DIMDEC
 70
     2
  9
$DIMTDEC
 70
     2
  9
$DIMALTU
 70
     2
  9
$DIMALTTD
 70
     3
  9
$DIMTXSTY
  7
STANDARD
  9
$DIMAUNIT
 70
     0
  9
$LUNITS
 70
     2
  9
$LUPREC
 70
     4
  9
$SKETCHINC
 40
1.0
  9
$FILLETRAD
 40
10.0
  9
$AUNITS
 70
     0
  9
$AUPREC
 70
     0
  9
$MENU
  1
.
  9
$ELEVATION
 40
0.0
  9
$PELEVATION
 40
0.0
  9
$THICKNESS
 40
0.0
  9
$LIMCHECK
 70
     0
  9
$CHAMFERA
 40
10.0
  9
$CHAMFERB
 40
10.0
  9
$CHAMFERC
 40
20.0
  9
$CHAMFERD
 40
0.0
  9
$SKPOLY
 70
     0
  9
$TDCREATE
 40
2455385.330482674
  9
$TDUPDATE
 40
2455385.330482685
  9
$TDINDWG
 40
0.0000000116
  9
$TDUSRTIMER
 40
0.0000000116
  9
$USRTIMER
 70
     1
  9
$ANGBASE
 50
0.0
  9
$ANGDIR
 70
     0
  9
$PDMODE
 70
     0
  9
$PDSIZE
 40
0.0
  9
$PLINEWID
 40
0.0
  9
$COORDS
 70
     1
  9
$SPLFRAME
 70
     0
  9
$SPLINETYPE
 70
     6
  9
$SPLINESEGS
 70
     8
  9
$ATTDIA
 70
     0
  9
$ATTREQ
 70
     1
  9
$HANDLING
 70
     1
  9
$HANDSEED
  5
1D4
  9
$SURFTAB1
 70
     6
  9
$SURFTAB2
 70
     6
  9
$SURFTYPE
 70
     6
  9
$SURFU
 70
     6
  9
$SURFV
 70
     6
  9
$UCSNAME
  2

  9
$UCSORG
 10
0.0
 20
0.0
 30
0.0
  9
$UCSXDIR
 10
1.0
 20
0.0
 30
0.0
  9
$UCSYDIR
 10
0.0
 20
1.0
 30
0.0
  9
$PUCSNAME
  2

  9
$PUCSORG
 10
0.0
 20
0.0
 30
0.0
  9
$PUCSXDIR
 10
1.0
 20
0.0
 30
0.0
  9
$PUCSYDIR
 10
0.0
 20
1.0
 30
0.0
  9
$USERI1
 70
     0
  9
$USERI2
 70
     0
  9
$USERI3
 70
     0
  9
$USERI4
 70
     0
  9
$USERI5
 70
     0
  9
$USERR1
 40
0.0
  9
$USERR2
 40
0.0
  9
$USERR3
 40
0.0
  9
$USERR4
 40
0.0
  9
$USERR5
 40
0.0
  9
$WORLDVIEW
 70
     1
  9
$SHADEDGE
 70
     3
  9
$SHADEDIF
 70
    70
  9
$TILEMODE
 70
     1
  9
$MAXACTVP
 70
    64
  9
$PINSBASE
 10
0.0
 20
0.0
 30
0.0
  9
$PLIMCHECK
 70
     0
  9
$PEXTMIN
 10
1.000000E+20
 20
1.000000E+20
 30
1.000000E+20
  9
$PEXTMAX
 10
-1.000000E+20
 20
-1.000000E+20
 30
-1.000000E+20
  9
$PLIMMIN
 10
0.0
 20
0.0
  9
$PLIMMAX
 10
420.0
 20
297.0
  9
$UNITMODE
 70
     0
  9
$VISRETAIN
 70
     1
  9
$PLINEGEN
 70
     0
  9
$PSLTSCALE
 70
     1
  9
$TREEDEPTH
 70
  3020
  9
$PICKSTYLE
 70
     1
  9
$CMLSTYLE
  2
STANDARD
  9
$CMLJUST
 70
     0
  9
$CMLSCALE
 40
20.0
  9
$PROXYGRAPHICS
 70
     1
  9
$MEASUREMENT
 70
     1
  0
ENDSEC
  0
SECTION
  2
CLASSES
  0
CLASS
  1
ACDBDICTIONARYWDFLT
  2
AcDbDictionaryWithDefault
  3
ObjectDBX Classes
 90
        0
280
     0
281
     0
  0
CLASS
  1
VISUALSTYLE
  2
AcDbVisualStyle
  3
ObjectDBX Classes
 90
     4095
280
     0
281
     0
  0
CLASS
  1
DICTIONARYVAR
  2
AcDbDictionaryVar
  3
ObjectDBX Classes
 90
        0
280
     0
281
     0
  0
CLASS
  1
XRECORD
  2
AcDbXrecord
  3
AutoCAD 2000
 90
        0
280
     0
281
     0
  0
CLASS
  1
LWPOLYLINE
  2
AcDbPolyline
  3
AutoCAD 2000
 90
        0
280
     0
281
     1
  0
CLASS
  1
HATCH
  2
AcDbHatch
  3
AutoCAD 2000
 90
        0
280
     0
281
     1
  0
CLASS
  1
ACDBPLACEHOLDER
  2
AcDbPlaceHolder
  3
ObjectDBX Classes
 90
        0
280
     0
281
     0
  0
CLASS
  1
LAYOUT
  2
AcDbLayout
  3
ObjectDBX Classes
 90
        0
280
     0
281
     0
  0
ENDSEC
  0
SECTION
  2
TABLES
  0
TABLE
  2
VPORT
  5
8
330
0
100
AcDbSymbolTable
 70
     1
  0
VPORT
  5
29
330
8
100
AcDbSymbolTableRecord
100
AcDbViewportTableRecord
  2
*ACTIVE
 70
     0
 10
0.0
 20
0.0
 11
1.0
 21
1.0
 12
344.186916
 22
148.5
 13
0.0
 23
0.0
 14
10.0
 24
10.0
 15
10.0
 25
10.0
 16
0.0
 26
0.0
 36
1.0
 17
0.0
 27
0.0
 37
0.0
 40
297.0
 41
1.972973
 42
50.0
 43
0.0
 44
0.0
 50
0.0
 51
0.0
 71
     0
 72
   100
 73
     1
 74
     3
 75
     0
 76
     0
 77
     0
 78
     0
  0
ENDTAB
  0
TABLE
  2
LTYPE
  5
5
330
0
100
AcDbSymbolTable
 70
     1
  0
LTYPE
  5
14
330
5
100
AcDbSymbolTableRecord
100
AcDbLinetypeTableRecord
  2
BYBLOCK
 70
     0
  3

 72
    65
 73
     0
 40
0.0
  0
LTYPE
  5
15
330
5
100
AcDbSymbolTableRecord
100
AcDbLinetypeTableRecord
  2
BYLAYER
 70
     0
  3

 72
    65
 73
     0
 40
0.0
  0
LTYPE
  5
16
330
5
100
AcDbSymbolTableRecord
100
AcDbLinetypeTableRecord
  2
CONTINUOUS
 70
     0
  3
Solid line
 72
    65
 73
     0
 40
0.0
  0
ENDTAB
  0
TABLE
  2
LAYER
  5
2
330
0
100
AcDbSymbolTable
 70
     6
  0
LAYER
  5
10
330
2
100
AcDbSymbolTableRecord
100
AcDbLayerTableRecord
  2
0
 70
     0
 62
     7
  6
CONTINUOUS
  0
LAYER
  5
3B
330
2
100
AcDbSymbolTableRecord
100
AcDbLayerTableRecord
  2
DIM
 70
     0
 62
     7
  6
CONTINUOUS
  0
LAYER
  5
3C
330
2
100
AcDbSymbolTableRecord
100
AcDbLayerTableRecord
  2
DRAW
 70
     0
 62
     7
  6
CONTINUOUS
  0
LAYER
  5
3D
330
2
100
AcDbSymbolTableRecord
100
AcDbLayerTableRecord
  2
CARTOUCHE
 70
     0
 62
     7
  6
CONTINUOUS
  0
LAYER
  5
3E
330
2
100
AcDbSymbolTableRecord
100
AcDbLayerTableRecord
  2
DRAW-TEXT
 70
     0
 62
     7
  6
CONTINUOUS
  0
LAYER
  5
3F
330
2
100
AcDbSymbolTableRecord
100
AcDbLayerTableRecord
  2
DEFPOINTS
 70
     0
 62
     7
  6
CONTINUOUS
  0
ENDTAB
  0
TABLE
  2
STYLE
  5
3
330
0
100
AcDbSymbolTable
 70
    17
  0
STYLE
  5
11
330
3
100
AcDbSymbolTableRecord
100
AcDbTextStyleTableRecord
  2
STANDARD
 70
     0
 40
0.0
 41
1.0
 50
0.0
 71
     0
 42
2.5
  3
txt
  4

1001
ACAD
1000
txt
1071
        0
  0
STYLE
  5
40
330
3
100
AcDbSymbolTableRecord
100
AcDbTextStyleTableRecord
  2
DEFAULT
 70
     0
 40
0.0
 41
1.0
 50
0.0
 71
     0
 42
0.2
  3

  4

1001
ACAD
1000
txt
1071
        0
  0
STYLE
  5
41
330
3
100
AcDbSymbolTableRecord
100
AcDbTextStyleTableRecord
  2
FINDER
 70
     0
 40
0.0
 41
1.0
 50
0.0
 71
     0
 42
0.2
  3
ARIAL.TTF
  4

1001
ACAD
1000
Arial
1071
        0
  0
STYLE
  5
42
330
3
100
AcDbSymbolTableRecord
100
AcDbTextStyleTableRecord
  2
ISO_FINDER
 70
     0
 40
0.0
 41
1.0
 50
0.0
 71
     0
 42
0.2
  3

  4

1001
ACAD
1000
Arial
1071
        0
  0
STYLE
  5
43
330
3
100
AcDbSymbolTableRecord
100
AcDbTextStyleTableRecord
  2
TSTYLE1
 70
     0
 40
0.0
 41
1.0
 50
0.0
 71
     0
 42
0.2
  3

  4

1001
ACAD
1000
Arial
1071
        0
  0
STYLE
  5
44
330
3
100
AcDbSymbolTableRecord
100
AcDbTextStyleTableRecord
  2
TSTYLE2
 70
     0
 40
0.0
 41
1.0
 50
0.0
 71
     0
 42
0.2
  3

  4

1001
ACAD
1000
Arial
1071
        0
  0
STYLE
  5
45
330
3
100
AcDbSymbolTableRecord
100
AcDbTextStyleTableRecord
  2
TSTYLE3
 70
     0
 40
0.0
 41
1.0
 50
0.0
 71
     0
 42
0.2
  3

  4

1001
ACAD
1000
Arial
1071
        0
  0
STYLE
  5
46
330
3
100
AcDbSymbolTableRecord
100
AcDbTextStyleTableRecord
  2
TSTYLE4
 70
     0
 40
0.0
 41
1.0
 50
0.0
 71
     0
 42
0.2
  3

  4

1001
ACAD
1000
Arial
1071
        0
  0
STYLE
  5
47
330
3
100
AcDbSymbolTableRecord
100
AcDbTextStyleTableRecord
  2
TSTYLE5
 70
     0
 40
0.0
 41
1.0
 50
0.0
 71
     0
 42
0.2
  3

  4

1001
ACAD
1000
Arial
1071
        0
  0
STYLE
  5
48
330
3
100
AcDbSymbolTableRecord
100
AcDbTextStyleTableRecord
  2
TSTYLE11
 70
     0
 40
0.0
 41
1.0
 50
0.0
 71
     0
 42
0.2
  3

  4

1001
ACAD
1000
Arial
1071
        0
  0
STYLE
  5
49
330
3
100
AcDbSymbolTableRecord
100
AcDbTextStyleTableRecord
  2
TSTYLE23
 70
     0
 40
0.0
 41
1.0
 50
0.0
 71
     0
 42
0.2
  3

  4

1001
ACAD
1000
Arial
1071
        0
  0
STYLE
  5
4A
330
3
100
AcDbSymbolTableRecord
100
AcDbTextStyleTableRecord
  2
TSTYLE22
 70
     0
 40
0.0
 41
1.0
 50
0.0
 71
     0
 42
0.2
  3

  4

1001
ACAD
1000
Arial
1071
        0
  0
STYLE
  5
4B
330
3
100
AcDbSymbolTableRecord
100
AcDbTextStyleTableRecord
  2
ISO
 70
     0
 40
0.0
 41
1.0
 50
0.0
 71
     0
 42
0.2
  3

  4

1001
ACAD
1000
ISOCP
1071
        0
  0
STYLE
  5
4C
330
3
100
AcDbSymbolTableRecord
100
AcDbTextStyleTableRecord
  2
HELVETICAR
 70
     0
 40
0.0
 41
1.0
 50
0.0
 71
     0
 42
0.2
  3

  4

1001
ACAD
1000
Swis721 Cn BT
1071
        0
  0
STYLE
  5
4D
330
3
100
AcDbSymbolTableRecord
100
AcDbTextStyleTableRecord
  2
ROMANS
 70
     0
 40
0.0
 41
1.0
 50
0.0
 71
     0
 42
0.2
  3

  4

1001
ACAD
1000
romans
1071
        0
  0
STYLE
  5
4E
330
3
100
AcDbSymbolTableRecord
100
AcDbTextStyleTableRecord
  2
STD
 70
     0
 40
0.0
 41
1.0
 50
0.0
 71
     0
 42
0.2
  3

  4

1001
ACAD
1000
txt
1071
        0
  0
STYLE
  5
4F
330
3
100
AcDbSymbolTableRecord
100
AcDbTextStyleTableRecord
  2
STYLE1
 70
     0
 40
0.0
 41
1.0
 50
0.0
 71
     0
 42
0.2
  3

  4

1001
ACAD
1000
Arial Black
1071
        0
  0
ENDTAB
  0
TABLE
  2
VIEW
  5
6
330
0
100
AcDbSymbolTable
 70
     0
  0
ENDTAB
  0
TABLE
  2
UCS
  5
7
330
0
100
AcDbSymbolTable
 70
     0
  0
ENDTAB
  0
TABLE
  2
APPID
  5
9
330
0
100
AcDbSymbolTable
 70
     1
  0
APPID
  5
12
330
9
100
AcDbSymbolTableRecord
100
AcDbRegAppTableRecord
  2
ACAD
 70
     0
  0
ENDTAB
  0
TABLE
  2
DIMSTYLE
  5
A
330
0
100
AcDbSymbolTable
 70
    12
  0
DIMSTYLE
105
27
330
A
100
AcDbSymbolTableRecord
100
AcDbDimStyleTableRecord
  2
ISO-25
 70
     0
  3

  4

  5

  6

  7

 40
1.0
 41
2.5
 42
0.625
 43
3.75
 44
1.25
 45
0.0
 46
0.0
 47
0.0
 48
0.0
140
2.5
141
2.5
142
0.0
143
0.03937
144
1.0
145
0.0
146
1.0
147
0.625
 71
     0
 72
     0
 73
     0
 74
     0
 75
     0
 76
     0
 77
     1
 78
     8
170
     0
171
     3
172
     1
173
     0
174
     0
175
     0
176
     0
177
     0
178
     0
270
     2
271
     2
272
     2
273
     2
274
     3
340
11
275
     0
280
     0
281
     0
282
     0
283
     0
284
     8
285
     0
286
     0
287
     3
288
     0
  0
DIMSTYLE
105
50
330
A
100
AcDbSymbolTableRecord
100
AcDbDimStyleTableRecord
  2
DEFAULT
 70
     0
  3
<>
  4

  5
CLOSED
  6

  7

 40
1.0
 41
4.375
 42
1.05
 43
0.38
 44
2.1
 45
0.0
 46
0.0
 47
0.0
 48
0.0
140
3.5
141
0.09
142
0.0
143
25.4
144
1.0
145
0.0
146
0.4
147
1.75
 71
     0
 72
     0
 73
     0
 74
     0
 75
     0
 76
     0
 77
     1
 78
     8
170
     0
171
     2
172
     0
173
     0
174
     0
175
     0
176
     0
177
     0
178
     2
270
     2
271
     2
272
     3
273
     2
274
     2
340
40
275
     0
280
     0
281
     0
282
     0
283
     1
284
     8
285
     0
286
     0
287
     3
288
     0
  0
DIMSTYLE
105
58
330
A
100
AcDbSymbolTableRecord
100
AcDbDimStyleTableRecord
  2
DEFAULTDIMENSIONSTYLE
 70
     0
  3
<>
  4

  5

  6

  7

 40
1.0
 41
2.5
 42
0.875
 43
0.38
 44
1.75
 45
0.0
 46
0.0
 47
0.0
 48
0.0
140
3.5
141
0.09
142
0.0
143
25.4
144
1.0
145
0.0
146
1.0
147
1.75
 71
     0
 72
     0
 73
     0
 74
     0
 75
     0
 76
     0
 77
     1
 78
     8
170
     0
171
     2
172
     0
173
     0
174
     0
175
     0
176
     0
177
     0
178
     2
270
     2
271
     2
272
     2
273
     2
274
     2
340
11
275
     0
280
     0
281
     0
282
     0
283
     1
284
     8
285
     0
286
     0
287
     3
288
     0
  0
DIMSTYLE
105
59
330
A
100
AcDbSymbolTableRecord
100
AcDbDimStyleTableRecord
  2
FINDER
 70
     0
  3
<>
  4

  5

  6

  7

 40
1.0
 41
2.5
 42
3.888889
 43
0.38
 44
2.430556
 45
0.0
 46
0.0
 47
0.0
 48
0.0
140
3.5
141
0.09
142
0.0
143
25.4
144
1.0
145
0.0
146
1.0
147
2.430556
 71
     0
 72
     0
 73
     0
 74
     0
 75
     0
 76
     0
 77
     1
 78
     8
170
     0
171
     2
172
     0
173
     0
174
     0
175
     0
176
     0
177
     0
178
     2
270
     2
271
     2
272
     2
273
     2
274
     2
340
41
275
     0
280
     0
281
     0
282
     0
283
     1
284
     8
285
     0
286
     0
287
     3
288
     0
  0
DIMSTYLE
105
5A
102
{ACAD_REACTORS
330
DC
330
12E
330
13B
330
168
330
175
330
182
330
191
330
1A0
102
}
330
A
100
AcDbSymbolTableRecord
100
AcDbDimStyleTableRecord
  2
ISO_FINDER
 70
     0
  3
<>
  4

  5
CLOSED
  6

  7

 40
1.0
 41
1.0
 42
1.05
 43
0.38
 44
1.75
 45
0.0
 46
0.0
 47
0.0
 48
0.0
140
3.5
141
0.09
142
0.0
143
25.4
144
1.0
145
0.0
146
0.6
147
3.5
 71
     0
 72
     0
 73
     0
 74
     0
 75
     0
 76
     0
 77
     1
 78
     8
170
     0
171
     2
172
     0
173
     0
174
     0
175
     0
176
     0
177
     0
178
     2
270
     2
271
     2
272
     3
273
     2
274
     2
340
42
275
     0
280
     0
281
     0
282
     0
283
     1
284
     8
285
     0
286
     0
287
     3
288
     0
  0
DIMSTYLE
105
5B
330
A
100
AcDbSymbolTableRecord
100
AcDbDimStyleTableRecord
  2
DSTYLE1
 70
     0
  3
<>
  4

  5

  6

  7

 40
1.0
 41
1.35
 42
0.35
 43
0.38
 44
1.166667
 45
0.0
 46
0.0
 47
0.0
 48
0.0
140
3.5
141
0.09
142
0.0
143
25.4
144
1.0
145
0.0
146
0.6
147
2.45
 71
     0
 72
     0
 73
     0
 74
     0
 75
     0
 76
     0
 77
     1
 78
     8
170
     0
171
     2
172
     0
173
     0
174
     0
175
     0
176
     0
177
     0
178
     2
270
     2
271
     2
272
     4
273
     2
274
     2
340
49
275
     0
280
     0
281
     0
282
     0
283
     1
284
     0
285
     0
286
     0
287
     3
288
     0
  0
DIMSTYLE
105
5C
330
A
100
AcDbSymbolTableRecord
100
AcDbDimStyleTableRecord
  2
DSTYLE2
 70
     0
  3
<>
  4

  5

  6

  7

 40
1.0
 41
1.35
 42
0.35
 43
0.38
 44
1.166667
 45
0.0
 46
0.0
 47
0.0
 48
0.0
140
3.5
141
0.09
142
0.0
143
25.4
144
1.0
145
0.0
146
0.6
147
2.45
 71
     0
 72
     0
 73
     0
 74
     0
 75
     0
 76
     0
 77
     1
 78
     8
170
     0
171
     2
172
     0
173
     0
174
     0
175
     0
176
     0
177
     0
178
     2
270
     2
271
     2
272
     4
273
     2
274
     2
340
49
275
     0
280
     0
281
     0
282
     0
283
     1
284
     0
285
     0
286
     0
287
     3
288
     0
  0
DIMSTYLE
105
5D
330
A
100
AcDbSymbolTableRecord
100
AcDbDimStyleTableRecord
  2
DSTYLE3
 70
     0
  3
<>
  4

  5

  6

  7

 40
1.0
 41
1.35
 42
0.233333
 43
0.38
 44
1.166667
 45
0.0
 46
0.0
 47
0.0
 48
0.0
140
3.5
141
0.09
142
0.0
143
25.4
144
1.0
145
0.0
146
0.6
147
2.45
 71
     0
 72
     0
 73
     0
 74
     0
 75
     0
 76
     0
 77
     1
 78
     8
170
     0
171
     2
172
     0
173
     0
174
     0
175
     0
176
     0
177
     0
178
     2
270
     2
271
     2
272
     4
273
     2
274
     2
340
49
275
     0
280
     0
281
     0
282
     0
283
     1
284
     0
285
     0
286
     0
287
     3
288
     0
  0
DIMSTYLE
105
5E
330
A
100
AcDbSymbolTableRecord
100
AcDbDimStyleTableRecord
  2
DSTYLE4
 70
     0
  3
<>
  4

  5

  6

  7

 40
1.0
 41
1.35
 42
0.233333
 43
0.38
 44
1.166667
 45
0.0
 46
0.0
 47
0.0
 48
0.0
140
3.5
141
0.09
142
0.0
143
25.4
144
1.0
145
0.0
146
0.6
147
2.45
 71
     0
 72
     0
 73
     0
 74
     0
 75
     0
 76
     0
 77
     1
 78
     8
170
     0
171
     2
172
     0
173
     0
174
     0
175
     0
176
     0
177
     0
178
     2
270
     2
271
     2
272
     4
273
     2
274
     2
340
49
275
     0
280
     0
281
     0
282
     0
283
     1
284
     0
285
     0
286
     0
287
     3
288
     0
  0
DIMSTYLE
105
5F
330
A
100
AcDbSymbolTableRecord
100
AcDbDimStyleTableRecord
  2
DSTYLE5
 70
     0
  3
<>
  4

  5

  6

  7

 40
1.0
 41
1.35
 42
0.000147
 43
0.38
 44
1.166667
 45
0.0
 46
0.0
 47
0.0
 48
0.0
140
3.5
141
0.09
142
0.0
143
25.4
144
1.0
145
0.0
146
0.6
147
2.45
 71
     0
 72
     0
 73
     0
 74
     0
 75
     0
 76
     0
 77
     1
 78
     8
170
     0
171
     2
172
     0
173
     0
174
     0
175
     0
176
     0
177
     0
178
     2
270
     2
271
     2
272
     4
273
     2
274
     2
340
49
275
     0
280
     0
281
     0
282
     0
283
     1
284
     0
285
     0
286
     0
287
     3
288
     0
  0
DIMSTYLE
105
60
330
A
100
AcDbSymbolTableRecord
100
AcDbDimStyleTableRecord
  2
ST0
 70
     0
  3
<>
  4

  5

  6

  7

 40
1.0
 41
1.4
 42
0.6125
 43
0.38
 44
0.6125
 45
0.0
 46
0.0
 47
0.0
 48
0.0
140
3.5
141
0.09
142
0.0
143
25.4
144
1.0
145
0.0
146
0.5
147
1.458333
 71
     0
 72
     0
 73
     0
 74
     0
 75
     0
 76
     0
 77
     1
 78
     8
170
     0
171
     2
172
     0
173
     0
174
     0
175
     0
176
     0
177
     0
178
     2
270
     2
271
     1
272
     2
273
     2
274
     2
340
4B
275
     0
280
     0
281
     0
282
     0
283
     1
284
     0
285
     0
286
     0
287
     3
288
     0
  0
DIMSTYLE
105
61
330
A
100
AcDbSymbolTableRecord
100
AcDbDimStyleTableRecord
  2
PUNTI
 70
     0
  3
<>
  4

  5
DOT
  6

  7

 40
1.0
 41
1.05
 42
0.6125
 43
0.38
 44
0.30625
 45
0.0
 46
0.0
 47
0.0
 48
0.0
140
3.5
141
0.09
142
0.0
143
25.4
144
1.0
145
0.0
146
0.5
147
0.8575
 71
     0
 72
     0
 73
     0
 74
     0
 75
     0
 76
     0
 77
     1
 78
     8
170
     0
171
     2
172
     0
173
     0
174
     0
175
     0
176
     0
177
     0
178
     2
270
     2
271
     4
272
     4
273
     2
274
     2
340
4B
275
     0
280
     0
281
     0
282
     0
283
     1
284
     0
285
     0
286
     0
287
     3
288
     0
  0
ENDTAB
  0
TABLE
  2
BLOCK_RECORD
  5
1
330
0
100
AcDbSymbolTable
 70
    12
  0
BLOCK_RECORD
  5
1F
330
1
100
AcDbSymbolTableRecord
100
AcDbBlockTableRecord
  2
*MODEL_SPACE
  0
BLOCK_RECORD
  5
1B
330
1
100
AcDbSymbolTableRecord
100
AcDbBlockTableRecord
  2
*PAPER_SPACE
  0
BLOCK_RECORD
  5
51
330
1
100
AcDbSymbolTableRecord
100
AcDbBlockTableRecord
  2
_CLOSED
  0
BLOCK_RECORD
  5
62
330
1
100
AcDbSymbolTableRecord
100
AcDbBlockTableRecord
  2
_DOT
  0
BLOCK_RECORD
  5
CF
330
1
100
AcDbSymbolTableRecord
100
AcDbBlockTableRecord
  2
LW_POLYLINE_1
  0
BLOCK_RECORD
  5
DD
330
1
100
AcDbSymbolTableRecord
100
AcDbBlockTableRecord
  2
*D4
  0
BLOCK_RECORD
  5
12F
330
1
100
AcDbSymbolTableRecord
100
AcDbBlockTableRecord
  2
*D5
  0
BLOCK_RECORD
  5
13C
330
1
100
AcDbSymbolTableRecord
100
AcDbBlockTableRecord
  2
*D6
  0
BLOCK_RECORD
  5
169
330
1
100
AcDbSymbolTableRecord
100
AcDbBlockTableRecord
  2
*D7
  0
BLOCK_RECORD
  5
176
330
1
100
AcDbSymbolTableRecord
100
AcDbBlockTableRecord
  2
*D8
  0
BLOCK_RECORD
  5
183
330
1
100
AcDbSymbolTableRecord
100
AcDbBlockTableRecord
  2
*D9
  0
BLOCK_RECORD
  5
192
330
1
100
AcDbSymbolTableRecord
100
AcDbBlockTableRecord
  2
*D10
  0
BLOCK_RECORD
  5
1A1
330
1
100
AcDbSymbolTableRecord
100
AcDbBlockTableRecord
  2
*D11
  0
ENDTAB
  0
ENDSEC
  0
SECTION
  2
BLOCKS
  0
BLOCK
  5
20
330
1F
100
AcDbEntity
  8
0
100
AcDbBlockBegin
  2
*MODEL_SPACE
 70
     0
 71
     0
 10
0.0
 20
0.0
 30
0.0
  3
*MODEL_SPACE
  1

  0
ENDBLK
  5
21
330
1F
100
AcDbEntity
  8
0
100
AcDbBlockEnd
  0
BLOCK
  5
1C
330
1B
100
AcDbEntity
 67
     1
  8
0
100
AcDbBlockBegin
  2
*PAPER_SPACE
 70
     0
 71
     0
 10
0.0
 20
0.0
 30
0.0
  3
*PAPER_SPACE
  1

  0
ENDBLK
  5
1D
330
1B
100
AcDbEntity
 67
     1
  8
0
100
AcDbBlockEnd
  0
BLOCK
  5
52
330
51
100
AcDbEntity
  8
0
100
AcDbBlockBegin
  2
_CLOSED
 70
     0
 71
     0
 10
0.0
 20
0.0
 30
0.0
  3
_CLOSED
  1

  0
LINE
  5
54
330
51
100
AcDbEntity
  8
0
  6
BYBLOCK
 62
     0
100
AcDbLine
 10
-1.0
 20
0.166667
 30
0.0
 11
0.0
 21
0.0
 31
0.0
  0
LINE
  5
55
330
51
100
AcDbEntity
  8
0
  6
BYBLOCK
 62
     0
100
AcDbLine
 10
0.0
 20
0.0
 30
0.0
 11
-1.0
 21
-0.166667
 31
0.0
  0
LINE
  5
56
330
51
100
AcDbEntity
  8
0
  6
BYBLOCK
 62
     0
100
AcDbLine
 10
-1.0
 20
0.166667
 30
0.0
 11
-1.0
 21
-0.166667
 31
0.0
  0
LINE
  5
57
330
51
100
AcDbEntity
  8
0
  6
BYBLOCK
 62
     0
100
AcDbLine
 10
0.0
 20
0.0
 30
0.0
 11
-1.0
 21
0.0
 31
0.0
  0
ENDBLK
  5
53
330
51
100
AcDbEntity
  8
0
100
AcDbBlockEnd
  0
BLOCK
  5
63
330
62
100
AcDbEntity
  8
0
100
AcDbBlockBegin
  2
_DOT
 70
     0
 71
     0
 10
0.0
 20
0.0
 30
0.0
  3
_DOT
  1

  0
POLYLINE
  5
65
330
62
100
AcDbEntity
  8
0
  6
BYBLOCK
 62
     0
100
AcDb2dPolyline
 66
     1
 10
0.0
 20
0.0
 30
0.0
 70
     1
 40
0.5
 41
0.5
  0
VERTEX
  5
68
330
65
100
AcDbEntity
  8
0
  6
BYBLOCK
 62
     0
100
AcDbVertex
100
AcDb2dVertex
 10
-0.25
 20
0.0
 30
0.0
 42
1.0
  0
VERTEX
  5
69
330
65
100
AcDbEntity
  8
0
  6
BYBLOCK
 62
     0
100
AcDbVertex
100
AcDb2dVertex
 10
0.25
 20
0.0
 30
0.0
 42
1.0
  0
SEQEND
  5
67
330
65
100
AcDbEntity
  8
0
  6
BYBLOCK
 62
     0
  0
LINE
  5
66
330
62
100
AcDbEntity
  8
0
  6
BYBLOCK
 62
     0
100
AcDbLine
 10
-0.5
 20
0.0
 30
0.0
 11
-1.0
 21
0.0
 31
0.0
  0
ENDBLK
  5
64
330
62
100
AcDbEntity
  8
0
100
AcDbBlockEnd
  0
BLOCK
  5
D5
330
CF
100
AcDbEntity
  8
0
100
AcDbBlockBegin
  2
LW_POLYLINE_1
 70
     0
 71
     0
 10
842.469116
 20
586.347656
 30
0.0
  3
LW_POLYLINE_1
  1

  0
LINE
  5
D0
330
CF
100
AcDbEntity
  8
CARTOUCHE
  6
CONTINUOUS
 62
     0
100
AcDbLine
 10
842.469116
 20
586.347656
 30
0.0
 11
842.469116
 21
299.347656
 31
0.0
  0
LINE
  5
D1
330
CF
100
AcDbEntity
  8
CARTOUCHE
  6
CONTINUOUS
 62
     0
100
AcDbLine
 10
842.469116
 20
299.347656
 30
0.0
 11
642.469079
 21
299.347473
 31
0.0
  0
LINE
  5
D2
330
CF
100
AcDbEntity
  8
CARTOUCHE
  6
CONTINUOUS
 62
     0
100
AcDbLine
 10
642.469079
 20
299.347473
 30
0.0
 11
642.469079
 21
586.347473
 31
0.0
  0
LINE
  5
D3
330
CF
100
AcDbEntity
  8
CARTOUCHE
  6
CONTINUOUS
 62
     0
100
AcDbLine
 10
642.469079
 20
586.347473
 30
0.0
 11
842.468853
 21
586.347656
 31
0.0
  0
LINE
  5
D4
330
CF
100
AcDbEntity
  8
CARTOUCHE
  6
CONTINUOUS
 62
     0
100
AcDbLine
 10
842.468853
 20
586.347656
 30
0.0
 11
842.469116
 21
586.347656
 31
0.0
  0
ENDBLK
  5
D6
330
CF
100
AcDbEntity
  8
0
100
AcDbBlockEnd
  0
BLOCK
  5
E7
330
DD
100
AcDbEntity
  8
0
100
AcDbBlockBegin
  2
*D4
 70
     1
 71
     0
 10
0.0
 20
0.0
 30
0.0
  3
*D4
  1

  0
LINE
  5
DE
330
DD
100
AcDbEntity
  8
DIM
  6
CONTINUOUS
 62
     3
100
AcDbLine
 10
767.797788
 20
449.878417
 30
0.0
 11
767.797788
 21
487.493286
 31
0.0
  0
LINE
  5
DF
330
DD
100
AcDbEntity
  8
DIM
  6
CONTINUOUS
 62
     3
100
AcDbLine
 10
755.297788
 20
449.878417
 30
0.0
 11
755.297788
 21
487.493286
 31
0.0
  0
LINE
  5
E0
330
DD
100
AcDbEntity
  8
DIM
  6
CONTINUOUS
 62
     3
100
AcDbLine
 10
766.597787
 20
485.743286
 30
0.0
 11
756.497788
 21
485.743286
 31
0.0
  0
INSERT
  5
E1
330
DD
100
AcDbEntity
  8
DIM
 62
     3
100
AcDbBlockReference
  2
_CLOSED
 10
767.797788
 20
485.743286
 30
0.0
 41
1.2
 42
1.2
 43
1.2
  0
INSERT
  5
E2
330
DD
100
AcDbEntity
  8
DIM
 62
     3
100
AcDbBlockReference
  2
_CLOSED
 10
755.297788
 20
485.743286
 30
0.0
 41
1.2
 42
1.2
 43
1.2
 50
180.0
  0
MTEXT
  5
E3
330
DD
100
AcDbEntity
  8
DIM
 62
     2
100
AcDbMText
 10
761.547791
 20
489.280036
 30
0.0
 40
3.5
 41
0.0
 71
     5
 72
     1
  1
\A1;12.5
  7
ISO_FINDER
  0
POINT
  5
E4
330
DD
100
AcDbEntity
  8
DEFPOINTS
 62
     0
100
AcDbPoint
 10
767.797788
 20
449.578417
 30
0.0
  0
POINT
  5
E5
330
DD
100
AcDbEntity
  8
DEFPOINTS
 62
     0
100
AcDbPoint
 10
755.297788
 20
449.578417
 30
0.0
  0
POINT
  5
E6
330
DD
100
AcDbEntity
  8
DEFPOINTS
 62
     0
100
AcDbPoint
 10
755.297788
 20
485.743286
 30
0.0
  0
ENDBLK
  5
E8
330
DD
100
AcDbEntity
  8
0
100
AcDbBlockEnd
  0
BLOCK
  5
139
330
12F
100
AcDbEntity
  8
0
100
AcDbBlockBegin
  2
*D5
 70
     1
 71
     0
 10
0.0
 20
0.0
 30
0.0
  3
*D5
  1

  0
LINE
  5
130
330
12F
100
AcDbEntity
  8
DIM
  6
CONTINUOUS
 62
     3
100
AcDbLine
 10
739.932399
 20
449.378417
 30
0.0
 11
739.932399
 21
495.939697
 31
0.0
  0
LINE
  5
131
330
12F
100
AcDbEntity
  8
DIM
  6
CONTINUOUS
 62
     3
100
AcDbLine
 10
708.532399
 20
449.378417
 30
0.0
 11
708.532399
 21
495.939697
 31
0.0
  0
LINE
  5
132
330
12F
100
AcDbEntity
  8
DIM
  6
CONTINUOUS
 62
     3
100
AcDbLine
 10
738.732399
 20
494.189697
 30
0.0
 11
709.732399
 21
494.189697
 31
0.0
  0
INSERT
  5
133
330
12F
100
AcDbEntity
  8
DIM
 62
     3
100
AcDbBlockReference
  2
_CLOSED
 10
739.932399
 20
494.189697
 30
0.0
 41
1.2
 42
1.2
 43
1.2
  0
INSERT
  5
134
330
12F
100
AcDbEntity
  8
DIM
 62
     3
100
AcDbBlockReference
  2
_CLOSED
 10
708.532399
 20
494.189697
 30
0.0
 41
1.2
 42
1.2
 43
1.2
 50
180.0
  0
MTEXT
  5
135
330
12F
100
AcDbEntity
  8
DIM
 62
     2
100
AcDbMText
 10
724.232361
 20
497.726447
 30
0.0
 40
3.5
 41
0.0
 71
     5
 72
     1
  1
\A1;31.4
  7
ISO_FINDER
  0
POINT
  5
136
330
12F
100
AcDbEntity
  8
DEFPOINTS
 62
     0
100
AcDbPoint
 10
739.932399
 20
449.078417
 30
0.0
  0
POINT
  5
137
330
12F
100
AcDbEntity
  8
DEFPOINTS
 62
     0
100
AcDbPoint
 10
708.532399
 20
449.078417
 30
0.0
  0
POINT
  5
138
330
12F
100
AcDbEntity
  8
DEFPOINTS
 62
     0
100
AcDbPoint
 10
708.532399
 20
494.189697
 30
0.0
  0
ENDBLK
  5
13A
330
12F
100
AcDbEntity
  8
0
100
AcDbBlockEnd
  0
BLOCK
  5
148
330
13C
100
AcDbEntity
  8
0
100
AcDbBlockBegin
  2
*D6
 70
     1
 71
     0
 10
0.0
 20
0.0
 30
0.0
  3
*D6
  1

  0
LINE
  5
13D
330
13C
100
AcDbEntity
  8
DIM
  6
CONTINUOUS
 62
     3
100
AcDbLine
 10
736.982399
 20
444.428417
 30
0.0
 11
736.982399
 21
432.990021
 31
0.0
  0
LINE
  5
13E
330
13C
100
AcDbEntity
  8
DIM
  6
CONTINUOUS
 62
     3
100
AcDbLine
 10
737.482399
 20
444.428417
 30
0.0
 11
737.482399
 21
432.990021
 31
0.0
  0
LINE
  5
13F
330
13C
100
AcDbEntity
  8
DIM
  6
CONTINUOUS
 62
     3
100
AcDbLine
 10
736.982399
 20
434.740021
 30
0.0
 11
725.144405
 21
434.740021
 31
0.0
  0
LINE
  5
140
330
13C
100
AcDbEntity
  8
DIM
  6
CONTINUOUS
 62
     3
100
AcDbLine
 10
735.782399
 20
434.740021
 30
0.0
 11
734.582399
 21
434.740021
 31
0.0
  0
LINE
  5
141
330
13C
100
AcDbEntity
  8
DIM
  6
CONTINUOUS
 62
     3
100
AcDbLine
 10
738.682399
 20
434.740021
 30
0.0
 11
739.882399
 21
434.740021
 31
0.0
  0
INSERT
  5
142
330
13C
100
AcDbEntity
  8
DIM
 62
     3
100
AcDbBlockReference
  2
_CLOSED
 10
736.982399
 20
434.740021
 30
0.0
 41
1.2
 42
1.2
 43
1.2
  0
INSERT
  5
143
330
13C
100
AcDbEntity
  8
DIM
 62
     3
100
AcDbBlockReference
  2
_CLOSED
 10
737.482399
 20
434.740021
 30
0.0
 41
1.2
 42
1.2
 43
1.2
 50
180.0
  0
MTEXT
  5
144
330
13C
100
AcDbEntity
  8
DIM
 62
     2
100
AcDbMText
 10
730.089905
 20
438.276771
 30
0.0
 40
3.5
 41
0.0
 71
     5
 72
     1
  1
\A1;0.5
  7
ISO_FINDER
  0
POINT
  5
145
330
13C
100
AcDbEntity
  8
DEFPOINTS
 62
     0
100
AcDbPoint
 10
736.982399
 20
445.478417
 30
0.0
  0
POINT
  5
146
330
13C
100
AcDbEntity
  8
DEFPOINTS
 62
     0
100
AcDbPoint
 10
737.482399
 20
445.478417
 30
0.0
  0
POINT
  5
147
330
13C
100
AcDbEntity
  8
DEFPOINTS
 62
     0
100
AcDbPoint
 10
737.482399
 20
434.740021
 30
0.0
  0
ENDBLK
  5
149
330
13C
100
AcDbEntity
  8
0
100
AcDbBlockEnd
  0
BLOCK
  5
173
330
169
100
AcDbEntity
  8
0
100
AcDbBlockBegin
  2
*D7
 70
     1
 71
     0
 10
0.0
 20
0.0
 30
0.0
  3
*D7
  1

  0
LINE
  5
16A
330
169
100
AcDbEntity
  8
DIM
  6
CONTINUOUS
 62
     3
100
AcDbLine
 10
710.332418
 20
456.178417
 30
0.0
 11
710.332418
 21
487.493286
 31
0.0
  0
LINE
  5
16B
330
169
100
AcDbEntity
  8
DIM
  6
CONTINUOUS
 62
     3
100
AcDbLine
 10
739.932399
 20
449.878417
 30
0.0
 11
739.932399
 21
487.493286
 31
0.0
  0
LINE
  5
16C
330
169
100
AcDbEntity
  8
DIM
  6
CONTINUOUS
 62
     3
100
AcDbLine
 10
711.532418
 20
485.743286
 30
0.0
 11
738.732399
 21
485.743286
 31
0.0
  0
INSERT
  5
16D
330
169
100
AcDbEntity
  8
DIM
 62
     3
100
AcDbBlockReference
  2
_CLOSED
 10
710.332418
 20
485.743286
 30
0.0
 41
1.2
 42
1.2
 43
1.2
 50
180.0
  0
INSERT
  5
16E
330
169
100
AcDbEntity
  8
DIM
 62
     3
100
AcDbBlockReference
  2
_CLOSED
 10
739.932399
 20
485.743286
 30
0.0
 41
1.2
 42
1.2
 43
1.2
  0
MTEXT
  5
16F
330
169
100
AcDbEntity
  8
DIM
 62
     2
100
AcDbMText
 10
725.132385
 20
489.280036
 30
0.0
 40
3.5
 41
0.0
 71
     5
 72
     1
  1
\A1;29.6
  7
ISO_FINDER
  0
POINT
  5
170
330
169
100
AcDbEntity
  8
DEFPOINTS
 62
     0
100
AcDbPoint
 10
710.332418
 20
455.878417
 30
0.0
  0
POINT
  5
171
330
169
100
AcDbEntity
  8
DEFPOINTS
 62
     0
100
AcDbPoint
 10
739.932399
 20
449.578417
 30
0.0
  0
POINT
  5
172
330
169
100
AcDbEntity
  8
DEFPOINTS
 62
     0
100
AcDbPoint
 10
739.932399
 20
485.743286
 30
0.0
  0
ENDBLK
  5
174
330
169
100
AcDbEntity
  8
0
100
AcDbBlockEnd
  0
BLOCK
  5
180
330
176
100
AcDbEntity
  8
0
100
AcDbBlockBegin
  2
*D8
 70
     1
 71
     0
 10
0.0
 20
0.0
 30
0.0
  3
*D8
  1

  0
LINE
  5
177
330
176
100
AcDbEntity
  8
DIM
  6
CONTINUOUS
 62
     3
100
AcDbLine
 10
768.603436
 20
477.578417
 30
0.0
 11
782.224548
 21
477.578417
 31
0.0
  0
LINE
  5
178
330
176
100
AcDbEntity
  8
DIM
  6
CONTINUOUS
 62
     3
100
AcDbLine
 10
768.347788
 20
449.078417
 30
0.0
 11
782.224548
 21
449.078417
 31
0.0
  0
LINE
  5
179
330
176
100
AcDbEntity
  8
DIM
  6
CONTINUOUS
 62
     3
100
AcDbLine
 10
780.474548
 20
476.378417
 30
0.0
 11
780.474548
 21
450.278417
 31
0.0
  0
INSERT
  5
17A
330
176
100
AcDbEntity
  8
DIM
 62
     3
100
AcDbBlockReference
  2
_CLOSED
 10
780.474548
 20
477.578417
 30
0.0
 41
1.2
 42
1.2
 43
1.2
 50
90.0
  0
INSERT
  5
17B
330
176
100
AcDbEntity
  8
DIM
 62
     3
100
AcDbBlockReference
  2
_CLOSED
 10
780.474548
 20
449.078417
 30
0.0
 41
1.2
 42
1.2
 43
1.2
 50
270.0
  0
MTEXT
  5
17C
330
176
100
AcDbEntity
  8
DIM
 62
     2
100
AcDbMText
 10
776.937798
 20
463.3284
 30
0.0
 40
3.5
 41
0.0
 71
     5
 72
     1
  1
\A1;28.5
  7
ISO_FINDER
 11
0.0
 21
1.0
 31
0.0
  0
POINT
  5
17D
330
176
100
AcDbEntity
  8
DEFPOINTS
 62
     0
100
AcDbPoint
 10
767.553436
 20
477.578417
 30
0.0
  0
POINT
  5
17E
330
176
100
AcDbEntity
  8
DEFPOINTS
 62
     0
100
AcDbPoint
 10
767.297788
 20
449.078417
 30
0.0
  0
POINT
  5
17F
330
176
100
AcDbEntity
  8
DEFPOINTS
 62
     0
100
AcDbPoint
 10
780.474548
 20
449.078417
 30
0.0
  0
ENDBLK
  5
181
330
176
100
AcDbEntity
  8
0
100
AcDbBlockEnd
  0
BLOCK
  5
18F
330
183
100
AcDbEntity
  8
0
100
AcDbBlockBegin
  2
*D9
 70
     1
 71
     0
 10
0.0
 20
0.0
 30
0.0
  3
*D9
  1

  0
LINE
  5
184
330
183
100
AcDbEntity
  8
DIM
  6
CONTINUOUS
 62
     3
100
AcDbLine
 10
768.347788
 20
449.078417
 30
0.0
 11
782.224548
 21
449.078417
 31
0.0
  0
LINE
  5
185
330
183
100
AcDbEntity
  8
DIM
  6
CONTINUOUS
 62
     3
100
AcDbLine
 10
766.747788
 20
445.078418
 30
0.0
 11
782.224548
 21
445.078418
 31
0.0
  0
LINE
  5
186
330
183
100
AcDbEntity
  8
DIM
  6
CONTINUOUS
 62
     3
100
AcDbLine
 10
780.474548
 20
445.078418
 30
0.0
 11
780.474548
 21
437.221658
 31
0.0
  0
LINE
  5
187
330
183
100
AcDbEntity
  8
DIM
  6
CONTINUOUS
 62
     3
100
AcDbLine
 10
780.474548
 20
450.278417
 30
0.0
 11
780.474548
 21
451.478417
 31
0.0
  0
LINE
  5
188
330
183
100
AcDbEntity
  8
DIM
  6
CONTINUOUS
 62
     3
100
AcDbLine
 10
780.474548
 20
443.878418
 30
0.0
 11
780.474548
 21
442.678418
 31
0.0
  0
INSERT
  5
189
330
183
100
AcDbEntity
  8
DIM
 62
     3
100
AcDbBlockReference
  2
_CLOSED
 10
780.474548
 20
449.078417
 30
0.0
 41
1.2
 42
1.2
 43
1.2
 50
270.0
  0
INSERT
  5
18A
330
183
100
AcDbEntity
  8
DIM
 62
     3
100
AcDbBlockReference
  2
_CLOSED
 10
780.474548
 20
445.078418
 30
0.0
 41
1.2
 42
1.2
 43
1.2
 50
90.0
  0
MTEXT
  5
18B
330
183
100
AcDbEntity
  8
DIM
 62
     2
100
AcDbMText
 10
776.974548
 20
440.180908
 30
0.0
 40
3.5
 41
0.0
 71
     5
 72
     1
  1
\A1;4
  7
ISO_FINDER
 11
0.0
 21
1.0
 31
0.0
  0
POINT
  5
18C
330
183
100
AcDbEntity
  8
DEFPOINTS
 62
     0
100
AcDbPoint
 10
767.297788
 20
449.078417
 30
0.0
  0
POINT
  5
18D
330
183
100
AcDbEntity
  8
DEFPOINTS
 62
     0
100
AcDbPoint
 10
765.697788
 20
445.078418
 30
0.0
  0
POINT
  5
18E
330
183
100
AcDbEntity
  8
DEFPOINTS
 62
     0
100
AcDbPoint
 10
780.474548
 20
445.078418
 30
0.0
  0
ENDBLK
  5
190
330
183
100
AcDbEntity
  8
0
100
AcDbBlockEnd
  0
BLOCK
  5
19E
330
192
100
AcDbEntity
  8
0
100
AcDbBlockBegin
  2
*D10
 70
     1
 71
     0
 10
0.0
 20
0.0
 30
0.0
  3
*D10
  1

  0
LINE
  5
193
330
192
100
AcDbEntity
  8
DIM
  6
CONTINUOUS
 62
     3
100
AcDbLine
 10
757.397788
 20
444.028418
 30
0.0
 11
757.397788
 21
432.990021
 31
0.0
  0
LINE
  5
194
330
192
100
AcDbEntity
  8
DIM
  6
CONTINUOUS
 62
     3
100
AcDbLine
 10
758.197788
 20
444.028418
 30
0.0
 11
758.197788
 21
432.990021
 31
0.0
  0
LINE
  5
195
330
192
100
AcDbEntity
  8
DIM
  6
CONTINUOUS
 62
     3
100
AcDbLine
 10
757.397788
 20
434.740021
 30
0.0
 11
745.56856
 21
434.740021
 31
0.0
  0
LINE
  5
196
330
192
100
AcDbEntity
  8
DIM
  6
CONTINUOUS
 62
     3
100
AcDbLine
 10
756.197788
 20
434.740021
 30
0.0
 11
754.997788
 21
434.740021
 31
0.0
  0
LINE
  5
197
330
192
100
AcDbEntity
  8
DIM
  6
CONTINUOUS
 62
     3
100
AcDbLine
 10
759.397788
 20
434.740021
 30
0.0
 11
760.597788
 21
434.740021
 31
0.0
  0
INSERT
  5
198
330
192
100
AcDbEntity
  8
DIM
 62
     3
100
AcDbBlockReference
  2
_CLOSED
 10
757.397788
 20
434.740021
 30
0.0
 41
1.2
 42
1.2
 43
1.2
  0
INSERT
  5
199
330
192
100
AcDbEntity
  8
DIM
 62
     3
100
AcDbBlockReference
  2
_CLOSED
 10
758.197788
 20
434.740021
 30
0.0
 41
1.2
 42
1.2
 43
1.2
 50
180.0
  0
MTEXT
  5
19A
330
192
100
AcDbEntity
  8
DIM
 62
     2
100
AcDbMText
 10
750.50531
 20
438.276771
 30
0.0
 40
3.5
 41
0.0
 71
     5
 72
     1
  1
\A1;0.8
  7
ISO_FINDER
  0
POINT
  5
19B
330
192
100
AcDbEntity
  8
DEFPOINTS
 62
     0
100
AcDbPoint
 10
757.397788
 20
445.078418
 30
0.0
  0
POINT
  5
19C
330
192
100
AcDbEntity
  8
DEFPOINTS
 62
     0
100
AcDbPoint
 10
758.197788
 20
445.078418
 30
0.0
  0
POINT
  5
19D
330
192
100
AcDbEntity
  8
DEFPOINTS
 62
     0
100
AcDbPoint
 10
758.197788
 20
434.740021
 30
0.0
  0
ENDBLK
  5
19F
330
192
100
AcDbEntity
  8
0
100
AcDbBlockEnd
  0
BLOCK
  5
1AD
330
1A1
100
AcDbEntity
  8
0
100
AcDbBlockBegin
  2
*D11
 70
     1
 71
     0
 10
0.0
 20
0.0
 30
0.0
  3
*D11
  1

  0
LINE
  5
1A2
330
1A1
100
AcDbEntity
  8
0
  6
CONTINUOUS
 62
     3
100
AcDbLine
 10
711.732399
 20
444.528417
 30
0.0
 11
711.732399
 21
432.990021
 31
0.0
  0
LINE
  5
1A3
330
1A1
100
AcDbEntity
  8
0
  6
CONTINUOUS
 62
     3
100
AcDbLine
 10
712.732399
 20
444.528417
 30
0.0
 11
712.732399
 21
432.990021
 31
0.0
  0
LINE
  5
1A4
330
1A1
100
AcDbEntity
  8
0
  6
CONTINUOUS
 62
     3
100
AcDbLine
 10
711.732399
 20
434.740021
 30
0.0
 11
704.440839
 21
434.740021
 31
0.0
  0
LINE
  5
1A5
330
1A1
100
AcDbEntity
  8
0
  6
CONTINUOUS
 62
     3
100
AcDbLine
 10
710.532399
 20
434.740021
 30
0.0
 11
709.332399
 21
434.740021
 31
0.0
  0
LINE
  5
1A6
330
1A1
100
AcDbEntity
  8
0
  6
CONTINUOUS
 62
     3
100
AcDbLine
 10
713.932399
 20
434.740021
 30
0.0
 11
715.132399
 21
434.740021
 31
0.0
  0
INSERT
  5
1A7
330
1A1
100
AcDbEntity
  8
0
 62
     3
100
AcDbBlockReference
  2
_CLOSED
 10
711.732399
 20
434.740021
 30
0.0
 41
1.2
 42
1.2
 43
1.2
  0
INSERT
  5
1A8
330
1A1
100
AcDbEntity
  8
0
 62
     3
100
AcDbBlockReference
  2
_CLOSED
 10
712.732399
 20
434.740021
 30
0.0
 41
1.2
 42
1.2
 43
1.2
 50
180.0
  0
MTEXT
  5
1A9
330
1A1
100
AcDbEntity
  8
0
 62
     2
100
AcDbMText
 10
706.834839
 20
438.247021
 30
0.0
 40
3.5
 41
0.0
 71
     5
 72
     1
  1
\A1;1
  7
ISO_FINDER
  0
POINT
  5
1AA
330
1A1
100
AcDbEntity
  8
DEFPOINTS
 62
     0
100
AcDbPoint
 10
711.732399
 20
445.578417
 30
0.0
  0
POINT
  5
1AB
330
1A1
100
AcDbEntity
  8
DEFPOINTS
 62
     0
100
AcDbPoint
 10
712.732399
 20
445.578417
 30
0.0
  0
POINT
  5
1AC
330
1A1
100
AcDbEntity
  8
DEFPOINTS
 62
     0
100
AcDbPoint
 10
712.732399
 20
434.740021
 30
0.0
  0
ENDBLK
  5
1AE
330
1A1
100
AcDbEntity
  8
0
100
AcDbBlockEnd
  0
ENDSEC
  0
SECTION
  2
ENTITIES
  0
LINE
  5
6A
330
1F
100
AcDbEntity
  8
CARTOUCHE
  6
CONTINUOUS
 62
     7
100
AcDbLine
 10
842.469092
 20
304.348236
 30
0.0
 11
642.469055
 21
304.348511
 31
0.0
  0
LINE
  5
6B
330
1F
100
AcDbEntity
  8
CARTOUCHE
  6
CONTINUOUS
 62
     7
100
AcDbLine
 10
687.469056
 20
331.192836
 30
0.0
 11
687.469056
 21
299.347484
 31
0.0
  0
TEXT
  5
6C
330
1F
100
AcDbEntity
  8
CARTOUCHE
  6
CONTINUOUS
 62
     7
100
AcDbText
 10
757.191467
 20
326.783417
 30
0.0
 40
1.8
  1
PRODUCT TYPE
 50
359.999908
 41
0.31
  7
FINDER
100
AcDbText
  0
TEXT
  5
6D
330
1F
100
AcDbEntity
  8
CARTOUCHE
  6
CONTINUOUS
 62
     2
100
AcDbText
 10
656.963013
 20
300.948425
 30
0.0
 40
1.8
  1
MOD. UT 902
 50
359.999908
 41
0.48
  7
FINDER
100
AcDbText
  0
LINE
  5
6E
330
1F
100
AcDbEntity
  8
CARTOUCHE
  6
CONTINUOUS
 62
     7
100
AcDbLine
 10
842.469063
 20
314.350251
 30
0.0
 11
687.469028
 21
314.350488
 31
0.0
  0
TEXT
  5
6F
330
1F
100
AcDbEntity
  8
CARTOUCHE
  6
CONTINUOUS
 62
     7
100
AcDbText
 10
710.963135
 20
310.971741
 30
0.0
 40
1.8
  1
REV.
 50
359.999908
 41
0.52
  7
FINDER
100
AcDbText
  0
LINE
  5
70
330
1F
100
AcDbEntity
  8
CARTOUCHE
  6
CONTINUOUS
 62
     7
100
AcDbLine
 10
739.135706
 20
314.350409
 30
0.0
 11
739.135706
 21
304.348467
 31
0.0
  0
LINE
  5
71
330
1F
100
AcDbEntity
  8
CARTOUCHE
  6
CONTINUOUS
 62
     4
100
AcDbLine
 10
649.831978
 20
322.002928
 30
0.0
 11
649.831978
 21
316.157637
 31
0.0
  0
LINE
  5
72
330
1F
100
AcDbEntity
  8
CARTOUCHE
  6
CONTINUOUS
 62
     4
100
AcDbLine
 10
649.831978
 20
316.157637
 30
0.0
 11
648.356878
 21
317.758287
 31
0.0
  0
LINE
  5
73
330
1F
100
AcDbEntity
  8
CARTOUCHE
  6
CONTINUOUS
 62
     4
100
AcDbLine
 10
648.356878
 20
317.758287
 30
0.0
 11
648.585478
 21
317.758287
 31
0.0
  0
LINE
  5
74
330
1F
100
AcDbEntity
  8
CARTOUCHE
  6
CONTINUOUS
 62
     4
100
AcDbLine
 10
648.882928
 20
318.113957
 30
0.0
 11
648.882928
 21
322.000064
 31
0.0
  0
LINE
  5
75
330
1F
100
AcDbEntity
  8
CARTOUCHE
  6
CONTINUOUS
 62
     4
100
AcDbLine
 10
647.933878
 20
321.746949
 30
0.0
 11
647.933878
 21
318.776187
 31
0.0
  0
LINE
  5
76
330
1F
100
AcDbEntity
  8
CARTOUCHE
  6
CONTINUOUS
 62
     4
100
AcDbLine
 10
647.933878
 20
318.776187
 30
0.0
 11
645.643831
 21
318.776187
 31
0.0
  0
LINE
  5
77
330
1F
100
AcDbEntity
  8
CARTOUCHE
  6
CONTINUOUS
 62
     4
100
AcDbLine
 10
645.645368
 20
317.758287
 30
0.0
 11
646.847578
 21
317.758287
 31
0.0
  0
LINE
  5
78
330
1F
100
AcDbEntity
  8
CARTOUCHE
  6
CONTINUOUS
 62
     4
100
AcDbLine
 10
646.847578
 20
317.758287
 30
0.0
 11
649.642754
 21
315.015771
 31
0.0
  0
LINE
  5
79
330
1F
100
AcDbEntity
  8
CARTOUCHE
  6
CONTINUOUS
 62
     4
100
AcDbLine
 10
650.792278
 20
315.517287
 30
0.0
 11
650.792278
 21
318.855837
 31
0.0
  0
LINE
  5
7A
330
1F
100
AcDbEntity
  8
CARTOUCHE
  6
CONTINUOUS
 62
     4
100
AcDbLine
 10
650.792278
 20
318.855837
 30
0.0
 11
651.924478
 21
318.855837
 31
0.0
  0
LINE
  5
7B
330
1F
100
AcDbEntity
  8
CARTOUCHE
  6
CONTINUOUS
 62
     4
100
AcDbLine
 10
651.822711
 20
319.850787
 30
0.0
 11
650.792278
 21
319.850787
 31
0.0
  0
LINE
  5
7C
330
1F
100
AcDbEntity
  8
CARTOUCHE
  6
CONTINUOUS
 62
     4
100
AcDbLine
 10
650.792278
 20
319.850787
 30
0.0
 11
650.792278
 21
321.751577
 31
0.0
  0
LINE
  5
7D
330
1F
100
AcDbEntity
  8
CARTOUCHE
  6
CONTINUOUS
 62
     4
100
AcDbLine
 10
665.577478
 20
316.826477
 30
0.0
 11
665.577478
 21
314.979537
 31
0.0
  0
LINE
  5
7E
330
1F
100
AcDbEntity
  8
CARTOUCHE
  6
CONTINUOUS
 62
     4
100
AcDbLine
 10
665.577478
 20
314.979537
 30
0.0
 11
667.361278
 21
314.979537
 31
0.0
  0
LINE
  5
7F
330
1F
100
AcDbEntity
  8
CARTOUCHE
  6
CONTINUOUS
 62
     4
100
AcDbLine
 10
667.361278
 20
314.979537
 30
0.0
 11
667.361278
 21
317.671996
 31
0.0
  0
LINE
  5
80
330
1F
100
AcDbEntity
  8
CARTOUCHE
  6
CONTINUOUS
 62
     4
100
AcDbLine
 10
663.759028
 20
318.421587
 30
0.0
 11
663.759028
 21
318.855837
 31
0.0
  0
LINE
  5
81
330
1F
100
AcDbEntity
  8
CARTOUCHE
  6
CONTINUOUS
 62
     4
100
AcDbLine
 10
663.759028
 20
318.855837
 30
0.0
 11
661.963978
 21
318.855837
 31
0.0
  0
LINE
  5
82
330
1F
100
AcDbEntity
  8
CARTOUCHE
  6
CONTINUOUS
 62
     4
100
AcDbLine
 10
661.963978
 20
318.855837
 30
0.0
 11
661.963978
 21
314.979537
 31
0.0
  0
LINE
  5
83
330
1F
100
AcDbEntity
  8
CARTOUCHE
  6
CONTINUOUS
 62
     4
100
AcDbLine
 10
661.963978
 20
314.979537
 30
0.0
 11
663.759028
 21
314.979537
 31
0.0
  0
LINE
  5
84
330
1F
100
AcDbEntity
  8
CARTOUCHE
  6
CONTINUOUS
 62
     4
100
AcDbLine
 10
663.759028
 20
314.979537
 30
0.0
 11
663.759028
 21
316.780942
 31
0.0
  0
LINE
  5
85
330
1F
100
AcDbEntity
  8
CARTOUCHE
  6
CONTINUOUS
 62
     4
100
AcDbLine
 10
673.455628
 20
320.171187
 30
0.0
 11
673.455628
 21
314.968287
 31
0.0
  0
LINE
  5
86
330
1F
100
AcDbEntity
  8
CARTOUCHE
  6
CONTINUOUS
 62
     4
100
AcDbLine
 10
673.455628
 20
314.968287
 30
0.0
 11
671.660578
 21
314.968287
 31
0.0
  0
LINE
  5
87
330
1F
100
AcDbEntity
  8
CARTOUCHE
  6
CONTINUOUS
 62
     4
100
AcDbLine
 10
671.660578
 20
318.667347
 30
0.0
 11
671.660578
 21
320.171187
 31
0.0
  0
LINE
  5
88
330
1F
100
AcDbEntity
  8
CARTOUCHE
  6
CONTINUOUS
 62
     4
100
AcDbLine
 10
671.660578
 20
320.171187
 30
0.0
 11
673.455628
 21
320.171187
 31
0.0
  0
LINE
  5
89
330
1F
100
AcDbEntity
  8
CARTOUCHE
  6
CONTINUOUS
 62
     4
100
AcDbLine
 10
680.202028
 20
318.855837
 30
0.0
 11
681.928678
 21
318.855837
 31
0.0
  0
LINE
  5
8A
330
1F
100
AcDbEntity
  8
CARTOUCHE
  6
CONTINUOUS
 62
     4
100
AcDbLine
 10
681.928678
 20
318.855837
 30
0.0
 11
681.928678
 21
318.512937
 31
0.0
  0
LINE
  5
8B
330
1F
100
AcDbEntity
  8
CARTOUCHE
  6
CONTINUOUS
 62
     4
100
AcDbLine
 10
684.752878
 20
316.935237
 30
0.0
 11
682.923628
 21
316.935237
 31
0.0
  0
LINE
  5
8C
330
1F
100
AcDbEntity
  8
CARTOUCHE
  6
CONTINUOUS
 62
     4
100
AcDbLine
 10
682.923628
 20
316.935237
 30
0.0
 11
682.923628
 21
317.175087
 31
0.0
  0
LINE
  5
8D
330
1F
100
AcDbEntity
  8
CARTOUCHE
  6
CONTINUOUS
 62
     4
100
AcDbLine
 10
681.928678
 20
317.129637
 30
0.0
 11
681.928678
 21
314.979537
 31
0.0
  0
LINE
  5
8E
330
1F
100
AcDbEntity
  8
CARTOUCHE
  6
CONTINUOUS
 62
     4
100
AcDbLine
 10
681.928678
 20
314.979537
 30
0.0
 11
680.202028
 21
314.979537
 31
0.0
  0
LINE
  5
8F
330
1F
100
AcDbEntity
  8
CARTOUCHE
  6
CONTINUOUS
 62
     4
100
AcDbLine
 10
680.202028
 20
314.979537
 30
0.0
 11
680.202028
 21
318.855837
 31
0.0
  0
LINE
  5
90
330
1F
100
AcDbEntity
  8
CARTOUCHE
  6
CONTINUOUS
 62
     4
100
AcDbLine
 10
676.623178
 20
316.591887
 30
0.0
 11
676.520128
 21
316.591887
 31
0.0
  0
LINE
  5
91
330
1F
100
AcDbEntity
  8
CARTOUCHE
  6
CONTINUOUS
 62
     4
100
AcDbLine
 10
676.520128
 20
316.591887
 30
0.0
 11
675.833878
 21
316.591887
 31
0.0
  0
LINE
  5
92
330
1F
100
AcDbEntity
  8
CARTOUCHE
  6
CONTINUOUS
 62
     4
100
AcDbLine
 10
677.812078
 20
316.203087
 30
0.0
 11
679.572928
 21
316.203087
 31
0.0
  0
LINE
  5
93
330
1F
100
AcDbEntity
  8
CARTOUCHE
  6
CONTINUOUS
 62
     4
100
AcDbLine
 10
679.675978
 20
316.603587
 30
0.0
 11
676.623178
 21
316.591887
 31
0.0
  0
LINE
  5
94
330
1F
100
AcDbEntity
  8
CARTOUCHE
  6
CONTINUOUS
 62
     4
100
AcDbLine
 10
676.623178
 20
317.426637
 30
0.0
 11
677.812078
 21
317.426637
 31
0.0
  0
LINE
  5
95
330
1F
100
AcDbEntity
  8
CARTOUCHE
  6
CONTINUOUS
 62
     4
100
AcDbLine
 10
675.833878
 20
317.426637
 30
0.0
 11
676.623178
 21
317.426637
 31
0.0
  0
LINE
  5
96
330
1F
100
AcDbEntity
  8
CARTOUCHE
  6
CONTINUOUS
 62
     4
100
AcDbLine
 10
658.556578
 20
319.279287
 30
0.0
 11
658.556578
 21
320.182437
 31
0.0
  0
LINE
  5
97
330
1F
100
AcDbEntity
  8
CARTOUCHE
  6
CONTINUOUS
 62
     4
100
AcDbLine
 10
658.556578
 20
320.182437
 30
0.0
 11
657.058528
 21
320.182437
 31
0.0
  0
LINE
  5
98
330
1F
100
AcDbEntity
  8
CARTOUCHE
  6
CONTINUOUS
 62
     4
100
AcDbLine
 10
656.143678
 20
319.279287
 30
0.0
 11
656.143678
 21
318.855837
 31
0.0
  0
LINE
  5
99
330
1F
100
AcDbEntity
  8
CARTOUCHE
  6
CONTINUOUS
 62
     4
100
AcDbLine
 10
656.143678
 20
318.855837
 30
0.0
 11
655.606378
 21
318.855837
 31
0.0
  0
LINE
  5
9A
330
1F
100
AcDbEntity
  8
CARTOUCHE
  6
CONTINUOUS
 62
     4
100
AcDbLine
 10
655.606378
 20
318.855837
 30
0.0
 11
655.606378
 21
317.758287
 31
0.0
  0
LINE
  5
9B
330
1F
100
AcDbEntity
  8
CARTOUCHE
  6
CONTINUOUS
 62
     4
100
AcDbLine
 10
655.606378
 20
317.758287
 30
0.0
 11
656.143678
 21
317.758287
 31
0.0
  0
LINE
  5
9C
330
1F
100
AcDbEntity
  8
CARTOUCHE
  6
CONTINUOUS
 62
     4
100
AcDbLine
 10
656.143678
 20
317.758287
 30
0.0
 11
656.143678
 21
314.979537
 31
0.0
  0
LINE
  5
9D
330
1F
100
AcDbEntity
  8
CARTOUCHE
  6
CONTINUOUS
 62
     4
100
AcDbLine
 10
656.143678
 20
314.979537
 30
0.0
 11
657.939178
 21
314.979537
 31
0.0
  0
LINE
  5
9E
330
1F
100
AcDbEntity
  8
CARTOUCHE
  6
CONTINUOUS
 62
     4
100
AcDbLine
 10
657.939178
 20
314.979537
 30
0.0
 11
657.939178
 21
317.758287
 31
0.0
  0
LINE
  5
9F
330
1F
100
AcDbEntity
  8
CARTOUCHE
  6
CONTINUOUS
 62
     4
100
AcDbLine
 10
657.939178
 20
317.758287
 30
0.0
 11
658.556578
 21
317.758287
 31
0.0
  0
LINE
  5
A0
330
1F
100
AcDbEntity
  8
CARTOUCHE
  6
CONTINUOUS
 62
     4
100
AcDbLine
 10
658.556578
 20
317.758287
 30
0.0
 11
658.556578
 21
318.855837
 31
0.0
  0
LINE
  5
A1
330
1F
100
AcDbEntity
  8
CARTOUCHE
  6
CONTINUOUS
 62
     4
100
AcDbLine
 10
658.556578
 20
318.855837
 30
0.0
 11
657.882028
 21
318.855837
 31
0.0
  0
LINE
  5
A2
330
1F
100
AcDbEntity
  8
CARTOUCHE
  6
CONTINUOUS
 62
     4
100
AcDbLine
 10
657.882028
 20
318.855837
 30
0.0
 11
657.930134
 21
319.116065
 31
0.0
  0
LINE
  5
A3
330
1F
100
AcDbEntity
  8
CARTOUCHE
  6
CONTINUOUS
 62
     4
100
AcDbLine
 10
658.148108
 20
319.279287
 30
0.0
 11
658.556578
 21
319.279287
 31
0.0
  0
LINE
  5
A4
330
1F
100
AcDbEntity
  8
CARTOUCHE
  6
CONTINUOUS
 62
     4
100
AcDbLine
 10
659.277028
 20
314.979537
 30
0.0
 11
659.277028
 21
318.855837
 31
0.0
  0
LINE
  5
A5
330
1F
100
AcDbEntity
  8
CARTOUCHE
  6
CONTINUOUS
 62
     4
100
AcDbLine
 10
659.277028
 20
318.855837
 30
0.0
 11
661.095028
 21
318.855837
 31
0.0
  0
LINE
  5
A6
330
1F
100
AcDbEntity
  8
CARTOUCHE
  6
CONTINUOUS
 62
     4
100
AcDbLine
 10
661.095028
 20
318.855837
 30
0.0
 11
661.095028
 21
314.979537
 31
0.0
  0
LINE
  5
A7
330
1F
100
AcDbEntity
  8
CARTOUCHE
  6
CONTINUOUS
 62
     4
100
AcDbLine
 10
661.095028
 20
314.979537
 30
0.0
 11
659.277028
 21
314.979537
 31
0.0
  0
LINE
  5
A8
330
1F
100
AcDbEntity
  8
CARTOUCHE
  6
CONTINUOUS
 62
     4
100
AcDbLine
 10
659.277028
 20
319.290537
 30
0.0
 11
659.277028
 21
320.182437
 31
0.0
  0
LINE
  5
A9
330
1F
100
AcDbEntity
  8
CARTOUCHE
  6
CONTINUOUS
 62
     4
100
AcDbLine
 10
659.277028
 20
320.182437
 30
0.0
 11
661.095028
 21
320.182437
 31
0.0
  0
LINE
  5
AA
330
1F
100
AcDbEntity
  8
CARTOUCHE
  6
CONTINUOUS
 62
     4
100
AcDbLine
 10
661.095028
 20
320.182437
 30
0.0
 11
661.095028
 21
319.290537
 31
0.0
  0
LINE
  5
AB
330
1F
100
AcDbEntity
  8
CARTOUCHE
  6
CONTINUOUS
 62
     4
100
AcDbLine
 10
661.095028
 20
319.290537
 30
0.0
 11
659.277028
 21
319.290537
 31
0.0
  0
ARC
  5
AC
330
1F
100
AcDbEntity
  8
CARTOUCHE
  6
CONTINUOUS
 62
     4
100
AcDbCircle
 10
657.049314
 20
319.276844
 30
0.0
 40
0.905639
100
AcDbArc
 50
90.0
 51
180.0
  0
ARC
  5
AD
330
1F
100
AcDbEntity
  8
CARTOUCHE
  6
CONTINUOUS
 62
     4
100
AcDbCircle
 10
658.175043
 20
319.016159
 30
0.0
 40
0.264503
100
AcDbArc
 50
95.844673
 51
157.807812
  0
ARC
  5
AE
330
1F
100
AcDbEntity
  8
CARTOUCHE
  6
CONTINUOUS
 62
     4
100
AcDbCircle
 10
666.144083
 20
317.612316
 30
0.0
 40
1.218658
100
AcDbArc
 50
2.806997
 51
66.545781
  0
ARC
  5
AF
330
1F
100
AcDbEntity
  8
CARTOUCHE
  6
CONTINUOUS
 62
     4
100
AcDbCircle
 10
665.536458
 20
315.392704
 30
0.0
 40
3.511892
100
AcDbArc
 50
71.872392
 51
120.405557
  0
ARC
  5
B0
330
1F
100
AcDbEntity
  8
CARTOUCHE
  6
CONTINUOUS
 62
     4
100
AcDbCircle
 10
664.926379
 20
316.826477
 30
0.0
 40
0.6511239999999999
100
AcDbArc
 50
0.0
 51
97.150683
  0
ARC
  5
B1
330
1F
100
AcDbEntity
  8
CARTOUCHE
  6
CONTINUOUS
 62
     4
100
AcDbCircle
 10
664.912865
 20
316.167522
 30
0.0
 40
1.306761
100
AcDbArc
 50
92.962513
 51
152.003324
  0
CIRCLE
  5
B2
330
1F
100
AcDbEntity
  8
CARTOUCHE
  6
CONTINUOUS
 62
     4
100
AcDbCircle
 10
649.368701
 20
318.272865
 30
0.0
 40
4.756723
  0
ARC
  5
B3
330
1F
100
AcDbEntity
  8
CARTOUCHE
  6
CONTINUOUS
 62
     4
100
AcDbCircle
 10
649.368706
 20
318.27286
 30
0.0
 40
3.758726999999999
100
AcDbArc
 50
112.441032
 51
172.30447
  0
ARC
  5
B4
330
1F
100
AcDbEntity
  8
CARTOUCHE
  6
CONTINUOUS
 62
     4
100
AcDbCircle
 10
649.368706
 20
318.27286
 30
0.0
 40
3.758726999999999
100
AcDbArc
 50
82.920154
 51
97.425676
  0
ARC
  5
B5
330
1F
100
AcDbEntity
  8
CARTOUCHE
  6
CONTINUOUS
 62
     4
100
AcDbCircle
 10
649.368706
 20
318.27286
 30
0.0
 40
3.758726999999999
100
AcDbArc
 50
187.868554
 51
67.744476
  0
SPLINE
  5
B6
330
1F
100
AcDbEntity
  8
CARTOUCHE
  6
CONTINUOUS
 62
     4
100
AcDbSpline
210
0.0
220
0.0
230
1.0
 70
     8
 71
     3
 72
    36
 73
    32
 74
     0
 42
0.0
 43
0.0
 40
0.0
 40
0.0
 40
0.0
 40
0.0
 40
0.1780767830136681
 40
0.3550421473332519
 40
0.5343453484092107
 40
0.7146565399102438
 40
1.070969665796742
 40
1.425797276482803
 40
1.782601621641158
 40
2.138604507529012
 40
2.49466569435076
 40
2.851054992366517
 40
3.206893612592711
 40
3.563376496270242
 40
3.919394399374821
 40
4.275489906300406
 40
4.631810709934303
 40
4.987969559364684
 40
5.344082118601289
 40
5.700399378588026
 40
6.056403899471826
 40
6.412686420078557
 40
6.768554714070927
 40
7.124994803535126
 40
7.480919478161396
 40
7.837065786048822
 40
8.193227339653799
 40
8.54915435091597
 40
8.90592851958123
 40
9.261828936493904
 40
9.970559377486843
 40
9.970559377486843
 40
9.970559377486843
 40
9.970559377486843
 10
671.6605781519937
 20
318.6673468240849
 30
0.0
 10
671.6161363214507
 20
318.7066966143291
 30
0.0
 10
671.5212261914992
 20
318.7791781931712
 30
0.0
 10
671.3560800377077
 20
318.8497101907576
 30
0.0
 10
671.1821064913435
 20
318.8923992963803
 30
0.0
 10
670.9474036322259
 20
318.9354253234109
 30
0.0
 10
670.6542363459604
 20
318.9854498223763
 30
0.0
 10
670.2980516436293
 20
319.0068117684026
 30
0.0
 10
669.9423219006015
 20
318.9936564732338
 30
0.0
 10
669.5866300930805
 20
318.9598713699893
 30
0.0
 10
669.242047179772
 20
318.8630135764863
 30
0.0
 10
668.9165538178357
 20
318.7140492552908
 30
0.0
 10
668.6268121190502
 20
318.5031207003723
 30
0.0
 10
668.3751499402927
 20
318.2494894121211
 30
0.0
 10
668.1635563582589
 20
317.9609109906351
 30
0.0
 10
668.0076809878022
 20
317.6383386602213
 30
0.0
 10
667.911831991445
 20
317.2936755780063
 30
0.0
 10
667.8742140487896
 20
316.9371231791538
 30
0.0
 10
667.9125784599229
 20
316.5809606930263
 30
0.0
 10
668.0021436040716
 20
316.2349313530118
 30
0.0
 10
668.1506336681234
 20
315.9089275145706
 30
0.0
 10
668.3582320165319
 20
315.616637159376
 30
0.0
 10
668.6212679507051
 20
315.3732015877478
 30
0.0
 10
668.9199803689783
 20
315.1771772526586
 30
0.0
 10
669.2452139616672
 20
315.0274690736513
 30
0.0
 10
669.5936534059
 20
314.9442513265091
 30
0.0
 10
669.949417284016
 20
314.9166570142923
 30
0.0
 10
670.3057746155927
 20
314.9162460125943
 30
0.0
 10
670.6619420893551
 20
314.9284027413693
 30
0.0
 10
671.1332459934927
 20
314.9854134439938
 30
0.0
 10
671.4689870654645
 20
315.1360696013463
 30
0.0
 10
671.6605781519937
 20
315.2742862340698
 30
0.0
  0
SPLINE
  5
B7
330
1F
100
AcDbEntity
  8
CARTOUCHE
  6
CONTINUOUS
 62
     4
100
AcDbSpline
210
0.0
220
0.0
230
1.0
 70
     8
 71
     3
 72
    32
 73
    28
 74
     0
 42
0.0
 43
0.0
 40
0.0
 40
0.0
 40
0.0
 40
0.0
 40
0.1932877580521157
 40
0.3866798787325882
 40
0.5800722507134989
 40
0.772333729456475
 40
0.9658523902015596
 40
1.159368918637214
 40
1.351212480188304
 40
1.544294116240268
 40
1.738458877748041
 40
1.931765051105017
 40
2.315248221342022
 40
2.698534908932237
 40
2.891497325006418
 40
3.086240061673468
 40
3.27934698460621
 40
3.47149554917474
 40
3.665362297658928
 40
3.858867169137038
 40
4.051425425593017
 40
4.244517993884933
 40
4.62904839620363
 40
4.822527042047698
 40
5.015999172173861
 40
5.208857197714148
 40
5.402321103694231
 40
5.402321103694231
 40
5.402321103694231
 40
5.402321103694231
 10
671.6605781519937
 20
317.1066862340698
 30
0.0
 10
671.651937609779
 20
317.1705334707497
 30
0.0
 10
671.6160444280736
 20
317.296673621878
 30
0.0
 10
671.5076855117826
 20
317.460401594133
 30
0.0
 10
671.357141109993
 20
317.5849481786511
 30
0.0
 10
671.1829575441409
 20
317.6709388208088
 30
0.0
 10
670.9985779458297
 20
317.7291094920497
 30
0.0
 10
670.8119599709237
 20
317.7787020905203
 30
0.0
 10
670.6191135431245
 20
317.8008992341541
 30
0.0
 10
670.4258204593452
 20
317.7793668543237
 30
0.0
 10
670.2396151388544
 20
317.7233289432757
 30
0.0
 10
670.0091106066833
 20
317.606721515103
 30
0.0
 10
669.7733749737415
 20
317.3763989594818
 30
0.0
 10
669.6682374231317
 20
317.0515511496025
 30
0.0
 10
669.7246641764762
 20
316.7960761741438
 30
0.0
 10
669.8145834449733
 20
316.6228279874538
 30
0.0
 10
669.9421761021916
 20
316.4747482100104
 30
0.0
 10
670.1038853320023
 20
316.365738880594
 30
0.0
 10
670.2833151160855
 20
316.2921693611588
 30
0.0
 10
670.4704980732068
 20
316.2418572695793
 30
0.0
 10
670.6633371928151
 20
316.2204857055779
 30
0.0
 10
670.9205421718942
 20
316.2367905263598
 30
0.0
 10
671.1702518661815
 20
316.3200718142165
 30
0.0
 10
671.3856078187952
 20
316.4620035291221
 30
0.0
 10
671.5274155421793
 20
316.5960280614537
 30
0.0
 10
671.6254526535712
 20
316.7660321358068
 30
0.0
 10
671.6546374476044
 20
316.8935224806111
 30
0.0
 10
671.6605781519937
 20
316.9577362340698
 30
0.0
  0
LINE
  5
B8
330
1F
100
AcDbEntity
  8
CARTOUCHE
  6
CONTINUOUS
 62
     4
100
AcDbLine
 10
671.660578
 20
316.957737
 30
0.0
 11
671.660578
 21
317.106687
 31
0.0
  0
LINE
  5
B9
330
1F
100
AcDbEntity
  8
CARTOUCHE
  6
CONTINUOUS
 62
     4
100
AcDbLine
 10
671.660578
 20
314.968287
 30
0.0
 11
671.660578
 21
315.274287
 31
0.0
  0
SPLINE
  5
BA
330
1F
100
AcDbEntity
  8
CARTOUCHE
  6
CONTINUOUS
 62
     4
100
AcDbSpline
210
0.0
220
0.0
230
1.0
 70
     8
 71
     3
 72
    46
 73
    42
 74
     0
 42
0.0
 43
0.0
 40
0.0
 40
0.0
 40
0.0
 40
0.0
 40
0.2811760796502946
 40
0.5640898973250563
 40
0.8489971748537003
 40
1.131205009177211
 40
1.693847543907711
 40
2.256883126992216
 40
2.539006962714905
 40
2.820697028678528
 40
3.102988717666821
 40
3.385255369055035
 40
3.948537474972731
 40
4.512595302147443
 40
5.076291358232316
 40
5.639939427570668
 40
6.203885740903808
 40
6.766738495431308
 40
7.329351108981915
 40
7.892323841237687
 40
8.455148665905549
 40
8.737355288896866
 40
9.018966908742904
 40
9.581781624582574
 40
9.86403908982524
 40
10.14660944492419
 40
10.42765695915669
 40
10.71044536711539
 40
11.27439772862129
 40
11.83782241902082
 40
12.40155022911231
 40
12.96488140450844
 40
13.53013698036285
 40
13.81230410617875
 40
14.09372936703951
 40
14.37575719238146
 40
14.65757020519361
 40
14.93943603583764
 40
15.22120144973325
 40
15.50299703910227
 40
15.78483944550847
 40
15.78483944550847
 40
15.78483944550847
 40
15.78483944550847
 10
679.6759781519937
 20
316.6035862340698
 30
0.0
 10
679.7010893827022
 20
316.693885011346
 30
0.0
 10
679.7324200198716
 20
316.8814361621
 30
0.0
 10
679.710551299307
 20
317.1654567395026
 30
0.0
 10
679.6474224111399
 20
317.4422775160091
 30
0.0
 10
679.5273062470843
 20
317.799569342317
 30
0.0
 10
679.2921211274788
 20
318.2146932117299
 30
0.0
 10
678.9368710712331
 20
318.5319769254813
 30
0.0
 10
678.6166658980047
 20
318.7294059184645
 30
0.0
 10
678.3580298047716
 20
318.8441009549361
 30
0.0
 10
678.0887481330474
 20
318.9291766621455
 30
0.0
 10
677.7233692168987
 20
319.0185684714567
 30
0.0
 10
677.2562246407654
 20
319.0823602153463
 30
0.0
 10
676.6919163348573
 20
319.0905888890529
 30
0.0
 10
676.1281751222642
 20
319.0552102183033
 30
0.0
 10
675.5733639559338
 20
318.9479976745972
 30
0.0
 10
675.0360884135989
 20
318.7671959486162
 30
0.0
 10
674.5603383277572
 20
318.4487672094969
 30
0.0
 10
674.210993180683
 20
317.996856411001
 30
0.0
 10
673.9916758581069
 20
317.4720937358773
 30
0.0
 10
673.9319165857772
 20
316.9998171537701
 30
0.0
 10
673.9680261586296
 20
316.6242163287378
 30
0.0
 10
674.0704396892734
 20
316.2619211992904
 30
0.0
 10
674.2309089390562
 20
315.9169821955752
 30
0.0
 10
674.4608994932072
 20
315.6187971380341
 30
0.0
 10
674.6531760135024
 20
315.4111724340836
 30
0.0
 10
674.8840453158391
 20
315.2455525973333
 30
0.0
 10
675.2213869266855
 20
315.0785226351038
 30
0.0
 10
675.6641093187997
 20
314.9137435874077
 30
0.0
 10
676.2213288984502
 20
314.8158970030941
 30
0.0
 10
676.7842186851187
 20
314.774305156739
 30
0.0
 10
677.3488398370337
 20
314.8005467926076
 30
0.0
 10
677.8154163927055
 20
314.8653751752701
 30
0.0
 10
678.1822243953901
 20
314.9510611006726
 30
0.0
 10
678.4492621107046
 20
315.0431991175053
 30
0.0
 10
678.7053952931594
 20
315.1608133351355
 30
0.0
 10
678.9566162231317
 20
315.2900213015531
 30
0.0
 10
679.1803661382992
 20
315.4652384061088
 30
0.0
 10
679.3611583778032
 20
315.6832169322494
 30
0.0
 10
679.5061084576381
 20
315.9271310058811
 30
0.0
 10
679.5578005056037
 20
316.1103647090121
 30
0.0
 10
679.5729281519936
 20
316.2030862340698
 30
0.0
  0
SPLINE
  5
BB
330
1F
100
AcDbEntity
  8
CARTOUCHE
  6
CONTINUOUS
 62
     4
100
AcDbSpline
210
0.0
220
0.0
230
1.0
 70
     8
 71
     3
 72
    15
 73
    11
 74
     0
 42
0.0
 43
0.0
 40
0.0
 40
0.0
 40
0.0
 40
0.0
 40
0.3371530624456519
 40
0.6743134103473634
 40
1.011742195803972
 40
1.348774234605689
 40
1.687275239821948
 40
1.856093664733061
 40
2.024672439731733
 40
2.36171424272068
 40
2.36171424272068
 40
2.36171424272068
 40
2.36171424272068
 10
675.8338781519936
 20
316.5918862340698
 30
0.0
 10
675.8549329972838
 20
316.4814917752088
 30
0.0
 10
675.9481437623048
 20
316.2646445573384
 30
0.0
 10
676.2233645603126
 20
316.0538918911361
 30
0.0
 10
676.5390419299712
 20
315.9292526266531
 30
0.0
 10
676.8744503549686
 20
315.8730052650246
 30
0.0
 10
677.158549872539
 20
315.8880679891533
 30
0.0
 10
677.3771821171624
 20
315.9463163717753
 30
0.0
 10
677.5823378903203
 20
316.0396680835412
 30
0.0
 10
677.7247828725158
 20
316.1323653550296
 30
0.0
 10
677.8120781519937
 20
316.2030862340698
 30
0.0
  0
SPLINE
  5
BC
330
1F
100
AcDbEntity
  8
CARTOUCHE
  6
CONTINUOUS
 62
     4
100
AcDbSpline
210
0.0
220
0.0
230
1.0
 70
     8
 71
     3
 72
    21
 73
    17
 74
     0
 42
0.0
 43
0.0
 40
0.0
 40
0.0
 40
0.0
 40
0.0
 40
0.1868562426648683
 40
0.3735753311188897
 40
0.561385244331366
 40
0.7484499710535985
 40
0.935589465646341
 40
1.123113048870195
 40
1.311429068188788
 40
1.500242837337344
 40
1.686444243009906
 40
1.873057665252351
 40
2.059520356870872
 40
2.246467921108977
 40
2.434628805645711
 40
2.621194974095634
 40
2.621194974095634
 40
2.621194974095634
 40
2.621194974095634
 10
677.8120781519937
 20
317.4266362340698
 30
0.0
 10
677.8073291987864
 20
317.4887403423734
 30
0.0
 10
677.7800410837999
 20
317.6127643058883
 30
0.0
 10
677.6808244998622
 20
317.7748819921133
 30
0.0
 10
677.5431598981017
 20
317.9041197010113
 30
0.0
 10
677.3828559191528
 20
318.0031061014688
 30
0.0
 10
677.2077894250997
 20
318.0719647018038
 30
0.0
 10
677.0239545818214
 20
318.1128842530982
 30
0.0
 10
676.8354522237238
 20
318.1263009769717
 30
0.0
 10
676.6480772743153
 20
318.1152653605506
 30
0.0
 10
676.4618031586112
 20
318.0749028524191
 30
0.0
 10
676.3065430307857
 20
317.9681239362088
 30
0.0
 10
676.1354609934244
 20
317.8913714271722
 30
0.0
 10
675.9943039226639
 20
317.7636598392696
 30
0.0
 10
675.8900601108478
 20
317.6063666458409
 30
0.0
 10
675.8472754756629
 20
317.4873647196763
 30
0.0
 10
675.8338781519936
 20
317.4266362340698
 30
0.0
  0
SPLINE
  5
BD
330
1F
100
AcDbEntity
  8
CARTOUCHE
  6
CONTINUOUS
 62
     4
100
AcDbSpline
210
0.0
220
0.0
230
1.0
 70
     8
 71
     3
 72
    14
 73
    10
 74
     0
 42
0.0
 43
0.0
 40
0.0
 40
0.0
 40
0.0
 40
0.0
 40
0.2162148910594536
 40
0.4333935378504983
 40
0.6499506618299267
 40
0.8697440506435968
 40
1.087238867261142
 40
1.304828920110254
 40
1.522317995136569
 40
1.522317995136569
 40
1.522317995136569
 40
1.522317995136569
 10
682.9236281519937
 20
317.1750862340698
 30
0.0
 10
682.9276260002835
 20
317.2470468977049
 30
0.0
 10
682.8954638905562
 20
317.3962506068348
 30
0.0
 10
682.7434502973317
 20
317.5632484099667
 30
0.0
 10
682.5309293645254
 20
317.6400091979921
 30
0.0
 10
682.3090153031458
 20
317.620935219344
 30
0.0
 10
682.1044489242105
 20
317.5267217140876
 30
0.0
 10
681.9697468424192
 20
317.3463226387726
 30
0.0
 10
681.9320610614477
 20
317.20205362077
 30
0.0
 10
681.9286781519937
 20
317.1296362340698
 30
0.0
  0
SPLINE
  5
BE
330
1F
100
AcDbEntity
  8
CARTOUCHE
  6
CONTINUOUS
 62
     4
100
AcDbSpline
210
0.0
220
0.0
230
1.0
 70
     8
 71
     3
 72
    20
 73
    16
 74
     0
 42
0.0
 43
0.0
 40
0.0
 40
0.0
 40
0.0
 40
0.0
 40
0.3099173987996669
 40
0.6201169005603266
 40
0.9308839291328164
 40
1.24078332570778
 40
1.550959395651279
 40
1.86184239372724
 40
2.170990040564944
 40
2.482795387658576
 40
2.792567816778102
 40
3.102413185111548
 40
3.413424630920253
 40
3.723772126664227
 40
4.34241605336301
 40
4.34241605336301
 40
4.34241605336301
 40
4.34241605336301
 10
684.7528781519937
 20
316.9352362340698
 30
0.0
 10
684.7669133661947
 20
317.0375841749055
 30
0.0
 10
684.7834795738853
 20
317.2442126518631
 30
0.0
 10
684.7699855146295
 20
317.5549194740562
 30
0.0
 10
684.7247102687068
 20
317.8621876969178
 30
0.0
 10
684.6452601548621
 20
318.1638598311211
 30
0.0
 10
684.4963840235401
 20
318.4398519337081
 30
0.0
 10
684.2792644325932
 20
318.6681825254655
 30
0.0
 10
684.0000216301412
 20
318.8141789646119
 30
0.0
 10
683.6998174641902
 20
318.8955648929963
 30
0.0
 10
683.3920838840247
 20
318.9446896372968
 30
0.0
 10
683.0806056267326
 20
318.9371539914284
 30
0.0
 10
682.7727123007497
 20
318.8933765020863
 30
0.0
 10
682.3729044174663
 20
318.7839377473892
 30
0.0
 10
682.0962023395392
 20
318.6331864950196
 30
0.0
 10
681.9286781519937
 20
318.5129362340698
 30
0.0
  0
ARC
  5
BF
330
1F
100
AcDbEntity
  8
CARTOUCHE
  6
CONTINUOUS
 62
     4
100
AcDbCircle
 10
648.420009
 20
318.198936
 30
0.0
 40
0.4706070000000001
100
AcDbArc
 50
290.581791
 51
349.597912
  0
SPLINE
  5
C0
330
1F
100
AcDbEntity
  8
CARTOUCHE
  6
CONTINUOUS
 62
     4
100
AcDbSpline
210
0.0
220
0.0
230
1.0
 70
     8
 71
     3
 72
    14
 73
    10
 74
     0
 42
0.0
 43
0.0
 40
0.0
 40
0.0
 40
0.0
 40
0.0
 40
0.218061519141428
 40
0.4363611552766656
 40
0.653729022402962
 40
0.8729556978994846
 40
1.089089148588594
 40
1.305404600578317
 40
1.52328134381688
 40
1.52328134381688
 40
1.52328134381688
 40
1.52328134381688
 10
650.7922781519937
 20
315.5172862340698
 30
0.0
 10
650.7873433901989
 20
315.4447667659828
 30
0.0
 10
650.7534963774903
 20
315.300455032628
 30
0.0
 10
650.6385382604983
 20
315.1105159426181
 30
0.0
 10
650.4654405765298
 20
314.9715049896514
 30
0.0
 10
650.2646298034892
 20
314.8831220738308
 30
0.0
 10
650.0451021215357
 20
314.8510483008166
 30
0.0
 10
649.8310006477033
 20
314.9054034502613
 30
0.0
 10
649.702311029817
 20
314.9742080529364
 30
0.0
 10
649.6427541548902
 20
315.0157707005433
 30
0.0
  0
ARC
  5
C1
330
1F
100
AcDbEntity
  8
CARTOUCHE
  6
CONTINUOUS
 62
     4
100
AcDbCircle
 10
651.873594
 20
319.353312
 30
0.0
 40
0.5000710000000002
100
AcDbArc
 50
275.840125
 51
95.840125
  0
HATCH
  5
C2
330
1F
100
AcDbEntity
  8
CARTOUCHE
  6
CONTINUOUS
 62
     4
100
AcDbHatch
 10
0.0
 20
0.0
 30
0.0
210
0.0
220
0.0
230
1.0
  2
ANSI_31
 70
     0
 71
     0
 91
        4
 92
        1
 93
        3
 72
     1
 10
647.9338781757812
 20
321.7469486269531
 11
647.9338781757812
 21
318.7761866269531
 72
     1
 10
647.9338781757812
 20
318.7761866269531
 11
645.6438311757811
 21
318.7761866269531
 72
     2
 10
649.3687061757814
 20
318.2728596269528
 40
3.758727000000213
 50
187.6955481858987
 51
247.5589807620773
 73
     0
 97
        0
 92
        0
 93
        6
 72
     1
 10
648.8829281757812
 20
322.0000636269531
 11
648.8829281757812
 21
318.1139566269532
 72
     2
 10
648.4200091757807
 20
318.1989356269534
 40
0.4706070000003876
 50
10.40206637071822
 51
69.41820895941244
 73
     0
 72
     1
 10
648.5854781757812
 20
317.7582866269531
 11
648.3568781757813
 21
317.7582866269531
 72
     1
 10
648.3568781757813
 20
317.7582866269531
 11
649.8319781757812
 21
316.1576366269531
 72
     1
 10
649.8319781757812
 20
316.1576366269531
 11
649.8319781757812
 21
322.0029276269531
 72
     2
 10
649.3687061757811
 20
318.2728596269552
 40
3.758726999997864
 50
82.92017098471334
 51
97.42568618827035
 73
     1
 97
        0
 92
        0
 93
       40
 72
     1
 10
651.8227111757813
 20
319.8507866269531
 11
650.7922781757812
 21
319.8507866269531
 72
     1
 10
650.7922781757812
 20
319.8507866269531
 11
650.7922781757812
 21
321.7515766269531
 72
     2
 10
649.368706175781
 20
318.2728596269528
 40
3.758727000000194
 50
292.2555505518885
 51
532.1314361600689
 73
     0
 72
     1
 10
645.6453681757813
 20
317.7582866269531
 11
646.8475781757812
 21
317.7582866269531
 72
     1
 10
646.8475781757812
 20
317.7582866269531
 11
649.6427541757813
 21
315.015770626953
 72
     1
 10
649.6427541757813
 20
315.015770626953
 11
649.6976721757812
 21
314.9802956269531
 72
     1
 10
649.6976721757812
 20
314.9802956269531
 11
649.7550681757813
 21
314.9488056269531
 72
     1
 10
649.7550681757813
 20
314.9488056269531
 11
649.8350531757812
 21
314.9133436269531
 72
     1
 10
649.8350531757812
 20
314.9133436269531
 11
649.8760621757813
 21
314.8986716269531
 72
     1
 10
649.8760621757813
 20
314.8986716269531
 11
649.9177911757812
 21
314.8862396269531
 72
     1
 10
649.9177911757812
 20
314.8862396269531
 11
649.9601081757812
 21
314.8763496269531
 72
     1
 10
649.9601081757812
 20
314.8763496269531
 11
650.0028841757812
 21
314.8693026269531
 72
     1
 10
650.0028841757812
 20
314.8693026269531
 11
650.0459891757813
 21
314.8654026269531
 72
     1
 10
650.0459891757813
 20
314.8654026269531
 11
650.0892461757812
 21
314.8648586269532
 72
     1
 10
650.0892461757812
 20
314.8648586269532
 11
650.1325111757812
 21
314.8675126269531
 72
     1
 10
650.1325111757812
 20
314.8675126269531
 11
650.1755941757813
 21
314.8731206269531
 72
     1
 10
650.1755941757813
 20
314.8731206269531
 11
650.2183041757811
 21
314.8814366269531
 72
     1
 10
650.2183041757811
 20
314.8814366269531
 11
650.2604531757811
 21
314.8922176269531
 72
     1
 10
650.2604531757811
 20
314.8922176269531
 11
650.3024551757812
 21
314.9054526269531
 72
     1
 10
650.3024551757812
 20
314.9054526269531
 11
650.3436101757812
 21
314.9209216269531
 72
     1
 10
650.3436101757812
 20
314.9209216269531
 11
650.3838421757812
 21
314.9385716269531
 72
     1
 10
650.3838421757812
 20
314.9385716269531
 11
650.4612421757812
 21
314.9802176269531
 72
     1
 10
650.4612421757812
 20
314.9802176269531
 11
650.4979261757812
 21
315.0039096269531
 72
     1
 10
650.4979261757812
 20
315.0039096269531
 11
650.5332491757813
 21
315.0296066269531
 72
     1
 10
650.5332491757813
 20
315.0296066269531
 11
650.5669751757813
 21
315.0573166269531
 72
     1
 10
650.5669751757813
 20
315.0573166269531
 11
650.5988701757813
 21
315.0870476269531
 72
     1
 10
650.5988701757813
 20
315.0870476269531
 11
650.6286981757812
 21
315.1188076269531
 72
     1
 10
650.6286981757812
 20
315.1188076269531
 11
650.6563671757812
 21
315.152720626953
 72
     1
 10
650.6563671757812
 20
315.152720626953
 11
650.6816631757812
 21
315.1884876269531
 72
     1
 10
650.6816631757812
 20
315.1884876269531
 11
650.7045351757812
 21
315.2259086269531
 72
     1
 10
650.7045351757812
 20
315.2259086269531
 11
650.7249321757813
 21
315.2647826269531
 72
     1
 10
650.7249321757813
 20
315.2647826269531
 11
650.7428051757812
 21
315.3049106269531
 72
     1
 10
650.7428051757812
 20
315.3049106269531
 11
650.7580841757812
 21
315.3460476269531
 72
     1
 10
650.7580841757812
 20
315.3460476269531
 11
650.7707321757813
 21
315.3880446269531
 72
     1
 10
650.7707321757813
 20
315.3880446269531
 11
650.7806871757813
 21
315.4307106269531
 72
     1
 10
650.7806871757813
 20
315.4307106269531
 11
650.7878901757813
 21
315.4738546269531
 72
     1
 10
650.7878901757813
 20
315.4738546269531
 11
650.7922781757812
 21
315.5172866269531
 72
     1
 10
650.7922781757812
 20
315.5172866269531
 11
650.7922781757812
 21
318.8558366269531
 72
     1
 10
650.7922781757812
 20
318.8558366269531
 11
651.9244781757812
 21
318.8558366269531
 72
     2
 10
651.8735941757812
 20
319.3533116269531
 40
0.5000709999999801
 50
275.8401026338591
 51
455.8401224817039
 73
     1
 97
        0
 92
        0
 93
        1
 72
     2
 10
649.3687011757812
 20
318.2728653767647
 40
4.756722999999911
 50
359.9999909683537
 51
719.9999733682597
 73
     1
 97
        0
 75
     0
 76
     2
 52
0.0
 41
0.062992
 77
     0
 78
     1
 53
44.99999999988837
 43
0.0
 44
0.0
 45
-3.592095212307267
 46
3.592095212321264
 79
     0
 98
        0
  0
HATCH
  5
C3
330
1F
100
AcDbEntity
  8
CARTOUCHE
  6
CONTINUOUS
 62
     4
100
AcDbHatch
 10
0.0
 20
0.0
 30
0.0
210
0.0
220
0.0
230
1.0
  2
ANSI_31
 70
     0
 71
     0
 91
        1
 92
        1
 93
       16
 72
     1
 10
658.1481081757812
 20
319.2792866269531
 11
658.5565781757813
 21
319.2792866269531
 72
     1
 10
658.5565781757813
 20
319.2792866269531
 11
658.5565781757813
 21
320.1824366269531
 72
     1
 10
658.5565781757813
 20
320.1824366269531
 11
657.0493141757812
 21
320.1824366269531
 72
     2
 10
657.0493141757812
 20
319.2768436269531
 40
0.9056389999999993
 50
89.99998127603085
 51
180.000019847842
 73
     1
 72
     1
 10
656.1436781757812
 20
319.2768436269531
 11
656.1436781757812
 21
318.8558366269531
 72
     1
 10
656.1436781757812
 20
318.8558366269531
 11
655.6063781757813
 21
318.8558366269531
 72
     1
 10
655.6063781757813
 20
318.8558366269531
 11
655.6063781757813
 21
317.7582866269531
 72
     1
 10
655.6063781757813
 20
317.7582866269531
 11
656.1436781757812
 21
317.7582866269531
 72
     1
 10
656.1436781757812
 20
317.7582866269531
 11
656.1436781757812
 21
314.9795366269531
 72
     1
 10
656.1436781757812
 20
314.9795366269531
 11
657.9391781757812
 21
314.9795366269531
 72
     1
 10
657.9391781757812
 20
314.9795366269531
 11
657.9391781757812
 21
317.7582866269531
 72
     1
 10
657.9391781757812
 20
317.7582866269531
 11
658.5565781757813
 21
317.7582866269531
 72
     1
 10
658.5565781757813
 20
317.7582866269531
 11
658.5565781757813
 21
318.8558366269531
 72
     1
 10
658.5565781757813
 20
318.8558366269531
 11
657.8820281757812
 21
318.8558366269531
 72
     1
 10
657.8820281757812
 20
318.8558366269531
 11
657.9301341757813
 21
319.1160646269531
 72
     2
 10
658.1750431757813
 20
319.0161586269531
 40
0.2645029999999272
 50
202.1921825436287
 51
264.1553335516524
 73
     0
 97
        0
 75
     0
 76
     2
 52
0.0
 41
0.062992
 77
     0
 78
     1
 53
44.99999999988837
 43
0.0
 44
0.0
 45
-3.592095212307267
 46
3.592095212321264
 79
     0
 98
        0
  0
HATCH
  5
C4
330
1F
100
AcDbEntity
  8
CARTOUCHE
  6
CONTINUOUS
 62
     4
100
AcDbHatch
 10
0.0
 20
0.0
 30
0.0
210
0.0
220
0.0
230
1.0
  2
ANSI_31
 70
     0
 71
     0
 91
        1
 92
        1
 93
        4
 72
     1
 10
659.2770281757812
 20
320.1824366269531
 11
659.2770281757812
 21
319.2905366269531
 72
     1
 10
659.2770281757812
 20
319.2905366269531
 11
661.0950281757813
 21
319.2905366269531
 72
     1
 10
661.0950281757813
 20
319.2905366269531
 11
661.0950281757813
 21
320.1824366269531
 72
     1
 10
661.0950281757813
 20
320.1824366269531
 11
659.2770281757812
 21
320.1824366269531
 97
        0
 75
     0
 76
     2
 52
0.0
 41
0.062992
 77
     0
 78
     1
 53
44.99999999988837
 43
0.0
 44
0.0
 45
-3.592095212307267
 46
3.592095212321264
 79
     0
 98
        0
  0
HATCH
  5
C5
330
1F
100
AcDbEntity
  8
CARTOUCHE
  6
CONTINUOUS
 62
     4
100
AcDbHatch
 10
0.0
 20
0.0
 30
0.0
210
0.0
220
0.0
230
1.0
  2
ANSI_31
 70
     0
 71
     0
 91
        1
 92
        1
 93
        4
 72
     1
 10
659.2770281757812
 20
318.8558366269531
 11
659.2770281757812
 21
314.9795366269531
 72
     1
 10
659.2770281757812
 20
314.9795366269531
 11
661.0950281757813
 21
314.9795366269531
 72
     1
 10
661.0950281757813
 20
314.9795366269531
 11
661.0950281757813
 21
318.8558366269531
 72
     1
 10
661.0950281757813
 20
318.8558366269531
 11
659.2770281757812
 21
318.8558366269531
 97
        0
 75
     0
 76
     2
 52
0.0
 41
0.062992
 77
     0
 78
     1
 53
44.99999999988837
 43
0.0
 44
0.0
 45
-3.592095212307267
 46
3.592095212321264
 79
     0
 98
        0
  0
HATCH
  5
C6
330
1F
100
AcDbEntity
  8
CARTOUCHE
  6
CONTINUOUS
 62
     4
100
AcDbHatch
 10
0.0
 20
0.0
 30
0.0
210
0.0
220
0.0
230
1.0
  2
ANSI_31
 70
     0
 71
     0
 91
        1
 92
        1
 93
       12
 72
     2
 10
664.9263791757813
 20
316.8264766269536
 40
0.6511239999996469
 50
262.8493335533719
 51
360.000000000035
 73
     0
 72
     1
 10
665.5774781757813
 20
316.8264766269531
 11
665.5774781757813
 21
314.9795366269531
 72
     1
 10
665.5774781757813
 20
314.9795366269531
 11
667.3612781757811
 21
314.9795366269531
 72
     1
 10
667.3612781757811
 20
314.9795366269531
 11
667.3612781757811
 21
317.671995626953
 72
     2
 10
666.1440831757806
 20
317.6123156269527
 40
1.218658000000755
 50
2.806977534140709
 51
66.54578204499427
 73
     1
 72
     2
 10
665.5364581757811
 20
315.3927036269533
 40
3.511891999999901
 50
71.87239877900383
 51
120.4055336606937
 73
     1
 72
     1
 10
663.7590281757812
 20
318.4215866269531
 11
663.7590281757812
 21
318.8558366269531
 72
     1
 10
663.7590281757812
 20
318.8558366269531
 11
661.9639781757812
 21
318.8558366269531
 72
     1
 10
661.9639781757812
 20
318.8558366269531
 11
661.9639781757812
 21
314.9795366269531
 72
     1
 10
661.9639781757812
 20
314.9795366269531
 11
663.7590281757812
 21
314.9795366269531
 72
     1
 10
663.7590281757812
 20
314.9795366269531
 11
663.7590281757812
 21
316.780941626953
 72
     2
 10
664.912865175781
 20
316.1675216269529
 40
1.306760999999833
 50
207.9967033745322
 51
267.0374831484671
 73
     0
 97
        0
 75
     0
 76
     2
 52
0.0
 41
0.062992
 77
     0
 78
     1
 53
44.99999999988837
 43
0.0
 44
0.0
 45
-3.592095212307267
 46
3.592095212321264
 79
     0
 98
        0
  0
HATCH
  5
C7
330
1F
100
AcDbEntity
  8
CARTOUCHE
  6
CONTINUOUS
 62
     4
100
AcDbHatch
 10
0.0
 20
0.0
 30
0.0
210
0.0
220
0.0
230
1.0
  2
ANSI_31
 70
     0
 71
     0
 91
        2
 92
        1
 93
       68
 72
     1
 10
671.6605781757812
 20
318.6673466269531
 11
671.6056941757812
 21
318.7129076269531
 72
     1
 10
671.6056941757812
 20
318.7129076269531
 11
671.5624081757812
 21
318.7443946269531
 72
     1
 10
671.5624081757812
 20
318.7443946269531
 11
671.5172011757812
 21
318.7729606269531
 72
     1
 10
671.5172011757812
 20
318.7729606269531
 11
671.4543701757812
 21
318.8056856269531
 72
     1
 10
671.4543701757812
 20
318.8056856269531
 11
671.4054701757811
 21
318.826625626953
 72
     1
 10
671.4054701757811
 20
318.826625626953
 11
671.3554691757812
 21
318.8447916269531
 72
     1
 10
671.3554691757812
 20
318.8447916269531
 11
671.2694241757812
 21
318.8701126269531
 72
     1
 10
671.2694241757812
 20
318.8701126269531
 11
671.1821111757813
 21
318.8905796269531
 72
     1
 10
671.1821111757813
 20
318.8905796269531
 11
671.0050401757812
 21
318.924606626953
 72
     1
 10
671.0050401757812
 20
318.924606626953
 11
670.6529161757812
 21
318.9790856269531
 72
     1
 10
670.6529161757812
 20
318.9790856269531
 11
670.2987691757812
 21
319.0010536269531
 72
     1
 10
670.2987691757812
 20
319.0010536269531
 11
669.9421301757812
 21
318.9902016269531
 72
     1
 10
669.9421301757812
 20
318.9902016269531
 11
669.7645901757812
 21
318.9750096269531
 72
     1
 10
669.7645901757812
 20
318.9750096269531
 11
669.5884771757812
 21
318.9493646269531
 72
     1
 10
669.5884771757812
 20
318.9493646269531
 11
669.4494481757812
 21
318.9183166269531
 72
     1
 10
669.4494481757812
 20
318.9183166269531
 11
669.2453241757812
 21
318.8543616269531
 72
     1
 10
669.2453241757812
 20
318.8543616269531
 11
669.1129121757812
 21
318.8008846269531
 72
     1
 10
669.1129121757812
 20
318.8008846269531
 11
669.0162541757812
 21
318.7549206269532
 72
     1
 10
669.0162541757812
 20
318.7549206269532
 11
668.9223731757812
 21
318.7036426269531
 72
     1
 10
668.9223731757812
 20
318.7036426269531
 11
668.8023311757811
 21
318.6269836269531
 72
     1
 10
668.8023311757811
 20
318.6269836269531
 11
668.6333061757813
 21
318.4961306269531
 72
     1
 10
668.6333061757813
 20
318.4961306269531
 11
668.5279931757811
 21
318.3998006269532
 72
     1
 10
668.5279931757811
 20
318.3998006269532
 11
668.3817381757812
 21
318.2435566269531
 72
     1
 10
668.3817381757812
 20
318.2435566269531
 11
668.2925001757812
 21
318.1323736269532
 72
     1
 10
668.2925001757812
 20
318.1323736269532
 11
668.1728481757812
 21
317.9552616269531
 72
     1
 10
668.1728481757812
 20
317.9552616269531
 11
668.1038711757813
 21
317.8304626269531
 72
     1
 10
668.1038711757813
 20
317.8304626269531
 11
668.0581511757813
 21
317.7337526269531
 72
     1
 10
668.0581511757813
 20
317.7337526269531
 11
668.0177161757812
 21
317.6347346269531
 72
     1
 10
668.0177161757812
 20
317.6347346269531
 11
667.9721321757812
 21
317.4995746269531
 72
     1
 10
667.9721321757812
 20
317.4995746269531
 11
667.9215281757812
 21
317.2916416269532
 72
     1
 10
667.9215281757812
 20
317.2916416269532
 11
667.8996871757812
 21
317.1505926269531
 72
     1
 10
667.8996871757812
 20
317.1505926269531
 11
667.8901021757813
 21
317.0440306269531
 72
     1
 10
667.8901021757813
 20
317.0440306269531
 11
667.8868751757813
 21
316.9371726269531
 72
     1
 10
667.8868751757813
 20
316.9371726269531
 11
667.8928381757812
 21
316.7947976269531
 72
     1
 10
667.8928381757812
 20
316.7947976269531
 11
667.9211021757812
 21
316.5827086269531
 72
     1
 10
667.9211021757812
 20
316.5827086269531
 11
667.9508781757812
 21
316.4431256269531
 72
     1
 10
667.9508781757812
 20
316.4431256269531
 11
668.0119961757813
 21
316.2381796269531
 72
     1
 10
668.0119961757813
 20
316.2381796269531
 11
668.0643001757812
 21
316.1055866269531
 72
     1
 10
668.0643001757812
 20
316.1055866269531
 11
668.1097181757812
 21
316.008768626953
 72
     1
 10
668.1097181757812
 20
316.008768626953
 11
668.1604511757813
 21
315.9146056269531
 72
     1
 10
668.1604511757813
 20
315.9146056269531
 11
668.2363961757812
 21
315.7937446269531
 72
     1
 10
668.2363961757812
 20
315.7937446269531
 11
668.2994261757812
 21
315.7072206269531
 72
     1
 10
668.2994261757812
 20
315.7072206269531
 11
668.3675451757813
 21
315.6246926269531
 72
     1
 10
668.3675451757813
 20
315.6246926269531
 11
668.4658221757812
 21
315.5215226269531
 72
     1
 10
668.4658221757812
 20
315.5215226269531
 11
668.6270801757812
 21
315.3812096269531
 72
     1
 10
668.6270801757812
 20
315.3812096269531
 11
668.7422871757811
 21
315.2970196269531
 72
     1
 10
668.7422871757811
 20
315.2970196269531
 11
668.9245381757812
 21
315.1848216269531
 72
     1
 10
668.9245381757812
 20
315.1848216269531
 11
669.0513401757812
 21
315.1196386269531
 72
     1
 10
669.0513401757812
 20
315.1196386269531
 11
669.1490931757812
 21
315.0763856269531
 72
     1
 10
669.1490931757812
 20
315.0763856269531
 11
669.2490251757813
 21
315.0385676269531
 72
     1
 10
669.2490251757813
 20
315.0385676269531
 11
669.3854611757813
 21
314.9971796269531
 72
     1
 10
669.3854611757813
 20
314.9971796269531
 11
669.5948691757812
 21
314.9535246269531
 72
     1
 10
669.5948691757812
 20
314.9535246269531
 11
669.7717321757813
 21
314.9321766269532
 72
     1
 10
669.7717321757813
 20
314.9321766269532
 11
669.9495591757812
 21
314.9211836269531
 72
     1
 10
669.9495591757812
 20
314.9211836269531
 11
670.3054751757812
 21
314.9183366269531
 72
     1
 10
670.3054751757812
 20
314.9183366269531
 11
670.6619251757812
 21
314.9335446269531
 72
     1
 10
670.6619251757812
 20
314.9335446269531
 11
670.8036521757812
 21
314.9474426269531
 72
     1
 10
670.8036521757812
 20
314.9474426269531
 11
671.0143261757812
 21
314.983326626953
 72
     1
 10
671.0143261757812
 20
314.983326626953
 11
671.1519081757812
 21
315.0204586269531
 72
     1
 10
671.1519081757812
 20
315.0204586269531
 11
671.2864881757813
 21
315.0685966269531
 72
     1
 10
671.2864881757813
 20
315.0685966269531
 11
671.4169031757812
 21
315.1272646269531
 72
     1
 10
671.4169031757812
 20
315.1272646269531
 11
671.5419881757813
 21
315.1959866269531
 72
     1
 10
671.5419881757813
 20
315.1959866269531
 11
671.6605781757812
 21
315.2742866269531
 72
     1
 10
671.6605781757812
 20
315.2742866269531
 11
671.6605781757812
 21
314.9682866269531
 72
     1
 10
671.6605781757812
 20
314.9682866269531
 11
673.4556281757813
 21
314.9682866269531
 72
     1
 10
673.4556281757813
 20
314.9682866269531
 11
673.4556281757813
 21
320.1711866269531
 72
     1
 10
673.4556281757813
 20
320.1711866269531
 11
671.6605781757812
 21
320.1711866269531
 72
     1
 10
671.6605781757812
 20
320.1711866269531
 11
671.6605781757812
 21
318.6673466269531
 97
        0
 92
        0
 93
       86
 72
     1
 10
671.6605781757812
 20
317.1066866269531
 11
671.6542791757811
 21
317.1448716269531
 72
     1
 10
671.6542791757811
 20
317.1448716269531
 11
671.6457591757812
 21
317.1827006269531
 72
     1
 10
671.6457591757812
 20
317.1827006269531
 11
671.6350271757811
 21
317.2200076269531
 72
     1
 10
671.6350271757811
 20
317.2200076269531
 11
671.6220961757812
 21
317.2566266269531
 72
     1
 10
671.6220961757812
 20
317.2566266269531
 11
671.6069741757811
 21
317.2923926269531
 72
     1
 10
671.6069741757811
 20
317.2923926269531
 11
671.5896771757813
 21
317.3271666269531
 72
     1
 10
671.5896771757813
 20
317.3271666269531
 11
671.5702961757812
 21
317.3608126269531
 72
     1
 10
671.5702961757812
 20
317.3608126269531
 11
671.5489261757812
 21
317.3932236269531
 72
     1
 10
671.5489261757812
 20
317.3932236269531
 11
671.5256651757812
 21
317.424290626953
 72
     1
 10
671.5256651757812
 20
317.424290626953
 11
671.5006091757812
 21
317.4539066269531
 72
     1
 10
671.5006091757812
 20
317.4539066269531
 11
671.4738631757812
 21
317.4819826269531
 72
     1
 10
671.4738631757812
 20
317.4819826269531
 11
671.4455681757812
 21
317.5085016269531
 72
     1
 10
671.4455681757812
 20
317.5085016269531
 11
671.4005521757813
 21
317.5453626269531
 72
     1
 10
671.4005521757813
 20
317.5453626269531
 11
671.3528941757812
 21
317.5787306269531
 72
     1
 10
671.3528941757812
 20
317.5787306269531
 11
671.2864631757813
 21
317.6176966269531
 72
     1
 10
671.2864631757813
 20
317.6176966269531
 11
671.1816551757812
 21
317.6661476269531
 72
     1
 10
671.1816551757812
 20
317.6661476269531
 11
670.9981811757812
 21
317.7276826269531
 72
     1
 10
670.9981811757812
 20
317.7276826269531
 11
670.8103501757811
 21
317.7742496269531
 72
     1
 10
670.8103501757811
 20
317.7742496269531
 11
670.7344221757812
 21
317.7861626269531
 72
     1
 10
670.7344221757812
 20
317.7861626269531
 11
670.6770471757812
 21
317.7916266269531
 72
     1
 10
670.6770471757812
 20
317.7916266269531
 11
670.6194881757812
 21
317.7936276269531
 72
     1
 10
670.6194881757812
 20
317.7936276269531
 11
670.5422611757812
 21
317.7903836269531
 72
     1
 10
670.5422611757812
 20
317.7903836269531
 11
670.4846151757813
 21
317.7837116269531
 72
     1
 10
670.4846151757813
 20
317.7837116269531
 11
670.4274381757812
 21
317.7736946269531
 72
     1
 10
670.4274381757812
 20
317.7736946269531
 11
670.3518461757812
 21
317.7553926269532
 72
     1
 10
670.3518461757812
 20
317.7553926269532
 11
670.2961481757812
 21
317.7381316269531
 72
     1
 10
670.2961481757812
 20
317.7381316269531
 11
670.2414561757811
 21
317.7179216269531
 72
     1
 10
670.2414561757811
 20
317.7179216269531
 11
670.1706781757812
 21
317.6866066269531
 72
     1
 10
670.1706781757812
 20
317.6866066269531
 11
670.1192311757812
 21
317.6596876269531
 72
     1
 10
670.1192311757812
 20
317.6596876269531
 11
670.0694331757812
 21
317.6297426269531
 72
     1
 10
670.0694331757812
 20
317.6297426269531
 11
670.0064961757812
 21
317.5854226269531
 72
     1
 10
670.0064961757812
 20
317.5854226269531
 11
669.9474271757813
 21
317.5358556269532
 72
     1
 10
669.9474271757813
 20
317.5358556269532
 11
669.8928241757812
 21
317.4812186269531
 72
     1
 10
669.8928241757812
 20
317.4812186269531
 11
669.8432851757813
 21
317.4216896269531
 72
     1
 10
669.8432851757813
 20
317.4216896269531
 11
669.7994081757812
 21
317.357445626953
 72
     1
 10
669.7994081757812
 20
317.357445626953
 11
669.7618731757811
 21
317.2888366269531
 72
     1
 10
669.7618731757811
 20
317.2888366269531
 11
669.7315761757812
 21
317.216688626953
 72
     1
 10
669.7315761757812
 20
317.216688626953
 11
669.7194511757812
 21
317.1795976269531
 72
     1
 10
669.7194511757812
 20
317.1795976269531
 11
669.7095041757811
 21
317.1419946269531
 72
     1
 10
669.7095041757811
 20
317.1419946269531
 11
669.7018601757812
 21
317.1040036269531
 72
     1
 10
669.7018601757812
 20
317.1040036269531
 11
669.6966411757812
 21
317.0657486269531
 72
     1
 10
669.6966411757812
 20
317.0657486269531
 11
669.6939721757813
 21
317.0273546269531
 72
     1
 10
669.6939721757813
 20
317.0273546269531
 11
669.6939741757812
 21
316.9889456269531
 72
     1
 10
669.6939741757812
 20
316.9889456269531
 11
669.6967481757813
 21
316.9503826269531
 72
     1
 10
669.6967481757813
 20
316.9503826269531
 11
669.7021661757811
 21
316.9120606269531
 72
     1
 10
669.7021661757811
 20
316.9120606269531
 11
669.7100361757812
 21
316.8741096269531
 72
     1
 10
669.7100361757812
 20
316.8741096269531
 11
669.7201691757812
 21
316.8366596269531
 72
     1
 10
669.7201691757812
 20
316.8366596269531
 11
669.7323731757812
 21
316.7998426269531
 72
     1
 10
669.7323731757812
 20
316.7998426269531
 11
669.7627001757812
 21
316.7278676269531
 72
     1
 10
669.7627001757812
 20
316.7278676269531
 11
669.7901031757813
 21
316.6761486269531
 72
     1
 10
669.7901031757813
 20
316.6761486269531
 11
669.8212091757812
 21
316.6265426269531
 72
     1
 10
669.8212091757812
 20
316.6265426269531
 11
669.8676411757812
 21
316.5645556269531
 72
     1
 10
669.8676411757812
 20
316.5645556269531
 11
669.9062901757812
 21
316.5212146269531
 72
     1
 10
669.9062901757812
 20
316.5212146269531
 11
669.9481211757812
 21
316.4809966269531
 72
     1
 10
669.9481211757812
 20
316.4809966269531
 11
670.0082411757811
 21
316.4329296269531
 72
     1
 10
670.0082411757811
 20
316.4329296269531
 11
670.0562671757812
 21
316.4007976269531
 72
     1
 10
670.0562671757812
 20
316.4007976269531
 11
670.1063121757812
 21
316.371923626953
 72
     1
 10
670.1063121757812
 20
316.371923626953
 11
670.1761031757812
 21
316.3379616269531
 72
     1
 10
670.1761031757812
 20
316.3379616269531
 11
670.2847031757811
 21
316.2960236269531
 72
     1
 10
670.2847031757811
 20
316.2960236269531
 11
670.3587181757812
 21
316.2731416269531
 72
     1
 10
670.3587181757812
 20
316.2731416269531
 11
670.4717931757812
 21
316.2466106269531
 72
     1
 10
670.4717931757812
 20
316.2466106269531
 11
670.5479691757813
 21
316.2346876269531
 72
     1
 10
670.5479691757813
 20
316.2346876269531
 11
670.6632541757812
 21
316.2260886269531
 72
     1
 10
670.6632541757812
 20
316.2260886269531
 11
670.7405181757812
 21
316.2269516269531
 72
     1
 10
670.7405181757812
 20
316.2269516269531
 11
670.8559571757811
 21
316.2383426269531
 72
     1
 10
670.8559571757811
 20
316.2383426269531
 11
670.9318451757813
 21
316.2525696269531
 72
     1
 10
670.9318451757813
 20
316.2525696269531
 11
671.0066861757812
 21
316.2719966269531
 72
     1
 10
671.0066861757812
 20
316.2719966269531
 11
671.0800571757812
 21
316.2964896269531
 72
     1
 10
671.0800571757812
 20
316.2964896269531
 11
671.1515321757811
 21
316.3259156269531
 72
     1
 10
671.1515321757811
 20
316.3259156269531
 11
671.2206891757812
 21
316.3601406269531
 72
     1
 10
671.2206891757812
 20
316.3601406269531
 11
671.2875541757812
 21
316.3992886269531
 72
     1
 10
671.2875541757812
 20
316.3992886269531
 11
671.3822651757813
 21
316.4665686269531
 72
     1
 10
671.3822651757813
 20
316.4665686269531
 11
671.4412011757811
 21
316.5170416269531
 72
     1
 10
671.4412011757811
 20
316.5170416269531
 11
671.4823801757813
 21
316.5581066269531
 72
     1
 10
671.4823801757813
 20
316.5581066269531
 11
671.5202521757813
 21
316.6021836269531
 72
     1
 10
671.5202521757813
 20
316.6021836269531
 11
671.5432921757813
 21
316.6332246269531
 72
     1
 10
671.5432921757813
 20
316.6332246269531
 11
671.5645051757812
 21
316.6655836269532
 72
     1
 10
671.5645051757812
 20
316.6655836269532
 11
671.5838071757811
 21
316.6991436269531
 72
     1
 10
671.5838071757811
 20
316.6991436269531
 11
671.6011151757812
 21
316.7337866269531
 72
     1
 10
671.6011151757812
 20
316.7337866269531
 11
671.6163441757813
 21
316.7693966269532
 72
     1
 10
671.6163441757813
 20
316.7693966269532
 11
671.6294661757812
 21
316.8059676269531
 72
     1
 10
671.6294661757812
 20
316.8059676269531
 11
671.6404321757813
 21
316.8432396269531
 72
     1
 10
671.6404321757813
 20
316.8432396269531
 11
671.6492601757813
 21
316.8810616269531
 72
     1
 10
671.6492601757813
 20
316.8810616269531
 11
671.6559691757813
 21
316.9192776269531
 72
     1
 10
671.6559691757813
 20
316.9192776269531
 11
671.6605781757812
 21
316.9577366269531
 72
     1
 10
671.6605781757812
 20
316.9577366269531
 11
671.6605781757812
 21
317.1066866269531
 97
        0
 75
     0
 76
     2
 52
0.0
 41
0.062992
 77
     0
 78
     1
 53
44.99999999988837
 43
0.0
 44
0.0
 45
-3.592095212307267
 46
3.592095212321264
 79
     0
 98
        0
  0
HATCH
  5
C8
330
1F
100
AcDbEntity
  8
CARTOUCHE
  6
CONTINUOUS
 62
     4
100
AcDbHatch
 10
0.0
 20
0.0
 30
0.0
210
0.0
220
0.0
230
1.0
  2
ANSI_31
 70
     0
 71
     0
 91
        2
 92
        1
 93
      122
 72
     1
 10
676.5201281757811
 20
316.5918866269531
 11
676.6231781757812
 21
316.5918866269531
 72
     1
 10
676.6231781757812
 20
316.5918866269531
 11
679.6759781757812
 21
316.6035866269531
 72
     1
 10
679.6759781757812
 20
316.6035866269531
 11
679.7014331757813
 21
316.7132896269531
 72
     1
 10
679.7014331757813
 20
316.7132896269531
 11
679.7141031757812
 21
316.7969046269531
 72
     1
 10
679.7141031757812
 20
316.7969046269531
 11
679.7209291757813
 21
316.8811456269531
 72
     1
 10
679.7209291757813
 20
316.8811456269531
 11
679.7207901757813
 21
316.9944116269531
 72
     1
 10
679.7207901757813
 20
316.9944116269531
 11
679.7037651757811
 21
317.1635386269531
 72
     1
 10
679.7037651757811
 20
317.1635386269531
 11
679.6775201757813
 21
317.3036556269531
 72
     1
 10
679.6775201757813
 20
317.3036556269531
 11
679.6426341757812
 21
317.4418106269531
 72
     1
 10
679.6426341757812
 20
317.4418106269531
 11
679.6008501757811
 21
317.5765886269531
 72
     1
 10
679.6008501757811
 20
317.5765886269531
 11
679.5513971757813
 21
317.7088636269531
 72
     1
 10
679.5513971757813
 20
317.7088636269531
 11
679.5059171757813
 21
317.8121586269531
 72
     1
 10
679.5059171757813
 20
317.8121586269531
 11
679.4549161757812
 21
317.9129776269531
 72
     1
 10
679.4549161757812
 20
317.9129776269531
 11
679.3983351757812
 21
318.0107656269531
 72
     1
 10
679.3983351757812
 20
318.0107656269531
 11
679.3361161757813
 21
318.1049696269531
 72
     1
 10
679.3361161757813
 20
318.1049696269531
 11
679.2682001757811
 21
318.1950376269531
 72
     1
 10
679.2682001757811
 20
318.1950376269531
 11
679.1945791757812
 21
318.2805726269531
 72
     1
 10
679.1945791757812
 20
318.2805726269531
 11
679.1157741757812
 21
318.3614466269531
 72
     1
 10
679.1157741757812
 20
318.3614466269531
 11
679.0323641757813
 21
318.4376976269531
 72
     1
 10
679.0323641757813
 20
318.4376976269531
 11
678.8540511757813
 21
318.5764686269531
 72
     1
 10
678.8540511757813
 20
318.5764686269531
 11
678.7360411757812
 21
318.6540476269531
 72
     1
 10
678.7360411757812
 20
318.6540476269531
 11
678.6135051757813
 21
318.7238846269531
 72
     1
 10
678.6135051757813
 20
318.7238846269531
 11
678.4867741757813
 21
318.7854286269531
 72
     1
 10
678.4867741757813
 20
318.7854286269531
 11
678.3564511757812
 21
318.8390916269531
 72
     1
 10
678.3564511757812
 20
318.8390916269531
 11
678.0879271757811
 21
318.9261766269531
 72
     1
 10
678.0879271757811
 20
318.9261766269531
 11
677.8137071757812
 21
318.9930916269531
 72
     1
 10
677.8137071757812
 20
318.9930916269531
 11
677.5360601757812
 21
319.0410726269531
 72
     1
 10
677.5360601757812
 20
319.0410726269531
 11
677.2558331757813
 21
319.0709576269531
 72
     1
 10
677.2558331757813
 20
319.0709576269531
 11
676.6919101757812
 21
319.0833166269531
 72
     1
 10
676.6919101757812
 20
319.0833166269531
 11
676.1296411757812
 21
319.0432376269531
 72
     1
 10
676.1296411757812
 20
319.0432376269531
 11
675.8513551757812
 21
318.9985816269531
 72
     1
 10
675.8513551757812
 20
318.9985816269531
 11
675.5763381757812
 21
318.9357426269531
 72
     1
 10
675.5763381757812
 20
318.9357426269531
 11
675.3596481757812
 21
318.8715226269532
 72
     1
 10
675.3596481757812
 20
318.8715226269532
 11
675.2006411757812
 21
318.8131396269531
 72
     1
 10
675.2006411757812
 20
318.8131396269531
 11
675.0459651757812
 21
318.7440676269531
 72
     1
 10
675.0459651757812
 20
318.7440676269531
 11
674.9460611757812
 21
318.6914216269531
 72
     1
 10
674.9460611757812
 20
318.6914216269531
 11
674.8491221757813
 21
318.6333056269531
 72
     1
 10
674.8491221757813
 20
318.6333056269531
 11
674.7556681757812
 21
318.5697486269531
 72
     1
 10
674.7556681757812
 20
318.5697486269531
 11
674.6662201757812
 21
318.5007826269531
 72
     1
 10
674.6662201757812
 20
318.5007826269531
 11
674.5812981757812
 21
318.4264376269531
 72
     1
 10
674.5812981757812
 20
318.4264376269531
 11
674.5013751757812
 21
318.3468566269531
 72
     1
 10
674.5013751757812
 20
318.3468566269531
 11
674.4265241757812
 21
318.2624166269532
 72
     1
 10
674.4265241757812
 20
318.2624166269532
 11
674.3567781757812
 21
318.1736066269531
 72
     1
 10
674.3567781757812
 20
318.1736066269531
 11
674.2921681757812
 21
318.0809116269531
 72
     1
 10
674.2921681757812
 20
318.0809116269531
 11
674.2327241757813
 21
317.9848176269531
 72
     1
 10
674.2327241757813
 20
317.9848176269531
 11
674.1295461757812
 21
317.7839316269531
 72
     1
 10
674.1295461757812
 20
317.7839316269531
 11
674.0861161757813
 21
317.679741626953
 72
     1
 10
674.0861161757813
 20
317.679741626953
 11
674.0483121757812
 21
317.5733856269532
 72
     1
 10
674.0483121757812
 20
317.5733856269532
 11
674.0162771757812
 21
317.4651166269531
 72
     1
 10
674.0162771757812
 20
317.4651166269531
 11
673.9901591757813
 21
317.3552326269531
 72
     1
 10
673.9901591757813
 20
317.3552326269531
 11
673.9701061757812
 21
317.2440556269531
 72
     1
 10
673.9701061757812
 20
317.2440556269531
 11
673.9562781757812
 21
317.1319546269531
 72
     1
 10
673.9562781757812
 20
317.1319546269531
 11
673.9488331757811
 21
317.0192986269531
 72
     1
 10
673.9488331757811
 20
317.0192986269531
 11
673.9479311757812
 21
316.9064566269531
 72
     1
 10
673.9479311757812
 20
316.9064566269531
 11
673.9538131757813
 21
316.7935146269531
 72
     1
 10
673.9538131757813
 20
316.7935146269531
 11
673.9763581757812
 21
316.6256856269531
 72
     1
 10
673.9763581757812
 20
316.6256856269531
 11
674.0008971757812
 21
316.5158056269531
 72
     1
 10
674.0008971757812
 20
316.5158056269531
 11
674.0497161757811
 21
316.3537966269531
 72
     1
 10
674.0497161757811
 20
316.3537966269531
 11
674.1322311757812
 21
316.1434936269531
 72
     1
 10
674.1322311757812
 20
316.1434936269531
 11
674.2071571757812
 21
315.9916856269531
 72
     1
 10
674.2071571757812
 20
315.9916856269531
 11
674.2939311757813
 21
315.8467276269531
 72
     1
 10
674.2939311757813
 20
315.8467276269531
 11
674.3756201757813
 21
315.7316626269532
 72
     1
 10
674.3756201757813
 20
315.7316626269532
 11
674.4641301757813
 21
315.6215566269531
 72
     1
 10
674.4641301757813
 20
315.6215566269531
 11
674.5390311757812
 21
315.5366746269531
 72
     1
 10
674.5390311757812
 20
315.5366746269531
 11
674.6599611757813
 21
315.4178506269531
 72
     1
 10
674.6599611757813
 20
315.4178506269531
 11
674.7471951757813
 21
315.3468156269531
 72
     1
 10
674.7471951757813
 20
315.3468156269531
 11
674.8872621757812
 21
315.2525576269531
 72
     1
 10
674.8872621757812
 20
315.2525576269531
 11
675.0110471757813
 21
315.184199626953
 72
     1
 10
675.0110471757813
 20
315.184199626953
 11
675.1386861757812
 21
315.1231156269531
 72
     1
 10
675.1386861757812
 20
315.1231156269531
 11
675.3470631757813
 21
315.0358996269531
 72
     1
 10
675.3470631757813
 20
315.0358996269531
 11
675.6686611757812
 21
314.9303236269531
 72
     1
 10
675.6686611757812
 20
314.9303236269531
 11
675.8880701757812
 21
314.8787806269531
 72
     1
 10
675.8880701757812
 20
314.8787806269531
 11
676.2222081757812
 21
314.8252806269531
 72
     1
 10
676.2222081757812
 20
314.8252806269531
 11
676.5029351757812
 21
314.7976856269531
 72
     1
 10
676.5029351757812
 20
314.7976856269531
 11
676.7845371757812
 21
314.7856046269531
 72
     1
 10
676.7845371757812
 20
314.7856046269531
 11
677.3473791757813
 21
314.8090776269531
 72
     1
 10
677.3473791757813
 20
314.8090776269531
 11
677.6282471757812
 21
314.8419106269531
 72
     1
 10
677.6282471757812
 20
314.8419106269531
 11
677.9068591757813
 21
314.8896776269531
 72
     1
 10
677.9068591757813
 20
314.8896776269531
 11
678.1811731757812
 21
314.9557866269531
 72
     1
 10
678.1811731757812
 20
314.9557866269531
 11
678.4472771757812
 21
315.0473766269531
 72
     1
 10
678.4472771757812
 20
315.0473766269531
 11
678.7046191757812
 21
315.1627666269531
 72
     1
 10
678.7046191757812
 20
315.1627666269531
 11
678.8303541757812
 21
315.2266286269531
 72
     1
 10
678.8303541757812
 20
315.2266286269531
 11
678.9520351757812
 21
315.2976876269531
 72
     1
 10
678.9520351757812
 20
315.2976876269531
 11
679.0446731757811
 21
315.3622246269532
 72
     1
 10
679.0446731757811
 20
315.3622246269532
 11
679.1106761757812
 21
315.4153376269531
 72
     1
 10
679.1106761757812
 20
315.4153376269531
 11
679.1732311757812
 21
315.4723896269531
 72
     1
 10
679.1732311757812
 20
315.4723896269531
 11
679.2507651757812
 21
315.5542576269531
 72
     1
 10
679.2507651757812
 20
315.5542576269531
 11
679.3551801757812
 21
315.687531626953
 72
     1
 10
679.3551801757812
 20
315.687531626953
 11
679.4171231757813
 21
315.7820356269531
 72
     1
 10
679.4171231757813
 20
315.7820356269531
 11
679.4586011757813
 21
315.855828626953
 72
     1
 10
679.4586011757813
 20
315.855828626953
 11
679.4948651757812
 21
315.9322706269531
 72
     1
 10
679.4948651757812
 20
315.9322706269531
 11
679.5340081757812
 21
316.0382486269531
 72
     1
 10
679.5340081757812
 20
316.0382486269531
 11
679.5564051757812
 21
316.1200426269531
 72
     1
 10
679.5564051757812
 20
316.1200426269531
 11
679.5729281757813
 21
316.2030866269531
 72
     1
 10
679.5729281757813
 20
316.2030866269531
 11
677.8120781757812
 21
316.2030866269531
 72
     1
 10
677.8120781757812
 20
316.2030866269531
 11
677.7038151757813
 21
316.1225816269531
 72
     1
 10
677.7038151757813
 20
316.1225816269531
 11
677.6183971757813
 21
316.0680976269531
 72
     1
 10
677.6183971757813
 20
316.0680976269531
 11
677.5298311757812
 21
316.0188756269531
 72
     1
 10
677.5298311757812
 20
316.0188756269531
 11
677.4538131757813
 21
315.9822156269531
 72
     1
 10
677.4538131757813
 20
315.9822156269531
 11
677.3756311757812
 21
315.950749626953
 72
     1
 10
677.3756311757812
 20
315.950749626953
 11
677.3113321757811
 21
315.9300776269531
 72
     1
 10
677.3113321757811
 20
315.9300776269531
 11
677.2127061757812
 21
315.9065306269531
 72
     1
 10
677.2127061757812
 20
315.9065306269531
 11
677.0783921757812
 21
315.8879786269531
 72
     1
 10
677.0783921757812
 20
315.8879786269531
 11
676.9766941757812
 21
315.8830986269531
 72
     1
 10
676.9766941757812
 20
315.8830986269531
 11
676.8748641757812
 21
315.8854236269531
 72
     1
 10
676.8748641757812
 20
315.8854236269531
 11
676.7404471757812
 21
315.8989386269531
 72
     1
 10
676.7404471757812
 20
315.8989386269531
 11
676.6407361757813
 21
315.9166306269531
 72
     1
 10
676.6407361757813
 20
315.9166306269531
 11
676.5423841757812
 21
315.9406286269531
 72
     1
 10
676.5423841757812
 20
315.9406286269531
 11
676.4139391757813
 21
315.9824796269531
 72
     1
 10
676.4139391757813
 20
315.9824796269531
 11
676.3204501757813
 21
316.0217436269531
 72
     1
 10
676.3204501757813
 20
316.0217436269531
 11
676.2300361757812
 21
316.0682886269531
 72
     1
 10
676.2300361757812
 20
316.0682886269531
 11
676.1718951757813
 21
316.1035826269531
 72
     1
 10
676.1718951757813
 20
316.1035826269531
 11
676.1161321757811
 21
316.142546626953
 72
     1
 10
676.1161321757811
 20
316.142546626953
 11
676.0635051757812
 21
316.1854096269531
 72
     1
 10
676.0635051757812
 20
316.1854096269531
 11
676.0147741757812
 21
316.2323986269531
 72
     1
 10
676.0147741757812
 20
316.2323986269531
 11
675.9706971757812
 21
316.2837426269531
 72
     1
 10
675.9706971757812
 20
316.2837426269531
 11
675.9319321757812
 21
316.3394926269531
 72
     1
 10
675.9319321757812
 20
316.3394926269531
 11
675.8987241757812
 21
316.3990046269531
 72
     1
 10
675.8987241757812
 20
316.3990046269531
 11
675.8712161757812
 21
316.4614556269531
 72
     1
 10
675.8712161757812
 20
316.4614556269531
 11
675.8495531757812
 21
316.5260236269531
 72
     1
 10
675.8495531757812
 20
316.5260236269531
 11
675.8338781757813
 21
316.5918866269531
 72
     1
 10
675.8338781757813
 20
316.5918866269531
 11
676.5201281757811
 21
316.5918866269531
 97
        0
 92
        0
 93
       43
 72
     1
 10
675.8338781757813
 20
317.4266366269532
 11
676.6231781757812
 21
317.4266366269532
 72
     1
 10
676.6231781757812
 20
317.4266366269532
 11
677.8120781757812
 21
317.4266366269532
 72
     1
 10
677.8120781757812
 20
317.4266366269532
 11
677.8081541757813
 21
317.4638586269531
 72
     1
 10
677.8081541757813
 20
317.4638586269531
 11
677.8020571757812
 21
317.5008736269531
 72
     1
 10
677.8020571757812
 20
317.5008736269531
 11
677.7937471757812
 21
317.5374916269531
 72
     1
 10
677.7937471757812
 20
317.5374916269531
 11
677.7831871757812
 21
317.5735206269532
 72
     1
 10
677.7831871757812
 20
317.5735206269532
 11
677.7703401757811
 21
317.6087716269531
 72
     1
 10
677.7703401757811
 20
317.6087716269531
 11
677.7552111757813
 21
317.6430486269531
 72
     1
 10
677.7552111757813
 20
317.6430486269531
 11
677.7379191757813
 21
317.6762886269531
 72
     1
 10
677.7379191757813
 20
317.6762886269531
 11
677.7186221757812
 21
317.7084246269531
 72
     1
 10
677.7186221757812
 20
317.7084246269531
 11
677.6974801757813
 21
317.7393866269531
 72
     1
 10
677.6974801757813
 20
317.7393866269531
 11
677.6746501757813
 21
317.7691066269531
 72
     1
 10
677.6746501757813
 20
317.7691066269531
 11
677.6242131757812
 21
317.8249766269531
 72
     1
 10
677.6242131757812
 20
317.8249766269531
 11
677.5829431757812
 21
317.8635016269531
 72
     1
 10
677.5829431757812
 20
317.8635016269531
 11
677.5392041757812
 21
317.899210626953
 72
     1
 10
677.5392041757812
 20
317.899210626953
 11
677.4779521757813
 21
317.9423786269531
 72
     1
 10
677.4779521757813
 20
317.9423786269531
 11
677.4299491757813
 21
317.9715866269531
 72
     1
 10
677.4299491757813
 20
317.9715866269531
 11
677.3804061757812
 21
317.9980856269531
 72
     1
 10
677.3804061757812
 20
317.9980856269531
 11
677.3122681757812
 21
318.0292446269531
 72
     1
 10
677.3122681757812
 20
318.0292446269531
 11
677.2065181757812
 21
318.0672536269531
 72
     1
 10
677.2065181757812
 20
318.0672536269531
 11
677.1340891757812
 21
318.0869886269531
 72
     1
 10
677.1340891757812
 20
318.0869886269531
 11
677.0235301757812
 21
318.1082496269531
 72
     1
 10
677.0235301757812
 20
318.1082496269531
 11
676.9486371757813
 21
318.1169766269531
 72
     1
 10
676.9486371757813
 20
318.1169766269531
 11
676.8357331757812
 21
318.1222126269531
 72
     1
 10
676.8357331757812
 20
318.1222126269531
 11
676.7602841757812
 21
318.1206686269531
 72
     1
 10
676.7602841757812
 20
318.1206686269531
 11
676.6472991757812
 21
318.1102446269531
 72
     1
 10
676.6472991757812
 20
318.1102446269531
 11
676.5734431757812
 21
318.0972666269531
 72
     1
 10
676.5734431757812
 20
318.0972666269531
 11
676.5371401757812
 21
318.0882896269531
 72
     1
 10
676.5371401757812
 20
318.0882896269531
 11
676.5015691757812
 21
318.0772536269531
 72
     1
 10
676.5015691757812
 20
318.0772536269531
 11
676.4669671757813
 21
318.0638606269531
 72
     1
 10
676.4669671757813
 20
318.0638606269531
 11
676.4333991757812
 21
318.0479506269531
 72
     1
 10
676.4333991757812
 20
318.0479506269531
 11
676.3038981757812
 21
317.9731236269531
 72
     1
 10
676.3038981757812
 20
317.9731236269531
 11
676.1406491757813
 21
317.8830236269531
 72
     1
 10
676.1406491757813
 20
317.8830236269531
 11
676.1100311757813
 21
317.8616026269531
 72
     1
 10
676.1100311757813
 20
317.8616026269531
 11
676.0806801757813
 21
317.8383226269531
 72
     1
 10
676.0806801757813
 20
317.8383226269531
 11
676.0526461757812
 21
317.8133536269531
 72
     1
 10
676.0526461757812
 20
317.8133536269531
 11
676.0007361757812
 21
317.7590326269531
 72
     1
 10
676.0007361757812
 20
317.7590326269531
 11
675.9543961757811
 21
317.6994676269532
 72
     1
 10
675.9543961757811
 20
317.6994676269532
 11
675.9236761757811
 21
317.6519936269531
 72
     1
 10
675.9236761757811
 20
317.6519936269531
 11
675.8965121757813
 21
317.6023746269531
 72
     1
 10
675.8965121757813
 20
317.6023746269531
 11
675.8662551757812
 21
317.5339156269531
 72
     1
 10
675.8662551757812
 20
317.5339156269531
 11
675.8480351757811
 21
317.4808376269531
 72
     1
 10
675.8480351757811
 20
317.4808376269531
 11
675.8338781757813
 21
317.4266366269532
 97
        0
 75
     0
 76
     2
 52
0.0
 41
0.062992
 77
     0
 78
     1
 53
44.99999999988837
 43
0.0
 44
0.0
 45
-3.592095212307267
 46
3.592095212321264
 79
     0
 98
        0
  0
HATCH
  5
C9
330
1F
100
AcDbEntity
  8
CARTOUCHE
  6
CONTINUOUS
 62
     4
100
AcDbHatch
 10
0.0
 20
0.0
 30
0.0
210
0.0
220
0.0
230
1.0
  2
ANSI_31
 70
     0
 71
     0
 91
        1
 92
        1
 93
       78
 72
     1
 10
680.2020281757812
 20
318.8558366269531
 11
680.2020281757812
 21
314.9795366269531
 72
     1
 10
680.2020281757812
 20
314.9795366269531
 11
681.9286781757812
 21
314.9795366269531
 72
     1
 10
681.9286781757812
 20
314.9795366269531
 11
681.9286781757812
 21
317.1296366269531
 72
     1
 10
681.9286781757812
 20
317.1296366269531
 11
681.9325431757812
 21
317.1730056269531
 72
     1
 10
681.9325431757812
 20
317.1730056269531
 11
681.9400011757813
 21
317.2160286269531
 72
     1
 10
681.9400011757813
 20
317.2160286269531
 11
681.9509341757813
 21
317.2584336269531
 72
     1
 10
681.9509341757813
 20
317.2584336269531
 11
681.9652271757813
 21
317.299946626953
 72
     1
 10
681.9652271757813
 20
317.299946626953
 11
681.9827621757812
 21
317.3402936269531
 72
     1
 10
681.9827621757812
 20
317.3402936269531
 11
682.0034411757813
 21
317.3791976269531
 72
     1
 10
682.0034411757813
 20
317.3791976269531
 11
682.0271771757813
 21
317.4162566269531
 72
     1
 10
682.0271771757813
 20
317.4162566269531
 11
682.0538961757812
 21
317.4510666269531
 72
     1
 10
682.0538961757812
 20
317.4510666269531
 11
682.0835281757812
 21
317.4832226269531
 72
     1
 10
682.0835281757812
 20
317.4832226269531
 11
682.1159981757812
 21
317.5123206269531
 72
     1
 10
682.1159981757812
 20
317.5123206269531
 11
682.1511641757812
 21
317.5380296269531
 72
     1
 10
682.1511641757812
 20
317.5380296269531
 11
682.1886811757812
 21
317.5603756269531
 72
     1
 10
682.1886811757812
 20
317.5603756269531
 11
682.2281381757813
 21
317.5794546269531
 72
     1
 10
682.2281381757813
 20
317.5794546269531
 11
682.2691221757811
 21
317.5953626269531
 72
     1
 10
682.2691221757811
 20
317.5953626269531
 11
682.3112211757813
 21
317.6081976269531
 72
     1
 10
682.3112211757813
 20
317.6081976269531
 11
682.3545101757812
 21
317.618097626953
 72
     1
 10
682.3545101757812
 20
317.618097626953
 11
682.3982961757812
 21
317.6247866269531
 72
     1
 10
682.3982961757812
 20
317.6247866269531
 11
682.4423621757812
 21
317.6280916269531
 72
     1
 10
682.4423621757812
 20
317.6280916269531
 11
682.4864881757812
 21
317.6278436269531
 72
     1
 10
682.4864881757812
 20
317.6278436269531
 11
682.5304541757812
 21
317.6238706269531
 72
     1
 10
682.5304541757812
 20
317.6238706269531
 11
682.5733741757813
 21
317.6161786269531
 72
     1
 10
682.5733741757813
 20
317.6161786269531
 11
682.6155261757812
 21
317.6047366269531
 72
     1
 10
682.6155261757812
 20
317.6047366269531
 11
682.6565111757812
 21
317.5895786269531
 72
     1
 10
682.6565111757812
 20
317.5895786269531
 11
682.6959281757812
 21
317.5707356269531
 72
     1
 10
682.6959281757812
 20
317.5707356269531
 11
682.7333761757812
 21
317.5482396269531
 72
     1
 10
682.7333761757812
 20
317.5482396269531
 11
682.7685591757812
 21
317.5220846269531
 72
     1
 10
682.7685591757812
 20
317.5220846269531
 11
682.8010021757812
 21
317.4925616269531
 72
     1
 10
682.8010021757812
 20
317.4925616269531
 11
682.8303461757813
 21
317.4599416269531
 72
     1
 10
682.8303461757813
 20
317.4599416269531
 11
682.8562361757812
 21
317.424496626953
 72
     1
 10
682.8562361757812
 20
317.424496626953
 11
682.8783121757813
 21
317.3864986269531
 72
     1
 10
682.8783121757813
 20
317.3864986269531
 11
682.8961841757813
 21
317.3464536269531
 72
     1
 10
682.8961841757813
 20
317.3464536269531
 11
682.9097871757812
 21
317.3047196269531
 72
     1
 10
682.9097871757812
 20
317.3047196269531
 11
682.9189851757812
 21
317.2618656269531
 72
     1
 10
682.9189851757812
 20
317.2618656269531
 11
682.9236441757813
 21
317.2184646269531
 72
     1
 10
682.9236441757813
 20
317.2184646269531
 11
682.9242291757813
 21
317.1967366269531
 72
     1
 10
682.9242291757813
 20
317.1967366269531
 11
682.9236281757812
 21
317.1750866269531
 72
     1
 10
682.9236281757812
 20
317.1750866269531
 11
682.9236281757812
 21
316.9352366269531
 72
     1
 10
682.9236281757812
 20
316.9352366269531
 11
684.7528781757812
 21
316.9352366269531
 72
     1
 10
684.7528781757812
 20
316.9352366269531
 11
684.7695351757812
 21
317.0893436269531
 72
     1
 10
684.7695351757812
 20
317.0893436269531
 11
684.7770891757813
 21
317.2442066269531
 72
     1
 10
684.7770891757813
 20
317.2442066269531
 11
684.7752781757812
 21
317.3993636269531
 72
     1
 10
684.7752781757812
 20
317.3993636269531
 11
684.7647031757812
 21
317.5541586269531
 72
     1
 10
684.7647031757812
 20
317.5541586269531
 11
684.7459631757812
 21
317.7084146269531
 72
     1
 10
684.7459631757812
 20
317.7084146269531
 11
684.7189551757812
 21
317.8615396269531
 72
     1
 10
684.7189551757812
 20
317.8615396269531
 11
684.6909291757811
 21
317.9825146269531
 72
     1
 10
684.6909291757811
 20
317.9825146269531
 11
684.6649751757813
 21
318.0718876269531
 72
     1
 10
684.6649751757813
 20
318.0718876269531
 11
684.6337351757812
 21
318.1594916269531
 72
     1
 10
684.6337351757812
 20
318.1594916269531
 11
684.5825541757813
 21
318.2726926269531
 72
     1
 10
684.5825541757813
 20
318.2726926269531
 11
684.5369221757812
 21
318.3540576269531
 72
     1
 10
684.5369221757812
 20
318.3540576269531
 11
684.4851121757812
 21
318.4317426269531
 72
     1
 10
684.4851121757812
 20
318.4317426269531
 11
684.4470731757812
 21
318.4812906269531
 72
     1
 10
684.4470731757812
 20
318.4812906269531
 11
684.4063421757812
 21
318.5286506269532
 72
     1
 10
684.4063421757812
 20
318.5286506269532
 11
684.3629721757812
 21
318.5735396269531
 72
     1
 10
684.3629721757812
 20
318.5735396269531
 11
684.3170181757812
 21
318.6156726269531
 72
     1
 10
684.3170181757812
 20
318.6156726269531
 11
684.2685311757812
 21
318.654768626953
 72
     1
 10
684.2685311757812
 20
318.654768626953
 11
684.2179021757812
 21
318.6904236269531
 72
     1
 10
684.2179021757812
 20
318.6904236269531
 11
684.1651421757813
 21
318.7229396269531
 72
     1
 10
684.1651421757813
 20
318.7229396269531
 11
684.0827121757812
 21
318.7661456269531
 72
     1
 10
684.0827121757812
 20
318.7661456269531
 11
683.9972971757812
 21
318.8031066269531
 72
     1
 10
683.9972971757812
 20
318.8031066269531
 11
683.8793401757812
 21
318.8439766269531
 72
     1
 10
683.8793401757812
 20
318.8439766269531
 11
683.6979351757813
 21
318.8903146269531
 72
     1
 10
683.6979351757813
 20
318.8903146269531
 11
683.5760261757813
 21
318.9135176269531
 72
     1
 10
683.5760261757813
 20
318.9135176269531
 11
683.3914411757811
 21
318.9352636269531
 72
     1
 10
683.3914411757811
 20
318.9352636269531
 11
683.2675591757812
 21
318.9392586269531
 72
     1
 10
683.2675591757812
 20
318.9392586269531
 11
683.0816231757811
 21
318.9311456269531
 72
     1
 10
683.0816231757811
 20
318.9311456269531
 11
682.9269811757813
 21
318.9137166269531
 72
     1
 10
682.9269811757813
 20
318.9137166269531
 11
682.7737711757812
 21
318.8869246269531
 72
     1
 10
682.7737711757812
 20
318.8869246269531
 11
682.6528601757813
 21
318.8585776269531
 72
     1
 10
682.6528601757813
 20
318.8585776269531
 11
682.4748541757813
 21
318.8034726269531
 72
     1
 10
682.4748541757813
 20
318.8034726269531
 11
682.3594891757813
 21
318.7579606269531
 72
     1
 10
682.3594891757813
 20
318.7579606269531
 11
682.2468721757813
 21
318.7056406269531
 72
     1
 10
682.2468721757813
 20
318.7056406269531
 11
682.1373191757812
 21
318.6470226269531
 72
     1
 10
682.1373191757812
 20
318.6470226269531
 11
681.9286781757812
 21
318.5129366269531
 72
     1
 10
681.9286781757812
 20
318.5129366269531
 11
681.9286781757812
 21
318.8558366269531
 72
     1
 10
681.9286781757812
 20
318.8558366269531
 11
680.2020281757812
 21
318.8558366269531
 97
        0
 75
     0
 76
     2
 52
0.0
 41
0.062992
 77
     0
 78
     1
 53
44.99999999988837
 43
0.0
 44
0.0
 45
-3.592095212307267
 46
3.592095212321264
 79
     0
 98
        0
  0
LINE
  5
CA
330
1F
100
AcDbEntity
  8
CARTOUCHE
  6
CONTINUOUS
 62
     7
100
AcDbLine
 10
842.469092
 20
331.192599
 30
0.0
 11
642.469055
 21
331.192905
 31
0.0
  0
LINE
  5
CB
330
1F
100
AcDbEntity
  8
CARTOUCHE
  6
CONTINUOUS
 62
     7
100
AcDbLine
 10
790.802385
 20
314.35033
 30
0.0
 11
790.802385
 21
304.348388
 31
0.0
  0
TEXT
  5
CC
330
1F
100
AcDbEntity
  8
CARTOUCHE
  6
CONTINUOUS
 62
     2
100
AcDbText
 10
653.659973
 20
308.656219
 30
0.0
 40
1.8
  1
www.findernet.com
 50
359.999908
 41
0.39
  7
FINDER
100
AcDbText
  0
TEXT
  5
CD
330
1F
100
AcDbEntity
  8
CARTOUCHE
  6
CONTINUOUS
 62
     7
100
AcDbText
 10
762.388611
 20
310.97168
 30
0.0
 40
1.8
  1
DATE
 50
359.999908
 41
0.41
  7
FINDER
100
AcDbText
  0
TEXT
  5
CE
330
1F
100
AcDbEntity
  8
CARTOUCHE
  6
CONTINUOUS
 62
     7
100
AcDbText
 10
813.34613
 20
310.971588
 30
0.0
 40
1.8
  1
SCALE
 50
359.999908
 41
0.4
  7
FINDER
100
AcDbText
  0
INSERT
  5
D7
330
1F
100
AcDbEntity
  8
CARTOUCHE
  6
CONTINUOUS
 62
     7
100
AcDbBlockReference
  2
LW_POLYLINE_1
 10
842.469116
 20
586.347656
 30
0.0
  0
TEXT
  5
D8
330
1F
100
AcDbEntity
  8
CARTOUCHE
  6
CONTINUOUS
 62
     1
100
AcDbText
 10
712.657166
 20
306.123718
 30
0.0
 40
2.1
  1
0
 50
359.999908
  7
FINDER
100
AcDbText
  0
TEXT
  5
D9
330
1F
100
AcDbEntity
  8
CARTOUCHE
  6
CONTINUOUS
 62
     1
100
AcDbText
 10
761.36499
 20
306.123657
 30
0.0
 40
2.1
  1
07/07/10
 50
359.999908
 41
0.58
  7
FINDER
100
AcDbText
  0
TEXT
  5
DA
330
1F
100
AcDbEntity
  8
CARTOUCHE
  6
CONTINUOUS
 62
     1
100
AcDbText
 10
815.092102
 20
306.123566
 30
0.0
 40
2.1
  1
1:1
 50
359.999908
 41
1.24
  7
FINDER
100
AcDbText
  0
TEXT
  5
DB
330
1F
100
AcDbEntity
  8
CARTOUCHE
  6
CONTINUOUS
 62
     1
100
AcDbText
 10
759.096579
 20
316.977401
 30
0.0
 40
3.0
  1
45.31
 50
359.999908
 41
0.63
  7
FINDER
100
AcDbText
  0
DIMENSION
  5
DC
330
1F
100
AcDbEntity
  8
DIM
  6
CONTINUOUS
 62
     6
100
AcDbDimension
  2
*D4
 10
755.297788
 20
485.743286
 30
0.0
 11
761.547791
 21
485.743286
 31
0.0
 70
   161
  1
<>
  3
ISO_FINDER
100
AcDbAlignedDimension
 13
767.797788
 23
449.578417
 33
0.0
 14
755.297788
 24
449.578417
 34
0.0
1001
ACAD
1000
DSTYLE
1002
{
1070
   287
1070
     3
1070
     7
1000

1070
     6
1000

1070
   280
1070
     0
1070
    76
1070
     0
1070
    75
1070
     0
1070
   279
1070
     0
1070
    41
1040
1.2
1070
   176
1070
     3
1070
   177
1070
     3
1070
    42
1040
0.3
1070
   147
1040
1.75
1002
}
  0
LINE
  5
E9
330
1F
100
AcDbEntity
  8
0
  6
CONTINUOUS
 62
     4
100
AcDbLine
 10
762.547787
 20
449.578417
 30
0.0
 11
762.547787
 21
449.078417
 31
0.0
  0
LINE
  5
EA
330
1F
100
AcDbEntity
  8
0
  6
CONTINUOUS
 62
     4
100
AcDbLine
 10
760.547787
 20
449.578417
 30
0.0
 11
760.547787
 21
449.078417
 31
0.0
  0
LINE
  5
EB
330
1F
100
AcDbEntity
  8
0
  6
CONTINUOUS
 62
     4
100
AcDbLine
 10
762.547787
 20
449.078417
 30
0.0
 11
760.547787
 21
449.078417
 31
0.0
  0
LINE
  5
EC
330
1F
100
AcDbEntity
  8
0
  6
CONTINUOUS
 62
     4
100
AcDbLine
 10
756.397788
 20
449.578417
 30
0.0
 11
756.397788
 21
449.078417
 31
0.0
  0
LINE
  5
ED
330
1F
100
AcDbEntity
  8
0
  6
CONTINUOUS
 62
     4
100
AcDbLine
 10
759.197788
 20
449.578417
 30
0.0
 11
759.197788
 21
449.078417
 31
0.0
  0
LINE
  5
EE
330
1F
100
AcDbEntity
  8
0
  6
CONTINUOUS
 62
     4
100
AcDbLine
 10
763.897788
 20
449.578417
 30
0.0
 11
763.897788
 21
449.078417
 31
0.0
  0
LINE
  5
EF
330
1F
100
AcDbEntity
  8
0
  6
CONTINUOUS
 62
     4
100
AcDbLine
 10
766.697788
 20
449.578417
 30
0.0
 11
766.697788
 21
449.078417
 31
0.0
  0
LINE
  5
F0
330
1F
100
AcDbEntity
  8
0
  6
CONTINUOUS
 62
     4
100
AcDbLine
 10
758.486463
 20
449.078417
 30
0.0
 11
758.197788
 21
449.578417
 31
0.0
  0
LINE
  5
F1
330
1F
100
AcDbEntity
  8
0
  6
CONTINUOUS
 62
     4
100
AcDbLine
 10
759.197788
 20
449.078417
 30
0.0
 11
758.486463
 21
449.078417
 31
0.0
  0
LINE
  5
F2
330
1F
100
AcDbEntity
  8
0
  6
CONTINUOUS
 62
     4
100
AcDbLine
 10
757.109113
 20
449.078417
 30
0.0
 11
757.397788
 21
449.578417
 31
0.0
  0
LINE
  5
F3
330
1F
100
AcDbEntity
  8
0
  6
CONTINUOUS
 62
     4
100
AcDbLine
 10
757.109113
 20
449.078417
 30
0.0
 11
756.397788
 21
449.078417
 31
0.0
  0
LINE
  5
F4
330
1F
100
AcDbEntity
  8
0
  6
CONTINUOUS
 62
     4
100
AcDbLine
 10
765.986463
 20
449.078417
 30
0.0
 11
765.697788
 21
449.578417
 31
0.0
  0
LINE
  5
F5
330
1F
100
AcDbEntity
  8
0
  6
CONTINUOUS
 62
     4
100
AcDbLine
 10
766.697788
 20
449.078417
 30
0.0
 11
765.986463
 21
449.078417
 31
0.0
  0
LINE
  5
F6
330
1F
100
AcDbEntity
  8
0
  6
CONTINUOUS
 62
     4
100
AcDbLine
 10
764.609113
 20
449.078417
 30
0.0
 11
764.897788
 21
449.578417
 31
0.0
  0
LINE
  5
F7
330
1F
100
AcDbEntity
  8
0
  6
CONTINUOUS
 62
     4
100
AcDbLine
 10
764.609113
 20
449.078417
 30
0.0
 11
763.897788
 21
449.078417
 31
0.0
  0
LINE
  5
F8
330
1F
100
AcDbEntity
  8
DRAW
  6
CONTINUOUS
 62
     5
100
AcDbLine
 10
758.197788
 20
455.078417
 30
0.0
 11
758.197788
 21
451.078417
 31
0.0
  0
LINE
  5
F9
330
1F
100
AcDbEntity
  8
DRAW
  6
CONTINUOUS
 62
     5
100
AcDbLine
 10
757.397788
 20
451.078417
 30
0.0
 11
757.397788
 21
455.078417
 31
0.0
  0
LINE
  5
FA
330
1F
100
AcDbEntity
  8
DRAW
  6
CONTINUOUS
 62
     5
100
AcDbLine
 10
765.697788
 20
451.078417
 30
0.0
 11
765.697788
 21
455.078417
 31
0.0
  0
LINE
  5
FB
330
1F
100
AcDbEntity
  8
DRAW
  6
CONTINUOUS
 62
     5
100
AcDbLine
 10
764.897788
 20
455.078417
 30
0.0
 11
764.897788
 21
451.078417
 31
0.0
  0
LINE
  5
FC
330
1F
100
AcDbEntity
  8
DRAW
  6
CONTINUOUS
 62
     5
100
AcDbLine
 10
765.697788
 20
455.078417
 30
0.0
 11
764.897788
 21
455.078417
 31
0.0
  0
LINE
  5
FD
330
1F
100
AcDbEntity
  8
DRAW
  6
CONTINUOUS
 62
     5
100
AcDbLine
 10
758.197788
 20
455.078417
 30
0.0
 11
757.397788
 21
455.078417
 31
0.0
  0
LINE
  5
FE
330
1F
100
AcDbEntity
  8
DRAW
  6
CONTINUOUS
 62
     5
100
AcDbLine
 10
759.847788
 20
455.0565
 30
0.0
 11
763.247788
 21
455.0565
 31
0.0
  0
SPLINE
  5
FF
330
1F
100
AcDbEntity
  8
DRAW
  6
CONTINUOUS
 62
     5
100
AcDbSpline
210
0.0
220
0.0
230
1.0
 70
     8
 71
     3
 72
    16
 73
    12
 74
     0
 42
0.0
 43
0.0
 40
0.0
 40
0.0
 40
0.0
 40
0.0
 40
0.1165047746375831
 40
0.3495143239127494
 40
0.6833434329546206
 40
0.9868693872818401
 40
1.247721843629691
 40
1.457388252249976
 40
1.614379122996585
 40
1.69305636655055
 40
1.732394988327533
 40
1.732394988327533
 40
1.732394988327533
 40
1.732394988327533
 10
763.2477881732472
 20
451.1481096092604
 30
0.0
 10
763.2477881738027
 20
451.1092746843811
 30
0.0
 10
763.2491653795578
 20
450.9927699097632
 30
0.0
 10
763.2599818299705
 20
450.7650841542566
 30
0.0
 10
763.291371046126
 20
450.4763887345925
 30
0.0
 10
763.3486266500761
 20
450.1820961588122
 30
0.0
 10
763.4241689958126
 20
449.9346867376884
 30
0.0
 10
763.5152588302483
 20
449.745173305159
 30
0.0
 10
763.6094002854259
 20
449.6277673209042
 30
0.0
 10
763.6953366999996
 20
449.5832754158012
 30
0.0
 10
763.7346753217768
 20
449.578417132309
 30
0.0
 10
763.7477881957025
 20
449.578417132309
 30
0.0
  0
LINE
  5
100
330
1F
100
AcDbEntity
  8
0
  6
CONTINUOUS
 62
     4
100
AcDbLine
 10
762.547787
 20
449.578417
 30
0.0
 11
763.747788
 21
449.578417
 31
0.0
  0
SPLINE
  5
101
330
1F
100
AcDbEntity
  8
DRAW
  6
CONTINUOUS
 62
     5
100
AcDbSpline
210
0.0
220
0.0
230
1.0
 70
     8
 71
     3
 72
    16
 73
    12
 74
     0
 42
0.0
 43
0.0
 40
0.0
 40
0.0
 40
0.0
 40
0.0
 40
0.1165047745180848
 40
0.3495143235542544
 40
0.6833434315446607
 40
0.9868693842007124
 40
1.247721838390249
 40
1.457388244591219
 40
1.614379113101837
 40
1.693056355948134
 40
1.732394977371281
 40
1.732394977371281
 40
1.732394977371281
 40
1.732394977371281
 10
759.8477881732472
 20
451.1481096092604
 30
0.0
 10
759.8477881738028
 20
451.109274684421
 30
0.0
 10
759.8464109713841
 20
450.9927699098832
 30
0.0
 10
759.835594527502
 20
450.7650841545366
 30
0.0
 10
759.8042053196411
 20
450.47638873496
 30
0.0
 10
759.7469497241481
 20
450.1820961591907
 30
0.0
 10
759.6714073855296
 20
449.9346867380413
 30
0.0
 10
759.5803175565466
 20
449.7451733054164
 30
0.0
 10
759.4861761044777
 20
449.6277673207343
 30
0.0
 10
759.4002396909333
 20
449.5832754157138
 30
0.0
 10
759.3609010695102
 20
449.578417132309
 30
0.0
 10
759.3477881957025
 20
449.578417132309
 30
0.0
  0
LINE
  5
102
330
1F
100
AcDbEntity
  8
0
  6
CONTINUOUS
 62
     4
100
AcDbLine
 10
763.897788
 20
449.578417
 30
0.0
 11
763.747788
 21
449.578417
 31
0.0
  0
LINE
  5
103
330
1F
100
AcDbEntity
  8
0
  6
CONTINUOUS
 62
     4
100
AcDbLine
 10
759.347788
 20
449.578417
 30
0.0
 11
759.197788
 21
449.578417
 31
0.0
  0
LINE
  5
104
330
1F
100
AcDbEntity
  8
0
  6
CONTINUOUS
 62
     4
100
AcDbLine
 10
756.397788
 20
449.578417
 30
0.0
 11
756.306121
 21
449.578417
 31
0.0
  0
LINE
  5
105
330
1F
100
AcDbEntity
  8
0
  6
CONTINUOUS
 62
     4
100
AcDbLine
 10
767.553436
 20
477.578417
 30
0.0
 11
767.053455
 21
477.578417
 31
0.0
  0
LINE
  5
106
330
1F
100
AcDbEntity
  8
0
  6
CONTINUOUS
 62
     4
100
AcDbLine
 10
767.053455
 20
477.578417
 30
0.0
 11
756.042121
 21
477.578417
 31
0.0
  0
LINE
  5
107
330
1F
100
AcDbEntity
  8
0
  6
CONTINUOUS
 62
     4
100
AcDbLine
 10
755.54214
 20
477.578417
 30
0.0
 11
756.042121
 21
477.578417
 31
0.0
  0
LINE
  5
108
330
1F
100
AcDbEntity
  8
0
  6
CONTINUOUS
 62
     4
100
AcDbLine
 10
767.797788
 20
449.578417
 30
0.0
 11
767.297807
 21
449.578417
 31
0.0
  0
LINE
  5
109
330
1F
100
AcDbEntity
  8
0
  6
CONTINUOUS
 62
     4
100
AcDbLine
 10
767.297807
 20
449.578417
 30
0.0
 11
766.697788
 21
449.578417
 31
0.0
  0
LINE
  5
10A
330
1F
100
AcDbEntity
  8
0
  6
CONTINUOUS
 62
     4
100
AcDbLine
 10
767.553436
 20
477.578417
 30
0.0
 11
767.747134
 21
455.38278
 31
0.0
  0
ARC
  5
10B
330
1F
100
AcDbEntity
  8
DRAW
  6
CONTINUOUS
 62
     5
100
AcDbCircle
 10
-767.247153
 20
455.378417
 30
0.0
 40
0.5
210
0.0
220
0.0
230
-1.0
100
AcDbArc
 50
90.0
 51
179.5
  0
ARC
  5
10C
330
1F
100
AcDbEntity
  8
DRAW
  6
CONTINUOUS
 62
     5
100
AcDbCircle
 10
763.747788
 20
455.378417
 30
0.0
 40
0.4999999999999998
100
AcDbArc
 50
90.0
 51
180.0
  0
LINE
  5
10D
330
1F
100
AcDbEntity
  8
0
  6
CONTINUOUS
 62
     4
100
AcDbLine
 10
755.54214
 20
477.578417
 30
0.0
 11
755.348442
 21
455.38278
 31
0.0
  0
ARC
  5
10E
330
1F
100
AcDbEntity
  8
DRAW
  6
CONTINUOUS
 62
     5
100
AcDbCircle
 10
-755.848423
 20
455.378417
 30
0.0
 40
0.5000000000000002
210
0.0
220
0.0
230
-1.0
100
AcDbArc
 50
0.5
 51
90.0
  0
ARC
  5
10F
330
1F
100
AcDbEntity
  8
DRAW
  6
CONTINUOUS
 62
     5
100
AcDbCircle
 10
-759.347788
 20
455.378417
 30
0.0
 40
0.5000000000000007
210
0.0
220
0.0
230
-1.0
100
AcDbArc
 50
90.0
 51
180.0
  0
LINE
  5
110
330
1F
100
AcDbEntity
  8
DRAW
  6
CONTINUOUS
 62
     5
100
AcDbLine
 10
767.247153
 20
455.878417
 30
0.0
 11
763.747788
 21
455.878417
 31
0.0
  0
LINE
  5
111
330
1F
100
AcDbEntity
  8
0
  6
CONTINUOUS
 62
     4
100
AcDbLine
 10
767.797788
 20
449.578417
 30
0.0
 11
767.747134
 21
455.38278
 31
0.0
  0
LINE
  5
112
330
1F
100
AcDbEntity
  8
DRAW
  6
CONTINUOUS
 62
     5
100
AcDbLine
 10
763.247788
 20
455.378417
 30
0.0
 11
763.247788
 21
451.14811
 31
0.0
  0
LINE
  5
113
330
1F
100
AcDbEntity
  8
DRAW
  6
CONTINUOUS
 62
     5
100
AcDbLine
 10
759.347788
 20
455.878417
 30
0.0
 11
755.848423
 21
455.878417
 31
0.0
  0
LINE
  5
114
330
1F
100
AcDbEntity
  8
0
  6
CONTINUOUS
 62
     4
100
AcDbLine
 10
755.297788
 20
449.578417
 30
0.0
 11
755.348442
 21
455.38278
 31
0.0
  0
LINE
  5
115
330
1F
100
AcDbEntity
  8
DRAW
  6
CONTINUOUS
 62
     5
100
AcDbLine
 10
759.847788
 20
455.378417
 30
0.0
 11
759.847788
 21
451.14811
 31
0.0
  0
ARC
  5
116
330
1F
100
AcDbEntity
  8
0
  6
CONTINUOUS
 62
     4
100
AcDbCircle
 10
755.797788
 20
449.578417
 30
0.0
 40
0.5
100
AcDbArc
 50
180.0
 51
270.0
  0
LINE
  5
117
330
1F
100
AcDbEntity
  8
0
  6
CONTINUOUS
 62
     4
100
AcDbLine
 10
755.797788
 20
449.078417
 30
0.0
 11
756.097788
 21
449.078417
 31
0.0
  0
LINE
  5
118
330
1F
100
AcDbEntity
  8
0
  6
CONTINUOUS
 62
     4
100
AcDbLine
 10
767.297788
 20
449.078417
 30
0.0
 11
766.997788
 21
449.078417
 31
0.0
  0
ARC
  5
119
330
1F
100
AcDbEntity
  8
0
  6
CONTINUOUS
 62
     4
100
AcDbCircle
 10
767.297788
 20
449.578417
 30
0.0
 40
0.5
100
AcDbArc
 50
270.0
 51
360.0
  0
LINE
  5
11A
330
1F
100
AcDbEntity
  8
0
  6
CONTINUOUS
 62
     4
100
AcDbLine
 10
756.306121
 20
449.578417
 30
0.0
 11
756.097788
 21
449.078417
 31
0.0
  0
LINE
  5
11B
330
1F
100
AcDbEntity
  8
0
  6
CONTINUOUS
 62
     4
100
AcDbLine
 10
766.789454
 20
449.578417
 30
0.0
 11
766.997788
 21
449.078417
 31
0.0
  0
LINE
  5
11C
330
1F
100
AcDbEntity
  8
0
  6
CONTINUOUS
 62
     4
100
AcDbLine
 10
765.697788
 20
449.578417
 30
0.0
 11
764.897788
 21
449.578417
 31
0.0
  0
LINE
  5
11D
330
1F
100
AcDbEntity
  8
0
  6
CONTINUOUS
 62
     4
100
AcDbLine
 10
758.197788
 20
449.578417
 30
0.0
 11
757.397788
 21
449.578417
 31
0.0
  0
LINE
  5
11E
330
1F
100
AcDbEntity
  8
DRAW
  6
CONTINUOUS
 62
     5
100
AcDbLine
 10
757.397788
 20
451.078417
 30
0.0
 11
757.397788
 21
449.578417
 31
0.0
  0
LINE
  5
11F
330
1F
100
AcDbEntity
  8
DRAW
  6
CONTINUOUS
 62
     5
100
AcDbLine
 10
758.197788
 20
451.078417
 30
0.0
 11
757.397788
 21
451.078417
 31
0.0
  0
LINE
  5
120
330
1F
100
AcDbEntity
  8
DRAW
  6
CONTINUOUS
 62
     5
100
AcDbLine
 10
758.197788
 20
451.078417
 30
0.0
 11
758.197788
 21
449.578417
 31
0.0
  0
LINE
  5
121
330
1F
100
AcDbEntity
  8
DRAW
  6
CONTINUOUS
 62
     5
100
AcDbLine
 10
764.897788
 20
451.078417
 30
0.0
 11
764.897788
 21
449.578417
 31
0.0
  0
LINE
  5
122
330
1F
100
AcDbEntity
  8
DRAW
  6
CONTINUOUS
 62
     5
100
AcDbLine
 10
765.697788
 20
451.078417
 30
0.0
 11
764.897788
 21
451.078417
 31
0.0
  0
LINE
  5
123
330
1F
100
AcDbEntity
  8
DRAW
  6
CONTINUOUS
 62
     5
100
AcDbLine
 10
765.697788
 20
451.078417
 30
0.0
 11
765.697788
 21
449.578417
 31
0.0
  0
LINE
  5
124
330
1F
100
AcDbEntity
  8
0
  6
CONTINUOUS
 62
     6
100
AcDbLine
 10
764.897788
 20
445.078418
 30
0.0
 11
765.697788
 21
445.078418
 31
0.0
  0
LINE
  5
125
330
1F
100
AcDbEntity
  8
0
  6
CONTINUOUS
 62
     6
100
AcDbLine
 10
765.697788
 20
445.578418
 30
0.0
 11
765.697788
 21
445.078418
 31
0.0
  0
LINE
  5
126
330
1F
100
AcDbEntity
  8
0
  6
CONTINUOUS
 62
     6
100
AcDbLine
 10
764.897788
 20
445.578418
 30
0.0
 11
764.897788
 21
445.078418
 31
0.0
  0
LINE
  5
127
330
1F
100
AcDbEntity
  8
0
  6
CONTINUOUS
 62
     6
100
AcDbLine
 10
765.697788
 20
445.578418
 30
0.0
 11
765.697788
 21
449.578417
 31
0.0
  0
LINE
  5
128
330
1F
100
AcDbEntity
  8
0
  6
CONTINUOUS
 62
     6
100
AcDbLine
 10
764.897788
 20
449.578417
 30
0.0
 11
764.897788
 21
445.578418
 31
0.0
  0
LINE
  5
129
330
1F
100
AcDbEntity
  8
0
  6
CONTINUOUS
 62
     6
100
AcDbLine
 10
757.397788
 20
445.078418
 30
0.0
 11
758.197788
 21
445.078418
 31
0.0
  0
LINE
  5
12A
330
1F
100
AcDbEntity
  8
0
  6
CONTINUOUS
 62
     6
100
AcDbLine
 10
758.197788
 20
445.578418
 30
0.0
 11
758.197788
 21
445.078418
 31
0.0
  0
LINE
  5
12B
330
1F
100
AcDbEntity
  8
0
  6
CONTINUOUS
 62
     6
100
AcDbLine
 10
757.397788
 20
445.578418
 30
0.0
 11
757.397788
 21
445.078418
 31
0.0
  0
LINE
  5
12C
330
1F
100
AcDbEntity
  8
0
  6
CONTINUOUS
 62
     6
100
AcDbLine
 10
758.197788
 20
445.578418
 30
0.0
 11
758.197788
 21
449.578417
 31
0.0
  0
LINE
  5
12D
330
1F
100
AcDbEntity
  8
0
  6
CONTINUOUS
 62
     6
100
AcDbLine
 10
757.397788
 20
449.578417
 30
0.0
 11
757.397788
 21
445.578418
 31
0.0
  0
DIMENSION
  5
12E
330
1F
100
AcDbEntity
  8
DIM
  6
CONTINUOUS
 62
     6
100
AcDbDimension
  2
*D5
 10
708.532399
 20
494.189697
 30
0.0
 11
724.232361
 21
494.189697
 31
0.0
 70
   161
  1
<>
  3
ISO_FINDER
100
AcDbAlignedDimension
 13
739.932399
 23
449.078417
 33
0.0
 14
708.532399
 24
449.078417
 34
0.0
1001
ACAD
1000
DSTYLE
1002
{
1070
   287
1070
     3
1070
     7
1000

1070
     6
1000

1070
   280
1070
     0
1070
    76
1070
     0
1070
    75
1070
     0
1070
   279
1070
     0
1070
    41
1040
1.2
1070
   176
1070
     3
1070
   177
1070
     3
1070
    42
1040
0.3
1070
   147
1040
1.75
1002
}
  0
DIMENSION
  5
13B
330
1F
100
AcDbEntity
  8
DIM
  6
CONTINUOUS
 62
     6
100
AcDbDimension
  2
*D6
 10
737.482399
 20
434.740021
 30
0.0
 11
730.089905
 21
434.740021
 31
0.0
 70
   161
  1
<>
  3
ISO_FINDER
100
AcDbAlignedDimension
 13
736.982399
 23
445.478417
 33
0.0
 14
737.482399
 24
445.478417
 34
0.0
1001
ACAD
1000
DSTYLE
1002
{
1070
   287
1070
     3
1070
   279
1070
     0
1070
    41
1040
1.2
1070
   176
1070
     3
1070
   177
1070
     3
1070
   147
1040
1.75
1002
}
  0
LINE
  5
14A
330
1F
100
AcDbEntity
  8
0
  6
CONTINUOUS
 62
     6
100
AcDbLine
 10
737.482399
 20
445.078417
 30
0.0
 11
736.982399
 21
445.078417
 31
0.0
  0
LINE
  5
14B
330
1F
100
AcDbEntity
  8
0
  6
CONTINUOUS
 62
     6
100
AcDbLine
 10
737.482399
 20
445.478417
 30
0.0
 11
737.482399
 21
449.578417
 31
0.0
  0
LINE
  5
14C
330
1F
100
AcDbEntity
  8
0
  6
CONTINUOUS
 62
     6
100
AcDbLine
 10
736.982399
 20
445.478417
 30
0.0
 11
736.982399
 21
449.578417
 31
0.0
  0
LINE
  5
14D
330
1F
100
AcDbEntity
  8
0
  6
CONTINUOUS
 62
     6
100
AcDbLine
 10
737.482399
 20
445.478417
 30
0.0
 11
737.482399
 21
445.078417
 31
0.0
  0
LINE
  5
14E
330
1F
100
AcDbEntity
  8
0
  6
CONTINUOUS
 62
     6
100
AcDbLine
 10
736.982399
 20
445.478417
 30
0.0
 11
736.982399
 21
445.078417
 31
0.0
  0
LINE
  5
14F
330
1F
100
AcDbEntity
  8
0
  6
CONTINUOUS
 62
     4
100
AcDbLine
 10
739.132399
 20
449.578417
 30
0.0
 11
739.136762
 21
449.078417
 31
0.0
  0
LINE
  5
150
330
1F
100
AcDbEntity
  8
0
  6
CONTINUOUS
 62
     4
100
AcDbLine
 10
739.932399
 20
449.078417
 30
0.0
 11
739.136762
 21
449.078417
 31
0.0
  0
LINE
  5
151
330
1F
100
AcDbEntity
  8
0
  6
CONTINUOUS
 62
     4
100
AcDbLine
 10
739.932399
 20
449.578417
 30
0.0
 11
739.932399
 21
449.078417
 31
0.0
  0
LINE
  5
152
330
1F
100
AcDbEntity
  8
0
  6
CONTINUOUS
 62
     4
100
AcDbLine
 10
708.532399
 20
449.578417
 30
0.0
 11
708.532399
 21
449.078417
 31
0.0
  0
LINE
  5
153
330
1F
100
AcDbEntity
  8
0
  6
CONTINUOUS
 62
     4
100
AcDbLine
 10
709.332399
 20
449.078417
 30
0.0
 11
708.532399
 21
449.078417
 31
0.0
  0
LINE
  5
154
330
1F
100
AcDbEntity
  8
0
  6
CONTINUOUS
 62
     4
100
AcDbLine
 10
709.332399
 20
449.578417
 30
0.0
 11
709.332399
 21
449.078417
 31
0.0
  0
LINE
  5
155
330
1F
100
AcDbEntity
  8
0
  6
CONTINUOUS
 62
     4
100
AcDbLine
 10
739.188066
 20
477.578417
 30
0.0
 11
739.688047
 21
477.578417
 31
0.0
  0
LINE
  5
156
330
1F
100
AcDbEntity
  8
0
  6
CONTINUOUS
 62
     4
100
AcDbLine
 10
711.021753
 20
477.578417
 30
0.0
 11
739.188066
 21
477.578417
 31
0.0
  0
LINE
  5
157
330
1F
100
AcDbEntity
  8
0
  6
CONTINUOUS
 62
     4
100
AcDbLine
 10
711.021753
 20
477.578417
 30
0.0
 11
710.521772
 21
477.578417
 31
0.0
  0
LINE
  5
158
330
1F
100
AcDbEntity
  8
0
  6
CONTINUOUS
 62
     4
100
AcDbLine
 10
723.632399
 20
449.578417
 30
0.0
 11
709.332399
 21
449.578417
 31
0.0
  0
LINE
  5
159
330
1F
100
AcDbEntity
  8
0
  6
CONTINUOUS
 62
     4
100
AcDbLine
 10
739.932399
 20
449.578417
 30
0.0
 11
739.688047
 21
477.578417
 31
0.0
  0
LINE
  5
15A
330
1F
100
AcDbEntity
  8
0
  6
CONTINUOUS
 62
     4
100
AcDbLine
 10
739.132399
 20
449.578417
 30
0.0
 11
726.632399
 21
449.578417
 31
0.0
  0
LINE
  5
15B
330
1F
100
AcDbEntity
  8
0
  6
CONTINUOUS
 62
     4
100
AcDbLine
 10
710.521772
 20
477.578417
 30
0.0
 11
710.332399
 21
455.878417
 31
0.0
  0
LINE
  5
15C
330
1F
100
AcDbEntity
  8
0
  6
CONTINUOUS
 62
     4
100
AcDbLine
 10
709.083034
 20
455.878417
 30
0.0
 11
710.332418
 21
455.878417
 31
0.0
  0
LINE
  5
15D
330
1F
100
AcDbEntity
  8
0
  6
CONTINUOUS
 62
     4
100
AcDbLine
 10
708.545489
 20
451.078417
 30
0.0
 11
708.583053
 21
455.38278
 31
0.0
  0
ARC
  5
15E
330
1F
100
AcDbEntity
  8
0
  6
CONTINUOUS
 62
     4
100
AcDbCircle
 10
-709.083034
 20
455.378417
 30
0.0
 40
0.5
210
0.0
220
0.0
230
-1.0
100
AcDbArc
 50
0.5
 51
90.0
  0
LINE
  5
15F
330
1F
100
AcDbEntity
  8
0
  6
CONTINUOUS
 62
     4
100
AcDbLine
 10
723.632399
 20
449.578417
 30
0.0
 11
723.632399
 21
449.078417
 31
0.0
  0
LINE
  5
160
330
1F
100
AcDbEntity
  8
0
  6
CONTINUOUS
 62
     4
100
AcDbLine
 10
726.632399
 20
449.078417
 30
0.0
 11
723.632399
 21
449.078417
 31
0.0
  0
LINE
  5
161
330
1F
100
AcDbEntity
  8
0
  6
CONTINUOUS
 62
     4
100
AcDbLine
 10
726.632399
 20
449.578417
 30
0.0
 11
726.632399
 21
449.078417
 31
0.0
  0
LINE
  5
162
330
1F
100
AcDbEntity
  8
0
  6
CONTINUOUS
 62
     4
100
AcDbLine
 10
708.532399
 20
451.078417
 30
0.0
 11
708.532399
 21
449.578417
 31
0.0
  0
LINE
  5
163
330
1F
100
AcDbEntity
  8
0
  6
CONTINUOUS
 62
     4
100
AcDbLine
 10
708.545489
 20
451.078417
 30
0.0
 11
708.532399
 21
451.078417
 31
0.0
  0
LINE
  5
164
330
1F
100
AcDbEntity
  8
0
  6
CONTINUOUS
 62
     6
100
AcDbLine
 10
712.732399
 20
445.578417
 30
0.0
 11
712.232399
 21
445.078417
 31
0.0
  0
LINE
  5
165
330
1F
100
AcDbEntity
  8
0
  6
CONTINUOUS
 62
     6
100
AcDbLine
 10
711.732399
 20
445.578417
 30
0.0
 11
712.232399
 21
445.078417
 31
0.0
  0
LINE
  5
166
330
1F
100
AcDbEntity
  8
0
  6
CONTINUOUS
 62
     6
100
AcDbLine
 10
712.732399
 20
449.578417
 30
0.0
 11
712.732399
 21
445.578417
 31
0.0
  0
LINE
  5
167
330
1F
100
AcDbEntity
  8
0
  6
CONTINUOUS
 62
     6
100
AcDbLine
 10
711.732399
 20
445.578417
 30
0.0
 11
711.732399
 21
449.578417
 31
0.0
  0
DIMENSION
  5
168
330
1F
100
AcDbEntity
  8
DIM
  6
CONTINUOUS
 62
     6
100
AcDbDimension
  2
*D7
 10
739.932399
 20
485.743286
 30
0.0
 11
725.132385
 21
485.743286
 31
0.0
 70
   160
  1
<>
  3
ISO_FINDER
100
AcDbAlignedDimension
 13
710.332418
 23
455.878417
 33
0.0
 14
739.932399
 24
449.578417
 34
0.0
100
AcDbRotatedDimension
1001
ACAD
1000
DSTYLE
1002
{
1070
   287
1070
     3
1070
   279
1070
     0
1070
    41
1040
1.2
1070
   176
1070
     3
1070
   177
1070
     3
1070
    42
1040
0.3
1070
   147
1040
1.75
1002
}
  0
DIMENSION
  5
175
330
1F
100
AcDbEntity
  8
DIM
  6
CONTINUOUS
 62
     6
100
AcDbDimension
  2
*D8
 10
780.474548
 20
449.078417
 30
0.0
 11
780.474548
 21
463.3284
 31
0.0
 70
   160
  1
<>
  3
ISO_FINDER
100
AcDbAlignedDimension
 13
767.553436
 23
477.578417
 33
0.0
 14
767.297788
 24
449.078417
 34
0.0
 50
90.0
100
AcDbRotatedDimension
1001
ACAD
1000
DSTYLE
1002
{
1070
   287
1070
     3
1070
     7
1000

1070
     6
1000

1070
   280
1070
     0
1070
    76
1070
     0
1070
    75
1070
     0
1070
   279
1070
     0
1070
    41
1040
1.2
1070
   176
1070
     3
1070
   177
1070
     3
1070
   147
1040
1.75
1002
}
  0
DIMENSION
  5
182
330
1F
100
AcDbEntity
  8
DIM
  6
CONTINUOUS
 62
     6
100
AcDbDimension
  2
*D9
 10
780.474548
 20
445.078418
 30
0.0
 11
780.474548
 21
440.180908
 31
0.0
 70
   160
  1
<>
  3
ISO_FINDER
100
AcDbAlignedDimension
 13
767.297788
 23
449.078417
 33
0.0
 14
765.697788
 24
445.078418
 34
0.0
 50
90.0
100
AcDbRotatedDimension
1001
ACAD
1000
DSTYLE
1002
{
1070
   287
1070
     3
1070
     7
1000

1070
     6
1000

1070
   280
1070
     0
1070
    76
1070
     0
1070
    75
1070
     0
1070
   279
1070
     0
1070
    41
1040
1.2
1070
   176
1070
     3
1070
   177
1070
     3
1070
   147
1040
1.75
1002
}
  0
DIMENSION
  5
191
330
1F
100
AcDbEntity
  8
DIM
  6
CONTINUOUS
 62
     6
100
AcDbDimension
  2
*D10
 10
758.197788
 20
434.740021
 30
0.0
 11
750.50531
 21
434.740021
 31
0.0
 70
   161
  1
<>
  3
ISO_FINDER
100
AcDbAlignedDimension
 13
757.397788
 23
445.078418
 33
0.0
 14
758.197788
 24
445.078418
 34
0.0
1001
ACAD
1000
DSTYLE
1002
{
1070
   287
1070
     3
1070
   279
1070
     0
1070
    41
1040
1.2
1070
   176
1070
     3
1070
   177
1070
     3
1070
   147
1040
1.75
1002
}
  0
DIMENSION
  5
1A0
330
1F
100
AcDbEntity
  8
0
  6
CONTINUOUS
 62
     6
100
AcDbDimension
  2
*D11
 10
712.732399
 20
434.740021
 30
0.0
 11
706.834839
 21
434.740021
 31
0.0
 70
   161
  1
<>
  3
ISO_FINDER
100
AcDbAlignedDimension
 13
711.732399
 23
445.578417
 33
0.0
 14
712.732399
 24
445.578417
 34
0.0
1001
ACAD
1000
DSTYLE
1002
{
1070
   287
1070
     3
1070
   279
1070
     0
1070
    41
1040
1.2
1070
   176
1070
     3
1070
   177
1070
     3
1070
   147
1040
1.75
1002
}
  0
LINE
  5
1AF
330
1F
100
AcDbEntity
  8
0
  6
CONTINUOUS
 62
     4
100
AcDbLine
 10
759.347788
 20
449.578417
 30
0.0
 11
760.547787
 21
449.578417
 31
0.0
  0
ENDSEC
  0
SECTION
  2
OBJECTS
  0
DICTIONARY
  5
C
330
0
100
AcDbDictionary
  3
ACAD_GROUP
350
D
  3
ACAD_LAYOUT
350
1A
  3
ACAD_MLINESTYLE
350
17
  3
ACAD_PLOTSETTINGS
350
19
  3
ACAD_TABLESTYLE
350
1D0
  3
ACAD_VISUALSTYLE
350
2A
  3
ACDBHEADERROUNDTRIPXREC
350
1B0
  3
ACDBVARIABLEDICTIONARY
350
1D1
  0
DICTIONARY
  5
D
102
{ACAD_REACTORS
330
C
102
}
330
C
100
AcDbDictionary
  0
DICTIONARY
  5
1A
102
{ACAD_REACTORS
330
C
102
}
330
C
100
AcDbDictionary
  0
DICTIONARY
  5
17
102
{ACAD_REACTORS
330
C
102
}
330
C
100
AcDbDictionary
  3
STANDARD
350
18
  0
DICTIONARY
  5
19
102
{ACAD_REACTORS
330
C
102
}
330
C
100
AcDbDictionary
  0
DICTIONARY
  5
1D0
102
{ACAD_REACTORS
330
C
102
}
330
C
100
AcDbDictionary
  0
DICTIONARY
  5
2A
102
{ACAD_REACTORS
330
C
102
}
330
C
100
AcDbDictionary
  3
2DWIREFRAME
350
2F
  3
3D_HIDDEN
350
31
  3
3DWIREFRAME
350
30
  3
BASIC
350
32
  3
BRIGHTEN
350
36
  3
COLORCHANGE
350
3A
  3
CONCEPTUAL
350
34
  3
DIM
350
35
  3
FACEPATTERN
350
39
  3
FLAT
350
2B
  3
FLATWITHEDGES
350
2C
  3
GOURAUD
350
2D
  3
GOURAUDWITHEDGES
350
2E
  3
LINEPATTERN
350
38
  3
REALISTIC
350
33
  3
THICKEN
350
37
  0
DICTIONARY
  5
1B0
102
{ACAD_REACTORS
330
C
102
}
330
C
100
AcDbDictionary
  3
CEPSNTYPE
350
1B9
  3
DIMSTYLEDATA
350
1CF
  3
FINGERPRINTGUID
350
1BA
  3
HYPERLINKBASE
350
1B3
  3
INSUNITS
350
1B8
  3
LAYOUTDICT
350
1B5
  3
LWETCUNION
350
1B7
  3
PLOTSETDICT
350
1B6
  3
PSVPSCALE
350
1BC
  3
PUCSBASE
350
1BF
  3
PUCSORGBACK
350
1C5
  3
PUCSORGBOTTOM
350
1C1
  3
PUCSORGFRONT
350
1C4
  3
PUCSORGLEFT
350
1C2
  3
PUCSORGRIGHT
350
1C3
  3
PUCSORGTOP
350
1C0
  3
PUCSORTHOREF
350
1BD
  3
PUCSORTHOVIEW
350
1BE
  3
STYLESHEET
350
1B4
  3
TSTACKALIGN
350
1B1
  3
TSTACKSIZE
350
1B2
  3
UCSBASE
350
1C8
  3
UCSORGBACK
350
1CE
  3
UCSORGBOTTOM
350
1CA
  3
UCSORGFRONT
350
1CD
  3
UCSORGLEFT
350
1CB
  3
UCSORGRIGHT
350
1CC
  3
UCSORGTOP
350
1C9
  3
UCSORTHOREF
350
1C6
  3
UCSORTHOVIEW
350
1C7
  3
VERSIONGUID
350
1BB
  0
DICTIONARY
  5
1D1
102
{ACAD_REACTORS
330
C
102
}
330
C
100
AcDbDictionary
  3
PSOLHEIGHT
350
1D3
  3
PSOLWIDTH
350
1D2
  0
MLINESTYLE
  5
18
102
{ACAD_REACTORS
330
17
102
}
330
17
100
AcDbMlineStyle
  2
Standard
 70
     0
  3

 62
   256
 51
90.0
 52
90.0
 71
     2
 49
0.5
 62
   256
  6
BYLAYER
 49
-0.5
 62
   256
  6
BYLAYER
  0
VISUALSTYLE
  5
2F
102
{ACAD_REACTORS
330
2A
102
}
330
2A
100
AcDbVisualStyle
  2
2dWireframe
 70
     4
 71
     0
 72
     2
 73
     0
 90
        0
 40
-0.6
 41
-30.0
 62
     5
 63
     7
 74
     1
 91
        4
 64
     7
 65
   257
 75
     1
175
     1
 42
1.0
 92
        0
 66
   257
 43
1.0
 76
     1
 77
     6
 78
     2
 67
     7
 79
     5
170
     0
171
     0
290
     0
174
     0
 93
        1
 44
0.0
173
     0
291
     0
 45
0.0
1001
ACAD
1000
AcDbSavedByObjectVersion
1070
     0
  0
VISUALSTYLE
  5
31
102
{ACAD_REACTORS
330
2A
102
}
330
2A
100
AcDbVisualStyle
  2
3D Hidden
 70
     6
 71
     1
 72
     2
 73
     2
 90
        0
 40
-0.6
 41
-30.0
 62
     5
 63
     7
 74
     2
 91
        2
 64
     7
 65
   257
 75
     2
175
     1
 42
40.0
 92
        0
 66
   257
 43
1.0
 76
     1
 77
     6
 78
     2
 67
     7
 79
     3
170
     0
171
     0
290
     0
174
     0
 93
        1
 44
0.0
173
     0
291
     0
 45
0.0
1001
ACAD
1000
AcDbSavedByObjectVersion
1070
     0
  0
VISUALSTYLE
  5
30
102
{ACAD_REACTORS
330
2A
102
}
330
2A
100
AcDbVisualStyle
  2
3dWireframe
 70
     5
 71
     0
 72
     2
 73
     0
 90
        0
 40
-0.6
 41
-30.0
 62
     5
 63
     7
 74
     1
 91
        4
 64
     7
 65
   257
 75
     1
175
     1
 42
1.0
 92
        0
 66
   257
 43
1.0
 76
     1
 77
     6
 78
     2
 67
     7
 79
     5
170
     0
171
     0
290
     0
174
     0
 93
        1
 44
0.0
173
     0
291
     0
 45
0.0
1001
ACAD
1000
AcDbSavedByObjectVersion
1070
     0
  0
VISUALSTYLE
  5
32
102
{ACAD_REACTORS
330
2A
102
}
330
2A
100
AcDbVisualStyle
  2
Basic
 70
     7
 71
     1
 72
     0
 73
     1
 90
        0
 40
-0.6
 41
-30.0
 62
     5
 63
     7
 74
     0
 91
        4
 64
     7
 65
   257
 75
     1
175
     1
 42
1.0
 92
        8
 66
     7
 43
1.0
 76
     1
 77
     6
 78
     2
 67
     7
 79
     5
170
     0
171
     0
290
     0
174
     0
 93
        1
 44
0.0
173
     0
291
     1
 45
0.0
1001
ACAD
1000
AcDbSavedByObjectVersion
1070
     0
  0
VISUALSTYLE
  5
36
102
{ACAD_REACTORS
330
2A
102
}
330
2A
100
AcDbVisualStyle
  2
Brighten
 70
    12
 71
     2
 72
     2
 73
     0
 90
        0
 40
-0.6
 41
-30.0
 62
     5
 63
     7
 74
     1
 91
        4
 64
     7
 65
   257
 75
     1
175
     1
 42
1.0
 92
        8
 66
     7
 43
1.0
 76
     1
 77
     6
 78
     2
 67
     7
 79
     5
170
     0
171
     0
290
     0
174
     0
 93
        1
 44
50.0
173
     0
291
     1
 45
0.0
1001
ACAD
1000
AcDbSavedByObjectVersion
1070
     0
  0
VISUALSTYLE
  5
3A
102
{ACAD_REACTORS
330
2A
102
}
330
2A
100
AcDbVisualStyle
  2
ColorChange
 70
    16
 71
     2
 72
     2
 73
     3
 90
        0
 40
-0.6
 41
-30.0
 62
     5
 63
     8
 74
     1
 91
        4
 64
     7
 65
   257
 75
     1
175
     1
 42
1.0
 92
        8
 66
     8
 43
1.0
 76
     1
 77
     6
 78
     2
 67
     7
 79
     5
170
     0
171
     0
290
     0
174
     0
 93
        1
 44
0.0
173
     0
291
     1
 45
0.0
1001
ACAD
1000
AcDbSavedByObjectVersion
1070
     0
  0
VISUALSTYLE
  5
34
102
{ACAD_REACTORS
330
2A
102
}
330
2A
100
AcDbVisualStyle
  2
Conceptual
 70
     9
 71
     3
 72
     2
 73
     0
 90
        0
 40
-0.6
 41
-30.0
 62
     5
 63
     7
 74
     2
 91
        2
 64
     7
 65
   257
 75
     1
175
     1
 42
40.0
 92
        8
 66
     7
 43
1.0
 76
     1
 77
     6
 78
     2
 67
     7
 79
     3
170
     0
171
     0
290
     0
174
     0
 93
        1
 44
0.0
173
     0
291
     0
 45
0.0
1001
ACAD
1000
AcDbSavedByObjectVersion
1070
     0
  0
VISUALSTYLE
  5
35
102
{ACAD_REACTORS
330
2A
102
}
330
2A
100
AcDbVisualStyle
  2
Dim
 70
    11
 71
     2
 72
     2
 73
     0
 90
        0
 40
-0.6
 41
-30.0
 62
     5
 63
     7
 74
     1
 91
        4
 64
     7
 65
   257
 75
     1
175
     1
 42
1.0
 92
        8
 66
     7
 43
1.0
 76
     1
 77
     6
 78
     2
 67
     7
 79
     5
170
     0
171
     0
290
     0
174
     0
 93
        1
 44
-50.0
173
     0
291
     1
 45
0.0
1001
ACAD
1000
AcDbSavedByObjectVersion
1070
     0
  0
VISUALSTYLE
  5
39
102
{ACAD_REACTORS
330
2A
102
}
330
2A
100
AcDbVisualStyle
  2
Facepattern
 70
    15
 71
     2
 72
     2
 73
     0
 90
        0
 40
-0.6
 41
-30.0
 62
     5
 63
     7
 74
     1
 91
        4
 64
     7
 65
   257
 75
     1
175
     1
 42
1.0
 92
        8
 66
     7
 43
1.0
 76
     1
 77
     6
 78
     2
 67
     7
 79
     5
170
     0
171
     0
290
     0
174
     0
 93
        1
 44
0.0
173
     0
291
     1
 45
0.0
1001
ACAD
1000
AcDbSavedByObjectVersion
1070
     0
  0
VISUALSTYLE
  5
2B
102
{ACAD_REACTORS
330
2A
102
}
330
2A
100
AcDbVisualStyle
  2
Flat
 70
     0
 71
     2
 72
     1
 73
     1
 90
        2
 40
-0.6
 41
30.0
 62
     5
 63
     7
 74
     0
 91
        4
 64
     7
 65
   257
 75
     1
175
     1
 42
1.0
 92
        8
 66
     7
 43
1.0
 76
     1
 77
     6
 78
     2
 67
     7
 79
     5
170
     0
171
     0
290
     0
174
     0
 93
       13
 44
0.0
173
     0
291
     1
 45
0.0
1001
ACAD
1000
AcDbSavedByObjectVersion
1070
     0
  0
VISUALSTYLE
  5
2C
102
{ACAD_REACTORS
330
2A
102
}
330
2A
100
AcDbVisualStyle
  2
FlatWithEdges
 70
     1
 71
     2
 72
     1
 73
     1
 90
        2
 40
-0.6
 41
30.0
 62
     5
 63
     7
 74
     1
 91
        4
 64
     7
 65
   257
 75
     1
175
     1
 42
1.0
 92
        0
 66
   257
 43
1.0
 76
     1
 77
     6
 78
     2
 67
     7
 79
     5
170
     0
171
     0
290
     0
174
     0
 93
       13
 44
0.0
173
     0
291
     1
 45
0.0
1001
ACAD
1000
AcDbSavedByObjectVersion
1070
     0
  0
VISUALSTYLE
  5
2D
102
{ACAD_REACTORS
330
2A
102
}
330
2A
100
AcDbVisualStyle
  2
Gouraud
 70
     2
 71
     2
 72
     2
 73
     1
 90
        2
 40
-0.6
 41
30.0
 62
     5
 63
     7
 74
     0
 91
        4
 64
     7
 65
   257
 75
     1
175
     1
 42
1.0
 92
        0
 66
     7
 43
1.0
 76
     1
 77
     6
 78
     2
 67
     7
 79
     5
170
     0
171
     0
290
     0
174
     0
 93
       13
 44
0.0
173
     0
291
     1
 45
0.0
1001
ACAD
1000
AcDbSavedByObjectVersion
1070
     0
  0
VISUALSTYLE
  5
2E
102
{ACAD_REACTORS
330
2A
102
}
330
2A
100
AcDbVisualStyle
  2
GouraudWithEdges
 70
     3
 71
     2
 72
     2
 73
     1
 90
        2
 40
-0.6
 41
30.0
 62
     5
 63
     7
 74
     1
 91
        4
 64
     7
 65
   257
 75
     1
175
     1
 42
1.0
 92
        0
 66
   257
 43
1.0
 76
     1
 77
     6
 78
     2
 67
     7
 79
     5
170
     0
171
     0
290
     0
174
     0
 93
       13
 44
0.0
173
     0
291
     1
 45
0.0
1001
ACAD
1000
AcDbSavedByObjectVersion
1070
     0
  0
VISUALSTYLE
  5
38
102
{ACAD_REACTORS
330
2A
102
}
330
2A
100
AcDbVisualStyle
  2
Linepattern
 70
    14
 71
     2
 72
     2
 73
     0
 90
        0
 40
-0.6
 41
-30.0
 62
     5
 63
     7
 74
     1
 91
        4
 64
     7
 65
   257
 75
     7
175
     7
 42
1.0
 92
        8
 66
     7
 43
1.0
 76
     1
 77
     6
 78
     2
 67
     7
 79
     5
170
     0
171
     0
290
     0
174
     0
 93
        1
 44
0.0
173
     0
291
     1
 45
0.0
1001
ACAD
1000
AcDbSavedByObjectVersion
1070
     0
  0
VISUALSTYLE
  5
33
102
{ACAD_REACTORS
330
2A
102
}
330
2A
100
AcDbVisualStyle
  2
Realistic
 70
     8
 71
     2
 72
     2
 73
     0
 90
        0
 40
-0.6
 41
-30.0
 62
     5
 63
     7
 74
     1
 91
        0
 64
     7
 65
   257
 75
     1
175
     1
 42
1.0
 92
        8
 66
     8
 43
1.0
 76
     1
 77
     6
 78
     2
 67
     7
 79
     5
170
     0
171
     0
290
     0
174
     0
 93
       13
 44
0.0
173
     0
291
     0
 45
0.0
1001
ACAD
1000
AcDbSavedByObjectVersion
1070
     0
  0
VISUALSTYLE
  5
37
102
{ACAD_REACTORS
330
2A
102
}
330
2A
100
AcDbVisualStyle
  2
Thicken
 70
    13
 71
     2
 72
     2
 73
     0
 90
        0
 40
-0.6
 41
-30.0
 62
     5
 63
     7
 74
     1
 91
        4
 64
     7
 65
   257
 75
     1
175
     1
 42
1.0
 92
       12
 66
     7
 43
1.0
 76
     1
 77
     6
 78
     2
 67
     7
 79
     5
170
     0
171
     0
290
     0
174
     0
 93
        1
 44
0.0
173
     0
291
     1
 45
0.0
1001
ACAD
1000
AcDbSavedByObjectVersion
1070
     0
  0
XRECORD
  5
1B9
102
{ACAD_REACTORS
330
1B0
102
}
330
1B0
100
AcDbXrecord
 90
        0
  0
XRECORD
  5
1CF
102
{ACAD_REACTORS
330
1B0
102
}
330
1B0
100
AcDbXrecord
1000
DSTYLE
1002
{
1070
   340
340
11
1002
}
  0
XRECORD
  5
1BA
102
{ACAD_REACTORS
330
1B0
102
}
330
1B0
100
AcDbXrecord
  1
{6B58472A-F736-4427-AF5A-14ABC9249965}
  0
XRECORD
  5
1B3
102
{ACAD_REACTORS
330
1B0
102
}
330
1B0
100
AcDbXrecord
  1

  0
XRECORD
  5
1B8
102
{ACAD_REACTORS
330
1B0
102
}
330
1B0
100
AcDbXrecord
 90
        4
  0
XRECORD
  5
1B5
102
{ACAD_REACTORS
330
1B0
102
}
330
1B0
100
AcDbXrecord
340
1A
  0
XRECORD
  5
1B7
102
{ACAD_REACTORS
330
1B0
102
}
330
1B0
100
AcDbXrecord
 90
    10781
  0
XRECORD
  5
1B6
102
{ACAD_REACTORS
330
1B0
102
}
330
1B0
100
AcDbXrecord
340
19
  0
XRECORD
  5
1BC
102
{ACAD_REACTORS
330
1B0
102
}
330
1B0
100
AcDbXrecord
 40
0.0
  0
XRECORD
  5
1BF
102
{ACAD_REACTORS
330
1B0
102
}
330
1B0
100
AcDbXrecord
340
0
  0
XRECORD
  5
1C5
102
{ACAD_REACTORS
330
1B0
102
}
330
1B0
100
AcDbXrecord
 10
0.0
 20
0.0
 30
0.0
  0
XRECORD
  5
1C1
102
{ACAD_REACTORS
330
1B0
102
}
330
1B0
100
AcDbXrecord
 10
0.0
 20
0.0
 30
0.0
  0
XRECORD
  5
1C4
102
{ACAD_REACTORS
330
1B0
102
}
330
1B0
100
AcDbXrecord
 10
0.0
 20
0.0
 30
0.0
  0
XRECORD
  5
1C2
102
{ACAD_REACTORS
330
1B0
102
}
330
1B0
100
AcDbXrecord
 10
0.0
 20
0.0
 30
0.0
  0
XRECORD
  5
1C3
102
{ACAD_REACTORS
330
1B0
102
}
330
1B0
100
AcDbXrecord
 10
0.0
 20
0.0
 30
0.0
  0
XRECORD
  5
1C0
102
{ACAD_REACTORS
330
1B0
102
}
330
1B0
100
AcDbXrecord
 10
0.0
 20
0.0
 30
0.0
  0
XRECORD
  5
1BD
102
{ACAD_REACTORS
330
1B0
102
}
330
1B0
100
AcDbXrecord
340
0
  0
XRECORD
  5
1BE
102
{ACAD_REACTORS
330
1B0
102
}
330
1B0
100
AcDbXrecord
 70
     0
  0
XRECORD
  5
1B4
102
{ACAD_REACTORS
330
1B0
102
}
330
1B0
100
AcDbXrecord
  1

  0
XRECORD
  5
1B1
102
{ACAD_REACTORS
330
1B0
102
}
330
1B0
100
AcDbXrecord
 90
        1
  0
XRECORD
  5
1B2
102
{ACAD_REACTORS
330
1B0
102
}
330
1B0
100
AcDbXrecord
 90
       70
  0
XRECORD
  5
1C8
102
{ACAD_REACTORS
330
1B0
102
}
330
1B0
100
AcDbXrecord
340
0
  0
XRECORD
  5
1CE
102
{ACAD_REACTORS
330
1B0
102
}
330
1B0
100
AcDbXrecord
 10
0.0
 20
0.0
 30
0.0
  0
XRECORD
  5
1CA
102
{ACAD_REACTORS
330
1B0
102
}
330
1B0
100
AcDbXrecord
 10
0.0
 20
0.0
 30
0.0
  0
XRECORD
  5
1CD
102
{ACAD_REACTORS
330
1B0
102
}
330
1B0
100
AcDbXrecord
 10
0.0
 20
0.0
 30
0.0
  0
XRECORD
  5
1CB
102
{ACAD_REACTORS
330
1B0
102
}
330
1B0
100
AcDbXrecord
 10
0.0
 20
0.0
 30
0.0
  0
XRECORD
  5
1CC
102
{ACAD_REACTORS
330
1B0
102
}
330
1B0
100
AcDbXrecord
 10
0.0
 20
0.0
 30
0.0
  0
XRECORD
  5
1C9
102
{ACAD_REACTORS
330
1B0
102
}
330
1B0
100
AcDbXrecord
 10
0.0
 20
0.0
 30
0.0
  0
XRECORD
  5
1C6
102
{ACAD_REACTORS
330
1B0
102
}
330
1B0
100
AcDbXrecord
340
0
  0
XRECORD
  5
1C7
102
{ACAD_REACTORS
330
1B0
102
}
330
1B0
100
AcDbXrecord
 70
     0
  0
XRECORD
  5
1BB
102
{ACAD_REACTORS
330
1B0
102
}
330
1B0
100
AcDbXrecord
  1
{FAEB1C32-E019-11D5-929B-00C0DF256EC4}
  0
DICTIONARYVAR
  5
1D3
102
{ACAD_REACTORS
330
1D1
102
}
330
1D1
100
DictionaryVariables
280
     0
  1
80.000000
  0
DICTIONARYVAR
  5
1D2
102
{ACAD_REACTORS
330
1D1
102
}
330
1D1
100
DictionaryVariables
280
     0
  1
5.000000
  0
ENDSEC
  0
EOF
