  0
SECTION
  2
HEADER
  9
$ACADVER
  1
AC1012
  9
$DWGCODEPAGE
  3
ANSI_1252
  9
$INSBASE
 10
0.0
 20
0.0
 30
0.0
  9
$EXTMIN
 10
5.0
 20
5.0
 30
0.0
  9
$EXTMAX
 10
205.000037
 20
292.000183
 30
0.0
  9
$LIMMIN
 10
0.0
 20
0.0
  9
$LIMMAX
 10
210.0
 20
296.0
  9
$ORTHOMODE
 70
     1
  9
$REGENMODE
 70
     1
  9
$FILLMODE
 70
     1
  9
$QTEXTMODE
 70
     0
  9
$MIRRTEXT
 70
     1
  9
$DRAGMODE
 70
     2
  9
$LTSCALE
 40
0.5
  9
$OSMODE
 70
    37
  9
$ATTMODE
 70
     1
  9
$TEXTSIZE
 40
0.2
  9
$TRACEWID
 40
0.05
  9
$TEXTSTYLE
  7
FINDER
  9
$CLAYER
  8
0
  9
$CELTYPE
  6
CONTINUOUS
  9
$CECOLOR
 62
   256
  9
$CELTSCALE
 40
1.0
  9
$DELOBJ
 70
     1
  9
$DISPSILH
 70
     0
  9
$DIMSCALE
 40
1.0
  9
$DIMASZ
 40
2.5
  9
$DIMEXO
 40
2.0
  9
$DIMDLI
 40
6.5
  9
$DIMRND
 40
0.0
  9
$DIMDLE
 40
0.0
  9
$DIMEXE
 40
1.25
  9
$DIMTP
 40
0.0
  9
$DIMTM
 40
0.0
  9
$DIMTXT
 40
3.5
  9
$DIMCEN
 40
2.5
  9
$DIMTSZ
 40
0.0
  9
$DIMTOL
 70
     0
  9
$DIMLIM
 70
     0
  9
$DIMTIH
 70
     0
  9
$DIMTOH
 70
     0
  9
$DIMSE1
 70
     0
  9
$DIMSE2
 70
     0
  9
$DIMTAD
 70
     1
  9
$DIMZIN
 70
     8
  9
$DIMBLK
  1

  9
$DIMASO
 70
     1
  9
$DIMSHO
 70
     1
  9
$DIMPOST
  1

  9
$DIMAPOST
  1

  9
$DIMALT
 70
     0
  9
$DIMALTD
 70
     3
  9
$DIMALTF
 40
0.03937
  9
$DIMLFAC
 40
1.0
  9
$DIMTOFL
 70
     1
  9
$DIMTVP
 40
0.0
  9
$DIMTIX
 70
     0
  9
$DIMSOXD
 70
     0
  9
$DIMSAH
 70
     0
  9
$DIMBLK1
  1

  9
$DIMBLK2
  1

  9
$DIMSTYLE
  2
FINDER
  9
$DIMCLRD
 70
   256
  9
$DIMCLRE
 70
   256
  9
$DIMCLRT
 70
     2
  9
$DIMTFAC
 40
1.0
  9
$DIMGAP
 40
0.625
  9
$DIMJUST
 70
     0
  9
$DIMSD1
 70
     0
  9
$DIMSD2
 70
     0
  9
$DIMTOLJ
 70
     0
  9
$DIMTZIN
 70
     8
  9
$DIMALTZ
 70
     0
  9
$DIMALTTZ
 70
     0
  9
$DIMFIT
 70
     3
  9
$DIMUPT
 70
     0
  9
$DIMUNIT
 70
     2
  9
$DIMDEC
 70
     2
  9
$DIMTDEC
 70
     2
  9
$DIMALTU
 70
     2
  9
$DIMALTTD
 70
     3
  9
$DIMTXSTY
  7
FINDER
  9
$DIMAUNIT
 70
     0
  9
$LUNITS
 70
     2
  9
$LUPREC
 70
     4
  9
$SKETCHINC
 40
0.1
  9
$FILLETRAD
 40
0.25
  9
$AUNITS
 70
     0
  9
$AUPREC
 70
     3
  9
$MENU
  1
acad
  9
$ELEVATION
 40
0.0
  9
$PELEVATION
 40
0.0
  9
$THICKNESS
 40
0.0
  9
$LIMCHECK
 70
     0
  9
$BLIPMODE
 70
     1
  9
$CHAMFERA
 40
0.0
  9
$CHAMFERB
 40
0.0
  9
$CHAMFERC
 40
0.0
  9
$CHAMFERD
 40
0.0
  9
$SKPOLY
 70
     0
  9
$TDCREATE
 40
2451901.420981018
  9
$TDUPDATE
 40
2451961.584102083
  9
$TDINDWG
 40
0.2952219907
  9
$TDUSRTIMER
 40
0.2952219907
  9
$USRTIMER
 70
     1
  9
$ANGBASE
 50
0.0
  9
$ANGDIR
 70
     0
  9
$PDMODE
 70
     0
  9
$PDSIZE
 40
0.0
  9
$PLINEWID
 40
0.0
  9
$COORDS
 70
     2
  9
$SPLFRAME
 70
     0
  9
$SPLINETYPE
 70
     6
  9
$SPLINESEGS
 70
     8
  9
$ATTDIA
 70
     0
  9
$ATTREQ
 70
     1
  9
$HANDLING
 70
     1
  9
$HANDSEED
  5
2BF0
  9
$SURFTAB1
 70
     6
  9
$SURFTAB2
 70
     6
  9
$SURFTYPE
 70
     6
  9
$SURFU
 70
     6
  9
$SURFV
 70
     6
  9
$UCSNAME
  2

  9
$UCSORG
 10
0.0
 20
0.0
 30
0.0
  9
$UCSXDIR
 10
1.0
 20
0.0
 30
0.0
  9
$UCSYDIR
 10
0.0
 20
1.0
 30
0.0
  9
$PUCSNAME
  2

  9
$PUCSORG
 10
0.0
 20
0.0
 30
0.0
  9
$PUCSXDIR
 10
1.0
 20
0.0
 30
0.0
  9
$PUCSYDIR
 10
0.0
 20
1.0
 30
0.0
  9
$USERI1
 70
     0
  9
$USERI2
 70
     0
  9
$USERI3
 70
     0
  9
$USERI4
 70
     0
  9
$USERI5
 70
     0
  9
$USERR1
 40
0.0
  9
$USERR2
 40
0.0
  9
$USERR3
 40
0.0
  9
$USERR4
 40
0.0
  9
$USERR5
 40
0.0
  9
$WORLDVIEW
 70
     1
  9
$SHADEDGE
 70
     3
  9
$SHADEDIF
 70
    70
  9
$TILEMODE
 70
     1
  9
$MAXACTVP
 70
    16
  9
$PINSBASE
 10
0.0
 20
0.0
 30
0.0
  9
$PLIMCHECK
 70
     0
  9
$PEXTMIN
 10
1.000000E+20
 20
1.000000E+20
 30
1.000000E+20
  9
$PEXTMAX
 10
-1.000000E+20
 20
-1.000000E+20
 30
-1.000000E+20
  9
$PLIMMIN
 10
0.0
 20
0.0
  9
$PLIMMAX
 10
100.0
 20
100.0
  9
$UNITMODE
 70
     0
  9
$VISRETAIN
 70
     0
  9
$PLINEGEN
 70
     1
  9
$PSLTSCALE
 70
     0
  9
$TREEDEPTH
 70
  3020
  9
$PICKSTYLE
 70
     1
  9
$CMLSTYLE
  2
STANDARD
  9
$CMLJUST
 70
     0
  9
$CMLSCALE
 40
1.0
  9
$SAVEIMAGES
 70
     0
  0
ENDSEC
  0
SECTION
  2
CLASSES
  0
CLASS
  1
LWPOLYLINE
  2
AcDbPolyline
  3
"AutoCAD"
 90
    32768
280
     0
281
     1
  0
CLASS
  1
IMAGE
  2
AcDbRasterImage
  3
ISM
 90
    32895
280
     0
281
     1
  0
CLASS
  1
OLE2FRAME
  2
AcDbOle2Frame
  3
""
 90
    32768
280
     0
281
     1
  0
CLASS
  1
HATCH
  2
AcDbHatch
  3
"ACAD_SEDONA"
 90
    32768
280
     0
281
     1
  0
CLASS
  1
DICTIONARYVAR
  2
AcDbDictionaryVar
  3
"AutoCAD"
 90
    32768
280
     0
281
     0
  0
CLASS
  1
RASTERVARIABLES
  2
AcDbRasterVariables
  3
ISM
 90
    32768
280
     0
281
     0
  0
CLASS
  1
IMAGEDEF
  2
AcDbRasterImageDef
  3
ISM
 90
    32768
280
     0
281
     0
  0
CLASS
  1
IMAGEDEF_REACTOR
  2
AcDbRasterImageDefReactor
  3
ISM
 90
    32769
280
     0
281
     0
  0
CLASS
  1
SPATIAL_FILTER
  2
AcDbSpatialFilter
  3
"Acad"
 90
    32768
280
     0
281
     0
  0
CLASS
  1
XRECORD
  2
AcDbXrecord
  3
"<Built In>"
 90
    32768
280
     0
281
     0
  0
CLASS
  1
SORTENTSTABLE
  2
AcDbSortentsTable
  3
"AutoCAD"
 90
    32768
280
     0
281
     0
  0
CLASS
  1
LAYER_INDEX
  2
AcDbLayerIndex
  3
"Acad"
 90
    32768
280
     0
281
     0
  0
CLASS
  1
SPATIAL_INDEX
  2
AcDbSpatialIndex
  3
"Acad"
 90
    32768
280
     0
281
     0
  0
CLASS
  1
OBJECT_PTR
  2
CAseDLPNTableRecord
  3
ASE-LPNTableRecord
 90
    32769
280
     0
281
     0
  0
CLASS
  1
LAYOUT
  2
AcDbLayout
  3
"AutoCAD 2000"
 90
    32769
280
     0
281
     0
  0
CLASS
  1
PLOTSETTINGS
  2
AcDbPlotSettings
  3
"AutoCAD 2000"
 90
    32769
280
     0
281
     0
  0
CLASS
  1
ACDBDICTIONARYWDFLT
  2
AcDbDictionaryWithDefault
  3
"AutoCAD 2000"
 90
    32769
280
     0
281
     0
  0
CLASS
  1
ACDBPLACEHOLDER
  2
AcDbPlaceHolder
  3
"AutoCAD 2000"
 90
    32769
280
     0
281
     0
  0
CLASS
  1
VBA_PROJECT
  2
AcDbVbaProject
  3
"acadvba"
 90
    32769
280
     0
281
     0
  0
CLASS
  1
WIPEOUT
  2
AcDbWipeout
  3
WipeOut|AutoCAD Express Tool|expresstools@autodesk.com
 90
    32895
280
     0
281
     1
  0
CLASS
  1
WIPEOUTVARIABLES
  2
AcDbWipeoutVariables
  3
WipeOut|AutoCAD Express Tool|expresstools@autodesk.com
 90
    32768
280
     0
281
     0
  0
CLASS
  1
RTEXT
  2
RText
  3
RText|AutoCAD Express Tool|expresstools@autodesk.com
 90
    32768
280
     0
281
     1
  0
CLASS
  1
ARCALIGNEDTEXT
  2
AcDbArcAlignedText
  3
ATEXT|AutoCAD Express Tool|expresstools@autodesk.com
 90
    32768
280
     0
281
     1
  0
ENDSEC
  0
SECTION
  2
TABLES
  0
TABLE
  2
VPORT
  5
7
100
AcDbSymbolTable
 70
     2
  0
VPORT
  5
2BEF
100
AcDbSymbolTableRecord
100
AcDbViewportTableRecord
  2
*ACTIVE
 70
     0
 10
0.0
 20
0.0
 11
1.0
 21
1.0
 12
105.000001
 22
148.496827
 13
0.0
 23
0.0
 14
1.0
 24
1.0
 15
2.0
 25
2.0
 16
0.0
 26
0.0
 36
1.0
 17
0.0
 27
0.0
 37
0.0
 40
289.716738
 41
1.645313
 42
50.0
 43
0.0
 44
0.0
 50
0.0
 51
0.0
 71
     0
 72
   100
 73
     1
 74
     1
 75
     1
 76
     0
 77
     0
 78
     0
  0
ENDTAB
  0
TABLE
  2
LTYPE
  5
4
100
AcDbSymbolTable
 70
     1
  0
LTYPE
  5
11
100
AcDbSymbolTableRecord
100
AcDbLinetypeTableRecord
  2
BYBLOCK
 70
     0
  3

 72
    65
 73
     0
 40
0.0
  0
LTYPE
  5
12
100
AcDbSymbolTableRecord
100
AcDbLinetypeTableRecord
  2
BYLAYER
 70
     0
  3

 72
    65
 73
     0
 40
0.0
  0
LTYPE
  5
13
100
AcDbSymbolTableRecord
100
AcDbLinetypeTableRecord
  2
CONTINUOUS
 70
     0
  3
Solid line
 72
    65
 73
     0
 40
0.0
  0
ENDTAB
  0
TABLE
  2
LAYER
  5
2
100
AcDbSymbolTable
 70
     6
  0
LAYER
  5
14
100
AcDbSymbolTableRecord
100
AcDbLayerTableRecord
  2
0
 70
     0
 62
     7
  6
CONTINUOUS
  0
LAYER
  5
B1
100
AcDbSymbolTableRecord
100
AcDbLayerTableRecord
  2
DIM
 70
     0
 62
     3
  6
CONTINUOUS
  0
LAYER
  5
B2
100
AcDbSymbolTableRecord
100
AcDbLayerTableRecord
  2
DRAW
 70
     0
 62
     7
  6
CONTINUOUS
  0
LAYER
  5
B3
100
AcDbSymbolTableRecord
100
AcDbLayerTableRecord
  2
CARTOUCHE
 70
     0
 62
     7
  6
CONTINUOUS
  0
LAYER
  5
B4
100
AcDbSymbolTableRecord
100
AcDbLayerTableRecord
  2
DRAW-TEXT
 70
     0
 62
     1
  6
CONTINUOUS
  0
LAYER
  5
1EF1
100
AcDbSymbolTableRecord
100
AcDbLayerTableRecord
  2
DEFPOINTS
 70
     0
 62
     7
  6
CONTINUOUS
  0
ENDTAB
  0
TABLE
  2
STYLE
  5
3
100
AcDbSymbolTable
 70
     2
  0
STYLE
  5
17
100
AcDbSymbolTableRecord
100
AcDbTextStyleTableRecord
  2
STANDARD
 70
     0
 40
0.0
 41
1.0
 50
0.0
 71
     0
 42
0.2
  3
txt
  4

  0
STYLE
  5
BE
100
AcDbSymbolTableRecord
100
AcDbTextStyleTableRecord
  2
FINDER
 70
     0
 40
1.8
 41
1.0
 50
0.0
 71
     0
 42
0.2
  3
ARIAL.TTF
  4

1001
ACAD
1000
Arial
1071
       34
  0
ENDTAB
  0
TABLE
  2
VIEW
  5
5
100
AcDbSymbolTable
 70
     0
  0
ENDTAB
  0
TABLE
  2
UCS
  5
6
100
AcDbSymbolTable
 70
     0
  0
ENDTAB
  0
TABLE
  2
APPID
  5
8
100
AcDbSymbolTable
 70
     1
  0
APPID
  5
16
100
AcDbSymbolTableRecord
100
AcDbRegAppTableRecord
  2
ACAD
 70
     0
  0
ENDTAB
  0
TABLE
  2
DIMSTYLE
  5
9
100
AcDbSymbolTable
 70
     2
  0
DIMSTYLE
105
18
100
AcDbSymbolTableRecord
100
AcDbDimStyleTableRecord
  2
STANDARD
 70
     0
  3

  4

  5

  6

  7

 40
1.0
 41
0.18
 42
0.0625
 43
0.38
 44
0.18
 45
0.0
 46
0.0
 47
0.0
 48
0.0
140
0.18
141
0.09
142
0.0
143
25.4
144
1.0
145
0.0
146
1.0
147
0.09
 71
     0
 72
     0
 73
     1
 74
     1
 75
     0
 76
     0
 77
     0
 78
     0
170
     0
171
     2
172
     0
173
     0
174
     0
175
     0
176
     0
177
     0
178
     0
270
     2
271
     4
272
     4
273
     2
274
     2
340
17
275
     0
280
     0
281
     0
282
     0
283
     1
284
     0
285
     0
286
     0
287
     0
288
     0
  0
DIMSTYLE
105
D1
102
{ACAD_REACTORS
330
274D
330
278E
330
27B2
330
27BF
330
2803
330
2810
330
281D
102
}
100
AcDbSymbolTableRecord
100
AcDbDimStyleTableRecord
  2
FINDER
 70
     0
  3

  4

  5

  6

  7

 40
1.0
 41
2.5
 42
2.0
 43
6.5
 44
1.25
 45
0.0
 46
0.0
 47
0.0
 48
0.0
140
3.5
141
2.5
142
0.0
143
0.03937
144
1.0
145
0.0
146
1.0
147
0.625
 71
     0
 72
     0
 73
     0
 74
     0
 75
     0
 76
     0
 77
     1
 78
     8
170
     0
171
     3
172
     1
173
     0
174
     0
175
     0
176
   256
177
   256
178
     2
270
     2
271
     2
272
     2
273
     2
274
     3
340
BE
275
     0
280
     0
281
     0
282
     0
283
     0
284
     8
285
     0
286
     0
287
     3
288
     0
  0
ENDTAB
  0
TABLE
  2
BLOCK_RECORD
  5
1
100
AcDbSymbolTable
 70
    15
  0
BLOCK_RECORD
  5
A
100
AcDbSymbolTableRecord
100
AcDbBlockTableRecord
  2
*MODEL_SPACE
  0
BLOCK_RECORD
  5
B
100
AcDbSymbolTableRecord
100
AcDbBlockTableRecord
  2
*PAPER_SPACE
  0
BLOCK_RECORD
  5
2742
100
AcDbSymbolTableRecord
100
AcDbBlockTableRecord
  2
*D0
  0
BLOCK_RECORD
  5
2783
100
AcDbSymbolTableRecord
100
AcDbBlockTableRecord
  2
*D1
  0
BLOCK_RECORD
  5
27A6
100
AcDbSymbolTableRecord
100
AcDbBlockTableRecord
  2
*D2
  0
BLOCK_RECORD
  5
27B3
100
AcDbSymbolTableRecord
100
AcDbBlockTableRecord
  2
*D3
  0
BLOCK_RECORD
  5
27F7
100
AcDbSymbolTableRecord
100
AcDbBlockTableRecord
  2
*D4
  0
BLOCK_RECORD
  5
2804
100
AcDbSymbolTableRecord
100
AcDbBlockTableRecord
  2
*D5
  0
BLOCK_RECORD
  5
2811
100
AcDbSymbolTableRecord
100
AcDbBlockTableRecord
  2
*D6
  0
BLOCK_RECORD
  5
2A26
100
AcDbSymbolTableRecord
100
AcDbBlockTableRecord
  2
*X7
  0
BLOCK_RECORD
  5
2AB7
100
AcDbSymbolTableRecord
100
AcDbBlockTableRecord
  2
*X8
  0
BLOCK_RECORD
  5
2AD7
100
AcDbSymbolTableRecord
100
AcDbBlockTableRecord
  2
*X9
  0
BLOCK_RECORD
  5
2AE4
100
AcDbSymbolTableRecord
100
AcDbBlockTableRecord
  2
*X10
  0
BLOCK_RECORD
  5
2AFB
100
AcDbSymbolTableRecord
100
AcDbBlockTableRecord
  2
*X11
  0
BLOCK_RECORD
  5
2B25
100
AcDbSymbolTableRecord
100
AcDbBlockTableRecord
  2
*X12
  0
BLOCK_RECORD
  5
2B54
100
AcDbSymbolTableRecord
100
AcDbBlockTableRecord
  2
*X13
  0
BLOCK_RECORD
  5
2B87
100
AcDbSymbolTableRecord
100
AcDbBlockTableRecord
  2
*X14
  0
ENDTAB
  0
ENDSEC
  0
SECTION
  2
BLOCKS
  0
BLOCK
  5
D
100
AcDbEntity
  8
0
100
AcDbBlockBegin
  2
*MODEL_SPACE
 70
     0
 10
0.0
 20
0.0
 30
0.0
  3
*MODEL_SPACE
  1

  0
ENDBLK
  5
E
100
AcDbEntity
  8
0
100
AcDbBlockEnd
  0
BLOCK
  5
F
100
AcDbEntity
 67
     1
  8
0
100
AcDbBlockBegin
  2
*PAPER_SPACE
 70
     0
 10
0.0
 20
0.0
 30
0.0
  3
*PAPER_SPACE
  1

  0
ENDBLK
  5
10
100
AcDbEntity
 67
     1
  8
0
100
AcDbBlockEnd
  0
BLOCK
  5
2A0B
100
AcDbEntity
  8
0
100
AcDbBlockBegin
  2
*D0
 70
     1
 10
0.0
 20
0.0
 30
0.0
  3
*D0
  1

  0
LINE
  5
2A0C
100
AcDbEntity
  8
0
  6
BYBLOCK
100
AcDbLine
 10
33.718354
 20
214.800046
 30
0.0
 11
33.718354
 21
219.25
 31
0.0
  0
LINE
  5
2A0D
100
AcDbEntity
  8
0
  6
BYBLOCK
100
AcDbLine
 10
68.718399
 20
214.8
 30
0.0
 11
68.718399
 21
219.25
 31
0.0
  0
LINE
  5
2A0E
100
AcDbEntity
  8
0
  6
BYBLOCK
100
AcDbLine
 10
36.218354
 20
218.0
 30
0.0
 11
66.218399
 21
218.0
 31
0.0
  0
SOLID
  5
2A0F
100
AcDbEntity
  8
0
  6
BYBLOCK
100
AcDbTrace
 10
36.218354
 20
218.416667
 30
0.0
 11
36.218354
 21
217.583333
 31
0.0
 12
33.718354
 22
218.0
 32
0.0
 13
33.718354
 23
218.0
 33
0.0
  0
SOLID
  5
2A10
100
AcDbEntity
  8
0
  6
BYBLOCK
100
AcDbTrace
 10
66.218399
 20
218.416667
 30
0.0
 11
66.218399
 21
217.583333
 31
0.0
 12
68.718399
 22
218.0
 32
0.0
 13
68.718399
 23
218.0
 33
0.0
  0
MTEXT
  5
2A11
100
AcDbEntity
  8
0
  6
BYBLOCK
 62
     2
100
AcDbMText
 10
51.218377
 20
219.544645
 30
0.0
 40
1.8
 41
0.0
 71
     5
 72
     1
  1
35
  7
FINDER
  0
POINT
  5
2A12
100
AcDbEntity
  8
DEFPOINTS
  6
BYBLOCK
 62
     0
100
AcDbPoint
 10
33.718354
 20
212.800046
 30
0.0
  0
POINT
  5
2A13
100
AcDbEntity
  8
DEFPOINTS
  6
BYBLOCK
 62
     0
100
AcDbPoint
 10
68.718399
 20
212.8
 30
0.0
  0
POINT
  5
2A14
100
AcDbEntity
  8
DEFPOINTS
  6
BYBLOCK
 62
     0
100
AcDbPoint
 10
68.718399
 20
218.0
 30
0.0
  0
ENDBLK
  5
2A15
100
AcDbEntity
  8
0
100
AcDbBlockEnd
  0
BLOCK
  5
2A16
100
AcDbEntity
  8
0
100
AcDbBlockBegin
  2
*D1
 70
     1
 10
0.0
 20
0.0
 30
0.0
  3
*D1
  1

  0
LINE
  5
2A17
100
AcDbEntity
  8
0
  6
BYBLOCK
100
AcDbLine
 10
32.918308
 20
214.0
 30
0.0
 11
26.75
 21
214.0
 31
0.0
  0
LINE
  5
2A18
100
AcDbEntity
  8
0
  6
BYBLOCK
100
AcDbLine
 10
32.918411
 20
130.0
 30
0.0
 11
26.75
 21
130.0
 31
0.0
  0
LINE
  5
2A19
100
AcDbEntity
  8
0
  6
BYBLOCK
100
AcDbLine
 10
28.0
 20
211.5
 30
0.0
 11
28.0
 21
132.5
 31
0.0
  0
SOLID
  5
2A1A
100
AcDbEntity
  8
0
  6
BYBLOCK
100
AcDbTrace
 10
27.583333
 20
211.5
 30
0.0
 11
28.416667
 21
211.5
 31
0.0
 12
28.0
 22
214.0
 32
0.0
 13
28.0
 23
214.0
 33
0.0
  0
SOLID
  5
2A1B
100
AcDbEntity
  8
0
  6
BYBLOCK
100
AcDbTrace
 10
27.583333
 20
132.5
 30
0.0
 11
28.416667
 21
132.5
 31
0.0
 12
28.0
 22
130.0
 32
0.0
 13
28.0
 23
130.0
 33
0.0
  0
MTEXT
  5
2A1C
100
AcDbEntity
  8
0
  6
BYBLOCK
 62
     2
100
AcDbMText
 10
26.455969
 20
172.0
 30
0.0
 40
1.8
 41
0.0
 71
     5
 72
     1
  1
84
  7
FINDER
 11
0.0
 21
1.0
 31
0.0
  0
POINT
  5
2A1D
100
AcDbEntity
  8
DEFPOINTS
  6
BYBLOCK
 62
     0
100
AcDbPoint
 10
34.918308
 20
214.0
 30
0.0
  0
POINT
  5
2A1E
100
AcDbEntity
  8
DEFPOINTS
  6
BYBLOCK
 62
     0
100
AcDbPoint
 10
34.918411
 20
130.0
 30
0.0
  0
POINT
  5
2A1F
100
AcDbEntity
  8
DEFPOINTS
  6
BYBLOCK
 62
     0
100
AcDbPoint
 10
28.0
 20
130.0
 30
0.0
  0
ENDBLK
  5
2A20
100
AcDbEntity
  8
0
100
AcDbBlockEnd
  0
BLOCK
  5
2829
100
AcDbEntity
  8
0
100
AcDbBlockBegin
  2
*D2
 70
     1
 10
0.0
 20
0.0
 30
0.0
  3
*D2
  1

  0
LINE
  5
282A
100
AcDbEntity
  8
0
  6
BYBLOCK
100
AcDbLine
 10
120.707792
 20
214.5766
 30
0.0
 11
120.707792
 21
237.875
 31
0.0
  0
LINE
  5
282B
100
AcDbEntity
  8
0
  6
BYBLOCK
100
AcDbLine
 10
178.707798
 20
193.903132
 30
0.0
 11
178.707798
 21
237.875
 31
0.0
  0
LINE
  5
282C
100
AcDbEntity
  8
0
  6
BYBLOCK
100
AcDbLine
 10
123.207792
 20
236.625
 30
0.0
 11
176.207798
 21
236.625
 31
0.0
  0
SOLID
  5
282D
100
AcDbEntity
  8
0
  6
BYBLOCK
100
AcDbTrace
 10
123.207792
 20
237.041667
 30
0.0
 11
123.207792
 21
236.208333
 31
0.0
 12
120.707792
 22
236.625
 32
0.0
 13
120.707792
 23
236.625
 33
0.0
  0
SOLID
  5
282E
100
AcDbEntity
  8
0
  6
BYBLOCK
100
AcDbTrace
 10
176.207798
 20
237.041667
 30
0.0
 11
176.207798
 21
236.208333
 31
0.0
 12
178.707798
 22
236.625
 32
0.0
 13
178.707798
 23
236.625
 33
0.0
  0
MTEXT
  5
282F
100
AcDbEntity
  8
0
  6
BYBLOCK
 62
     2
100
AcDbMText
 10
150.99886
 20
238.169031
 30
0.0
 40
1.8
 41
0.0
 71
     5
 72
     1
  1
58
  7
FINDER
  0
POINT
  5
2830
100
AcDbEntity
  8
DEFPOINTS
  6
BYBLOCK
 62
     0
100
AcDbPoint
 10
120.707792
 20
212.5766
 30
0.0
  0
POINT
  5
2831
100
AcDbEntity
  8
DEFPOINTS
  6
BYBLOCK
 62
     0
100
AcDbPoint
 10
178.707798
 20
191.903132
 30
0.0
  0
POINT
  5
2832
100
AcDbEntity
  8
DEFPOINTS
  6
BYBLOCK
 62
     0
100
AcDbPoint
 10
178.707798
 20
236.625
 30
0.0
  0
ENDBLK
  5
2833
100
AcDbEntity
  8
0
100
AcDbBlockEnd
  0
BLOCK
  5
27D6
100
AcDbEntity
  8
0
100
AcDbBlockBegin
  2
*D3
 70
     1
 10
0.0
 20
0.0
 30
0.0
  3
*D3
  1

  0
LINE
  5
27D7
100
AcDbEntity
  8
0
  6
BYBLOCK
100
AcDbLine
 10
179.319456
 20
194.304775
 30
0.0
 11
185.25
 21
194.304775
 31
0.0
  0
LINE
  5
27D8
100
AcDbEntity
  8
0
  6
BYBLOCK
100
AcDbLine
 10
179.319456
 20
149.695225
 30
0.0
 11
185.25
 21
149.695225
 31
0.0
  0
LINE
  5
27D9
100
AcDbEntity
  8
0
  6
BYBLOCK
100
AcDbLine
 10
184.0
 20
191.804775
 30
0.0
 11
184.0
 21
152.195225
 31
0.0
  0
SOLID
  5
27DA
100
AcDbEntity
  8
0
  6
BYBLOCK
100
AcDbTrace
 10
183.583333
 20
191.804775
 30
0.0
 11
184.416667
 21
191.804775
 31
0.0
 12
184.0
 22
194.304775
 32
0.0
 13
184.0
 23
194.304775
 33
0.0
  0
SOLID
  5
27DB
100
AcDbEntity
  8
0
  6
BYBLOCK
100
AcDbTrace
 10
183.583333
 20
152.195225
 30
0.0
 11
184.416667
 21
152.195225
 31
0.0
 12
184.0
 22
149.695225
 32
0.0
 13
184.0
 23
149.695225
 33
0.0
  0
MTEXT
  5
27DC
100
AcDbEntity
  8
0
  6
BYBLOCK
 62
     2
100
AcDbMText
 10
182.455969
 20
172.0
 30
0.0
 40
1.8
 41
0.0
 71
     5
 72
     1
  1
44.8
  7
FINDER
 11
0.0
 21
1.0
 31
0.0
  0
POINT
  5
27DD
100
AcDbEntity
  8
DEFPOINTS
  6
BYBLOCK
 62
     0
100
AcDbPoint
 10
177.319456
 20
194.304775
 30
0.0
  0
POINT
  5
27DE
100
AcDbEntity
  8
DEFPOINTS
  6
BYBLOCK
 62
     0
100
AcDbPoint
 10
177.319456
 20
149.695225
 30
0.0
  0
POINT
  5
27DF
100
AcDbEntity
  8
DEFPOINTS
  6
BYBLOCK
 62
     0
100
AcDbPoint
 10
184.0
 20
149.695225
 30
0.0
  0
ENDBLK
  5
27E0
100
AcDbEntity
  8
0
100
AcDbBlockEnd
  0
BLOCK
  5
27F8
100
AcDbEntity
  8
0
100
AcDbBlockBegin
  2
*D4
 70
     1
 10
0.0
 20
0.0
 30
0.0
  3
*D4
  1

  0
LINE
  5
27F9
100
AcDbEntity
  8
0
  6
BYBLOCK
100
AcDbLine
 10
124.107793
 20
192.0
 30
0.0
 11
124.107793
 21
219.25
 31
0.0
  0
LINE
  5
27FA
100
AcDbEntity
  8
0
  6
BYBLOCK
100
AcDbLine
 10
166.407794
 20
214.766792
 30
0.0
 11
166.407794
 21
219.25
 31
0.0
  0
LINE
  5
27FB
100
AcDbEntity
  8
0
  6
BYBLOCK
100
AcDbLine
 10
126.607793
 20
218.0
 30
0.0
 11
163.907794
 21
218.0
 31
0.0
  0
SOLID
  5
27FC
100
AcDbEntity
  8
0
  6
BYBLOCK
100
AcDbTrace
 10
126.607793
 20
218.416667
 30
0.0
 11
126.607793
 21
217.583333
 31
0.0
 12
124.107793
 22
218.0
 32
0.0
 13
124.107793
 23
218.0
 33
0.0
  0
SOLID
  5
27FD
100
AcDbEntity
  8
0
  6
BYBLOCK
100
AcDbTrace
 10
163.907794
 20
218.416667
 30
0.0
 11
163.907794
 21
217.583333
 31
0.0
 12
166.407794
 22
218.0
 32
0.0
 13
166.407794
 23
218.0
 33
0.0
  0
MTEXT
  5
27FE
100
AcDbEntity
  8
0
  6
BYBLOCK
 62
     2
100
AcDbMText
 10
145.257793
 20
219.544645
 30
0.0
 40
1.8
 41
0.0
 71
     5
 72
     1
  1
42.3
  7
FINDER
  0
POINT
  5
27FF
100
AcDbEntity
  8
DEFPOINTS
  6
BYBLOCK
 62
     0
100
AcDbPoint
 10
124.107793
 20
190.0
 30
0.0
  0
POINT
  5
2800
100
AcDbEntity
  8
DEFPOINTS
  6
BYBLOCK
 62
     0
100
AcDbPoint
 10
166.407794
 20
212.766792
 30
0.0
  0
POINT
  5
2801
100
AcDbEntity
  8
DEFPOINTS
  6
BYBLOCK
 62
     0
100
AcDbPoint
 10
166.407794
 20
218.0
 30
0.0
  0
ENDBLK
  5
2802
100
AcDbEntity
  8
0
100
AcDbBlockEnd
  0
BLOCK
  5
2805
100
AcDbEntity
  8
0
100
AcDbBlockBegin
  2
*D5
 70
     1
 10
0.0
 20
0.0
 30
0.0
  3
*D5
  1

  0
LINE
  5
2806
100
AcDbEntity
  8
0
  6
BYBLOCK
100
AcDbLine
 10
124.107793
 20
192.0
 30
0.0
 11
124.107793
 21
225.75
 31
0.0
  0
LINE
  5
2807
100
AcDbEntity
  8
0
  6
BYBLOCK
100
AcDbLine
 10
167.607794
 20
202.8
 30
0.0
 11
167.607794
 21
225.75
 31
0.0
  0
LINE
  5
2808
100
AcDbEntity
  8
0
  6
BYBLOCK
100
AcDbLine
 10
126.607793
 20
224.5
 30
0.0
 11
165.107794
 21
224.5
 31
0.0
  0
SOLID
  5
2809
100
AcDbEntity
  8
0
  6
BYBLOCK
100
AcDbTrace
 10
126.607793
 20
224.916667
 30
0.0
 11
126.607793
 21
224.083333
 31
0.0
 12
124.107793
 22
224.5
 32
0.0
 13
124.107793
 23
224.5
 33
0.0
  0
SOLID
  5
280A
100
AcDbEntity
  8
0
  6
BYBLOCK
100
AcDbTrace
 10
165.107794
 20
224.916667
 30
0.0
 11
165.107794
 21
224.083333
 31
0.0
 12
167.607794
 22
224.5
 32
0.0
 13
167.607794
 23
224.5
 33
0.0
  0
MTEXT
  5
280B
100
AcDbEntity
  8
0
  6
BYBLOCK
 62
     2
100
AcDbMText
 10
145.857793
 20
226.044645
 30
0.0
 40
1.8
 41
0.0
 71
     5
 72
     1
  1
43.5
  7
FINDER
  0
POINT
  5
280C
100
AcDbEntity
  8
DEFPOINTS
  6
BYBLOCK
 62
     0
100
AcDbPoint
 10
124.107793
 20
190.0
 30
0.0
  0
POINT
  5
280D
100
AcDbEntity
  8
DEFPOINTS
  6
BYBLOCK
 62
     0
100
AcDbPoint
 10
167.607794
 20
200.8
 30
0.0
  0
POINT
  5
280E
100
AcDbEntity
  8
DEFPOINTS
  6
BYBLOCK
 62
     0
100
AcDbPoint
 10
167.607794
 20
224.5
 30
0.0
  0
ENDBLK
  5
280F
100
AcDbEntity
  8
0
100
AcDbBlockEnd
  0
BLOCK
  5
2812
100
AcDbEntity
  8
0
100
AcDbBlockBegin
  2
*D6
 70
     1
 10
0.0
 20
0.0
 30
0.0
  3
*D6
  1

  0
LINE
  5
2813
100
AcDbEntity
  8
0
  6
BYBLOCK
100
AcDbLine
 10
124.107793
 20
192.0
 30
0.0
 11
124.107793
 21
232.25
 31
0.0
  0
LINE
  5
2814
100
AcDbEntity
  8
0
  6
BYBLOCK
100
AcDbLine
 10
178.707798
 20
193.903132
 30
0.0
 11
178.707798
 21
232.25
 31
0.0
  0
LINE
  5
2815
100
AcDbEntity
  8
0
  6
BYBLOCK
100
AcDbLine
 10
126.607793
 20
231.0
 30
0.0
 11
176.207798
 21
231.0
 31
0.0
  0
SOLID
  5
2816
100
AcDbEntity
  8
0
  6
BYBLOCK
100
AcDbTrace
 10
126.607793
 20
231.416667
 30
0.0
 11
126.607793
 21
230.583333
 31
0.0
 12
124.107793
 22
231.0
 32
0.0
 13
124.107793
 23
231.0
 33
0.0
  0
SOLID
  5
2817
100
AcDbEntity
  8
0
  6
BYBLOCK
100
AcDbTrace
 10
176.207798
 20
231.416667
 30
0.0
 11
176.207798
 21
230.583333
 31
0.0
 12
178.707798
 22
231.0
 32
0.0
 13
178.707798
 23
231.0
 33
0.0
  0
MTEXT
  5
2818
100
AcDbEntity
  8
0
  6
BYBLOCK
 62
     2
100
AcDbMText
 10
151.407796
 20
232.544031
 30
0.0
 40
1.8
 41
0.0
 71
     5
 72
     1
  1
54.6
  7
FINDER
  0
POINT
  5
2819
100
AcDbEntity
  8
DEFPOINTS
  6
BYBLOCK
 62
     0
100
AcDbPoint
 10
124.107793
 20
190.0
 30
0.0
  0
POINT
  5
281A
100
AcDbEntity
  8
DEFPOINTS
  6
BYBLOCK
 62
     0
100
AcDbPoint
 10
178.707798
 20
191.903132
 30
0.0
  0
POINT
  5
281B
100
AcDbEntity
  8
DEFPOINTS
  6
BYBLOCK
 62
     0
100
AcDbPoint
 10
178.707798
 20
231.0
 30
0.0
  0
ENDBLK
  5
281C
100
AcDbEntity
  8
0
100
AcDbBlockEnd
  0
BLOCK
  5
2AB5
100
AcDbEntity
  8
0
100
AcDbBlockBegin
  2
*X7
 70
     1
 10
0.0
 20
0.0
 30
0.0
  3
*X7
  1

  0
LINE
  5
2A27
100
AcDbEntity
  8
0
  6
CONTINUOUS
 62
     0
100
AcDbLine
 10
14.989467
 20
20.308874
 30
0.0
 11
15.516193
 21
20.8356
 31
0.0
  0
LINE
  5
2A28
100
AcDbEntity
  8
0
  6
CONTINUOUS
 62
     0
100
AcDbLine
 10
14.112517
 20
19.714767
 30
0.0
 11
16.1103
 21
21.71255
 31
0.0
  0
LINE
  5
2A29
100
AcDbEntity
  8
0
  6
CONTINUOUS
 62
     0
100
AcDbLine
 10
13.596595
 20
19.481687
 30
0.0
 11
16.34338
 21
22.228473
 31
0.0
  0
LINE
  5
2A2A
100
AcDbEntity
  8
0
  6
CONTINUOUS
 62
     0
100
AcDbLine
 10
13.174894
 20
19.342829
 30
0.0
 11
16.482238
 21
22.650174
 31
0.0
  0
LINE
  5
2A2B
100
AcDbEntity
  8
0
  6
CONTINUOUS
 62
     0
100
AcDbLine
 10
12.804844
 20
19.255622
 30
0.0
 11
16.569445
 21
23.020223
 31
0.0
  0
LINE
  5
2A2C
100
AcDbEntity
  8
0
  6
CONTINUOUS
 62
     0
100
AcDbLine
 10
14.795352
 20
21.528973
 30
0.0
 11
16.622133
 21
23.355754
 31
0.0
  0
LINE
  5
2A2D
100
AcDbEntity
  8
0
  6
CONTINUOUS
 62
     0
100
AcDbLine
 10
12.469313
 20
19.202934
 30
0.0
 11
14.296095
 21
21.029715
 31
0.0
  0
LINE
  5
2A2E
100
AcDbEntity
  8
0
  6
CONTINUOUS
 62
     0
100
AcDbLine
 10
15.293536
 20
22.309999
 30
0.0
 11
16.649275
 21
23.665738
 31
0.0
  0
LINE
  5
2A2F
100
AcDbEntity
  8
0
  6
CONTINUOUS
 62
     0
100
AcDbLine
 10
12.159329
 20
19.175793
 30
0.0
 11
13.515068
 21
20.531532
 31
0.0
  0
LINE
  5
2A30
100
AcDbEntity
  8
0
  6
CONTINUOUS
 62
     0
100
AcDbLine
 10
15.479088
 20
22.778394
 30
0.0
 11
16.656273
 21
23.955579
 31
0.0
  0
LINE
  5
2A31
100
AcDbEntity
  8
0
  6
CONTINUOUS
 62
     0
100
AcDbLine
 10
11.869488
 20
19.168795
 30
0.0
 11
13.046674
 21
20.34598
 31
0.0
  0
LINE
  5
2A32
100
AcDbEntity
  8
0
  6
CONTINUOUS
 62
     0
100
AcDbLine
 10
15.580082
 20
23.162231
 30
0.0
 11
16.646682
 21
24.228831
 31
0.0
  0
LINE
  5
2A33
100
AcDbEntity
  8
0
  6
CONTINUOUS
 62
     0
100
AcDbLine
 10
11.596236
 20
19.178385
 30
0.0
 11
12.662836
 21
20.244985
 31
0.0
  0
LINE
  5
2A34
100
AcDbEntity
  8
0
  6
CONTINUOUS
 62
     0
100
AcDbLine
 10
12.654531
 20
20.519523
 30
0.0
 11
13.323223
 21
21.188215
 31
0.0
  0
LINE
  5
2A35
100
AcDbEntity
  8
0
  6
CONTINUOUS
 62
     0
100
AcDbLine
 10
15.634125
 20
23.499117
 30
0.0
 11
16.622986
 21
24.487978
 31
0.0
  0
LINE
  5
2A36
100
AcDbEntity
  8
0
  6
CONTINUOUS
 62
     0
100
AcDbLine
 10
11.33709
 20
19.202082
 30
0.0
 11
12.325951
 21
20.190943
 31
0.0
  0
LINE
  5
2A37
100
AcDbEntity
  8
0
  6
CONTINUOUS
 62
     0
100
AcDbLine
 10
12.404347
 20
20.552181
 30
0.0
 11
13.323223
 21
21.471057
 31
0.0
  0
LINE
  5
2A38
100
AcDbEntity
  8
0
  6
CONTINUOUS
 62
     0
100
AcDbLine
 10
15.656425
 20
23.804259
 30
0.0
 11
16.586997
 21
24.734832
 31
0.0
  0
LINE
  5
2A39
100
AcDbEntity
  8
0
  6
CONTINUOUS
 62
     0
100
AcDbLine
 10
11.090236
 20
19.23807
 30
0.0
 11
12.020808
 21
20.168643
 31
0.0
  0
LINE
  5
2A3A
100
AcDbEntity
  8
0
  6
CONTINUOUS
 62
     0
100
AcDbLine
 10
12.212553
 20
20.64323
 30
0.0
 11
13.323223
 21
21.7539
 31
0.0
  0
LINE
  5
2A3B
100
AcDbEntity
  8
0
  6
CONTINUOUS
 62
     0
100
AcDbLine
 10
15.654961
 20
24.085639
 30
0.0
 11
16.540085
 21
24.970762
 31
0.0
  0
LINE
  5
2A3C
100
AcDbEntity
  8
0
  6
CONTINUOUS
 62
     0
100
AcDbLine
 10
10.854306
 20
19.284983
 30
0.0
 11
11.739429
 21
20.170106
 31
0.0
  0
LINE
  5
2A3D
100
AcDbEntity
  8
0
  6
CONTINUOUS
 62
     0
100
AcDbLine
 10
12.063213
 20
20.776733
 30
0.0
 11
13.323223
 21
22.036743
 31
0.0
  0
LINE
  5
2A3E
100
AcDbEntity
  8
0
  6
CONTINUOUS
 62
     0
100
AcDbLine
 10
15.634541
 20
24.34806
 30
0.0
 11
16.483306
 21
25.196826
 31
0.0
  0
LINE
  5
2A3F
100
AcDbEntity
  8
0
  6
CONTINUOUS
 62
     0
100
AcDbLine
 10
10.628242
 20
19.341761
 30
0.0
 11
11.477007
 21
20.190527
 31
0.0
  0
LINE
  5
2A40
100
AcDbEntity
  8
0
  6
CONTINUOUS
 62
     0
100
AcDbLine
 10
11.920447
 20
20.916809
 30
0.0
 11
13.323223
 21
22.319586
 31
0.0
  0
LINE
  5
2A41
100
AcDbEntity
  8
0
  6
CONTINUOUS
 62
     0
100
AcDbLine
 10
15.598315
 20
24.594678
 30
0.0
 11
16.417496
 21
25.413858
 31
0.0
  0
LINE
  5
2A42
100
AcDbEntity
  8
0
  6
CONTINUOUS
 62
     0
100
AcDbLine
 10
10.411209
 20
19.407572
 30
0.0
 11
11.23039
 21
20.226752
 31
0.0
  0
LINE
  5
2A43
100
AcDbEntity
  8
0
  6
CONTINUOUS
 62
     0
100
AcDbLine
 10
11.77768
 20
21.056886
 30
0.0
 11
13.323223
 21
22.602428
 31
0.0
  0
LINE
  5
2A44
100
AcDbEntity
  8
0
  6
CONTINUOUS
 62
     0
100
AcDbLine
 10
15.548478
 20
24.827684
 30
0.0
 11
16.343321
 21
25.622526
 31
0.0
  0
LINE
  5
2A45
100
AcDbEntity
  8
0
  6
CONTINUOUS
 62
     0
100
AcDbLine
 10
10.202541
 20
19.481747
 30
0.0
 11
10.997384
 21
20.276589
 31
0.0
  0
LINE
  5
2A46
100
AcDbEntity
  8
0
  6
CONTINUOUS
 62
     0
100
AcDbLine
 10
12.362923
 20
21.924971
 30
0.0
 11
13.323223
 21
22.885271
 31
0.0
  0
LINE
  5
2A47
100
AcDbEntity
  8
0
  6
CONTINUOUS
 62
     0
100
AcDbLine
 10
11.634914
 20
21.196962
 30
0.0
 11
12.307877
 21
21.869925
 31
0.0
  0
LINE
  5
2A48
100
AcDbEntity
  8
0
  6
CONTINUOUS
 62
     0
100
AcDbLine
 10
15.486619
 20
25.048667
 30
0.0
 11
16.261321
 21
25.823369
 31
0.0
  0
LINE
  5
2A49
100
AcDbEntity
  8
0
  6
CONTINUOUS
 62
     0
100
AcDbLine
 10
10.001699
 20
19.563747
 30
0.0
 11
10.776401
 21
20.338449
 31
0.0
  0
LINE
  5
2A4A
100
AcDbEntity
  8
0
  6
CONTINUOUS
 62
     0
100
AcDbLine
 10
12.362923
 20
22.207814
 30
0.0
 11
13.323223
 21
23.168114
 31
0.0
  0
LINE
  5
2A4B
100
AcDbEntity
  8
0
  6
CONTINUOUS
 62
     0
100
AcDbLine
 10
11.492148
 20
21.337039
 30
0.0
 11
12.172228
 21
22.017119
 31
0.0
  0
LINE
  5
2A4C
100
AcDbEntity
  8
0
  6
CONTINUOUS
 62
     0
100
AcDbLine
 10
15.41392
 20
25.258811
 30
0.0
 11
16.171934
 21
26.016825
 31
0.0
  0
LINE
  5
2A4D
100
AcDbEntity
  8
0
  6
CONTINUOUS
 62
     0
100
AcDbLine
 10
9.808243
 20
19.653134
 30
0.0
 11
10.566257
 21
20.411147
 31
0.0
  0
LINE
  5
2A4E
100
AcDbEntity
  8
0
  6
CONTINUOUS
 62
     0
100
AcDbLine
 10
12.362923
 20
22.490656
 30
0.0
 11
13.323223
 21
23.450956
 31
0.0
  0
LINE
  5
2A4F
100
AcDbEntity
  8
0
  6
CONTINUOUS
 62
     0
100
AcDbLine
 10
14.38066
 20
24.508394
 30
0.0
 11
14.903943
 21
25.031677
 31
0.0
  0
LINE
  5
2A50
100
AcDbEntity
  8
0
  6
CONTINUOUS
 62
     0
100
AcDbLine
 10
11.349382
 20
21.477115
 30
0.0
 11
12.03658
 21
22.164313
 31
0.0
  0
LINE
  5
2A51
100
AcDbEntity
  8
0
  6
CONTINUOUS
 62
     0
100
AcDbLine
 10
15.331283
 20
25.459017
 30
0.0
 11
16.075518
 21
26.203251
 31
0.0
  0
LINE
  5
2A52
100
AcDbEntity
  8
0
  6
CONTINUOUS
 62
     0
100
AcDbLine
 10
9.621817
 20
19.74955
 30
0.0
 11
10.366051
 21
20.493784
 31
0.0
  0
LINE
  5
2A53
100
AcDbEntity
  8
0
  6
CONTINUOUS
 62
     0
100
AcDbLine
 10
12.362923
 20
22.773499
 30
0.0
 11
13.323223
 21
23.733799
 31
0.0
  0
LINE
  5
2A54
100
AcDbEntity
  8
0
  6
CONTINUOUS
 62
     0
100
AcDbLine
 10
14.097817
 20
24.508394
 30
0.0
 11
14.840413
 21
25.25099
 31
0.0
  0
LINE
  5
2A55
100
AcDbEntity
  8
0
  6
CONTINUOUS
 62
     0
100
AcDbLine
 10
11.206616
 20
21.617192
 30
0.0
 11
11.900931
 21
22.311507
 31
0.0
  0
LINE
  5
2A56
100
AcDbEntity
  8
0
  6
CONTINUOUS
 62
     0
100
AcDbLine
 10
15.2394
 20
25.649976
 30
0.0
 11
15.972362
 21
26.382939
 31
0.0
  0
LINE
  5
2A57
100
AcDbEntity
  8
0
  6
CONTINUOUS
 62
     0
100
AcDbLine
 10
9.442129
 20
19.852705
 30
0.0
 11
10.175091
 21
20.585668
 31
0.0
  0
LINE
  5
2A58
100
AcDbEntity
  8
0
  6
CONTINUOUS
 62
     0
100
AcDbLine
 10
12.362923
 20
23.056342
 30
0.0
 11
13.323223
 21
24.016642
 31
0.0
  0
LINE
  5
2A59
100
AcDbEntity
  8
0
  6
CONTINUOUS
 62
     0
100
AcDbLine
 10
13.814975
 20
24.508394
 30
0.0
 11
14.709087
 21
25.402506
 31
0.0
  0
LINE
  5
2A5A
100
AcDbEntity
  8
0
  6
CONTINUOUS
 62
     0
100
AcDbLine
 10
11.063849
 20
21.757268
 30
0.0
 11
11.765282
 21
22.458701
 31
0.0
  0
LINE
  5
2A5B
100
AcDbEntity
  8
0
  6
CONTINUOUS
 62
     0
100
AcDbLine
 10
15.138805
 20
25.832223
 30
0.0
 11
15.862703
 21
26.556122
 31
0.0
  0
LINE
  5
2A5C
100
AcDbEntity
  8
0
  6
CONTINUOUS
 62
     0
100
AcDbLine
 10
9.268945
 20
19.962364
 30
0.0
 11
9.992844
 21
20.686263
 31
0.0
  0
LINE
  5
2A5D
100
AcDbEntity
  8
0
  6
CONTINUOUS
 62
     0
100
AcDbLine
 10
12.362923
 20
23.339185
 30
0.0
 11
13.323223
 21
24.299485
 31
0.0
  0
LINE
  5
2A5E
100
AcDbEntity
  8
0
  6
CONTINUOUS
 62
     0
100
AcDbLine
 10
13.532132
 20
24.508394
 30
0.0
 11
14.516893
 21
25.493154
 31
0.0
  0
LINE
  5
2A5F
100
AcDbEntity
  8
0
  6
CONTINUOUS
 62
     0
100
AcDbLine
 10
10.921083
 20
21.897345
 30
0.0
 11
11.629634
 21
22.605895
 31
0.0
  0
LINE
  5
2A60
100
AcDbEntity
  8
0
  6
CONTINUOUS
 62
     0
100
AcDbLine
 10
15.029907
 20
26.006168
 30
0.0
 11
15.746727
 21
26.722988
 31
0.0
  0
LINE
  5
2A61
100
AcDbEntity
  8
0
  6
CONTINUOUS
 62
     0
100
AcDbLine
 10
9.102079
 20
20.078341
 30
0.0
 11
9.818899
 21
20.795161
 31
0.0
  0
LINE
  5
2A62
100
AcDbEntity
  8
0
  6
CONTINUOUS
 62
     0
100
AcDbLine
 10
12.362923
 20
23.622027
 30
0.0
 11
14.244239
 21
25.503344
 31
0.0
  0
LINE
  5
2A63
100
AcDbEntity
  8
0
  6
CONTINUOUS
 62
     0
100
AcDbLine
 10
10.778317
 20
22.037421
 30
0.0
 11
11.493985
 21
22.753089
 31
0.0
  0
LINE
  5
2A64
100
AcDbEntity
  8
0
  6
CONTINUOUS
 62
     0
100
AcDbLine
 10
14.913014
 20
26.172119
 30
0.0
 11
15.624577
 21
26.883681
 31
0.0
  0
LINE
  5
2A65
100
AcDbEntity
  8
0
  6
CONTINUOUS
 62
     0
100
AcDbLine
 10
8.941386
 20
20.200491
 30
0.0
 11
9.652949
 21
20.912053
 31
0.0
  0
LINE
  5
2A66
100
AcDbEntity
  8
0
  6
CONTINUOUS
 62
     0
100
AcDbLine
 10
12.362923
 20
23.90487
 30
0.0
 11
13.961397
 21
25.503344
 31
0.0
  0
LINE
  5
2A67
100
AcDbEntity
  8
0
  6
CONTINUOUS
 62
     0
100
AcDbLine
 10
10.635551
 20
22.177498
 30
0.0
 11
11.358336
 21
22.900283
 31
0.0
  0
LINE
  5
2A68
100
AcDbEntity
  8
0
  6
CONTINUOUS
 62
     0
100
AcDbLine
 10
14.78835
 20
26.330297
 30
0.0
 11
15.49636
 21
27.038307
 31
0.0
  0
LINE
  5
2A69
100
AcDbEntity
  8
0
  6
CONTINUOUS
 62
     0
100
AcDbLine
 10
8.78676
 20
20.328707
 30
0.0
 11
9.494771
 21
21.036718
 31
0.0
  0
LINE
  5
2A6A
100
AcDbEntity
  8
0
  6
CONTINUOUS
 62
     0
100
AcDbLine
 10
12.362923
 20
24.187713
 30
0.0
 11
13.678554
 21
25.503344
 31
0.0
  0
LINE
  5
2A6B
100
AcDbEntity
  8
0
  6
CONTINUOUS
 62
     0
100
AcDbLine
 10
10.492785
 20
22.317574
 30
0.0
 11
11.222688
 21
23.047477
 31
0.0
  0
LINE
  5
2A6C
100
AcDbEntity
  8
0
  6
CONTINUOUS
 62
     0
100
AcDbLine
 10
14.65606
 20
26.48085
 30
0.0
 11
15.362148
 21
27.186938
 31
0.0
  0
LINE
  5
2A6D
100
AcDbEntity
  8
0
  6
CONTINUOUS
 62
     0
100
AcDbLine
 10
8.63813
 20
20.462919
 30
0.0
 11
9.344218
 21
21.169008
 31
0.0
  0
LINE
  5
2A6E
100
AcDbEntity
  8
0
  6
CONTINUOUS
 62
     0
100
AcDbLine
 10
12.362923
 20
24.470555
 30
0.0
 11
13.395711
 21
25.503344
 31
0.0
  0
LINE
  5
2A6F
100
AcDbEntity
  8
0
  6
CONTINUOUS
 62
     0
100
AcDbLine
 10
10.350018
 20
22.457651
 30
0.0
 11
11.087039
 21
23.194672
 31
0.0
  0
LINE
  5
2A70
100
AcDbEntity
  8
0
  6
CONTINUOUS
 62
     0
100
AcDbLine
 10
14.516224
 20
26.623856
 30
0.0
 11
15.221979
 21
27.329612
 31
0.0
  0
LINE
  5
2A71
100
AcDbEntity
  8
0
  6
CONTINUOUS
 62
     0
100
AcDbLine
 10
8.495456
 20
20.603088
 30
0.0
 11
9.201211
 21
21.308844
 31
0.0
  0
LINE
  5
2A72
100
AcDbEntity
  8
0
  6
CONTINUOUS
 62
     0
100
AcDbLine
 10
11.020368
 20
23.410844
 30
0.0
 11
11.413873
 21
23.804348
 31
0.0
  0
LINE
  5
2A73
100
AcDbEntity
  8
0
  6
CONTINUOUS
 62
     0
100
AcDbLine
 10
12.362923
 20
24.753398
 30
0.0
 11
13.323223
 21
25.713698
 31
0.0
  0
LINE
  5
2A74
100
AcDbEntity
  8
0
  6
CONTINUOUS
 62
     0
100
AcDbLine
 10
10.207252
 20
22.597727
 30
0.0
 11
10.951391
 21
23.341866
 31
0.0
  0
LINE
  5
2A75
100
AcDbEntity
  8
0
  6
CONTINUOUS
 62
     0
100
AcDbLine
 10
14.368854
 20
26.75933
 30
0.0
 11
15.07586
 21
27.466336
 31
0.0
  0
LINE
  5
2A76
100
AcDbEntity
  8
0
  6
CONTINUOUS
 62
     0
100
AcDbLine
 10
8.358732
 20
20.749207
 30
0.0
 11
9.065738
 21
21.456213
 31
0.0
  0
LINE
  5
2A77
100
AcDbEntity
  8
0
  6
CONTINUOUS
 62
     0
100
AcDbLine
 10
12.362923
 20
25.036241
 30
0.0
 11
13.323223
 21
25.996541
 31
0.0
  0
LINE
  5
2A78
100
AcDbEntity
  8
0
  6
CONTINUOUS
 62
     0
100
AcDbLine
 10
10.064486
 20
22.737804
 30
0.0
 11
11.413873
 21
24.087191
 31
0.0
  0
LINE
  5
2A79
100
AcDbEntity
  8
0
  6
CONTINUOUS
 62
     0
100
AcDbLine
 10
14.213901
 20
26.887219
 30
0.0
 11
14.923766
 21
27.597084
 31
0.0
  0
LINE
  5
2A7A
100
AcDbEntity
  8
0
  6
CONTINUOUS
 62
     0
100
AcDbLine
 10
8.227983
 20
20.901301
 30
0.0
 11
8.937848
 21
21.611166
 31
0.0
  0
LINE
  5
2A7B
100
AcDbEntity
  8
0
  6
CONTINUOUS
 62
     0
100
AcDbLine
 10
12.362923
 20
25.319084
 30
0.0
 11
13.323223
 21
26.279384
 31
0.0
  0
LINE
  5
2A7C
100
AcDbEntity
  8
0
  6
CONTINUOUS
 62
     0
100
AcDbLine
 10
9.92172
 20
22.87788
 30
0.0
 11
11.413873
 21
24.370034
 31
0.0
  0
LINE
  5
2A7D
100
AcDbEntity
  8
0
  6
CONTINUOUS
 62
     0
100
AcDbLine
 10
14.051246
 20
27.007407
 30
0.0
 11
14.76564
 21
27.7218
 31
0.0
  0
LINE
  5
2A7E
100
AcDbEntity
  8
0
  6
CONTINUOUS
 62
     0
100
AcDbLine
 10
8.103267
 20
21.059428
 30
0.0
 11
8.81766
 21
21.773821
 31
0.0
  0
LINE
  5
2A7F
100
AcDbEntity
  8
0
  6
CONTINUOUS
 62
     0
100
AcDbLine
 10
12.362923
 20
25.601926
 30
0.0
 11
13.323223
 21
26.562226
 31
0.0
  0
LINE
  5
2A80
100
AcDbEntity
  8
0
  6
CONTINUOUS
 62
     0
100
AcDbLine
 10
9.778954
 20
23.017957
 30
0.0
 11
11.413873
 21
24.652876
 31
0.0
  0
LINE
  5
2A81
100
AcDbEntity
  8
0
  6
CONTINUOUS
 62
     0
100
AcDbLine
 10
13.880701
 20
27.119704
 30
0.0
 11
14.601389
 21
27.840392
 31
0.0
  0
LINE
  5
2A82
100
AcDbEntity
  8
0
  6
CONTINUOUS
 62
     0
100
AcDbLine
 10
7.984675
 20
21.223678
 30
0.0
 11
8.705364
 21
21.944367
 31
0.0
  0
LINE
  5
2A83
100
AcDbEntity
  8
0
  6
CONTINUOUS
 62
     0
100
AcDbLine
 10
12.362923
 20
25.884769
 30
0.0
 11
13.323223
 21
26.845069
 31
0.0
  0
LINE
  5
2A84
100
AcDbEntity
  8
0
  6
CONTINUOUS
 62
     0
100
AcDbLine
 10
9.636187
 20
23.158033
 30
0.0
 11
11.413873
 21
24.935719
 31
0.0
  0
LINE
  5
2A85
100
AcDbEntity
  8
0
  6
CONTINUOUS
 62
     0
100
AcDbLine
 10
13.701993
 20
27.223839
 30
0.0
 11
14.430886
 21
27.952732
 31
0.0
  0
LINE
  5
2A86
100
AcDbEntity
  8
0
  6
CONTINUOUS
 62
     0
100
AcDbLine
 10
7.872335
 20
21.394181
 30
0.0
 11
8.601228
 21
22.123074
 31
0.0
  0
LINE
  5
2A87
100
AcDbEntity
  8
0
  6
CONTINUOUS
 62
     0
100
AcDbLine
 10
12.362923
 20
26.167612
 30
0.0
 11
13.323223
 21
27.127912
 31
0.0
  0
LINE
  5
2A88
100
AcDbEntity
  8
0
  6
CONTINUOUS
 62
     0
100
AcDbLine
 10
9.493421
 20
23.29811
 30
0.0
 11
11.413873
 21
25.218562
 31
0.0
  0
LINE
  5
2A89
100
AcDbEntity
  8
0
  6
CONTINUOUS
 62
     0
100
AcDbLine
 10
13.51476
 20
27.319448
 30
0.0
 11
14.253964
 21
28.058653
 31
0.0
  0
LINE
  5
2A8A
100
AcDbEntity
  8
0
  6
CONTINUOUS
 62
     0
100
AcDbLine
 10
7.766415
 20
21.571104
 30
0.0
 11
8.505619
 21
22.310308
 31
0.0
  0
LINE
  5
2A8B
100
AcDbEntity
  8
0
  6
CONTINUOUS
 62
     0
100
AcDbLine
 10
10.464823
 20
24.552354
 30
0.0
 11
11.413873
 21
25.501404
 31
0.0
  0
LINE
  5
2A8C
100
AcDbEntity
  8
0
  6
CONTINUOUS
 62
     0
100
AcDbLine
 10
9.323312
 20
23.410844
 30
0.0
 11
10.341212
 21
24.428744
 31
0.0
  0
LINE
  5
2A8D
100
AcDbEntity
  8
0
  6
CONTINUOUS
 62
     0
100
AcDbLine
 10
12.362923
 20
26.450454
 30
0.0
 11
14.070408
 21
28.157939
 31
0.0
  0
LINE
  5
2A8E
100
AcDbEntity
  8
0
  6
CONTINUOUS
 62
     0
100
AcDbLine
 10
7.667128
 20
21.75466
 30
0.0
 11
8.419014
 21
22.506545
 31
0.0
  0
LINE
  5
2A8F
100
AcDbEntity
  8
0
  6
CONTINUOUS
 62
     0
100
AcDbLine
 10
10.464823
 20
24.835197
 30
0.0
 11
11.413873
 21
25.784247
 31
0.0
  0
LINE
  5
2A90
100
AcDbEntity
  8
0
  6
CONTINUOUS
 62
     0
100
AcDbLine
 10
9.040469
 20
23.410844
 30
0.0
 11
10.058369
 21
24.428744
 31
0.0
  0
LINE
  5
2A91
100
AcDbEntity
  8
0
  6
CONTINUOUS
 62
     0
100
AcDbLine
 10
12.362923
 20
26.733297
 30
0.0
 11
13.879952
 21
28.250326
 31
0.0
  0
LINE
  5
2A92
100
AcDbEntity
  8
0
  6
CONTINUOUS
 62
     0
100
AcDbLine
 10
7.574741
 20
21.945116
 30
0.0
 11
8.342034
 21
22.712408
 31
0.0
  0
LINE
  5
2A93
100
AcDbEntity
  8
0
  6
CONTINUOUS
 62
     0
100
AcDbLine
 10
10.464823
 20
25.11804
 30
0.0
 11
11.413873
 21
26.06709
 31
0.0
  0
LINE
  5
2A94
100
AcDbEntity
  8
0
  6
CONTINUOUS
 62
     0
100
AcDbLine
 10
8.757627
 20
23.410844
 30
0.0
 11
9.775527
 21
24.428744
 31
0.0
  0
LINE
  5
2A95
100
AcDbEntity
  8
0
  6
CONTINUOUS
 62
     0
100
AcDbLine
 10
12.362923
 20
27.01614
 30
0.0
 11
13.682269
 21
28.335486
 31
0.0
  0
LINE
  5
2A96
100
AcDbEntity
  8
0
  6
CONTINUOUS
 62
     0
100
AcDbLine
 10
7.489582
 20
22.142799
 30
0.0
 11
8.275484
 21
22.928701
 31
0.0
  0
LINE
  5
2A97
100
AcDbEntity
  8
0
  6
CONTINUOUS
 62
     0
100
AcDbLine
 10
10.464823
 20
25.400883
 30
0.0
 11
11.413873
 21
26.349933
 31
0.0
  0
LINE
  5
2A98
100
AcDbEntity
  8
0
  6
CONTINUOUS
 62
     0
100
AcDbLine
 10
8.474784
 20
23.410844
 30
0.0
 11
9.492684
 21
24.428744
 31
0.0
  0
LINE
  5
2A99
100
AcDbEntity
  8
0
  6
CONTINUOUS
 62
     0
100
AcDbLine
 10
12.362923
 20
27.298983
 30
0.0
 11
13.476956
 21
28.413016
 31
0.0
  0
LINE
  5
2A9A
100
AcDbEntity
  8
0
  6
CONTINUOUS
 62
     0
100
AcDbLine
 10
7.412052
 20
22.348111
 30
0.0
 11
8.220417
 21
23.156477
 31
0.0
  0
LINE
  5
2A9B
100
AcDbEntity
  8
0
  6
CONTINUOUS
 62
     0
100
AcDbLine
 10
10.464823
 20
25.683725
 30
0.0
 11
11.413873
 21
26.632775
 31
0.0
  0
LINE
  5
2A9C
100
AcDbEntity
  8
0
  6
CONTINUOUS
 62
     0
100
AcDbLine
 10
8.191941
 20
23.410844
 30
0.0
 11
9.209841
 21
24.428744
 31
0.0
  0
LINE
  5
2A9D
100
AcDbEntity
  8
0
  6
CONTINUOUS
 62
     0
100
AcDbLine
 10
12.362923
 20
27.581825
 30
0.0
 11
13.26352
 21
28.482423
 31
0.0
  0
LINE
  5
2A9E
100
AcDbEntity
  8
0
  6
CONTINUOUS
 62
     0
100
AcDbLine
 10
7.342645
 20
22.561547
 30
0.0
 11
8.178233
 21
23.397136
 31
0.0
  0
LINE
  5
2A9F
100
AcDbEntity
  8
0
  6
CONTINUOUS
 62
     0
100
AcDbLine
 10
10.464823
 20
25.966568
 30
0.0
 11
11.413873
 21
26.915618
 31
0.0
  0
LINE
  5
2AA0
100
AcDbEntity
  8
0
  6
CONTINUOUS
 62
     0
100
AcDbLine
 10
12.172484
 20
27.674229
 30
0.0
 11
13.041351
 21
28.543096
 31
0.0
  0
LINE
  5
2AA1
100
AcDbEntity
  8
0
  6
CONTINUOUS
 62
     0
100
AcDbLine
 10
7.281971
 20
22.783716
 30
0.0
 11
8.926999
 21
24.428744
 31
0.0
  0
LINE
  5
2AA2
100
AcDbEntity
  8
0
  6
CONTINUOUS
 62
     0
100
AcDbLine
 10
10.464823
 20
26.249411
 30
0.0
 11
11.413873
 21
27.198461
 31
0.0
  0
LINE
  5
2AA3
100
AcDbEntity
  8
0
  6
CONTINUOUS
 62
     0
100
AcDbLine
 10
11.899556
 20
27.684144
 30
0.0
 11
12.809691
 21
28.594279
 31
0.0
  0
LINE
  5
2AA4
100
AcDbEntity
  8
0
  6
CONTINUOUS
 62
     0
100
AcDbLine
 10
7.230788
 20
23.015376
 30
0.0
 11
8.644156
 21
24.428744
 31
0.0
  0
LINE
  5
2AA5
100
AcDbEntity
  8
0
  6
CONTINUOUS
 62
     0
100
AcDbLine
 10
10.464823
 20
26.532253
 30
0.0
 11
11.413873
 21
27.481303
 31
0.0
  0
LINE
  5
2AA6
100
AcDbEntity
  8
0
  6
CONTINUOUS
 62
     0
100
AcDbLine
 10
11.605159
 20
27.672589
 30
0.0
 11
12.567584
 21
28.635015
 31
0.0
  0
LINE
  5
2AA7
100
AcDbEntity
  8
0
  6
CONTINUOUS
 62
     0
100
AcDbLine
 10
7.190052
 20
23.257483
 30
0.0
 11
8.361313
 21
24.428744
 31
0.0
  0
LINE
  5
2AA8
100
AcDbEntity
  8
0
  6
CONTINUOUS
 62
     0
100
AcDbLine
 10
10.464823
 20
26.815096
 30
0.0
 11
12.313807
 21
28.66408
 31
0.0
  0
LINE
  5
2AA9
100
AcDbEntity
  8
0
  6
CONTINUOUS
 62
     0
100
AcDbLine
 10
7.160988
 20
23.511261
 30
0.0
 11
8.191864
 21
24.542137
 31
0.0
  0
LINE
  5
2AAA
100
AcDbEntity
  8
0
  6
CONTINUOUS
 62
     0
100
AcDbLine
 10
10.464823
 20
27.097939
 30
0.0
 11
12.046753
 21
28.679869
 31
0.0
  0
LINE
  5
2AAB
100
AcDbEntity
  8
0
  6
CONTINUOUS
 62
     0
100
AcDbLine
 10
7.145198
 20
23.778314
 30
0.0
 11
8.270421
 21
24.903537
 31
0.0
  0
LINE
  5
2AAC
100
AcDbEntity
  8
0
  6
CONTINUOUS
 62
     0
100
AcDbLine
 10
10.464823
 20
27.380782
 30
0.0
 11
11.764259
 21
28.680217
 31
0.0
  0
LINE
  5
2AAD
100
AcDbEntity
  8
0
  6
CONTINUOUS
 62
     0
100
AcDbLine
 10
7.14485
 20
24.060809
 30
0.0
 11
8.412672
 21
25.328631
 31
0.0
  0
LINE
  5
2AAE
100
AcDbEntity
  8
0
  6
CONTINUOUS
 62
     0
100
AcDbLine
 10
9.92464
 20
27.123441
 30
0.0
 11
11.463286
 21
28.662087
 31
0.0
  0
LINE
  5
2AAF
100
AcDbEntity
  8
0
  6
CONTINUOUS
 62
     0
100
AcDbLine
 10
7.16298
 20
24.361781
 30
0.0
 11
8.701626
 21
25.900428
 31
0.0
  0
LINE
  5
2AB0
100
AcDbEntity
  8
0
  6
CONTINUOUS
 62
     0
100
AcDbLine
 10
7.204078
 20
24.685722
 30
0.0
 11
11.139345
 21
28.620989
 31
0.0
  0
LINE
  5
2AB1
100
AcDbEntity
  8
0
  6
CONTINUOUS
 62
     0
100
AcDbLine
 10
7.275296
 20
25.039783
 30
0.0
 11
10.785285
 21
28.549771
 31
0.0
  0
LINE
  5
2AB2
100
AcDbEntity
  8
0
  6
CONTINUOUS
 62
     0
100
AcDbLine
 10
7.389393
 20
25.436722
 30
0.0
 11
10.388345
 21
28.435675
 31
0.0
  0
LINE
  5
2AB3
100
AcDbEntity
  8
0
  6
CONTINUOUS
 62
     0
100
AcDbLine
 10
7.574054
 20
25.904226
 30
0.0
 11
9.920841
 21
28.251013
 31
0.0
  0
LINE
  5
2AB4
100
AcDbEntity
  8
0
  6
CONTINUOUS
 62
     0
100
AcDbLine
 10
7.923915
 20
26.53693
 30
0.0
 11
9.288138
 21
27.901153
 31
0.0
  0
ENDBLK
  5
2AB6
100
AcDbEntity
  8
0
100
AcDbBlockEnd
  0
BLOCK
  5
2AD5
100
AcDbEntity
  8
0
100
AcDbBlockBegin
  2
*X8
 70
     1
 10
0.0
 20
0.0
 30
0.0
  3
*X8
  1

  0
LINE
  5
2AB8
100
AcDbEntity
  8
0
  6
CONTINUOUS
 62
     0
100
AcDbLine
 10
20.403855
 20
20.632094
 30
0.0
 11
20.470123
 21
20.698361
 31
0.0
  0
LINE
  5
2AB9
100
AcDbEntity
  8
0
  6
CONTINUOUS
 62
     0
100
AcDbLine
 10
20.121013
 20
20.632094
 30
0.0
 11
20.470123
 21
20.981204
 31
0.0
  0
LINE
  5
2ABA
100
AcDbEntity
  8
0
  6
CONTINUOUS
 62
     0
100
AcDbLine
 10
19.83817
 20
20.632094
 30
0.0
 11
20.470123
 21
21.264047
 31
0.0
  0
LINE
  5
2ABB
100
AcDbEntity
  8
0
  6
CONTINUOUS
 62
     0
100
AcDbLine
 10
19.555327
 20
20.632094
 30
0.0
 11
20.470123
 21
21.546889
 31
0.0
  0
LINE
  5
2ABC
100
AcDbEntity
  8
0
  6
CONTINUOUS
 62
     0
100
AcDbLine
 10
19.272484
 20
20.632094
 30
0.0
 11
20.470123
 21
21.829732
 31
0.0
  0
LINE
  5
2ABD
100
AcDbEntity
  8
0
  6
CONTINUOUS
 62
     0
100
AcDbLine
 10
18.989642
 20
20.632094
 30
0.0
 11
20.470123
 21
22.112575
 31
0.0
  0
LINE
  5
2ABE
100
AcDbEntity
  8
0
  6
CONTINUOUS
 62
     0
100
AcDbLine
 10
18.706799
 20
20.632094
 30
0.0
 11
20.470123
 21
22.395418
 31
0.0
  0
LINE
  5
2ABF
100
AcDbEntity
  8
0
  6
CONTINUOUS
 62
     0
100
AcDbLine
 10
18.674623
 20
20.88276
 30
0.0
 11
20.470123
 21
22.67826
 31
0.0
  0
LINE
  5
2AC0
100
AcDbEntity
  8
0
  6
CONTINUOUS
 62
     0
100
AcDbLine
 10
20.919864
 20
23.410844
 30
0.0
 11
21.087523
 21
23.578503
 31
0.0
  0
LINE
  5
2AC1
100
AcDbEntity
  8
0
  6
CONTINUOUS
 62
     0
100
AcDbLine
 10
18.674623
 20
21.165603
 30
0.0
 11
20.470123
 21
22.961103
 31
0.0
  0
LINE
  5
2AC2
100
AcDbEntity
  8
0
  6
CONTINUOUS
 62
     0
100
AcDbLine
 10
20.637021
 20
23.410844
 30
0.0
 11
21.087523
 21
23.861346
 31
0.0
  0
LINE
  5
2AC3
100
AcDbEntity
  8
0
  6
CONTINUOUS
 62
     0
100
AcDbLine
 10
18.674623
 20
21.448446
 30
0.0
 11
20.470123
 21
23.243946
 31
0.0
  0
LINE
  5
2AC4
100
AcDbEntity
  8
0
  6
CONTINUOUS
 62
     0
100
AcDbLine
 10
18.674623
 20
21.731288
 30
0.0
 11
21.087523
 21
24.144188
 31
0.0
  0
LINE
  5
2AC5
100
AcDbEntity
  8
0
  6
CONTINUOUS
 62
     0
100
AcDbLine
 10
18.674623
 20
22.014131
 30
0.0
 11
21.087523
 21
24.427031
 31
0.0
  0
LINE
  5
2AC6
100
AcDbEntity
  8
0
  6
CONTINUOUS
 62
     0
100
AcDbLine
 10
18.674623
 20
22.296974
 30
0.0
 11
20.886043
 21
24.508394
 31
0.0
  0
LINE
  5
2AC7
100
AcDbEntity
  8
0
  6
CONTINUOUS
 62
     0
100
AcDbLine
 10
21.02665
 20
24.931844
 30
0.0
 11
21.087523
 21
24.992717
 31
0.0
  0
LINE
  5
2AC8
100
AcDbEntity
  8
0
  6
CONTINUOUS
 62
     0
100
AcDbLine
 10
18.674623
 20
22.579817
 30
0.0
 11
20.6032
 21
24.508394
 31
0.0
  0
LINE
  5
2AC9
100
AcDbEntity
  8
0
  6
CONTINUOUS
 62
     0
100
AcDbLine
 10
20.743807
 20
24.931844
 30
0.0
 11
21.087523
 21
25.275559
 31
0.0
  0
LINE
  5
2ACA
100
AcDbEntity
  8
0
  6
CONTINUOUS
 62
     0
100
AcDbLine
 10
18.674623
 20
22.862659
 30
0.0
 11
20.433977
 21
24.622013
 31
0.0
  0
LINE
  5
2ACB
100
AcDbEntity
  8
0
  6
CONTINUOUS
 62
     0
100
AcDbLine
 10
18.674623
 20
23.145502
 30
0.0
 11
21.087523
 21
25.558402
 31
0.0
  0
LINE
  5
2ACC
100
AcDbEntity
  8
0
  6
CONTINUOUS
 62
     0
100
AcDbLine
 10
18.657122
 20
23.410844
 30
0.0
 11
21.081272
 21
25.834994
 31
0.0
  0
LINE
  5
2ACD
100
AcDbEntity
  8
0
  6
CONTINUOUS
 62
     0
100
AcDbLine
 10
18.374279
 20
23.410844
 30
0.0
 11
20.798429
 21
25.834994
 31
0.0
  0
LINE
  5
2ACE
100
AcDbEntity
  8
0
  6
CONTINUOUS
 62
     0
100
AcDbLine
 10
18.137323
 20
23.45673
 30
0.0
 11
20.515586
 21
25.834994
 31
0.0
  0
LINE
  5
2ACF
100
AcDbEntity
  8
0
  6
CONTINUOUS
 62
     0
100
AcDbLine
 10
18.137323
 20
23.739573
 30
0.0
 11
20.232744
 21
25.834994
 31
0.0
  0
LINE
  5
2AD0
100
AcDbEntity
  8
0
  6
CONTINUOUS
 62
     0
100
AcDbLine
 10
18.674623
 20
24.559716
 30
0.0
 11
19.949901
 21
25.834994
 31
0.0
  0
LINE
  5
2AD1
100
AcDbEntity
  8
0
  6
CONTINUOUS
 62
     0
100
AcDbLine
 10
18.137323
 20
24.022416
 30
0.0
 11
18.623301
 21
24.508394
 31
0.0
  0
LINE
  5
2AD2
100
AcDbEntity
  8
0
  6
CONTINUOUS
 62
     0
100
AcDbLine
 10
18.674623
 20
24.842558
 30
0.0
 11
19.667058
 21
25.834994
 31
0.0
  0
LINE
  5
2AD3
100
AcDbEntity
  8
0
  6
CONTINUOUS
 62
     0
100
AcDbLine
 10
18.137323
 20
24.305258
 30
0.0
 11
18.340458
 21
24.508394
 31
0.0
  0
LINE
  5
2AD4
100
AcDbEntity
  8
0
  6
CONTINUOUS
 62
     0
100
AcDbLine
 10
18.702805
 20
25.153583
 30
0.0
 11
19.356077
 21
25.806855
 31
0.0
  0
ENDBLK
  5
2AD6
100
AcDbEntity
  8
0
100
AcDbBlockEnd
  0
BLOCK
  5
2AE2
100
AcDbEntity
  8
0
100
AcDbBlockBegin
  2
*X9
 70
     1
 10
0.0
 20
0.0
 30
0.0
  3
*X9
  1

  0
LINE
  5
2AD8
100
AcDbEntity
  8
0
  6
CONTINUOUS
 62
     0
100
AcDbLine
 10
23.583484
 20
24.943094
 30
0.0
 11
23.625973
 21
24.985582
 31
0.0
  0
LINE
  5
2AD9
100
AcDbEntity
  8
0
  6
CONTINUOUS
 62
     0
100
AcDbLine
 10
23.300642
 20
24.943094
 30
0.0
 11
23.625973
 21
25.268425
 31
0.0
  0
LINE
  5
2ADA
100
AcDbEntity
  8
0
  6
CONTINUOUS
 62
     0
100
AcDbLine
 10
23.017799
 20
24.943094
 30
0.0
 11
23.625973
 21
25.551268
 31
0.0
  0
LINE
  5
2ADB
100
AcDbEntity
  8
0
  6
CONTINUOUS
 62
     0
100
AcDbLine
 10
22.734956
 20
24.943094
 30
0.0
 11
23.625973
 21
25.83411
 31
0.0
  0
LINE
  5
2ADC
100
AcDbEntity
  8
0
  6
CONTINUOUS
 62
     0
100
AcDbLine
 10
22.452114
 20
24.943094
 30
0.0
 11
23.344014
 21
25.834994
 31
0.0
  0
LINE
  5
2ADD
100
AcDbEntity
  8
0
  6
CONTINUOUS
 62
     0
100
AcDbLine
 10
22.169271
 20
24.943094
 30
0.0
 11
23.061171
 21
25.834994
 31
0.0
  0
LINE
  5
2ADE
100
AcDbEntity
  8
0
  6
CONTINUOUS
 62
     0
100
AcDbLine
 10
21.886428
 20
24.943094
 30
0.0
 11
22.778328
 21
25.834994
 31
0.0
  0
LINE
  5
2ADF
100
AcDbEntity
  8
0
  6
CONTINUOUS
 62
     0
100
AcDbLine
 10
21.807973
 20
25.147481
 30
0.0
 11
22.495485
 21
25.834994
 31
0.0
  0
LINE
  5
2AE0
100
AcDbEntity
  8
0
  6
CONTINUOUS
 62
     0
100
AcDbLine
 10
21.807973
 20
25.430324
 30
0.0
 11
22.212643
 21
25.834994
 31
0.0
  0
LINE
  5
2AE1
100
AcDbEntity
  8
0
  6
CONTINUOUS
 62
     0
100
AcDbLine
 10
21.807973
 20
25.713167
 30
0.0
 11
21.9298
 21
25.834994
 31
0.0
  0
ENDBLK
  5
2AE3
100
AcDbEntity
  8
0
100
AcDbBlockEnd
  0
BLOCK
  5
2AF9
100
AcDbEntity
  8
0
100
AcDbBlockBegin
  2
*X10
 70
     1
 10
0.0
 20
0.0
 30
0.0
  3
*X10
  1

  0
LINE
  5
2AE5
100
AcDbEntity
  8
0
  6
CONTINUOUS
 62
     0
100
AcDbLine
 10
23.515125
 20
20.632094
 30
0.0
 11
23.625973
 21
20.742941
 31
0.0
  0
LINE
  5
2AE6
100
AcDbEntity
  8
0
  6
CONTINUOUS
 62
     0
100
AcDbLine
 10
23.232282
 20
20.632094
 30
0.0
 11
23.625973
 21
21.025784
 31
0.0
  0
LINE
  5
2AE7
100
AcDbEntity
  8
0
  6
CONTINUOUS
 62
     0
100
AcDbLine
 10
22.94944
 20
20.632094
 30
0.0
 11
23.625973
 21
21.308627
 31
0.0
  0
LINE
  5
2AE8
100
AcDbEntity
  8
0
  6
CONTINUOUS
 62
     0
100
AcDbLine
 10
22.666597
 20
20.632094
 30
0.0
 11
23.625973
 21
21.59147
 31
0.0
  0
LINE
  5
2AE9
100
AcDbEntity
  8
0
  6
CONTINUOUS
 62
     0
100
AcDbLine
 10
22.383754
 20
20.632094
 30
0.0
 11
23.625973
 21
21.874312
 31
0.0
  0
LINE
  5
2AEA
100
AcDbEntity
  8
0
  6
CONTINUOUS
 62
     0
100
AcDbLine
 10
22.100912
 20
20.632094
 30
0.0
 11
23.625973
 21
22.157155
 31
0.0
  0
LINE
  5
2AEB
100
AcDbEntity
  8
0
  6
CONTINUOUS
 62
     0
100
AcDbLine
 10
21.818069
 20
20.632094
 30
0.0
 11
23.625973
 21
22.439998
 31
0.0
  0
LINE
  5
2AEC
100
AcDbEntity
  8
0
  6
CONTINUOUS
 62
     0
100
AcDbLine
 10
21.807973
 20
20.90484
 30
0.0
 11
23.625973
 21
22.72284
 31
0.0
  0
LINE
  5
2AED
100
AcDbEntity
  8
0
  6
CONTINUOUS
 62
     0
100
AcDbLine
 10
21.807973
 20
21.187683
 30
0.0
 11
23.625973
 21
23.005683
 31
0.0
  0
LINE
  5
2AEE
100
AcDbEntity
  8
0
  6
CONTINUOUS
 62
     0
100
AcDbLine
 10
21.807973
 20
21.470526
 30
0.0
 11
23.625973
 21
23.288526
 31
0.0
  0
LINE
  5
2AEF
100
AcDbEntity
  8
0
  6
CONTINUOUS
 62
     0
100
AcDbLine
 10
21.807973
 20
21.753369
 30
0.0
 11
23.625973
 21
23.571369
 31
0.0
  0
LINE
  5
2AF0
100
AcDbEntity
  8
0
  6
CONTINUOUS
 62
     0
100
AcDbLine
 10
21.807973
 20
22.036211
 30
0.0
 11
23.625973
 21
23.854211
 31
0.0
  0
LINE
  5
2AF1
100
AcDbEntity
  8
0
  6
CONTINUOUS
 62
     0
100
AcDbLine
 10
21.807973
 20
22.319054
 30
0.0
 11
23.625973
 21
24.137054
 31
0.0
  0
LINE
  5
2AF2
100
AcDbEntity
  8
0
  6
CONTINUOUS
 62
     0
100
AcDbLine
 10
21.807973
 20
22.601897
 30
0.0
 11
23.625973
 21
24.419897
 31
0.0
  0
LINE
  5
2AF3
100
AcDbEntity
  8
0
  6
CONTINUOUS
 62
     0
100
AcDbLine
 10
21.807973
 20
22.884739
 30
0.0
 11
23.431627
 21
24.508394
 31
0.0
  0
LINE
  5
2AF4
100
AcDbEntity
  8
0
  6
CONTINUOUS
 62
     0
100
AcDbLine
 10
21.807973
 20
23.167582
 30
0.0
 11
23.148784
 21
24.508394
 31
0.0
  0
LINE
  5
2AF5
100
AcDbEntity
  8
0
  6
CONTINUOUS
 62
     0
100
AcDbLine
 10
21.807973
 20
23.450425
 30
0.0
 11
22.865942
 21
24.508394
 31
0.0
  0
LINE
  5
2AF6
100
AcDbEntity
  8
0
  6
CONTINUOUS
 62
     0
100
AcDbLine
 10
21.807973
 20
23.733268
 30
0.0
 11
22.583099
 21
24.508394
 31
0.0
  0
LINE
  5
2AF7
100
AcDbEntity
  8
0
  6
CONTINUOUS
 62
     0
100
AcDbLine
 10
21.807973
 20
24.01611
 30
0.0
 11
22.300256
 21
24.508394
 31
0.0
  0
LINE
  5
2AF8
100
AcDbEntity
  8
0
  6
CONTINUOUS
 62
     0
100
AcDbLine
 10
21.807973
 20
24.298953
 30
0.0
 11
22.017414
 21
24.508394
 31
0.0
  0
ENDBLK
  5
2AFA
100
AcDbEntity
  8
0
100
AcDbBlockEnd
  0
BLOCK
  5
2B23
100
AcDbEntity
  8
0
100
AcDbBlockBegin
  2
*X11
 70
     1
 10
0.0
 20
0.0
 30
0.0
  3
*X11
  1

  0
LINE
  5
2AFC
100
AcDbEntity
  8
0
  6
CONTINUOUS
 62
     0
100
AcDbLine
 10
29.737665
 20
20.632094
 30
0.0
 11
29.892223
 21
20.786652
 31
0.0
  0
LINE
  5
2AFD
100
AcDbEntity
  8
0
  6
CONTINUOUS
 62
     0
100
AcDbLine
 10
29.454822
 20
20.632094
 30
0.0
 11
29.892223
 21
21.069494
 31
0.0
  0
LINE
  5
2AFE
100
AcDbEntity
  8
0
  6
CONTINUOUS
 62
     0
100
AcDbLine
 10
29.171979
 20
20.632094
 30
0.0
 11
29.892223
 21
21.352337
 31
0.0
  0
LINE
  5
2AFF
100
AcDbEntity
  8
0
  6
CONTINUOUS
 62
     0
100
AcDbLine
 10
28.889137
 20
20.632094
 30
0.0
 11
29.892223
 21
21.63518
 31
0.0
  0
LINE
  5
2B00
100
AcDbEntity
  8
0
  6
CONTINUOUS
 62
     0
100
AcDbLine
 10
28.606294
 20
20.632094
 30
0.0
 11
29.892223
 21
21.918023
 31
0.0
  0
LINE
  5
2B01
100
AcDbEntity
  8
0
  6
CONTINUOUS
 62
     0
100
AcDbLine
 10
28.323451
 20
20.632094
 30
0.0
 11
29.892223
 21
22.200865
 31
0.0
  0
LINE
  5
2B02
100
AcDbEntity
  8
0
  6
CONTINUOUS
 62
     0
100
AcDbLine
 10
28.108423
 20
20.699908
 30
0.0
 11
29.892223
 21
22.483708
 31
0.0
  0
LINE
  5
2B03
100
AcDbEntity
  8
0
  6
CONTINUOUS
 62
     0
100
AcDbLine
 10
28.108423
 20
20.982751
 30
0.0
 11
29.892223
 21
22.766551
 31
0.0
  0
LINE
  5
2B04
100
AcDbEntity
  8
0
  6
CONTINUOUS
 62
     0
100
AcDbLine
 10
28.108423
 20
21.265593
 30
0.0
 11
29.892223
 21
23.049393
 31
0.0
  0
LINE
  5
2B05
100
AcDbEntity
  8
0
  6
CONTINUOUS
 62
     0
100
AcDbLine
 10
28.108423
 20
21.548436
 30
0.0
 11
29.891843
 21
23.331856
 31
0.0
  0
LINE
  5
2B06
100
AcDbEntity
  8
0
  6
CONTINUOUS
 62
     0
100
AcDbLine
 10
28.108423
 20
21.831279
 30
0.0
 11
29.853268
 21
23.576124
 31
0.0
  0
LINE
  5
2B07
100
AcDbEntity
  8
0
  6
CONTINUOUS
 62
     0
100
AcDbLine
 10
28.108423
 20
22.114122
 30
0.0
 11
29.777815
 21
23.783513
 31
0.0
  0
LINE
  5
2B08
100
AcDbEntity
  8
0
  6
CONTINUOUS
 62
     0
100
AcDbLine
 10
28.108423
 20
22.396964
 30
0.0
 11
29.67413
 21
23.962671
 31
0.0
  0
LINE
  5
2B09
100
AcDbEntity
  8
0
  6
CONTINUOUS
 62
     0
100
AcDbLine
 10
28.084087
 20
22.655471
 30
0.0
 11
29.54593
 21
24.117314
 31
0.0
  0
LINE
  5
2B0A
100
AcDbEntity
  8
0
  6
CONTINUOUS
 62
     0
100
AcDbLine
 10
26.06071
 20
20.632094
 30
0.0
 11
26.289973
 21
20.861357
 31
0.0
  0
LINE
  5
2B0B
100
AcDbEntity
  8
0
  6
CONTINUOUS
 62
     0
100
AcDbLine
 10
27.9938
 20
22.848027
 30
0.0
 11
29.394359
 21
24.248585
 31
0.0
  0
LINE
  5
2B0C
100
AcDbEntity
  8
0
  6
CONTINUOUS
 62
     0
100
AcDbLine
 10
25.777867
 20
20.632094
 30
0.0
 11
26.289973
 21
21.1442
 31
0.0
  0
LINE
  5
2B0D
100
AcDbEntity
  8
0
  6
CONTINUOUS
 62
     0
100
AcDbLine
 10
27.856431
 20
22.993501
 30
0.0
 11
29.218545
 21
24.355614
 31
0.0
  0
LINE
  5
2B0E
100
AcDbEntity
  8
0
  6
CONTINUOUS
 62
     0
100
AcDbLine
 10
25.495024
 20
20.632094
 30
0.0
 11
26.289973
 21
21.427042
 31
0.0
  0
LINE
  5
2B0F
100
AcDbEntity
  8
0
  6
CONTINUOUS
 62
     0
100
AcDbLine
 10
27.673361
 20
23.093274
 30
0.0
 11
29.008732
 21
24.428645
 31
0.0
  0
LINE
  5
2B10
100
AcDbEntity
  8
0
  6
CONTINUOUS
 62
     0
100
AcDbLine
 10
25.212181
 20
20.632094
 30
0.0
 11
26.289973
 21
21.709885
 31
0.0
  0
LINE
  5
2B11
100
AcDbEntity
  8
0
  6
CONTINUOUS
 62
     0
100
AcDbLine
 10
27.426682
 20
23.129436
 30
0.0
 11
28.781111
 21
24.483866
 31
0.0
  0
LINE
  5
2B12
100
AcDbEntity
  8
0
  6
CONTINUOUS
 62
     0
100
AcDbLine
 10
24.929339
 20
20.632094
 30
0.0
 11
26.289973
 21
21.992728
 31
0.0
  0
LINE
  5
2B13
100
AcDbEntity
  8
0
  6
CONTINUOUS
 62
     0
100
AcDbLine
 10
27.093379
 20
23.078976
 30
0.0
 11
28.539658
 21
24.525255
 31
0.0
  0
LINE
  5
2B14
100
AcDbEntity
  8
0
  6
CONTINUOUS
 62
     0
100
AcDbLine
 10
24.646496
 20
20.632094
 30
0.0
 11
26.289973
 21
22.275571
 31
0.0
  0
LINE
  5
2B15
100
AcDbEntity
  8
0
  6
CONTINUOUS
 62
     0
100
AcDbLine
 10
24.494923
 20
20.763363
 30
0.0
 11
28.282141
 21
24.550582
 31
0.0
  0
LINE
  5
2B16
100
AcDbEntity
  8
0
  6
CONTINUOUS
 62
     0
100
AcDbLine
 10
24.494923
 20
21.046206
 30
0.0
 11
28.005321
 21
24.556604
 31
0.0
  0
LINE
  5
2B17
100
AcDbEntity
  8
0
  6
CONTINUOUS
 62
     0
100
AcDbLine
 10
24.494923
 20
21.329049
 30
0.0
 11
27.704195
 21
24.538321
 31
0.0
  0
LINE
  5
2B18
100
AcDbEntity
  8
0
  6
CONTINUOUS
 62
     0
100
AcDbLine
 10
24.494923
 20
21.611891
 30
0.0
 11
27.370303
 21
24.487272
 31
0.0
  0
LINE
  5
2B19
100
AcDbEntity
  8
0
  6
CONTINUOUS
 62
     0
100
AcDbLine
 10
24.494923
 20
21.894734
 30
0.0
 11
26.987035
 21
24.386846
 31
0.0
  0
LINE
  5
2B1A
100
AcDbEntity
  8
0
  6
CONTINUOUS
 62
     0
100
AcDbLine
 10
24.494923
 20
22.177577
 30
0.0
 11
26.510566
 21
24.19322
 31
0.0
  0
LINE
  5
2B1B
100
AcDbEntity
  8
0
  6
CONTINUOUS
 62
     0
100
AcDbLine
 10
24.494923
 20
22.46042
 30
0.0
 11
26.289973
 21
24.25547
 31
0.0
  0
LINE
  5
2B1C
100
AcDbEntity
  8
0
  6
CONTINUOUS
 62
     0
100
AcDbLine
 10
24.494923
 20
22.743262
 30
0.0
 11
26.260054
 21
24.508394
 31
0.0
  0
LINE
  5
2B1D
100
AcDbEntity
  8
0
  6
CONTINUOUS
 62
     0
100
AcDbLine
 10
24.494923
 20
23.026105
 30
0.0
 11
25.977212
 21
24.508394
 31
0.0
  0
LINE
  5
2B1E
100
AcDbEntity
  8
0
  6
CONTINUOUS
 62
     0
100
AcDbLine
 10
24.494923
 20
23.308948
 30
0.0
 11
25.694369
 21
24.508394
 31
0.0
  0
LINE
  5
2B1F
100
AcDbEntity
  8
0
  6
CONTINUOUS
 62
     0
100
AcDbLine
 10
24.494923
 20
23.59179
 30
0.0
 11
25.411526
 21
24.508394
 31
0.0
  0
LINE
  5
2B20
100
AcDbEntity
  8
0
  6
CONTINUOUS
 62
     0
100
AcDbLine
 10
24.494923
 20
23.874633
 30
0.0
 11
25.128683
 21
24.508394
 31
0.0
  0
LINE
  5
2B21
100
AcDbEntity
  8
0
  6
CONTINUOUS
 62
     0
100
AcDbLine
 10
24.494923
 20
24.157476
 30
0.0
 11
24.845841
 21
24.508394
 31
0.0
  0
LINE
  5
2B22
100
AcDbEntity
  8
0
  6
CONTINUOUS
 62
     0
100
AcDbLine
 10
24.494923
 20
24.440319
 30
0.0
 11
24.562998
 21
24.508394
 31
0.0
  0
ENDBLK
  5
2B24
100
AcDbEntity
  8
0
100
AcDbBlockEnd
  0
BLOCK
  5
2B52
100
AcDbEntity
  8
0
100
AcDbBlockBegin
  2
*X12
 70
     1
 10
0.0
 20
0.0
 30
0.0
  3
*X12
  1

  0
LINE
  5
2B26
100
AcDbEntity
  8
0
  6
CONTINUOUS
 62
     0
100
AcDbLine
 10
35.948955
 20
20.620844
 30
0.0
 11
35.986573
 21
20.658462
 31
0.0
  0
LINE
  5
2B27
100
AcDbEntity
  8
0
  6
CONTINUOUS
 62
     0
100
AcDbLine
 10
35.666112
 20
20.620844
 30
0.0
 11
35.986573
 21
20.941305
 31
0.0
  0
LINE
  5
2B28
100
AcDbEntity
  8
0
  6
CONTINUOUS
 62
     0
100
AcDbLine
 10
35.383269
 20
20.620844
 30
0.0
 11
35.986573
 21
21.224147
 31
0.0
  0
LINE
  5
2B29
100
AcDbEntity
  8
0
  6
CONTINUOUS
 62
     0
100
AcDbLine
 10
35.100427
 20
20.620844
 30
0.0
 11
35.986573
 21
21.50699
 31
0.0
  0
LINE
  5
2B2A
100
AcDbEntity
  8
0
  6
CONTINUOUS
 62
     0
100
AcDbLine
 10
34.817584
 20
20.620844
 30
0.0
 11
35.986573
 21
21.789833
 31
0.0
  0
LINE
  5
2B2B
100
AcDbEntity
  8
0
  6
CONTINUOUS
 62
     0
100
AcDbLine
 10
34.534741
 20
20.620844
 30
0.0
 11
35.986573
 21
22.072675
 31
0.0
  0
LINE
  5
2B2C
100
AcDbEntity
  8
0
  6
CONTINUOUS
 62
     0
100
AcDbLine
 10
34.251898
 20
20.620844
 30
0.0
 11
35.986573
 21
22.355518
 31
0.0
  0
LINE
  5
2B2D
100
AcDbEntity
  8
0
  6
CONTINUOUS
 62
     0
100
AcDbLine
 10
34.191523
 20
20.843311
 30
0.0
 11
35.986573
 21
22.638361
 31
0.0
  0
LINE
  5
2B2E
100
AcDbEntity
  8
0
  6
CONTINUOUS
 62
     0
100
AcDbLine
 10
33.76931
 20
20.703941
 30
0.0
 11
35.986573
 21
22.921204
 31
0.0
  0
LINE
  5
2B2F
100
AcDbEntity
  8
0
  6
CONTINUOUS
 62
     0
100
AcDbLine
 10
33.392366
 20
20.60984
 30
0.0
 11
35.986573
 21
23.204046
 31
0.0
  0
LINE
  5
2B30
100
AcDbEntity
  8
0
  6
CONTINUOUS
 62
     0
100
AcDbLine
 10
33.081013
 20
20.58133
 30
0.0
 11
35.986573
 21
23.486889
 31
0.0
  0
LINE
  5
2B31
100
AcDbEntity
  8
0
  6
CONTINUOUS
 62
     0
100
AcDbLine
 10
32.788122
 20
20.571281
 30
0.0
 11
35.986573
 21
23.769732
 31
0.0
  0
LINE
  5
2B32
100
AcDbEntity
  8
0
  6
CONTINUOUS
 62
     0
100
AcDbLine
 10
32.507524
 20
20.573525
 30
0.0
 11
35.986573
 21
24.052574
 31
0.0
  0
LINE
  5
2B33
100
AcDbEntity
  8
0
  6
CONTINUOUS
 62
     0
100
AcDbLine
 10
34.178814
 20
22.527659
 30
0.0
 11
35.986573
 21
24.335417
 31
0.0
  0
LINE
  5
2B34
100
AcDbEntity
  8
0
  6
CONTINUOUS
 62
     0
100
AcDbLine
 10
32.243083
 20
20.591928
 30
0.0
 11
33.594792
 21
21.943636
 31
0.0
  0
LINE
  5
2B35
100
AcDbEntity
  8
0
  6
CONTINUOUS
 62
     0
100
AcDbLine
 10
34.181643
 20
22.81333
 30
0.0
 11
35.986573
 21
24.61826
 31
0.0
  0
LINE
  5
2B36
100
AcDbEntity
  8
0
  6
CONTINUOUS
 62
     0
100
AcDbLine
 10
32.000516
 20
20.632203
 30
0.0
 11
33.247555
 21
21.879242
 31
0.0
  0
LINE
  5
2B37
100
AcDbEntity
  8
0
  6
CONTINUOUS
 62
     0
100
AcDbLine
 10
34.100287
 20
23.014817
 30
0.0
 11
35.986573
 21
24.901103
 31
0.0
  0
LINE
  5
2B38
100
AcDbEntity
  8
0
  6
CONTINUOUS
 62
     0
100
AcDbLine
 10
31.777522
 20
20.692051
 30
0.0
 11
32.988078
 21
21.902608
 31
0.0
  0
LINE
  5
2B39
100
AcDbEntity
  8
0
  6
CONTINUOUS
 62
     0
100
AcDbLine
 10
33.969461
 20
23.166833
 30
0.0
 11
35.986573
 21
25.183945
 31
0.0
  0
LINE
  5
2B3A
100
AcDbEntity
  8
0
  6
CONTINUOUS
 62
     0
100
AcDbLine
 10
31.577357
 20
20.774729
 30
0.0
 11
32.769161
 21
21.966533
 31
0.0
  0
LINE
  5
2B3B
100
AcDbEntity
  8
0
  6
CONTINUOUS
 62
     0
100
AcDbLine
 10
33.798691
 20
23.278906
 30
0.0
 11
35.986573
 21
25.466788
 31
0.0
  0
LINE
  5
2B3C
100
AcDbEntity
  8
0
  6
CONTINUOUS
 62
     0
100
AcDbLine
 10
31.394628
 20
20.874843
 30
0.0
 11
32.578781
 21
22.058996
 31
0.0
  0
LINE
  5
2B3D
100
AcDbEntity
  8
0
  6
CONTINUOUS
 62
     0
100
AcDbLine
 10
33.595067
 20
23.358124
 30
0.0
 11
35.986573
 21
25.749631
 31
0.0
  0
LINE
  5
2B3E
100
AcDbEntity
  8
0
  6
CONTINUOUS
 62
     0
100
AcDbLine
 10
31.223131
 20
20.986189
 30
0.0
 11
32.424733
 21
22.187791
 31
0.0
  0
LINE
  5
2B3F
100
AcDbEntity
  8
0
  6
CONTINUOUS
 62
     0
100
AcDbLine
 10
33.373037
 20
23.418937
 30
0.0
 11
35.777843
 21
25.823744
 31
0.0
  0
LINE
  5
2B40
100
AcDbEntity
  8
0
  6
CONTINUOUS
 62
     0
100
AcDbLine
 10
31.067037
 20
21.112937
 30
0.0
 11
32.307803
 21
22.353704
 31
0.0
  0
LINE
  5
2B41
100
AcDbEntity
  8
0
  6
CONTINUOUS
 62
     0
100
AcDbLine
 10
33.115995
 20
23.444738
 30
0.0
 11
34.077945
 21
24.406688
 31
0.0
  0
LINE
  5
2B42
100
AcDbEntity
  8
0
  6
CONTINUOUS
 62
     0
100
AcDbLine
 10
34.191523
 20
24.520266
 30
0.0
 11
35.495
 21
25.823744
 31
0.0
  0
LINE
  5
2B43
100
AcDbEntity
  8
0
  6
CONTINUOUS
 62
     0
100
AcDbLine
 10
30.922891
 20
21.251634
 30
0.0
 11
32.233585
 21
22.562329
 31
0.0
  0
LINE
  5
2B44
100
AcDbEntity
  8
0
  6
CONTINUOUS
 62
     0
100
AcDbLine
 10
32.748174
 20
23.35976
 30
0.0
 11
33.885911
 21
24.497497
 31
0.0
  0
LINE
  5
2B45
100
AcDbEntity
  8
0
  6
CONTINUOUS
 62
     0
100
AcDbLine
 10
34.191523
 20
24.803109
 30
0.0
 11
35.212158
 21
25.823744
 31
0.0
  0
LINE
  5
2B46
100
AcDbEntity
  8
0
  6
CONTINUOUS
 62
     0
100
AcDbLine
 10
30.795736
 20
21.407322
 30
0.0
 11
32.266041
 21
22.877627
 31
0.0
  0
LINE
  5
2B47
100
AcDbEntity
  8
0
  6
CONTINUOUS
 62
     0
100
AcDbLine
 10
34.191523
 20
25.085952
 30
0.0
 11
34.929315
 21
25.823744
 31
0.0
  0
LINE
  5
2B48
100
AcDbEntity
  8
0
  6
CONTINUOUS
 62
     0
100
AcDbLine
 10
30.684862
 20
21.579291
 30
0.0
 11
33.65908
 21
24.553509
 31
0.0
  0
LINE
  5
2B49
100
AcDbEntity
  8
0
  6
CONTINUOUS
 62
     0
100
AcDbLine
 10
34.191523
 20
25.368794
 30
0.0
 11
34.646472
 21
25.823744
 31
0.0
  0
LINE
  5
2B4A
100
AcDbEntity
  8
0
  6
CONTINUOUS
 62
     0
100
AcDbLine
 10
30.591179
 20
21.76845
 30
0.0
 11
33.418127
 21
24.595399
 31
0.0
  0
LINE
  5
2B4B
100
AcDbEntity
  8
0
  6
CONTINUOUS
 62
     0
100
AcDbLine
 10
34.191523
 20
25.651637
 30
0.0
 11
34.363629
 21
25.823744
 31
0.0
  0
LINE
  5
2B4C
100
AcDbEntity
  8
0
  6
CONTINUOUS
 62
     0
100
AcDbLine
 10
30.51714
 20
21.977254
 30
0.0
 11
33.172249
 21
24.632364
 31
0.0
  0
LINE
  5
2B4D
100
AcDbEntity
  8
0
  6
CONTINUOUS
 62
     0
100
AcDbLine
 10
30.459126
 20
22.202083
 30
0.0
 11
32.905926
 21
24.648883
 31
0.0
  0
LINE
  5
2B4E
100
AcDbEntity
  8
0
  6
CONTINUOUS
 62
     0
100
AcDbLine
 10
30.423694
 20
22.449493
 30
0.0
 11
32.621475
 21
24.647275
 31
0.0
  0
LINE
  5
2B4F
100
AcDbEntity
  8
0
  6
CONTINUOUS
 62
     0
100
AcDbLine
 10
30.424318
 20
22.732961
 30
0.0
 11
32.321114
 21
24.629756
 31
0.0
  0
LINE
  5
2B50
100
AcDbEntity
  8
0
  6
CONTINUOUS
 62
     0
100
AcDbLine
 10
30.48456
 20
23.076045
 30
0.0
 11
31.978931
 21
24.570416
 31
0.0
  0
LINE
  5
2B51
100
AcDbEntity
  8
0
  6
CONTINUOUS
 62
     0
100
AcDbLine
 10
30.667096
 20
23.541423
 30
0.0
 11
31.516241
 21
24.390569
 31
0.0
  0
ENDBLK
  5
2B53
100
AcDbEntity
  8
0
100
AcDbBlockEnd
  0
BLOCK
  5
2B85
100
AcDbEntity
  8
0
100
AcDbBlockBegin
  2
*X13
 70
     1
 10
0.0
 20
0.0
 30
0.0
  3
*X13
  1

  0
LINE
  5
2B55
100
AcDbEntity
  8
0
  6
CONTINUOUS
 62
     0
100
AcDbLine
 10
41.233824
 20
20.814544
 30
0.0
 11
42.038521
 21
21.619241
 31
0.0
  0
LINE
  5
2B56
100
AcDbEntity
  8
0
  6
CONTINUOUS
 62
     0
100
AcDbLine
 10
40.761924
 20
20.625487
 30
0.0
 11
41.992081
 21
21.855644
 31
0.0
  0
LINE
  5
2B57
100
AcDbEntity
  8
0
  6
CONTINUOUS
 62
     0
100
AcDbLine
 10
42.109364
 20
22.25577
 30
0.0
 11
42.234688
 21
22.381093
 31
0.0
  0
LINE
  5
2B58
100
AcDbEntity
  8
0
  6
CONTINUOUS
 62
     0
100
AcDbLine
 10
40.387144
 20
20.533549
 30
0.0
 11
41.709238
 21
21.855644
 31
0.0
  0
LINE
  5
2B59
100
AcDbEntity
  8
0
  6
CONTINUOUS
 62
     0
100
AcDbLine
 10
41.825433
 20
22.254682
 30
0.0
 11
42.248624
 21
22.677873
 31
0.0
  0
LINE
  5
2B5A
100
AcDbEntity
  8
0
  6
CONTINUOUS
 62
     0
100
AcDbLine
 10
40.05278
 20
20.482029
 30
0.0
 11
41.426395
 21
21.855644
 31
0.0
  0
LINE
  5
2B5B
100
AcDbEntity
  8
0
  6
CONTINUOUS
 62
     0
100
AcDbLine
 10
41.541502
 20
22.253593
 30
0.0
 11
42.21409
 21
22.926181
 31
0.0
  0
LINE
  5
2B5C
100
AcDbEntity
  8
0
  6
CONTINUOUS
 62
     0
100
AcDbLine
 10
39.74394
 20
20.456031
 30
0.0
 11
41.143553
 21
21.855644
 31
0.0
  0
LINE
  5
2B5D
100
AcDbEntity
  8
0
  6
CONTINUOUS
 62
     0
100
AcDbLine
 10
41.257572
 20
22.252505
 30
0.0
 11
42.156032
 21
23.150966
 31
0.0
  0
LINE
  5
2B5E
100
AcDbEntity
  8
0
  6
CONTINUOUS
 62
     0
100
AcDbLine
 10
39.448788
 20
20.443722
 30
0.0
 11
40.86071
 21
21.855644
 31
0.0
  0
LINE
  5
2B5F
100
AcDbEntity
  8
0
  6
CONTINUOUS
 62
     0
100
AcDbLine
 10
40.973641
 20
22.251417
 30
0.0
 11
42.082697
 21
23.360473
 31
0.0
  0
LINE
  5
2B60
100
AcDbEntity
  8
0
  6
CONTINUOUS
 62
     0
100
AcDbLine
 10
39.166766
 20
20.444542
 30
0.0
 11
40.577867
 21
21.855644
 31
0.0
  0
LINE
  5
2B61
100
AcDbEntity
  8
0
  6
CONTINUOUS
 62
     0
100
AcDbLine
 10
40.68971
 20
22.250329
 30
0.0
 11
41.992262
 21
23.552881
 31
0.0
  0
LINE
  5
2B62
100
AcDbEntity
  8
0
  6
CONTINUOUS
 62
     0
100
AcDbLine
 10
38.902535
 20
20.463154
 30
0.0
 11
40.178872
 21
21.739491
 31
0.0
  0
LINE
  5
2B63
100
AcDbEntity
  8
0
  6
CONTINUOUS
 62
     0
100
AcDbLine
 10
40.405779
 20
22.249241
 30
0.0
 11
41.885758
 21
23.729219
 31
0.0
  0
LINE
  5
2B64
100
AcDbEntity
  8
0
  6
CONTINUOUS
 62
     0
100
AcDbLine
 10
38.650769
 20
20.494231
 30
0.0
 11
39.711135
 21
21.554596
 31
0.0
  0
LINE
  5
2B65
100
AcDbEntity
  8
0
  6
CONTINUOUS
 62
     0
100
AcDbLine
 10
40.121848
 20
22.248152
 30
0.0
 11
41.763132
 21
23.889436
 31
0.0
  0
LINE
  5
2B66
100
AcDbEntity
  8
0
  6
CONTINUOUS
 62
     0
100
AcDbLine
 10
38.407693
 20
20.533998
 30
0.0
 11
39.411545
 21
21.53785
 31
0.0
  0
LINE
  5
2B67
100
AcDbEntity
  8
0
  6
CONTINUOUS
 62
     0
100
AcDbLine
 10
39.837917
 20
22.247064
 30
0.0
 11
41.624849
 21
24.033997
 31
0.0
  0
LINE
  5
2B68
100
AcDbEntity
  8
0
  6
CONTINUOUS
 62
     0
100
AcDbLine
 10
38.180128
 20
20.589276
 30
0.0
 11
39.162324
 21
21.571471
 31
0.0
  0
LINE
  5
2B69
100
AcDbEntity
  8
0
  6
CONTINUOUS
 62
     0
100
AcDbLine
 10
39.553986
 20
22.245976
 30
0.0
 11
41.470496
 21
24.162486
 31
0.0
  0
LINE
  5
2B6A
100
AcDbEntity
  8
0
  6
CONTINUOUS
 62
     0
100
AcDbLine
 10
37.96719
 20
20.65918
 30
0.0
 11
38.94359
 21
21.63558
 31
0.0
  0
LINE
  5
2B6B
100
AcDbEntity
  8
0
  6
CONTINUOUS
 62
     0
100
AcDbLine
 10
39.270055
 20
22.244888
 30
0.0
 11
40.104361
 21
23.079194
 31
0.0
  0
LINE
  5
2B6C
100
AcDbEntity
  8
0
  6
CONTINUOUS
 62
     0
100
AcDbLine
 10
40.296756
 20
23.271589
 30
0.0
 11
41.306075
 21
24.280908
 31
0.0
  0
LINE
  5
2B6D
100
AcDbEntity
  8
0
  6
CONTINUOUS
 62
     0
100
AcDbLine
 10
37.762127
 20
20.736959
 30
0.0
 11
38.751667
 21
21.7265
 31
0.0
  0
LINE
  5
2B6E
100
AcDbEntity
  8
0
  6
CONTINUOUS
 62
     0
100
AcDbLine
 10
38.986768
 20
22.244444
 30
0.0
 11
39.821518
 21
23.079194
 31
0.0
  0
LINE
  5
2B6F
100
AcDbEntity
  8
0
  6
CONTINUOUS
 62
     0
100
AcDbLine
 10
40.185855
 20
23.443531
 30
0.0
 11
41.127162
 21
24.384837
 31
0.0
  0
LINE
  5
2B70
100
AcDbEntity
  8
0
  6
CONTINUOUS
 62
     0
100
AcDbLine
 10
37.567077
 20
20.824752
 30
0.0
 11
38.587242
 21
21.844917
 31
0.0
  0
LINE
  5
2B71
100
AcDbEntity
  8
0
  6
CONTINUOUS
 62
     0
100
AcDbLine
 10
38.703926
 20
22.244444
 30
0.0
 11
39.538676
 21
23.079194
 31
0.0
  0
LINE
  5
2B72
100
AcDbEntity
  8
0
  6
CONTINUOUS
 62
     0
100
AcDbLine
 10
40.035599
 20
23.576117
 30
0.0
 11
40.932542
 21
24.47306
 31
0.0
  0
LINE
  5
2B73
100
AcDbEntity
  8
0
  6
CONTINUOUS
 62
     0
100
AcDbLine
 10
37.386162
 20
20.92668
 30
0.0
 11
38.458814
 21
21.999332
 31
0.0
  0
LINE
  5
2B74
100
AcDbEntity
  8
0
  6
CONTINUOUS
 62
     0
100
AcDbLine
 10
38.421083
 20
22.244444
 30
0.0
 11
39.255833
 21
23.079194
 31
0.0
  0
LINE
  5
2B75
100
AcDbEntity
  8
0
  6
CONTINUOUS
 62
     0
100
AcDbLine
 10
39.853662
 20
23.677023
 30
0.0
 11
40.721945
 21
24.545306
 31
0.0
  0
LINE
  5
2B76
100
AcDbEntity
  8
0
  6
CONTINUOUS
 62
     0
100
AcDbLine
 10
37.22185
 20
21.045211
 30
0.0
 11
38.375638
 21
22.198999
 31
0.0
  0
LINE
  5
2B77
100
AcDbEntity
  8
0
  6
CONTINUOUS
 62
     0
100
AcDbLine
 10
39.638454
 20
23.744657
 30
0.0
 11
40.501236
 21
24.607439
 31
0.0
  0
LINE
  5
2B78
100
AcDbEntity
  8
0
  6
CONTINUOUS
 62
     0
100
AcDbLine
 10
37.07656
 20
21.182763
 30
0.0
 11
38.97299
 21
23.079194
 31
0.0
  0
LINE
  5
2B79
100
AcDbEntity
  8
0
  6
CONTINUOUS
 62
     0
100
AcDbLine
 10
39.38488
 20
23.773926
 30
0.0
 11
40.269576
 21
24.658623
 31
0.0
  0
LINE
  5
2B7A
100
AcDbEntity
  8
0
  6
CONTINUOUS
 62
     0
100
AcDbLine
 10
36.946052
 20
21.335098
 30
0.0
 11
38.690147
 21
23.079194
 31
0.0
  0
LINE
  5
2B7B
100
AcDbEntity
  8
0
  6
CONTINUOUS
 62
     0
100
AcDbLine
 10
39.069245
 20
23.741134
 30
0.0
 11
40.026103
 21
24.697992
 31
0.0
  0
LINE
  5
2B7C
100
AcDbEntity
  8
0
  6
CONTINUOUS
 62
     0
100
AcDbLine
 10
36.825922
 20
21.497811
 30
0.0
 11
38.407305
 21
23.079194
 31
0.0
  0
LINE
  5
2B7D
100
AcDbEntity
  8
0
  6
CONTINUOUS
 62
     0
100
AcDbLine
 10
36.722045
 20
21.676776
 30
0.0
 11
39.769169
 21
24.723901
 31
0.0
  0
LINE
  5
2B7E
100
AcDbEntity
  8
0
  6
CONTINUOUS
 62
     0
100
AcDbLine
 10
36.633672
 20
21.871247
 30
0.0
 11
39.492393
 21
24.729967
 31
0.0
  0
LINE
  5
2B7F
100
AcDbEntity
  8
0
  6
CONTINUOUS
 62
     0
100
AcDbLine
 10
36.558727
 20
22.079144
 30
0.0
 11
39.214889
 21
24.735306
 31
0.0
  0
LINE
  5
2B80
100
AcDbEntity
  8
0
  6
CONTINUOUS
 62
     0
100
AcDbLine
 10
36.503475
 20
22.306735
 30
0.0
 11
38.910338
 21
24.713597
 31
0.0
  0
LINE
  5
2B81
100
AcDbEntity
  8
0
  6
CONTINUOUS
 62
     0
100
AcDbLine
 10
36.478924
 20
22.565027
 30
0.0
 11
38.599964
 21
24.686067
 31
0.0
  0
LINE
  5
2B82
100
AcDbEntity
  8
0
  6
CONTINUOUS
 62
     0
100
AcDbLine
 10
36.497306
 20
22.866251
 30
0.0
 11
38.252546
 21
24.621491
 31
0.0
  0
LINE
  5
2B83
100
AcDbEntity
  8
0
  6
CONTINUOUS
 62
     0
100
AcDbLine
 10
36.58207
 20
23.233858
 30
0.0
 11
37.861674
 21
24.513462
 31
0.0
  0
LINE
  5
2B84
100
AcDbEntity
  8
0
  6
CONTINUOUS
 62
     0
100
AcDbLine
 10
36.878958
 20
23.813588
 30
0.0
 11
37.289934
 21
24.224564
 31
0.0
  0
ENDBLK
  5
2B86
100
AcDbEntity
  8
0
100
AcDbBlockEnd
  0
BLOCK
  5
2BA8
100
AcDbEntity
  8
0
100
AcDbBlockBegin
  2
*X14
 70
     1
 10
0.0
 20
0.0
 30
0.0
  3
*X14
  1

  0
LINE
  5
2B88
100
AcDbEntity
  8
0
  6
CONTINUOUS
 62
     0
100
AcDbLine
 10
47.249714
 20
22.587794
 30
0.0
 11
47.287957
 21
22.626036
 31
0.0
  0
LINE
  5
2B89
100
AcDbEntity
  8
0
  6
CONTINUOUS
 62
     0
100
AcDbLine
 10
46.966872
 20
22.587794
 30
0.0
 11
47.307662
 21
22.928584
 31
0.0
  0
LINE
  5
2B8A
100
AcDbEntity
  8
0
  6
CONTINUOUS
 62
     0
100
AcDbLine
 10
46.684029
 20
22.587794
 30
0.0
 11
47.296115
 21
23.19988
 31
0.0
  0
LINE
  5
2B8B
100
AcDbEntity
  8
0
  6
CONTINUOUS
 62
     0
100
AcDbLine
 10
46.401186
 20
22.587794
 30
0.0
 11
47.261533
 21
23.448141
 31
0.0
  0
LINE
  5
2B8C
100
AcDbEntity
  8
0
  6
CONTINUOUS
 62
     0
100
AcDbLine
 10
44.445486
 20
20.632094
 30
0.0
 11
44.459623
 21
20.64623
 31
0.0
  0
LINE
  5
2B8D
100
AcDbEntity
  8
0
  6
CONTINUOUS
 62
     0
100
AcDbLine
 10
46.118343
 20
22.587794
 30
0.0
 11
47.209214
 21
23.678665
 31
0.0
  0
LINE
  5
2B8E
100
AcDbEntity
  8
0
  6
CONTINUOUS
 62
     0
100
AcDbLine
 10
44.162643
 20
20.632094
 30
0.0
 11
44.459623
 21
20.929073
 31
0.0
  0
LINE
  5
2B8F
100
AcDbEntity
  8
0
  6
CONTINUOUS
 62
     0
100
AcDbLine
 10
45.835501
 20
22.587794
 30
0.0
 11
47.132011
 21
23.884304
 31
0.0
  0
LINE
  5
2B90
100
AcDbEntity
  8
0
  6
CONTINUOUS
 62
     0
100
AcDbLine
 10
43.879801
 20
20.632094
 30
0.0
 11
44.459623
 21
21.211916
 31
0.0
  0
LINE
  5
2B91
100
AcDbEntity
  8
0
  6
CONTINUOUS
 62
     0
100
AcDbLine
 10
45.552658
 20
22.587794
 30
0.0
 11
47.029303
 21
24.064438
 31
0.0
  0
LINE
  5
2B92
100
AcDbEntity
  8
0
  6
CONTINUOUS
 62
     0
100
AcDbLine
 10
43.596958
 20
20.632094
 30
0.0
 11
44.459623
 21
21.494759
 31
0.0
  0
LINE
  5
2B93
100
AcDbEntity
  8
0
  6
CONTINUOUS
 62
     0
100
AcDbLine
 10
45.454573
 20
22.772551
 30
0.0
 11
46.900895
 21
24.218874
 31
0.0
  0
LINE
  5
2B94
100
AcDbEntity
  8
0
  6
CONTINUOUS
 62
     0
100
AcDbLine
 10
43.314115
 20
20.632094
 30
0.0
 11
44.459623
 21
21.777601
 31
0.0
  0
LINE
  5
2B95
100
AcDbEntity
  8
0
  6
CONTINUOUS
 62
     0
100
AcDbLine
 10
45.418199
 20
23.01902
 30
0.0
 11
46.74471
 21
24.345531
 31
0.0
  0
LINE
  5
2B96
100
AcDbEntity
  8
0
  6
CONTINUOUS
 62
     0
100
AcDbLine
 10
43.031273
 20
20.632094
 30
0.0
 11
44.459623
 21
22.060444
 31
0.0
  0
LINE
  5
2B97
100
AcDbEntity
  8
0
  6
CONTINUOUS
 62
     0
100
AcDbLine
 10
45.294614
 20
23.178278
 30
0.0
 11
46.558784
 21
24.442448
 31
0.0
  0
LINE
  5
2B98
100
AcDbEntity
  8
0
  6
CONTINUOUS
 62
     0
100
AcDbLine
 10
42.74843
 20
20.632094
 30
0.0
 11
44.459623
 21
22.343287
 31
0.0
  0
LINE
  5
2B99
100
AcDbEntity
  8
0
  6
CONTINUOUS
 62
     0
100
AcDbLine
 10
45.102547
 20
23.269053
 30
0.0
 11
46.346357
 21
24.512863
 31
0.0
  0
LINE
  5
2B9A
100
AcDbEntity
  8
0
  6
CONTINUOUS
 62
     0
100
AcDbLine
 10
42.732973
 20
20.899479
 30
0.0
 11
44.459623
 21
22.626129
 31
0.0
  0
LINE
  5
2B9B
100
AcDbEntity
  8
0
  6
CONTINUOUS
 62
     0
100
AcDbLine
 10
44.797622
 20
23.246971
 30
0.0
 11
46.115166
 21
24.564515
 31
0.0
  0
LINE
  5
2B9C
100
AcDbEntity
  8
0
  6
CONTINUOUS
 62
     0
100
AcDbLine
 10
42.732973
 20
21.182322
 30
0.0
 11
44.492506
 21
22.941855
 31
0.0
  0
LINE
  5
2B9D
100
AcDbEntity
  8
0
  6
CONTINUOUS
 62
     0
100
AcDbLine
 10
42.732973
 20
21.465165
 30
0.0
 11
45.857715
 21
24.589906
 31
0.0
  0
LINE
  5
2B9E
100
AcDbEntity
  8
0
  6
CONTINUOUS
 62
     0
100
AcDbLine
 10
42.732973
 20
21.748008
 30
0.0
 11
45.563093
 21
24.578127
 31
0.0
  0
LINE
  5
2B9F
100
AcDbEntity
  8
0
  6
CONTINUOUS
 62
     0
100
AcDbLine
 10
42.732973
 20
22.03085
 30
0.0
 11
45.222277
 21
24.520155
 31
0.0
  0
LINE
  5
2BA0
100
AcDbEntity
  8
0
  6
CONTINUOUS
 62
     0
100
AcDbLine
 10
42.732973
 20
22.313693
 30
0.0
 11
44.777089
 21
24.357809
 31
0.0
  0
LINE
  5
2BA1
100
AcDbEntity
  8
0
  6
CONTINUOUS
 62
     0
100
AcDbLine
 10
42.732973
 20
22.596536
 30
0.0
 11
44.459623
 21
24.323186
 31
0.0
  0
LINE
  5
2BA2
100
AcDbEntity
  8
0
  6
CONTINUOUS
 62
     0
100
AcDbLine
 10
42.732973
 20
22.879378
 30
0.0
 11
44.361988
 21
24.508394
 31
0.0
  0
LINE
  5
2BA3
100
AcDbEntity
  8
0
  6
CONTINUOUS
 62
     0
100
AcDbLine
 10
42.732973
 20
23.162221
 30
0.0
 11
44.079145
 21
24.508394
 31
0.0
  0
LINE
  5
2BA4
100
AcDbEntity
  8
0
  6
CONTINUOUS
 62
     0
100
AcDbLine
 10
42.732973
 20
23.445064
 30
0.0
 11
43.796303
 21
24.508394
 31
0.0
  0
LINE
  5
2BA5
100
AcDbEntity
  8
0
  6
CONTINUOUS
 62
     0
100
AcDbLine
 10
42.732973
 20
23.727907
 30
0.0
 11
43.51346
 21
24.508394
 31
0.0
  0
LINE
  5
2BA6
100
AcDbEntity
  8
0
  6
CONTINUOUS
 62
     0
100
AcDbLine
 10
42.732973
 20
24.010749
 30
0.0
 11
43.230617
 21
24.508394
 31
0.0
  0
LINE
  5
2BA7
100
AcDbEntity
  8
0
  6
CONTINUOUS
 62
     0
100
AcDbLine
 10
42.732973
 20
24.293592
 30
0.0
 11
42.947775
 21
24.508394
 31
0.0
  0
ENDBLK
  5
2BA9
100
AcDbEntity
  8
0
100
AcDbBlockEnd
  0
ENDSEC
  0
SECTION
  2
ENTITIES
  0
LINE
  5
29
100
AcDbEntity
  8
CARTOUCHE
  6
CONTINUOUS
 62
     7
100
AcDbLine
 10
205.000037
 20
10.000793
 30
0.0
 11
5.0
 21
10.001068
 31
0.0
  0
LINE
  5
2A
100
AcDbEntity
  8
CARTOUCHE
  6
CONTINUOUS
 62
     7
100
AcDbLine
 10
50.000001
 20
36.845393
 30
0.0
 11
50.000001
 21
5.000041
 31
0.0
  0
TEXT
  5
2B
100
AcDbEntity
  8
CARTOUCHE
  6
CONTINUOUS
 62
     7
100
AcDbText
 10
119.722419
 20
32.435966
 30
0.0
 40
1.8
  1
PRODUCT TYPE
 50
359.999908
 41
0.8
  7
FINDER
 72
     1
 11
127.499991
 21
32.435954
 31
0.0
100
AcDbText
  0
TEXT
  5
2D
100
AcDbEntity
  8
CARTOUCHE
  6
CONTINUOUS
 62
     2
100
AcDbText
 10
19.49393
 20
6.600975
 30
0.0
 40
1.8
  1
MOD. UT 902
 50
359.999908
 41
1.05
  7
FINDER
 72
     1
 11
27.500001
 21
6.600962
 31
0.0
100
AcDbText
  0
LINE
  5
2E
100
AcDbEntity
  8
CARTOUCHE
  6
CONTINUOUS
 62
     7
100
AcDbLine
 10
205.000008
 20
20.002808
 30
0.0
 11
49.999973
 21
20.003045
 31
0.0
  0
TEXT
  5
31
100
AcDbEntity
  8
CARTOUCHE
  6
CONTINUOUS
 62
     7
100
AcDbText
 10
73.494063
 20
16.624305
 30
0.0
 40
1.8
  1
REV.
 50
359.999908
 41
0.8
  7
FINDER
 72
     1
 11
75.833326
 21
16.624301
 31
0.0
100
AcDbText
  0
TEXT
  5
32
100
AcDbEntity
  8
CARTOUCHE
  6
CONTINUOUS
 62
     1
100
AcDbText
 10
75.188142
 20
11.776279
 30
0.0
 40
2.1
  1
0
 50
359.999908
 41
0.8
  7
FINDER
 72
     1
 11
75.833326
 21
11.776278
 31
0.0
100
AcDbText
  0
LINE
  5
33
100
AcDbEntity
  8
CARTOUCHE
  6
CONTINUOUS
 62
     7
100
AcDbLine
 10
101.666651
 20
20.002966
 30
0.0
 11
101.666651
 21
10.001024
 31
0.0
  0
LINE
  5
37
100
AcDbEntity
  8
CARTOUCHE
  6
CONTINUOUS
 62
     4
100
AcDbLine
 10
12.362923
 20
27.655485
 30
0.0
 11
12.362923
 21
21.810194
 31
0.0
  0
LINE
  5
38
100
AcDbEntity
  8
CARTOUCHE
  6
CONTINUOUS
 62
     4
100
AcDbLine
 10
12.362923
 20
21.810194
 30
0.0
 11
10.887823
 21
23.410844
 31
0.0
  0
LINE
  5
39
100
AcDbEntity
  8
CARTOUCHE
  6
CONTINUOUS
 62
     4
100
AcDbLine
 10
10.887823
 20
23.410844
 30
0.0
 11
11.116423
 21
23.410844
 31
0.0
  0
LINE
  5
3A
100
AcDbEntity
  8
CARTOUCHE
  6
CONTINUOUS
 62
     4
100
AcDbLine
 10
11.413873
 20
23.766514
 30
0.0
 11
11.413873
 21
27.652621
 31
0.0
  0
LINE
  5
3B
100
AcDbEntity
  8
CARTOUCHE
  6
CONTINUOUS
 62
     4
100
AcDbLine
 10
10.464823
 20
27.399506
 30
0.0
 11
10.464823
 21
24.428744
 31
0.0
  0
LINE
  5
3C
100
AcDbEntity
  8
CARTOUCHE
  6
CONTINUOUS
 62
     4
100
AcDbLine
 10
10.464823
 20
24.428744
 30
0.0
 11
8.174776
 21
24.428744
 31
0.0
  0
LINE
  5
3D
100
AcDbEntity
  8
CARTOUCHE
  6
CONTINUOUS
 62
     4
100
AcDbLine
 10
8.176313
 20
23.410844
 30
0.0
 11
9.378523
 21
23.410844
 31
0.0
  0
LINE
  5
3E
100
AcDbEntity
  8
CARTOUCHE
  6
CONTINUOUS
 62
     4
100
AcDbLine
 10
9.378523
 20
23.410844
 30
0.0
 11
12.173699
 21
20.668328
 31
0.0
  0
LINE
  5
3F
100
AcDbEntity
  8
CARTOUCHE
  6
CONTINUOUS
 62
     4
100
AcDbLine
 10
13.323223
 20
21.169844
 30
0.0
 11
13.323223
 21
24.508394
 31
0.0
  0
LINE
  5
40
100
AcDbEntity
  8
CARTOUCHE
  6
CONTINUOUS
 62
     4
100
AcDbLine
 10
13.323223
 20
24.508394
 30
0.0
 11
14.455423
 21
24.508394
 31
0.0
  0
LINE
  5
41
100
AcDbEntity
  8
CARTOUCHE
  6
CONTINUOUS
 62
     4
100
AcDbLine
 10
14.353656
 20
25.503344
 30
0.0
 11
13.323223
 21
25.503344
 31
0.0
  0
LINE
  5
42
100
AcDbEntity
  8
CARTOUCHE
  6
CONTINUOUS
 62
     4
100
AcDbLine
 10
13.323223
 20
25.503344
 30
0.0
 11
13.323223
 21
27.404134
 31
0.0
  0
LINE
  5
43
100
AcDbEntity
  8
CARTOUCHE
  6
CONTINUOUS
 62
     4
100
AcDbLine
 10
28.108423
 20
22.479034
 30
0.0
 11
28.108423
 21
20.632094
 31
0.0
  0
LINE
  5
44
100
AcDbEntity
  8
CARTOUCHE
  6
CONTINUOUS
 62
     4
100
AcDbLine
 10
28.108423
 20
20.632094
 30
0.0
 11
29.892223
 21
20.632094
 31
0.0
  0
LINE
  5
45
100
AcDbEntity
  8
CARTOUCHE
  6
CONTINUOUS
 62
     4
100
AcDbLine
 10
29.892223
 20
20.632094
 30
0.0
 11
29.892223
 21
23.324553
 31
0.0
  0
LINE
  5
46
100
AcDbEntity
  8
CARTOUCHE
  6
CONTINUOUS
 62
     4
100
AcDbLine
 10
26.289973
 20
24.074144
 30
0.0
 11
26.289973
 21
24.508394
 31
0.0
  0
LINE
  5
47
100
AcDbEntity
  8
CARTOUCHE
  6
CONTINUOUS
 62
     4
100
AcDbLine
 10
26.289973
 20
24.508394
 30
0.0
 11
24.494923
 21
24.508394
 31
0.0
  0
LINE
  5
48
100
AcDbEntity
  8
CARTOUCHE
  6
CONTINUOUS
 62
     4
100
AcDbLine
 10
24.494923
 20
24.508394
 30
0.0
 11
24.494923
 21
20.632094
 31
0.0
  0
LINE
  5
49
100
AcDbEntity
  8
CARTOUCHE
  6
CONTINUOUS
 62
     4
100
AcDbLine
 10
24.494923
 20
20.632094
 30
0.0
 11
26.289973
 21
20.632094
 31
0.0
  0
LINE
  5
4A
100
AcDbEntity
  8
CARTOUCHE
  6
CONTINUOUS
 62
     4
100
AcDbLine
 10
26.289973
 20
20.632094
 30
0.0
 11
26.289973
 21
22.433499
 31
0.0
  0
LINE
  5
4B
100
AcDbEntity
  8
CARTOUCHE
  6
CONTINUOUS
 62
     4
100
AcDbLine
 10
35.986573
 20
25.823744
 30
0.0
 11
35.986573
 21
20.620844
 31
0.0
  0
LINE
  5
4C
100
AcDbEntity
  8
CARTOUCHE
  6
CONTINUOUS
 62
     4
100
AcDbLine
 10
35.986573
 20
20.620844
 30
0.0
 11
34.191523
 21
20.620844
 31
0.0
  0
LINE
  5
4D
100
AcDbEntity
  8
CARTOUCHE
  6
CONTINUOUS
 62
     4
100
AcDbLine
 10
34.191523
 20
24.319904
 30
0.0
 11
34.191523
 21
25.823744
 31
0.0
  0
LINE
  5
4E
100
AcDbEntity
  8
CARTOUCHE
  6
CONTINUOUS
 62
     4
100
AcDbLine
 10
34.191523
 20
25.823744
 30
0.0
 11
35.986573
 21
25.823744
 31
0.0
  0
LINE
  5
4F
100
AcDbEntity
  8
CARTOUCHE
  6
CONTINUOUS
 62
     4
100
AcDbLine
 10
42.732973
 20
24.508394
 30
0.0
 11
44.459623
 21
24.508394
 31
0.0
  0
LINE
  5
50
100
AcDbEntity
  8
CARTOUCHE
  6
CONTINUOUS
 62
     4
100
AcDbLine
 10
44.459623
 20
24.508394
 30
0.0
 11
44.459623
 21
24.165494
 31
0.0
  0
LINE
  5
51
100
AcDbEntity
  8
CARTOUCHE
  6
CONTINUOUS
 62
     4
100
AcDbLine
 10
47.283823
 20
22.587794
 30
0.0
 11
45.454573
 21
22.587794
 31
0.0
  0
LINE
  5
52
100
AcDbEntity
  8
CARTOUCHE
  6
CONTINUOUS
 62
     4
100
AcDbLine
 10
45.454573
 20
22.587794
 30
0.0
 11
45.454573
 21
22.827644
 31
0.0
  0
LINE
  5
53
100
AcDbEntity
  8
CARTOUCHE
  6
CONTINUOUS
 62
     4
100
AcDbLine
 10
44.459623
 20
22.782194
 30
0.0
 11
44.459623
 21
20.632094
 31
0.0
  0
LINE
  5
54
100
AcDbEntity
  8
CARTOUCHE
  6
CONTINUOUS
 62
     4
100
AcDbLine
 10
44.459623
 20
20.632094
 30
0.0
 11
42.732973
 21
20.632094
 31
0.0
  0
LINE
  5
55
100
AcDbEntity
  8
CARTOUCHE
  6
CONTINUOUS
 62
     4
100
AcDbLine
 10
42.732973
 20
20.632094
 30
0.0
 11
42.732973
 21
24.508394
 31
0.0
  0
LINE
  5
56
100
AcDbEntity
  8
CARTOUCHE
  6
CONTINUOUS
 62
     4
100
AcDbLine
 10
39.154123
 20
22.244444
 30
0.0
 11
39.051073
 21
22.244444
 31
0.0
  0
LINE
  5
57
100
AcDbEntity
  8
CARTOUCHE
  6
CONTINUOUS
 62
     4
100
AcDbLine
 10
39.051073
 20
22.244444
 30
0.0
 11
38.364823
 21
22.244444
 31
0.0
  0
LINE
  5
58
100
AcDbEntity
  8
CARTOUCHE
  6
CONTINUOUS
 62
     4
100
AcDbLine
 10
40.343023
 20
21.855644
 30
0.0
 11
42.103873
 21
21.855644
 31
0.0
  0
LINE
  5
59
100
AcDbEntity
  8
CARTOUCHE
  6
CONTINUOUS
 62
     4
100
AcDbLine
 10
42.206923
 20
22.256144
 30
0.0
 11
39.154123
 21
22.244444
 31
0.0
  0
LINE
  5
5A
100
AcDbEntity
  8
CARTOUCHE
  6
CONTINUOUS
 62
     4
100
AcDbLine
 10
39.154123
 20
23.079194
 30
0.0
 11
40.343023
 21
23.079194
 31
0.0
  0
LINE
  5
5B
100
AcDbEntity
  8
CARTOUCHE
  6
CONTINUOUS
 62
     4
100
AcDbLine
 10
38.364823
 20
23.079194
 30
0.0
 11
39.154123
 21
23.079194
 31
0.0
  0
LINE
  5
5C
100
AcDbEntity
  8
CARTOUCHE
  6
CONTINUOUS
 62
     4
100
AcDbLine
 10
21.087523
 20
24.931844
 30
0.0
 11
21.087523
 21
25.834994
 31
0.0
  0
LINE
  5
5D
100
AcDbEntity
  8
CARTOUCHE
  6
CONTINUOUS
 62
     4
100
AcDbLine
 10
21.087523
 20
25.834994
 30
0.0
 11
19.589473
 21
25.834994
 31
0.0
  0
LINE
  5
5E
100
AcDbEntity
  8
CARTOUCHE
  6
CONTINUOUS
 62
     4
100
AcDbLine
 10
18.674623
 20
24.931844
 30
0.0
 11
18.674623
 21
24.508394
 31
0.0
  0
LINE
  5
5F
100
AcDbEntity
  8
CARTOUCHE
  6
CONTINUOUS
 62
     4
100
AcDbLine
 10
18.674623
 20
24.508394
 30
0.0
 11
18.137323
 21
24.508394
 31
0.0
  0
LINE
  5
60
100
AcDbEntity
  8
CARTOUCHE
  6
CONTINUOUS
 62
     4
100
AcDbLine
 10
18.137323
 20
24.508394
 30
0.0
 11
18.137323
 21
23.410844
 31
0.0
  0
LINE
  5
61
100
AcDbEntity
  8
CARTOUCHE
  6
CONTINUOUS
 62
     4
100
AcDbLine
 10
18.137323
 20
23.410844
 30
0.0
 11
18.674623
 21
23.410844
 31
0.0
  0
LINE
  5
62
100
AcDbEntity
  8
CARTOUCHE
  6
CONTINUOUS
 62
     4
100
AcDbLine
 10
18.674623
 20
23.410844
 30
0.0
 11
18.674623
 21
20.632094
 31
0.0
  0
LINE
  5
63
100
AcDbEntity
  8
CARTOUCHE
  6
CONTINUOUS
 62
     4
100
AcDbLine
 10
18.674623
 20
20.632094
 30
0.0
 11
20.470123
 21
20.632094
 31
0.0
  0
LINE
  5
64
100
AcDbEntity
  8
CARTOUCHE
  6
CONTINUOUS
 62
     4
100
AcDbLine
 10
20.470123
 20
20.632094
 30
0.0
 11
20.470123
 21
23.410844
 31
0.0
  0
LINE
  5
65
100
AcDbEntity
  8
CARTOUCHE
  6
CONTINUOUS
 62
     4
100
AcDbLine
 10
20.470123
 20
23.410844
 30
0.0
 11
21.087523
 21
23.410844
 31
0.0
  0
LINE
  5
66
100
AcDbEntity
  8
CARTOUCHE
  6
CONTINUOUS
 62
     4
100
AcDbLine
 10
21.087523
 20
23.410844
 30
0.0
 11
21.087523
 21
24.508394
 31
0.0
  0
LINE
  5
67
100
AcDbEntity
  8
CARTOUCHE
  6
CONTINUOUS
 62
     4
100
AcDbLine
 10
21.087523
 20
24.508394
 30
0.0
 11
20.412973
 21
24.508394
 31
0.0
  0
LINE
  5
68
100
AcDbEntity
  8
CARTOUCHE
  6
CONTINUOUS
 62
     4
100
AcDbLine
 10
20.412973
 20
24.508394
 30
0.0
 11
20.461079
 21
24.768622
 31
0.0
  0
LINE
  5
69
100
AcDbEntity
  8
CARTOUCHE
  6
CONTINUOUS
 62
     4
100
AcDbLine
 10
20.679053
 20
24.931844
 30
0.0
 11
21.087523
 21
24.931844
 31
0.0
  0
LINE
  5
6A
100
AcDbEntity
  8
CARTOUCHE
  6
CONTINUOUS
 62
     4
100
AcDbLine
 10
21.807973
 20
20.632094
 30
0.0
 11
21.807973
 21
24.508394
 31
0.0
  0
LINE
  5
6B
100
AcDbEntity
  8
CARTOUCHE
  6
CONTINUOUS
 62
     4
100
AcDbLine
 10
21.807973
 20
24.508394
 30
0.0
 11
23.625973
 21
24.508394
 31
0.0
  0
LINE
  5
6C
100
AcDbEntity
  8
CARTOUCHE
  6
CONTINUOUS
 62
     4
100
AcDbLine
 10
23.625973
 20
24.508394
 30
0.0
 11
23.625973
 21
20.632094
 31
0.0
  0
LINE
  5
6D
100
AcDbEntity
  8
CARTOUCHE
  6
CONTINUOUS
 62
     4
100
AcDbLine
 10
23.625973
 20
20.632094
 30
0.0
 11
21.807973
 21
20.632094
 31
0.0
  0
LINE
  5
6E
100
AcDbEntity
  8
CARTOUCHE
  6
CONTINUOUS
 62
     4
100
AcDbLine
 10
21.807973
 20
24.943094
 30
0.0
 11
21.807973
 21
25.834994
 31
0.0
  0
LINE
  5
6F
100
AcDbEntity
  8
CARTOUCHE
  6
CONTINUOUS
 62
     4
100
AcDbLine
 10
21.807973
 20
25.834994
 30
0.0
 11
23.625973
 21
25.834994
 31
0.0
  0
LINE
  5
70
100
AcDbEntity
  8
CARTOUCHE
  6
CONTINUOUS
 62
     4
100
AcDbLine
 10
23.625973
 20
25.834994
 30
0.0
 11
23.625973
 21
24.943094
 31
0.0
  0
LINE
  5
71
100
AcDbEntity
  8
CARTOUCHE
  6
CONTINUOUS
 62
     4
100
AcDbLine
 10
23.625973
 20
24.943094
 30
0.0
 11
21.807973
 21
24.943094
 31
0.0
  0
ARC
  5
72
100
AcDbEntity
  8
CARTOUCHE
  6
CONTINUOUS
 62
     4
100
AcDbCircle
 10
19.580259
 20
24.929401
 30
0.0
 40
0.905639
100
AcDbArc
 50
90.0
 51
180.0
  0
ARC
  5
73
100
AcDbEntity
  8
CARTOUCHE
  6
CONTINUOUS
 62
     4
100
AcDbCircle
 10
20.705988
 20
24.668716
 30
0.0
 40
0.264503
100
AcDbArc
 50
95.844673
 51
157.807812
  0
ARC
  5
74
100
AcDbEntity
  8
CARTOUCHE
  6
CONTINUOUS
 62
     4
100
AcDbCircle
 10
28.675028
 20
23.264873
 30
0.0
 40
1.218658
100
AcDbArc
 50
2.806997
 51
66.545781
  0
ARC
  5
75
100
AcDbEntity
  8
CARTOUCHE
  6
CONTINUOUS
 62
     4
100
AcDbCircle
 10
28.067403
 20
21.045261
 30
0.0
 40
3.511892
100
AcDbArc
 50
71.872392
 51
120.405557
  0
ARC
  5
76
100
AcDbEntity
  8
CARTOUCHE
  6
CONTINUOUS
 62
     4
100
AcDbCircle
 10
27.457324
 20
22.479034
 30
0.0
 40
0.651124
100
AcDbArc
 50
0.0
 51
97.150683
  0
ARC
  5
77
100
AcDbEntity
  8
CARTOUCHE
  6
CONTINUOUS
 62
     4
100
AcDbCircle
 10
27.44381
 20
21.820079
 30
0.0
 40
1.306761
100
AcDbArc
 50
92.962513
 51
152.003324
  0
CIRCLE
  5
78
100
AcDbEntity
  8
CARTOUCHE
  6
CONTINUOUS
 62
     4
100
AcDbCircle
 10
11.899646
 20
23.925422
 30
0.0
 40
4.756723
  0
ARC
  5
79
100
AcDbEntity
  8
CARTOUCHE
  6
CONTINUOUS
 62
     4
100
AcDbCircle
 10
11.899651
 20
23.925417
 30
0.0
 40
3.758727
100
AcDbArc
 50
112.441032
 51
172.30447
  0
ARC
  5
7A
100
AcDbEntity
  8
CARTOUCHE
  6
CONTINUOUS
 62
     4
100
AcDbCircle
 10
11.899651
 20
23.925417
 30
0.0
 40
3.758727
100
AcDbArc
 50
82.920154
 51
97.425676
  0
ARC
  5
7B
100
AcDbEntity
  8
CARTOUCHE
  6
CONTINUOUS
 62
     4
100
AcDbCircle
 10
11.899651
 20
23.925417
 30
0.0
 40
3.758727
100
AcDbArc
 50
187.868554
 51
67.744476
  0
SPLINE
  5
7C
100
AcDbEntity
  8
CARTOUCHE
  6
CONTINUOUS
 62
     4
100
AcDbSpline
210
0.0
220
0.0
230
-1.0
 70
     8
 71
     3
 72
    36
 73
    32
 74
    30
 42
0.0000001
 43
0.0000001
 44
0.000001
 12
-0.7486966541787443
 22
0.6629127544568397
 32
0.0
 13
0.8109899424984487
 23
0.5850600936368528
 33
0.0
 40
0.0
 40
0.0
 40
0.0
 40
0.0
 40
0.1780757831166552
 40
0.3550411304737638
 40
0.5343443125649352
 40
0.714655491811149
 40
1.070968606639404
 40
1.425796208074303
 40
1.782600543780741
 40
2.138603420097711
 40
2.494664590840577
 40
2.851053865932449
 40
3.206892455734438
 40
3.563375304300148
 40
3.919393169056189
 40
4.275488633957715
 40
4.63180939296686
 40
4.98796819639783
 40
5.344080709448852
 40
5.700397923933461
 40
6.056402401153455
 40
6.412684881890918
 40
6.768553141959223
 40
7.124993202679218
 40
7.480917853860609
 40
7.837064146578088
 40
8.193225691107732
 40
8.549152693439989
 40
8.905926847727792
 40
9.261827245523043
 40
9.970556688389352
 40
9.970556688389352
 40
9.970556688389352
 40
9.970556688389352
 10
34.19152297621249
 20
24.31990419713182
 30
0.0
 10
34.14708139520926
 20
24.35925376642779
 30
0.0
 10
34.05217150086914
 20
24.43173507527464
 30
0.0
 10
33.88702571777853
 20
24.50226704153207
 30
0.0
 10
33.71305219922994
 20
24.54495620852745
 30
0.0
 10
33.47834936508675
 20
24.58798228938456
 30
0.0
 10
33.1851820926192
 20
24.6380068096761
 30
0.0
 10
32.82899740219373
 20
24.65936878443557
 30
0.0
 10
32.47326766739478
 20
24.64621351281227
 30
0.0
 10
32.11757587007376
 20
24.61242842857664
 30
0.0
 10
31.7729929656132
 20
24.51557066505452
 30
0.0
 10
31.44749961346493
 20
24.36660637828334
 30
0.0
 10
31.15775792247553
 20
24.15567786292991
 30
0.0
 10
30.90609575122359
 20
23.90204661589372
 30
0.0
 10
30.69450217558054
 20
23.61346823741279
 30
0.0
 10
30.53862680930607
 20
23.29089595113819
 30
0.0
 10
30.4427778154184
 20
22.94623291404152
 30
0.0
 10
30.40515987330755
 20
22.5896805608234
 30
0.0
 10
30.44352428304454
 20
22.23351812056702
 30
0.0
 10
30.53308942379928
 20
21.88748882621621
 30
0.0
 10
30.68157948277334
 20
21.56148503257428
 30
0.0
 10
30.88917782475931
 20
21.26919472073597
 30
0.0
 10
31.15221375027256
 20
21.02575919010237
 30
0.0
 10
31.45092615893588
 20
20.82973489264703
 30
0.0
 10
31.77615974301296
 20
20.68002674890266
 30
0.0
 10
32.12459917705964
 20
20.59680902996356
 30
0.0
 10
32.48036304556569
 20
20.56921473627849
 30
0.0
 10
32.83672036586225
 20
20.56880375590484
 30
0.0
 10
33.1928878270672
 20
20.5809605165969
 30
0.0
 10
33.66419136840351
 20
20.63797128162552
 30
0.0
 10
33.99993215950679
 20
20.78862716904784
 30
0.0
 10
34.19152297621249
 20
20.92684360711669
 30
0.0
 11
34.19152297621249
 21
24.31990419713182
 31
0.0
 11
34.04814564948316
 21
24.42551803537496
 31
0.0
 11
33.886414432493
 21
24.49734946038967
 31
0.0
 11
33.71305596481814
 21
24.54313679053143
 31
0.0
 11
33.53598457982956
 21
24.57716399139704
 31
0.0
 11
33.18386096308204
 21
24.63164336554592
 31
0.0
 11
32.8297140010732
 21
24.65361067318905
 31
0.0
 11
32.47307470160767
 21
24.6427593690914
 31
0.0
 11
32.11942187052807
 21
24.60192152108414
 31
0.0
 11
31.77626880985488
 21
24.50691864896159
 31
0.0
 11
31.45331806594562
 21
24.35619987525168
 31
0.0
 11
31.16425081659299
 21
24.14868782982736
 31
0.0
 11
30.91268311986691
 21
23.89611360248224
 31
0.0
 11
30.70379325220439
 21
23.60781901266322
 31
0.0
 11
30.54866063637869
 21
23.28729150751013
 31
0.0
 11
30.45247328846812
 21
22.94419894098582
 31
0.0
 11
30.4178204424804
 21
22.58972989255913
 31
0.0
 11
30.4520470898832
 21
22.23526594311771
 31
0.0
 11
30.54294059487364
 21
21.89073675637875
 31
0.0
 11
30.691396483504
 21
21.56716285752306
 31
0.0
 11
30.89849041843911
 21
21.27725022136696
 31
0.0
 11
31.15802450035081
 21
21.03376654019861
 31
0.0
 11
31.45548308742885
 21
20.83737935540596
 31
0.0
 11
31.77997022332717
 21
20.69112453447919
 31
0.0
 11
32.12581407620214
 21
20.60608206244056
 31
0.0
 11
32.48050427697165
 21
20.57374147270578
 31
0.0
 11
32.83641989969535
 21
20.57089422013113
 31
0.0
 11
33.19286980656467
 21
20.58610182742617
 31
0.0
 11
33.54527140198384
 21
20.63588357412756
 31
0.0
 11
34.19152297621249
 21
20.92684360711669
 31
0.0
  0
SPLINE
  5
7D
100
AcDbEntity
  8
CARTOUCHE
  6
CONTINUOUS
 62
     4
100
AcDbSpline
210
0.0
220
0.0
230
1.0
 70
     8
 71
     3
 72
    32
 73
    28
 74
    26
 42
0.0000001
 43
0.0000001
 44
0.000001
 12
-0.1341089932713914
 22
0.9909665876929121
 32
0.0
 13
0.0921211275959058
 23
0.9957478083583508
 33
0.0
 40
0.0
 40
0.0
 40
0.0
 40
0.0
 40
0.1932867580524454
 40
0.3866788451150791
 40
0.5800711654485758
 40
0.7723325873166358
 40
0.9658511975047813
 40
1.159367686947902
 40
1.351211207743471
 40
1.544292792016133
 40
1.738457494080144
 40
1.931763602335261
 40
2.315246619553241
 40
2.69853312463332
 40
2.891495447689225
 40
3.086238095910866
 40
3.279344938314636
 40
3.471493433338554
 40
3.665360119317714
 40
3.858864929667114
 40
4.051423127032069
 40
4.24451564009766
 40
4.629045942604745
 40
4.822524541072649
 40
5.015996623878569
 40
5.208854618112321
 40
5.402317524092618
 40
5.402317524092618
 40
5.402317524092618
 40
5.402317524092618
 10
34.19152297621249
 20
22.75924360711669
 30
0.0
 10
34.1828824787008
 20
22.82309051347451
 30
0.0
 10
34.14698932765786
 20
22.94923029275335
 30
0.0
 10
34.03863076707331
 20
23.1129580496783
 30
0.0
 10
33.88808648116188
 20
23.23750470853534
 30
0.0
 10
33.71390301491271
 20
23.32349543169012
 30
0.0
 10
33.52952349037025
 20
23.38166617796113
 30
0.0
 10
33.34290557585106
 20
23.43125883501366
 30
0.0
 10
33.15005919966966
 20
23.45345604214745
 30
0.0
 10
32.95676615887827
 20
23.43192373593081
 30
0.0
 10
32.77056087653815
 20
23.37588590159822
 30
0.0
 10
32.54005639299716
 20
23.25927858270805
 30
0.0
 10
32.30432079782051
 20
23.02895618029821
 30
0.0
 10
32.19918324987907
 20
22.70410851499887
 30
0.0
 10
32.25560999634822
 20
22.44863366086686
 30
0.0
 10
32.3455292506966
 20
22.27538556520209
 30
0.0
 10
32.47312188731868
 20
22.12730587473819
 30
0.0
 10
32.63483108758956
 20
22.0182966283113
 30
0.0
 10
32.81426083384697
 20
21.94472718644528
 30
0.0
 10
33.0014437485347
 20
21.89441517126608
 30
0.0
 10
33.19428281780493
 20
21.87304368275571
 30
0.0
 10
33.45148771916182
 20
21.88934859964266
 30
0.0
 10
33.70119731467648
 20
21.97262997799401
 30
0.0
 10
33.91655313581233
 20
22.11456177388942
 30
0.0
 10
34.05836074509369
 20
22.24858637370176
 30
0.0
 10
34.15639752139457
 20
22.41859021075639
 30
0.0
 10
34.1855823025302
 20
22.54608018557384
 30
0.0
 10
34.19152297621249
 20
22.61029360711668
 30
0.0
 11
34.19152297621249
 21
22.75924360711669
 31
0.0
 11
34.13791895137521
 21
22.94494973500174
 31
0.0
 11
34.03155373353056
 21
23.10646429401779
 31
0.0
 11
33.88383915758775
 21
23.2312882243935
 31
0.0
 11
33.71260018090836
 21
23.31870497950504
 31
0.0
 11
33.52912571204567
 21
23.38024026476581
 31
0.0
 11
33.34129541646134
 21
23.4268066350183
 31
0.0
 11
33.15043306379559
 21
23.44618483007101
 31
0.0
 11
32.95838311054932
 21
23.42625160056325
 31
0.0
 11
32.77240099875644
 21
23.37047876932411
 31
0.0
 11
32.6003783004499
 21
23.2823001555606
 31
0.0
 11
32.3303531106979
 21
23.01000300398824
 31
0.0
 11
32.22491909320101
 21
22.64150286445184
 31
0.0
 11
32.26331822628609
 21
22.45239971642014
 31
0.0
 11
32.35215412813562
 21
22.27909964132739
 31
0.0
 11
32.4790661567678
 21
22.13355370124998
 31
0.0
 11
32.63725672616545
 21
22.02448118124886
 31
0.0
 11
32.81564788989768
 21
21.94858052993354
 31
0.0
 11
33.00273750412712
 21
21.89916786421673
 31
0.0
 11
33.19419909206249
 21
21.87864610808738
 31
0.0
 11
33.38690243953788
 21
21.89090007892743
 31
0.0
 11
33.7516338226573
 21
22.01269765064039
 31
0.0
 11
33.91321018639743
 21
22.11912633605072
 31
0.0
 11
34.05119662359747
 21
22.25474052514756
 31
0.0
 11
34.14728879489485
 21
22.42195449774152
 31
0.0
 11
34.19152297621249
 21
22.61029360711668
 31
0.0
  0
LINE
  5
7E
100
AcDbEntity
  8
CARTOUCHE
  6
CONTINUOUS
 62
     4
100
AcDbLine
 10
34.191523
 20
22.610294
 30
0.0
 11
34.191523
 21
22.759244
 31
0.0
  0
LINE
  5
7F
100
AcDbEntity
  8
CARTOUCHE
  6
CONTINUOUS
 62
     4
100
AcDbLine
 10
34.191523
 20
20.620844
 30
0.0
 11
34.191523
 21
20.926844
 31
0.0
  0
SPLINE
  5
80
100
AcDbEntity
  8
CARTOUCHE
  6
CONTINUOUS
 62
     4
100
AcDbSpline
210
0.0
220
0.0
230
1.0
 70
     8
 71
     3
 72
    46
 73
    42
 74
    40
 42
0.0000001
 43
0.0000001
 44
0.000001
 12
0.2679235453433934
 22
0.9634401765811029
 32
0.0
 13
0.1610223945668763
 23
0.9869507527977013
 33
0.0
 40
0.0
 40
0.0
 40
0.0
 40
0.0
 40
0.2811750796503045
 40
0.564088879055396
 40
0.848996137055497
 40
1.131203953305268
 40
1.693846441362772
 40
2.256881955637969
 40
2.539005752871453
 40
2.82069577771237
 40
3.10298742486103
 40
3.38525403659849
 40
3.948536069069792
 40
4.512593829792804
 40
5.076289826652828
 40
5.639937838168406
 40
6.2038840903654
 40
6.766736771207038
 40
7.329349297989459
 40
7.892321937217589
 40
8.455146667050026
 40
8.73735324357032
 40
9.018964818970465
 40
9.581779450805994
 40
9.864036877849454
 40
10.14660719714255
 40
10.42765468170207
 40
10.71044306512549
 40
11.27439538244285
 40
11.83782003463079
 40
12.40154780658862
 40
12.96487894167
 40
13.53013446902046
 40
13.81230156690056
 40
14.09372679950091
 40
14.37575459410578
 40
14.65756756838715
 40
14.93943336458308
 40
15.22119875341787
 40
15.50299432171135
 40
15.78483572811754
 40
15.78483572811754
 40
15.78483572811754
 40
15.78483572811754
 10
42.2069229762125
 20
22.2561436071167
 30
0.0
 10
42.2320341176132
 20
22.3464420632462
 30
0.0
 10
42.26336464147739
 20
22.53399287488758
 30
0.0
 10
42.24149608329661
 20
22.8180131107924
 30
0.0
 10
42.17836727502067
 20
23.09483389003594
 30
0.0
 10
42.05825120664016
 20
23.45212571811312
 30
0.0
 10
41.8230662027482
 20
23.86724960201155
 30
0.0
 10
41.46781625684352
 20
24.18453336175033
 30
0.0
 10
41.14761116479388
 20
24.3819623925892
 30
0.0
 10
40.88897513028328
 20
24.49665746156387
 30
0.0
 10
40.61969351239294
 20
24.58173320376633
 30
0.0
 10
40.25431466085239
 20
24.67112506006321
 30
0.0
 10
39.78717015303302
 20
24.73491686377472
 30
0.0
 10
39.22286191438472
 20
24.74314560896781
 30
0.0
 10
38.6591207586762
 20
24.70776700654681
 30
0.0
 10
38.10430963940351
 20
24.60055453197603
 30
0.0
 10
37.56703414053914
 20
24.41975287868164
 30
0.0
 10
37.09128408887103
 20
24.10132422112936
 30
0.0
 10
36.74193896822071
 20
23.64941350842831
 30
0.0
 10
36.52262166648302
 20
23.12465092345435
 30
0.0
 10
36.4628624049949
 20
22.65237441832042
 30
0.0
 10
36.49897198241179
 20
22.27677365581592
 30
0.0
 10
36.60138551467248
 20
21.91447858732574
 30
0.0
 10
36.76185476287774
 20
21.56953964406969
 30
0.0
 10
36.99184530900153
 20
21.27135464682456
 30
0.0
 10
37.18412182401923
 20
21.06372998507461
 30
0.0
 10
37.41499111831874
 20
20.89811018872763
 30
0.0
 10
37.75233271639089
 20
20.73108027472569
 30
0.0
 10
38.19505509243059
 20
20.56630128617908
 30
0.0
 10
38.75227464306411
 20
20.46845476892714
 30
0.0
 10
39.31516439613785
 20
20.42686299267516
 30
0.0
 10
39.87978550253785
 20
20.45310470204113
 30
0.0
 10
40.3463620097438
 20
20.51793315533649
 30
0.0
 10
40.71316996174686
 20
20.60361914488436
 30
0.0
 10
40.98020763016106
 20
20.69575720930983
 30
0.0
 10
41.23634075531815
 20
20.81337147401733
 30
0.0
 10
41.48756161568505
 20
20.94257950230669
 30
0.0
 10
41.71131144352496
 20
21.1177966629821
 30
0.0
 10
41.89210360145349
 20
21.33577522622756
 30
0.0
 10
42.03705337486477
 20
21.5796890671691
 30
0.0
 10
42.08874538349662
 20
21.76292241104264
 30
0.0
 10
42.10387297621249
 20
21.85564360711669
 30
0.0
 11
42.2069229762125
 21
22.2561436071167
 31
0.0
 11
42.25187369928078
 21
22.53370336692195
 31
0.0
 11
42.23470970538826
 21
22.81609604661632
 31
0.0
 11
42.1735788783549
 21
23.0943678180467
 31
0.0
 11
42.08234233059616
 21
23.36142053588839
 31
0.0
 11
41.79914459059214
 21
23.84759505388021
 31
0.0
 11
41.38499580886721
 21
24.22902637720731
 31
0.0
 11
41.1444496714726
 21
24.37644216492157
 31
0.0
 11
40.88739588735783
 21
24.49164913231013
 31
0.0
 11
40.61887239332167
 21
24.57873375105808
 31
0.0
 11
40.34465192624326
 21
24.64564860681681
 31
0.0
 11
39.78677780416955
 21
24.72351512572941
 31
0.0
 11
39.22285539283774
 21
24.73587418697074
 31
0.0
 11
38.66058598489463
 21
24.6957948090196
 31
0.0
 11
38.10728319880826
 21
24.58829981854138
 31
0.0
 11
37.57690963109762
 21
24.3966247732279
 31
0.0
 11
37.1122433036989
 21
24.07899538626728
 31
0.0
 11
36.76366857941348
 21
23.63737494458054
 31
0.0
 11
36.54722159336241
 21
23.11767406956402
 31
0.0
 11
36.47887604508949
 21
22.55901436160784
 31
0.0
 11
36.50730298839907
 21
22.27824312562695
 31
0.0
 11
36.58066141679664
 21
22.00635409419069
 31
0.0
 11
36.82487619371594
 21
21.49928452588675
 31
0.0
 11
36.99507455897878
 21
21.27411393911514
 31
0.0
 11
37.19090624714094
 21
21.07040837833609
 31
0.0
 11
37.41820717151092
 21
20.90511471530929
 31
0.0
 11
37.66963145788086
 21
20.77567317677089
 31
0.0
 11
38.1996064863776
 21
20.58288122875969
 31
0.0
 11
38.75315260795133
 21
20.4778380326807
 31
0.0
 11
39.3154824739789
 21
20.43816227630538
 31
0.0
 11
39.87832438970059
 21
20.46163547548925
 31
0.0
 11
40.43780417420945
 21
20.54223471097222
 31
0.0
 11
40.71211753370237
 21
20.60834422386486
 31
0.0
 11
40.97822189579761
 21
20.69993377525822
 31
0.0
 11
41.23556355576588
 21
20.81532426148599
 31
0.0
 11
41.48298030283661
 21
20.95024471011851
 31
0.0
 11
41.70417597333143
 21
21.12494680466518
 31
0.0
 11
41.88612496759311
 21
21.3400893433574
 31
0.0
 11
42.02581025553314
 21
21.58482751880403
 31
0.0
 11
42.10387297621249
 21
21.85564360711669
 31
0.0
  0
SPLINE
  5
81
100
AcDbEntity
  8
CARTOUCHE
  6
CONTINUOUS
 62
     4
100
AcDbSpline
210
0.0
220
0.0
230
1.0
 70
     8
 71
     3
 72
    15
 73
    11
 74
     9
 42
0.0000001
 43
0.0000001
 44
0.000001
 12
0.1873467659221653
 22
-0.9822938406090642
 32
0.0
 13
0.7770129286964091
 23
0.6294846373332945
 33
0.0
 40
0.0
 40
0.0
 40
0.0
 40
0.0
 40
0.3371521140362622
 40
0.6743125245575566
 40
1.011741450839519
 40
1.34877367337186
 40
1.687274841773488
 40
1.856093329057823
 40
2.024672152796235
 40
2.361712998590453
 40
2.361712998590453
 40
2.361712998590453
 40
2.361712998590453
 10
38.3648229762125
 20
22.24444360711669
 30
0.0
 10
38.38587776227534
 20
22.13404945879465
 30
0.0
 10
38.47908885254962
 20
21.91720273148486
 30
0.0
 10
38.75430937478617
 20
21.70645023854778
 30
0.0
 10
39.06998691557769
 20
21.58181099425638
 30
0.0
 10
39.40539548706931
 20
21.52556359245149
 30
0.0
 10
39.6894951413102
 20
21.54062625211872
 30
0.0
 10
39.90812750047185
 20
21.5988745675465
 30
0.0
 10
40.11328304540707
 20
21.69222607636082
 30
0.0
 10
40.25572794465221
 20
21.78492292892293
 30
0.0
 10
40.3430229762125
 20
21.85564360711669
 30
0.0
 11
38.3648229762125
 21
22.24444360711669
 31
0.0
 11
38.50164219830394
 21
21.93629966675314
 31
0.0
 11
38.76098099155704
 21
21.72084551731241
 31
0.0
 11
39.07332908880515
 21
21.59318639542836
 31
0.0
 11
39.40580907592665
 21
21.53798084006903
 31
0.0
 11
39.7436513990388
 21
21.55908759838489
 31
0.0
 11
39.90657573481705
 21
21.60330661466393
 31
0.0
 11
40.06077578326683
 21
21.67143258943228
 31
0.0
 11
40.3430229762125
 21
21.85564360711669
 31
0.0
  0
SPLINE
  5
82
100
AcDbEntity
  8
CARTOUCHE
  6
CONTINUOUS
 62
     4
100
AcDbSpline
210
0.0
220
0.0
230
-1.0
 70
     8
 71
     3
 72
    21
 73
    17
 74
    15
 42
0.0000001
 43
0.0000001
 44
0.000001
 12
-0.0762450288998757
 22
0.9970891111470715
 32
0.0
 13
-0.2154301143740796
 23
-0.9765192603429648
 33
0.0
 40
0.0
 40
0.0
 40
0.0
 40
0.0
 40
0.1868552544910631
 40
0.3735743379497275
 40
0.5613842505736386
 40
0.7484489883359557
 40
0.9355885045750216
 40
1.123112117669891
 40
1.311428171606846
 40
1.500241975701495
 40
1.68644341515699
 40
1.873056879838249
 40
2.059519584354549
 40
2.246467155624063
 40
2.434628048413954
 40
2.621193228285582
 40
2.621193228285582
 40
2.621193228285582
 40
2.621193228285582
 10
40.3430229762125
 20
23.07919360711669
 30
0.0
 10
40.33827404811957
 20
23.14129738698791
 30
0.0
 10
40.31098575637731
 20
23.26532095743951
 30
0.0
 10
40.21176942058871
 20
23.42743837256688
 30
0.0
 10
40.07410479994639
 20
23.55667608106139
 30
0.0
 10
39.9138008107931
 20
23.65566247942489
 30
0.0
 10
39.73873429209119
 20
23.72452107693797
 30
0.0
 10
39.55489941934138
 20
23.76544062640578
 30
0.0
 10
39.36639702832007
 20
23.77885734971313
 30
0.0
 10
39.17902204364417
 20
23.76782173584163
 30
0.0
 10
38.99274789300326
 20
23.72745922539276
 30
0.0
 10
38.83748771726681
 20
23.62068032967624
 30
0.0
 10
38.66640566438338
 20
23.54392781271009
 30
0.0
 10
38.52524856751328
 20
23.41621622896002
 30
0.0
 10
38.42100497412087
 20
23.25892330491868
 30
0.0
 10
38.37822022889183
 20
23.1399217709347
 30
0.0
 10
38.36482297621251
 20
23.0791936071167
 30
0.0
 11
40.3430229762125
 21
23.07919360711669
 31
0.0
 11
40.30128482007762
 21
23.26132867168497
 31
0.0
 11
40.20559522220136
 21
23.42166431604199
 31
0.0
 11
40.07014905358668
 21
23.55176773224803
 31
0.0
 11
39.91135088271828
 21
23.6506431736504
 31
0.0
 11
39.7374628559249
 21
23.71981068462436
 31
0.0
 11
39.55447534379333
 21
23.76080659501808
 31
0.0
 11
39.36667772831406
 21
23.77477007425147
 31
0.0
 11
39.17824365086322
 21
23.76280187157366
 31
0.0
 11
38.99791204207538
 21
23.71641788353441
 31
0.0
 11
38.83484335052719
 21
23.62568105970969
 31
0.0
 11
38.6715939776077
 21
23.53558123947115
 31
0.0
 11
38.53168126994678
 21
23.41159000587155
 31
0.0
 11
38.42745670868595
 21
23.25493190905037
 31
0.0
 11
38.36482297621251
 21
23.0791936071167
 31
0.0
  0
SPLINE
  5
83
100
AcDbEntity
  8
CARTOUCHE
  6
CONTINUOUS
 62
     4
100
AcDbSpline
210
0.0
220
0.0
230
-1.0
 70
     8
 71
     3
 72
    14
 73
    10
 74
     8
 42
0.0000001
 43
0.0000001
 44
0.000001
 12
0.0554704849890783
 22
0.9984603273516061
 32
0.0
 13
-0.0466631639368038
 23
-0.9989106812580427
 33
0.0
 40
0.0
 40
0.0
 40
0.0
 40
0.0
 40
0.2162139231727977
 40
0.4333925507518398
 40
0.6499496526662421
 40
0.8697430299868365
 40
1.087237840365025
 40
1.304827906875886
 40
1.522316014566312
 40
1.522316014566312
 40
1.522316014566312
 40
1.522316014566312
 10
45.4545729762125
 20
22.82764360711668
 30
0.0
 10
45.45857080660576
 20
22.89960394861971
 30
0.0
 10
45.4264083633415
 20
23.04880721389077
 30
0.0
 10
45.27439513245806
 20
23.21580478488278
 30
0.0
 10
45.06187418617559
 20
23.29256557144738
 30
0.0
 10
44.83996015173
 20
23.2734915919662
 30
0.0
 10
44.63539375174635
 20
23.17927808332161
 30
0.0
 10
44.50069195487549
 20
22.99887927082835
 30
0.0
 10
44.46300587062029
 20
22.85461067172287
 30
0.0
 10
44.45962297621247
 20
22.78219360711668
 30
0.0
 11
45.4545729762125
 21
22.82764360711668
 31
0.0
 11
45.40925657835891
 21
23.03905624439607
 31
0.0
 11
45.2643208173426
 21
23.20079736409237
 31
0.0
 11
45.06139949806013
 21
23.27642755731508
 31
0.0
 11
44.84216559415751
 21
23.2607549970325
 31
0.0
 11
44.64694347697346
 21
23.16487840855711
 31
0.0
 11
44.51370731348553
 21
22.99285063220138
 31
0.0
 11
44.45962297621247
 21
22.78219360711668
 31
0.0
  0
SPLINE
  5
84
100
AcDbEntity
  8
CARTOUCHE
  6
CONTINUOUS
 62
     4
100
AcDbSpline
210
0.0
220
0.0
230
-1.0
 70
     8
 71
     3
 72
    20
 73
    16
 74
    14
 42
0.0000001
 43
0.0000001
 44
0.000001
 12
0.1358608544273129
 22
0.9907279284618359
 32
0.0
 13
-0.8123777522852272
 23
-0.583131535412039
 33
0.0
 40
0.0
 40
0.0
 40
0.0
 40
0.0
 40
0.3099164094844504
 40
0.620115935849634
 40
0.9308830016378429
 40
1.240782440235695
 40
1.550958544551884
 40
1.861841568787858
 40
2.170989242543665
 40
2.482794625570478
 40
2.792567094310104
 40
3.102412505173151
 40
3.413423989889623
 40
3.723771516235911
 40
4.342414481743269
 40
4.342414481743269
 40
4.342414481743269
 40
4.342414481743269
 10
47.28382297621251
 20
22.58779360711669
 30
0.0
 10
47.29785814561036
 20
22.69014122123831
 30
0.0
 10
47.31442412809633
 20
22.89676939405084
 30
0.0
 10
47.3009300446424
 20
23.20747589800257
 30
0.0
 10
47.25565471224022
 20
23.51474414590117
 30
0.0
 10
47.17620454100132
 20
23.81641630141703
 30
0.0
 10
47.02732837572081
 20
24.0924084229208
 30
0.0
 10
46.81020876026039
 20
24.32073903095973
 30
0.0
 10
46.53096593187423
 20
24.46673548372093
 30
0.0
 10
46.23076173615316
 20
24.54812143120015
 30
0.0
 10
45.92302812013527
 20
24.59724620003242
 30
0.0
 10
45.61154982347273
 20
24.58971058619114
 30
0.0
 10
45.30365644994705
 20
24.5459331430227
 30
0.0
 10
44.90384885766133
 20
24.43649450290007
 30
0.0
 10
44.62714690347446
 20
24.28574368123275
 30
0.0
 10
44.45962297621249
 20
24.16549360711669
 30
0.0
 11
47.28382297621251
 21
22.58779360711669
 31
0.0
 11
47.3080338234398
 21
22.8967638790771
 31
0.0
 11
47.29564801913904
 21
23.20671600883972
 31
0.0
 11
47.24989999164073
 21
23.51409730955235
 31
0.0
 11
47.16468005782961
 21
23.81204898160464
 31
0.0
 11
47.01605698726017
 21
24.08429955967585
 31
0.0
 11
46.79947591694869
 21
24.30732619143858
 31
0.0
 11
46.52824151124928
 21
24.45566419975128
 31
0.0
 11
46.22887996193932
 21
24.5428722112578
 31
0.0
 11
45.92238599753447
 21
24.58782115591738
 31
0.0
 11
45.61256799206709
 21
24.58370341795764
 31
0.0
 11
45.3047164351297
 21
24.53948194901727
 31
0.0
 11
45.00579935951135
 21
24.45603046599671
 31
0.0
 11
44.45962297621249
 21
24.16549360711669
 31
0.0
  0
ARC
  5
85
100
AcDbEntity
  8
CARTOUCHE
  6
CONTINUOUS
 62
     4
100
AcDbCircle
 10
10.950954
 20
23.851493
 30
0.0
 40
0.470607
100
AcDbArc
 50
290.581791
 51
349.597912
  0
SPLINE
  5
86
100
AcDbEntity
  8
CARTOUCHE
  6
CONTINUOUS
 62
     4
100
AcDbSpline
210
0.0
220
0.0
230
1.0
 70
     8
 71
     3
 72
    14
 73
    10
 74
     8
 42
0.0000001
 43
0.0000001
 44
0.000001
 12
-0.0678904074543379
 22
-0.9976927846665446
 32
0.0
 13
-0.8200536786282524
 23
0.5722866101598663
 33
0.0
 40
0.0
 40
0.0
 40
0.0
 40
0.0
 40
0.2180605659125796
 40
0.4363602901220761
 40
0.6537282770324749
 40
0.8729550900782449
 40
1.089088660433416
 40
1.305404211068232
 40
1.523279999837271
 40
1.523279999837271
 40
1.523279999837271
 40
1.523279999837271
 10
13.32322297621251
 20
21.16984360711669
 30
0.0
 10
13.31828823598933
 20
21.0973244560396
 30
0.0
 10
13.2844408636731
 20
20.95301310268235
 30
0.0
 10
13.16948287756626
 20
20.76307428111757
 30
0.0
 10
12.99638504773296
 20
20.62406330263204
 30
0.0
 10
12.79557417189416
 20
20.53568034010336
 30
0.0
 10
12.57604637235984
 20
20.50360648332739
 30
0.0
 10
12.3619451595874
 20
20.55796150196734
 30
0.0
 10
12.23325559313034
 20
20.62676560806014
 30
0.0
 10
12.17369897910899
 20
20.66832807359032
 30
0.0
 11
13.32322297621251
 21
21.16984360711669
 31
0.0
 11
13.27374961772985
 21
20.95746843688553
 31
0.0
 11
13.15964273339541
 21
20.77136537381492
 31
0.0
 11
12.99218699760145
 21
20.63277473124213
 31
0.0
 11
12.79139755994316
 21
20.54477508934442
 31
0.0
 11
12.57693403206401
 21
20.51795972590457
 31
0.0
 11
12.36599789339048
 21
20.56590052451097
 31
0.0
 11
12.17369897910899
 21
20.66832807359032
 31
0.0
  0
ARC
  5
87
100
AcDbEntity
  8
CARTOUCHE
  6
CONTINUOUS
 62
     4
100
AcDbCircle
 10
14.404539
 20
25.005869
 30
0.0
 40
0.500071
100
AcDbArc
 50
275.840125
 51
95.840125
  0
INSERT
  5
88
100
AcDbEntity
  8
CARTOUCHE
  6
CONTINUOUS
 62
     4
100
AcDbBlockReference
  2
*X7
 10
0.0
 20
0.0
 30
0.0
1001
ACAD
1000
HATCH
1002
{
1070
    19
1000
ANSI31
1040
0.062992
1040
0.0
1000
R14_HATCH_DATA
1000
88
1011
1.0
1021
0.0
1031
0.0
1011
0.0
1021
1.0
1031
0.0
1011
0.0
1021
0.0
1031
1.0
1040
0.0
1010
0.0
1020
0.0
1030
1.0
1000
ANSI31
1070
     0
1070
     0
1071
        1
1071
        1
1071
       50
1070
     1
1040
10.464823
1040
24.428744
1040
10.464823
1040
27.399506
1070
     1
1040
8.174776
1040
24.428744
1040
10.464823
1040
24.428744
1070
     1
1040
11.413873
1040
27.652621
1040
11.413873
1040
23.766514
1070
     1
1040
11.116423
1040
23.410844
1040
10.887823
1040
23.410844
1070
     1
1040
10.887823
1040
23.410844
1040
12.362923
1040
21.810194
1070
     1
1040
12.362923
1040
21.810194
1040
12.362923
1040
27.655485
1070
     1
1040
9.378523
1040
23.410844
1040
8.176313
1040
23.410844
1070
     1
1040
13.323223
1040
27.404134
1040
13.323223
1040
25.503344
1070
     1
1040
13.323223
1040
25.503344
1040
14.353656
1040
25.503344
1070
     1
1040
14.455423
1040
24.508394
1040
13.323223
1040
24.508394
1070
     1
1040
13.323223
1040
24.508394
1040
13.323223
1040
21.169844
1070
     1
1040
13.323223
1040
21.169844
1040
13.318835
1040
21.126412
1070
     1
1040
13.318835
1040
21.126412
1040
13.311632
1040
21.083268
1070
     1
1040
13.311632
1040
21.083268
1040
13.301677
1040
21.040602
1070
     1
1040
13.301677
1040
21.040602
1040
13.289029
1040
20.998605
1070
     1
1040
13.289029
1040
20.998605
1040
13.27375
1040
20.957468
1070
     1
1040
13.27375
1040
20.957468
1040
13.255877
1040
20.91734
1070
     1
1040
13.255877
1040
20.91734
1040
13.23548
1040
20.878466
1070
     1
1040
13.23548
1040
20.878466
1040
13.212608
1040
20.841045
1070
     1
1040
13.212608
1040
20.841045
1040
13.187312
1040
20.805278
1070
     1
1040
13.187312
1040
20.805278
1040
13.159643
1040
20.771365
1070
     1
1040
13.159643
1040
20.771365
1040
13.129815
1040
20.739605
1070
     1
1040
13.129815
1040
20.739605
1040
13.09792
1040
20.709874
1070
     1
1040
13.09792
1040
20.709874
1040
13.064194
1040
20.682164
1070
     1
1040
13.064194
1040
20.682164
1040
13.028871
1040
20.656467
1070
     1
1040
13.028871
1040
20.656467
1040
12.992187
1040
20.632775
1070
     1
1040
12.992187
1040
20.632775
1040
12.914787
1040
20.591129
1070
     1
1040
12.914787
1040
20.591129
1040
12.874555
1040
20.573479
1070
     1
1040
12.874555
1040
20.573479
1040
12.8334
1040
20.55801
1070
     1
1040
12.8334
1040
20.55801
1040
12.791398
1040
20.544775
1070
     1
1040
12.791398
1040
20.544775
1040
12.749249
1040
20.533994
1070
     1
1040
12.749249
1040
20.533994
1040
12.706539
1040
20.525678
1070
     1
1040
12.706539
1040
20.525678
1040
12.663456
1040
20.52007
1070
     1
1040
12.663456
1040
20.52007
1040
12.620191
1040
20.517416
1070
     1
1040
12.620191
1040
20.517416
1040
12.576934
1040
20.51796
1070
     1
1040
12.576934
1040
20.51796
1040
12.533829
1040
20.52186
1070
     1
1040
12.533829
1040
20.52186
1040
12.491053
1040
20.528907
1070
     1
1040
12.491053
1040
20.528907
1040
12.448736
1040
20.538797
1070
     1
1040
12.448736
1040
20.538797
1040
12.407007
1040
20.551229
1070
     1
1040
12.407007
1040
20.551229
1040
12.365998
1040
20.565901
1070
     1
1040
12.365998
1040
20.565901
1040
12.286013
1040
20.601363
1070
     1
1040
12.286013
1040
20.601363
1040
12.228617
1040
20.632853
1070
     1
1040
12.228617
1040
20.632853
1040
12.173699
1040
20.668328
1070
     1
1040
12.173699
1040
20.668328
1040
9.378523
1040
23.410844
1070
     2
1040
11.899646
1040
23.925422
1040
4.756723
1040
0.0
1040
6.283185
1070
     1
1070
     2
1040
11.899651
1040
23.925417
1040
3.758727
1040
1.962466
1040
3.00728
1070
     1
1070
     2
1040
10.950954
1040
23.851493
1040
0.470607
1040
5.071609
1040
6.101635
1070
     1
1070
     2
1040
11.899651
1040
23.925417
1040
3.758727
1040
1.44723
1040
1.700399
1070
     1
1070
     2
1040
11.899651
1040
23.925417
1040
3.758727
1040
3.278925
1040
7.465549
1070
     1
1070
     2
1040
14.404539
1040
25.005869
1040
0.500071
1040
4.814318
1040
7.955911
1070
     1
1071
        0
1070
     0
1070
     1
1040
0.0
1040
0.062992
1070
     0
1070
     1
1040
0.785398
1040
-6.22517
1040
-28.624349
1040
-0.141421
1040
0.141421
1070
     0
1071
        1
1040
-6.22517
1040
-28.624349
1040
0.0
1002
}
  0
INSERT
  5
89
100
AcDbEntity
  8
CARTOUCHE
  6
CONTINUOUS
 62
     4
100
AcDbBlockReference
  2
*X8
 10
0.0
 20
0.0
 30
0.0
1001
ACAD
1000
HATCH
1002
{
1070
    19
1000
ANSI31
1040
0.062992
1040
0.0
1000
R14_HATCH_DATA
1000
89
1011
1.0
1021
0.0
1031
0.0
1011
0.0
1021
1.0
1031
0.0
1011
0.0
1021
0.0
1031
1.0
1040
0.0
1010
0.0
1020
0.0
1030
1.0
1000
ANSI31
1070
     0
1070
     0
1071
        1
1071
        1
1071
       16
1070
     1
1040
18.674623
1040
24.508394
1040
18.674623
1040
24.929401
1070
     1
1040
19.580259
1040
25.834994
1040
21.087523
1040
25.834994
1070
     1
1040
21.087523
1040
25.834994
1040
21.087523
1040
24.931844
1070
     1
1040
21.087523
1040
24.931844
1040
20.679053
1040
24.931844
1070
     1
1040
20.461079
1040
24.768622
1040
20.412973
1040
24.508394
1070
     1
1040
20.412973
1040
24.508394
1040
21.087523
1040
24.508394
1070
     1
1040
21.087523
1040
24.508394
1040
21.087523
1040
23.410844
1070
     1
1040
21.087523
1040
23.410844
1040
20.470123
1040
23.410844
1070
     1
1040
20.470123
1040
23.410844
1040
20.470123
1040
20.632094
1070
     1
1040
20.470123
1040
20.632094
1040
18.674623
1040
20.632094
1070
     1
1040
18.674623
1040
20.632094
1040
18.674623
1040
23.410844
1070
     1
1040
18.674623
1040
23.410844
1040
18.137323
1040
23.410844
1070
     1
1040
18.137323
1040
23.410844
1040
18.137323
1040
24.508394
1070
     1
1040
18.137323
1040
24.508394
1040
18.674623
1040
24.508394
1070
     2
1040
19.580259
1040
24.929401
1040
0.905639
1040
1.570796
1040
3.141593
1070
     1
1070
     2
1040
20.705988
1040
24.668716
1040
0.264503
1040
1.672805
1040
2.754266
1070
     1
1071
        0
1070
     0
1070
     1
1040
0.0
1040
0.062992
1070
     0
1070
     1
1040
0.785398
1040
-6.22517
1040
-28.624349
1040
-0.141421
1040
0.141421
1070
     0
1071
        1
1040
-6.22517
1040
-28.624349
1040
0.0
1002
}
  0
INSERT
  5
8A
100
AcDbEntity
  8
CARTOUCHE
  6
CONTINUOUS
 62
     4
100
AcDbBlockReference
  2
*X9
 10
0.0
 20
0.0
 30
0.0
1001
ACAD
1000
HATCH
1002
{
1070
    19
1000
ANSI31
1040
0.062992
1040
0.0
1000
R14_HATCH_DATA
1000
8A
1011
1.0
1021
0.0
1031
0.0
1011
0.0
1021
1.0
1031
0.0
1011
0.0
1021
0.0
1031
1.0
1040
0.0
1010
0.0
1020
0.0
1030
1.0
1000
ANSI31
1070
     0
1070
     0
1071
        1
1071
        1
1071
        4
1070
     1
1040
21.807973
1040
25.834994
1040
21.807973
1040
24.943094
1070
     1
1040
21.807973
1040
24.943094
1040
23.625973
1040
24.943094
1070
     1
1040
23.625973
1040
24.943094
1040
23.625973
1040
25.834994
1070
     1
1040
23.625973
1040
25.834994
1040
21.807973
1040
25.834994
1071
        0
1070
     0
1070
     1
1040
0.0
1040
0.062992
1070
     0
1070
     1
1040
0.785398
1040
-6.22517
1040
-28.624349
1040
-0.141421
1040
0.141421
1070
     0
1071
        1
1040
-6.22517
1040
-28.624349
1040
0.0
1002
}
  0
INSERT
  5
8B
100
AcDbEntity
  8
CARTOUCHE
  6
CONTINUOUS
 62
     4
100
AcDbBlockReference
  2
*X10
 10
0.0
 20
0.0
 30
0.0
1001
ACAD
1000
HATCH
1002
{
1070
    19
1000
ANSI31
1040
0.062992
1040
0.0
1000
R14_HATCH_DATA
1000
8B
1011
1.0
1021
0.0
1031
0.0
1011
0.0
1021
1.0
1031
0.0
1011
0.0
1021
0.0
1031
1.0
1040
0.0
1010
0.0
1020
0.0
1030
1.0
1000
ANSI31
1070
     0
1070
     0
1071
        1
1071
        1
1071
        4
1070
     1
1040
21.807973
1040
24.508394
1040
21.807973
1040
20.632094
1070
     1
1040
21.807973
1040
20.632094
1040
23.625973
1040
20.632094
1070
     1
1040
23.625973
1040
20.632094
1040
23.625973
1040
24.508394
1070
     1
1040
23.625973
1040
24.508394
1040
21.807973
1040
24.508394
1071
        0
1070
     0
1070
     1
1040
0.0
1040
0.062992
1070
     0
1070
     1
1040
0.785398
1040
-6.22517
1040
-28.624349
1040
-0.141421
1040
0.141421
1070
     0
1071
        1
1040
-6.22517
1040
-28.624349
1040
0.0
1002
}
  0
INSERT
  5
8C
100
AcDbEntity
  8
CARTOUCHE
  6
CONTINUOUS
 62
     4
100
AcDbBlockReference
  2
*X11
 10
0.0
 20
0.0
 30
0.0
1001
ACAD
1000
HATCH
1002
{
1070
    19
1000
ANSI31
1040
0.062992
1040
0.0
1000
R14_HATCH_DATA
1000
8C
1011
1.0
1021
0.0
1031
0.0
1011
0.0
1021
1.0
1031
0.0
1011
0.0
1021
0.0
1031
1.0
1040
0.0
1010
0.0
1020
0.0
1030
1.0
1000
ANSI31
1070
     0
1070
     0
1071
        1
1071
        1
1071
       12
1070
     1
1040
26.289973
1040
24.508394
1040
26.289973
1040
24.074144
1070
     1
1040
29.892223
1040
23.324553
1040
29.892223
1040
20.632094
1070
     1
1040
29.892223
1040
20.632094
1040
28.108423
1040
20.632094
1070
     1
1040
28.108423
1040
20.632094
1040
28.108423
1040
22.479034
1070
     1
1040
26.289973
1040
22.433499
1040
26.289973
1040
20.632094
1070
     1
1040
26.289973
1040
20.632094
1040
24.494923
1040
20.632094
1070
     1
1040
24.494923
1040
20.632094
1040
24.494923
1040
24.508394
1070
     1
1040
24.494923
1040
24.508394
1040
26.289973
1040
24.508394
1070
     2
1040
28.067403
1040
21.045261
1040
3.511892
1040
1.25441
1040
2.101473
1070
     1
1070
     2
1040
28.675028
1040
23.264873
1040
1.218658
1040
0.048991
1040
1.161443
1070
     1
1070
     2
1040
27.457324
1040
22.479034
1040
0.651124
1040
0.0
1040
1.695599
1070
     1
1070
     2
1040
27.44381
1040
21.820079
1040
1.306761
1040
1.622502
1040
2.652958
1070
     1
1071
        0
1070
     0
1070
     1
1040
0.0
1040
0.062992
1070
     0
1070
     1
1040
0.785398
1040
-6.22517
1040
-28.624349
1040
-0.141421
1040
0.141421
1070
     0
1071
        1
1040
-6.22517
1040
-28.624349
1040
0.0
1002
}
  0
INSERT
  5
8D
100
AcDbEntity
  8
CARTOUCHE
  6
CONTINUOUS
 62
     4
100
AcDbBlockReference
  2
*X12
 10
0.0
 20
0.0
 30
0.0
1001
ACAD
1000
HATCH
1002
{
1070
    19
1000
ANSI31
1040
0.062992
1040
0.0
1000
R14_HATCH_DATA
1000
8D
1011
1.0
1021
0.0
1031
0.0
1011
0.0
1021
1.0
1031
0.0
1011
0.0
1021
0.0
1031
1.0
1040
0.0
1010
0.0
1020
0.0
1030
1.0
1000
ANSI31
1070
     0
1070
     0
1071
        1
1071
        1
1071
      154
1070
     1
1040
34.191523
1040
24.319904
1040
34.136639
1040
24.365465
1070
     1
1040
34.136639
1040
24.365465
1040
34.093353
1040
24.396952
1070
     1
1040
34.093353
1040
24.396952
1040
34.048146
1040
24.425518
1070
     1
1040
34.048146
1040
24.425518
1040
33.985315
1040
24.458243
1070
     1
1040
33.985315
1040
24.458243
1040
33.936415
1040
24.479183
1070
     1
1040
33.936415
1040
24.479183
1040
33.886414
1040
24.497349
1070
     1
1040
33.886414
1040
24.497349
1040
33.800369
1040
24.52267
1070
     1
1040
33.800369
1040
24.52267
1040
33.713056
1040
24.543137
1070
     1
1040
33.713056
1040
24.543137
1040
33.535985
1040
24.577164
1070
     1
1040
33.535985
1040
24.577164
1040
33.183861
1040
24.631643
1070
     1
1040
33.183861
1040
24.631643
1040
32.829714
1040
24.653611
1070
     1
1040
32.829714
1040
24.653611
1040
32.473075
1040
24.642759
1070
     1
1040
32.473075
1040
24.642759
1040
32.295535
1040
24.627567
1070
     1
1040
32.295535
1040
24.627567
1040
32.119422
1040
24.601922
1070
     1
1040
32.119422
1040
24.601922
1040
31.980393
1040
24.570874
1070
     1
1040
31.980393
1040
24.570874
1040
31.776269
1040
24.506919
1070
     1
1040
31.776269
1040
24.506919
1040
31.643857
1040
24.453442
1070
     1
1040
31.643857
1040
24.453442
1040
31.547199
1040
24.407478
1070
     1
1040
31.547199
1040
24.407478
1040
31.453318
1040
24.3562
1070
     1
1040
31.453318
1040
24.3562
1040
31.333276
1040
24.279541
1070
     1
1040
31.333276
1040
24.279541
1040
31.164251
1040
24.148688
1070
     1
1040
31.164251
1040
24.148688
1040
31.058938
1040
24.052358
1070
     1
1040
31.058938
1040
24.052358
1040
30.912683
1040
23.896114
1070
     1
1040
30.912683
1040
23.896114
1040
30.823445
1040
23.784931
1070
     1
1040
30.823445
1040
23.784931
1040
30.703793
1040
23.607819
1070
     1
1040
30.703793
1040
23.607819
1040
30.634816
1040
23.48302
1070
     1
1040
30.634816
1040
23.48302
1040
30.589096
1040
23.38631
1070
     1
1040
30.589096
1040
23.38631
1040
30.548661
1040
23.287292
1070
     1
1040
30.548661
1040
23.287292
1040
30.503077
1040
23.152132
1070
     1
1040
30.503077
1040
23.152132
1040
30.452473
1040
22.944199
1070
     1
1040
30.452473
1040
22.944199
1040
30.430632
1040
22.80315
1070
     1
1040
30.430632
1040
22.80315
1040
30.421047
1040
22.696588
1070
     1
1040
30.421047
1040
22.696588
1040
30.41782
1040
22.58973
1070
     1
1040
30.41782
1040
22.58973
1040
30.423783
1040
22.447355
1070
     1
1040
30.423783
1040
22.447355
1040
30.452047
1040
22.235266
1070
     1
1040
30.452047
1040
22.235266
1040
30.481823
1040
22.095683
1070
     1
1040
30.481823
1040
22.095683
1040
30.542941
1040
21.890737
1070
     1
1040
30.542941
1040
21.890737
1040
30.595245
1040
21.758144
1070
     1
1040
30.595245
1040
21.758144
1040
30.640663
1040
21.661326
1070
     1
1040
30.640663
1040
21.661326
1040
30.691396
1040
21.567163
1070
     1
1040
30.691396
1040
21.567163
1040
30.767341
1040
21.446302
1070
     1
1040
30.767341
1040
21.446302
1040
30.830371
1040
21.359778
1070
     1
1040
30.830371
1040
21.359778
1040
30.89849
1040
21.27725
1070
     1
1040
30.89849
1040
21.27725
1040
30.996767
1040
21.17408
1070
     1
1040
30.996767
1040
21.17408
1040
31.158025
1040
21.033767
1070
     1
1040
31.158025
1040
21.033767
1040
31.273232
1040
20.949577
1070
     1
1040
31.273232
1040
20.949577
1040
31.455483
1040
20.837379
1070
     1
1040
31.455483
1040
20.837379
1040
31.582285
1040
20.772196
1070
     1
1040
31.582285
1040
20.772196
1040
31.680038
1040
20.728943
1070
     1
1040
31.680038
1040
20.728943
1040
31.77997
1040
20.691125
1070
     1
1040
31.77997
1040
20.691125
1040
31.916406
1040
20.649737
1070
     1
1040
31.916406
1040
20.649737
1040
32.125814
1040
20.606082
1070
     1
1040
32.125814
1040
20.606082
1040
32.302677
1040
20.584734
1070
     1
1040
32.302677
1040
20.584734
1040
32.480504
1040
20.573741
1070
     1
1040
32.480504
1040
20.573741
1040
32.83642
1040
20.570894
1070
     1
1040
32.83642
1040
20.570894
1040
33.19287
1040
20.586102
1070
     1
1040
33.19287
1040
20.586102
1040
33.334597
1040
20.6
1070
     1
1040
33.334597
1040
20.6
1040
33.545271
1040
20.635884
1070
     1
1040
33.545271
1040
20.635884
1040
33.682853
1040
20.673016
1070
     1
1040
33.682853
1040
20.673016
1040
33.817433
1040
20.721154
1070
     1
1040
33.817433
1040
20.721154
1040
33.947848
1040
20.779822
1070
     1
1040
33.947848
1040
20.779822
1040
34.072933
1040
20.848544
1070
     1
1040
34.072933
1040
20.848544
1040
34.191523
1040
20.926844
1070
     1
1040
34.191523
1040
20.926844
1040
34.191523
1040
20.620844
1070
     1
1040
34.191523
1040
20.620844
1040
35.986573
1040
20.620844
1070
     1
1040
35.986573
1040
20.620844
1040
35.986573
1040
25.823744
1070
     1
1040
35.986573
1040
25.823744
1040
34.191523
1040
25.823744
1070
     1
1040
34.191523
1040
25.823744
1040
34.191523
1040
24.319904
1070
     1
1040
34.191523
1040
22.759244
1040
34.185224
1040
22.797429
1070
     1
1040
34.185224
1040
22.797429
1040
34.176704
1040
22.835258
1070
     1
1040
34.176704
1040
22.835258
1040
34.165972
1040
22.872565
1070
     1
1040
34.165972
1040
22.872565
1040
34.153041
1040
22.909184
1070
     1
1040
34.153041
1040
22.909184
1040
34.137919
1040
22.94495
1070
     1
1040
34.137919
1040
22.94495
1040
34.120622
1040
22.979724
1070
     1
1040
34.120622
1040
22.979724
1040
34.101241
1040
23.01337
1070
     1
1040
34.101241
1040
23.01337
1040
34.079871
1040
23.045781
1070
     1
1040
34.079871
1040
23.045781
1040
34.05661
1040
23.076848
1070
     1
1040
34.05661
1040
23.076848
1040
34.031554
1040
23.106464
1070
     1
1040
34.031554
1040
23.106464
1040
34.004808
1040
23.13454
1070
     1
1040
34.004808
1040
23.13454
1040
33.976513
1040
23.161059
1070
     1
1040
33.976513
1040
23.161059
1040
33.931497
1040
23.19792
1070
     1
1040
33.931497
1040
23.19792
1040
33.883839
1040
23.231288
1070
     1
1040
33.883839
1040
23.231288
1040
33.817408
1040
23.270254
1070
     1
1040
33.817408
1040
23.270254
1040
33.7126
1040
23.318705
1070
     1
1040
33.7126
1040
23.318705
1040
33.529126
1040
23.38024
1070
     1
1040
33.529126
1040
23.38024
1040
33.341295
1040
23.426807
1070
     1
1040
33.341295
1040
23.426807
1040
33.265367
1040
23.43872
1070
     1
1040
33.265367
1040
23.43872
1040
33.207992
1040
23.444184
1070
     1
1040
33.207992
1040
23.444184
1040
33.150433
1040
23.446185
1070
     1
1040
33.150433
1040
23.446185
1040
33.073206
1040
23.442941
1070
     1
1040
33.073206
1040
23.442941
1040
33.01556
1040
23.436269
1070
     1
1040
33.01556
1040
23.436269
1040
32.958383
1040
23.426252
1070
     1
1040
32.958383
1040
23.426252
1040
32.882791
1040
23.40795
1070
     1
1040
32.882791
1040
23.40795
1040
32.827093
1040
23.390689
1070
     1
1040
32.827093
1040
23.390689
1040
32.772401
1040
23.370479
1070
     1
1040
32.772401
1040
23.370479
1040
32.701623
1040
23.339164
1070
     1
1040
32.701623
1040
23.339164
1040
32.650176
1040
23.312245
1070
     1
1040
32.650176
1040
23.312245
1040
32.600378
1040
23.2823
1070
     1
1040
32.600378
1040
23.2823
1040
32.537441
1040
23.23798
1070
     1
1040
32.537441
1040
23.23798
1040
32.478372
1040
23.188413
1070
     1
1040
32.478372
1040
23.188413
1040
32.423769
1040
23.133776
1070
     1
1040
32.423769
1040
23.133776
1040
32.37423
1040
23.074247
1070
     1
1040
32.37423
1040
23.074247
1040
32.330353
1040
23.010003
1070
     1
1040
32.330353
1040
23.010003
1040
32.292818
1040
22.941394
1070
     1
1040
32.292818
1040
22.941394
1040
32.262521
1040
22.869246
1070
     1
1040
32.262521
1040
22.869246
1040
32.250396
1040
22.832155
1070
     1
1040
32.250396
1040
22.832155
1040
32.240449
1040
22.794552
1070
     1
1040
32.240449
1040
22.794552
1040
32.232805
1040
22.756561
1070
     1
1040
32.232805
1040
22.756561
1040
32.227586
1040
22.718306
1070
     1
1040
32.227586
1040
22.718306
1040
32.224917
1040
22.679912
1070
     1
1040
32.224917
1040
22.679912
1040
32.224919
1040
22.641503
1070
     1
1040
32.224919
1040
22.641503
1040
32.227693
1040
22.60294
1070
     1
1040
32.227693
1040
22.60294
1040
32.233111
1040
22.564618
1070
     1
1040
32.233111
1040
22.564618
1040
32.240981
1040
22.526667
1070
     1
1040
32.240981
1040
22.526667
1040
32.251114
1040
22.489217
1070
     1
1040
32.251114
1040
22.489217
1040
32.263318
1040
22.4524
1070
     1
1040
32.263318
1040
22.4524
1040
32.293645
1040
22.380425
1070
     1
1040
32.293645
1040
22.380425
1040
32.321048
1040
22.328706
1070
     1
1040
32.321048
1040
22.328706
1040
32.352154
1040
22.2791
1070
     1
1040
32.352154
1040
22.2791
1040
32.398586
1040
22.217113
1070
     1
1040
32.398586
1040
22.217113
1040
32.437235
1040
22.173772
1070
     1
1040
32.437235
1040
22.173772
1040
32.479066
1040
22.133554
1070
     1
1040
32.479066
1040
22.133554
1040
32.539186
1040
22.085487
1070
     1
1040
32.539186
1040
22.085487
1040
32.587212
1040
22.053355
1070
     1
1040
32.587212
1040
22.053355
1040
32.637257
1040
22.024481
1070
     1
1040
32.637257
1040
22.024481
1040
32.707048
1040
21.990519
1070
     1
1040
32.707048
1040
21.990519
1040
32.815648
1040
21.948581
1070
     1
1040
32.815648
1040
21.948581
1040
32.889663
1040
21.925699
1070
     1
1040
32.889663
1040
21.925699
1040
33.002738
1040
21.899168
1070
     1
1040
33.002738
1040
21.899168
1040
33.078914
1040
21.887245
1070
     1
1040
33.078914
1040
21.887245
1040
33.194199
1040
21.878646
1070
     1
1040
33.194199
1040
21.878646
1040
33.271463
1040
21.879509
1070
     1
1040
33.271463
1040
21.879509
1040
33.386902
1040
21.8909
1070
     1
1040
33.386902
1040
21.8909
1040
33.46279
1040
21.905127
1070
     1
1040
33.46279
1040
21.905127
1040
33.537631
1040
21.924554
1070
     1
1040
33.537631
1040
21.924554
1040
33.611002
1040
21.949047
1070
     1
1040
33.611002
1040
21.949047
1040
33.682477
1040
21.978473
1070
     1
1040
33.682477
1040
21.978473
1040
33.751634
1040
22.012698
1070
     1
1040
33.751634
1040
22.012698
1040
33.818499
1040
22.051846
1070
     1
1040
33.818499
1040
22.051846
1040
33.91321
1040
22.119126
1070
     1
1040
33.91321
1040
22.119126
1040
33.972146
1040
22.169599
1070
     1
1040
33.972146
1040
22.169599
1040
34.013325
1040
22.210664
1070
     1
1040
34.013325
1040
22.210664
1040
34.051197
1040
22.254741
1070
     1
1040
34.051197
1040
22.254741
1040
34.074237
1040
22.285782
1070
     1
1040
34.074237
1040
22.285782
1040
34.09545
1040
22.318141
1070
     1
1040
34.09545
1040
22.318141
1040
34.114752
1040
22.351701
1070
     1
1040
34.114752
1040
22.351701
1040
34.13206
1040
22.386344
1070
     1
1040
34.13206
1040
22.386344
1040
34.147289
1040
22.421954
1070
     1
1040
34.147289
1040
22.421954
1040
34.160411
1040
22.458525
1070
     1
1040
34.160411
1040
22.458525
1040
34.171377
1040
22.495797
1070
     1
1040
34.171377
1040
22.495797
1040
34.180205
1040
22.533619
1070
     1
1040
34.180205
1040
22.533619
1040
34.186914
1040
22.571835
1070
     1
1040
34.186914
1040
22.571835
1040
34.191523
1040
22.610294
1070
     1
1040
34.191523
1040
22.610294
1040
34.191523
1040
22.759244
1071
        0
1070
     0
1070
     1
1040
0.0
1040
0.062992
1070
     0
1070
     1
1040
0.785398
1040
-6.22517
1040
-28.624349
1040
-0.141421
1040
0.141421
1070
     0
1071
        1
1040
-6.22517
1040
-28.624349
1040
0.0
1002
}
  0
INSERT
  5
8E
100
AcDbEntity
  8
CARTOUCHE
  6
CONTINUOUS
 62
     4
100
AcDbBlockReference
  2
*X13
 10
0.0
 20
0.0
 30
0.0
1001
ACAD
1000
HATCH
1002
{
1070
    19
1000
ANSI31
1040
0.062992
1040
0.0
1000
R14_HATCH_DATA
1000
8E
1011
1.0
1021
0.0
1031
0.0
1011
0.0
1021
1.0
1031
0.0
1011
0.0
1021
0.0
1031
1.0
1040
0.0
1010
0.0
1020
0.0
1030
1.0
1000
ANSI31
1070
     0
1070
     0
1071
        1
1071
        1
1071
      165
1070
     1
1040
39.051073
1040
22.244444
1040
39.154123
1040
22.244444
1070
     1
1040
39.154123
1040
22.244444
1040
42.206923
1040
22.256144
1070
     1
1040
42.206923
1040
22.256144
1040
42.232378
1040
22.365847
1070
     1
1040
42.232378
1040
22.365847
1040
42.245048
1040
22.449462
1070
     1
1040
42.245048
1040
22.449462
1040
42.251874
1040
22.533703
1070
     1
1040
42.251874
1040
22.533703
1040
42.251735
1040
22.646969
1070
     1
1040
42.251735
1040
22.646969
1040
42.23471
1040
22.816096
1070
     1
1040
42.23471
1040
22.816096
1040
42.208465
1040
22.956213
1070
     1
1040
42.208465
1040
22.956213
1040
42.173579
1040
23.094368
1070
     1
1040
42.173579
1040
23.094368
1040
42.131795
1040
23.229146
1070
     1
1040
42.131795
1040
23.229146
1040
42.082342
1040
23.361421
1070
     1
1040
42.082342
1040
23.361421
1040
42.036862
1040
23.464716
1070
     1
1040
42.036862
1040
23.464716
1040
41.985861
1040
23.565535
1070
     1
1040
41.985861
1040
23.565535
1040
41.92928
1040
23.663323
1070
     1
1040
41.92928
1040
23.663323
1040
41.867061
1040
23.757527
1070
     1
1040
41.867061
1040
23.757527
1040
41.799145
1040
23.847595
1070
     1
1040
41.799145
1040
23.847595
1040
41.725524
1040
23.93313
1070
     1
1040
41.725524
1040
23.93313
1040
41.646719
1040
24.014004
1070
     1
1040
41.646719
1040
24.014004
1040
41.563309
1040
24.090255
1070
     1
1040
41.563309
1040
24.090255
1040
41.384996
1040
24.229026
1070
     1
1040
41.384996
1040
24.229026
1040
41.266986
1040
24.306605
1070
     1
1040
41.266986
1040
24.306605
1040
41.14445
1040
24.376442
1070
     1
1040
41.14445
1040
24.376442
1040
41.017719
1040
24.437986
1070
     1
1040
41.017719
1040
24.437986
1040
40.887396
1040
24.491649
1070
     1
1040
40.887396
1040
24.491649
1040
40.618872
1040
24.578734
1070
     1
1040
40.618872
1040
24.578734
1040
40.344652
1040
24.645649
1070
     1
1040
40.344652
1040
24.645649
1040
40.067005
1040
24.69363
1070
     1
1040
40.067005
1040
24.69363
1040
39.786778
1040
24.723515
1070
     1
1040
39.786778
1040
24.723515
1040
39.222855
1040
24.735874
1070
     1
1040
39.222855
1040
24.735874
1040
38.660586
1040
24.695795
1070
     1
1040
38.660586
1040
24.695795
1040
38.3823
1040
24.651139
1070
     1
1040
38.3823
1040
24.651139
1040
38.107283
1040
24.5883
1070
     1
1040
38.107283
1040
24.5883
1040
37.890593
1040
24.52408
1070
     1
1040
37.890593
1040
24.52408
1040
37.731586
1040
24.465697
1070
     1
1040
37.731586
1040
24.465697
1040
37.57691
1040
24.396625
1070
     1
1040
37.57691
1040
24.396625
1040
37.477006
1040
24.343979
1070
     1
1040
37.477006
1040
24.343979
1040
37.380067
1040
24.285863
1070
     1
1040
37.380067
1040
24.285863
1040
37.286613
1040
24.222306
1070
     1
1040
37.286613
1040
24.222306
1040
37.197165
1040
24.15334
1070
     1
1040
37.197165
1040
24.15334
1040
37.112243
1040
24.078995
1070
     1
1040
37.112243
1040
24.078995
1040
37.03232
1040
23.999414
1070
     1
1040
37.03232
1040
23.999414
1040
36.957469
1040
23.914974
1070
     1
1040
36.957469
1040
23.914974
1040
36.887723
1040
23.826164
1070
     1
1040
36.887723
1040
23.826164
1040
36.823113
1040
23.733469
1070
     1
1040
36.823113
1040
23.733469
1040
36.763669
1040
23.637375
1070
     1
1040
36.763669
1040
23.637375
1040
36.660491
1040
23.436489
1070
     1
1040
36.660491
1040
23.436489
1040
36.617061
1040
23.332299
1070
     1
1040
36.617061
1040
23.332299
1040
36.579257
1040
23.225943
1070
     1
1040
36.579257
1040
23.225943
1040
36.547222
1040
23.117674
1070
     1
1040
36.547222
1040
23.117674
1040
36.521104
1040
23.00779
1070
     1
1040
36.521104
1040
23.00779
1040
36.501051
1040
22.896613
1070
     1
1040
36.501051
1040
22.896613
1040
36.487223
1040
22.784512
1070
     1
1040
36.487223
1040
22.784512
1040
36.479778
1040
22.671856
1070
     1
1040
36.479778
1040
22.671856
1040
36.478876
1040
22.559014
1070
     1
1040
36.478876
1040
22.559014
1040
36.484758
1040
22.446072
1070
     1
1040
36.484758
1040
22.446072
1040
36.507303
1040
22.278243
1070
     1
1040
36.507303
1040
22.278243
1040
36.531842
1040
22.168363
1070
     1
1040
36.531842
1040
22.168363
1040
36.580661
1040
22.006354
1070
     1
1040
36.580661
1040
22.006354
1040
36.663176
1040
21.796051
1070
     1
1040
36.663176
1040
21.796051
1040
36.738102
1040
21.644243
1070
     1
1040
36.738102
1040
21.644243
1040
36.824876
1040
21.499285
1070
     1
1040
36.824876
1040
21.499285
1040
36.906565
1040
21.38422
1070
     1
1040
36.906565
1040
21.38422
1040
36.995075
1040
21.274114
1070
     1
1040
36.995075
1040
21.274114
1040
37.069976
1040
21.189232
1070
     1
1040
37.069976
1040
21.189232
1040
37.190906
1040
21.070408
1070
     1
1040
37.190906
1040
21.070408
1040
37.27814
1040
20.999373
1070
     1
1040
37.27814
1040
20.999373
1040
37.418207
1040
20.905115
1070
     1
1040
37.418207
1040
20.905115
1040
37.541992
1040
20.836757
1070
     1
1040
37.541992
1040
20.836757
1040
37.669631
1040
20.775673
1070
     1
1040
37.669631
1040
20.775673
1040
37.878008
1040
20.688457
1070
     1
1040
37.878008
1040
20.688457
1040
38.199606
1040
20.582881
1070
     1
1040
38.199606
1040
20.582881
1040
38.419015
1040
20.531338
1070
     1
1040
38.419015
1040
20.531338
1040
38.753153
1040
20.477838
1070
     1
1040
38.753153
1040
20.477838
1040
39.03388
1040
20.450243
1070
     1
1040
39.03388
1040
20.450243
1040
39.315482
1040
20.438162
1070
     1
1040
39.315482
1040
20.438162
1040
39.878324
1040
20.461635
1070
     1
1040
39.878324
1040
20.461635
1040
40.159192
1040
20.494468
1070
     1
1040
40.159192
1040
20.494468
1040
40.437804
1040
20.542235
1070
     1
1040
40.437804
1040
20.542235
1040
40.712118
1040
20.608344
1070
     1
1040
40.712118
1040
20.608344
1040
40.978222
1040
20.699934
1070
     1
1040
40.978222
1040
20.699934
1040
41.235564
1040
20.815324
1070
     1
1040
41.235564
1040
20.815324
1040
41.361299
1040
20.879186
1070
     1
1040
41.361299
1040
20.879186
1040
41.48298
1040
20.950245
1070
     1
1040
41.48298
1040
20.950245
1040
41.575618
1040
21.014782
1070
     1
1040
41.575618
1040
21.014782
1040
41.641621
1040
21.067895
1070
     1
1040
41.641621
1040
21.067895
1040
41.704176
1040
21.124947
1070
     1
1040
41.704176
1040
21.124947
1040
41.78171
1040
21.206815
1070
     1
1040
41.78171
1040
21.206815
1040
41.886125
1040
21.340089
1070
     1
1040
41.886125
1040
21.340089
1040
41.948068
1040
21.434593
1070
     1
1040
41.948068
1040
21.434593
1040
41.989546
1040
21.508386
1070
     1
1040
41.989546
1040
21.508386
1040
42.02581
1040
21.584828
1070
     1
1040
42.02581
1040
21.584828
1040
42.064953
1040
21.690806
1070
     1
1040
42.064953
1040
21.690806
1040
42.08735
1040
21.7726
1070
     1
1040
42.08735
1040
21.7726
1040
42.103873
1040
21.855644
1070
     1
1040
42.103873
1040
21.855644
1040
40.343023
1040
21.855644
1070
     1
1040
40.343023
1040
21.855644
1040
40.23476
1040
21.775139
1070
     1
1040
40.23476
1040
21.775139
1040
40.149342
1040
21.720655
1070
     1
1040
40.149342
1040
21.720655
1040
40.060776
1040
21.671433
1070
     1
1040
40.060776
1040
21.671433
1040
39.984758
1040
21.634773
1070
     1
1040
39.984758
1040
21.634773
1040
39.906576
1040
21.603307
1070
     1
1040
39.906576
1040
21.603307
1040
39.842277
1040
21.582635
1070
     1
1040
39.842277
1040
21.582635
1040
39.743651
1040
21.559088
1070
     1
1040
39.743651
1040
21.559088
1040
39.609337
1040
21.540536
1070
     1
1040
39.609337
1040
21.540536
1040
39.507639
1040
21.535656
1070
     1
1040
39.507639
1040
21.535656
1040
39.405809
1040
21.537981
1070
     1
1040
39.405809
1040
21.537981
1040
39.271392
1040
21.551496
1070
     1
1040
39.271392
1040
21.551496
1040
39.171681
1040
21.569188
1070
     1
1040
39.171681
1040
21.569188
1040
39.073329
1040
21.593186
1070
     1
1040
39.073329
1040
21.593186
1040
38.944884
1040
21.635037
1070
     1
1040
38.944884
1040
21.635037
1040
38.851395
1040
21.674301
1070
     1
1040
38.851395
1040
21.674301
1040
38.760981
1040
21.720846
1070
     1
1040
38.760981
1040
21.720846
1040
38.70284
1040
21.75614
1070
     1
1040
38.70284
1040
21.75614
1040
38.647077
1040
21.795104
1070
     1
1040
38.647077
1040
21.795104
1040
38.59445
1040
21.837967
1070
     1
1040
38.59445
1040
21.837967
1040
38.545719
1040
21.884956
1070
     1
1040
38.545719
1040
21.884956
1040
38.501642
1040
21.9363
1070
     1
1040
38.501642
1040
21.9363
1040
38.462877
1040
21.99205
1070
     1
1040
38.462877
1040
21.99205
1040
38.429669
1040
22.051562
1070
     1
1040
38.429669
1040
22.051562
1040
38.402161
1040
22.114013
1070
     1
1040
38.402161
1040
22.114013
1040
38.380498
1040
22.178581
1070
     1
1040
38.380498
1040
22.178581
1040
38.364823
1040
22.244444
1070
     1
1040
38.364823
1040
22.244444
1040
39.051073
1040
22.244444
1070
     1
1040
38.364823
1040
23.079194
1040
39.154123
1040
23.079194
1070
     1
1040
39.154123
1040
23.079194
1040
40.343023
1040
23.079194
1070
     1
1040
40.343023
1040
23.079194
1040
40.339099
1040
23.116416
1070
     1
1040
40.339099
1040
23.116416
1040
40.333002
1040
23.153431
1070
     1
1040
40.333002
1040
23.153431
1040
40.324692
1040
23.190049
1070
     1
1040
40.324692
1040
23.190049
1040
40.314132
1040
23.226078
1070
     1
1040
40.314132
1040
23.226078
1040
40.301285
1040
23.261329
1070
     1
1040
40.301285
1040
23.261329
1040
40.286156
1040
23.295606
1070
     1
1040
40.286156
1040
23.295606
1040
40.268864
1040
23.328846
1070
     1
1040
40.268864
1040
23.328846
1040
40.249567
1040
23.360982
1070
     1
1040
40.249567
1040
23.360982
1040
40.228425
1040
23.391944
1070
     1
1040
40.228425
1040
23.391944
1040
40.205595
1040
23.421664
1070
     1
1040
40.205595
1040
23.421664
1040
40.155158
1040
23.477534
1070
     1
1040
40.155158
1040
23.477534
1040
40.113888
1040
23.516059
1070
     1
1040
40.113888
1040
23.516059
1040
40.070149
1040
23.551768
1070
     1
1040
40.070149
1040
23.551768
1040
40.008897
1040
23.594936
1070
     1
1040
40.008897
1040
23.594936
1040
39.960894
1040
23.624144
1070
     1
1040
39.960894
1040
23.624144
1040
39.911351
1040
23.650643
1070
     1
1040
39.911351
1040
23.650643
1040
39.843213
1040
23.681802
1070
     1
1040
39.843213
1040
23.681802
1040
39.737463
1040
23.719811
1070
     1
1040
39.737463
1040
23.719811
1040
39.665034
1040
23.739546
1070
     1
1040
39.665034
1040
23.739546
1040
39.554475
1040
23.760807
1070
     1
1040
39.554475
1040
23.760807
1040
39.479582
1040
23.769534
1070
     1
1040
39.479582
1040
23.769534
1040
39.366678
1040
23.77477
1070
     1
1040
39.366678
1040
23.77477
1040
39.291229
1040
23.773226
1070
     1
1040
39.291229
1040
23.773226
1040
39.178244
1040
23.762802
1070
     1
1040
39.178244
1040
23.762802
1040
39.104388
1040
23.749824
1070
     1
1040
39.104388
1040
23.749824
1040
39.068085
1040
23.740847
1070
     1
1040
39.068085
1040
23.740847
1040
39.032514
1040
23.729811
1070
     1
1040
39.032514
1040
23.729811
1040
38.997912
1040
23.716418
1070
     1
1040
38.997912
1040
23.716418
1040
38.964344
1040
23.700508
1070
     1
1040
38.964344
1040
23.700508
1040
38.834843
1040
23.625681
1070
     1
1040
38.834843
1040
23.625681
1040
38.671594
1040
23.535581
1070
     1
1040
38.671594
1040
23.535581
1040
38.640976
1040
23.51416
1070
     1
1040
38.640976
1040
23.51416
1040
38.611625
1040
23.49088
1070
     1
1040
38.611625
1040
23.49088
1040
38.583591
1040
23.465911
1070
     1
1040
38.583591
1040
23.465911
1040
38.531681
1040
23.41159
1070
     1
1040
38.531681
1040
23.41159
1040
38.485341
1040
23.352025
1070
     1
1040
38.485341
1040
23.352025
1040
38.454621
1040
23.304551
1070
     1
1040
38.454621
1040
23.304551
1040
38.427457
1040
23.254932
1070
     1
1040
38.427457
1040
23.254932
1040
38.3972
1040
23.186473
1070
     1
1040
38.3972
1040
23.186473
1040
38.37898
1040
23.133395
1070
     1
1040
38.37898
1040
23.133395
1040
38.364823
1040
23.079194
1071
        0
1070
     0
1070
     1
1040
0.0
1040
0.062992
1070
     0
1070
     1
1040
0.785398
1040
-6.22517
1040
-28.624349
1040
-0.141421
1040
0.141421
1070
     0
1071
        1
1040
-6.22517
1040
-28.624349
1040
0.0
1002
}
  0
INSERT
  5
8F
100
AcDbEntity
  8
CARTOUCHE
  6
CONTINUOUS
 62
     4
100
AcDbBlockReference
  2
*X14
 10
0.0
 20
0.0
 30
0.0
1001
ACAD
1000
HATCH
1002
{
1070
    19
1000
ANSI31
1040
0.062992
1040
0.0
1000
R14_HATCH_DATA
1000
8F
1011
1.0
1021
0.0
1031
0.0
1011
0.0
1021
1.0
1031
0.0
1011
0.0
1021
0.0
1031
1.0
1040
0.0
1010
0.0
1020
0.0
1030
1.0
1000
ANSI31
1070
     0
1070
     0
1071
        1
1071
        1
1071
       78
1070
     1
1040
42.732973
1040
24.508394
1040
42.732973
1040
20.632094
1070
     1
1040
42.732973
1040
20.632094
1040
44.459623
1040
20.632094
1070
     1
1040
44.459623
1040
20.632094
1040
44.459623
1040
22.782194
1070
     1
1040
44.459623
1040
22.782194
1040
44.463488
1040
22.825563
1070
     1
1040
44.463488
1040
22.825563
1040
44.470946
1040
22.868586
1070
     1
1040
44.470946
1040
22.868586
1040
44.481879
1040
22.910991
1070
     1
1040
44.481879
1040
22.910991
1040
44.496172
1040
22.952504
1070
     1
1040
44.496172
1040
22.952504
1040
44.513707
1040
22.992851
1070
     1
1040
44.513707
1040
22.992851
1040
44.534386
1040
23.031755
1070
     1
1040
44.534386
1040
23.031755
1040
44.558122
1040
23.068814
1070
     1
1040
44.558122
1040
23.068814
1040
44.584841
1040
23.103624
1070
     1
1040
44.584841
1040
23.103624
1040
44.614473
1040
23.13578
1070
     1
1040
44.614473
1040
23.13578
1040
44.646943
1040
23.164878
1070
     1
1040
44.646943
1040
23.164878
1040
44.682109
1040
23.190587
1070
     1
1040
44.682109
1040
23.190587
1040
44.719626
1040
23.212933
1070
     1
1040
44.719626
1040
23.212933
1040
44.759083
1040
23.232012
1070
     1
1040
44.759083
1040
23.232012
1040
44.800067
1040
23.24792
1070
     1
1040
44.800067
1040
23.24792
1040
44.842166
1040
23.260755
1070
     1
1040
44.842166
1040
23.260755
1040
44.885455
1040
23.270655
1070
     1
1040
44.885455
1040
23.270655
1040
44.929241
1040
23.277344
1070
     1
1040
44.929241
1040
23.277344
1040
44.973307
1040
23.280649
1070
     1
1040
44.973307
1040
23.280649
1040
45.017433
1040
23.280401
1070
     1
1040
45.017433
1040
23.280401
1040
45.061399
1040
23.276428
1070
     1
1040
45.061399
1040
23.276428
1040
45.104319
1040
23.268736
1070
     1
1040
45.104319
1040
23.268736
1040
45.146471
1040
23.257294
1070
     1
1040
45.146471
1040
23.257294
1040
45.187456
1040
23.242136
1070
     1
1040
45.187456
1040
23.242136
1040
45.226873
1040
23.223293
1070
     1
1040
45.226873
1040
23.223293
1040
45.264321
1040
23.200797
1070
     1
1040
45.264321
1040
23.200797
1040
45.299504
1040
23.174642
1070
     1
1040
45.299504
1040
23.174642
1040
45.331947
1040
23.145119
1070
     1
1040
45.331947
1040
23.145119
1040
45.361291
1040
23.112499
1070
     1
1040
45.361291
1040
23.112499
1040
45.387181
1040
23.077054
1070
     1
1040
45.387181
1040
23.077054
1040
45.409257
1040
23.039056
1070
     1
1040
45.409257
1040
23.039056
1040
45.427129
1040
22.999011
1070
     1
1040
45.427129
1040
22.999011
1040
45.440732
1040
22.957277
1070
     1
1040
45.440732
1040
22.957277
1040
45.44993
1040
22.914423
1070
     1
1040
45.44993
1040
22.914423
1040
45.454589
1040
22.871022
1070
     1
1040
45.454589
1040
22.871022
1040
45.455174
1040
22.849294
1070
     1
1040
45.455174
1040
22.849294
1040
45.454573
1040
22.827644
1070
     1
1040
45.454573
1040
22.827644
1040
45.454573
1040
22.587794
1070
     1
1040
45.454573
1040
22.587794
1040
47.283823
1040
22.587794
1070
     1
1040
47.283823
1040
22.587794
1040
47.30048
1040
22.741901
1070
     1
1040
47.30048
1040
22.741901
1040
47.308034
1040
22.896764
1070
     1
1040
47.308034
1040
22.896764
1040
47.306223
1040
23.051921
1070
     1
1040
47.306223
1040
23.051921
1040
47.295648
1040
23.206716
1070
     1
1040
47.295648
1040
23.206716
1040
47.276908
1040
23.360972
1070
     1
1040
47.276908
1040
23.360972
1040
47.2499
1040
23.514097
1070
     1
1040
47.2499
1040
23.514097
1040
47.221874
1040
23.635072
1070
     1
1040
47.221874
1040
23.635072
1040
47.19592
1040
23.724445
1070
     1
1040
47.19592
1040
23.724445
1040
47.16468
1040
23.812049
1070
     1
1040
47.16468
1040
23.812049
1040
47.113499
1040
23.92525
1070
     1
1040
47.113499
1040
23.92525
1040
47.067867
1040
24.006615
1070
     1
1040
47.067867
1040
24.006615
1040
47.016057
1040
24.0843
1070
     1
1040
47.016057
1040
24.0843
1040
46.978018
1040
24.133848
1070
     1
1040
46.978018
1040
24.133848
1040
46.937287
1040
24.181208
1070
     1
1040
46.937287
1040
24.181208
1040
46.893917
1040
24.226097
1070
     1
1040
46.893917
1040
24.226097
1040
46.847963
1040
24.26823
1070
     1
1040
46.847963
1040
24.26823
1040
46.799476
1040
24.307326
1070
     1
1040
46.799476
1040
24.307326
1040
46.748847
1040
24.342981
1070
     1
1040
46.748847
1040
24.342981
1040
46.696087
1040
24.375497
1070
     1
1040
46.696087
1040
24.375497
1040
46.613657
1040
24.418703
1070
     1
1040
46.613657
1040
24.418703
1040
46.528242
1040
24.455664
1070
     1
1040
46.528242
1040
24.455664
1040
46.410285
1040
24.496534
1070
     1
1040
46.410285
1040
24.496534
1040
46.22888
1040
24.542872
1070
     1
1040
46.22888
1040
24.542872
1040
46.106971
1040
24.566075
1070
     1
1040
46.106971
1040
24.566075
1040
45.922386
1040
24.587821
1070
     1
1040
45.922386
1040
24.587821
1040
45.798504
1040
24.591816
1070
     1
1040
45.798504
1040
24.591816
1040
45.612568
1040
24.583703
1070
     1
1040
45.612568
1040
24.583703
1040
45.457926
1040
24.566274
1070
     1
1040
45.457926
1040
24.566274
1040
45.304716
1040
24.539482
1070
     1
1040
45.304716
1040
24.539482
1040
45.183805
1040
24.511135
1070
     1
1040
45.183805
1040
24.511135
1040
45.005799
1040
24.45603
1070
     1
1040
45.005799
1040
24.45603
1040
44.890434
1040
24.410518
1070
     1
1040
44.890434
1040
24.410518
1040
44.777817
1040
24.358198
1070
     1
1040
44.777817
1040
24.358198
1040
44.668264
1040
24.29958
1070
     1
1040
44.668264
1040
24.29958
1040
44.459623
1040
24.165494
1070
     1
1040
44.459623
1040
24.165494
1040
44.459623
1040
24.508394
1070
     1
1040
44.459623
1040
24.508394
1040
42.732973
1040
24.508394
1071
        0
1070
     0
1070
     1
1040
0.0
1040
0.062992
1070
     0
1070
     1
1040
0.785398
1040
-6.22517
1040
-28.624349
1040
-0.141421
1040
0.141421
1070
     0
1071
        1
1040
-6.22517
1040
-28.624349
1040
0.0
1002
}
  0
LINE
  5
90
100
AcDbEntity
  8
CARTOUCHE
  6
CONTINUOUS
 62
     7
100
AcDbLine
 10
205.000037
 20
36.845156
 30
0.0
 11
5.0
 21
36.845462
 31
0.0
  0
LINE
  5
91
100
AcDbEntity
  8
CARTOUCHE
  6
CONTINUOUS
 62
     7
100
AcDbLine
 10
153.33333
 20
20.002887
 30
0.0
 11
153.33333
 21
10.000945
 31
0.0
  0
TEXT
  5
94
100
AcDbEntity
  8
CARTOUCHE
  6
CONTINUOUS
 62
     2
100
AcDbText
 10
16.190942
 20
14.308782
 30
0.0
 40
1.8
  1
www.findernet.com
 50
359.999908
 41
1.05
  7
FINDER
 72
     1
 11
27.500001
 21
14.308764
 31
0.0
100
AcDbText
  0
POLYLINE
  5
9B
100
AcDbEntity
  8
CARTOUCHE
  6
CONTINUOUS
 62
     7
100
AcDb2dPolyline
 66
     1
 10
0.0
 20
0.0
 30
0.0
 70
   129
  0
VERTEX
  5
2BAA
100
AcDbEntity
  8
CARTOUCHE
  6
CONTINUOUS
 62
     7
100
AcDbVertex
100
AcDb2dVertex
 10
205.000037
 20
292.000183
 30
0.0
  0
VERTEX
  5
2BAB
100
AcDbEntity
  8
CARTOUCHE
  6
CONTINUOUS
 62
     7
100
AcDbVertex
100
AcDb2dVertex
 10
205.000037
 20
5.000183
 30
0.0
  0
VERTEX
  5
2BAC
100
AcDbEntity
  8
CARTOUCHE
  6
CONTINUOUS
 62
     7
100
AcDbVertex
100
AcDb2dVertex
 10
5.0
 20
5.0
 30
0.0
  0
VERTEX
  5
2BAD
100
AcDbEntity
  8
CARTOUCHE
  6
CONTINUOUS
 62
     7
100
AcDbVertex
100
AcDb2dVertex
 10
5.0
 20
292.0
 30
0.0
  0
VERTEX
  5
2BAE
100
AcDbEntity
  8
CARTOUCHE
  6
CONTINUOUS
 62
     7
100
AcDbVertex
100
AcDb2dVertex
 10
204.999774
 20
292.000183
 30
0.0
  0
SEQEND
  5
2BAF
100
AcDbEntity
  8
CARTOUCHE
  6
CONTINUOUS
 62
     7
  0
TEXT
  5
AA
100
AcDbEntity
  8
CARTOUCHE
  6
CONTINUOUS
 62
     7
100
AcDbText
 10
124.919567
 20
16.624226
 30
0.0
 40
1.8
  1
DATE
 50
359.999908
 41
0.8
  7
FINDER
 72
     1
 11
127.499977
 21
16.624222
 31
0.0
100
AcDbText
  0
TEXT
  5
AB
100
AcDbEntity
  8
CARTOUCHE
  6
CONTINUOUS
 62
     1
100
AcDbText
 10
121.646907
 20
11.776208
 30
0.0
 40
2.1
  1
01/01/2001
 50
359.999908
 41
0.8
  7
FINDER
 72
     1
 11
127.499977
 21
11.776199
 31
0.0
100
AcDbText
  0
TEXT
  5
AC
100
AcDbEntity
  8
CARTOUCHE
  6
CONTINUOUS
 62
     7
100
AcDbText
 10
175.87705
 20
16.624148
 30
0.0
 40
1.8
  1
SCALE
 50
359.999908
 41
0.8
  7
FINDER
 72
     1
 11
179.166655
 21
16.624143
 31
0.0
100
AcDbText
  0
TEXT
  5
AD
100
AcDbEntity
  8
CARTOUCHE
  6
CONTINUOUS
 62
     1
100
AcDbText
 10
177.623026
 20
11.776122
 30
0.0
 40
2.1
  1
1:1
 50
359.999908
 41
0.8
  7
FINDER
 72
     1
 11
179.166655
 21
11.77612
 31
0.0
100
AcDbText
  0
TEXT
  5
AE
100
AcDbEntity
  8
CARTOUCHE
  6
CONTINUOUS
 62
     1
100
AcDbText
 10
123.895898
 20
22.43596
 30
0.0
 40
3.0
  1
1171
 50
359.999908
 41
0.8
  7
FINDER
 72
     1
 11
127.499991
 21
22.435954
 31
0.0
100
AcDbText
  0
LINE
  5
2568
100
AcDbEntity
  8
DRAW
  6
CONTINUOUS
100
AcDbLine
 10
68.579495
 20
152.095133
 30
0.0
 11
68.579495
 21
191.904867
 31
0.0
  0
LINE
  5
2569
100
AcDbEntity
  8
DRAW
  6
CONTINUOUS
100
AcDbLine
 10
33.857213
 20
152.095133
 30
0.0
 11
33.857213
 21
191.904867
 31
0.0
  0
LINE
  5
256A
100
AcDbEntity
  8
DRAW
  6
CONTINUOUS
100
AcDbLine
 10
34.047206
 20
152.095133
 30
0.0
 11
34.047206
 21
191.904867
 31
0.0
  0
LINE
  5
256B
100
AcDbEntity
  8
DRAW
  6
CONTINUOUS
100
AcDbLine
 10
68.389502
 20
152.095133
 30
0.0
 11
68.389502
 21
191.904867
 31
0.0
  0
LINE
  5
256C
100
AcDbEntity
  8
DRAW
  6
CONTINUOUS
100
AcDbLine
 10
68.718354
 20
143.0
 30
0.0
 11
68.718354
 21
201.0
 31
0.0
  0
LINE
  5
256D
100
AcDbEntity
  8
DRAW
  6
CONTINUOUS
100
AcDbLine
 10
33.718354
 20
131.2
 30
0.0
 11
33.718354
 21
201.000002
 31
0.0
  0
LINE
  5
256E
100
AcDbEntity
  8
DRAW
  6
CONTINUOUS
100
AcDbLine
 10
67.17785
 20
152.096868
 30
0.0
 11
67.17785
 21
191.903132
 31
0.0
  0
LINE
  5
256F
100
AcDbEntity
  8
DRAW
  6
CONTINUOUS
100
AcDbLine
 10
68.37785
 20
152.096868
 30
0.0
 11
68.37785
 21
191.903132
 31
0.0
  0
LINE
  5
2570
100
AcDbEntity
  8
DRAW
  6
CONTINUOUS
100
AcDbLine
 10
67.37785
 20
152.096868
 30
0.0
 11
67.37785
 21
191.903132
 31
0.0
  0
LINE
  5
2571
100
AcDbEntity
  8
DRAW
  6
CONTINUOUS
100
AcDbLine
 10
35.258856
 20
191.903132
 30
0.0
 11
35.258856
 21
152.096868
 31
0.0
  0
LINE
  5
2572
100
AcDbEntity
  8
DRAW
  6
CONTINUOUS
100
AcDbLine
 10
34.058856
 20
191.903132
 30
0.0
 11
34.058856
 21
152.096868
 31
0.0
  0
LINE
  5
2573
100
AcDbEntity
  8
DRAW
  6
CONTINUOUS
100
AcDbLine
 10
35.058856
 20
191.903132
 30
0.0
 11
35.058856
 21
152.096868
 31
0.0
  0
LINE
  5
2574
100
AcDbEntity
  8
DRAW
  6
CONTINUOUS
100
AcDbLine
 10
68.718409
 20
142.999998
 30
0.0
 11
68.718409
 21
201.0
 31
0.0
  0
LINE
  5
2575
100
AcDbEntity
  8
DRAW
  6
CONTINUOUS
100
AcDbLine
 10
36.257122
 20
149.695225
 30
0.0
 11
66.179586
 21
149.695225
 31
0.0
  0
LINE
  5
2576
100
AcDbEntity
  8
DRAW
  6
CONTINUOUS
100
AcDbLine
 10
36.257122
 20
149.885217
 30
0.0
 11
66.179586
 21
149.885217
 31
0.0
  0
CIRCLE
  5
2577
100
AcDbEntity
  8
DRAW
  6
CONTINUOUS
100
AcDbCircle
 10
55.468354
 20
138.5
 30
0.0
 40
2.2
  0
LINE
  5
2578
100
AcDbEntity
  8
DRAW
  6
CONTINUOUS
100
AcDbLine
 10
34.951562
 20
131.233208
 30
0.0
 11
67.485146
 21
131.233208
 31
0.0
  0
LINE
  5
2579
100
AcDbEntity
  8
DRAW
  6
CONTINUOUS
100
AcDbLine
 10
34.951562
 20
130.033254
 30
0.0
 11
67.485146
 21
130.033254
 31
0.0
  0
LINE
  5
257A
100
AcDbEntity
  8
DRAW
  6
CONTINUOUS
100
AcDbLine
 10
51.448948
 20
130.0
 30
0.0
 11
58.554403
 21
130.0
 31
0.0
  0
LINE
  5
257B
100
AcDbEntity
  8
DRAW
  6
CONTINUOUS
100
AcDbLine
 10
37.418354
 20
141.0
 30
0.0
 11
65.018354
 21
141.0
 31
0.0
  0
LINE
  5
257C
100
AcDbEntity
  8
DRAW
  6
CONTINUOUS
100
AcDbLine
 10
37.418354
 20
142.0
 30
0.0
 11
65.018354
 21
142.0
 31
0.0
  0
LINE
  5
257D
100
AcDbEntity
  8
DRAW
  6
CONTINUOUS
100
AcDbLine
 10
36.418354
 20
149.610472
 30
0.0
 11
66.018354
 21
149.610472
 31
0.0
  0
LINE
  5
257E
100
AcDbEntity
  8
DRAW
  6
CONTINUOUS
100
AcDbLine
 10
37.418354
 20
142.2
 30
0.0
 11
65.018354
 21
142.2
 31
0.0
  0
LINE
  5
257F
100
AcDbEntity
  8
DRAW
  6
CONTINUOUS
100
AcDbLine
 10
36.258856
 20
151.096868
 30
0.0
 11
66.17785
 21
151.096868
 31
0.0
  0
LINE
  5
2580
100
AcDbEntity
  8
DRAW
  6
CONTINUOUS
100
AcDbLine
 10
36.258856
 20
149.896868
 30
0.0
 11
66.17785
 21
149.896868
 31
0.0
  0
LINE
  5
2581
100
AcDbEntity
  8
DRAW
  6
CONTINUOUS
100
AcDbLine
 10
36.258856
 20
150.896868
 30
0.0
 11
66.17785
 21
150.896868
 31
0.0
  0
CIRCLE
  5
2583
100
AcDbEntity
  8
DRAW
  6
CONTINUOUS
100
AcDbCircle
 10
40.468354
 20
138.5
 30
0.0
 40
2.2
  0
LINE
  5
2584
100
AcDbEntity
  8
DRAW
  6
CONTINUOUS
100
AcDbLine
 10
36.448946
 20
130.0
 30
0.0
 11
43.554401
 21
130.0
 31
0.0
  0
LINE
  5
2585
100
AcDbEntity
  8
DRAW
  6
CONTINUOUS
100
AcDbLine
 10
34.951562
 20
131.233208
 30
0.0
 11
34.951562
 21
149.927541
 31
0.0
  0
LINE
  5
2586
100
AcDbEntity
  8
DRAW
  6
CONTINUOUS
100
AcDbLine
 10
33.751608
 20
131.233208
 30
0.0
 11
33.751608
 21
151.989528
 31
0.0
  0
ARC
  5
2587
100
AcDbEntity
  8
DRAW
  6
CONTINUOUS
100
AcDbCircle
 10
37.418354
 20
143.2
 30
0.0
 40
2.2
100
AcDbArc
 50
180.0
 51
270.0
  0
ARC
  5
2588
100
AcDbEntity
  8
DRAW
  6
CONTINUOUS
100
AcDbCircle
 10
37.418354
 20
143.2
 30
0.0
 40
1.2
100
AcDbArc
 50
180.0
 51
270.0
  0
ARC
  5
2589
100
AcDbEntity
  8
DRAW
  6
CONTINUOUS
100
AcDbCircle
 10
37.418354
 20
143.2
 30
0.0
 40
1.0
100
AcDbArc
 50
180.0
 51
270.0
  0
ARC
  5
258A
100
AcDbEntity
  8
DRAW
  6
CONTINUOUS
100
AcDbCircle
 10
34.918411
 20
131.2
 30
0.0
 40
1.2
100
AcDbArc
 50
180.0
 51
270.0
  0
ARC
  5
258B
100
AcDbEntity
  8
DRAW
  6
CONTINUOUS
100
AcDbCircle
 10
34.91829
 20
131.199936
 30
0.0
 40
1.199935
100
AcDbArc
 50
179.999096
 51
270.000904
  0
ARC
  5
258C
100
AcDbEntity
  8
DRAW
  6
CONTINUOUS
100
AcDbCircle
 10
34.951672
 20
131.233318
 30
0.0
 40
1.200065
100
AcDbArc
 50
180.005267
 51
269.994733
  0
LINE
  5
258D
100
AcDbEntity
  8
DRAW
  6
CONTINUOUS
100
AcDbLine
 10
34.951562
 20
131.233208
 30
0.0
 11
33.751608
 21
131.233208
 31
0.0
  0
LINE
  5
258E
100
AcDbEntity
  8
DRAW
  6
CONTINUOUS
100
AcDbLine
 10
33.718354
 20
131.199954
 30
0.0
 11
33.751608
 21
131.233208
 31
0.0
  0
LINE
  5
258F
100
AcDbEntity
  8
DRAW
  6
CONTINUOUS
100
AcDbLine
 10
34.951562
 20
131.233208
 30
0.0
 11
34.951562
 21
130.033254
 31
0.0
  0
LINE
  5
2590
100
AcDbEntity
  8
DRAW
  6
CONTINUOUS
100
AcDbLine
 10
34.918411
 20
130.0
 30
0.0
 11
36.448946
 21
130.0
 31
0.0
  0
LINE
  5
2591
100
AcDbEntity
  8
DRAW
  6
CONTINUOUS
100
AcDbLine
 10
34.918308
 20
130.0
 30
0.0
 11
34.951562
 21
130.033254
 31
0.0
  0
LINE
  5
2592
100
AcDbEntity
  8
DRAW
  6
CONTINUOUS
100
AcDbLine
 10
37.418354
 20
142.2
 30
0.0
 11
37.418354
 21
142.0
 31
0.0
  0
LINE
  5
2593
100
AcDbEntity
  8
DRAW
  6
CONTINUOUS
100
AcDbLine
 10
37.418354
 20
141.0
 30
0.0
 11
37.418354
 21
142.0
 31
0.0
  0
ARC
  5
2594
100
AcDbEntity
  8
DRAW
  6
CONTINUOUS
100
AcDbCircle
 10
36.257132
 20
152.095143
 30
0.0
 40
2.399918
100
AcDbArc
 50
180.000232
 51
269.999768
  0
ARC
  5
2595
100
AcDbEntity
  8
DRAW
  6
CONTINUOUS
100
AcDbCircle
 10
36.257112
 20
152.095124
 30
0.0
 40
2.209906
100
AcDbArc
 50
179.999743
 51
270.000257
  0
ARC
  5
2596
100
AcDbEntity
  8
DRAW
  6
CONTINUOUS
100
AcDbCircle
 10
36.160126
 20
152.010998
 30
0.0
 40
2.408614
100
AcDbArc
 50
180.51073
 51
239.883005
  0
ARC
  5
2597
100
AcDbEntity
  8
DRAW
  6
CONTINUOUS
100
AcDbCircle
 10
36.258856
 20
152.096868
 30
0.0
 40
2.2
100
AcDbArc
 50
180.0
 51
270.0
  0
LINE
  5
2598
100
AcDbEntity
  8
DRAW
  6
CONTINUOUS
100
AcDbLine
 10
34.058856
 20
152.096868
 30
0.0
 11
35.058856
 21
152.096868
 31
0.0
  0
LINE
  5
2599
100
AcDbEntity
  8
DRAW
  6
CONTINUOUS
100
AcDbLine
 10
34.047206
 20
152.095133
 30
0.0
 11
33.857213
 21
152.095133
 31
0.0
  0
LINE
  5
259A
100
AcDbEntity
  8
DRAW
  6
CONTINUOUS
100
AcDbLine
 10
33.857213
 20
152.095133
 30
0.0
 11
33.751608
 21
151.989528
 31
0.0
  0
LINE
  5
259B
100
AcDbEntity
  8
DRAW
  6
CONTINUOUS
100
AcDbLine
 10
36.258856
 20
149.896868
 30
0.0
 11
36.258856
 21
150.896868
 31
0.0
  0
LINE
  5
259C
100
AcDbEntity
  8
DRAW
  6
CONTINUOUS
100
AcDbLine
 10
35.218354
 20
149.793253
 30
0.0
 11
35.218354
 21
143.2
 31
0.0
  0
LINE
  5
259D
100
AcDbEntity
  8
DRAW
  6
CONTINUOUS
100
AcDbLine
 10
36.418354
 20
149.610472
 30
0.0
 11
36.418354
 21
143.2
 31
0.0
  0
LINE
  5
259E
100
AcDbEntity
  8
DRAW
  6
CONTINUOUS
100
AcDbLine
 10
36.218354
 20
149.608727
 30
0.0
 11
36.218354
 21
143.2
 31
0.0
  0
LINE
  5
259F
100
AcDbEntity
  8
DRAW
  6
CONTINUOUS
100
AcDbLine
 10
35.218354
 20
143.2
 30
0.0
 11
36.218354
 21
143.2
 31
0.0
  0
LINE
  5
25A0
100
AcDbEntity
  8
DRAW
  6
CONTINUOUS
100
AcDbLine
 10
36.218354
 20
143.2
 30
0.0
 11
36.418354
 21
143.2
 31
0.0
  0
LINE
  5
25A1
100
AcDbEntity
  8
DRAW
  6
CONTINUOUS
100
AcDbLine
 10
36.167887
 20
149.60599
 30
0.0
 11
36.257122
 21
149.695225
 31
0.0
  0
LINE
  5
25A2
100
AcDbEntity
  8
DRAW
  6
CONTINUOUS
100
AcDbLine
 10
36.218354
 20
149.608727
 30
0.0
 11
36.167887
 21
149.60599
 31
0.0
  0
ARC
  5
25A3
100
AcDbEntity
  8
DRAW
  6
CONTINUOUS
100
AcDbCircle
 10
36.161851
 20
151.999878
 30
0.0
 40
2.399872
100
AcDbArc
 50
239.714169
 51
246.849684
  0
ARC
  5
25A4
100
AcDbEntity
  8
DRAW
  6
CONTINUOUS
100
AcDbCircle
 10
36.129596
 20
151.912804
 30
0.0
 40
2.307132
100
AcDbArc
 50
246.736072
 51
270.950973
  0
LINE
  5
25A5
100
AcDbEntity
  8
DRAW
  6
CONTINUOUS
100
AcDbLine
 10
36.257122
 20
149.885217
 30
0.0
 11
36.257122
 21
149.695225
 31
0.0
  0
LINE
  5
25A6
100
AcDbEntity
  8
DRAW
  6
CONTINUOUS
100
AcDbLine
 10
36.418354
 20
149.610472
 30
0.0
 11
36.218354
 21
149.608727
 31
0.0
  0
ARC
  5
25A7
100
AcDbEntity
  8
DRAW
  6
CONTINUOUS
100
AcDbCircle
 10
36.258856
 20
152.096868
 30
0.0
 40
1.0
100
AcDbArc
 50
180.0
 51
270.0
  0
ARC
  5
25A8
100
AcDbEntity
  8
DRAW
  6
CONTINUOUS
100
AcDbCircle
 10
36.258856
 20
152.096868
 30
0.0
 40
1.2
100
AcDbArc
 50
180.0
 51
270.0
  0
LINE
  5
25A9
100
AcDbEntity
  8
DRAW
  6
CONTINUOUS
100
AcDbLine
 10
35.058856
 20
152.096868
 30
0.0
 11
35.258856
 21
152.096868
 31
0.0
  0
LINE
  5
25AA
100
AcDbEntity
  8
DRAW
  6
CONTINUOUS
100
AcDbLine
 10
36.258856
 20
151.096868
 30
0.0
 11
36.258856
 21
150.896868
 31
0.0
  0
LINE
  5
25AB
100
AcDbEntity
  8
DRAW
  6
CONTINUOUS
100
AcDbLine
 10
43.882419
 20
130.0
 30
0.0
 11
50.987875
 21
130.0
 31
0.0
  0
LINE
  5
25AC
100
AcDbEntity
  8
DRAW
  6
CONTINUOUS
100
AcDbLine
 10
43.554401
 20
130.0
 30
0.0
 11
43.882419
 21
130.0
 31
0.0
  0
LINE
  5
25AD
100
AcDbEntity
  8
DRAW
  6
CONTINUOUS
100
AcDbLine
 10
43.554401
 20
130.0
 30
0.0
 11
43.882419
 21
130.0
 31
0.0
  0
CIRCLE
  5
25AF
100
AcDbEntity
  8
DRAW
  6
CONTINUOUS
100
AcDbCircle
 10
46.968355
 20
138.5
 30
0.0
 40
2.2
  0
LINE
  5
25B0
100
AcDbEntity
  8
DRAW
  6
CONTINUOUS
100
AcDbLine
 10
50.987875
 20
130.0
 30
0.0
 11
51.448948
 21
130.0
 31
0.0
  0
LINE
  5
25B1
100
AcDbEntity
  8
DRAW
  6
CONTINUOUS
100
AcDbLine
 10
50.987875
 20
130.0
 30
0.0
 11
51.448948
 21
130.0
 31
0.0
  0
LINE
  5
25B3
100
AcDbEntity
  8
DRAW
  6
CONTINUOUS
100
AcDbLine
 10
68.718411
 20
143.0
 30
0.0
 11
68.718411
 21
131.2
 31
0.0
  0
LINE
  5
25B4
100
AcDbEntity
  8
DRAW
  6
CONTINUOUS
100
AcDbLine
 10
67.485146
 20
131.233208
 30
0.0
 11
67.485146
 21
149.927541
 31
0.0
  0
LINE
  5
25B5
100
AcDbEntity
  8
DRAW
  6
CONTINUOUS
100
AcDbLine
 10
68.685101
 20
131.233208
 30
0.0
 11
68.685101
 21
151.989528
 31
0.0
  0
ARC
  5
25B6
100
AcDbEntity
  8
DRAW
  6
CONTINUOUS
100
AcDbCircle
 10
65.018354
 20
143.2
 30
0.0
 40
1.2
100
AcDbArc
 50
270.0
 51
0.0
  0
ARC
  5
25B7
100
AcDbEntity
  8
DRAW
  6
CONTINUOUS
100
AcDbCircle
 10
65.018354
 20
143.2
 30
0.0
 40
2.2
100
AcDbArc
 50
270.0
 51
0.0
  0
ARC
  5
25B8
100
AcDbEntity
  8
DRAW
  6
CONTINUOUS
100
AcDbCircle
 10
65.018354
 20
143.2
 30
0.0
 40
1.0
100
AcDbArc
 50
270.0
 51
0.0
  0
LINE
  5
25B9
100
AcDbEntity
  8
DRAW
  6
CONTINUOUS
100
AcDbLine
 10
58.882421
 20
130.0
 30
0.0
 11
65.987877
 21
130.0
 31
0.0
  0
LINE
  5
25BA
100
AcDbEntity
  8
DRAW
  6
CONTINUOUS
100
AcDbLine
 10
58.554403
 20
130.0
 30
0.0
 11
58.882421
 21
130.0
 31
0.0
  0
LINE
  5
25BB
100
AcDbEntity
  8
DRAW
  6
CONTINUOUS
100
AcDbLine
 10
58.554403
 20
130.0
 30
0.0
 11
58.882421
 21
130.0
 31
0.0
  0
POINT
  5
25BC
100
AcDbEntity
  8
DRAW
  6
BYBLOCK
100
AcDbPoint
 10
62.435149
 20
130.0
 30
0.0
  0
CIRCLE
  5
25BE
100
AcDbEntity
  8
DRAW
  6
CONTINUOUS
100
AcDbCircle
 10
61.968354
 20
138.5
 30
0.0
 40
2.2
  0
LINE
  5
25BF
100
AcDbEntity
  8
DRAW
  6
CONTINUOUS
100
AcDbLine
 10
65.018354
 20
142.0
 30
0.0
 11
65.018354
 21
142.2
 31
0.0
  0
LINE
  5
25C0
100
AcDbEntity
  8
DRAW
  6
CONTINUOUS
100
AcDbLine
 10
65.018354
 20
141.0
 30
0.0
 11
65.018354
 21
142.0
 31
0.0
  0
ARC
  5
25C1
100
AcDbEntity
  8
DRAW
  6
CONTINUOUS
100
AcDbCircle
 10
67.518411
 20
131.2
 30
0.0
 40
1.2
100
AcDbArc
 50
270.0
 51
0.0
  0
LINE
  5
25C2
100
AcDbEntity
  8
DRAW
  6
CONTINUOUS
100
AcDbLine
 10
67.485146
 20
131.233208
 30
0.0
 11
67.485146
 21
130.033254
 31
0.0
  0
ARC
  5
25C3
100
AcDbEntity
  8
DRAW
  6
CONTINUOUS
100
AcDbCircle
 10
67.485036
 20
131.233318
 30
0.0
 40
1.200065
100
AcDbArc
 50
270.005267
 51
359.994733
  0
ARC
  5
25C4
100
AcDbEntity
  8
DRAW
  6
CONTINUOUS
100
AcDbCircle
 10
67.518419
 20
131.199936
 30
0.0
 40
1.199935
100
AcDbArc
 50
269.999096
 51
0.000904
  0
LINE
  5
25C5
100
AcDbEntity
  8
DRAW
  6
CONTINUOUS
100
AcDbLine
 10
65.987877
 20
130.0
 30
0.0
 11
67.518411
 21
130.0
 31
0.0
  0
LINE
  5
25C6
100
AcDbEntity
  8
DRAW
  6
CONTINUOUS
100
AcDbLine
 10
67.5184
 20
130.0
 30
0.0
 11
67.485146
 21
130.033254
 31
0.0
  0
LINE
  5
25C7
100
AcDbEntity
  8
DRAW
  6
CONTINUOUS
100
AcDbLine
 10
67.485146
 20
131.233208
 30
0.0
 11
68.685101
 21
131.233208
 31
0.0
  0
LINE
  5
25C8
100
AcDbEntity
  8
DRAW
  6
CONTINUOUS
100
AcDbLine
 10
68.718354
 20
131.199954
 30
0.0
 11
68.685101
 21
131.233208
 31
0.0
  0
ARC
  5
25C9
100
AcDbEntity
  8
DRAW
  6
CONTINUOUS
100
AcDbCircle
 10
66.179577
 20
152.095143
 30
0.0
 40
2.399918
100
AcDbArc
 50
270.000232
 51
359.999768
  0
ARC
  5
25CA
100
AcDbEntity
  8
DRAW
  6
CONTINUOUS
100
AcDbCircle
 10
66.179596
 20
152.095124
 30
0.0
 40
2.209906
100
AcDbArc
 50
269.999743
 51
0.000257
  0
ARC
  5
25CB
100
AcDbEntity
  8
DRAW
  6
CONTINUOUS
100
AcDbCircle
 10
66.276583
 20
152.010998
 30
0.0
 40
2.408614
100
AcDbArc
 50
300.116995
 51
359.48927
  0
ARC
  5
25CC
100
AcDbEntity
  8
DRAW
  6
CONTINUOUS
100
AcDbCircle
 10
66.17785
 20
152.096868
 30
0.0
 40
2.2
100
AcDbArc
 50
270.0
 51
0.0
  0
LINE
  5
25CD
100
AcDbEntity
  8
DRAW
  6
CONTINUOUS
100
AcDbLine
 10
66.17785
 20
149.896868
 30
0.0
 11
66.17785
 21
150.896868
 31
0.0
  0
LINE
  5
25CE
100
AcDbEntity
  8
DRAW
  6
CONTINUOUS
100
AcDbLine
 10
67.218354
 20
143.2
 30
0.0
 11
67.218354
 21
149.793253
 31
0.0
  0
LINE
  5
25CF
100
AcDbEntity
  8
DRAW
  6
CONTINUOUS
100
AcDbLine
 10
66.218354
 20
143.2
 30
0.0
 11
66.218354
 21
149.608727
 31
0.0
  0
LINE
  5
25D0
100
AcDbEntity
  8
DRAW
  6
CONTINUOUS
100
AcDbLine
 10
66.018354
 20
143.2
 30
0.0
 11
66.018354
 21
149.610472
 31
0.0
  0
LINE
  5
25D1
100
AcDbEntity
  8
DRAW
  6
CONTINUOUS
100
AcDbLine
 10
67.218354
 20
143.2
 30
0.0
 11
66.218354
 21
143.2
 31
0.0
  0
LINE
  5
25D2
100
AcDbEntity
  8
DRAW
  6
CONTINUOUS
100
AcDbLine
 10
66.018354
 20
143.2
 30
0.0
 11
66.218354
 21
143.2
 31
0.0
  0
ARC
  5
25D3
100
AcDbEntity
  8
DRAW
  6
CONTINUOUS
100
AcDbCircle
 10
66.274857
 20
151.999878
 30
0.0
 40
2.399872
100
AcDbArc
 50
293.150316
 51
300.285831
  0
ARC
  5
25D4
100
AcDbEntity
  8
DRAW
  6
CONTINUOUS
100
AcDbCircle
 10
66.307113
 20
151.912804
 30
0.0
 40
2.307132
100
AcDbArc
 50
269.049027
 51
293.263928
  0
LINE
  5
25D5
100
AcDbEntity
  8
DRAW
  6
CONTINUOUS
100
AcDbLine
 10
66.179586
 20
149.695225
 30
0.0
 11
66.179586
 21
149.885217
 31
0.0
  0
LINE
  5
25D6
100
AcDbEntity
  8
DRAW
  6
CONTINUOUS
100
AcDbLine
 10
66.268822
 20
149.60599
 30
0.0
 11
66.179586
 21
149.695225
 31
0.0
  0
LINE
  5
25D7
100
AcDbEntity
  8
DRAW
  6
CONTINUOUS
100
AcDbLine
 10
66.218354
 20
149.608727
 30
0.0
 11
66.268822
 21
149.60599
 31
0.0
  0
LINE
  5
25D8
100
AcDbEntity
  8
DRAW
  6
CONTINUOUS
100
AcDbLine
 10
66.018354
 20
149.610472
 30
0.0
 11
66.218354
 21
149.608727
 31
0.0
  0
ARC
  5
25D9
100
AcDbEntity
  8
DRAW
  6
CONTINUOUS
100
AcDbCircle
 10
66.17785
 20
152.096868
 30
0.0
 40
1.2
100
AcDbArc
 50
270.0
 51
0.0
  0
LINE
  5
25DA
100
AcDbEntity
  8
DRAW
  6
CONTINUOUS
100
AcDbLine
 10
68.37785
 20
152.096868
 30
0.0
 11
67.37785
 21
152.096868
 31
0.0
  0
ARC
  5
25DB
100
AcDbEntity
  8
DRAW
  6
CONTINUOUS
100
AcDbCircle
 10
66.17785
 20
152.096868
 30
0.0
 40
1.0
100
AcDbArc
 50
270.0
 51
0.0
  0
LINE
  5
25DC
100
AcDbEntity
  8
DRAW
  6
CONTINUOUS
100
AcDbLine
 10
66.17785
 20
150.896868
 30
0.0
 11
66.17785
 21
151.096868
 31
0.0
  0
LINE
  5
25DD
100
AcDbEntity
  8
DRAW
  6
CONTINUOUS
100
AcDbLine
 10
67.17785
 20
152.096868
 30
0.0
 11
67.37785
 21
152.096868
 31
0.0
  0
LINE
  5
25DE
100
AcDbEntity
  8
DRAW
  6
CONTINUOUS
100
AcDbLine
 10
68.389502
 20
152.095133
 30
0.0
 11
68.579495
 21
152.095133
 31
0.0
  0
LINE
  5
25DF
100
AcDbEntity
  8
DRAW
  6
CONTINUOUS
100
AcDbLine
 10
68.579495
 20
152.095133
 30
0.0
 11
68.685101
 21
151.989528
 31
0.0
  0
ARC
  5
25E1
100
AcDbEntity
  8
DRAW
  6
CONTINUOUS
100
AcDbCircle
 10
97.142236
 20
228.697369
 30
0.0
 40
60.329262
100
AcDbArc
 50
228.538404
 51
232.102144
  0
ARC
  5
25E2
100
AcDbEntity
  8
DRAW
  6
CONTINUOUS
100
AcDbCircle
 10
22.423551
 20
132.708715
 30
0.0
 40
60.312439
100
AcDbArc
 50
52.102641
 51
59.48542
  0
CIRCLE
  5
25E3
100
AcDbEntity
  8
DRAW
  6
CONTINUOUS
100
AcDbCircle
 10
56.818349
 20
182.999998
 30
0.0
 40
6.0
  0
CIRCLE
  5
25E4
100
AcDbEntity
  8
DRAW
  6
CONTINUOUS
100
AcDbCircle
 10
56.818349
 20
182.999998
 30
0.0
 40
5.569226
  0
CIRCLE
  5
25E5
100
AcDbEntity
  8
DRAW
  6
CONTINUOUS
100
AcDbCircle
 10
56.818349
 20
182.999998
 30
0.0
 40
6.5
  0
CIRCLE
  5
25E6
100
AcDbEntity
  8
DRAW
  6
CONTINUOUS
100
AcDbCircle
 10
56.818349
 20
182.999998
 30
0.0
 40
7.0
  0
LINE
  5
25E7
100
AcDbEntity
  8
DRAW
  6
CONTINUOUS
100
AcDbLine
 10
66.179586
 20
194.304775
 30
0.0
 11
36.257122
 21
194.304775
 31
0.0
  0
LINE
  5
25E8
100
AcDbEntity
  8
DRAW
  6
CONTINUOUS
100
AcDbLine
 10
66.179586
 20
194.114783
 30
0.0
 11
36.257122
 21
194.114783
 31
0.0
  0
CIRCLE
  5
25E9
100
AcDbEntity
  8
DRAW
  6
CONTINUOUS
100
AcDbCircle
 10
55.468354
 20
205.499992
 30
0.0
 40
2.2
  0
LINE
  5
25EA
100
AcDbEntity
  8
DRAW
  6
CONTINUOUS
100
AcDbLine
 10
67.485146
 20
212.766792
 30
0.0
 11
34.951562
 21
212.766792
 31
0.0
  0
LINE
  5
25EB
100
AcDbEntity
  8
DRAW
  6
CONTINUOUS
100
AcDbLine
 10
67.5184
 20
214.0
 30
0.0
 11
34.918308
 21
214.0
 31
0.0
  0
LINE
  5
25EC
100
AcDbEntity
  8
DRAW
  6
CONTINUOUS
100
AcDbLine
 10
67.485146
 20
213.966747
 30
0.0
 11
34.951562
 21
213.966747
 31
0.0
  0
LINE
  5
25ED
100
AcDbEntity
  8
DRAW
  6
CONTINUOUS
100
AcDbLine
 10
65.018354
 20
202.0
 30
0.0
 11
37.418354
 21
202.0
 31
0.0
  0
LINE
  5
25EE
100
AcDbEntity
  8
DRAW
  6
CONTINUOUS
100
AcDbLine
 10
65.018354
 20
203.0
 30
0.0
 11
37.418354
 21
203.0
 31
0.0
  0
LINE
  5
25EF
100
AcDbEntity
  8
DRAW
  6
CONTINUOUS
100
AcDbLine
 10
65.018354
 20
201.8
 30
0.0
 11
37.418354
 21
201.8
 31
0.0
  0
LINE
  5
25F0
100
AcDbEntity
  8
DRAW
  6
CONTINUOUS
100
AcDbLine
 10
36.418354
 20
194.389528
 30
0.0
 11
66.018354
 21
194.389528
 31
0.0
  0
LINE
  5
25F1
100
AcDbEntity
  8
DRAW
  6
CONTINUOUS
100
AcDbLine
 10
66.17785
 20
192.903132
 30
0.0
 11
36.258856
 21
192.903132
 31
0.0
  0
LINE
  5
25F2
100
AcDbEntity
  8
DRAW
  6
CONTINUOUS
100
AcDbLine
 10
66.17785
 20
194.103132
 30
0.0
 11
36.258856
 21
194.103132
 31
0.0
  0
LINE
  5
25F3
100
AcDbEntity
  8
DRAW
  6
CONTINUOUS
100
AcDbLine
 10
66.17785
 20
193.103132
 30
0.0
 11
36.258856
 21
193.103132
 31
0.0
  0
LINE
  5
25F4
100
AcDbEntity
  8
DRAW
  6
CONTINUOUS
100
AcDbLine
 10
53.6619
 20
185.456993
 30
0.0
 11
54.276149
 21
186.246106
 31
0.0
  0
LINE
  5
25F5
100
AcDbEntity
  8
DRAW
  6
CONTINUOUS
100
AcDbLine
 10
53.6619
 20
185.456993
 30
0.0
 11
53.04765
 21
184.66788
 31
0.0
  0
ARC
  5
25F6
100
AcDbEntity
  8
DRAW
  6
CONTINUOUS
100
AcDbCircle
 10
97.146856
 20
228.700681
 30
0.0
 40
60.334803
100
AcDbArc
 50
224.72057
 51
228.537199
  0
CIRCLE
  5
25F8
100
AcDbEntity
  8
DRAW
  6
CONTINUOUS
100
AcDbCircle
 10
40.468354
 20
205.499992
 30
0.0
 40
2.2
  0
LINE
  5
25F9
100
AcDbEntity
  8
DRAW
  6
CONTINUOUS
100
AcDbLine
 10
33.718354
 20
201.000002
 30
0.0
 11
33.718354
 21
212.800046
 31
0.0
  0
LINE
  5
25FA
100
AcDbEntity
  8
DRAW
  6
CONTINUOUS
100
AcDbLine
 10
33.751608
 20
212.766792
 30
0.0
 11
33.751608
 21
192.010472
 31
0.0
  0
LINE
  5
25FB
100
AcDbEntity
  8
DRAW
  6
CONTINUOUS
100
AcDbLine
 10
34.951562
 20
212.766792
 30
0.0
 11
34.951562
 21
194.07246
 31
0.0
  0
ARC
  5
25FC
100
AcDbEntity
  8
DRAW
  6
CONTINUOUS
100
AcDbCircle
 10
36.257132
 20
191.904857
 30
0.0
 40
2.399918
100
AcDbArc
 50
90.000232
 51
179.999768
  0
ARC
  5
25FD
100
AcDbEntity
  8
DRAW
  6
CONTINUOUS
100
AcDbCircle
 10
36.257112
 20
191.904877
 30
0.0
 40
2.209906
100
AcDbArc
 50
89.999743
 51
180.000257
  0
ARC
  5
25FE
100
AcDbEntity
  8
DRAW
  6
CONTINUOUS
100
AcDbCircle
 10
36.160452
 20
191.988812
 30
0.0
 40
2.408942
100
AcDbArc
 50
120.121443
 51
179.484822
  0
ARC
  5
25FF
100
AcDbEntity
  8
DRAW
  6
CONTINUOUS
100
AcDbCircle
 10
36.258856
 20
191.903132
 30
0.0
 40
2.2
100
AcDbArc
 50
90.0
 51
180.0
  0
LINE
  5
2600
100
AcDbEntity
  8
DRAW
  6
CONTINUOUS
100
AcDbLine
 10
34.058856
 20
191.903132
 30
0.0
 11
35.058856
 21
191.903132
 31
0.0
  0
LINE
  5
2601
100
AcDbEntity
  8
DRAW
  6
CONTINUOUS
100
AcDbLine
 10
33.857213
 20
191.904867
 30
0.0
 11
34.047206
 21
191.904867
 31
0.0
  0
LINE
  5
2602
100
AcDbEntity
  8
DRAW
  6
CONTINUOUS
100
AcDbLine
 10
33.857213
 20
191.904867
 30
0.0
 11
33.751608
 21
192.010472
 31
0.0
  0
LINE
  5
2603
100
AcDbEntity
  8
DRAW
  6
CONTINUOUS
100
AcDbLine
 10
35.218354
 20
200.8
 30
0.0
 11
35.218354
 21
194.206747
 31
0.0
  0
LINE
  5
2604
100
AcDbEntity
  8
DRAW
  6
CONTINUOUS
100
AcDbLine
 10
36.218354
 20
200.8
 30
0.0
 11
36.218354
 21
194.391273
 31
0.0
  0
LINE
  5
2605
100
AcDbEntity
  8
DRAW
  6
CONTINUOUS
100
AcDbLine
 10
36.418354
 20
200.8
 30
0.0
 11
36.418354
 21
194.389528
 31
0.0
  0
LINE
  5
2606
100
AcDbEntity
  8
DRAW
  6
CONTINUOUS
100
AcDbLine
 10
36.258856
 20
194.103132
 30
0.0
 11
36.258856
 21
193.103132
 31
0.0
  0
ARC
  5
2607
100
AcDbEntity
  8
DRAW
  6
CONTINUOUS
100
AcDbCircle
 10
36.258856
 20
191.903132
 30
0.0
 40
1.2
100
AcDbArc
 50
90.0
 51
180.0
  0
ARC
  5
2608
100
AcDbEntity
  8
DRAW
  6
CONTINUOUS
100
AcDbCircle
 10
36.258856
 20
191.903132
 30
0.0
 40
1.0
100
AcDbArc
 50
90.0
 51
180.0
  0
LINE
  5
2609
100
AcDbEntity
  8
DRAW
  6
CONTINUOUS
100
AcDbLine
 10
35.258856
 20
191.903132
 30
0.0
 11
35.058856
 21
191.903132
 31
0.0
  0
LINE
  5
260A
100
AcDbEntity
  8
DRAW
  6
CONTINUOUS
100
AcDbLine
 10
36.258856
 20
193.103132
 30
0.0
 11
36.258856
 21
192.903132
 31
0.0
  0
LINE
  5
260B
100
AcDbEntity
  8
DRAW
  6
CONTINUOUS
100
AcDbLine
 10
36.167887
 20
194.394011
 30
0.0
 11
36.257122
 21
194.304775
 31
0.0
  0
LINE
  5
260C
100
AcDbEntity
  8
DRAW
  6
CONTINUOUS
100
AcDbLine
 10
36.218354
 20
194.391273
 30
0.0
 11
36.167887
 21
194.394011
 31
0.0
  0
ARC
  5
260D
100
AcDbEntity
  8
DRAW
  6
CONTINUOUS
100
AcDbCircle
 10
36.161851
 20
192.000122
 30
0.0
 40
2.399872
100
AcDbArc
 50
113.150316
 51
120.285831
  0
ARC
  5
260E
100
AcDbEntity
  8
DRAW
  6
CONTINUOUS
100
AcDbCircle
 10
36.129596
 20
192.087196
 30
0.0
 40
2.307132
100
AcDbArc
 50
89.049027
 51
113.263928
  0
LINE
  5
260F
100
AcDbEntity
  8
DRAW
  6
CONTINUOUS
100
AcDbLine
 10
36.257122
 20
194.304775
 30
0.0
 11
36.257122
 21
194.114783
 31
0.0
  0
LINE
  5
2610
100
AcDbEntity
  8
DRAW
  6
CONTINUOUS
100
AcDbLine
 10
36.418354
 20
194.389528
 30
0.0
 11
36.218354
 21
194.391273
 31
0.0
  0
ARC
  5
2611
100
AcDbEntity
  8
DRAW
  6
CONTINUOUS
100
AcDbCircle
 10
37.418354
 20
200.8
 30
0.0
 40
1.2
100
AcDbArc
 50
90.0
 51
180.0
  0
ARC
  5
2612
100
AcDbEntity
  8
DRAW
  6
CONTINUOUS
100
AcDbCircle
 10
37.418354
 20
200.8
 30
0.0
 40
2.2
100
AcDbArc
 50
90.0
 51
180.0
  0
ARC
  5
2613
100
AcDbEntity
  8
DRAW
  6
CONTINUOUS
100
AcDbCircle
 10
37.418354
 20
200.8
 30
0.0
 40
1.0
100
AcDbArc
 50
90.0
 51
180.0
  0
LINE
  5
2614
100
AcDbEntity
  8
DRAW
  6
CONTINUOUS
100
AcDbLine
 10
35.218354
 20
200.8
 30
0.0
 11
36.218354
 21
200.8
 31
0.0
  0
LINE
  5
2615
100
AcDbEntity
  8
DRAW
  6
CONTINUOUS
100
AcDbLine
 10
36.418354
 20
200.8
 30
0.0
 11
36.218354
 21
200.8
 31
0.0
  0
LINE
  5
2616
100
AcDbEntity
  8
DRAW
  6
CONTINUOUS
100
AcDbLine
 10
37.418354
 20
203.0
 30
0.0
 11
37.418354
 21
202.0
 31
0.0
  0
LINE
  5
2617
100
AcDbEntity
  8
DRAW
  6
CONTINUOUS
100
AcDbLine
 10
37.418354
 20
202.0
 30
0.0
 11
37.418354
 21
201.8
 31
0.0
  0
ARC
  5
2618
100
AcDbEntity
  8
DRAW
  6
CONTINUOUS
100
AcDbCircle
 10
34.918399
 20
212.8
 30
0.0
 40
1.2
100
AcDbArc
 50
90.0
 51
180.0
  0
ARC
  5
2619
100
AcDbEntity
  8
DRAW
  6
CONTINUOUS
100
AcDbCircle
 10
34.951672
 20
212.766682
 30
0.0
 40
1.200065
100
AcDbArc
 50
90.005267
 51
179.994733
  0
ARC
  5
261A
100
AcDbEntity
  8
DRAW
  6
CONTINUOUS
100
AcDbCircle
 10
34.91829
 20
212.800065
 30
0.0
 40
1.199935
100
AcDbArc
 50
89.999096
 51
180.000904
  0
LINE
  5
261B
100
AcDbEntity
  8
DRAW
  6
CONTINUOUS
100
AcDbLine
 10
34.951562
 20
212.766792
 30
0.0
 11
33.751608
 21
212.766792
 31
0.0
  0
POINT
  5
261C
100
AcDbEntity
  8
DRAW
  6
BYBLOCK
100
AcDbPoint
 10
33.718354
 20
212.800046
 30
0.0
  0
LINE
  5
261D
100
AcDbEntity
  8
DRAW
  6
CONTINUOUS
100
AcDbLine
 10
33.718354
 20
212.800046
 30
0.0
 11
33.751608
 21
212.766792
 31
0.0
  0
LINE
  5
261E
100
AcDbEntity
  8
DRAW
  6
CONTINUOUS
100
AcDbLine
 10
34.951562
 20
212.766792
 30
0.0
 11
34.951562
 21
213.966747
 31
0.0
  0
LINE
  5
261F
100
AcDbEntity
  8
DRAW
  6
CONTINUOUS
100
AcDbLine
 10
34.918308
 20
214.0
 30
0.0
 11
34.951562
 21
213.966747
 31
0.0
  0
CIRCLE
  5
2622
100
AcDbEntity
  8
DRAW
  6
CONTINUOUS
100
AcDbCircle
 10
46.968355
 20
205.499992
 30
0.0
 40
2.2
  0
LINE
  5
2623
100
AcDbEntity
  8
DRAW
  6
CONTINUOUS
100
AcDbLine
 10
59.818355
 20
168.299999
 30
0.0
 11
59.818355
 21
170.299999
 31
0.0
  0
LINE
  5
2624
100
AcDbEntity
  8
DRAW
  6
CONTINUOUS
100
AcDbLine
 10
57.818355
 20
168.299999
 30
0.0
 11
57.818355
 21
170.299999
 31
0.0
  0
LINE
  5
2625
100
AcDbEntity
  8
DRAW
  6
CONTINUOUS
100
AcDbLine
 10
57.818355
 20
168.299999
 30
0.0
 11
59.818355
 21
168.299999
 31
0.0
  0
LINE
  5
2626
100
AcDbEntity
  8
DRAW
  6
CONTINUOUS
100
AcDbLine
 10
57.818355
 20
170.299999
 30
0.0
 11
59.818355
 21
170.299999
 31
0.0
  0
LINE
  5
2627
100
AcDbEntity
  8
DRAW
  6
CONTINUOUS
100
AcDbLine
 10
60.391769
 20
181.485678
 30
0.0
 11
60.084645
 21
181.091121
 31
0.0
  0
LINE
  5
2628
100
AcDbEntity
  8
DRAW
  6
CONTINUOUS
100
AcDbLine
 10
60.391769
 20
181.485678
 30
0.0
 11
60.961189
 21
179.775192
 31
0.0
  0
LINE
  5
2629
100
AcDbEntity
  8
DRAW
  6
CONTINUOUS
100
AcDbLine
 10
59.163271
 20
179.907452
 30
0.0
 11
60.961189
 21
179.775192
 31
0.0
  0
LINE
  5
262A
100
AcDbEntity
  8
DRAW
  6
CONTINUOUS
100
AcDbLine
 10
59.163271
 20
179.907452
 30
0.0
 11
59.470396
 21
180.302009
 31
0.0
  0
ARC
  5
262B
100
AcDbEntity
  8
DRAW
  6
CONTINUOUS
100
AcDbCircle
 10
60.371814
 20
180.232812
 30
0.0
 40
0.596093
100
AcDbArc
 50
311.917361
 51
332.490053
  0
LINE
  5
262C
100
AcDbEntity
  8
DRAW
  6
CONTINUOUS
100
AcDbLine
 10
68.718354
 20
201.0
 30
0.0
 11
68.718354
 21
212.800046
 31
0.0
  0
CIRCLE
  5
262E
100
AcDbEntity
  8
DRAW
  6
CONTINUOUS
100
AcDbCircle
 10
61.968354
 20
205.499992
 30
0.0
 40
2.2
  0
LINE
  5
262F
100
AcDbEntity
  8
DRAW
  6
CONTINUOUS
100
AcDbLine
 10
68.685101
 20
212.766792
 30
0.0
 11
68.685101
 21
192.010472
 31
0.0
  0
LINE
  5
2630
100
AcDbEntity
  8
DRAW
  6
CONTINUOUS
100
AcDbLine
 10
67.485146
 20
212.766792
 30
0.0
 11
67.485146
 21
194.07246
 31
0.0
  0
ARC
  5
2631
100
AcDbEntity
  8
DRAW
  6
CONTINUOUS
100
AcDbCircle
 10
65.018354
 20
200.8
 30
0.0
 40
1.2
100
AcDbArc
 50
0.0
 51
90.0
  0
ARC
  5
2632
100
AcDbEntity
  8
DRAW
  6
CONTINUOUS
100
AcDbCircle
 10
65.018354
 20
200.8
 30
0.0
 40
2.2
100
AcDbArc
 50
0.0
 51
90.0
  0
ARC
  5
2633
100
AcDbEntity
  8
DRAW
  6
CONTINUOUS
100
AcDbCircle
 10
65.018354
 20
200.8
 30
0.0
 40
1.0
100
AcDbArc
 50
0.0
 51
90.0
  0
LINE
  5
2634
100
AcDbEntity
  8
DRAW
  6
CONTINUOUS
100
AcDbLine
 10
65.018354
 20
203.0
 30
0.0
 11
65.018354
 21
202.0
 31
0.0
  0
LINE
  5
2635
100
AcDbEntity
  8
DRAW
  6
CONTINUOUS
100
AcDbLine
 10
65.018354
 20
201.8
 30
0.0
 11
65.018354
 21
202.0
 31
0.0
  0
LINE
  5
2636
100
AcDbEntity
  8
DRAW
  6
CONTINUOUS
100
AcDbLine
 10
67.218354
 20
194.206747
 30
0.0
 11
67.218354
 21
200.8
 31
0.0
  0
LINE
  5
2637
100
AcDbEntity
  8
DRAW
  6
CONTINUOUS
100
AcDbLine
 10
66.018354
 20
194.389528
 30
0.0
 11
66.018354
 21
200.8
 31
0.0
  0
LINE
  5
2638
100
AcDbEntity
  8
DRAW
  6
CONTINUOUS
100
AcDbLine
 10
66.218354
 20
194.391273
 30
0.0
 11
66.218354
 21
200.8
 31
0.0
  0
ARC
  5
2639
100
AcDbEntity
  8
DRAW
  6
CONTINUOUS
100
AcDbCircle
 10
66.179596
 20
191.904877
 30
0.0
 40
2.209906
100
AcDbArc
 50
359.999743
 51
90.000257
  0
ARC
  5
263A
100
AcDbEntity
  8
DRAW
  6
CONTINUOUS
100
AcDbCircle
 10
66.179577
 20
191.904857
 30
0.0
 40
2.399918
100
AcDbArc
 50
0.000232
 51
89.999768
  0
ARC
  5
263B
100
AcDbEntity
  8
DRAW
  6
CONTINUOUS
100
AcDbCircle
 10
66.276256
 20
191.988812
 30
0.0
 40
2.408942
100
AcDbArc
 50
0.515178
 51
59.878557
  0
ARC
  5
263C
100
AcDbEntity
  8
DRAW
  6
CONTINUOUS
100
AcDbCircle
 10
66.17785
 20
191.903132
 30
0.0
 40
2.2
100
AcDbArc
 50
0.0
 51
90.0
  0
ARC
  5
263D
100
AcDbEntity
  8
DRAW
  6
CONTINUOUS
100
AcDbCircle
 10
66.17785
 20
191.903132
 30
0.0
 40
1.2
100
AcDbArc
 50
0.0
 51
90.0
  0
LINE
  5
263E
100
AcDbEntity
  8
DRAW
  6
CONTINUOUS
100
AcDbLine
 10
66.17785
 20
194.103132
 30
0.0
 11
66.17785
 21
193.103132
 31
0.0
  0
LINE
  5
263F
100
AcDbEntity
  8
DRAW
  6
CONTINUOUS
100
AcDbLine
 10
68.37785
 20
191.903132
 30
0.0
 11
67.37785
 21
191.903132
 31
0.0
  0
ARC
  5
2640
100
AcDbEntity
  8
DRAW
  6
CONTINUOUS
100
AcDbCircle
 10
66.17785
 20
191.903132
 30
0.0
 40
1.0
100
AcDbArc
 50
0.0
 51
90.0
  0
LINE
  5
2641
100
AcDbEntity
  8
DRAW
  6
CONTINUOUS
100
AcDbLine
 10
66.17785
 20
192.903132
 30
0.0
 11
66.17785
 21
193.103132
 31
0.0
  0
LINE
  5
2642
100
AcDbEntity
  8
DRAW
  6
CONTINUOUS
100
AcDbLine
 10
67.37785
 20
191.903132
 30
0.0
 11
67.17785
 21
191.903132
 31
0.0
  0
LINE
  5
2643
100
AcDbEntity
  8
DRAW
  6
CONTINUOUS
100
AcDbLine
 10
68.579495
 20
191.904867
 30
0.0
 11
68.389502
 21
191.904867
 31
0.0
  0
LINE
  5
2644
100
AcDbEntity
  8
DRAW
  6
CONTINUOUS
100
AcDbLine
 10
68.579495
 20
191.904867
 30
0.0
 11
68.685101
 21
192.010472
 31
0.0
  0
ARC
  5
2645
100
AcDbEntity
  8
DRAW
  6
CONTINUOUS
100
AcDbCircle
 10
66.274857
 20
192.000122
 30
0.0
 40
2.399872
100
AcDbArc
 50
59.714169
 51
66.849684
  0
ARC
  5
2646
100
AcDbEntity
  8
DRAW
  6
CONTINUOUS
100
AcDbCircle
 10
66.307113
 20
192.087196
 30
0.0
 40
2.307132
100
AcDbArc
 50
66.736072
 51
90.950973
  0
LINE
  5
2647
100
AcDbEntity
  8
DRAW
  6
CONTINUOUS
100
AcDbLine
 10
66.179586
 20
194.114783
 30
0.0
 11
66.179586
 21
194.304775
 31
0.0
  0
LINE
  5
2648
100
AcDbEntity
  8
DRAW
  6
CONTINUOUS
100
AcDbLine
 10
66.268822
 20
194.394011
 30
0.0
 11
66.179586
 21
194.304775
 31
0.0
  0
LINE
  5
2649
100
AcDbEntity
  8
DRAW
  6
CONTINUOUS
100
AcDbLine
 10
66.218354
 20
194.391273
 30
0.0
 11
66.268822
 21
194.394011
 31
0.0
  0
LINE
  5
264A
100
AcDbEntity
  8
DRAW
  6
CONTINUOUS
100
AcDbLine
 10
66.018354
 20
194.389528
 30
0.0
 11
66.218354
 21
194.391273
 31
0.0
  0
LINE
  5
264B
100
AcDbEntity
  8
DRAW
  6
CONTINUOUS
100
AcDbLine
 10
67.218354
 20
200.8
 30
0.0
 11
66.218354
 21
200.8
 31
0.0
  0
LINE
  5
264C
100
AcDbEntity
  8
DRAW
  6
CONTINUOUS
100
AcDbLine
 10
66.218354
 20
200.8
 30
0.0
 11
66.018354
 21
200.8
 31
0.0
  0
ARC
  5
264D
100
AcDbEntity
  8
DRAW
  6
CONTINUOUS
100
AcDbCircle
 10
67.518399
 20
212.8
 30
0.0
 40
1.2
100
AcDbArc
 50
0.0
 51
90.0
  0
ARC
  5
264E
100
AcDbEntity
  8
DRAW
  6
CONTINUOUS
100
AcDbCircle
 10
67.485036
 20
212.766682
 30
0.0
 40
1.200065
100
AcDbArc
 50
0.005267
 51
89.994733
  0
ARC
  5
264F
100
AcDbEntity
  8
DRAW
  6
CONTINUOUS
100
AcDbCircle
 10
67.518419
 20
212.800065
 30
0.0
 40
1.199935
100
AcDbArc
 50
359.999096
 51
90.000904
  0
LINE
  5
2650
100
AcDbEntity
  8
DRAW
  6
CONTINUOUS
100
AcDbLine
 10
67.485146
 20
212.766792
 30
0.0
 11
68.685101
 21
212.766792
 31
0.0
  0
POINT
  5
2651
100
AcDbEntity
  8
DRAW
  6
BYBLOCK
100
AcDbPoint
 10
67.5184
 20
214.0
 30
0.0
  0
POINT
  5
2652
100
AcDbEntity
  8
DRAW
  6
CONTINUOUS
100
AcDbPoint
 10
67.5184
 20
214.0
 30
0.0
  0
LINE
  5
2653
100
AcDbEntity
  8
DRAW
  6
CONTINUOUS
100
AcDbLine
 10
67.485146
 20
212.766792
 30
0.0
 11
67.485146
 21
213.966747
 31
0.0
  0
LINE
  5
2654
100
AcDbEntity
  8
DRAW
  6
CONTINUOUS
100
AcDbLine
 10
67.5184
 20
214.0
 30
0.0
 11
67.485146
 21
213.966747
 31
0.0
  0
POINT
  5
2655
100
AcDbEntity
  8
DRAW
  6
BYBLOCK
100
AcDbPoint
 10
68.718354
 20
212.800046
 30
0.0
  0
LINE
  5
2656
100
AcDbEntity
  8
DRAW
  6
CONTINUOUS
100
AcDbLine
 10
68.718354
 20
212.800046
 30
0.0
 11
68.685101
 21
212.766792
 31
0.0
  0
LINE
  5
2667
100
AcDbEntity
  8
DRAW
  6
CONTINUOUS
100
AcDbLine
 10
177.319456
 20
152.095133
 30
0.0
 11
177.319456
 21
191.904867
 31
0.0
  0
LINE
  5
2668
100
AcDbEntity
  8
DRAW
  6
CONTINUOUS
100
AcDbLine
 10
177.507798
 20
152.095133
 30
0.0
 11
177.507798
 21
191.904867
 31
0.0
  0
LINE
  5
2669
100
AcDbEntity
  8
DRAW
  6
CONTINUOUS
100
AcDbLine
 10
161.407794
 20
131.199954
 30
0.0
 11
161.407794
 21
212.800046
 31
0.0
  0
LINE
  5
266A
100
AcDbEntity
  8
DRAW
  6
CONTINUOUS
100
AcDbLine
 10
178.707798
 20
191.903132
 30
0.0
 11
178.707798
 21
152.096868
 31
0.0
  0
LINE
  5
266B
100
AcDbEntity
  8
DRAW
  6
CONTINUOUS
100
AcDbLine
 10
178.507798
 20
191.903132
 30
0.0
 11
178.507798
 21
152.096868
 31
0.0
  0
LINE
  5
266C
100
AcDbEntity
  8
DRAW
  6
CONTINUOUS
100
AcDbLine
 10
124.107793
 20
190.0
 30
0.0
 11
124.107793
 21
153.999981
 31
0.0
  0
LINE
  5
266D
100
AcDbEntity
  8
DRAW
  6
CONTINUOUS
100
AcDbLine
 10
124.603429
 20
190.5
 30
0.0
 11
124.603429
 21
153.5
 31
0.0
  0
LINE
  5
266E
100
AcDbEntity
  8
DRAW
  6
CONTINUOUS
100
AcDbLine
 10
146.807795
 20
143.0
 30
0.0
 11
146.807795
 21
201.000002
 31
0.0
  0
LINE
  5
266F
100
AcDbEntity
  8
DRAW
  6
CONTINUOUS
100
AcDbLine
 10
146.807795
 20
130.0
 30
0.0
 11
161.407794
 21
130.0
 31
0.0
  0
LINE
  5
2670
100
AcDbEntity
  8
DRAW
  6
CONTINUOUS
100
AcDbLine
 10
146.807795
 20
131.2
 30
0.0
 11
161.407794
 21
131.2
 31
0.0
  0
LINE
  5
2671
100
AcDbEntity
  8
DRAW
  6
CONTINUOUS
100
AcDbLine
 10
146.807795
 20
143.0
 30
0.0
 11
161.407795
 21
143.0
 31
0.0
  0
LINE
  5
2672
100
AcDbEntity
  8
DRAW
  6
CONTINUOUS
100
AcDbLine
 10
121.203429
 20
130.223446
 30
0.0
 11
146.807795
 21
130.0
 31
0.0
  0
LINE
  5
2673
100
AcDbEntity
  8
DRAW
  6
CONTINUOUS
100
AcDbLine
 10
121.203429
 20
131.4234
 30
0.0
 11
146.807795
 21
131.199954
 31
0.0
  0
LINE
  5
2674
100
AcDbEntity
  8
DRAW
  6
CONTINUOUS
100
AcDbLine
 10
120.707792
 20
153.5
 30
0.0
 11
120.707792
 21
131.4234
 31
0.0
  0
LINE
  5
2675
100
AcDbEntity
  8
DRAW
  6
CONTINUOUS
100
AcDbLine
 10
121.203429
 20
153.5
 30
0.0
 11
121.203429
 21
131.4234
 31
0.0
  0
ARC
  5
2676
100
AcDbEntity
  8
DRAW
  6
CONTINUOUS
100
AcDbCircle
 10
121.207792
 20
130.723427
 30
0.0
 40
0.5
100
AcDbArc
 50
180.0
 51
269.5
  0
ARC
  5
2677
100
AcDbEntity
  8
DRAW
  6
CONTINUOUS
100
AcDbCircle
 10
203.66423
 20
130.823423
 30
0.0
 40
82.462983
100
AcDbArc
 50
179.583129
 51
180.416871
  0
LINE
  5
2678
100
AcDbEntity
  8
DRAW
  6
CONTINUOUS
100
AcDbLine
 10
120.707792
 20
131.4234
 30
0.0
 11
121.203429
 21
131.4234
 31
0.0
  0
LINE
  5
2679
100
AcDbEntity
  8
DRAW
  6
CONTINUOUS
100
AcDbLine
 10
120.707792
 20
131.4234
 30
0.0
 11
120.707792
 21
130.723427
 31
0.0
  0
LINE
  5
267A
100
AcDbEntity
  8
DRAW
  6
CONTINUOUS
100
AcDbLine
 10
122.907795
 20
155.999993
 30
0.0
 11
122.10779
 21
155.999993
 31
0.0
  0
LINE
  5
267B
100
AcDbEntity
  8
DRAW
  6
CONTINUOUS
100
AcDbLine
 10
124.107793
 20
154.299997
 30
0.0
 11
121.207792
 21
154.299997
 31
0.0
  0
LINE
  5
267C
100
AcDbEntity
  8
DRAW
  6
CONTINUOUS
100
AcDbLine
 10
121.207792
 20
154.0
 30
0.0
 11
124.107793
 21
154.0
 31
0.0
  0
LINE
  5
267D
100
AcDbEntity
  8
DRAW
  6
CONTINUOUS
100
AcDbLine
 10
121.203429
 20
153.5
 30
0.0
 11
124.603429
 21
153.5
 31
0.0
  0
LINE
  5
267E
100
AcDbEntity
  8
DRAW
  6
CONTINUOUS
100
AcDbLine
 10
120.707792
 20
153.799997
 30
0.0
 11
120.707792
 21
154.599995
 31
0.0
  0
ARC
  5
267F
100
AcDbEntity
  8
DRAW
  6
CONTINUOUS
100
AcDbCircle
 10
121.207792
 20
153.799997
 30
0.0
 40
0.5
100
AcDbArc
 50
90.0
 51
180.0
  0
ARC
  5
2680
100
AcDbEntity
  8
DRAW
  6
CONTINUOUS
100
AcDbCircle
 10
121.207792
 20
153.5
 30
0.0
 40
0.5
100
AcDbArc
 50
90.0
 51
180.0
  0
LINE
  5
2681
100
AcDbEntity
  8
DRAW
  6
CONTINUOUS
100
AcDbLine
 10
121.203429
 20
153.5
 30
0.0
 11
120.707792
 21
153.5
 31
0.0
  0
LINE
  5
2682
100
AcDbEntity
  8
DRAW
  6
CONTINUOUS
100
AcDbLine
 10
120.707793
 20
153.5
 30
0.0
 11
120.707793
 21
153.799997
 31
0.0
  0
LINE
  5
2683
100
AcDbEntity
  8
DRAW
  6
CONTINUOUS
100
AcDbLine
 10
121.203684
 20
153.668445
 30
0.0
 11
121.203429
 21
153.5
 31
0.0
  0
LINE
  5
2684
100
AcDbEntity
  8
DRAW
  6
CONTINUOUS
100
AcDbLine
 10
121.20456
 20
153.83578
 30
0.0
 11
121.203684
 21
153.668445
 31
0.0
  0
LINE
  5
2685
100
AcDbEntity
  8
DRAW
  6
CONTINUOUS
100
AcDbLine
 10
121.205927
 20
153.951995
 30
0.0
 11
121.20456
 21
153.83578
 31
0.0
  0
LINE
  5
2686
100
AcDbEntity
  8
DRAW
  6
CONTINUOUS
100
AcDbLine
 10
121.207578
 20
153.999398
 30
0.0
 11
121.205927
 21
153.951995
 31
0.0
  0
LINE
  5
2687
100
AcDbEntity
  8
DRAW
  6
CONTINUOUS
100
AcDbLine
 10
121.207664
 20
153.999783
 30
0.0
 11
121.207578
 21
153.999398
 31
0.0
  0
LINE
  5
2688
100
AcDbEntity
  8
DRAW
  6
CONTINUOUS
100
AcDbLine
 10
121.207707
 20
153.999904
 30
0.0
 11
121.207664
 21
153.999783
 31
0.0
  0
LINE
  5
2689
100
AcDbEntity
  8
DRAW
  6
CONTINUOUS
100
AcDbLine
 10
121.20775
 20
153.999976
 30
0.0
 11
121.207707
 21
153.999904
 31
0.0
  0
LINE
  5
268A
100
AcDbEntity
  8
DRAW
  6
CONTINUOUS
100
AcDbLine
 10
121.207792
 20
154.0
 30
0.0
 11
121.20775
 21
153.999976
 31
0.0
  0
LINE
  5
268B
100
AcDbEntity
  8
DRAW
  6
CONTINUOUS
100
AcDbLine
 10
120.707792
 20
154.599995
 30
0.0
 11
122.107792
 21
155.999993
 31
0.0
  0
LINE
  5
268C
100
AcDbEntity
  8
DRAW
  6
CONTINUOUS
100
AcDbLine
 10
122.10779
 20
155.999993
 30
0.0
 11
122.107791
 21
154.299997
 31
0.0
  0
ARC
  5
268D
100
AcDbEntity
  8
DRAW
  6
CONTINUOUS
100
AcDbCircle
 10
158.228855
 20
187.400121
 30
0.0
 40
47.74781
100
AcDbArc
 50
224.388277
 51
225.233079
  0
LINE
  5
268E
100
AcDbEntity
  8
DRAW
  6
CONTINUOUS
100
AcDbLine
 10
122.907795
 20
154.999992
 30
0.0
 11
124.107795
 21
154.999992
 31
0.0
  0
LINE
  5
268F
100
AcDbEntity
  8
DRAW
  6
CONTINUOUS
100
AcDbLine
 10
122.907795
 20
154.299997
 30
0.0
 11
122.907795
 21
155.999993
 31
0.0
  0
LINE
  5
2690
100
AcDbEntity
  8
DRAW
  6
CONTINUOUS
100
AcDbLine
 10
146.807795
 20
131.199954
 30
0.0
 11
146.807795
 21
143.0
 31
0.0
  0
LINE
  5
2691
100
AcDbEntity
  8
DRAW
  6
CONTINUOUS
100
AcDbLine
 10
146.807795
 20
131.199954
 30
0.0
 11
146.807795
 21
130.0
 31
0.0
  0
LINE
  5
2692
100
AcDbEntity
  8
DRAW
  6
CONTINUOUS
100
AcDbLine
 10
177.319456
 20
152.095133
 30
0.0
 11
165.218266
 21
151.989528
 31
0.0
  0
ARC
  5
2693
100
AcDbEntity
  8
DRAW
  6
CONTINUOUS
100
AcDbCircle
 10
165.207794
 20
131.233208
 30
0.0
 40
1.2
100
AcDbArc
 50
270.5
 51
360.0
  0
SPLINE
  5
2694
100
AcDbEntity
  8
DRAW
  6
CONTINUOUS
100
AcDbSpline
210
0.0
220
0.0
230
1.0
 70
     8
 71
     3
 72
    14
 73
    10
 74
     8
 42
0.0000001
 43
0.0000001
 44
0.000001
 12
0.5797032677356892
 22
-0.8148276636053564
 32
0.0
 13
-0.0000000000040423
 23
-1.0
 33
0.0
 40
0.0
 40
0.0
 40
0.0
 40
0.0
 40
0.3995797136163954
 40
0.7944200240350185
 40
1.177769994183804
 40
1.541685112959912
 40
1.876410341890932
 40
2.167151024444191
 40
2.399152230132425
 40
2.399152230132425
 40
2.399152230132425
 40
2.399152230132425
 10
165.2182660101846
 20
151.9895279312796
 30
0.0
 10
165.2954785654193
 20
151.8809983964562
 30
0.0
 10
165.4489525893287
 20
151.6651979284174
 30
0.0
 10
165.6739204774905
 20
151.3434611002703
 30
0.0
 10
165.8872628712116
 20
151.0280810832909
 30
0.0
 10
166.0807096269525
 20
150.7237287490791
 30
0.0
 10
166.2444424466983
 20
150.4367982149261
 30
0.0
 10
166.3632689242058
 20
150.1773158663975
 30
0.0
 10
166.4077942148463
 20
150.0048743498332
 30
0.0
 10
166.4077942148459
 20
149.9275406146038
 30
0.0
 11
165.2182660101846
 21
151.9895279312796
 31
0.0
 11
165.4494310346494
 21
151.6636023630717
 31
0.0
 11
165.6752717831527
 21
151.3397277006597
 31
0.0
 11
165.8893190218432
 21
151.0217018795768
 31
0.0
 11
166.0834078324651
 21
150.7138658206313
 31
0.0
 11
166.2469006445966
 21
150.421785327731
 31
0.0
 11
166.3627734790483
 21
150.155132691969
 31
0.0
 11
166.4077942148459
 21
149.9275406146038
 31
0.0
  0
LINE
  5
2695
100
AcDbEntity
  8
DRAW
  6
CONTINUOUS
100
AcDbLine
 10
165.218266
 20
131.233208
 30
0.0
 11
166.407794
 21
131.233208
 31
0.0
  0
LINE
  5
2696
100
AcDbEntity
  8
DRAW
  6
CONTINUOUS
100
AcDbLine
 10
165.218266
 20
131.233208
 30
0.0
 11
165.218266
 21
151.989528
 31
0.0
  0
LINE
  5
2697
100
AcDbEntity
  8
DRAW
  6
CONTINUOUS
100
AcDbLine
 10
161.407794
 20
131.199954
 30
0.0
 11
165.218266
 21
131.233208
 31
0.0
  0
LINE
  5
2698
100
AcDbEntity
  8
DRAW
  6
CONTINUOUS
100
AcDbLine
 10
161.407794
 20
130.0
 30
0.0
 11
165.218266
 21
130.033254
 31
0.0
  0
LINE
  5
2699
100
AcDbEntity
  8
DRAW
  6
CONTINUOUS
100
AcDbLine
 10
161.407794
 20
130.0
 30
0.0
 11
161.407794
 21
131.199954
 31
0.0
  0
LINE
  5
269A
100
AcDbEntity
  8
DRAW
  6
CONTINUOUS
100
AcDbLine
 10
165.222585
 20
130.4274
 30
0.0
 11
165.221181
 21
130.828974
 31
0.0
  0
LINE
  5
269B
100
AcDbEntity
  8
DRAW
  6
CONTINUOUS
100
AcDbLine
 10
165.221737
 20
130.14849
 30
0.0
 11
165.222585
 21
130.4274
 31
0.0
  0
LINE
  5
269C
100
AcDbEntity
  8
DRAW
  6
CONTINUOUS
100
AcDbLine
 10
165.218767
 20
130.034703
 30
0.0
 11
165.221737
 21
130.14849
 31
0.0
  0
LINE
  5
269D
100
AcDbEntity
  8
DRAW
  6
CONTINUOUS
100
AcDbLine
 10
165.21857
 20
130.033777
 30
0.0
 11
165.218767
 21
130.034703
 31
0.0
  0
LINE
  5
269E
100
AcDbEntity
  8
DRAW
  6
CONTINUOUS
100
AcDbLine
 10
165.21847
 20
130.033487
 30
0.0
 11
165.21857
 21
130.033777
 31
0.0
  0
LINE
  5
269F
100
AcDbEntity
  8
DRAW
  6
CONTINUOUS
100
AcDbLine
 10
165.218368
 20
130.033312
 30
0.0
 11
165.21847
 21
130.033487
 31
0.0
  0
LINE
  5
26A0
100
AcDbEntity
  8
DRAW
  6
CONTINUOUS
100
AcDbLine
 10
165.218266
 20
130.033254
 30
0.0
 11
165.218368
 21
130.033312
 31
0.0
  0
LINE
  5
26A1
100
AcDbEntity
  8
DRAW
  6
CONTINUOUS
100
AcDbLine
 10
165.221181
 20
130.828974
 30
0.0
 11
165.218266
 21
131.233208
 31
0.0
  0
LINE
  5
26A2
100
AcDbEntity
  8
DRAW
  6
CONTINUOUS
100
AcDbLine
 10
166.407794
 20
131.233208
 30
0.0
 11
166.407794
 21
149.927541
 31
0.0
  0
LINE
  5
26A3
100
AcDbEntity
  8
DRAW
  6
CONTINUOUS
100
AcDbLine
 10
167.407794
 20
143.2
 30
0.0
 11
167.407794
 21
142.0
 31
0.0
  0
LINE
  5
26A4
100
AcDbEntity
  8
DRAW
  6
CONTINUOUS
100
AcDbLine
 10
167.607794
 20
143.2
 30
0.0
 11
167.607794
 21
142.2
 31
0.0
  0
ARC
  5
26A5
100
AcDbEntity
  8
DRAW
  6
CONTINUOUS
100
AcDbCircle
 10
167.407794
 20
141.0
 30
0.0
 40
1.0
100
AcDbArc
 50
90.0
 51
180.0
  0
ARC
  5
26A6
100
AcDbEntity
  8
DRAW
  6
CONTINUOUS
100
AcDbCircle
 10
167.407794
 20
142.2
 30
0.0
 40
0.2
100
AcDbArc
 50
270.0
 51
360.0
  0
LINE
  5
26A7
100
AcDbEntity
  8
DRAW
  6
CONTINUOUS
100
AcDbLine
 10
167.094126
 20
149.60599
 30
0.0
 11
177.319456
 21
149.695225
 31
0.0
  0
LINE
  5
26A8
100
AcDbEntity
  8
DRAW
  6
CONTINUOUS
100
AcDbLine
 10
167.607794
 20
149.610472
 30
0.0
 11
167.607794
 21
143.2
 31
0.0
  0
LINE
  5
26A9
100
AcDbEntity
  8
DRAW
  6
CONTINUOUS
100
AcDbLine
 10
167.407794
 20
149.608727
 30
0.0
 11
167.407794
 21
143.2
 31
0.0
  0
LINE
  5
26AA
100
AcDbEntity
  8
DRAW
  6
CONTINUOUS
100
AcDbLine
 10
166.407794
 20
143.2
 30
0.0
 11
167.407794
 21
143.2
 31
0.0
  0
LINE
  5
26AB
100
AcDbEntity
  8
DRAW
  6
CONTINUOUS
100
AcDbLine
 10
167.407794
 20
143.2
 30
0.0
 11
167.607794
 21
143.2
 31
0.0
  0
SPLINE
  5
26AC
100
AcDbEntity
  8
DRAW
  6
CONTINUOUS
100
AcDbSpline
210
0.0
220
0.0
230
1.0
 70
     8
 71
     3
 72
    14
 73
    10
 74
     8
 42
0.0000001
 43
0.0000001
 44
0.000001
 12
-0.0000000000038522
 22
-1.0
 32
0.0
 13
0.9999619230642052
 23
0.0087265354944893
 33
0.0
 40
0.0
 40
0.0
 40
0.0
 40
0.0
 40
0.0663843520093763
 40
0.1336810980192401
 40
0.2168720873158441
 40
0.3232919590708688
 40
0.4536359651638106
 40
0.604720479133917
 40
0.7716396939034471
 40
0.7716396939034471
 40
0.7716396939034471
 40
0.7716396939034471
 10
166.4077942148454
 20
149.793252674146
 30
0.0
 10
166.4077942148453
 20
149.7711245568096
 30
0.0
 10
166.4166011178048
 20
149.7251154196038
 30
0.0
 10
166.4685697670988
 20
149.6704481709956
 30
0.0
 10
166.548910953863
 20
149.6372511455944
 30
0.0
 10
166.6539425837782
 20
149.6172554847426
 30
0.0
 10
166.7830479313759
 20
149.6077362870885
 30
0.0
 10
166.9324806367591
 20
149.6048895062077
 30
0.0
 10
167.0384881555157
 20
149.6055040585667
 30
0.0
 10
167.0941257751815
 20
149.6059896007175
 30
0.0
 11
166.4077942148454
 21
149.793252674146
 31
0.0
 11
166.422268729845
 21
149.7284645561447
 31
0.0
 11
166.4669608895138
 21
149.6781508736876
 31
0.0
 11
166.5422141712732
 21
149.6426870817608
 31
0.0
 11
166.6463090976652
 21
149.6205650034516
 31
0.0
 11
166.7761686123619
 21
149.6093429790933
 31
0.0
 11
166.9272060867442
 21
149.6055842764002
 31
0.0
 11
167.0941257751815
 21
149.6059896007175
 31
0.0
  0
LINE
  5
26AD
100
AcDbEntity
  8
DRAW
  6
CONTINUOUS
100
AcDbLine
 10
177.319456
 20
149.695225
 30
0.0
 11
177.319456
 21
152.095133
 31
0.0
  0
LINE
  5
26AE
100
AcDbEntity
  8
DRAW
  6
CONTINUOUS
100
AcDbLine
 10
177.507798
 20
149.885217
 30
0.0
 11
177.507798
 21
152.095133
 31
0.0
  0
ARC
  5
26AF
100
AcDbEntity
  8
DRAW
  6
CONTINUOUS
100
AcDbCircle
 10
178.507798
 20
149.896868
 30
0.0
 40
1.0
100
AcDbArc
 50
90.0
 51
180.0
  0
ARC
  5
26B0
100
AcDbEntity
  8
DRAW
  6
CONTINUOUS
100
AcDbCircle
 10
177.317798
 20
149.885217
 30
0.0
 40
0.19
100
AcDbArc
 50
270.5
 51
360.0
  0
POINT
  5
26B1
100
AcDbEntity
  8
DRAW
  6
BYBLOCK
100
AcDbPoint
 10
177.319456
 20
149.695225
 30
0.0
  0
LINE
  5
26B2
100
AcDbEntity
  8
DRAW
  6
CONTINUOUS
100
AcDbLine
 10
177.507798
 20
149.885247
 30
0.0
 11
177.507568
 21
149.875866
 31
0.0
  0
LINE
  5
26B3
100
AcDbEntity
  8
DRAW
  6
CONTINUOUS
100
AcDbLine
 10
177.319456
 20
152.095133
 30
0.0
 11
177.507798
 21
152.095133
 31
0.0
  0
LINE
  5
26B4
100
AcDbEntity
  8
DRAW
  6
CONTINUOUS
100
AcDbLine
 10
177.507798
 20
152.096868
 30
0.0
 11
178.507798
 21
152.096868
 31
0.0
  0
LINE
  5
26B5
100
AcDbEntity
  8
DRAW
  6
CONTINUOUS
100
AcDbLine
 10
178.707798
 20
152.096868
 30
0.0
 11
178.707798
 21
151.096868
 31
0.0
  0
LINE
  5
26B6
100
AcDbEntity
  8
DRAW
  6
CONTINUOUS
100
AcDbLine
 10
178.507798
 20
152.096868
 30
0.0
 11
178.507798
 21
150.896868
 31
0.0
  0
ARC
  5
26B7
100
AcDbEntity
  8
DRAW
  6
CONTINUOUS
100
AcDbCircle
 10
178.507798
 20
151.096868
 30
0.0
 40
0.2
100
AcDbArc
 50
270.0
 51
360.0
  0
LINE
  5
26B8
100
AcDbEntity
  8
DRAW
  6
CONTINUOUS
100
AcDbLine
 10
178.507798
 20
152.096868
 30
0.0
 11
178.707798
 21
152.096868
 31
0.0
  0
LINE
  5
26BA
100
AcDbEntity
  8
DRAW
  6
CONTINUOUS
100
AcDbLine
 10
146.807795
 20
214.0
 30
0.0
 11
161.407794
 21
214.0
 31
0.0
  0
LINE
  5
26BB
100
AcDbEntity
  8
DRAW
  6
CONTINUOUS
100
AcDbLine
 10
146.807795
 20
212.8
 30
0.0
 11
161.407794
 21
212.8
 31
0.0
  0
LINE
  5
26BC
100
AcDbEntity
  8
DRAW
  6
CONTINUOUS
100
AcDbLine
 10
146.807795
 20
201.000002
 30
0.0
 11
161.407795
 21
201.000002
 31
0.0
  0
LINE
  5
26BD
100
AcDbEntity
  8
DRAW
  6
CONTINUOUS
100
AcDbLine
 10
122.827408
 20
189.7
 30
0.0
 11
122.371894
 21
188.0
 31
0.0
  0
LINE
  5
26BE
100
AcDbEntity
  8
DRAW
  6
CONTINUOUS
100
AcDbLine
 10
121.243691
 20
188.0
 30
0.0
 11
120.707792
 21
190.0
 31
0.0
  0
LINE
  5
26BF
100
AcDbEntity
  8
DRAW
  6
CONTINUOUS
100
AcDbLine
 10
122.371894
 20
188.0
 30
0.0
 11
121.243691
 21
188.0
 31
0.0
  0
LINE
  5
26C0
100
AcDbEntity
  8
DRAW
  6
CONTINUOUS
100
AcDbLine
 10
124.107793
 20
184.999996
 30
0.0
 11
123.657793
 21
186.999996
 31
0.0
  0
LINE
  5
26C1
100
AcDbEntity
  8
DRAW
  6
CONTINUOUS
100
AcDbLine
 10
124.107793
 20
188.999994
 30
0.0
 11
123.657793
 21
186.999994
 31
0.0
  0
LINE
  5
26C2
100
AcDbEntity
  8
DRAW
  6
CONTINUOUS
100
AcDbLine
 10
121.203429
 20
212.5766
 30
0.0
 11
146.807795
 21
212.800046
 31
0.0
  0
LINE
  5
26C3
100
AcDbEntity
  8
DRAW
  6
CONTINUOUS
100
AcDbLine
 10
121.203429
 20
213.776554
 30
0.0
 11
146.807795
 21
214.0
 31
0.0
  0
LINE
  5
26C4
100
AcDbEntity
  8
DRAW
  6
CONTINUOUS
100
AcDbLine
 10
120.707792
 20
212.5766
 30
0.0
 11
120.707792
 21
190.5
 31
0.0
  0
LINE
  5
26C5
100
AcDbEntity
  8
DRAW
  6
CONTINUOUS
100
AcDbLine
 10
121.203429
 20
212.5766
 30
0.0
 11
121.203429
 21
190.5
 31
0.0
  0
LINE
  5
26C6
100
AcDbEntity
  8
DRAW
  6
CONTINUOUS
100
AcDbLine
 10
124.107793
 20
189.7
 30
0.0
 11
121.207792
 21
189.7
 31
0.0
  0
LINE
  5
26C7
100
AcDbEntity
  8
DRAW
  6
CONTINUOUS
100
AcDbLine
 10
121.203429
 20
190.5
 30
0.0
 11
124.603429
 21
190.5
 31
0.0
  0
LINE
  5
26C8
100
AcDbEntity
  8
DRAW
  6
CONTINUOUS
100
AcDbLine
 10
121.207792
 20
190.0
 30
0.0
 11
124.107793
 21
190.0
 31
0.0
  0
ARC
  5
26C9
100
AcDbEntity
  8
DRAW
  6
CONTINUOUS
100
AcDbCircle
 10
121.207792
 20
190.2
 30
0.0
 40
0.5
100
AcDbArc
 50
180.0
 51
270.0
  0
LINE
  5
26CA
100
AcDbEntity
  8
DRAW
  6
CONTINUOUS
100
AcDbLine
 10
120.707792
 20
190.5
 30
0.0
 11
121.203429
 21
190.5
 31
0.0
  0
ARC
  5
26CB
100
AcDbEntity
  8
DRAW
  6
CONTINUOUS
100
AcDbCircle
 10
121.207792
 20
190.5
 30
0.0
 40
0.5
100
AcDbArc
 50
180.0
 51
270.0
  0
LINE
  5
26CC
100
AcDbEntity
  8
DRAW
  6
CONTINUOUS
100
AcDbLine
 10
120.707792
 20
190.0
 30
0.0
 11
120.707792
 21
190.2
 31
0.0
  0
LINE
  5
26CD
100
AcDbEntity
  8
DRAW
  6
CONTINUOUS
100
AcDbLine
 10
120.707793
 20
190.2
 30
0.0
 11
120.707793
 21
190.5
 31
0.0
  0
LINE
  5
26CE
100
AcDbEntity
  8
DRAW
  6
CONTINUOUS
100
AcDbLine
 10
121.206123
 20
190.03806
 30
0.0
 11
121.207792
 21
190.0
 31
0.0
  0
LINE
  5
26CF
100
AcDbEntity
  8
DRAW
  6
CONTINUOUS
100
AcDbLine
 10
121.204707
 20
190.146447
 30
0.0
 11
121.206123
 21
190.03806
 31
0.0
  0
LINE
  5
26D0
100
AcDbEntity
  8
DRAW
  6
CONTINUOUS
100
AcDbLine
 10
121.203761
 20
190.308658
 30
0.0
 11
121.204707
 21
190.146447
 31
0.0
  0
LINE
  5
26D1
100
AcDbEntity
  8
DRAW
  6
CONTINUOUS
100
AcDbLine
 10
121.203429
 20
190.5
 30
0.0
 11
121.203761
 21
190.308658
 31
0.0
  0
POINT
  5
26D2
100
AcDbEntity
  8
DRAW
  6
BYBLOCK
100
AcDbPoint
 10
124.107793
 20
190.0
 30
0.0
  0
POINT
  5
26D3
100
AcDbEntity
  8
DRAW
  6
BYBLOCK
100
AcDbPoint
 10
124.107793
 20
190.0
 30
0.0
  0
POINT
  5
26D4
100
AcDbEntity
  8
DRAW
  6
BYBLOCK
100
AcDbPoint
 10
124.107793
 20
190.0
 30
0.0
  0
ARC
  5
26D5
100
AcDbEntity
  8
DRAW
  6
CONTINUOUS
100
AcDbCircle
 10
158.228663
 20
156.60007
 30
0.0
 40
47.747539
100
AcDbArc
 50
134.766918
 51
135.611725
  0
LINE
  5
26D6
100
AcDbEntity
  8
DRAW
  6
CONTINUOUS
100
AcDbLine
 10
120.707792
 20
213.276573
 30
0.0
 11
120.707792
 21
212.5766
 31
0.0
  0
ARC
  5
26D7
100
AcDbEntity
  8
DRAW
  6
CONTINUOUS
100
AcDbCircle
 10
203.66423
 20
213.176577
 30
0.0
 40
82.462983
100
AcDbArc
 50
179.583129
 51
180.416871
  0
LINE
  5
26D8
100
AcDbEntity
  8
DRAW
  6
CONTINUOUS
100
AcDbLine
 10
120.707792
 20
212.5766
 30
0.0
 11
121.203429
 21
212.5766
 31
0.0
  0
POINT
  5
26D9
100
AcDbEntity
  8
DRAW
  6
BYBLOCK
100
AcDbPoint
 10
120.707792
 20
212.5766
 30
0.0
  0
ARC
  5
26DA
100
AcDbEntity
  8
DRAW
  6
CONTINUOUS
100
AcDbCircle
 10
121.207792
 20
213.276573
 30
0.0
 40
0.5
100
AcDbArc
 50
90.5
 51
180.0
  0
LINE
  5
26DB
100
AcDbEntity
  8
DRAW
  6
CONTINUOUS
100
AcDbLine
 10
120.707795
 20
213.274933
 30
0.0
 11
120.707792
 21
213.276573
 31
0.0
  0
LINE
  5
26DC
100
AcDbEntity
  8
DRAW
  6
CONTINUOUS
100
AcDbLine
 10
146.807795
 20
212.8
 30
0.0
 11
146.807794
 21
201.0
 31
0.0
  0
LINE
  5
26DD
100
AcDbEntity
  8
DRAW
  6
CONTINUOUS
100
AcDbLine
 10
146.807795
 20
214.0
 30
0.0
 11
146.807795
 21
212.800046
 31
0.0
  0
LINE
  5
26DE
100
AcDbEntity
  8
DRAW
  6
CONTINUOUS
100
AcDbLine
 10
177.319456
 20
191.904867
 30
0.0
 11
165.218266
 21
192.010472
 31
0.0
  0
ARC
  5
26DF
100
AcDbEntity
  8
DRAW
  6
CONTINUOUS
100
AcDbCircle
 10
165.207794
 20
212.766792
 30
0.0
 40
1.2
100
AcDbArc
 50
360.0
 51
89.5
  0
SPLINE
  5
26E0
100
AcDbEntity
  8
DRAW
  6
CONTINUOUS
100
AcDbSpline
210
0.0
220
0.0
230
1.0
 70
     8
 71
     3
 72
    14
 73
    10
 74
     8
 42
0.0000001
 43
0.0000001
 44
0.000001
 12
0.5797032677180684
 22
0.8148276636178927
 32
0.0
 13
0.000000000004043
 23
1.0
 33
0.0
 40
0.0
 40
0.0
 40
0.0
 40
0.0
 40
0.3996825121040214
 40
0.7944850607701757
 40
1.177639876507218
 40
1.541807905532089
 40
1.876459468464533
 40
2.167141362285858
 40
2.399157444831681
 40
2.399157444831681
 40
2.399157444831681
 40
2.399157444831681
 10
165.218266010343
 20
192.010472220595
 30
0.0
 10
165.2954984297818
 20
192.1190296764372
 30
0.0
 10
165.4489801557009
 20
192.3348508214703
 30
0.0
 10
165.6739553958459
 20
192.6565312003583
 30
0.0
 10
165.8871807504528
 20
192.9719955597445
 30
0.0
 10
166.0808259777358
 20
193.2762161297368
 30
0.0
 10
166.2444844089735
 20
193.5632399572671
 30
0.0
 10
166.3632644304752
 20
193.8226955733354
 30
0.0
 10
166.4077942150204
 20
193.9951208430794
 30
0.0
 10
166.4077942150207
 20
194.0724595372614
 30
0.0
 11
165.218266010343
 21
192.010472220595
 31
0.0
 11
165.4494922659856
 21
192.3364803898179
 31
0.0
 11
165.6753103266436
 21
192.6603248367496
 31
0.0
 11
165.8892102454695
 21
192.9782145692483
 31
0.0
 11
166.0835318056474
 21
193.286202840912
 31
0.0
 11
166.2469478256108
 21
193.5782418931802
 31
0.0
 11
166.3627677132847
 21
193.8448534353637
 31
0.0
 11
166.4077942150207
 21
194.0724595372614
 31
0.0
  0
LINE
  5
26E1
100
AcDbEntity
  8
DRAW
  6
CONTINUOUS
100
AcDbLine
 10
165.218266
 20
212.766792
 30
0.0
 11
166.407794
 21
212.766792
 31
0.0
  0
LINE
  5
26E2
100
AcDbEntity
  8
DRAW
  6
CONTINUOUS
100
AcDbLine
 10
165.218266
 20
212.766792
 30
0.0
 11
165.218266
 21
192.010472
 31
0.0
  0
LINE
  5
26E3
100
AcDbEntity
  8
DRAW
  6
CONTINUOUS
100
AcDbLine
 10
161.407794
 20
214.0
 30
0.0
 11
165.218266
 21
213.966747
 31
0.0
  0
LINE
  5
26E4
100
AcDbEntity
  8
DRAW
  6
CONTINUOUS
100
AcDbLine
 10
161.407794
 20
212.800046
 30
0.0
 11
165.218266
 21
212.766792
 31
0.0
  0
LINE
  5
26E5
100
AcDbEntity
  8
DRAW
  6
CONTINUOUS
100
AcDbLine
 10
161.407794
 20
214.0
 30
0.0
 11
161.407794
 21
212.800046
 31
0.0
  0
LINE
  5
26E6
100
AcDbEntity
  8
DRAW
  6
CONTINUOUS
100
AcDbLine
 10
165.221476
 20
213.875379
 30
0.0
 11
165.218266
 21
213.966747
 31
0.0
  0
LINE
  5
26E7
100
AcDbEntity
  8
DRAW
  6
CONTINUOUS
100
AcDbLine
 10
165.222603
 20
213.615256
 30
0.0
 11
165.221476
 21
213.875379
 31
0.0
  0
LINE
  5
26E8
100
AcDbEntity
  8
DRAW
  6
CONTINUOUS
100
AcDbLine
 10
165.221476
 20
213.225974
 30
0.0
 11
165.222603
 21
213.615256
 31
0.0
  0
LINE
  5
26E9
100
AcDbEntity
  8
DRAW
  6
CONTINUOUS
100
AcDbLine
 10
165.218266
 20
212.766792
 30
0.0
 11
165.221476
 21
213.225974
 31
0.0
  0
LINE
  5
26EA
100
AcDbEntity
  8
DRAW
  6
CONTINUOUS
100
AcDbLine
 10
166.407794
 20
212.766792
 30
0.0
 11
166.407794
 21
194.07246
 31
0.0
  0
LINE
  5
26EB
100
AcDbEntity
  8
DRAW
  6
CONTINUOUS
100
AcDbLine
 10
167.094126
 20
194.394011
 30
0.0
 11
177.319456
 21
194.304775
 31
0.0
  0
LINE
  5
26EC
100
AcDbEntity
  8
DRAW
  6
CONTINUOUS
100
AcDbLine
 10
167.407794
 20
200.8
 30
0.0
 11
167.407794
 21
194.391273
 31
0.0
  0
LINE
  5
26ED
100
AcDbEntity
  8
DRAW
  6
CONTINUOUS
100
AcDbLine
 10
167.607794
 20
200.8
 30
0.0
 11
167.607794
 21
194.389528
 31
0.0
  0
SPLINE
  5
26EE
100
AcDbEntity
  8
DRAW
  6
CONTINUOUS
100
AcDbSpline
210
0.0
220
0.0
230
-1.0
 70
     8
 71
     3
 72
    14
 73
    10
 74
     8
 42
0.0000001
 43
0.0000001
 44
0.000001
 12
0.0000000000038539
 22
1.0
 32
0.0
 13
0.9999619230641368
 23
-0.0087265355023454
 33
0.0
 40
0.0
 40
0.0
 40
0.0
 40
0.0
 40
0.0663843520093893
 40
0.1336810980193001
 40
0.2168720873158553
 40
0.3232919590708814
 40
0.4536359651637893
 40
0.6047204791339228
 40
0.7716396939035129
 40
0.7716396939035129
 40
0.7716396939035129
 40
0.7716396939035129
 10
166.4077942150212
 20
194.2067474777191
 30
0.0
 10
166.4077942150213
 20
194.2288755950555
 30
0.0
 10
166.4166011179812
 20
194.2748847322614
 30
0.0
 10
166.4685697672756
 20
194.329551980869
 30
0.0
 10
166.54891095404
 20
194.3627490062697
 30
0.0
 10
166.6539425839555
 20
194.3827446671207
 30
0.0
 10
166.7830479315532
 20
194.3922638647736
 30
0.0
 10
166.9324806369364
 20
194.3951106456533
 30
0.0
 10
167.038488155693
 20
194.3944960932934
 30
0.0
 10
167.0941257753588
 20
194.3940105511422
 30
0.0
 11
166.4077942150212
 21
194.2067474777191
 31
0.0
 11
166.4222687300214
 21
194.2715355957203
 31
0.0
 11
166.4669608896906
 21
194.321849278177
 31
0.0
 11
166.5422141714502
 21
194.3573130701032
 31
0.0
 11
166.6463090978423
 21
194.3794351484116
 31
0.0
 11
166.7761686125392
 21
194.3906571727689
 31
0.0
 11
166.9272060869215
 21
194.3944158754608
 31
0.0
 11
167.0941257753588
 21
194.3940105511422
 31
0.0
  0
LINE
  5
26EF
100
AcDbEntity
  8
DRAW
  6
CONTINUOUS
100
AcDbLine
 10
167.407794
 20
200.8
 30
0.0
 11
167.407794
 21
202.0
 31
0.0
  0
LINE
  5
26F0
100
AcDbEntity
  8
DRAW
  6
CONTINUOUS
100
AcDbLine
 10
167.607794
 20
200.8
 30
0.0
 11
167.607794
 21
201.8
 31
0.0
  0
LINE
  5
26F1
100
AcDbEntity
  8
DRAW
  6
CONTINUOUS
100
AcDbLine
 10
167.407794
 20
200.8
 30
0.0
 11
166.407794
 21
200.8
 31
0.0
  0
POINT
  5
26F2
100
AcDbEntity
  8
DRAW
  6
BYBLOCK
100
AcDbPoint
 10
167.607794
 20
200.8
 30
0.0
  0
LINE
  5
26F3
100
AcDbEntity
  8
DRAW
  6
CONTINUOUS
100
AcDbLine
 10
167.407794
 20
200.8
 30
0.0
 11
167.607794
 21
200.8
 31
0.0
  0
ARC
  5
26F4
100
AcDbEntity
  8
DRAW
  6
CONTINUOUS
100
AcDbCircle
 10
167.407794
 20
203.0
 30
0.0
 40
1.0
100
AcDbArc
 50
180.0
 51
270.0
  0
ARC
  5
26F5
100
AcDbEntity
  8
DRAW
  6
CONTINUOUS
100
AcDbCircle
 10
167.407794
 20
201.8
 30
0.0
 40
0.2
100
AcDbArc
 50
360.0
 51
90.0
  0
ARC
  5
26F6
100
AcDbEntity
  8
DRAW
  6
CONTINUOUS
100
AcDbCircle
 10
177.317798
 20
194.114783
 30
0.0
 40
0.19
100
AcDbArc
 50
360.0
 51
89.5
  0
LINE
  5
26F7
100
AcDbEntity
  8
DRAW
  6
CONTINUOUS
100
AcDbLine
 10
177.319456
 20
191.904867
 30
0.0
 11
177.507798
 21
191.904867
 31
0.0
  0
ARC
  5
26F8
100
AcDbEntity
  8
DRAW
  6
CONTINUOUS
100
AcDbCircle
 10
178.507798
 20
194.103132
 30
0.0
 40
1.0
100
AcDbArc
 50
180.0
 51
270.0
  0
LINE
  5
26F9
100
AcDbEntity
  8
DRAW
  6
CONTINUOUS
100
AcDbLine
 10
177.319456
 20
194.304775
 30
0.0
 11
177.319456
 21
191.904867
 31
0.0
  0
POINT
  5
26FA
100
AcDbEntity
  8
DRAW
  6
BYBLOCK
100
AcDbPoint
 10
177.319456
 20
194.304775
 30
0.0
  0
LINE
  5
26FB
100
AcDbEntity
  8
DRAW
  6
CONTINUOUS
100
AcDbLine
 10
177.507798
 20
194.114783
 30
0.0
 11
177.507798
 21
191.904867
 31
0.0
  0
ARC
  5
26FC
100
AcDbEntity
  8
DRAW
  6
CONTINUOUS
100
AcDbCircle
 10
178.507798
 20
192.903132
 30
0.0
 40
0.2
100
AcDbArc
 50
360.0
 51
90.0
  0
LINE
  5
26FD
100
AcDbEntity
  8
DRAW
  6
CONTINUOUS
100
AcDbLine
 10
178.507798
 20
191.903132
 30
0.0
 11
177.507798
 21
191.903132
 31
0.0
  0
POINT
  5
26FE
100
AcDbEntity
  8
DRAW
  6
BYBLOCK
100
AcDbPoint
 10
178.707798
 20
191.903132
 30
0.0
  0
POINT
  5
26FF
100
AcDbEntity
  8
DRAW
  6
BYBLOCK
100
AcDbPoint
 10
178.707798
 20
191.903132
 30
0.0
  0
LINE
  5
2700
100
AcDbEntity
  8
DRAW
  6
CONTINUOUS
100
AcDbLine
 10
178.707798
 20
191.903132
 30
0.0
 11
178.707798
 21
192.903132
 31
0.0
  0
LINE
  5
2701
100
AcDbEntity
  8
DRAW
  6
CONTINUOUS
100
AcDbLine
 10
178.507798
 20
191.903132
 30
0.0
 11
178.507798
 21
193.103132
 31
0.0
  0
LINE
  5
2702
100
AcDbEntity
  8
DRAW
  6
CONTINUOUS
100
AcDbLine
 10
178.507798
 20
191.903132
 30
0.0
 11
178.707798
 21
191.903132
 31
0.0
  0
POINT
  5
2703
100
AcDbEntity
  8
DRAW
  6
BYBLOCK
100
AcDbPoint
 10
166.407794
 20
212.766792
 30
0.0
  0
POLYLINE
  5
272A
100
AcDbEntity
  8
DRAW
100
AcDb2dPolyline
 66
     1
 10
0.0
 20
0.0
 30
0.0
 70
   129
  0
VERTEX
  5
2BB0
100
AcDbEntity
  8
DRAW
100
AcDbVertex
100
AcDb2dVertex
 10
41.996698
 20
203.971649
 30
0.0
  0
VERTEX
  5
2BB1
100
AcDbEntity
  8
DRAW
100
AcDbVertex
100
AcDb2dVertex
 10
41.587179
 20
205.499992
 30
0.0
  0
VERTEX
  5
2BB2
100
AcDbEntity
  8
DRAW
100
AcDbVertex
100
AcDb2dVertex
 10
41.996698
 20
207.028336
 30
0.0
  0
VERTEX
  5
2BB3
100
AcDbEntity
  8
DRAW
100
AcDbVertex
100
AcDb2dVertex
 10
40.468354
 20
206.618817
 30
0.0
  0
VERTEX
  5
2BB4
100
AcDbEntity
  8
DRAW
100
AcDbVertex
100
AcDb2dVertex
 10
38.940011
 20
207.028336
 30
0.0
  0
VERTEX
  5
2BB5
100
AcDbEntity
  8
DRAW
100
AcDbVertex
100
AcDb2dVertex
 10
39.349529
 20
205.499992
 30
0.0
  0
VERTEX
  5
2BB6
100
AcDbEntity
  8
DRAW
100
AcDbVertex
100
AcDb2dVertex
 10
38.940011
 20
203.971649
 30
0.0
  0
VERTEX
  5
2BB7
100
AcDbEntity
  8
DRAW
100
AcDbVertex
100
AcDb2dVertex
 10
40.468354
 20
204.381167
 30
0.0
  0
SEQEND
  5
2BB8
100
AcDbEntity
  8
DRAW
  0
CIRCLE
  5
272B
100
AcDbEntity
  8
DRAW
100
AcDbCircle
 10
40.468354
 20
205.499992
 30
0.0
 40
2.161404
  0
POLYLINE
  5
272C
100
AcDbEntity
  8
DRAW
100
AcDb2dPolyline
 66
     1
 10
0.0
 20
0.0
 30
0.0
 70
   129
  0
VERTEX
  5
2BB9
100
AcDbEntity
  8
DRAW
100
AcDbVertex
100
AcDb2dVertex
 10
48.496698
 20
203.971649
 30
0.0
  0
VERTEX
  5
2BBA
100
AcDbEntity
  8
DRAW
100
AcDbVertex
100
AcDb2dVertex
 10
48.08718
 20
205.499992
 30
0.0
  0
VERTEX
  5
2BBB
100
AcDbEntity
  8
DRAW
100
AcDbVertex
100
AcDb2dVertex
 10
48.496698
 20
207.028336
 30
0.0
  0
VERTEX
  5
2BBC
100
AcDbEntity
  8
DRAW
100
AcDbVertex
100
AcDb2dVertex
 10
46.968355
 20
206.618817
 30
0.0
  0
VERTEX
  5
2BBD
100
AcDbEntity
  8
DRAW
100
AcDbVertex
100
AcDb2dVertex
 10
45.440011
 20
207.028336
 30
0.0
  0
VERTEX
  5
2BBE
100
AcDbEntity
  8
DRAW
100
AcDbVertex
100
AcDb2dVertex
 10
45.84953
 20
205.499992
 30
0.0
  0
VERTEX
  5
2BBF
100
AcDbEntity
  8
DRAW
100
AcDbVertex
100
AcDb2dVertex
 10
45.440011
 20
203.971649
 30
0.0
  0
VERTEX
  5
2BC0
100
AcDbEntity
  8
DRAW
100
AcDbVertex
100
AcDb2dVertex
 10
46.968355
 20
204.381167
 30
0.0
  0
SEQEND
  5
2BC1
100
AcDbEntity
  8
DRAW
  0
CIRCLE
  5
272D
100
AcDbEntity
  8
DRAW
100
AcDbCircle
 10
46.968355
 20
205.499992
 30
0.0
 40
2.161404
  0
POLYLINE
  5
272E
100
AcDbEntity
  8
DRAW
100
AcDb2dPolyline
 66
     1
 10
0.0
 20
0.0
 30
0.0
 70
   129
  0
VERTEX
  5
2BC2
100
AcDbEntity
  8
DRAW
100
AcDbVertex
100
AcDb2dVertex
 10
56.996697
 20
203.971649
 30
0.0
  0
VERTEX
  5
2BC3
100
AcDbEntity
  8
DRAW
100
AcDbVertex
100
AcDb2dVertex
 10
56.587179
 20
205.499992
 30
0.0
  0
VERTEX
  5
2BC4
100
AcDbEntity
  8
DRAW
100
AcDbVertex
100
AcDb2dVertex
 10
56.996697
 20
207.028336
 30
0.0
  0
VERTEX
  5
2BC5
100
AcDbEntity
  8
DRAW
100
AcDbVertex
100
AcDb2dVertex
 10
55.468354
 20
206.618817
 30
0.0
  0
VERTEX
  5
2BC6
100
AcDbEntity
  8
DRAW
100
AcDbVertex
100
AcDb2dVertex
 10
53.94001
 20
207.028336
 30
0.0
  0
VERTEX
  5
2BC7
100
AcDbEntity
  8
DRAW
100
AcDbVertex
100
AcDb2dVertex
 10
54.349529
 20
205.499992
 30
0.0
  0
VERTEX
  5
2BC8
100
AcDbEntity
  8
DRAW
100
AcDbVertex
100
AcDb2dVertex
 10
53.94001
 20
203.971649
 30
0.0
  0
VERTEX
  5
2BC9
100
AcDbEntity
  8
DRAW
100
AcDbVertex
100
AcDb2dVertex
 10
55.468354
 20
204.381167
 30
0.0
  0
SEQEND
  5
2BCA
100
AcDbEntity
  8
DRAW
  0
CIRCLE
  5
272F
100
AcDbEntity
  8
DRAW
100
AcDbCircle
 10
55.468354
 20
205.499992
 30
0.0
 40
2.161404
  0
POLYLINE
  5
2730
100
AcDbEntity
  8
DRAW
100
AcDb2dPolyline
 66
     1
 10
0.0
 20
0.0
 30
0.0
 70
   129
  0
VERTEX
  5
2BCB
100
AcDbEntity
  8
DRAW
100
AcDbVertex
100
AcDb2dVertex
 10
63.496698
 20
203.971649
 30
0.0
  0
VERTEX
  5
2BCC
100
AcDbEntity
  8
DRAW
100
AcDbVertex
100
AcDb2dVertex
 10
63.087179
 20
205.499992
 30
0.0
  0
VERTEX
  5
2BCD
100
AcDbEntity
  8
DRAW
100
AcDbVertex
100
AcDb2dVertex
 10
63.496698
 20
207.028336
 30
0.0
  0
VERTEX
  5
2BCE
100
AcDbEntity
  8
DRAW
100
AcDbVertex
100
AcDb2dVertex
 10
61.968354
 20
206.618817
 30
0.0
  0
VERTEX
  5
2BCF
100
AcDbEntity
  8
DRAW
100
AcDbVertex
100
AcDb2dVertex
 10
60.440011
 20
207.028336
 30
0.0
  0
VERTEX
  5
2BD0
100
AcDbEntity
  8
DRAW
100
AcDbVertex
100
AcDb2dVertex
 10
60.849529
 20
205.499992
 30
0.0
  0
VERTEX
  5
2BD1
100
AcDbEntity
  8
DRAW
100
AcDbVertex
100
AcDb2dVertex
 10
60.440011
 20
203.971649
 30
0.0
  0
VERTEX
  5
2BD2
100
AcDbEntity
  8
DRAW
100
AcDbVertex
100
AcDb2dVertex
 10
61.968354
 20
204.381167
 30
0.0
  0
SEQEND
  5
2BD3
100
AcDbEntity
  8
DRAW
  0
CIRCLE
  5
2731
100
AcDbEntity
  8
DRAW
100
AcDbCircle
 10
61.968354
 20
205.499992
 30
0.0
 40
2.161404
  0
TEXT
  5
2732
100
AcDbEntity
  8
DRAW-TEXT
100
AcDbText
 10
39.006008
 20
196.596309
 30
0.0
 40
1.8
  1
A1
  7
FINDER
 72
     4
 11
40.468354
 21
197.499992
 31
0.0
100
AcDbText
  0
TEXT
  5
2733
100
AcDbEntity
  8
DRAW-TEXT
100
AcDbText
 10
53.069241
 20
196.596309
 30
0.0
 40
1.8
  1
B1
  7
FINDER
 72
     4
 11
54.468354
 21
197.499992
 31
0.0
100
AcDbText
  0
TEXT
  5
2734
100
AcDbEntity
  8
DRAW-TEXT
100
AcDbText
 10
45.998641
 20
196.596309
 30
0.0
 40
1.8
  1
A2
  7
FINDER
 72
     4
 11
47.468354
 21
197.499992
 31
0.0
100
AcDbText
  0
TEXT
  5
2735
100
AcDbEntity
  8
DRAW-TEXT
100
AcDbText
 10
60.061874
 20
196.596309
 30
0.0
 40
1.8
  1
B2
  7
FINDER
 72
     4
 11
61.468354
 21
197.499992
 31
0.0
100
AcDbText
  0
POLYLINE
  5
2736
100
AcDbEntity
  8
DRAW
100
AcDb2dPolyline
 66
     1
 10
0.0
 20
0.0
 30
0.0
 70
   129
  0
VERTEX
  5
2BD4
100
AcDbEntity
  8
DRAW
100
AcDbVertex
100
AcDb2dVertex
 10
41.996698
 20
136.971657
 30
0.0
  0
VERTEX
  5
2BD5
100
AcDbEntity
  8
DRAW
100
AcDbVertex
100
AcDb2dVertex
 10
41.587179
 20
138.5
 30
0.0
  0
VERTEX
  5
2BD6
100
AcDbEntity
  8
DRAW
100
AcDbVertex
100
AcDb2dVertex
 10
41.996698
 20
140.028344
 30
0.0
  0
VERTEX
  5
2BD7
100
AcDbEntity
  8
DRAW
100
AcDbVertex
100
AcDb2dVertex
 10
40.468354
 20
139.618825
 30
0.0
  0
VERTEX
  5
2BD8
100
AcDbEntity
  8
DRAW
100
AcDbVertex
100
AcDb2dVertex
 10
38.940011
 20
140.028344
 30
0.0
  0
VERTEX
  5
2BD9
100
AcDbEntity
  8
DRAW
100
AcDbVertex
100
AcDb2dVertex
 10
39.349529
 20
138.5
 30
0.0
  0
VERTEX
  5
2BDA
100
AcDbEntity
  8
DRAW
100
AcDbVertex
100
AcDb2dVertex
 10
38.940011
 20
136.971657
 30
0.0
  0
VERTEX
  5
2BDB
100
AcDbEntity
  8
DRAW
100
AcDbVertex
100
AcDb2dVertex
 10
40.468354
 20
137.381175
 30
0.0
  0
SEQEND
  5
2BDC
100
AcDbEntity
  8
DRAW
  0
CIRCLE
  5
2737
100
AcDbEntity
  8
DRAW
100
AcDbCircle
 10
40.468354
 20
138.5
 30
0.0
 40
2.161404
  0
POLYLINE
  5
2738
100
AcDbEntity
  8
DRAW
100
AcDb2dPolyline
 66
     1
 10
0.0
 20
0.0
 30
0.0
 70
   129
  0
VERTEX
  5
2BDD
100
AcDbEntity
  8
DRAW
100
AcDbVertex
100
AcDb2dVertex
 10
48.496698
 20
136.971657
 30
0.0
  0
VERTEX
  5
2BDE
100
AcDbEntity
  8
DRAW
100
AcDbVertex
100
AcDb2dVertex
 10
48.08718
 20
138.5
 30
0.0
  0
VERTEX
  5
2BDF
100
AcDbEntity
  8
DRAW
100
AcDbVertex
100
AcDb2dVertex
 10
48.496698
 20
140.028344
 30
0.0
  0
VERTEX
  5
2BE0
100
AcDbEntity
  8
DRAW
100
AcDbVertex
100
AcDb2dVertex
 10
46.968355
 20
139.618825
 30
0.0
  0
VERTEX
  5
2BE1
100
AcDbEntity
  8
DRAW
100
AcDbVertex
100
AcDb2dVertex
 10
45.440011
 20
140.028344
 30
0.0
  0
VERTEX
  5
2BE2
100
AcDbEntity
  8
DRAW
100
AcDbVertex
100
AcDb2dVertex
 10
45.84953
 20
138.5
 30
0.0
  0
VERTEX
  5
2BE3
100
AcDbEntity
  8
DRAW
100
AcDbVertex
100
AcDb2dVertex
 10
45.440011
 20
136.971657
 30
0.0
  0
VERTEX
  5
2BE4
100
AcDbEntity
  8
DRAW
100
AcDbVertex
100
AcDb2dVertex
 10
46.968355
 20
137.381175
 30
0.0
  0
SEQEND
  5
2BE5
100
AcDbEntity
  8
DRAW
  0
CIRCLE
  5
2739
100
AcDbEntity
  8
DRAW
100
AcDbCircle
 10
46.968355
 20
138.5
 30
0.0
 40
2.161404
  0
POLYLINE
  5
273A
100
AcDbEntity
  8
DRAW
100
AcDb2dPolyline
 66
     1
 10
0.0
 20
0.0
 30
0.0
 70
   129
  0
VERTEX
  5
2BE6
100
AcDbEntity
  8
DRAW
100
AcDbVertex
100
AcDb2dVertex
 10
56.996697
 20
136.971657
 30
0.0
  0
VERTEX
  5
2BE7
100
AcDbEntity
  8
DRAW
100
AcDbVertex
100
AcDb2dVertex
 10
56.587179
 20
138.5
 30
0.0
  0
VERTEX
  5
2BE8
100
AcDbEntity
  8
DRAW
100
AcDbVertex
100
AcDb2dVertex
 10
56.996697
 20
140.028344
 30
0.0
  0
VERTEX
  5
2BE9
100
AcDbEntity
  8
DRAW
100
AcDbVertex
100
AcDb2dVertex
 10
55.468354
 20
139.618825
 30
0.0
  0
VERTEX
  5
2BEA
100
AcDbEntity
  8
DRAW
100
AcDbVertex
100
AcDb2dVertex
 10
53.94001
 20
140.028344
 30
0.0
  0
VERTEX
  5
2BEB
100
AcDbEntity
  8
DRAW
100
AcDbVertex
100
AcDb2dVertex
 10
54.349529
 20
138.5
 30
0.0
  0
VERTEX
  5
2BEC
100
AcDbEntity
  8
DRAW
100
AcDbVertex
100
AcDb2dVertex
 10
53.94001
 20
136.971657
 30
0.0
  0
VERTEX
  5
2BED
100
AcDbEntity
  8
DRAW
100
AcDbVertex
100
AcDb2dVertex
 10
55.468354
 20
137.381175
 30
0.0
  0
SEQEND
  5
2BEE
100
AcDbEntity
  8
DRAW
  0
CIRCLE
  5
273B
100
AcDbEntity
  8
DRAW
100
AcDbCircle
 10
55.468354
 20
138.5
 30
0.0
 40
2.161404
  0
TEXT
  5
273C
100
AcDbEntity
  8
DRAW-TEXT
100
AcDbText
 10
39.650892
 20
145.596317
 30
0.0
 40
1.8
  1
14
  7
FINDER
 72
     4
 11
40.968354
 21
146.5
 31
0.0
100
AcDbText
  0
TEXT
  5
273D
100
AcDbEntity
  8
DRAW-TEXT
100
AcDbText
 10
53.656417
 20
145.596317
 30
0.0
 40
1.8
  1
12
  7
FINDER
 72
     4
 11
54.968354
 21
146.5
 31
0.0
100
AcDbText
  0
TEXT
  5
273E
100
AcDbEntity
  8
DRAW-TEXT
100
AcDbText
 10
46.663784
 20
145.596317
 30
0.0
 40
1.8
  1
11
  7
FINDER
 72
     4
 11
47.968354
 21
146.5
 31
0.0
100
AcDbText
  0
DIMENSION
  5
274D
100
AcDbEntity
  8
DIM
  6
CONTINUOUS
100
AcDbDimension
  2
*D0
 10
68.718399
 20
218.0
 30
0.0
 11
51.218377
 21
219.544645
 31
0.0
 70
    32
  3
FINDER
100
AcDbAlignedDimension
 13
33.718354
 23
212.800046
 33
0.0
 14
68.718399
 24
212.8
 34
0.0
100
AcDbRotatedDimension
1001
ACAD
1000
DSTYLE
1002
{
1070
   287
1070
     4
1002
}
  0
DIMENSION
  5
278E
100
AcDbEntity
  8
DIM
  6
CONTINUOUS
100
AcDbDimension
  2
*D1
 10
28.0
 20
130.0
 30
0.0
 11
26.455969
 21
172.0
 31
0.0
 70
    32
  3
FINDER
100
AcDbAlignedDimension
 13
34.918308
 23
214.0
 33
0.0
 14
34.918411
 24
130.0
 34
0.0
 50
90.0
100
AcDbRotatedDimension
1001
ACAD
1000
DSTYLE
1002
{
1070
   287
1070
     4
1002
}
  0
DIMENSION
  5
27B2
100
AcDbEntity
  8
DIM
  6
CONTINUOUS
100
AcDbDimension
  2
*D2
 10
178.707798
 20
236.625
 30
0.0
 11
150.99886
 21
236.625
 31
0.0
 70
   160
  3
FINDER
100
AcDbAlignedDimension
 13
120.707792
 23
212.5766
 33
0.0
 14
178.707798
 24
191.903132
 34
0.0
100
AcDbRotatedDimension
  0
DIMENSION
  5
27BF
100
AcDbEntity
  8
DIM
  6
CONTINUOUS
100
AcDbDimension
  2
*D3
 10
184.0
 20
149.695225
 30
0.0
 11
182.455969
 21
172.0
 31
0.0
 70
    32
  1
44.8
  3
FINDER
100
AcDbAlignedDimension
 13
177.319456
 23
194.304775
 33
0.0
 14
177.319456
 24
149.695225
 34
0.0
 50
90.0
100
AcDbRotatedDimension
  0
DIMENSION
  5
2803
100
AcDbEntity
  8
DIM
  6
CONTINUOUS
100
AcDbDimension
  2
*D4
 10
166.407794
 20
218.0
 30
0.0
 11
145.257793
 21
219.544645
 31
0.0
 70
    32
  3
FINDER
100
AcDbAlignedDimension
 13
124.107793
 23
190.0
 33
0.0
 14
166.407794
 24
212.766792
 34
0.0
100
AcDbRotatedDimension
  0
DIMENSION
  5
2810
100
AcDbEntity
  8
DIM
  6
CONTINUOUS
100
AcDbDimension
  2
*D5
 10
167.607794
 20
224.5
 30
0.0
 11
145.857793
 21
226.044645
 31
0.0
 70
    32
  3
FINDER
100
AcDbAlignedDimension
 13
124.107793
 23
190.0
 33
0.0
 14
167.607794
 24
200.8
 34
0.0
100
AcDbRotatedDimension
  0
DIMENSION
  5
281D
100
AcDbEntity
  8
DIM
  6
CONTINUOUS
100
AcDbDimension
  2
*D6
 10
178.707798
 20
231.0
 30
0.0
 11
151.407796
 21
232.544031
 31
0.0
 70
    32
  3
FINDER
100
AcDbAlignedDimension
 13
124.107793
 23
190.0
 33
0.0
 14
178.707798
 24
191.903132
 34
0.0
100
AcDbRotatedDimension
  0
ENDSEC
  0
SECTION
  2
OBJECTS
  0
DICTIONARY
  5
19
100
AcDbDictionary
  3
ACAD_GROUP
350
1A
  3
ACAD_MLINESTYLE
350
1B
  3
ACDBVARIABLEDICTIONARY
350
1F8B
  0
DICTIONARY
  5
1A
102
{ACAD_REACTORS
330
19
102
}
100
AcDbDictionary
  0
DICTIONARY
  5
1B
102
{ACAD_REACTORS
330
19
102
}
100
AcDbDictionary
  3
STANDARD
350
1C
  0
DICTIONARY
  5
1F8B
102
{ACAD_REACTORS
330
19
102
}
100
AcDbDictionary
  3
SORTENTS
350
1F8C
  0
MLINESTYLE
  5
1C
102
{ACAD_REACTORS
330
1B
102
}
100
AcDbMlineStyle
  2
STANDARD
 70
     0
  3

 62
     0
 51
90.0
 52
90.0
 71
     2
 49
0.5
 62
   256
  6
BYLAYER
 49
-0.5
 62
   256
  6
BYLAYER
  0
DICTIONARYVAR
  5
1F8C
102
{ACAD_REACTORS
330
1F8B
102
}
100
DictionaryVariables
280
     0
  1
96
  0
ENDSEC
  0
EOF
