  0
SECTION
  2
HEADER
  9
$ACADVER
  1
AC1014
  9
$ACADMAINTVER
 70
     9
  9
$DWGCODEPAGE
  3
ANSI_1252
  9
$INSBASE
 10
0.0
 20
0.0
 30
0.0
  9
$EXTMIN
 10
27.92774288273017
 20
14.61093173241984
 30
0.0
  9
$EXTMAX
 10
227.9277798827302
 20
301.6111147324198
 30
0.0
  9
$LIMMIN
 10
0.0
 20
0.0
  9
$LIMMAX
 10
210.0
 20
296.0
  9
$ORTHOMODE
 70
     0
  9
$REGENMODE
 70
     1
  9
$FILLMODE
 70
     1
  9
$QTEXTMODE
 70
     0
  9
$MIRRTEXT
 70
     1
  9
$DRAGMODE
 70
     2
  9
$LTSCALE
 40
0.5
  9
$OSMODE
 70
    39
  9
$ATTMODE
 70
     1
  9
$TEXTSIZE
 40
0.2
  9
$TRACEWID
 40
0.05
  9
$TEXTSTYLE
  7
FINDER
  9
$CLAYER
  8
CARTOUCHE
  9
$CELTYPE
  6
CONTINUOUS
  9
$CECOLOR
 62
     7
  9
$CELTSCALE
 40
1.0
  9
$DELOBJ
 70
     1
  9
$DISPSILH
 70
     0
  9
$DIMSCALE
 40
1.0
  9
$DIMASZ
 40
2.5
  9
$DIMEXO
 40
2.0
  9
$DIMDLI
 40
6.5
  9
$DIMRND
 40
0.0
  9
$DIMDLE
 40
0.0
  9
$DIMEXE
 40
1.25
  9
$DIMTP
 40
0.0
  9
$DIMTM
 40
0.0
  9
$DIMTXT
 40
3.5
  9
$DIMCEN
 40
2.5
  9
$DIMTSZ
 40
0.0
  9
$DIMTOL
 70
     0
  9
$DIMLIM
 70
     0
  9
$DIMTIH
 70
     0
  9
$DIMTOH
 70
     0
  9
$DIMSE1
 70
     0
  9
$DIMSE2
 70
     0
  9
$DIMTAD
 70
     1
  9
$DIMZIN
 70
     8
  9
$DIMBLK
  1

  9
$DIMASO
 70
     1
  9
$DIMSHO
 70
     1
  9
$DIMPOST
  1

  9
$DIMAPOST
  1

  9
$DIMALT
 70
     0
  9
$DIMALTD
 70
     3
  9
$DIMALTF
 40
0.03937
  9
$DIMLFAC
 40
1.0
  9
$DIMTOFL
 70
     1
  9
$DIMTVP
 40
0.0
  9
$DIMTIX
 70
     0
  9
$DIMSOXD
 70
     0
  9
$DIMSAH
 70
     0
  9
$DIMBLK1
  1

  9
$DIMBLK2
  1

  9
$DIMSTYLE
  2
FINDER
  9
$DIMCLRD
 70
   256
  9
$DIMCLRE
 70
   256
  9
$DIMCLRT
 70
     2
  9
$DIMTFAC
 40
1.0
  9
$DIMGAP
 40
0.625
  9
$DIMJUST
 70
     0
  9
$DIMSD1
 70
     0
  9
$DIMSD2
 70
     0
  9
$DIMTOLJ
 70
     0
  9
$DIMTZIN
 70
     8
  9
$DIMALTZ
 70
     0
  9
$DIMALTTZ
 70
     0
  9
$DIMFIT
 70
     3
  9
$DIMUPT
 70
     0
  9
$DIMUNIT
 70
     2
  9
$DIMDEC
 70
     2
  9
$DIMTDEC
 70
     2
  9
$DIMALTU
 70
     2
  9
$DIMALTTD
 70
     3
  9
$DIMTXSTY
  7
FINDER
  9
$DIMAUNIT
 70
     0
  9
$LUNITS
 70
     2
  9
$LUPREC
 70
     4
  9
$SKETCHINC
 40
0.1
  9
$FILLETRAD
 40
0.2
  9
$AUNITS
 70
     0
  9
$AUPREC
 70
     3
  9
$MENU
  1
acad
  9
$ELEVATION
 40
0.0
  9
$PELEVATION
 40
0.0
  9
$THICKNESS
 40
0.0
  9
$LIMCHECK
 70
     0
  9
$BLIPMODE
 70
     0
  9
$CHAMFERA
 40
0.0
  9
$CHAMFERB
 40
0.0
  9
$CHAMFERC
 40
0.0
  9
$CHAMFERD
 40
0.0
  9
$SKPOLY
 70
     0
  9
$TDCREATE
 40
2451901.420981018
  9
$TDUPDATE
 40
2454263.427397453
  9
$TDINDWG
 40
0.8612778935
  9
$TDUSRTIMER
 40
0.8612777083
  9
$USRTIMER
 70
     1
  9
$ANGBASE
 50
0.0
  9
$ANGDIR
 70
     0
  9
$PDMODE
 70
     0
  9
$PDSIZE
 40
0.0
  9
$PLINEWID
 40
0.0
  9
$COORDS
 70
     1
  9
$SPLFRAME
 70
     0
  9
$SPLINETYPE
 70
     6
  9
$SPLINESEGS
 70
     8
  9
$ATTDIA
 70
     0
  9
$ATTREQ
 70
     1
  9
$HANDLING
 70
 22529
  9
$HANDSEED
  5
5464
  9
$SURFTAB1
 70
     6
  9
$SURFTAB2
 70
     6
  9
$SURFTYPE
 70
     6
  9
$SURFU
 70
     6
  9
$SURFV
 70
     6
  9
$UCSNAME
  2

  9
$UCSORG
 10
0.0
 20
0.0
 30
0.0
  9
$UCSXDIR
 10
1.0
 20
0.0
 30
0.0
  9
$UCSYDIR
 10
0.0
 20
1.0
 30
0.0
  9
$PUCSNAME
  2

  9
$PUCSORG
 10
0.0
 20
0.0
 30
0.0
  9
$PUCSXDIR
 10
1.0
 20
0.0
 30
0.0
  9
$PUCSYDIR
 10
0.0
 20
1.0
 30
0.0
  9
$USERI1
 70
     0
  9
$USERI2
 70
     0
  9
$USERI3
 70
     0
  9
$USERI4
 70
     0
  9
$USERI5
 70
     0
  9
$USERR1
 40
0.0
  9
$USERR2
 40
0.0
  9
$USERR3
 40
0.0
  9
$USERR4
 40
0.0
  9
$USERR5
 40
0.0
  9
$WORLDVIEW
 70
     1
  9
$SHADEDGE
 70
     3
  9
$SHADEDIF
 70
    70
  9
$TILEMODE
 70
     1
  9
$MAXACTVP
 70
    16
  9
$PINSBASE
 10
0.0
 20
0.0
 30
0.0
  9
$PLIMCHECK
 70
     0
  9
$PEXTMIN
 10
1.000000000000000E+20
 20
1.000000000000000E+20
 30
1.000000000000000E+20
  9
$PEXTMAX
 10
-1.000000000000000E+20
 20
-1.000000000000000E+20
 30
-1.000000000000000E+20
  9
$PLIMMIN
 10
0.0
 20
0.0
  9
$PLIMMAX
 10
100.0
 20
100.0
  9
$UNITMODE
 70
     0
  9
$VISRETAIN
 70
     0
  9
$PLINEGEN
 70
     1
  9
$PSLTSCALE
 70
     0
  9
$TREEDEPTH
 70
  3020
  9
$PICKSTYLE
 70
     1
  9
$CMLSTYLE
  2
STANDARD
  9
$CMLJUST
 70
     0
  9
$CMLSCALE
 40
1.0
  9
$PROXYGRAPHICS
 70
     1
  9
$MEASUREMENT
 70
     0
  0
ENDSEC
  0
SECTION
  2
CLASSES
  0
CLASS
  1
LWPOLYLINE
  2
AcDbPolyline
  3
AutoCAD 2000
 90
        0
280
     0
281
     1
  0
CLASS
  1
IMAGE
  2
AcDbRasterImage
  3
ISM
 90
      127
280
     0
281
     1
  0
CLASS
  1
OLE2FRAME
  2
AcDbOle2Frame
  3
AutoCAD 2000
 90
        0
280
     0
281
     1
  0
CLASS
  1
HATCH
  2
AcDbHatch
  3
AutoCAD 2000
 90
        0
280
     0
281
     1
  0
CLASS
  1
DICTIONARYVAR
  2
AcDbDictionaryVar
  3
AutoCAD 2000
 90
        0
280
     0
281
     0
  0
CLASS
  1
RASTERVARIABLES
  2
AcDbRasterVariables
  3
ISM
 90
        0
280
     0
281
     0
  0
CLASS
  1
IMAGEDEF
  2
AcDbRasterImageDef
  3
ISM
 90
        0
280
     0
281
     0
  0
CLASS
  1
IMAGEDEF_REACTOR
  2
AcDbRasterImageDefReactor
  3
ISM
 90
        1
280
     0
281
     0
  0
CLASS
  1
SPATIAL_FILTER
  2
AcDbSpatialFilter
  3
AutoCAD 2000
 90
        0
280
     0
281
     0
  0
CLASS
  1
XRECORD
  2
AcDbXrecord
  3
AutoCAD 2000
 90
        0
280
     0
281
     0
  0
CLASS
  1
SORTENTSTABLE
  2
AcDbSortentsTable
  3
AutoCAD 2000
 90
        0
280
     0
281
     0
  0
CLASS
  1
LAYER_INDEX
  2
AcDbLayerIndex
  3
AutoCAD 2000
 90
        0
280
     0
281
     0
  0
CLASS
  1
SPATIAL_INDEX
  2
AcDbSpatialIndex
  3
AutoCAD 2000
 90
        0
280
     0
281
     0
  0
CLASS
  1
OBJECT_PTR
  2
CAseDLPNTableRecord
  3
ASE-LPNTableRecord
 90
        1
280
     0
281
     0
  0
CLASS
  1
LAYOUT
  2
AcDbLayout
  3
AutoCAD 2000
 90
        0
280
     0
281
     0
  0
CLASS
  1
PLOTSETTINGS
  2
AcDbPlotSettings
  3
AutoCAD 2000
 90
        0
280
     0
281
     0
  0
CLASS
  1
ACDBDICTIONARYWDFLT
  2
AcDbDictionaryWithDefault
  3
AutoCAD 2000
 90
        0
280
     0
281
     0
  0
CLASS
  1
ACDBPLACEHOLDER
  2
AcDbPlaceHolder
  3
AutoCAD 2000
 90
        0
280
     0
281
     0
  0
CLASS
  1
VBA_PROJECT
  2
AcDbVbaProject
  3
"acadvba"
 90
        1
280
     0
281
     0
  0
CLASS
  1
WIPEOUT
  2
AcDbWipeout
  3
WipeOut|AutoCAD Express Tool|expresstools@autodesk.com
 90
      127
280
     0
281
     1
  0
CLASS
  1
WIPEOUTVARIABLES
  2
AcDbWipeoutVariables
  3
WipeOut|AutoCAD Express Tool|expresstools@autodesk.com
 90
        0
280
     0
281
     0
  0
CLASS
  1
RTEXT
  2
RText
  3
RText|AutoCAD Express Tool|expresstools@autodesk.com
 90
        0
280
     0
281
     1
  0
CLASS
  1
ARCALIGNEDTEXT
  2
AcDbArcAlignedText
  3
ATEXT|AutoCAD Express Tool|expresstools@autodesk.com
 90
        0
280
     0
281
     1
  0
CLASS
  1
LONG_TRANSACTION
  2
AcDbLongTransaction
  3
AutoCAD 2000
 90
        0
280
     0
281
     0
  0
CLASS
  1
LWPOLYLINE
  2
AcDbPolyline
  3
AutoCAD 2000
 90
        0
280
     0
281
     1
  0
CLASS
  1
HATCH
  2
AcDbHatch
  3
AutoCAD 2000
 90
        0
280
     0
281
     1
  0
CLASS
  1
XRECORD
  2
AcDbXrecord
  3
AutoCAD 2000
 90
        0
280
     0
281
     0
  0
CLASS
  1
LONG_TRANSACTION
  2
AcDbLongTransaction
  3
AutoCAD 2000
 90
        0
280
     0
281
     0
  0
CLASS
  1
LWPOLYLINE
  2
AcDbPolyline
  3
AutoCAD 2000
 90
        0
280
     0
281
     1
  0
CLASS
  1
HATCH
  2
AcDbHatch
  3
AutoCAD 2000
 90
        0
280
     0
281
     1
  0
CLASS
  1
XRECORD
  2
AcDbXrecord
  3
AutoCAD 2000
 90
        0
280
     0
281
     0
  0
CLASS
  1
LONG_TRANSACTION
  2
AcDbLongTransaction
  3
AutoCAD 2000
 90
        0
280
     0
281
     0
  0
CLASS
  1
LWPOLYLINE
  2
AcDbPolyline
  3
AutoCAD 2000
 90
        0
280
     0
281
     1
  0
CLASS
  1
HATCH
  2
AcDbHatch
  3
AutoCAD 2000
 90
        0
280
     0
281
     1
  0
CLASS
  1
XRECORD
  2
AcDbXrecord
  3
AutoCAD 2000
 90
        0
280
     0
281
     0
  0
ENDSEC
  0
SECTION
  2
TABLES
  0
TABLE
  2
VPORT
  5
7
330
0
100
AcDbSymbolTable
 70
     3
  0
VPORT
  5
5441
330
7
100
AcDbSymbolTableRecord
100
AcDbViewportTableRecord
  2
*ACTIVE
 70
     0
 10
0.0
 20
0.0
 11
1.0
 21
1.0
 12
179.5882685149543
 22
152.8902973248136
 13
0.0
 23
0.0
 14
1.0
 24
1.0
 15
2.0
 25
2.0
 16
0.0
 26
0.0
 36
1.0
 17
0.0
 27
0.0
 37
0.0
 40
376.3276577583635
 41
1.626849894291754
 42
50.0
 43
0.0
 44
0.0
 50
0.0
 51
0.0
 71
     0
 72
   100
 73
     1
 74
     1
 75
     0
 76
     0
 77
     0
 78
     0
  0
ENDTAB
  0
TABLE
  2
LTYPE
  5
4
330
0
100
AcDbSymbolTable
 70
     1
  0
LTYPE
  5
11
330
4
100
AcDbSymbolTableRecord
100
AcDbLinetypeTableRecord
  2
BYBLOCK
 70
     0
  3

 72
    65
 73
     0
 40
0.0
  0
LTYPE
  5
12
330
4
100
AcDbSymbolTableRecord
100
AcDbLinetypeTableRecord
  2
BYLAYER
 70
     0
  3

 72
    65
 73
     0
 40
0.0
  0
LTYPE
  5
13
330
4
100
AcDbSymbolTableRecord
100
AcDbLinetypeTableRecord
  2
CONTINUOUS
 70
     0
  3
Solid line
 72
    65
 73
     0
 40
0.0
  0
ENDTAB
  0
TABLE
  2
LAYER
  5
2
330
0
100
AcDbSymbolTable
 70
    11
  0
LAYER
  5
14
330
2
100
AcDbSymbolTableRecord
100
AcDbLayerTableRecord
  2
0
 70
     0
 62
     7
  6
CONTINUOUS
  0
LAYER
  5
B1
330
2
100
AcDbSymbolTableRecord
100
AcDbLayerTableRecord
  2
DIM
 70
     0
 62
     3
  6
CONTINUOUS
  0
LAYER
  5
B2
330
2
100
AcDbSymbolTableRecord
100
AcDbLayerTableRecord
  2
DRAW
 70
     0
 62
     7
  6
CONTINUOUS
  0
LAYER
  5
B3
330
2
100
AcDbSymbolTableRecord
100
AcDbLayerTableRecord
  2
CARTOUCHE
 70
     0
 62
     7
  6
CONTINUOUS
  0
LAYER
  5
B4
330
2
100
AcDbSymbolTableRecord
100
AcDbLayerTableRecord
  2
DRAW-TEXT
 70
     0
 62
     1
  6
CONTINUOUS
  0
LAYER
  5
433F
330
2
100
AcDbSymbolTableRecord
100
AcDbLayerTableRecord
  2
DEFPOINTS
 70
     0
 62
     7
  6
CONTINUOUS
  0
LAYER
  5
4FF0
330
2
100
AcDbSymbolTableRecord
100
AcDbLayerTableRecord
  2
1
 70
     0
 62
     1
  6
CONTINUOUS
  0
LAYER
  5
4FF1
330
2
100
AcDbSymbolTableRecord
100
AcDbLayerTableRecord
  2
2
 70
     0
 62
     1
  6
CONTINUOUS
  0
LAYER
  5
4FF2
330
2
100
AcDbSymbolTableRecord
100
AcDbLayerTableRecord
  2
3
 70
     0
 62
     1
  6
CONTINUOUS
  0
LAYER
  5
4FF3
330
2
100
AcDbSymbolTableRecord
100
AcDbLayerTableRecord
  2
5
 70
     0
 62
     1
  6
CONTINUOUS
  0
LAYER
  5
4FF4
330
2
100
AcDbSymbolTableRecord
100
AcDbLayerTableRecord
  2
255
 70
     0
 62
     1
  6
CONTINUOUS
  0
ENDTAB
  0
TABLE
  2
STYLE
  5
3
330
0
100
AcDbSymbolTable
 70
     9
  0
STYLE
  5
17
330
3
100
AcDbSymbolTableRecord
100
AcDbTextStyleTableRecord
  2
STANDARD
 70
     0
 40
0.0
 41
1.0
 50
0.0
 71
     0
 42
0.2
  3
txt
  4

  0
STYLE
  5
BE
330
3
100
AcDbSymbolTableRecord
100
AcDbTextStyleTableRecord
  2
FINDER
 70
     0
 40
1.8
 41
1.0
 50
0.0
 71
     0
 42
0.2
  3
ARIAL.TTF
  4

1001
ACAD
1000
Arial
1071
       34
  0
STYLE
  5
4FF5
330
3
100
AcDbSymbolTableRecord
100
AcDbTextStyleTableRecord
  2
TSTYLE1
 70
     0
 40
1.8
 41
0.4600000000000001
 50
0.0
 71
     0
 42
0.2
  3
ARIAL.TTF
  4

1001
ACAD
1000
Arial
1071
    32000
  0
STYLE
  5
4FF6
330
3
100
AcDbSymbolTableRecord
100
AcDbTextStyleTableRecord
  2
TSTYLE2
 70
     0
 40
1.8
 41
0.6
 50
0.0
 71
     0
 42
0.2
  3
ARIAL.TTF
  4

1001
ACAD
1000
Arial
1071
    32000
  0
STYLE
  5
4FF7
330
3
100
AcDbSymbolTableRecord
100
AcDbTextStyleTableRecord
  2
TSTYLE3
 70
     0
 40
2.1
 41
0.4600000000000001
 50
0.0
 71
     0
 42
0.2
  3
ARIAL.TTF
  4

1001
ACAD
1000
Arial
1071
    32000
  0
STYLE
  5
4FF8
330
3
100
AcDbSymbolTableRecord
100
AcDbTextStyleTableRecord
  2
TSTYLE4
 70
     0
 40
3.0
 41
0.4600000000000001
 50
0.0
 71
     0
 42
0.2
  3
ARIAL.TTF
  4

1001
ACAD
1000
Arial
1071
    32000
  0
STYLE
  5
4FF9
330
3
100
AcDbSymbolTableRecord
100
AcDbTextStyleTableRecord
  2
TSTYLE5
 70
     0
 40
1.399999999999999
 41
1.000004
 50
0.0
 71
     0
 42
0.2
  3
ARIAL.TTF
  4

1001
ACAD
1000
Arial
1071
    32000
  0
STYLE
  5
4FFA
330
3
100
AcDbSymbolTableRecord
100
AcDbTextStyleTableRecord
  2
TSTYLE6
 70
     0
 40
1.399999999999999
 41
0.95
 50
0.0
 71
     0
 42
0.2
  3
ARIAL.TTF
  4

1001
ACAD
1000
Arial
1071
    32000
  0
STYLE
  5
4FFB
330
3
100
AcDbSymbolTableRecord
100
AcDbTextStyleTableRecord
  2
TSTYLE7
 70
     0
 40
3.0
 41
0.95
 50
0.0
 71
     0
 42
0.2
  3
ARIAL.TTF
  4

1001
ACAD
1000
Arial
1071
    32000
  0
ENDTAB
  0
TABLE
  2
VIEW
  5
5
330
0
100
AcDbSymbolTable
 70
     0
  0
ENDTAB
  0
TABLE
  2
UCS
  5
6
330
0
100
AcDbSymbolTable
 70
     0
  0
ENDTAB
  0
TABLE
  2
APPID
  5
8
330
0
100
AcDbSymbolTable
 70
     1
  0
APPID
  5
16
330
8
100
AcDbSymbolTableRecord
100
AcDbRegAppTableRecord
  2
ACAD
 70
     0
  0
ENDTAB
  0
TABLE
  2
DIMSTYLE
  5
9
330
0
100
AcDbSymbolTable
 70
     9
  0
DIMSTYLE
105
18
330
9
100
AcDbSymbolTableRecord
100
AcDbDimStyleTableRecord
  2
STANDARD
 70
     0
  3

  4

  5

  6

  7

 40
1.0
 41
0.18
 42
0.0625
 43
0.38
 44
0.18
 45
0.0
 46
0.0
 47
0.0
 48
0.0
140
0.18
141
0.09
142
0.0
143
25.4
144
1.0
145
0.0
146
1.0
147
0.09
 71
     0
 72
     0
 73
     1
 74
     1
 75
     0
 76
     0
 77
     0
 78
     0
170
     0
171
     2
172
     0
173
     0
174
     0
175
     0
176
     0
177
     0
178
     0
270
     2
271
     4
272
     4
273
     2
274
     2
340
17
275
     0
280
     0
281
     0
282
     0
283
     1
284
     0
285
     0
286
     0
287
     3
288
     0
  0
DIMSTYLE
105
D1
330
9
100
AcDbSymbolTableRecord
100
AcDbDimStyleTableRecord
  2
FINDER
 70
     0
  3

  4

  5

  6

  7

 40
1.0
 41
2.5
 42
2.0
 43
6.5
 44
1.25
 45
0.0
 46
0.0
 47
0.0
 48
0.0
140
3.5
141
2.5
142
0.0
143
0.03937
144
1.0
145
0.0
146
1.0
147
0.625
 71
     0
 72
     0
 73
     0
 74
     0
 75
     0
 76
     0
 77
     1
 78
     8
170
     0
171
     3
172
     1
173
     0
174
     0
175
     0
176
   256
177
   256
178
     2
270
     2
271
     2
272
     2
273
     2
274
     3
340
BE
275
     0
280
     0
281
     0
282
     0
283
     0
284
     8
285
     0
286
     0
287
     3
288
     0
  0
DIMSTYLE
105
7F2
330
9
100
AcDbSymbolTableRecord
100
AcDbDimStyleTableRecord
  2
FINDER1
 70
     0
  3

  4

  5

  6
DOTSMALL
  7
DOTSMALL
 40
1.0
 41
2.5
 42
2.0
 43
6.5
 44
1.25
 45
0.0
 46
0.0
 47
0.0
 48
0.0
140
3.5
141
2.5
142
0.0
143
0.03937
144
1.0
145
0.0
146
1.0
147
0.625
 71
     0
 72
     0
 73
     0
 74
     0
 75
     0
 76
     0
 77
     1
 78
     8
170
     0
171
     3
172
     1
173
     1
174
     0
175
     0
176
   256
177
   256
178
     2
270
     2
271
     2
272
     2
273
     2
274
     3
340
BE
275
     0
280
     0
281
     0
282
     0
283
     0
284
     8
285
     0
286
     0
287
     3
288
     0
  0
DIMSTYLE
105
4FFC
102
{ACAD_REACTORS
330
514B
102
}
330
9
100
AcDbSymbolTableRecord
100
AcDbDimStyleTableRecord
  2
DSTYLE1
 70
     0
  3

  4

  5

  6

  7

 40
1.0
 41
2.5
 42
36.802872
 43
0.38
 44
1.0
 45
0.0
 46
0.0
 47
0.0
 48
0.0
140
3.0
141
0.09
142
0.0
143
25.4
144
1.0
145
0.7
146
0.6
147
0.0
 71
     0
 72
     0
 73
     0
 74
     0
 75
     0
 76
     0
 77
     0
 78
     8
170
     0
171
     2
172
     0
173
     0
174
     1
175
     0
176
     0
177
     0
178
     4
270
     2
271
     2
272
     4
273
     2
274
     2
340
4FFB
275
     0
280
     0
281
     0
282
     0
283
     1
284
     0
285
     0
286
     0
287
     3
288
     0
  0
DIMSTYLE
105
4FFD
102
{ACAD_REACTORS
330
514A
102
}
330
9
100
AcDbSymbolTableRecord
100
AcDbDimStyleTableRecord
  2
DSTYLE2
 70
     0
  3

  4

  5

  6

  7

 40
1.0
 41
2.5
 42
37.242024
 43
0.38
 44
1.0
 45
0.0
 46
0.0
 47
0.0
 48
0.0
140
3.0
141
0.09
142
0.0
143
25.4
144
1.0
145
0.7
146
0.6
147
0.0
 71
     0
 72
     0
 73
     0
 74
     0
 75
     0
 76
     0
 77
     0
 78
     8
170
     0
171
     2
172
     0
173
     0
174
     1
175
     0
176
     0
177
     0
178
     4
270
     2
271
     2
272
     4
273
     2
274
     2
340
4FFB
275
     0
280
     0
281
     0
282
     0
283
     1
284
     0
285
     0
286
     0
287
     3
288
     0
  0
DIMSTYLE
105
4FFE
102
{ACAD_REACTORS
330
5149
102
}
330
9
100
AcDbSymbolTableRecord
100
AcDbDimStyleTableRecord
  2
DSTYLE3
 70
     0
  3

  4

  5

  6

  7

 40
1.0
 41
2.5
 42
1.111110999999998
 43
0.38
 44
1.0
 45
0.0
 46
0.0
 47
0.0
 48
0.0
140
3.0
141
0.09
142
0.0
143
25.4
144
1.0
145
0.7
146
0.6
147
0.0
 71
     0
 72
     0
 73
     0
 74
     0
 75
     0
 76
     0
 77
     0
 78
     8
170
     0
171
     2
172
     0
173
     0
174
     1
175
     0
176
     0
177
     0
178
     4
270
     2
271
     2
272
     4
273
     2
274
     2
340
4FFB
275
     0
280
     0
281
     0
282
     0
283
     1
284
     0
285
     0
286
     0
287
     3
288
     0
  0
DIMSTYLE
105
4FFF
102
{ACAD_REACTORS
330
520A
102
}
330
9
100
AcDbSymbolTableRecord
100
AcDbDimStyleTableRecord
  2
DSTYLE4
 70
     0
  3

  4

  5

  6

  7

 40
1.0
 41
2.5
 42
1.111110999999998
 43
0.38
 44
1.0
 45
0.0
 46
0.0
 47
0.0
 48
0.0
140
3.0
141
0.09
142
0.0
143
25.4
144
1.0
145
0.7
146
0.6
147
0.0
 71
     0
 72
     0
 73
     0
 74
     0
 75
     0
 76
     0
 77
     0
 78
     8
170
     0
171
     2
172
     0
173
     0
174
     0
175
     0
176
     0
177
     0
178
     4
270
     2
271
     2
272
     4
273
     2
274
     2
340
4FFB
275
     0
280
     0
281
     0
282
     0
283
     1
284
     0
285
     0
286
     0
287
     3
288
     0
  0
DIMSTYLE
105
5000
102
{ACAD_REACTORS
330
51BF
102
}
330
9
100
AcDbSymbolTableRecord
100
AcDbDimStyleTableRecord
  2
DSTYLE5
 70
     0
  3

  4

  5

  6

  7

 40
1.0
 41
2.5
 42
1.673659999999999
 43
0.38
 44
1.0
 45
0.0
 46
0.0
 47
0.0
 48
0.0
140
3.0
141
0.09
142
0.0
143
25.4
144
1.0
145
0.7
146
0.6
147
0.0
 71
     0
 72
     0
 73
     0
 74
     0
 75
     0
 76
     0
 77
     0
 78
     8
170
     0
171
     2
172
     0
173
     0
174
     0
175
     0
176
     0
177
     0
178
     4
270
     2
271
     2
272
     4
273
     2
274
     2
340
4FFB
275
     0
280
     0
281
     0
282
     0
283
     1
284
     0
285
     0
286
     0
287
     3
288
     0
  0
DIMSTYLE
105
5001
102
{ACAD_REACTORS
330
51C1
102
}
330
9
100
AcDbSymbolTableRecord
100
AcDbDimStyleTableRecord
  2
DSTYLE6
 70
     0
  3

  4

  5

  6

  7

 40
1.0
 41
2.5
 42
2.120134
 43
0.38
 44
1.0
 45
0.0
 46
0.0
 47
0.0
 48
0.0
140
3.0
141
0.09
142
0.0
143
25.4
144
1.0
145
0.7
146
0.6
147
0.0
 71
     0
 72
     0
 73
     0
 74
     0
 75
     0
 76
     0
 77
     0
 78
     8
170
     0
171
     2
172
     0
173
     0
174
     0
175
     0
176
     0
177
     0
178
     4
270
     2
271
     2
272
     4
273
     2
274
     2
340
4FFB
275
     0
280
     0
281
     0
282
     0
283
     1
284
     0
285
     0
286
     0
287
     3
288
     0
  0
ENDTAB
  0
TABLE
  2
BLOCK_RECORD
  5
1
330
0
100
AcDbSymbolTable
 70
    57
  0
BLOCK_RECORD
  5
A
102
{ACAD_XDICTIONARY
360
4F57
102
}
330
1
100
AcDbSymbolTableRecord
100
AcDbBlockTableRecord
  2
*MODEL_SPACE
  0
BLOCK_RECORD
  5
B
102
{ACAD_XDICTIONARY
360
4F59
102
}
330
1
100
AcDbSymbolTableRecord
100
AcDbBlockTableRecord
  2
*PAPER_SPACE
  0
BLOCK_RECORD
  5
7A1
330
1
100
AcDbSymbolTableRecord
100
AcDbBlockTableRecord
  2
_DOTSMALL
  0
BLOCK_RECORD
  5
4337
330
1
100
AcDbSymbolTableRecord
100
AcDbBlockTableRecord
  2
*D1
  0
BLOCK_RECORD
  5
4345
330
1
100
AcDbSymbolTableRecord
100
AcDbBlockTableRecord
  2
*D2
  0
BLOCK_RECORD
  5
4356
330
1
100
AcDbSymbolTableRecord
100
AcDbBlockTableRecord
  2
*D3
  0
BLOCK_RECORD
  5
4363
330
1
100
AcDbSymbolTableRecord
100
AcDbBlockTableRecord
  2
*D4
  0
BLOCK_RECORD
  5
4374
330
1
100
AcDbSymbolTableRecord
100
AcDbBlockTableRecord
  2
*D5
  0
BLOCK_RECORD
  5
4432
330
1
100
AcDbSymbolTableRecord
100
AcDbBlockTableRecord
  2
*D6
  0
BLOCK_RECORD
  5
443F
330
1
100
AcDbSymbolTableRecord
100
AcDbBlockTableRecord
  2
*D7
  0
BLOCK_RECORD
  5
471C
330
1
100
AcDbSymbolTableRecord
100
AcDbBlockTableRecord
  2
*D8
  0
BLOCK_RECORD
  5
4728
330
1
100
AcDbSymbolTableRecord
100
AcDbBlockTableRecord
  2
*D9
  0
BLOCK_RECORD
  5
4740
330
1
100
AcDbSymbolTableRecord
100
AcDbBlockTableRecord
  2
*D10
  0
BLOCK_RECORD
  5
4815
330
1
100
AcDbSymbolTableRecord
100
AcDbBlockTableRecord
  2
*D11
  0
BLOCK_RECORD
  5
487A
330
1
100
AcDbSymbolTableRecord
100
AcDbBlockTableRecord
  2
*D12
  0
BLOCK_RECORD
  5
4937
330
1
100
AcDbSymbolTableRecord
100
AcDbBlockTableRecord
  2
*D13
  0
BLOCK_RECORD
  5
4944
330
1
100
AcDbSymbolTableRecord
100
AcDbBlockTableRecord
  2
*D14
  0
BLOCK_RECORD
  5
4955
330
1
100
AcDbSymbolTableRecord
100
AcDbBlockTableRecord
  2
*D15
  0
BLOCK_RECORD
  5
498F
330
1
100
AcDbSymbolTableRecord
100
AcDbBlockTableRecord
  2
*D16
  0
BLOCK_RECORD
  5
49D5
330
1
100
AcDbSymbolTableRecord
100
AcDbBlockTableRecord
  2
*D17
  0
BLOCK_RECORD
  5
4A70
330
1
100
AcDbSymbolTableRecord
100
AcDbBlockTableRecord
  2
*D18
  0
BLOCK_RECORD
  5
4D15
330
1
100
AcDbSymbolTableRecord
100
AcDbBlockTableRecord
  2
*X19
  0
BLOCK_RECORD
  5
4DA6
330
1
100
AcDbSymbolTableRecord
100
AcDbBlockTableRecord
  2
*X20
  0
BLOCK_RECORD
  5
4DC6
330
1
100
AcDbSymbolTableRecord
100
AcDbBlockTableRecord
  2
*X21
  0
BLOCK_RECORD
  5
4DD3
330
1
100
AcDbSymbolTableRecord
100
AcDbBlockTableRecord
  2
*X22
  0
BLOCK_RECORD
  5
4DEA
330
1
100
AcDbSymbolTableRecord
100
AcDbBlockTableRecord
  2
*X23
  0
BLOCK_RECORD
  5
4E14
330
1
100
AcDbSymbolTableRecord
100
AcDbBlockTableRecord
  2
*X24
  0
BLOCK_RECORD
  5
4E43
330
1
100
AcDbSymbolTableRecord
100
AcDbBlockTableRecord
  2
*X25
  0
BLOCK_RECORD
  5
4E76
330
1
100
AcDbSymbolTableRecord
100
AcDbBlockTableRecord
  2
*X26
  0
BLOCK_RECORD
  5
4EFF
330
1
100
AcDbSymbolTableRecord
100
AcDbBlockTableRecord
  2
*D27
  0
BLOCK_RECORD
  5
4F0C
330
1
100
AcDbSymbolTableRecord
100
AcDbBlockTableRecord
  2
*D28
  0
BLOCK_RECORD
  5
4F1B
330
1
100
AcDbSymbolTableRecord
100
AcDbBlockTableRecord
  2
*D29
  0
BLOCK_RECORD
  5
4F6B
330
1
100
AcDbSymbolTableRecord
100
AcDbBlockTableRecord
  2
_G_T_1
  0
BLOCK_RECORD
  5
4F6F
330
1
100
AcDbSymbolTableRecord
100
AcDbBlockTableRecord
  2
_G_T_10
  0
BLOCK_RECORD
  5
4F73
330
1
100
AcDbSymbolTableRecord
100
AcDbBlockTableRecord
  2
_G_T_11
  0
BLOCK_RECORD
  5
4F77
330
1
100
AcDbSymbolTableRecord
100
AcDbBlockTableRecord
  2
_G_T_12
  0
BLOCK_RECORD
  5
4F7B
330
1
100
AcDbSymbolTableRecord
100
AcDbBlockTableRecord
  2
_G_T_13
  0
BLOCK_RECORD
  5
4F7F
330
1
100
AcDbSymbolTableRecord
100
AcDbBlockTableRecord
  2
_G_T_14
  0
BLOCK_RECORD
  5
4F83
330
1
100
AcDbSymbolTableRecord
100
AcDbBlockTableRecord
  2
_G_T_2
  0
BLOCK_RECORD
  5
4F87
330
1
100
AcDbSymbolTableRecord
100
AcDbBlockTableRecord
  2
_G_T_3
  0
BLOCK_RECORD
  5
4F8B
330
1
100
AcDbSymbolTableRecord
100
AcDbBlockTableRecord
  2
_G_T_4
  0
BLOCK_RECORD
  5
4F8F
330
1
100
AcDbSymbolTableRecord
100
AcDbBlockTableRecord
  2
_G_T_5
  0
BLOCK_RECORD
  5
4F93
330
1
100
AcDbSymbolTableRecord
100
AcDbBlockTableRecord
  2
_G_T_6
  0
BLOCK_RECORD
  5
4F97
330
1
100
AcDbSymbolTableRecord
100
AcDbBlockTableRecord
  2
_G_T_7
  0
BLOCK_RECORD
  5
4F9B
330
1
100
AcDbSymbolTableRecord
100
AcDbBlockTableRecord
  2
_G_T_8
  0
BLOCK_RECORD
  5
4F9F
330
1
100
AcDbSymbolTableRecord
100
AcDbBlockTableRecord
  2
_G_T_9
  0
BLOCK_RECORD
  5
4FA3
330
1
100
AcDbSymbolTableRecord
100
AcDbBlockTableRecord
  2
LW_POLYLINE_16
  0
BLOCK_RECORD
  5
4FAE
330
1
100
AcDbSymbolTableRecord
100
AcDbBlockTableRecord
  2
*D45
  0
BLOCK_RECORD
  5
4FB8
330
1
100
AcDbSymbolTableRecord
100
AcDbBlockTableRecord
  2
*D46
  0
BLOCK_RECORD
  5
4FC2
330
1
100
AcDbSymbolTableRecord
100
AcDbBlockTableRecord
  2
*D47
  0
BLOCK_RECORD
  5
4FCC
330
1
100
AcDbSymbolTableRecord
100
AcDbBlockTableRecord
  2
*D48
  0
BLOCK_RECORD
  5
4FD8
330
1
100
AcDbSymbolTableRecord
100
AcDbBlockTableRecord
  2
*D49
  0
BLOCK_RECORD
  5
4FE4
330
1
100
AcDbSymbolTableRecord
100
AcDbBlockTableRecord
  2
*D50
  0
BLOCK_RECORD
  5
528B
330
1
100
AcDbSymbolTableRecord
100
AcDbBlockTableRecord
  2
*D51
  0
BLOCK_RECORD
  5
5297
330
1
100
AcDbSymbolTableRecord
100
AcDbBlockTableRecord
  2
*D52
  0
BLOCK_RECORD
  5
52A3
330
1
100
AcDbSymbolTableRecord
100
AcDbBlockTableRecord
  2
*D53
  0
BLOCK_RECORD
  5
52AF
330
1
100
AcDbSymbolTableRecord
100
AcDbBlockTableRecord
  2
*D54
  0
BLOCK_RECORD
  5
52BC
330
1
100
AcDbSymbolTableRecord
100
AcDbBlockTableRecord
  2
*D55
  0
BLOCK_RECORD
  5
52C9
330
1
100
AcDbSymbolTableRecord
100
AcDbBlockTableRecord
  2
*D56
  0
ENDTAB
  0
ENDSEC
  0
SECTION
  2
BLOCKS
  0
BLOCK
  5
D
330
A
100
AcDbEntity
  8
0
100
AcDbBlockBegin
  2
*MODEL_SPACE
 70
     0
 10
0.0
 20
0.0
 30
0.0
  3
*MODEL_SPACE
  1

  0
ENDBLK
  5
E
330
A
100
AcDbEntity
  8
0
100
AcDbBlockEnd
  0
BLOCK
  5
F
330
B
100
AcDbEntity
 67
     1
  8
0
100
AcDbBlockBegin
  2
*PAPER_SPACE
 70
     0
 10
0.0
 20
0.0
 30
0.0
  3
*PAPER_SPACE
  1

  0
ENDBLK
  5
10
330
B
100
AcDbEntity
 67
     1
  8
0
100
AcDbBlockEnd
  0
BLOCK
  5
7A2
330
7A1
100
AcDbEntity
  8
0
100
AcDbBlockBegin
  2
_DOTSMALL
 70
     0
 10
0.0
 20
0.0
 30
0.0
  3
_DOTSMALL
  1

  0
LWPOLYLINE
  5
7A3
330
7A1
100
AcDbEntity
  8
0
  6
BYBLOCK
 62
     0
100
AcDbPolyline
 90
        2
 70
     1
 43
0.5
 10
-0.0625
 20
0.0
 42
1.0
 10
0.0625
 20
0.0
 42
1.0
  0
ENDBLK
  5
7A7
330
7A1
100
AcDbEntity
  8
0
100
AcDbBlockEnd
  0
BLOCK
  5
4338
330
4337
100
AcDbEntity
  8
0
100
AcDbBlockBegin
  2
*D1
 70
     1
 10
0.0
 20
0.0
 30
0.0
  3
*D1
  1

  0
LINE
  5
4339
330
4337
100
AcDbEntity
  8
0
  6
BYBLOCK
100
AcDbLine
 10
19.0
 20
203.197232
 30
0.0
 11
19.0
 21
206.25
 31
0.0
  0
LINE
  5
433A
330
4337
100
AcDbEntity
  8
0
  6
BYBLOCK
100
AcDbLine
 10
57.2
 20
203.197232
 30
0.0
 11
57.2
 21
206.25
 31
0.0
  0
LINE
  5
433B
330
4337
100
AcDbEntity
  8
0
  6
BYBLOCK
100
AcDbLine
 10
21.49999999999999
 20
205.0
 30
0.0
 11
54.7
 21
205.0
 31
0.0
  0
SOLID
  5
433C
330
4337
100
AcDbEntity
  8
0
  6
BYBLOCK
100
AcDbTrace
 10
21.49999999999999
 20
205.4166669999999
 30
0.0
 11
21.49999999999999
 21
204.583333
 31
0.0
 12
19.0
 22
205.0
 32
0.0
 13
19.0
 23
205.0
 33
0.0
  0
SOLID
  5
433D
330
4337
100
AcDbEntity
  8
0
  6
BYBLOCK
100
AcDbTrace
 10
54.7
 20
205.4166669999999
 30
0.0
 11
54.7
 21
204.583333
 31
0.0
 12
57.2
 22
205.0
 32
0.0
 13
57.2
 23
205.0
 33
0.0
  0
MTEXT
  5
433E
330
4337
100
AcDbEntity
  8
0
  6
BYBLOCK
 62
     2
100
AcDbMText
 10
38.1
 20
206.544645
 30
0.0
 40
1.8
 41
0.0
 71
     5
 72
     5
  1
38.2
  7
FINDER
1001
ACAD
1000
MTEXTBEGIN
1070
    73
1070
     1
1070
    44
1040
1.0
1070
    74
1070
     0
1000
MTEXTEND
1000
MTEXTBEGIN
1070
    73
1070
     1
1070
    44
1040
1.0
1070
    74
1070
     0
1000
MTEXTEND
1000
MTEXTBEGIN
1070
    73
1070
     1
1070
    44
1040
1.0
1070
    74
1070
     0
1000
MTEXTEND
  0
POINT
  5
4340
330
4337
100
AcDbEntity
  8
DEFPOINTS
  6
BYBLOCK
 62
     0
100
AcDbPoint
 10
19.0
 20
201.197232
 30
0.0
  0
POINT
  5
4341
330
4337
100
AcDbEntity
  8
DEFPOINTS
  6
BYBLOCK
 62
     0
100
AcDbPoint
 10
57.2
 20
201.197232
 30
0.0
  0
POINT
  5
4342
330
4337
100
AcDbEntity
  8
DEFPOINTS
  6
BYBLOCK
 62
     0
100
AcDbPoint
 10
57.2
 20
205.0
 30
0.0
  0
ENDBLK
  5
4343
330
4337
100
AcDbEntity
  8
0
100
AcDbBlockEnd
  0
BLOCK
  5
4346
330
4345
100
AcDbEntity
  8
0
100
AcDbBlockBegin
  2
*D2
 70
     1
 10
0.0
 20
0.0
 30
0.0
  3
*D2
  1

  0
LINE
  5
4347
330
4345
100
AcDbEntity
  8
0
  6
BYBLOCK
100
AcDbLine
 10
17.0
 20
201.197232
 30
0.0
 11
13.75
 21
201.197232
 31
0.0
  0
LINE
  5
4348
330
4345
100
AcDbEntity
  8
0
  6
BYBLOCK
100
AcDbLine
 10
17.0
 20
165.397232
 30
0.0
 11
13.75
 21
165.397232
 31
0.0
  0
LINE
  5
4349
330
4345
100
AcDbEntity
  8
0
  6
BYBLOCK
100
AcDbLine
 10
15.0
 20
198.697232
 30
0.0
 11
15.0
 21
167.8972319999999
 31
0.0
  0
SOLID
  5
434A
330
4345
100
AcDbEntity
  8
0
  6
BYBLOCK
100
AcDbTrace
 10
14.58333299999999
 20
198.697232
 30
0.0
 11
15.416667
 21
198.697232
 31
0.0
 12
15.0
 22
201.197232
 32
0.0
 13
15.0
 23
201.197232
 33
0.0
  0
SOLID
  5
434B
330
4345
100
AcDbEntity
  8
0
  6
BYBLOCK
100
AcDbTrace
 10
14.58333299999999
 20
167.8972319999999
 30
0.0
 11
15.416667
 21
167.8972319999999
 31
0.0
 12
15.0
 22
165.397232
 32
0.0
 13
15.0
 23
165.397232
 33
0.0
  0
MTEXT
  5
434C
330
4345
100
AcDbEntity
  8
0
  6
BYBLOCK
 62
     2
100
AcDbMText
 10
13.45535499999999
 20
183.297232
 30
0.0
 40
1.8
 41
0.0
 71
     5
 72
     5
  1
35.8
  7
FINDER
 11
0.0
 21
1.0
 31
0.0
1001
ACAD
1000
MTEXTBEGIN
1070
    73
1070
     1
1070
    44
1040
1.0
1070
    74
1070
     0
1000
MTEXTEND
1000
MTEXTBEGIN
1070
    73
1070
     1
1070
    44
1040
1.0
1070
    74
1070
     0
1000
MTEXTEND
1000
MTEXTBEGIN
1070
    73
1070
     1
1070
    44
1040
1.0
1070
    74
1070
     0
1000
MTEXTEND
  0
POINT
  5
434D
330
4345
100
AcDbEntity
  8
DEFPOINTS
  6
BYBLOCK
 62
     0
100
AcDbPoint
 10
19.0
 20
201.197232
 30
0.0
  0
POINT
  5
434E
330
4345
100
AcDbEntity
  8
DEFPOINTS
  6
BYBLOCK
 62
     0
100
AcDbPoint
 10
19.0
 20
165.397232
 30
0.0
  0
POINT
  5
434F
330
4345
100
AcDbEntity
  8
DEFPOINTS
  6
BYBLOCK
 62
     0
100
AcDbPoint
 10
15.0
 20
165.397232
 30
0.0
  0
ENDBLK
  5
4350
330
4345
100
AcDbEntity
  8
0
100
AcDbBlockEnd
  0
BLOCK
  5
4A2E
330
4356
100
AcDbEntity
  8
0
100
AcDbBlockBegin
  2
*D3
 70
     1
 10
0.0
 20
0.0
 30
0.0
  3
*D3
  1

  0
LINE
  5
4A2F
330
4356
100
AcDbEntity
  8
0
  6
BYBLOCK
100
AcDbLine
 10
88.05560699999999
 20
202.995906
 30
0.0
 11
88.05560699999999
 21
209.25
 31
0.0
  0
LINE
  5
4A30
330
4356
100
AcDbEntity
  8
0
  6
BYBLOCK
100
AcDbLine
 10
135.655607
 20
201.197232
 30
0.0
 11
135.655607
 21
209.25
 31
0.0
  0
LINE
  5
4A31
330
4356
100
AcDbEntity
  8
0
  6
BYBLOCK
100
AcDbLine
 10
90.55560699999999
 20
208.0
 30
0.0
 11
133.1556069999999
 21
208.0
 31
0.0
  0
SOLID
  5
4A32
330
4356
100
AcDbEntity
  8
0
  6
BYBLOCK
100
AcDbTrace
 10
90.55560699999999
 20
208.416667
 30
0.0
 11
90.55560699999999
 21
207.583333
 31
0.0
 12
88.05560699999999
 22
208.0
 32
0.0
 13
88.05560699999999
 23
208.0
 33
0.0
  0
SOLID
  5
4A33
330
4356
100
AcDbEntity
  8
0
  6
BYBLOCK
100
AcDbTrace
 10
133.1556069999999
 20
208.416667
 30
0.0
 11
133.1556069999999
 21
207.583333
 31
0.0
 12
135.655607
 22
208.0
 32
0.0
 13
135.655607
 23
208.0
 33
0.0
  0
MTEXT
  5
4A34
330
4356
100
AcDbEntity
  8
0
  6
BYBLOCK
 62
     2
100
AcDbMText
 10
111.855607
 20
209.544031
 30
0.0
 40
1.8
 41
0.0
 71
     5
 72
     5
  1
47.6
  7
FINDER
1001
ACAD
1000
MTEXTBEGIN
1070
    73
1070
     1
1070
    44
1040
1.0
1070
    74
1070
     0
1000
MTEXTEND
1000
MTEXTBEGIN
1070
    73
1070
     1
1070
    44
1040
1.0
1070
    74
1070
     0
1000
MTEXTEND
1000
MTEXTBEGIN
1070
    73
1070
     1
1070
    44
1040
1.0
1070
    74
1070
     0
1000
MTEXTEND
  0
POINT
  5
4A35
330
4356
100
AcDbEntity
  8
DEFPOINTS
  6
BYBLOCK
 62
     0
100
AcDbPoint
 10
88.05560699999999
 20
200.995906
 30
0.0
  0
POINT
  5
4A36
330
4356
100
AcDbEntity
  8
DEFPOINTS
  6
BYBLOCK
 62
     0
100
AcDbPoint
 10
135.655607
 20
199.197232
 30
0.0
  0
POINT
  5
4A37
330
4356
100
AcDbEntity
  8
DEFPOINTS
  6
BYBLOCK
 62
     0
100
AcDbPoint
 10
135.655607
 20
208.0
 30
0.0
  0
ENDBLK
  5
4A38
330
4356
100
AcDbEntity
  8
0
100
AcDbBlockEnd
  0
BLOCK
  5
4C9B
330
4363
100
AcDbEntity
  8
0
100
AcDbBlockBegin
  2
*D4
 70
     1
 10
0.0
 20
0.0
 30
0.0
  3
*D4
  1

  0
LINE
  5
4C9C
330
4363
100
AcDbEntity
  8
0
  6
BYBLOCK
100
AcDbLine
 10
84.55560699999997
 20
201.697232
 30
0.0
 11
84.55560699999997
 21
209.25
 31
0.0
  0
LINE
  5
4C9D
330
4363
100
AcDbEntity
  8
0
  6
BYBLOCK
100
AcDbLine
 10
90.55560699999999
 20
208.0
 30
0.0
 11
93.05560699999999
 21
208.0
 31
0.0
  0
LINE
  5
4C9E
330
4363
100
AcDbEntity
  8
0
  6
BYBLOCK
100
AcDbLine
 10
82.05560699999997
 20
208.0
 30
0.0
 11
79.55560699999998
 21
208.0
 31
0.0
  0
LINE
  5
4C9F
330
4363
100
AcDbEntity
  8
0
  6
BYBLOCK
100
AcDbLine
 10
86.305607
 20
208.0
 30
0.0
 11
87.23775100000002
 21
211.107145
 31
0.0
  0
LINE
  5
4CA0
330
4363
100
AcDbEntity
  8
0
  6
BYBLOCK
100
AcDbLine
 10
87.23775100000002
 20
211.107145
 30
0.0
 11
91.77710899999999
 21
211.107145
 31
0.0
  0
MTEXT
  5
4CA1
330
4363
100
AcDbEntity
  8
0
  6
BYBLOCK
 62
     2
100
AcDbMText
 10
87.86275100000002
 20
212.651791
 30
0.0
 40
1.8
 41
0.0
 71
     4
 72
     5
  1
3.5
  7
FINDER
1001
ACAD
1000
MTEXTBEGIN
1070
    73
1070
     1
1070
    44
1040
1.0
1070
    74
1070
     0
1000
MTEXTEND
1000
MTEXTBEGIN
1070
    73
1070
     1
1070
    44
1040
1.0
1070
    74
1070
     0
1000
MTEXTEND
1000
MTEXTBEGIN
1070
    73
1070
     1
1070
    44
1040
1.0
1070
    74
1070
     0
1000
MTEXTEND
  0
LINE
  5
4CA2
330
4363
100
AcDbEntity
  8
0
  6
BYBLOCK
100
AcDbLine
 10
88.05560699999999
 20
208.0
 30
0.0
 11
84.55560699999997
 21
208.0
 31
0.0
  0
LINE
  5
4CA3
330
4363
100
AcDbEntity
  8
0
  6
BYBLOCK
100
AcDbLine
 10
88.05560699999999
 20
208.0
 30
0.0
 11
84.55560699999997
 21
208.0
 31
0.0
  0
SOLID
  5
4CA4
330
4363
100
AcDbEntity
  8
0
  6
BYBLOCK
100
AcDbTrace
 10
90.55560699999999
 20
208.416667
 30
0.0
 11
90.55560699999999
 21
207.583333
 31
0.0
 12
88.05560699999999
 22
208.0
 32
0.0
 13
88.05560699999999
 23
208.0
 33
0.0
  0
SOLID
  5
4CA5
330
4363
100
AcDbEntity
  8
0
  6
BYBLOCK
100
AcDbTrace
 10
82.05560699999997
 20
208.416667
 30
0.0
 11
82.05560699999997
 21
207.583333
 31
0.0
 12
84.55560699999997
 22
208.0
 32
0.0
 13
84.55560699999997
 23
208.0
 33
0.0
  0
POINT
  5
4CA6
330
4363
100
AcDbEntity
  8
DEFPOINTS
  6
BYBLOCK
 62
     0
100
AcDbPoint
 10
88.05560699999999
 20
200.995906
 30
0.0
  0
POINT
  5
4CA7
330
4363
100
AcDbEntity
  8
DEFPOINTS
  6
BYBLOCK
 62
     0
100
AcDbPoint
 10
84.55560699999997
 20
199.697232
 30
0.0
  0
POINT
  5
4CA8
330
4363
100
AcDbEntity
  8
DEFPOINTS
  6
BYBLOCK
 62
     0
100
AcDbPoint
 10
84.55560699999997
 20
208.0
 30
0.0
  0
ENDBLK
  5
4CA9
330
4363
100
AcDbEntity
  8
0
100
AcDbBlockEnd
  0
BLOCK
  5
46F8
330
4374
100
AcDbEntity
  8
0
100
AcDbBlockBegin
  2
*D5
 70
     1
 10
0.0
 20
0.0
 30
0.0
  3
*D5
  1

  0
LINE
  5
46F9
330
4374
100
AcDbEntity
  8
0
  6
BYBLOCK
100
AcDbLine
 10
88.255607
 20
163.3972319999999
 30
0.0
 11
88.255607
 21
158.75
 31
0.0
  0
LINE
  5
46FA
330
4374
100
AcDbEntity
  8
0
  6
BYBLOCK
100
AcDbLine
 10
78.556929
 20
171.795902
 30
0.0
 11
78.556929
 21
158.75
 31
0.0
  0
LINE
  5
46FB
330
4374
100
AcDbEntity
  8
0
  6
BYBLOCK
100
AcDbLine
 10
85.755607
 20
160.0
 30
0.0
 11
81.05692899999999
 21
160.0
 31
0.0
  0
SOLID
  5
46FC
330
4374
100
AcDbEntity
  8
0
  6
BYBLOCK
100
AcDbTrace
 10
85.755607
 20
160.4166669999998
 30
0.0
 11
85.755607
 21
159.583333
 31
0.0
 12
88.255607
 22
160.0
 32
0.0
 13
88.255607
 23
160.0
 33
0.0
  0
SOLID
  5
46FD
330
4374
100
AcDbEntity
  8
0
  6
BYBLOCK
100
AcDbTrace
 10
81.05692899999999
 20
160.4166669999998
 30
0.0
 11
81.05692899999999
 21
159.583333
 31
0.0
 12
78.556929
 22
160.0
 32
0.0
 13
78.556929
 23
160.0
 33
0.0
  0
MTEXT
  5
46FE
330
4374
100
AcDbEntity
  8
0
  6
BYBLOCK
 62
     2
100
AcDbMText
 10
83.406268
 20
161.544031
 30
0.0
 40
1.8
 41
0.0
 71
     5
 72
     5
  1
9.7
  7
FINDER
1001
ACAD
1000
MTEXTBEGIN
1070
    73
1070
     1
1070
    44
1040
1.0
1070
    74
1070
     0
1000
MTEXTEND
1000
MTEXTBEGIN
1070
    73
1070
     1
1070
    44
1040
1.0
1070
    74
1070
     0
1000
MTEXTEND
1000
MTEXTBEGIN
1070
    73
1070
     1
1070
    44
1040
1.0
1070
    74
1070
     0
1000
MTEXTEND
  0
POINT
  5
46FF
330
4374
100
AcDbEntity
  8
DEFPOINTS
  6
BYBLOCK
 62
     0
100
AcDbPoint
 10
88.255607
 20
165.397232
 30
0.0
  0
POINT
  5
4700
330
4374
100
AcDbEntity
  8
DEFPOINTS
  6
BYBLOCK
 62
     0
100
AcDbPoint
 10
78.556929
 20
173.795902
 30
0.0
  0
POINT
  5
4701
330
4374
100
AcDbEntity
  8
DEFPOINTS
  6
BYBLOCK
 62
     0
100
AcDbPoint
 10
78.556929
 20
160.0
 30
0.0
  0
ENDBLK
  5
4702
330
4374
100
AcDbEntity
  8
0
100
AcDbBlockEnd
  0
BLOCK
  5
47B2
330
4432
100
AcDbEntity
  8
0
100
AcDbBlockBegin
  2
*D6
 70
     1
 10
0.0
 20
0.0
 30
0.0
  3
*D6
  1

  0
LINE
  5
47B3
330
4432
100
AcDbEntity
  8
0
  6
BYBLOCK
100
AcDbLine
 10
76.556929
 20
111.855185
 30
0.0
 11
67.75
 21
111.855185
 31
0.0
  0
LINE
  5
47B4
330
4432
100
AcDbEntity
  8
0
  6
BYBLOCK
100
AcDbLine
 10
76.556929
 20
122.955185
 30
0.0
 11
67.75
 21
122.955185
 31
0.0
  0
LINE
  5
47B5
330
4432
100
AcDbEntity
  8
0
  6
BYBLOCK
100
AcDbLine
 10
69.0
 20
114.355185
 30
0.0
 11
69.0
 21
120.455185
 31
0.0
  0
SOLID
  5
47B6
330
4432
100
AcDbEntity
  8
0
  6
BYBLOCK
100
AcDbTrace
 10
68.58333299999999
 20
114.355185
 30
0.0
 11
69.416667
 21
114.355185
 31
0.0
 12
69.0
 22
111.855185
 32
0.0
 13
69.0
 23
111.855185
 33
0.0
  0
SOLID
  5
47B7
330
4432
100
AcDbEntity
  8
0
  6
BYBLOCK
100
AcDbTrace
 10
68.58333299999999
 20
120.455185
 30
0.0
 11
69.416667
 21
120.455185
 31
0.0
 12
69.0
 22
122.955185
 32
0.0
 13
69.0
 23
122.955185
 33
0.0
  0
MTEXT
  5
47B8
330
4432
100
AcDbEntity
  8
0
  6
BYBLOCK
 62
     2
100
AcDbMText
 10
67.471317
 20
117.405185
 30
0.0
 40
1.8
 41
0.0
 71
     5
 72
     5
  1
11.1
  7
FINDER
 11
0.0
 21
1.0
 31
0.0
1001
ACAD
1000
MTEXTBEGIN
1070
    73
1070
     1
1070
    44
1040
1.0
1070
    74
1070
     0
1000
MTEXTEND
1000
MTEXTBEGIN
1070
    73
1070
     1
1070
    44
1040
1.0
1070
    74
1070
     0
1000
MTEXTEND
1000
MTEXTBEGIN
1070
    73
1070
     1
1070
    44
1040
1.0
1070
    74
1070
     0
1000
MTEXTEND
  0
POINT
  5
47B9
330
4432
100
AcDbEntity
  8
DEFPOINTS
  6
BYBLOCK
 62
     0
100
AcDbPoint
 10
78.556929
 20
111.855185
 30
0.0
  0
POINT
  5
47BA
330
4432
100
AcDbEntity
  8
DEFPOINTS
  6
BYBLOCK
 62
     0
100
AcDbPoint
 10
78.556929
 20
122.955185
 30
0.0
  0
POINT
  5
47BB
330
4432
100
AcDbEntity
  8
DEFPOINTS
  6
BYBLOCK
 62
     0
100
AcDbPoint
 10
69.0
 20
122.955185
 30
0.0
  0
ENDBLK
  5
47BC
330
4432
100
AcDbEntity
  8
0
100
AcDbBlockEnd
  0
BLOCK
  5
4CAA
330
443F
100
AcDbEntity
  8
0
100
AcDbBlockBegin
  2
*D7
 70
     1
 10
0.0
 20
0.0
 30
0.0
  3
*D7
  1

  0
LINE
  5
4CAB
330
443F
100
AcDbEntity
  8
0
  6
BYBLOCK
100
AcDbLine
 10
76.556929
 20
129.055185
 30
0.0
 11
67.75
 21
129.055185
 31
0.0
  0
LINE
  5
4CAC
330
443F
100
AcDbEntity
  8
0
  6
BYBLOCK
100
AcDbLine
 10
69.0
 20
120.455185
 30
0.0
 11
69.0
 21
126.555185
 31
0.0
  0
SOLID
  5
4CAD
330
443F
100
AcDbEntity
  8
0
  6
BYBLOCK
100
AcDbTrace
 10
68.58333299999999
 20
120.455185
 30
0.0
 11
69.416667
 21
120.455185
 31
0.0
 12
69.0
 22
117.955185
 32
0.0
 13
69.0
 23
117.955185
 33
0.0
  0
SOLID
  5
4CAE
330
443F
100
AcDbEntity
  8
0
  6
BYBLOCK
100
AcDbTrace
 10
68.58333299999999
 20
126.555185
 30
0.0
 11
69.416667
 21
126.555185
 31
0.0
 12
69.0
 22
129.055185
 32
0.0
 13
69.0
 23
129.055185
 33
0.0
  0
MTEXT
  5
4CAF
330
443F
100
AcDbEntity
  8
0
  6
BYBLOCK
 62
     2
100
AcDbMText
 10
67.471317
 20
123.505185
 30
0.0
 40
1.8
 41
0.0
 71
     5
 72
     5
  1
11.1
  7
FINDER
 11
0.0
 21
1.0
 31
0.0
1001
ACAD
1000
MTEXTBEGIN
1070
    73
1070
     1
1070
    44
1040
1.0
1070
    74
1070
     0
1000
MTEXTEND
1000
MTEXTBEGIN
1070
    73
1070
     1
1070
    44
1040
1.0
1070
    74
1070
     0
1000
MTEXTEND
1000
MTEXTBEGIN
1070
    73
1070
     1
1070
    44
1040
1.0
1070
    74
1070
     0
1000
MTEXTEND
  0
POINT
  5
4CB0
330
443F
100
AcDbEntity
  8
DEFPOINTS
  6
BYBLOCK
 62
     0
100
AcDbPoint
 10
78.556929
 20
117.955185
 30
0.0
  0
POINT
  5
4CB1
330
443F
100
AcDbEntity
  8
DEFPOINTS
  6
BYBLOCK
 62
     0
100
AcDbPoint
 10
78.556929
 20
129.055185
 30
0.0
  0
POINT
  5
4CB2
330
443F
100
AcDbEntity
  8
DEFPOINTS
  6
BYBLOCK
 62
     0
100
AcDbPoint
 10
69.0
 20
129.055185
 30
0.0
  0
ENDBLK
  5
4CB3
330
443F
100
AcDbEntity
  8
0
100
AcDbBlockEnd
  0
BLOCK
  5
4CB4
330
471C
100
AcDbEntity
  8
0
100
AcDbBlockBegin
  2
*D8
 70
     1
 10
0.0
 20
0.0
 30
0.0
  3
*D8
  1

  0
LINE
  5
4CB5
330
471C
100
AcDbEntity
  8
0
  6
BYBLOCK
100
AcDbLine
 10
76.556929
 20
174.1959019999999
 30
0.0
 11
67.75
 21
174.1959019999999
 31
0.0
  0
LINE
  5
4CB6
330
471C
100
AcDbEntity
  8
0
  6
BYBLOCK
100
AcDbLine
 10
76.556929
 20
181.795902
 30
0.0
 11
67.75
 21
181.795902
 31
0.0
  0
LINE
  5
4CB7
330
471C
100
AcDbEntity
  8
0
  6
BYBLOCK
100
AcDbLine
 10
69.0
 20
176.6959019999999
 30
0.0
 11
69.0
 21
181.795902
 31
0.0
  0
SOLID
  5
4CB8
330
471C
100
AcDbEntity
  8
0
  6
BYBLOCK
100
AcDbTrace
 10
68.58333299999999
 20
176.6959019999999
 30
0.0
 11
69.416667
 21
176.6959019999999
 31
0.0
 12
69.0
 22
174.1959019999999
 32
0.0
 13
69.0
 23
174.1959019999999
 33
0.0
  0
INSERT
  5
4CB9
330
471C
100
AcDbEntity
  8
0
  6
BYBLOCK
100
AcDbBlockReference
  2
_DOTSMALL
 10
69.0
 20
181.795902
 30
0.0
 41
2.5
 42
2.5
 43
2.5
 50
90.0
  0
MTEXT
  5
4CBA
330
471C
100
AcDbEntity
  8
0
  6
BYBLOCK
 62
     2
100
AcDbMText
 10
67.45596899999999
 20
179.245902
 30
0.0
 40
1.8
 41
0.0
 71
     5
 72
     5
  1
7.6
  7
FINDER
 11
0.0
 21
1.0
 31
0.0
1001
ACAD
1000
MTEXTBEGIN
1070
    73
1070
     1
1070
    44
1040
1.0
1070
    74
1070
     0
1000
MTEXTEND
1000
MTEXTBEGIN
1070
    73
1070
     1
1070
    44
1040
1.0
1070
    74
1070
     0
1000
MTEXTEND
1000
MTEXTBEGIN
1070
    73
1070
     1
1070
    44
1040
1.0
1070
    74
1070
     0
1000
MTEXTEND
  0
POINT
  5
4CBB
330
471C
100
AcDbEntity
  8
DEFPOINTS
  6
BYBLOCK
 62
     0
100
AcDbPoint
 10
78.556929
 20
174.1959019999999
 30
0.0
  0
POINT
  5
4CBC
330
471C
100
AcDbEntity
  8
DEFPOINTS
  6
BYBLOCK
 62
     0
100
AcDbPoint
 10
78.556929
 20
181.795902
 30
0.0
  0
POINT
  5
4CBD
330
471C
100
AcDbEntity
  8
DEFPOINTS
  6
BYBLOCK
 62
     0
100
AcDbPoint
 10
69.0
 20
181.795902
 30
0.0
  0
ENDBLK
  5
4CBE
330
471C
100
AcDbEntity
  8
0
100
AcDbBlockEnd
  0
BLOCK
  5
4CBF
330
4728
100
AcDbEntity
  8
0
100
AcDbBlockBegin
  2
*D9
 70
     1
 10
0.0
 20
0.0
 30
0.0
  3
*D9
  1

  0
LINE
  5
4CC0
330
4728
100
AcDbEntity
  8
0
  6
BYBLOCK
100
AcDbLine
 10
76.556929
 20
189.795902
 30
0.0
 11
67.75
 21
189.795902
 31
0.0
  0
LINE
  5
4CC1
330
4728
100
AcDbEntity
  8
0
  6
BYBLOCK
100
AcDbLine
 10
69.0
 20
181.795902
 30
0.0
 11
69.0
 21
189.795902
 31
0.0
  0
INSERT
  5
4CC2
330
4728
100
AcDbEntity
  8
0
  6
BYBLOCK
100
AcDbBlockReference
  2
_DOTSMALL
 10
69.0
 20
181.795902
 30
0.0
 41
2.5
 42
2.5
 43
2.5
 50
270.0
  0
INSERT
  5
4CC3
330
4728
100
AcDbEntity
  8
0
  6
BYBLOCK
100
AcDbBlockReference
  2
_DOTSMALL
 10
69.0
 20
189.795902
 30
0.0
 41
2.5
 42
2.5
 43
2.5
 50
90.0
  0
MTEXT
  5
4CC4
330
4728
100
AcDbEntity
  8
0
  6
BYBLOCK
 62
     2
100
AcDbMText
 10
67.45596899999999
 20
185.795902
 30
0.0
 40
1.8
 41
0.0
 71
     5
 72
     5
  1
8
  7
FINDER
 11
0.0
 21
1.0
 31
0.0
1001
ACAD
1000
MTEXTBEGIN
1070
    73
1070
     1
1070
    44
1040
1.0
1070
    74
1070
     0
1000
MTEXTEND
1000
MTEXTBEGIN
1070
    73
1070
     1
1070
    44
1040
1.0
1070
    74
1070
     0
1000
MTEXTEND
1000
MTEXTBEGIN
1070
    73
1070
     1
1070
    44
1040
1.0
1070
    74
1070
     0
1000
MTEXTEND
  0
POINT
  5
4CC5
330
4728
100
AcDbEntity
  8
DEFPOINTS
  6
BYBLOCK
 62
     0
100
AcDbPoint
 10
78.556929
 20
181.795902
 30
0.0
  0
POINT
  5
4CC6
330
4728
100
AcDbEntity
  8
DEFPOINTS
  6
BYBLOCK
 62
     0
100
AcDbPoint
 10
78.556929
 20
189.795902
 30
0.0
  0
POINT
  5
4CC7
330
4728
100
AcDbEntity
  8
DEFPOINTS
  6
BYBLOCK
 62
     0
100
AcDbPoint
 10
69.0
 20
189.795902
 30
0.0
  0
ENDBLK
  5
4CC8
330
4728
100
AcDbEntity
  8
0
100
AcDbBlockEnd
  0
BLOCK
  5
4CC9
330
4740
100
AcDbEntity
  8
0
100
AcDbBlockBegin
  2
*D10
 70
     1
 10
0.0
 20
0.0
 30
0.0
  3
*D10
  1

  0
LINE
  5
4CCA
330
4740
100
AcDbEntity
  8
0
  6
BYBLOCK
100
AcDbLine
 10
76.556929
 20
195.595902
 30
0.0
 11
67.75
 21
195.595902
 31
0.0
  0
LINE
  5
4CCB
330
4740
100
AcDbEntity
  8
0
  6
BYBLOCK
100
AcDbLine
 10
69.0
 20
189.795902
 30
0.0
 11
69.0
 21
195.595902
 31
0.0
  0
MTEXT
  5
4CCC
330
4740
100
AcDbEntity
  8
0
  6
BYBLOCK
 62
     2
100
AcDbMText
 10
67.45596899999999
 20
193.0
 30
0.0
 40
1.8
 41
0.0
 71
     5
 72
     5
  1
5.8
  7
FINDER
 11
0.0
 21
1.0
 31
0.0
1001
ACAD
1000
MTEXTBEGIN
1070
    73
1070
     1
1070
    44
1040
1.0
1070
    74
1070
     0
1000
MTEXTEND
1000
MTEXTBEGIN
1070
    73
1070
     1
1070
    44
1040
1.0
1070
    74
1070
     0
1000
MTEXTEND
1000
MTEXTBEGIN
1070
    73
1070
     1
1070
    44
1040
1.0
1070
    74
1070
     0
1000
MTEXTEND
  0
INSERT
  5
4CCD
330
4740
100
AcDbEntity
  8
0
  6
BYBLOCK
100
AcDbBlockReference
  2
_DOTSMALL
 10
69.0
 20
189.795902
 30
0.0
 41
2.5
 42
2.5
 43
2.5
 50
270.0
  0
INSERT
  5
4CCE
330
4740
100
AcDbEntity
  8
0
  6
BYBLOCK
100
AcDbBlockReference
  2
_DOTSMALL
 10
69.0
 20
195.595902
 30
0.0
 41
2.5
 42
2.5
 43
2.5
 50
90.0
  0
POINT
  5
4CCF
330
4740
100
AcDbEntity
  8
DEFPOINTS
  6
BYBLOCK
 62
     0
100
AcDbPoint
 10
78.556929
 20
189.795902
 30
0.0
  0
POINT
  5
4CD0
330
4740
100
AcDbEntity
  8
DEFPOINTS
  6
BYBLOCK
 62
     0
100
AcDbPoint
 10
78.556929
 20
195.595902
 30
0.0
  0
POINT
  5
4CD1
330
4740
100
AcDbEntity
  8
DEFPOINTS
  6
BYBLOCK
 62
     0
100
AcDbPoint
 10
69.0
 20
195.595902
 30
0.0
  0
ENDBLK
  5
4CD2
330
4740
100
AcDbEntity
  8
0
100
AcDbBlockEnd
  0
BLOCK
  5
4816
330
4815
100
AcDbEntity
  8
0
100
AcDbBlockBegin
  2
*D11
 70
     1
 10
0.0
 20
0.0
 30
0.0
  3
*D11
  1

  0
LINE
  5
4817
330
4815
100
AcDbEntity
  8
0
  6
BYBLOCK
100
AcDbLine
 10
143.355607
 20
119.755185
 30
0.0
 11
147.2499999999999
 21
119.755185
 31
0.0
  0
LINE
  5
4818
330
4815
100
AcDbEntity
  8
0
  6
BYBLOCK
100
AcDbLine
 10
143.355607
 20
116.155185
 30
0.0
 11
147.2499999999999
 21
116.155185
 31
0.0
  0
LINE
  5
4819
330
4815
100
AcDbEntity
  8
0
  6
BYBLOCK
100
AcDbLine
 10
146.0
 20
122.255185
 30
0.0
 11
146.0
 21
124.755185
 31
0.0
  0
LINE
  5
481A
330
4815
100
AcDbEntity
  8
0
  6
BYBLOCK
100
AcDbLine
 10
146.0
 20
113.655185
 30
0.0
 11
146.0
 21
106.6305599999999
 31
0.0
  0
LINE
  5
481B
330
4815
100
AcDbEntity
  8
0
  6
BYBLOCK
100
AcDbLine
 10
146.0
 20
119.755185
 30
0.0
 11
146.0
 21
116.155185
 31
0.0
  0
SOLID
  5
481C
330
4815
100
AcDbEntity
  8
0
  6
BYBLOCK
100
AcDbTrace
 10
145.583333
 20
122.255185
 30
0.0
 11
146.416667
 21
122.255185
 31
0.0
 12
146.0
 22
119.755185
 32
0.0
 13
146.0
 23
119.755185
 33
0.0
  0
SOLID
  5
481D
330
4815
100
AcDbEntity
  8
0
  6
BYBLOCK
100
AcDbTrace
 10
145.583333
 20
113.655185
 30
0.0
 11
146.416667
 21
113.655185
 31
0.0
 12
146.0
 22
116.155185
 32
0.0
 13
146.0
 23
116.155185
 33
0.0
  0
MTEXT
  5
481E
330
4815
100
AcDbEntity
  8
0
  6
BYBLOCK
 62
     2
100
AcDbMText
 10
144.455355
 20
108.8928729999999
 30
0.0
 40
1.8
 41
0.0
 71
     5
 72
     5
  1
3.6
  7
FINDER
 11
0.0
 21
1.0
 31
0.0
1001
ACAD
1000
MTEXTBEGIN
1070
    73
1070
     1
1070
    44
1040
1.0
1070
    74
1070
     0
1000
MTEXTEND
1000
MTEXTBEGIN
1070
    73
1070
     1
1070
    44
1040
1.0
1070
    74
1070
     0
1000
MTEXTEND
1000
MTEXTBEGIN
1070
    73
1070
     1
1070
    44
1040
1.0
1070
    74
1070
     0
1000
MTEXTEND
  0
POINT
  5
481F
330
4815
100
AcDbEntity
  8
DEFPOINTS
  6
BYBLOCK
 62
     0
100
AcDbPoint
 10
141.355607
 20
119.755185
 30
0.0
  0
POINT
  5
4820
330
4815
100
AcDbEntity
  8
DEFPOINTS
  6
BYBLOCK
 62
     0
100
AcDbPoint
 10
141.355607
 20
116.155185
 30
0.0
  0
POINT
  5
4821
330
4815
100
AcDbEntity
  8
DEFPOINTS
  6
BYBLOCK
 62
     0
100
AcDbPoint
 10
146.0
 20
116.155185
 30
0.0
  0
ENDBLK
  5
4822
330
4815
100
AcDbEntity
  8
0
100
AcDbBlockEnd
  0
BLOCK
  5
4CD3
330
487A
100
AcDbEntity
  8
0
100
AcDbBlockBegin
  2
*D12
 70
     1
 10
0.0
 20
0.0
 30
0.0
  3
*D12
  1

  0
LINE
  5
4CD4
330
487A
100
AcDbEntity
  8
0
  6
BYBLOCK
100
AcDbLine
 10
80.968833
 20
192.6959019999999
 30
0.0
 11
80.968833
 21
190.1959019999999
 31
0.0
  0
LINE
  5
4CD5
330
487A
100
AcDbEntity
  8
0
  6
BYBLOCK
100
AcDbLine
 10
80.968833
 20
198.4959019999999
 30
0.0
 11
80.968833
 21
206.5522029999999
 31
0.0
  0
LINE
  5
4CD6
330
487A
100
AcDbEntity
  8
0
  6
BYBLOCK
100
AcDbLine
 10
80.968833
 20
195.1959019999999
 30
0.0
 11
80.968833
 21
195.995902
 31
0.0
  0
SOLID
  5
4CD7
330
487A
100
AcDbEntity
  8
0
  6
BYBLOCK
100
AcDbTrace
 10
80.55216599999999
 20
192.6959019999999
 30
0.0
 11
81.38549899999999
 21
192.6959019999999
 31
0.0
 12
80.968833
 22
195.1959019999999
 32
0.0
 13
80.968833
 23
195.1959019999999
 33
0.0
  0
SOLID
  5
4CD8
330
487A
100
AcDbEntity
  8
0
  6
BYBLOCK
100
AcDbTrace
 10
80.55216599999999
 20
198.4959019999999
 30
0.0
 11
81.38549899999999
 21
198.4959019999999
 31
0.0
 12
80.968833
 22
195.995902
 32
0.0
 13
80.968833
 23
195.995902
 33
0.0
  0
MTEXT
  5
4CD9
330
487A
100
AcDbEntity
  8
0
  6
BYBLOCK
 62
     2
100
AcDbMText
 10
79.424801
 20
204.2868209999999
 30
0.0
 40
1.8
 41
0.0
 71
     5
 72
     5
  1
0.8
  7
FINDER
 11
0.0
 21
1.0
 31
0.0
1001
ACAD
1000
MTEXTBEGIN
1070
    73
1070
     1
1070
    44
1040
1.0
1070
    74
1070
     0
1000
MTEXTEND
1000
MTEXTBEGIN
1070
    73
1070
     1
1070
    44
1040
1.0
1070
    74
1070
     0
1000
MTEXTEND
1000
MTEXTBEGIN
1070
    73
1070
     1
1070
    44
1040
1.0
1070
    74
1070
     0
1000
MTEXTEND
  0
POINT
  5
4CDA
330
487A
100
AcDbEntity
  8
DEFPOINTS
  6
BYBLOCK
 62
     0
100
AcDbPoint
 10
84.55560699999997
 20
195.1959019999999
 30
0.0
  0
POINT
  5
4CDB
330
487A
100
AcDbEntity
  8
DEFPOINTS
  6
BYBLOCK
 62
     0
100
AcDbPoint
 10
84.55560699999997
 20
195.995902
 30
0.0
  0
POINT
  5
4CDC
330
487A
100
AcDbEntity
  8
DEFPOINTS
  6
BYBLOCK
 62
     0
100
AcDbPoint
 10
80.968833
 20
195.995902
 30
0.0
  0
ENDBLK
  5
4CDD
330
487A
100
AcDbEntity
  8
0
100
AcDbBlockEnd
  0
BLOCK
  5
49A7
330
4937
100
AcDbEntity
  8
0
100
AcDbBlockBegin
  2
*D13
 70
     1
 10
0.0
 20
0.0
 30
0.0
  3
*D13
  1

  0
LINE
  5
49A8
330
4937
100
AcDbEntity
  8
0
  6
BYBLOCK
100
AcDbLine
 10
76.05560699999998
 20
119.955185
 30
0.0
 11
76.05560699999998
 21
141.25
 31
0.0
  0
LINE
  5
49A9
330
4937
100
AcDbEntity
  8
0
  6
BYBLOCK
100
AcDbLine
 10
139.055607
 20
119.955185
 30
0.0
 11
139.055607
 21
141.25
 31
0.0
  0
LINE
  5
49AA
330
4937
100
AcDbEntity
  8
0
  6
BYBLOCK
100
AcDbLine
 10
78.55560699999998
 20
140.0
 30
0.0
 11
136.555607
 21
140.0
 31
0.0
  0
SOLID
  5
49AB
330
4937
100
AcDbEntity
  8
0
  6
BYBLOCK
100
AcDbTrace
 10
78.55560699999998
 20
140.4166669999999
 30
0.0
 11
78.55560699999998
 21
139.583333
 31
0.0
 12
76.05560699999998
 22
140.0
 32
0.0
 13
76.05560699999998
 23
140.0
 33
0.0
  0
SOLID
  5
49AC
330
4937
100
AcDbEntity
  8
0
  6
BYBLOCK
100
AcDbTrace
 10
136.555607
 20
140.4166669999999
 30
0.0
 11
136.555607
 21
139.583333
 31
0.0
 12
139.055607
 22
140.0
 32
0.0
 13
139.055607
 23
140.0
 33
0.0
  0
MTEXT
  5
49AD
330
4937
100
AcDbEntity
  8
0
  6
BYBLOCK
 62
     2
100
AcDbMText
 10
107.555607
 20
141.544645
 30
0.0
 40
1.8
 41
0.0
 71
     5
 72
     5
  1
63
  7
FINDER
1001
ACAD
1000
MTEXTBEGIN
1070
    73
1070
     1
1070
    44
1040
1.0
1070
    74
1070
     0
1000
MTEXTEND
1000
MTEXTBEGIN
1070
    73
1070
     1
1070
    44
1040
1.0
1070
    74
1070
     0
1000
MTEXTEND
1000
MTEXTBEGIN
1070
    73
1070
     1
1070
    44
1040
1.0
1070
    74
1070
     0
1000
MTEXTEND
  0
POINT
  5
49AE
330
4937
100
AcDbEntity
  8
DEFPOINTS
  6
BYBLOCK
 62
     0
100
AcDbPoint
 10
76.05560699999998
 20
117.955185
 30
0.0
  0
POINT
  5
49AF
330
4937
100
AcDbEntity
  8
DEFPOINTS
  6
BYBLOCK
 62
     0
100
AcDbPoint
 10
139.055607
 20
117.955185
 30
0.0
  0
POINT
  5
49B0
330
4937
100
AcDbEntity
  8
DEFPOINTS
  6
BYBLOCK
 62
     0
100
AcDbPoint
 10
139.055607
 20
140.0
 30
0.0
  0
ENDBLK
  5
49B1
330
4937
100
AcDbEntity
  8
0
100
AcDbBlockEnd
  0
BLOCK
  5
4CDE
330
4944
100
AcDbEntity
  8
0
100
AcDbBlockBegin
  2
*D14
 70
     1
 10
0.0
 20
0.0
 30
0.0
  3
*D14
  1

  0
LINE
  5
4CDF
330
4944
100
AcDbEntity
  8
0
  6
BYBLOCK
100
AcDbLine
 10
141.555607
 20
125.455185
 30
0.0
 11
141.555607
 21
141.25
 31
0.0
  0
LINE
  5
4CE0
330
4944
100
AcDbEntity
  8
0
  6
BYBLOCK
100
AcDbLine
 10
136.555607
 20
140.0
 30
0.0
 11
134.055607
 21
140.0
 31
0.0
  0
LINE
  5
4CE1
330
4944
100
AcDbEntity
  8
0
  6
BYBLOCK
100
AcDbLine
 10
144.055607
 20
140.0
 30
0.0
 11
146.555607
 21
140.0
 31
0.0
  0
LINE
  5
4CE2
330
4944
100
AcDbEntity
  8
0
  6
BYBLOCK
100
AcDbLine
 10
140.305607
 20
140.0
 30
0.0
 11
141.2375659999999
 21
143.106531
 31
0.0
  0
LINE
  5
4CE3
330
4944
100
AcDbEntity
  8
0
  6
BYBLOCK
100
AcDbLine
 10
141.2375659999999
 20
143.106531
 30
0.0
 11
145.808849
 21
143.106531
 31
0.0
  0
MTEXT
  5
4CE4
330
4944
100
AcDbEntity
  8
0
  6
BYBLOCK
 62
     2
100
AcDbMText
 10
141.8625659999999
 20
144.6505629999998
 30
0.0
 40
1.8
 41
0.0
 71
     4
 72
     5
  1
2.5
  7
FINDER
1001
ACAD
1000
MTEXTBEGIN
1070
    73
1070
     1
1070
    44
1040
1.0
1070
    74
1070
     0
1000
MTEXTEND
1000
MTEXTBEGIN
1070
    73
1070
     1
1070
    44
1040
1.0
1070
    74
1070
     0
1000
MTEXTEND
1000
MTEXTBEGIN
1070
    73
1070
     1
1070
    44
1040
1.0
1070
    74
1070
     0
1000
MTEXTEND
  0
LINE
  5
4CE5
330
4944
100
AcDbEntity
  8
0
  6
BYBLOCK
100
AcDbLine
 10
139.055607
 20
140.0
 30
0.0
 11
141.555607
 21
140.0
 31
0.0
  0
LINE
  5
4CE6
330
4944
100
AcDbEntity
  8
0
  6
BYBLOCK
100
AcDbLine
 10
139.055607
 20
140.0
 30
0.0
 11
141.555607
 21
140.0
 31
0.0
  0
SOLID
  5
4CE7
330
4944
100
AcDbEntity
  8
0
  6
BYBLOCK
100
AcDbTrace
 10
136.555607
 20
140.4166669999999
 30
0.0
 11
136.555607
 21
139.583333
 31
0.0
 12
139.055607
 22
140.0
 32
0.0
 13
139.055607
 23
140.0
 33
0.0
  0
SOLID
  5
4CE8
330
4944
100
AcDbEntity
  8
0
  6
BYBLOCK
100
AcDbTrace
 10
144.055607
 20
140.4166669999999
 30
0.0
 11
144.055607
 21
139.583333
 31
0.0
 12
141.555607
 22
140.0
 32
0.0
 13
141.555607
 23
140.0
 33
0.0
  0
POINT
  5
4CE9
330
4944
100
AcDbEntity
  8
DEFPOINTS
  6
BYBLOCK
 62
     0
100
AcDbPoint
 10
139.055607
 20
117.955185
 30
0.0
  0
POINT
  5
4CEA
330
4944
100
AcDbEntity
  8
DEFPOINTS
  6
BYBLOCK
 62
     0
100
AcDbPoint
 10
141.555607
 20
123.455185
 30
0.0
  0
POINT
  5
4CEB
330
4944
100
AcDbEntity
  8
DEFPOINTS
  6
BYBLOCK
 62
     0
100
AcDbPoint
 10
141.555607
 20
140.0
 30
0.0
  0
ENDBLK
  5
4CEC
330
4944
100
AcDbEntity
  8
0
100
AcDbBlockEnd
  0
BLOCK
  5
4CED
330
4955
100
AcDbEntity
  8
0
100
AcDbBlockBegin
  2
*D15
 70
     1
 10
0.0
 20
0.0
 30
0.0
  3
*D15
  1

  0
LINE
  5
4CEE
330
4955
100
AcDbEntity
  8
0
  6
BYBLOCK
100
AcDbLine
 10
73.55560699999998
 20
125.455185
 30
0.0
 11
73.55560699999998
 21
141.25
 31
0.0
  0
LINE
  5
4CEF
330
4955
100
AcDbEntity
  8
0
  6
BYBLOCK
100
AcDbLine
 10
78.55560699999998
 20
140.0
 30
0.0
 11
81.05560699999998
 21
140.0
 31
0.0
  0
LINE
  5
4CF0
330
4955
100
AcDbEntity
  8
0
  6
BYBLOCK
100
AcDbLine
 10
71.05560699999998
 20
140.0
 30
0.0
 11
68.55560699999999
 21
140.0
 31
0.0
  0
LINE
  5
4CF1
330
4955
100
AcDbEntity
  8
0
  6
BYBLOCK
100
AcDbLine
 10
74.80560699999998
 20
140.0
 30
0.0
 11
75.737566
 21
143.106531
 31
0.0
  0
LINE
  5
4CF2
330
4955
100
AcDbEntity
  8
0
  6
BYBLOCK
100
AcDbLine
 10
75.737566
 20
143.106531
 30
0.0
 11
80.308849
 21
143.106531
 31
0.0
  0
MTEXT
  5
4CF3
330
4955
100
AcDbEntity
  8
0
  6
BYBLOCK
 62
     2
100
AcDbMText
 10
76.362566
 20
144.6505629999998
 30
0.0
 40
1.8
 41
0.0
 71
     4
 72
     5
  1
2.5
  7
FINDER
1001
ACAD
1000
MTEXTBEGIN
1070
    73
1070
     1
1070
    44
1040
1.0
1070
    74
1070
     0
1000
MTEXTEND
1000
MTEXTBEGIN
1070
    73
1070
     1
1070
    44
1040
1.0
1070
    74
1070
     0
1000
MTEXTEND
1000
MTEXTBEGIN
1070
    73
1070
     1
1070
    44
1040
1.0
1070
    74
1070
     0
1000
MTEXTEND
  0
LINE
  5
4CF4
330
4955
100
AcDbEntity
  8
0
  6
BYBLOCK
100
AcDbLine
 10
76.05560699999998
 20
140.0
 30
0.0
 11
73.55560699999998
 21
140.0
 31
0.0
  0
LINE
  5
4CF5
330
4955
100
AcDbEntity
  8
0
  6
BYBLOCK
100
AcDbLine
 10
76.05560699999998
 20
140.0
 30
0.0
 11
73.55560699999998
 21
140.0
 31
0.0
  0
SOLID
  5
4CF6
330
4955
100
AcDbEntity
  8
0
  6
BYBLOCK
100
AcDbTrace
 10
78.55560699999998
 20
140.4166669999999
 30
0.0
 11
78.55560699999998
 21
139.583333
 31
0.0
 12
76.05560699999998
 22
140.0
 32
0.0
 13
76.05560699999998
 23
140.0
 33
0.0
  0
SOLID
  5
4CF7
330
4955
100
AcDbEntity
  8
0
  6
BYBLOCK
100
AcDbTrace
 10
71.05560699999998
 20
140.4166669999999
 30
0.0
 11
71.05560699999998
 21
139.583333
 31
0.0
 12
73.55560699999998
 22
140.0
 32
0.0
 13
73.55560699999998
 23
140.0
 33
0.0
  0
POINT
  5
4CF8
330
4955
100
AcDbEntity
  8
DEFPOINTS
  6
BYBLOCK
 62
     0
100
AcDbPoint
 10
76.05560699999998
 20
117.955185
 30
0.0
  0
POINT
  5
4CF9
330
4955
100
AcDbEntity
  8
DEFPOINTS
  6
BYBLOCK
 62
     0
100
AcDbPoint
 10
73.55560699999998
 20
123.455185
 30
0.0
  0
POINT
  5
4CFA
330
4955
100
AcDbEntity
  8
DEFPOINTS
  6
BYBLOCK
 62
     0
100
AcDbPoint
 10
73.55560699999998
 20
140.0
 30
0.0
  0
ENDBLK
  5
4CFB
330
4955
100
AcDbEntity
  8
0
100
AcDbBlockEnd
  0
BLOCK
  5
499C
330
498F
100
AcDbEntity
  8
0
100
AcDbBlockBegin
  2
*D16
 70
     1
 10
0.0
 20
0.0
 30
0.0
  3
*D16
  1

  0
LINE
  5
499D
330
498F
100
AcDbEntity
  8
0
  6
BYBLOCK
100
AcDbLine
 10
73.55560699999998
 20
125.455185
 30
0.0
 11
73.55560699999998
 21
148.2499999999999
 31
0.0
  0
LINE
  5
499E
330
498F
100
AcDbEntity
  8
0
  6
BYBLOCK
100
AcDbLine
 10
141.555607
 20
125.455185
 30
0.0
 11
141.555607
 21
148.2499999999999
 31
0.0
  0
LINE
  5
499F
330
498F
100
AcDbEntity
  8
0
  6
BYBLOCK
100
AcDbLine
 10
76.05560699999998
 20
147.0
 30
0.0
 11
139.055607
 21
147.0
 31
0.0
  0
SOLID
  5
49A0
330
498F
100
AcDbEntity
  8
0
  6
BYBLOCK
100
AcDbTrace
 10
76.05560699999998
 20
147.4166669999999
 30
0.0
 11
76.05560699999998
 21
146.583333
 31
0.0
 12
73.55560699999998
 22
147.0
 32
0.0
 13
73.55560699999998
 23
147.0
 33
0.0
  0
SOLID
  5
49A1
330
498F
100
AcDbEntity
  8
0
  6
BYBLOCK
100
AcDbTrace
 10
139.055607
 20
147.4166669999999
 30
0.0
 11
139.055607
 21
146.583333
 31
0.0
 12
141.555607
 22
147.0
 32
0.0
 13
141.555607
 23
147.0
 33
0.0
  0
MTEXT
  5
49A2
330
498F
100
AcDbEntity
  8
0
  6
BYBLOCK
 62
     2
100
AcDbMText
 10
107.555607
 20
148.544031
 30
0.0
 40
1.8
 41
0.0
 71
     5
 72
     5
  1
68
  7
FINDER
1001
ACAD
1000
MTEXTBEGIN
1070
    73
1070
     1
1070
    44
1040
1.0
1070
    74
1070
     0
1000
MTEXTEND
1000
MTEXTBEGIN
1070
    73
1070
     1
1070
    44
1040
1.0
1070
    74
1070
     0
1000
MTEXTEND
1000
MTEXTBEGIN
1070
    73
1070
     1
1070
    44
1040
1.0
1070
    74
1070
     0
1000
MTEXTEND
  0
POINT
  5
49A3
330
498F
100
AcDbEntity
  8
DEFPOINTS
  6
BYBLOCK
 62
     0
100
AcDbPoint
 10
73.55560699999998
 20
123.455185
 30
0.0
  0
POINT
  5
49A4
330
498F
100
AcDbEntity
  8
DEFPOINTS
  6
BYBLOCK
 62
     0
100
AcDbPoint
 10
141.555607
 20
123.455185
 30
0.0
  0
POINT
  5
49A5
330
498F
100
AcDbEntity
  8
DEFPOINTS
  6
BYBLOCK
 62
     0
100
AcDbPoint
 10
141.555607
 20
147.0
 30
0.0
  0
ENDBLK
  5
49A6
330
498F
100
AcDbEntity
  8
0
100
AcDbBlockEnd
  0
BLOCK
  5
4CFC
330
49D5
100
AcDbEntity
  8
0
100
AcDbBlockBegin
  2
*D17
 70
     1
 10
0.0
 20
0.0
 30
0.0
  3
*D17
  1

  0
LINE
  5
4CFD
330
49D5
100
AcDbEntity
  8
0
  6
BYBLOCK
100
AcDbLine
 10
83.0
 20
107.505185
 30
0.0
 11
83.0
 21
106.205185
 31
0.0
  0
LINE
  5
4CFE
330
49D5
100
AcDbEntity
  8
0
  6
BYBLOCK
100
AcDbLine
 10
83.0
 20
103.705185
 30
0.0
 11
83.0
 21
96.66828200000001
 31
0.0
  0
SOLID
  5
4CFF
330
49D5
100
AcDbEntity
  8
0
  6
BYBLOCK
100
AcDbTrace
 10
82.583333
 20
107.505185
 30
0.0
 11
83.41666700000002
 21
107.505185
 31
0.0
 12
83.0
 22
110.005185
 32
0.0
 13
83.0
 23
110.005185
 33
0.0
  0
SOLID
  5
4D00
330
49D5
100
AcDbEntity
  8
0
  6
BYBLOCK
100
AcDbTrace
 10
82.583333
 20
106.205185
 30
0.0
 11
83.41666700000002
 21
106.205185
 31
0.0
 12
83.0
 22
103.705185
 32
0.0
 13
83.0
 23
103.705185
 33
0.0
  0
MTEXT
  5
4D01
330
49D5
100
AcDbEntity
  8
0
  6
BYBLOCK
 62
     2
100
AcDbMText
 10
81.45535500000002
 20
98.936734
 30
0.0
 40
1.8
 41
0.0
 71
     5
 72
     5
  1
6.3
  7
FINDER
 11
0.0
 21
1.0
 31
0.0
1001
ACAD
1000
MTEXTBEGIN
1070
    73
1070
     1
1070
    44
1040
1.0
1070
    74
1070
     0
1000
MTEXTEND
1000
MTEXTBEGIN
1070
    73
1070
     1
1070
    44
1040
1.0
1070
    74
1070
     0
1000
MTEXTEND
1000
MTEXTBEGIN
1070
    73
1070
     1
1070
    44
1040
1.0
1070
    74
1070
     0
1000
MTEXTEND
  0
POINT
  5
4D02
330
49D5
100
AcDbEntity
  8
DEFPOINTS
  6
BYBLOCK
 62
     0
100
AcDbPoint
 10
79.55692899999998
 20
110.005185
 30
0.0
  0
POINT
  5
4D03
330
49D5
100
AcDbEntity
  8
DEFPOINTS
  6
BYBLOCK
 62
     0
100
AcDbPoint
 10
79.55692899999998
 20
103.705185
 30
0.0
  0
POINT
  5
4D04
330
49D5
100
AcDbEntity
  8
DEFPOINTS
  6
BYBLOCK
 62
     0
100
AcDbPoint
 10
83.0
 20
103.705185
 30
0.0
  0
ENDBLK
  5
4D05
330
49D5
100
AcDbEntity
  8
0
100
AcDbBlockEnd
  0
BLOCK
  5
4D06
330
4A70
100
AcDbEntity
  8
0
100
AcDbBlockBegin
  2
*D18
 70
     1
 10
0.0
 20
0.0
 30
0.0
  3
*D18
  1

  0
LINE
  5
4D07
330
4A70
100
AcDbEntity
  8
0
  6
BYBLOCK
100
AcDbLine
 10
86.256929
 20
201.1959019999999
 30
0.0
 11
67.75
 21
201.1959019999999
 31
0.0
  0
LINE
  5
4D08
330
4A70
100
AcDbEntity
  8
0
  6
BYBLOCK
100
AcDbLine
 10
69.0
 20
195.595902
 30
0.0
 11
69.0
 21
198.695902
 31
0.0
  0
MTEXT
  5
4D09
330
4A70
100
AcDbEntity
  8
0
  6
BYBLOCK
 62
     2
100
AcDbMText
 10
67.45596899999999
 20
198.695902
 30
0.0
 40
1.8
 41
0.0
 71
     5
 72
     5
  1
5.6
  7
FINDER
 11
0.0
 21
1.0
 31
0.0
1001
ACAD
1000
MTEXTBEGIN
1070
    73
1070
     1
1070
    44
1040
1.0
1070
    74
1070
     0
1000
MTEXTEND
1000
MTEXTBEGIN
1070
    73
1070
     1
1070
    44
1040
1.0
1070
    74
1070
     0
1000
MTEXTEND
1000
MTEXTBEGIN
1070
    73
1070
     1
1070
    44
1040
1.0
1070
    74
1070
     0
1000
MTEXTEND
  0
INSERT
  5
4D0A
330
4A70
100
AcDbEntity
  8
0
  6
BYBLOCK
100
AcDbBlockReference
  2
_DOTSMALL
 10
69.0
 20
195.595902
 30
0.0
 41
2.5
 42
2.5
 43
2.5
 50
270.0
  0
SOLID
  5
4D0B
330
4A70
100
AcDbEntity
  8
0
  6
BYBLOCK
100
AcDbTrace
 10
68.58333299999999
 20
198.695902
 30
0.0
 11
69.416667
 21
198.695902
 31
0.0
 12
69.0
 22
201.1959019999999
 32
0.0
 13
69.0
 23
201.1959019999999
 33
0.0
  0
POINT
  5
4D0C
330
4A70
100
AcDbEntity
  8
DEFPOINTS
  6
BYBLOCK
 62
     0
100
AcDbPoint
 10
78.556929
 20
195.595902
 30
0.0
  0
POINT
  5
4D0D
330
4A70
100
AcDbEntity
  8
DEFPOINTS
  6
BYBLOCK
 62
     0
100
AcDbPoint
 10
88.25692899999998
 20
201.1959019999999
 30
0.0
  0
POINT
  5
4D0E
330
4A70
100
AcDbEntity
  8
DEFPOINTS
  6
BYBLOCK
 62
     0
100
AcDbPoint
 10
69.0
 20
201.1959019999999
 30
0.0
  0
ENDBLK
  5
4D0F
330
4A70
100
AcDbEntity
  8
0
100
AcDbBlockEnd
  0
BLOCK
  5
4DA4
330
4D15
100
AcDbEntity
  8
0
100
AcDbBlockBegin
  2
*X19
 70
     1
 10
0.0
 20
0.0
 30
0.0
  3
*X19
  1

  0
LINE
  5
4D16
330
4D15
100
AcDbEntity
  8
0
  6
CONTINUOUS
 62
     0
100
AcDbLine
 10
14.989467
 20
20.308874
 30
0.0
 11
15.516193
 21
20.83559999999998
 31
0.0
  0
LINE
  5
4D17
330
4D15
100
AcDbEntity
  8
0
  6
CONTINUOUS
 62
     0
100
AcDbLine
 10
14.112517
 20
19.714767
 30
0.0
 11
16.11029999999999
 21
21.71254999999999
 31
0.0
  0
LINE
  5
4D18
330
4D15
100
AcDbEntity
  8
0
  6
CONTINUOUS
 62
     0
100
AcDbLine
 10
13.596595
 20
19.481687
 30
0.0
 11
16.34338
 21
22.228473
 31
0.0
  0
LINE
  5
4D19
330
4D15
100
AcDbEntity
  8
0
  6
CONTINUOUS
 62
     0
100
AcDbLine
 10
13.174894
 20
19.342829
 30
0.0
 11
16.482238
 21
22.650174
 31
0.0
  0
LINE
  5
4D1A
330
4D15
100
AcDbEntity
  8
0
  6
CONTINUOUS
 62
     0
100
AcDbLine
 10
12.804844
 20
19.25562199999999
 30
0.0
 11
16.569445
 21
23.020223
 31
0.0
  0
LINE
  5
4D1B
330
4D15
100
AcDbEntity
  8
0
  6
CONTINUOUS
 62
     0
100
AcDbLine
 10
14.79535199999999
 20
21.528973
 30
0.0
 11
16.62213299999999
 21
23.355754
 31
0.0
  0
LINE
  5
4D1C
330
4D15
100
AcDbEntity
  8
0
  6
CONTINUOUS
 62
     0
100
AcDbLine
 10
12.46931299999999
 20
19.202934
 30
0.0
 11
14.296095
 21
21.029715
 31
0.0
  0
LINE
  5
4D1D
330
4D15
100
AcDbEntity
  8
0
  6
CONTINUOUS
 62
     0
100
AcDbLine
 10
15.29353599999999
 20
22.309999
 30
0.0
 11
16.649275
 21
23.665738
 31
0.0
  0
LINE
  5
4D1E
330
4D15
100
AcDbEntity
  8
0
  6
CONTINUOUS
 62
     0
100
AcDbLine
 10
12.159329
 20
19.17579299999998
 30
0.0
 11
13.515068
 21
20.531532
 31
0.0
  0
LINE
  5
4D1F
330
4D15
100
AcDbEntity
  8
0
  6
CONTINUOUS
 62
     0
100
AcDbLine
 10
15.479088
 20
22.77839399999999
 30
0.0
 11
16.656273
 21
23.955579
 31
0.0
  0
LINE
  5
4D20
330
4D15
100
AcDbEntity
  8
0
  6
CONTINUOUS
 62
     0
100
AcDbLine
 10
11.869488
 20
19.168795
 30
0.0
 11
13.046674
 21
20.34597999999998
 31
0.0
  0
LINE
  5
4D21
330
4D15
100
AcDbEntity
  8
0
  6
CONTINUOUS
 62
     0
100
AcDbLine
 10
15.580082
 20
23.16223099999999
 30
0.0
 11
16.646682
 21
24.22883099999999
 31
0.0
  0
LINE
  5
4D22
330
4D15
100
AcDbEntity
  8
0
  6
CONTINUOUS
 62
     0
100
AcDbLine
 10
11.59623599999999
 20
19.178385
 30
0.0
 11
12.662836
 21
20.24498499999999
 31
0.0
  0
LINE
  5
4D23
330
4D15
100
AcDbEntity
  8
0
  6
CONTINUOUS
 62
     0
100
AcDbLine
 10
12.654531
 20
20.51952299999999
 30
0.0
 11
13.323223
 21
21.188215
 31
0.0
  0
LINE
  5
4D24
330
4D15
100
AcDbEntity
  8
0
  6
CONTINUOUS
 62
     0
100
AcDbLine
 10
15.634125
 20
23.499117
 30
0.0
 11
16.62298599999999
 21
24.48797799999999
 31
0.0
  0
LINE
  5
4D25
330
4D15
100
AcDbEntity
  8
0
  6
CONTINUOUS
 62
     0
100
AcDbLine
 10
11.33709
 20
19.202082
 30
0.0
 11
12.325951
 21
20.190943
 31
0.0
  0
LINE
  5
4D26
330
4D15
100
AcDbEntity
  8
0
  6
CONTINUOUS
 62
     0
100
AcDbLine
 10
12.404347
 20
20.552181
 30
0.0
 11
13.323223
 21
21.471057
 31
0.0
  0
LINE
  5
4D27
330
4D15
100
AcDbEntity
  8
0
  6
CONTINUOUS
 62
     0
100
AcDbLine
 10
15.656425
 20
23.804259
 30
0.0
 11
16.586997
 21
24.734832
 31
0.0
  0
LINE
  5
4D28
330
4D15
100
AcDbEntity
  8
0
  6
CONTINUOUS
 62
     0
100
AcDbLine
 10
11.090236
 20
19.23807
 30
0.0
 11
12.020808
 21
20.16864299999999
 31
0.0
  0
LINE
  5
4D29
330
4D15
100
AcDbEntity
  8
0
  6
CONTINUOUS
 62
     0
100
AcDbLine
 10
12.212553
 20
20.64322999999999
 30
0.0
 11
13.323223
 21
21.7539
 31
0.0
  0
LINE
  5
4D2A
330
4D15
100
AcDbEntity
  8
0
  6
CONTINUOUS
 62
     0
100
AcDbLine
 10
15.65496099999999
 20
24.085639
 30
0.0
 11
16.540085
 21
24.970762
 31
0.0
  0
LINE
  5
4D2B
330
4D15
100
AcDbEntity
  8
0
  6
CONTINUOUS
 62
     0
100
AcDbLine
 10
10.854306
 20
19.284983
 30
0.0
 11
11.73942899999999
 21
20.170106
 31
0.0
  0
LINE
  5
4D2C
330
4D15
100
AcDbEntity
  8
0
  6
CONTINUOUS
 62
     0
100
AcDbLine
 10
12.063213
 20
20.776733
 30
0.0
 11
13.323223
 21
22.03674299999998
 31
0.0
  0
LINE
  5
4D2D
330
4D15
100
AcDbEntity
  8
0
  6
CONTINUOUS
 62
     0
100
AcDbLine
 10
15.634541
 20
24.34806
 30
0.0
 11
16.48330599999999
 21
25.196826
 31
0.0
  0
LINE
  5
4D2E
330
4D15
100
AcDbEntity
  8
0
  6
CONTINUOUS
 62
     0
100
AcDbLine
 10
10.628242
 20
19.34176099999998
 30
0.0
 11
11.477007
 21
20.190527
 31
0.0
  0
LINE
  5
4D2F
330
4D15
100
AcDbEntity
  8
0
  6
CONTINUOUS
 62
     0
100
AcDbLine
 10
11.920447
 20
20.916809
 30
0.0
 11
13.323223
 21
22.319586
 31
0.0
  0
LINE
  5
4D30
330
4D15
100
AcDbEntity
  8
0
  6
CONTINUOUS
 62
     0
100
AcDbLine
 10
15.598315
 20
24.594678
 30
0.0
 11
16.41749599999998
 21
25.413858
 31
0.0
  0
LINE
  5
4D31
330
4D15
100
AcDbEntity
  8
0
  6
CONTINUOUS
 62
     0
100
AcDbLine
 10
10.41120899999999
 20
19.407572
 30
0.0
 11
11.23039
 21
20.22675199999997
 31
0.0
  0
LINE
  5
4D32
330
4D15
100
AcDbEntity
  8
0
  6
CONTINUOUS
 62
     0
100
AcDbLine
 10
11.77768
 20
21.056886
 30
0.0
 11
13.323223
 21
22.60242799999998
 31
0.0
  0
LINE
  5
4D33
330
4D15
100
AcDbEntity
  8
0
  6
CONTINUOUS
 62
     0
100
AcDbLine
 10
15.548478
 20
24.827684
 30
0.0
 11
16.34332099999999
 21
25.622526
 31
0.0
  0
LINE
  5
4D34
330
4D15
100
AcDbEntity
  8
0
  6
CONTINUOUS
 62
     0
100
AcDbLine
 10
10.202541
 20
19.481747
 30
0.0
 11
10.997384
 21
20.276589
 31
0.0
  0
LINE
  5
4D35
330
4D15
100
AcDbEntity
  8
0
  6
CONTINUOUS
 62
     0
100
AcDbLine
 10
12.362923
 20
21.924971
 30
0.0
 11
13.323223
 21
22.885271
 31
0.0
  0
LINE
  5
4D36
330
4D15
100
AcDbEntity
  8
0
  6
CONTINUOUS
 62
     0
100
AcDbLine
 10
11.634914
 20
21.19696199999999
 30
0.0
 11
12.307877
 21
21.869925
 31
0.0
  0
LINE
  5
4D37
330
4D15
100
AcDbEntity
  8
0
  6
CONTINUOUS
 62
     0
100
AcDbLine
 10
15.486619
 20
25.048667
 30
0.0
 11
16.26132099999999
 21
25.823369
 31
0.0
  0
LINE
  5
4D38
330
4D15
100
AcDbEntity
  8
0
  6
CONTINUOUS
 62
     0
100
AcDbLine
 10
10.001699
 20
19.56374699999998
 30
0.0
 11
10.77640099999999
 21
20.338449
 31
0.0
  0
LINE
  5
4D39
330
4D15
100
AcDbEntity
  8
0
  6
CONTINUOUS
 62
     0
100
AcDbLine
 10
12.362923
 20
22.207814
 30
0.0
 11
13.323223
 21
23.168114
 31
0.0
  0
LINE
  5
4D3A
330
4D15
100
AcDbEntity
  8
0
  6
CONTINUOUS
 62
     0
100
AcDbLine
 10
11.49214799999999
 20
21.33703899999998
 30
0.0
 11
12.172228
 21
22.017119
 31
0.0
  0
LINE
  5
4D3B
330
4D15
100
AcDbEntity
  8
0
  6
CONTINUOUS
 62
     0
100
AcDbLine
 10
15.41392
 20
25.25881099999999
 30
0.0
 11
16.171934
 21
26.016825
 31
0.0
  0
LINE
  5
4D3C
330
4D15
100
AcDbEntity
  8
0
  6
CONTINUOUS
 62
     0
100
AcDbLine
 10
9.808242999999999
 20
19.65313399999998
 30
0.0
 11
10.566257
 21
20.411147
 31
0.0
  0
LINE
  5
4D3D
330
4D15
100
AcDbEntity
  8
0
  6
CONTINUOUS
 62
     0
100
AcDbLine
 10
12.362923
 20
22.490656
 30
0.0
 11
13.323223
 21
23.450956
 31
0.0
  0
LINE
  5
4D3E
330
4D15
100
AcDbEntity
  8
0
  6
CONTINUOUS
 62
     0
100
AcDbLine
 10
14.38066
 20
24.508394
 30
0.0
 11
14.903943
 21
25.031677
 31
0.0
  0
LINE
  5
4D3F
330
4D15
100
AcDbEntity
  8
0
  6
CONTINUOUS
 62
     0
100
AcDbLine
 10
11.349382
 20
21.47711499999999
 30
0.0
 11
12.03658
 21
22.16431299999999
 31
0.0
  0
LINE
  5
4D40
330
4D15
100
AcDbEntity
  8
0
  6
CONTINUOUS
 62
     0
100
AcDbLine
 10
15.33128299999999
 20
25.459017
 30
0.0
 11
16.07551799999999
 21
26.203251
 31
0.0
  0
LINE
  5
4D41
330
4D15
100
AcDbEntity
  8
0
  6
CONTINUOUS
 62
     0
100
AcDbLine
 10
9.621817
 20
19.74954999999998
 30
0.0
 11
10.36605099999998
 21
20.49378399999997
 31
0.0
  0
LINE
  5
4D42
330
4D15
100
AcDbEntity
  8
0
  6
CONTINUOUS
 62
     0
100
AcDbLine
 10
12.362923
 20
22.77349899999999
 30
0.0
 11
13.323223
 21
23.73379899999999
 31
0.0
  0
LINE
  5
4D43
330
4D15
100
AcDbEntity
  8
0
  6
CONTINUOUS
 62
     0
100
AcDbLine
 10
14.097817
 20
24.508394
 30
0.0
 11
14.840413
 21
25.25098999999999
 31
0.0
  0
LINE
  5
4D44
330
4D15
100
AcDbEntity
  8
0
  6
CONTINUOUS
 62
     0
100
AcDbLine
 10
11.206616
 20
21.617192
 30
0.0
 11
11.900931
 21
22.311507
 31
0.0
  0
LINE
  5
4D45
330
4D15
100
AcDbEntity
  8
0
  6
CONTINUOUS
 62
     0
100
AcDbLine
 10
15.2394
 20
25.649976
 30
0.0
 11
15.972362
 21
26.382939
 31
0.0
  0
LINE
  5
4D46
330
4D15
100
AcDbEntity
  8
0
  6
CONTINUOUS
 62
     0
100
AcDbLine
 10
9.442128999999999
 20
19.852705
 30
0.0
 11
10.175091
 21
20.58566799999999
 31
0.0
  0
LINE
  5
4D47
330
4D15
100
AcDbEntity
  8
0
  6
CONTINUOUS
 62
     0
100
AcDbLine
 10
12.362923
 20
23.056342
 30
0.0
 11
13.323223
 21
24.016642
 31
0.0
  0
LINE
  5
4D48
330
4D15
100
AcDbEntity
  8
0
  6
CONTINUOUS
 62
     0
100
AcDbLine
 10
13.814975
 20
24.508394
 30
0.0
 11
14.709087
 21
25.402506
 31
0.0
  0
LINE
  5
4D49
330
4D15
100
AcDbEntity
  8
0
  6
CONTINUOUS
 62
     0
100
AcDbLine
 10
11.063849
 20
21.757268
 30
0.0
 11
11.765282
 21
22.458701
 31
0.0
  0
LINE
  5
4D4A
330
4D15
100
AcDbEntity
  8
0
  6
CONTINUOUS
 62
     0
100
AcDbLine
 10
15.13880499999999
 20
25.832223
 30
0.0
 11
15.86270299999999
 21
26.556122
 31
0.0
  0
LINE
  5
4D4B
330
4D15
100
AcDbEntity
  8
0
  6
CONTINUOUS
 62
     0
100
AcDbLine
 10
9.268945
 20
19.962364
 30
0.0
 11
9.992843999999999
 21
20.686263
 31
0.0
  0
LINE
  5
4D4C
330
4D15
100
AcDbEntity
  8
0
  6
CONTINUOUS
 62
     0
100
AcDbLine
 10
12.362923
 20
23.339185
 30
0.0
 11
13.323223
 21
24.299485
 31
0.0
  0
LINE
  5
4D4D
330
4D15
100
AcDbEntity
  8
0
  6
CONTINUOUS
 62
     0
100
AcDbLine
 10
13.532132
 20
24.508394
 30
0.0
 11
14.51689299999999
 21
25.493154
 31
0.0
  0
LINE
  5
4D4E
330
4D15
100
AcDbEntity
  8
0
  6
CONTINUOUS
 62
     0
100
AcDbLine
 10
10.921083
 20
21.897345
 30
0.0
 11
11.62963399999999
 21
22.605895
 31
0.0
  0
LINE
  5
4D4F
330
4D15
100
AcDbEntity
  8
0
  6
CONTINUOUS
 62
     0
100
AcDbLine
 10
15.029907
 20
26.006168
 30
0.0
 11
15.74672699999999
 21
26.722988
 31
0.0
  0
LINE
  5
4D50
330
4D15
100
AcDbEntity
  8
0
  6
CONTINUOUS
 62
     0
100
AcDbLine
 10
9.102078999999999
 20
20.078341
 30
0.0
 11
9.818899
 21
20.795161
 31
0.0
  0
LINE
  5
4D51
330
4D15
100
AcDbEntity
  8
0
  6
CONTINUOUS
 62
     0
100
AcDbLine
 10
12.362923
 20
23.622027
 30
0.0
 11
14.244239
 21
25.503344
 31
0.0
  0
LINE
  5
4D52
330
4D15
100
AcDbEntity
  8
0
  6
CONTINUOUS
 62
     0
100
AcDbLine
 10
10.77831699999999
 20
22.03742099999999
 30
0.0
 11
11.49398499999999
 21
22.753089
 31
0.0
  0
LINE
  5
4D53
330
4D15
100
AcDbEntity
  8
0
  6
CONTINUOUS
 62
     0
100
AcDbLine
 10
14.913014
 20
26.172119
 30
0.0
 11
15.62457699999999
 21
26.88368099999999
 31
0.0
  0
LINE
  5
4D54
330
4D15
100
AcDbEntity
  8
0
  6
CONTINUOUS
 62
     0
100
AcDbLine
 10
8.941385999999997
 20
20.200491
 30
0.0
 11
9.652948999999999
 21
20.91205299999999
 31
0.0
  0
LINE
  5
4D55
330
4D15
100
AcDbEntity
  8
0
  6
CONTINUOUS
 62
     0
100
AcDbLine
 10
12.362923
 20
23.90487
 30
0.0
 11
13.96139699999999
 21
25.503344
 31
0.0
  0
LINE
  5
4D56
330
4D15
100
AcDbEntity
  8
0
  6
CONTINUOUS
 62
     0
100
AcDbLine
 10
10.635551
 20
22.17749799999999
 30
0.0
 11
11.35833599999999
 21
22.90028299999999
 31
0.0
  0
LINE
  5
4D57
330
4D15
100
AcDbEntity
  8
0
  6
CONTINUOUS
 62
     0
100
AcDbLine
 10
14.78835
 20
26.33029699999999
 30
0.0
 11
15.49636
 21
27.038307
 31
0.0
  0
LINE
  5
4D58
330
4D15
100
AcDbEntity
  8
0
  6
CONTINUOUS
 62
     0
100
AcDbLine
 10
8.786760000000001
 20
20.328707
 30
0.0
 11
9.494771
 21
21.036718
 31
0.0
  0
LINE
  5
4D59
330
4D15
100
AcDbEntity
  8
0
  6
CONTINUOUS
 62
     0
100
AcDbLine
 10
12.362923
 20
24.187713
 30
0.0
 11
13.678554
 21
25.503344
 31
0.0
  0
LINE
  5
4D5A
330
4D15
100
AcDbEntity
  8
0
  6
CONTINUOUS
 62
     0
100
AcDbLine
 10
10.492785
 20
22.317574
 30
0.0
 11
11.222688
 21
23.047477
 31
0.0
  0
LINE
  5
4D5B
330
4D15
100
AcDbEntity
  8
0
  6
CONTINUOUS
 62
     0
100
AcDbLine
 10
14.65606
 20
26.48085
 30
0.0
 11
15.362148
 21
27.186938
 31
0.0
  0
LINE
  5
4D5C
330
4D15
100
AcDbEntity
  8
0
  6
CONTINUOUS
 62
     0
100
AcDbLine
 10
8.63813
 20
20.46291899999999
 30
0.0
 11
9.344217999999999
 21
21.16900799999998
 31
0.0
  0
LINE
  5
4D5D
330
4D15
100
AcDbEntity
  8
0
  6
CONTINUOUS
 62
     0
100
AcDbLine
 10
12.362923
 20
24.47055499999999
 30
0.0
 11
13.39571099999999
 21
25.503344
 31
0.0
  0
LINE
  5
4D5E
330
4D15
100
AcDbEntity
  8
0
  6
CONTINUOUS
 62
     0
100
AcDbLine
 10
10.35001799999998
 20
22.457651
 30
0.0
 11
11.087039
 21
23.194672
 31
0.0
  0
LINE
  5
4D5F
330
4D15
100
AcDbEntity
  8
0
  6
CONTINUOUS
 62
     0
100
AcDbLine
 10
14.51622399999999
 20
26.623856
 30
0.0
 11
15.221979
 21
27.329612
 31
0.0
  0
LINE
  5
4D60
330
4D15
100
AcDbEntity
  8
0
  6
CONTINUOUS
 62
     0
100
AcDbLine
 10
8.495455999999999
 20
20.603088
 30
0.0
 11
9.201211
 21
21.308844
 31
0.0
  0
LINE
  5
4D61
330
4D15
100
AcDbEntity
  8
0
  6
CONTINUOUS
 62
     0
100
AcDbLine
 10
11.020368
 20
23.410844
 30
0.0
 11
11.41387299999998
 21
23.804348
 31
0.0
  0
LINE
  5
4D62
330
4D15
100
AcDbEntity
  8
0
  6
CONTINUOUS
 62
     0
100
AcDbLine
 10
12.362923
 20
24.753398
 30
0.0
 11
13.323223
 21
25.713698
 31
0.0
  0
LINE
  5
4D63
330
4D15
100
AcDbEntity
  8
0
  6
CONTINUOUS
 62
     0
100
AcDbLine
 10
10.20725199999999
 20
22.597727
 30
0.0
 11
10.951391
 21
23.341866
 31
0.0
  0
LINE
  5
4D64
330
4D15
100
AcDbEntity
  8
0
  6
CONTINUOUS
 62
     0
100
AcDbLine
 10
14.368854
 20
26.75933
 30
0.0
 11
15.07586
 21
27.466336
 31
0.0
  0
LINE
  5
4D65
330
4D15
100
AcDbEntity
  8
0
  6
CONTINUOUS
 62
     0
100
AcDbLine
 10
8.358731999999998
 20
20.749207
 30
0.0
 11
9.065737999999999
 21
21.456213
 31
0.0
  0
LINE
  5
4D66
330
4D15
100
AcDbEntity
  8
0
  6
CONTINUOUS
 62
     0
100
AcDbLine
 10
12.362923
 20
25.036241
 30
0.0
 11
13.323223
 21
25.996541
 31
0.0
  0
LINE
  5
4D67
330
4D15
100
AcDbEntity
  8
0
  6
CONTINUOUS
 62
     0
100
AcDbLine
 10
10.064486
 20
22.737804
 30
0.0
 11
11.41387299999998
 21
24.087191
 31
0.0
  0
LINE
  5
4D68
330
4D15
100
AcDbEntity
  8
0
  6
CONTINUOUS
 62
     0
100
AcDbLine
 10
14.213901
 20
26.887219
 30
0.0
 11
14.923766
 21
27.597084
 31
0.0
  0
LINE
  5
4D69
330
4D15
100
AcDbEntity
  8
0
  6
CONTINUOUS
 62
     0
100
AcDbLine
 10
8.227983
 20
20.901301
 30
0.0
 11
8.937847999999997
 21
21.611166
 31
0.0
  0
LINE
  5
4D6A
330
4D15
100
AcDbEntity
  8
0
  6
CONTINUOUS
 62
     0
100
AcDbLine
 10
12.362923
 20
25.319084
 30
0.0
 11
13.323223
 21
26.279384
 31
0.0
  0
LINE
  5
4D6B
330
4D15
100
AcDbEntity
  8
0
  6
CONTINUOUS
 62
     0
100
AcDbLine
 10
9.92172
 20
22.87787999999999
 30
0.0
 11
11.41387299999998
 21
24.370034
 31
0.0
  0
LINE
  5
4D6C
330
4D15
100
AcDbEntity
  8
0
  6
CONTINUOUS
 62
     0
100
AcDbLine
 10
14.05124599999999
 20
27.007407
 30
0.0
 11
14.76563999999999
 21
27.7218
 31
0.0
  0
LINE
  5
4D6D
330
4D15
100
AcDbEntity
  8
0
  6
CONTINUOUS
 62
     0
100
AcDbLine
 10
8.103267
 20
21.059428
 30
0.0
 11
8.81766
 21
21.77382099999999
 31
0.0
  0
LINE
  5
4D6E
330
4D15
100
AcDbEntity
  8
0
  6
CONTINUOUS
 62
     0
100
AcDbLine
 10
12.362923
 20
25.601926
 30
0.0
 11
13.323223
 21
26.562226
 31
0.0
  0
LINE
  5
4D6F
330
4D15
100
AcDbEntity
  8
0
  6
CONTINUOUS
 62
     0
100
AcDbLine
 10
9.778953999999997
 20
23.017957
 30
0.0
 11
11.41387299999998
 21
24.652876
 31
0.0
  0
LINE
  5
4D70
330
4D15
100
AcDbEntity
  8
0
  6
CONTINUOUS
 62
     0
100
AcDbLine
 10
13.880701
 20
27.119704
 30
0.0
 11
14.601389
 21
27.840392
 31
0.0
  0
LINE
  5
4D71
330
4D15
100
AcDbEntity
  8
0
  6
CONTINUOUS
 62
     0
100
AcDbLine
 10
7.984675
 20
21.223678
 30
0.0
 11
8.705363999999999
 21
21.944367
 31
0.0
  0
LINE
  5
4D72
330
4D15
100
AcDbEntity
  8
0
  6
CONTINUOUS
 62
     0
100
AcDbLine
 10
12.362923
 20
25.88476899999999
 30
0.0
 11
13.323223
 21
26.845069
 31
0.0
  0
LINE
  5
4D73
330
4D15
100
AcDbEntity
  8
0
  6
CONTINUOUS
 62
     0
100
AcDbLine
 10
9.636186999999999
 20
23.158033
 30
0.0
 11
11.41387299999998
 21
24.935719
 31
0.0
  0
LINE
  5
4D74
330
4D15
100
AcDbEntity
  8
0
  6
CONTINUOUS
 62
     0
100
AcDbLine
 10
13.701993
 20
27.223839
 30
0.0
 11
14.430886
 21
27.952732
 31
0.0
  0
LINE
  5
4D75
330
4D15
100
AcDbEntity
  8
0
  6
CONTINUOUS
 62
     0
100
AcDbLine
 10
7.872335
 20
21.39418099999998
 30
0.0
 11
8.601228
 21
22.12307399999999
 31
0.0
  0
LINE
  5
4D76
330
4D15
100
AcDbEntity
  8
0
  6
CONTINUOUS
 62
     0
100
AcDbLine
 10
12.362923
 20
26.167612
 30
0.0
 11
13.323223
 21
27.12791199999999
 31
0.0
  0
LINE
  5
4D77
330
4D15
100
AcDbEntity
  8
0
  6
CONTINUOUS
 62
     0
100
AcDbLine
 10
9.493420999999999
 20
23.29811
 30
0.0
 11
11.41387299999998
 21
25.218562
 31
0.0
  0
LINE
  5
4D78
330
4D15
100
AcDbEntity
  8
0
  6
CONTINUOUS
 62
     0
100
AcDbLine
 10
13.51476
 20
27.31944799999999
 30
0.0
 11
14.253964
 21
28.058653
 31
0.0
  0
LINE
  5
4D79
330
4D15
100
AcDbEntity
  8
0
  6
CONTINUOUS
 62
     0
100
AcDbLine
 10
7.766414999999997
 20
21.571104
 30
0.0
 11
8.505618999999999
 21
22.310308
 31
0.0
  0
LINE
  5
4D7A
330
4D15
100
AcDbEntity
  8
0
  6
CONTINUOUS
 62
     0
100
AcDbLine
 10
10.46482299999998
 20
24.552354
 30
0.0
 11
11.41387299999998
 21
25.501404
 31
0.0
  0
LINE
  5
4D7B
330
4D15
100
AcDbEntity
  8
0
  6
CONTINUOUS
 62
     0
100
AcDbLine
 10
9.323311999999999
 20
23.410844
 30
0.0
 11
10.34121199999999
 21
24.428744
 31
0.0
  0
LINE
  5
4D7C
330
4D15
100
AcDbEntity
  8
0
  6
CONTINUOUS
 62
     0
100
AcDbLine
 10
12.362923
 20
26.45045399999998
 30
0.0
 11
14.07040799999998
 21
28.157939
 31
0.0
  0
LINE
  5
4D7D
330
4D15
100
AcDbEntity
  8
0
  6
CONTINUOUS
 62
     0
100
AcDbLine
 10
7.667127999999999
 20
21.75466
 30
0.0
 11
8.419014
 21
22.506545
 31
0.0
  0
LINE
  5
4D7E
330
4D15
100
AcDbEntity
  8
0
  6
CONTINUOUS
 62
     0
100
AcDbLine
 10
10.46482299999998
 20
24.835197
 30
0.0
 11
11.41387299999998
 21
25.784247
 31
0.0
  0
LINE
  5
4D7F
330
4D15
100
AcDbEntity
  8
0
  6
CONTINUOUS
 62
     0
100
AcDbLine
 10
9.040468999999999
 20
23.410844
 30
0.0
 11
10.058369
 21
24.428744
 31
0.0
  0
LINE
  5
4D80
330
4D15
100
AcDbEntity
  8
0
  6
CONTINUOUS
 62
     0
100
AcDbLine
 10
12.362923
 20
26.733297
 30
0.0
 11
13.87995199999999
 21
28.250326
 31
0.0
  0
LINE
  5
4D81
330
4D15
100
AcDbEntity
  8
0
  6
CONTINUOUS
 62
     0
100
AcDbLine
 10
7.574741
 20
21.94511599999999
 30
0.0
 11
8.342033999999998
 21
22.712408
 31
0.0
  0
LINE
  5
4D82
330
4D15
100
AcDbEntity
  8
0
  6
CONTINUOUS
 62
     0
100
AcDbLine
 10
10.46482299999998
 20
25.11804
 30
0.0
 11
11.41387299999998
 21
26.06709
 31
0.0
  0
LINE
  5
4D83
330
4D15
100
AcDbEntity
  8
0
  6
CONTINUOUS
 62
     0
100
AcDbLine
 10
8.757627000000001
 20
23.410844
 30
0.0
 11
9.775527
 21
24.428744
 31
0.0
  0
LINE
  5
4D84
330
4D15
100
AcDbEntity
  8
0
  6
CONTINUOUS
 62
     0
100
AcDbLine
 10
12.362923
 20
27.01614
 30
0.0
 11
13.682269
 21
28.335486
 31
0.0
  0
LINE
  5
4D85
330
4D15
100
AcDbEntity
  8
0
  6
CONTINUOUS
 62
     0
100
AcDbLine
 10
7.489582
 20
22.142799
 30
0.0
 11
8.275484
 21
22.928701
 31
0.0
  0
LINE
  5
4D86
330
4D15
100
AcDbEntity
  8
0
  6
CONTINUOUS
 62
     0
100
AcDbLine
 10
10.46482299999998
 20
25.400883
 30
0.0
 11
11.41387299999998
 21
26.349933
 31
0.0
  0
LINE
  5
4D87
330
4D15
100
AcDbEntity
  8
0
  6
CONTINUOUS
 62
     0
100
AcDbLine
 10
8.474783999999999
 20
23.410844
 30
0.0
 11
9.492683999999997
 21
24.428744
 31
0.0
  0
LINE
  5
4D88
330
4D15
100
AcDbEntity
  8
0
  6
CONTINUOUS
 62
     0
100
AcDbLine
 10
12.362923
 20
27.298983
 30
0.0
 11
13.47695599999999
 21
28.41301599999999
 31
0.0
  0
LINE
  5
4D89
330
4D15
100
AcDbEntity
  8
0
  6
CONTINUOUS
 62
     0
100
AcDbLine
 10
7.412052
 20
22.34811099999999
 30
0.0
 11
8.220416999999999
 21
23.15647699999999
 31
0.0
  0
LINE
  5
4D8A
330
4D15
100
AcDbEntity
  8
0
  6
CONTINUOUS
 62
     0
100
AcDbLine
 10
10.46482299999998
 20
25.683725
 30
0.0
 11
11.41387299999998
 21
26.63277499999999
 31
0.0
  0
LINE
  5
4D8B
330
4D15
100
AcDbEntity
  8
0
  6
CONTINUOUS
 62
     0
100
AcDbLine
 10
8.191940999999998
 20
23.410844
 30
0.0
 11
9.209841
 21
24.428744
 31
0.0
  0
LINE
  5
4D8C
330
4D15
100
AcDbEntity
  8
0
  6
CONTINUOUS
 62
     0
100
AcDbLine
 10
12.362923
 20
27.581825
 30
0.0
 11
13.26352
 21
28.48242299999999
 31
0.0
  0
LINE
  5
4D8D
330
4D15
100
AcDbEntity
  8
0
  6
CONTINUOUS
 62
     0
100
AcDbLine
 10
7.342645
 20
22.561547
 30
0.0
 11
8.178233
 21
23.397136
 31
0.0
  0
LINE
  5
4D8E
330
4D15
100
AcDbEntity
  8
0
  6
CONTINUOUS
 62
     0
100
AcDbLine
 10
10.46482299999998
 20
25.96656799999999
 30
0.0
 11
11.41387299999998
 21
26.915618
 31
0.0
  0
LINE
  5
4D8F
330
4D15
100
AcDbEntity
  8
0
  6
CONTINUOUS
 62
     0
100
AcDbLine
 10
12.17248399999999
 20
27.67422899999999
 30
0.0
 11
13.04135099999998
 21
28.543096
 31
0.0
  0
LINE
  5
4D90
330
4D15
100
AcDbEntity
  8
0
  6
CONTINUOUS
 62
     0
100
AcDbLine
 10
7.281971
 20
22.783716
 30
0.0
 11
8.926999
 21
24.428744
 31
0.0
  0
LINE
  5
4D91
330
4D15
100
AcDbEntity
  8
0
  6
CONTINUOUS
 62
     0
100
AcDbLine
 10
10.46482299999998
 20
26.249411
 30
0.0
 11
11.41387299999998
 21
27.19846099999999
 31
0.0
  0
LINE
  5
4D92
330
4D15
100
AcDbEntity
  8
0
  6
CONTINUOUS
 62
     0
100
AcDbLine
 10
11.899556
 20
27.684144
 30
0.0
 11
12.809691
 21
28.594279
 31
0.0
  0
LINE
  5
4D93
330
4D15
100
AcDbEntity
  8
0
  6
CONTINUOUS
 62
     0
100
AcDbLine
 10
7.230788
 20
23.015376
 30
0.0
 11
8.644156
 21
24.428744
 31
0.0
  0
LINE
  5
4D94
330
4D15
100
AcDbEntity
  8
0
  6
CONTINUOUS
 62
     0
100
AcDbLine
 10
10.46482299999998
 20
26.532253
 30
0.0
 11
11.41387299999998
 21
27.481303
 31
0.0
  0
LINE
  5
4D95
330
4D15
100
AcDbEntity
  8
0
  6
CONTINUOUS
 62
     0
100
AcDbLine
 10
11.605159
 20
27.672589
 30
0.0
 11
12.567584
 21
28.635015
 31
0.0
  0
LINE
  5
4D96
330
4D15
100
AcDbEntity
  8
0
  6
CONTINUOUS
 62
     0
100
AcDbLine
 10
7.190052
 20
23.25748299999998
 30
0.0
 11
8.361313
 21
24.428744
 31
0.0
  0
LINE
  5
4D97
330
4D15
100
AcDbEntity
  8
0
  6
CONTINUOUS
 62
     0
100
AcDbLine
 10
10.46482299999998
 20
26.815096
 30
0.0
 11
12.313807
 21
28.66407999999999
 31
0.0
  0
LINE
  5
4D98
330
4D15
100
AcDbEntity
  8
0
  6
CONTINUOUS
 62
     0
100
AcDbLine
 10
7.160988
 20
23.51126099999999
 30
0.0
 11
8.191864
 21
24.542137
 31
0.0
  0
LINE
  5
4D99
330
4D15
100
AcDbEntity
  8
0
  6
CONTINUOUS
 62
     0
100
AcDbLine
 10
10.46482299999998
 20
27.097939
 30
0.0
 11
12.046753
 21
28.679869
 31
0.0
  0
LINE
  5
4D9A
330
4D15
100
AcDbEntity
  8
0
  6
CONTINUOUS
 62
     0
100
AcDbLine
 10
7.145197999999997
 20
23.778314
 30
0.0
 11
8.270421
 21
24.903537
 31
0.0
  0
LINE
  5
4D9B
330
4D15
100
AcDbEntity
  8
0
  6
CONTINUOUS
 62
     0
100
AcDbLine
 10
10.46482299999998
 20
27.380782
 30
0.0
 11
11.76425899999999
 21
28.68021699999999
 31
0.0
  0
LINE
  5
4D9C
330
4D15
100
AcDbEntity
  8
0
  6
CONTINUOUS
 62
     0
100
AcDbLine
 10
7.144849999999999
 20
24.060809
 30
0.0
 11
8.412672
 21
25.328631
 31
0.0
  0
LINE
  5
4D9D
330
4D15
100
AcDbEntity
  8
0
  6
CONTINUOUS
 62
     0
100
AcDbLine
 10
9.92464
 20
27.12344099999999
 30
0.0
 11
11.463286
 21
28.66208699999999
 31
0.0
  0
LINE
  5
4D9E
330
4D15
100
AcDbEntity
  8
0
  6
CONTINUOUS
 62
     0
100
AcDbLine
 10
7.16298
 20
24.361781
 30
0.0
 11
8.701625999999999
 21
25.900428
 31
0.0
  0
LINE
  5
4D9F
330
4D15
100
AcDbEntity
  8
0
  6
CONTINUOUS
 62
     0
100
AcDbLine
 10
7.204077999999999
 20
24.685722
 30
0.0
 11
11.139345
 21
28.620989
 31
0.0
  0
LINE
  5
4DA0
330
4D15
100
AcDbEntity
  8
0
  6
CONTINUOUS
 62
     0
100
AcDbLine
 10
7.275296
 20
25.03978299999999
 30
0.0
 11
10.785285
 21
28.549771
 31
0.0
  0
LINE
  5
4DA1
330
4D15
100
AcDbEntity
  8
0
  6
CONTINUOUS
 62
     0
100
AcDbLine
 10
7.389392999999999
 20
25.436722
 30
0.0
 11
10.38834499999998
 21
28.435675
 31
0.0
  0
LINE
  5
4DA2
330
4D15
100
AcDbEntity
  8
0
  6
CONTINUOUS
 62
     0
100
AcDbLine
 10
7.574053999999997
 20
25.904226
 30
0.0
 11
9.920840999999999
 21
28.251013
 31
0.0
  0
LINE
  5
4DA3
330
4D15
100
AcDbEntity
  8
0
  6
CONTINUOUS
 62
     0
100
AcDbLine
 10
7.923914999999999
 20
26.53693
 30
0.0
 11
9.288138
 21
27.901153
 31
0.0
  0
ENDBLK
  5
4DA5
330
4D15
100
AcDbEntity
  8
0
100
AcDbBlockEnd
  0
BLOCK
  5
4DC4
330
4DA6
100
AcDbEntity
  8
0
100
AcDbBlockBegin
  2
*X20
 70
     1
 10
0.0
 20
0.0
 30
0.0
  3
*X20
  1

  0
LINE
  5
4DA7
330
4DA6
100
AcDbEntity
  8
0
  6
CONTINUOUS
 62
     0
100
AcDbLine
 10
20.403855
 20
20.63209399999998
 30
0.0
 11
20.470123
 21
20.69836099999998
 31
0.0
  0
LINE
  5
4DA8
330
4DA6
100
AcDbEntity
  8
0
  6
CONTINUOUS
 62
     0
100
AcDbLine
 10
20.121013
 20
20.63209399999998
 30
0.0
 11
20.470123
 21
20.981204
 31
0.0
  0
LINE
  5
4DA9
330
4DA6
100
AcDbEntity
  8
0
  6
CONTINUOUS
 62
     0
100
AcDbLine
 10
19.83817
 20
20.63209399999998
 30
0.0
 11
20.470123
 21
21.264047
 31
0.0
  0
LINE
  5
4DAA
330
4DA6
100
AcDbEntity
  8
0
  6
CONTINUOUS
 62
     0
100
AcDbLine
 10
19.555327
 20
20.63209399999998
 30
0.0
 11
20.470123
 21
21.546889
 31
0.0
  0
LINE
  5
4DAB
330
4DA6
100
AcDbEntity
  8
0
  6
CONTINUOUS
 62
     0
100
AcDbLine
 10
19.27248399999998
 20
20.63209399999998
 30
0.0
 11
20.470123
 21
21.829732
 31
0.0
  0
LINE
  5
4DAC
330
4DA6
100
AcDbEntity
  8
0
  6
CONTINUOUS
 62
     0
100
AcDbLine
 10
18.98964199999999
 20
20.63209399999998
 30
0.0
 11
20.470123
 21
22.11257499999998
 31
0.0
  0
LINE
  5
4DAD
330
4DA6
100
AcDbEntity
  8
0
  6
CONTINUOUS
 62
     0
100
AcDbLine
 10
18.706799
 20
20.63209399999998
 30
0.0
 11
20.470123
 21
22.395418
 31
0.0
  0
LINE
  5
4DAE
330
4DA6
100
AcDbEntity
  8
0
  6
CONTINUOUS
 62
     0
100
AcDbLine
 10
18.674623
 20
20.88276
 30
0.0
 11
20.470123
 21
22.67826
 31
0.0
  0
LINE
  5
4DAF
330
4DA6
100
AcDbEntity
  8
0
  6
CONTINUOUS
 62
     0
100
AcDbLine
 10
20.919864
 20
23.410844
 30
0.0
 11
21.087523
 21
23.578503
 31
0.0
  0
LINE
  5
4DB0
330
4DA6
100
AcDbEntity
  8
0
  6
CONTINUOUS
 62
     0
100
AcDbLine
 10
18.674623
 20
21.165603
 30
0.0
 11
20.470123
 21
22.961103
 31
0.0
  0
LINE
  5
4DB1
330
4DA6
100
AcDbEntity
  8
0
  6
CONTINUOUS
 62
     0
100
AcDbLine
 10
20.63702099999998
 20
23.410844
 30
0.0
 11
21.087523
 21
23.86134599999999
 31
0.0
  0
LINE
  5
4DB2
330
4DA6
100
AcDbEntity
  8
0
  6
CONTINUOUS
 62
     0
100
AcDbLine
 10
18.674623
 20
21.448446
 30
0.0
 11
20.470123
 21
23.24394599999999
 31
0.0
  0
LINE
  5
4DB3
330
4DA6
100
AcDbEntity
  8
0
  6
CONTINUOUS
 62
     0
100
AcDbLine
 10
18.674623
 20
21.731288
 30
0.0
 11
21.087523
 21
24.14418799999999
 31
0.0
  0
LINE
  5
4DB4
330
4DA6
100
AcDbEntity
  8
0
  6
CONTINUOUS
 62
     0
100
AcDbLine
 10
18.674623
 20
22.01413099999999
 30
0.0
 11
21.087523
 21
24.427031
 31
0.0
  0
LINE
  5
4DB5
330
4DA6
100
AcDbEntity
  8
0
  6
CONTINUOUS
 62
     0
100
AcDbLine
 10
18.674623
 20
22.296974
 30
0.0
 11
20.886043
 21
24.508394
 31
0.0
  0
LINE
  5
4DB6
330
4DA6
100
AcDbEntity
  8
0
  6
CONTINUOUS
 62
     0
100
AcDbLine
 10
21.02665
 20
24.931844
 30
0.0
 11
21.087523
 21
24.992717
 31
0.0
  0
LINE
  5
4DB7
330
4DA6
100
AcDbEntity
  8
0
  6
CONTINUOUS
 62
     0
100
AcDbLine
 10
18.674623
 20
22.579817
 30
0.0
 11
20.6032
 21
24.508394
 31
0.0
  0
LINE
  5
4DB8
330
4DA6
100
AcDbEntity
  8
0
  6
CONTINUOUS
 62
     0
100
AcDbLine
 10
20.743807
 20
24.931844
 30
0.0
 11
21.087523
 21
25.275559
 31
0.0
  0
LINE
  5
4DB9
330
4DA6
100
AcDbEntity
  8
0
  6
CONTINUOUS
 62
     0
100
AcDbLine
 10
18.674623
 20
22.862659
 30
0.0
 11
20.43397699999998
 21
24.622013
 31
0.0
  0
LINE
  5
4DBA
330
4DA6
100
AcDbEntity
  8
0
  6
CONTINUOUS
 62
     0
100
AcDbLine
 10
18.674623
 20
23.145502
 30
0.0
 11
21.087523
 21
25.558402
 31
0.0
  0
LINE
  5
4DBB
330
4DA6
100
AcDbEntity
  8
0
  6
CONTINUOUS
 62
     0
100
AcDbLine
 10
18.657122
 20
23.410844
 30
0.0
 11
21.08127199999997
 21
25.834994
 31
0.0
  0
LINE
  5
4DBC
330
4DA6
100
AcDbEntity
  8
0
  6
CONTINUOUS
 62
     0
100
AcDbLine
 10
18.374279
 20
23.410844
 30
0.0
 11
20.798429
 21
25.834994
 31
0.0
  0
LINE
  5
4DBD
330
4DA6
100
AcDbEntity
  8
0
  6
CONTINUOUS
 62
     0
100
AcDbLine
 10
18.137323
 20
23.45673
 30
0.0
 11
20.51558599999999
 21
25.834994
 31
0.0
  0
LINE
  5
4DBE
330
4DA6
100
AcDbEntity
  8
0
  6
CONTINUOUS
 62
     0
100
AcDbLine
 10
18.137323
 20
23.739573
 30
0.0
 11
20.232744
 21
25.834994
 31
0.0
  0
LINE
  5
4DBF
330
4DA6
100
AcDbEntity
  8
0
  6
CONTINUOUS
 62
     0
100
AcDbLine
 10
18.674623
 20
24.559716
 30
0.0
 11
19.949901
 21
25.834994
 31
0.0
  0
LINE
  5
4DC0
330
4DA6
100
AcDbEntity
  8
0
  6
CONTINUOUS
 62
     0
100
AcDbLine
 10
18.137323
 20
24.02241599999999
 30
0.0
 11
18.623301
 21
24.508394
 31
0.0
  0
LINE
  5
4DC1
330
4DA6
100
AcDbEntity
  8
0
  6
CONTINUOUS
 62
     0
100
AcDbLine
 10
18.674623
 20
24.842558
 30
0.0
 11
19.66705799999997
 21
25.834994
 31
0.0
  0
LINE
  5
4DC2
330
4DA6
100
AcDbEntity
  8
0
  6
CONTINUOUS
 62
     0
100
AcDbLine
 10
18.137323
 20
24.30525799999999
 30
0.0
 11
18.34045799999998
 21
24.508394
 31
0.0
  0
LINE
  5
4DC3
330
4DA6
100
AcDbEntity
  8
0
  6
CONTINUOUS
 62
     0
100
AcDbLine
 10
18.70280499999998
 20
25.15358299999999
 30
0.0
 11
19.356077
 21
25.80685499999999
 31
0.0
  0
ENDBLK
  5
4DC5
330
4DA6
100
AcDbEntity
  8
0
100
AcDbBlockEnd
  0
BLOCK
  5
4DD1
330
4DC6
100
AcDbEntity
  8
0
100
AcDbBlockBegin
  2
*X21
 70
     1
 10
0.0
 20
0.0
 30
0.0
  3
*X21
  1

  0
LINE
  5
4DC7
330
4DC6
100
AcDbEntity
  8
0
  6
CONTINUOUS
 62
     0
100
AcDbLine
 10
23.583484
 20
24.943094
 30
0.0
 11
23.625973
 21
24.985582
 31
0.0
  0
LINE
  5
4DC8
330
4DC6
100
AcDbEntity
  8
0
  6
CONTINUOUS
 62
     0
100
AcDbLine
 10
23.300642
 20
24.943094
 30
0.0
 11
23.625973
 21
25.268425
 31
0.0
  0
LINE
  5
4DC9
330
4DC6
100
AcDbEntity
  8
0
  6
CONTINUOUS
 62
     0
100
AcDbLine
 10
23.017799
 20
24.943094
 30
0.0
 11
23.625973
 21
25.551268
 31
0.0
  0
LINE
  5
4DCA
330
4DC6
100
AcDbEntity
  8
0
  6
CONTINUOUS
 62
     0
100
AcDbLine
 10
22.73495599999999
 20
24.943094
 30
0.0
 11
23.625973
 21
25.83410999999999
 31
0.0
  0
LINE
  5
4DCB
330
4DC6
100
AcDbEntity
  8
0
  6
CONTINUOUS
 62
     0
100
AcDbLine
 10
22.452114
 20
24.943094
 30
0.0
 11
23.344014
 21
25.834994
 31
0.0
  0
LINE
  5
4DCC
330
4DC6
100
AcDbEntity
  8
0
  6
CONTINUOUS
 62
     0
100
AcDbLine
 10
22.16927099999999
 20
24.943094
 30
0.0
 11
23.06117099999999
 21
25.834994
 31
0.0
  0
LINE
  5
4DCD
330
4DC6
100
AcDbEntity
  8
0
  6
CONTINUOUS
 62
     0
100
AcDbLine
 10
21.88642799999999
 20
24.943094
 30
0.0
 11
22.778328
 21
25.834994
 31
0.0
  0
LINE
  5
4DCE
330
4DC6
100
AcDbEntity
  8
0
  6
CONTINUOUS
 62
     0
100
AcDbLine
 10
21.807973
 20
25.147481
 30
0.0
 11
22.495485
 21
25.834994
 31
0.0
  0
LINE
  5
4DCF
330
4DC6
100
AcDbEntity
  8
0
  6
CONTINUOUS
 62
     0
100
AcDbLine
 10
21.807973
 20
25.43032399999999
 30
0.0
 11
22.212643
 21
25.834994
 31
0.0
  0
LINE
  5
4DD0
330
4DC6
100
AcDbEntity
  8
0
  6
CONTINUOUS
 62
     0
100
AcDbLine
 10
21.807973
 20
25.713167
 30
0.0
 11
21.92979999999999
 21
25.834994
 31
0.0
  0
ENDBLK
  5
4DD2
330
4DC6
100
AcDbEntity
  8
0
100
AcDbBlockEnd
  0
BLOCK
  5
4DE8
330
4DD3
100
AcDbEntity
  8
0
100
AcDbBlockBegin
  2
*X22
 70
     1
 10
0.0
 20
0.0
 30
0.0
  3
*X22
  1

  0
LINE
  5
4DD4
330
4DD3
100
AcDbEntity
  8
0
  6
CONTINUOUS
 62
     0
100
AcDbLine
 10
23.515125
 20
20.63209399999998
 30
0.0
 11
23.625973
 21
20.742941
 31
0.0
  0
LINE
  5
4DD5
330
4DD3
100
AcDbEntity
  8
0
  6
CONTINUOUS
 62
     0
100
AcDbLine
 10
23.232282
 20
20.63209399999998
 30
0.0
 11
23.625973
 21
21.025784
 31
0.0
  0
LINE
  5
4DD6
330
4DD3
100
AcDbEntity
  8
0
  6
CONTINUOUS
 62
     0
100
AcDbLine
 10
22.94944
 20
20.63209399999998
 30
0.0
 11
23.625973
 21
21.30862699999998
 31
0.0
  0
LINE
  5
4DD7
330
4DD3
100
AcDbEntity
  8
0
  6
CONTINUOUS
 62
     0
100
AcDbLine
 10
22.66659699999999
 20
20.63209399999998
 30
0.0
 11
23.625973
 21
21.59147
 31
0.0
  0
LINE
  5
4DD8
330
4DD3
100
AcDbEntity
  8
0
  6
CONTINUOUS
 62
     0
100
AcDbLine
 10
22.383754
 20
20.63209399999998
 30
0.0
 11
23.625973
 21
21.874312
 31
0.0
  0
LINE
  5
4DD9
330
4DD3
100
AcDbEntity
  8
0
  6
CONTINUOUS
 62
     0
100
AcDbLine
 10
22.100912
 20
20.63209399999998
 30
0.0
 11
23.625973
 21
22.15715499999999
 31
0.0
  0
LINE
  5
4DDA
330
4DD3
100
AcDbEntity
  8
0
  6
CONTINUOUS
 62
     0
100
AcDbLine
 10
21.818069
 20
20.63209399999998
 30
0.0
 11
23.625973
 21
22.439998
 31
0.0
  0
LINE
  5
4DDB
330
4DD3
100
AcDbEntity
  8
0
  6
CONTINUOUS
 62
     0
100
AcDbLine
 10
21.807973
 20
20.90484
 30
0.0
 11
23.625973
 21
22.72283999999999
 31
0.0
  0
LINE
  5
4DDC
330
4DD3
100
AcDbEntity
  8
0
  6
CONTINUOUS
 62
     0
100
AcDbLine
 10
21.807973
 20
21.187683
 30
0.0
 11
23.625973
 21
23.00568299999999
 31
0.0
  0
LINE
  5
4DDD
330
4DD3
100
AcDbEntity
  8
0
  6
CONTINUOUS
 62
     0
100
AcDbLine
 10
21.807973
 20
21.47052599999998
 30
0.0
 11
23.625973
 21
23.288526
 31
0.0
  0
LINE
  5
4DDE
330
4DD3
100
AcDbEntity
  8
0
  6
CONTINUOUS
 62
     0
100
AcDbLine
 10
21.807973
 20
21.753369
 30
0.0
 11
23.625973
 21
23.57136899999999
 31
0.0
  0
LINE
  5
4DDF
330
4DD3
100
AcDbEntity
  8
0
  6
CONTINUOUS
 62
     0
100
AcDbLine
 10
21.807973
 20
22.03621099999999
 30
0.0
 11
23.625973
 21
23.85421099999998
 31
0.0
  0
LINE
  5
4DE0
330
4DD3
100
AcDbEntity
  8
0
  6
CONTINUOUS
 62
     0
100
AcDbLine
 10
21.807973
 20
22.319054
 30
0.0
 11
23.625973
 21
24.137054
 31
0.0
  0
LINE
  5
4DE1
330
4DD3
100
AcDbEntity
  8
0
  6
CONTINUOUS
 62
     0
100
AcDbLine
 10
21.807973
 20
22.601897
 30
0.0
 11
23.625973
 21
24.419897
 31
0.0
  0
LINE
  5
4DE2
330
4DD3
100
AcDbEntity
  8
0
  6
CONTINUOUS
 62
     0
100
AcDbLine
 10
21.807973
 20
22.884739
 30
0.0
 11
23.431627
 21
24.508394
 31
0.0
  0
LINE
  5
4DE3
330
4DD3
100
AcDbEntity
  8
0
  6
CONTINUOUS
 62
     0
100
AcDbLine
 10
21.807973
 20
23.167582
 30
0.0
 11
23.148784
 21
24.508394
 31
0.0
  0
LINE
  5
4DE4
330
4DD3
100
AcDbEntity
  8
0
  6
CONTINUOUS
 62
     0
100
AcDbLine
 10
21.807973
 20
23.45042499999999
 30
0.0
 11
22.865942
 21
24.508394
 31
0.0
  0
LINE
  5
4DE5
330
4DD3
100
AcDbEntity
  8
0
  6
CONTINUOUS
 62
     0
100
AcDbLine
 10
21.807973
 20
23.733268
 30
0.0
 11
22.58309899999999
 21
24.508394
 31
0.0
  0
LINE
  5
4DE6
330
4DD3
100
AcDbEntity
  8
0
  6
CONTINUOUS
 62
     0
100
AcDbLine
 10
21.807973
 20
24.01611
 30
0.0
 11
22.300256
 21
24.508394
 31
0.0
  0
LINE
  5
4DE7
330
4DD3
100
AcDbEntity
  8
0
  6
CONTINUOUS
 62
     0
100
AcDbLine
 10
21.807973
 20
24.298953
 30
0.0
 11
22.017414
 21
24.508394
 31
0.0
  0
ENDBLK
  5
4DE9
330
4DD3
100
AcDbEntity
  8
0
100
AcDbBlockEnd
  0
BLOCK
  5
4E12
330
4DEA
100
AcDbEntity
  8
0
100
AcDbBlockBegin
  2
*X23
 70
     1
 10
0.0
 20
0.0
 30
0.0
  3
*X23
  1

  0
LINE
  5
4DEB
330
4DEA
100
AcDbEntity
  8
0
  6
CONTINUOUS
 62
     0
100
AcDbLine
 10
29.737665
 20
20.63209399999998
 30
0.0
 11
29.89222299999999
 21
20.786652
 31
0.0
  0
LINE
  5
4DEC
330
4DEA
100
AcDbEntity
  8
0
  6
CONTINUOUS
 62
     0
100
AcDbLine
 10
29.45482199999998
 20
20.63209399999998
 30
0.0
 11
29.89222299999999
 21
21.06949399999999
 31
0.0
  0
LINE
  5
4DED
330
4DEA
100
AcDbEntity
  8
0
  6
CONTINUOUS
 62
     0
100
AcDbLine
 10
29.17197899999999
 20
20.63209399999998
 30
0.0
 11
29.89222299999999
 21
21.352337
 31
0.0
  0
LINE
  5
4DEE
330
4DEA
100
AcDbEntity
  8
0
  6
CONTINUOUS
 62
     0
100
AcDbLine
 10
28.88913699999999
 20
20.63209399999998
 30
0.0
 11
29.89222299999999
 21
21.63517999999999
 31
0.0
  0
LINE
  5
4DEF
330
4DEA
100
AcDbEntity
  8
0
  6
CONTINUOUS
 62
     0
100
AcDbLine
 10
28.606294
 20
20.63209399999998
 30
0.0
 11
29.89222299999999
 21
21.918023
 31
0.0
  0
LINE
  5
4DF0
330
4DEA
100
AcDbEntity
  8
0
  6
CONTINUOUS
 62
     0
100
AcDbLine
 10
28.323451
 20
20.63209399999998
 30
0.0
 11
29.89222299999999
 21
22.200865
 31
0.0
  0
LINE
  5
4DF1
330
4DEA
100
AcDbEntity
  8
0
  6
CONTINUOUS
 62
     0
100
AcDbLine
 10
28.108423
 20
20.69990799999998
 30
0.0
 11
29.89222299999999
 21
22.483708
 31
0.0
  0
LINE
  5
4DF2
330
4DEA
100
AcDbEntity
  8
0
  6
CONTINUOUS
 62
     0
100
AcDbLine
 10
28.108423
 20
20.98275099999999
 30
0.0
 11
29.89222299999999
 21
22.766551
 31
0.0
  0
LINE
  5
4DF3
330
4DEA
100
AcDbEntity
  8
0
  6
CONTINUOUS
 62
     0
100
AcDbLine
 10
28.108423
 20
21.26559299999998
 30
0.0
 11
29.89222299999999
 21
23.049393
 31
0.0
  0
LINE
  5
4DF4
330
4DEA
100
AcDbEntity
  8
0
  6
CONTINUOUS
 62
     0
100
AcDbLine
 10
28.108423
 20
21.54843599999999
 30
0.0
 11
29.89184299999999
 21
23.33185599999999
 31
0.0
  0
LINE
  5
4DF5
330
4DEA
100
AcDbEntity
  8
0
  6
CONTINUOUS
 62
     0
100
AcDbLine
 10
28.108423
 20
21.831279
 30
0.0
 11
29.853268
 21
23.576124
 31
0.0
  0
LINE
  5
4DF6
330
4DEA
100
AcDbEntity
  8
0
  6
CONTINUOUS
 62
     0
100
AcDbLine
 10
28.108423
 20
22.114122
 30
0.0
 11
29.777815
 21
23.78351299999999
 31
0.0
  0
LINE
  5
4DF7
330
4DEA
100
AcDbEntity
  8
0
  6
CONTINUOUS
 62
     0
100
AcDbLine
 10
28.108423
 20
22.396964
 30
0.0
 11
29.67413
 21
23.962671
 31
0.0
  0
LINE
  5
4DF8
330
4DEA
100
AcDbEntity
  8
0
  6
CONTINUOUS
 62
     0
100
AcDbLine
 10
28.084087
 20
22.655471
 30
0.0
 11
29.54593
 21
24.117314
 31
0.0
  0
LINE
  5
4DF9
330
4DEA
100
AcDbEntity
  8
0
  6
CONTINUOUS
 62
     0
100
AcDbLine
 10
26.06071
 20
20.63209399999998
 30
0.0
 11
26.28997299999999
 21
20.861357
 31
0.0
  0
LINE
  5
4DFA
330
4DEA
100
AcDbEntity
  8
0
  6
CONTINUOUS
 62
     0
100
AcDbLine
 10
27.9938
 20
22.84802699999999
 30
0.0
 11
29.394359
 21
24.248585
 31
0.0
  0
LINE
  5
4DFB
330
4DEA
100
AcDbEntity
  8
0
  6
CONTINUOUS
 62
     0
100
AcDbLine
 10
25.777867
 20
20.63209399999998
 30
0.0
 11
26.28997299999999
 21
21.1442
 31
0.0
  0
LINE
  5
4DFC
330
4DEA
100
AcDbEntity
  8
0
  6
CONTINUOUS
 62
     0
100
AcDbLine
 10
27.856431
 20
22.993501
 30
0.0
 11
29.218545
 21
24.355614
 31
0.0
  0
LINE
  5
4DFD
330
4DEA
100
AcDbEntity
  8
0
  6
CONTINUOUS
 62
     0
100
AcDbLine
 10
25.495024
 20
20.63209399999998
 30
0.0
 11
26.28997299999999
 21
21.427042
 31
0.0
  0
LINE
  5
4DFE
330
4DEA
100
AcDbEntity
  8
0
  6
CONTINUOUS
 62
     0
100
AcDbLine
 10
27.673361
 20
23.09327399999999
 30
0.0
 11
29.008732
 21
24.428645
 31
0.0
  0
LINE
  5
4DFF
330
4DEA
100
AcDbEntity
  8
0
  6
CONTINUOUS
 62
     0
100
AcDbLine
 10
25.212181
 20
20.63209399999998
 30
0.0
 11
26.28997299999999
 21
21.70988499999999
 31
0.0
  0
LINE
  5
4E00
330
4DEA
100
AcDbEntity
  8
0
  6
CONTINUOUS
 62
     0
100
AcDbLine
 10
27.426682
 20
23.129436
 30
0.0
 11
28.78111099999999
 21
24.483866
 31
0.0
  0
LINE
  5
4E01
330
4DEA
100
AcDbEntity
  8
0
  6
CONTINUOUS
 62
     0
100
AcDbLine
 10
24.929339
 20
20.63209399999998
 30
0.0
 11
26.28997299999999
 21
21.992728
 31
0.0
  0
LINE
  5
4E02
330
4DEA
100
AcDbEntity
  8
0
  6
CONTINUOUS
 62
     0
100
AcDbLine
 10
27.09337899999999
 20
23.07897599999999
 30
0.0
 11
28.539658
 21
24.525255
 31
0.0
  0
LINE
  5
4E03
330
4DEA
100
AcDbEntity
  8
0
  6
CONTINUOUS
 62
     0
100
AcDbLine
 10
24.64649599999999
 20
20.63209399999998
 30
0.0
 11
26.28997299999999
 21
22.27557099999999
 31
0.0
  0
LINE
  5
4E04
330
4DEA
100
AcDbEntity
  8
0
  6
CONTINUOUS
 62
     0
100
AcDbLine
 10
24.494923
 20
20.763363
 30
0.0
 11
28.28214099999999
 21
24.550582
 31
0.0
  0
LINE
  5
4E05
330
4DEA
100
AcDbEntity
  8
0
  6
CONTINUOUS
 62
     0
100
AcDbLine
 10
24.494923
 20
21.046206
 30
0.0
 11
28.005321
 21
24.556604
 31
0.0
  0
LINE
  5
4E06
330
4DEA
100
AcDbEntity
  8
0
  6
CONTINUOUS
 62
     0
100
AcDbLine
 10
24.494923
 20
21.32904899999997
 30
0.0
 11
27.704195
 21
24.538321
 31
0.0
  0
LINE
  5
4E07
330
4DEA
100
AcDbEntity
  8
0
  6
CONTINUOUS
 62
     0
100
AcDbLine
 10
24.494923
 20
21.611891
 30
0.0
 11
27.370303
 21
24.487272
 31
0.0
  0
LINE
  5
4E08
330
4DEA
100
AcDbEntity
  8
0
  6
CONTINUOUS
 62
     0
100
AcDbLine
 10
24.494923
 20
21.894734
 30
0.0
 11
26.987035
 21
24.386846
 31
0.0
  0
LINE
  5
4E09
330
4DEA
100
AcDbEntity
  8
0
  6
CONTINUOUS
 62
     0
100
AcDbLine
 10
24.494923
 20
22.17757699999999
 30
0.0
 11
26.51056599999999
 21
24.19322
 31
0.0
  0
LINE
  5
4E0A
330
4DEA
100
AcDbEntity
  8
0
  6
CONTINUOUS
 62
     0
100
AcDbLine
 10
24.494923
 20
22.46042
 30
0.0
 11
26.28997299999999
 21
24.25547
 31
0.0
  0
LINE
  5
4E0B
330
4DEA
100
AcDbEntity
  8
0
  6
CONTINUOUS
 62
     0
100
AcDbLine
 10
24.494923
 20
22.74326199999999
 30
0.0
 11
26.26005399999999
 21
24.508394
 31
0.0
  0
LINE
  5
4E0C
330
4DEA
100
AcDbEntity
  8
0
  6
CONTINUOUS
 62
     0
100
AcDbLine
 10
24.494923
 20
23.02610499999999
 30
0.0
 11
25.977212
 21
24.508394
 31
0.0
  0
LINE
  5
4E0D
330
4DEA
100
AcDbEntity
  8
0
  6
CONTINUOUS
 62
     0
100
AcDbLine
 10
24.494923
 20
23.308948
 30
0.0
 11
25.694369
 21
24.508394
 31
0.0
  0
LINE
  5
4E0E
330
4DEA
100
AcDbEntity
  8
0
  6
CONTINUOUS
 62
     0
100
AcDbLine
 10
24.494923
 20
23.59179
 30
0.0
 11
25.411526
 21
24.508394
 31
0.0
  0
LINE
  5
4E0F
330
4DEA
100
AcDbEntity
  8
0
  6
CONTINUOUS
 62
     0
100
AcDbLine
 10
24.494923
 20
23.87463299999999
 30
0.0
 11
25.128683
 21
24.508394
 31
0.0
  0
LINE
  5
4E10
330
4DEA
100
AcDbEntity
  8
0
  6
CONTINUOUS
 62
     0
100
AcDbLine
 10
24.494923
 20
24.157476
 30
0.0
 11
24.845841
 21
24.508394
 31
0.0
  0
LINE
  5
4E11
330
4DEA
100
AcDbEntity
  8
0
  6
CONTINUOUS
 62
     0
100
AcDbLine
 10
24.494923
 20
24.440319
 30
0.0
 11
24.562998
 21
24.508394
 31
0.0
  0
ENDBLK
  5
4E13
330
4DEA
100
AcDbEntity
  8
0
100
AcDbBlockEnd
  0
BLOCK
  5
4E41
330
4E14
100
AcDbEntity
  8
0
100
AcDbBlockBegin
  2
*X24
 70
     1
 10
0.0
 20
0.0
 30
0.0
  3
*X24
  1

  0
LINE
  5
4E15
330
4E14
100
AcDbEntity
  8
0
  6
CONTINUOUS
 62
     0
100
AcDbLine
 10
35.94895499999999
 20
20.620844
 30
0.0
 11
35.986573
 21
20.658462
 31
0.0
  0
LINE
  5
4E16
330
4E14
100
AcDbEntity
  8
0
  6
CONTINUOUS
 62
     0
100
AcDbLine
 10
35.666112
 20
20.620844
 30
0.0
 11
35.986573
 21
20.94130499999999
 31
0.0
  0
LINE
  5
4E17
330
4E14
100
AcDbEntity
  8
0
  6
CONTINUOUS
 62
     0
100
AcDbLine
 10
35.38326899999999
 20
20.620844
 30
0.0
 11
35.986573
 21
21.22414699999997
 31
0.0
  0
LINE
  5
4E18
330
4E14
100
AcDbEntity
  8
0
  6
CONTINUOUS
 62
     0
100
AcDbLine
 10
35.100427
 20
20.620844
 30
0.0
 11
35.986573
 21
21.50698999999999
 31
0.0
  0
LINE
  5
4E19
330
4E14
100
AcDbEntity
  8
0
  6
CONTINUOUS
 62
     0
100
AcDbLine
 10
34.817584
 20
20.620844
 30
0.0
 11
35.986573
 21
21.789833
 31
0.0
  0
LINE
  5
4E1A
330
4E14
100
AcDbEntity
  8
0
  6
CONTINUOUS
 62
     0
100
AcDbLine
 10
34.53474099999999
 20
20.620844
 30
0.0
 11
35.986573
 21
22.07267499999999
 31
0.0
  0
LINE
  5
4E1B
330
4E14
100
AcDbEntity
  8
0
  6
CONTINUOUS
 62
     0
100
AcDbLine
 10
34.251898
 20
20.620844
 30
0.0
 11
35.986573
 21
22.355518
 31
0.0
  0
LINE
  5
4E1C
330
4E14
100
AcDbEntity
  8
0
  6
CONTINUOUS
 62
     0
100
AcDbLine
 10
34.19152299999999
 20
20.84331099999999
 30
0.0
 11
35.986573
 21
22.638361
 31
0.0
  0
LINE
  5
4E1D
330
4E14
100
AcDbEntity
  8
0
  6
CONTINUOUS
 62
     0
100
AcDbLine
 10
33.76930999999999
 20
20.703941
 30
0.0
 11
35.986573
 21
22.92120399999999
 31
0.0
  0
LINE
  5
4E1E
330
4E14
100
AcDbEntity
  8
0
  6
CONTINUOUS
 62
     0
100
AcDbLine
 10
33.39236599999999
 20
20.60983999999999
 30
0.0
 11
35.986573
 21
23.20404599999999
 31
0.0
  0
LINE
  5
4E1F
330
4E14
100
AcDbEntity
  8
0
  6
CONTINUOUS
 62
     0
100
AcDbLine
 10
33.081013
 20
20.58132999999997
 30
0.0
 11
35.986573
 21
23.486889
 31
0.0
  0
LINE
  5
4E20
330
4E14
100
AcDbEntity
  8
0
  6
CONTINUOUS
 62
     0
100
AcDbLine
 10
32.78812199999999
 20
20.57128099999999
 30
0.0
 11
35.986573
 21
23.769732
 31
0.0
  0
LINE
  5
4E21
330
4E14
100
AcDbEntity
  8
0
  6
CONTINUOUS
 62
     0
100
AcDbLine
 10
32.50752399999999
 20
20.57352499999999
 30
0.0
 11
35.986573
 21
24.05257399999999
 31
0.0
  0
LINE
  5
4E22
330
4E14
100
AcDbEntity
  8
0
  6
CONTINUOUS
 62
     0
100
AcDbLine
 10
34.178814
 20
22.52765899999999
 30
0.0
 11
35.986573
 21
24.335417
 31
0.0
  0
LINE
  5
4E23
330
4E14
100
AcDbEntity
  8
0
  6
CONTINUOUS
 62
     0
100
AcDbLine
 10
32.243083
 20
20.59192799999999
 30
0.0
 11
33.59479199999999
 21
21.94363599999999
 31
0.0
  0
LINE
  5
4E24
330
4E14
100
AcDbEntity
  8
0
  6
CONTINUOUS
 62
     0
100
AcDbLine
 10
34.181643
 20
22.81333
 30
0.0
 11
35.986573
 21
24.61826
 31
0.0
  0
LINE
  5
4E25
330
4E14
100
AcDbEntity
  8
0
  6
CONTINUOUS
 62
     0
100
AcDbLine
 10
32.000516
 20
20.632203
 30
0.0
 11
33.247555
 21
21.879242
 31
0.0
  0
LINE
  5
4E26
330
4E14
100
AcDbEntity
  8
0
  6
CONTINUOUS
 62
     0
100
AcDbLine
 10
34.100287
 20
23.014817
 30
0.0
 11
35.986573
 21
24.90110299999999
 31
0.0
  0
LINE
  5
4E27
330
4E14
100
AcDbEntity
  8
0
  6
CONTINUOUS
 62
     0
100
AcDbLine
 10
31.777522
 20
20.692051
 30
0.0
 11
32.988078
 21
21.90260799999999
 31
0.0
  0
LINE
  5
4E28
330
4E14
100
AcDbEntity
  8
0
  6
CONTINUOUS
 62
     0
100
AcDbLine
 10
33.96946099999999
 20
23.166833
 30
0.0
 11
35.986573
 21
25.183945
 31
0.0
  0
LINE
  5
4E29
330
4E14
100
AcDbEntity
  8
0
  6
CONTINUOUS
 62
     0
100
AcDbLine
 10
31.57735699999999
 20
20.774729
 30
0.0
 11
32.76916099999999
 21
21.96653299999999
 31
0.0
  0
LINE
  5
4E2A
330
4E14
100
AcDbEntity
  8
0
  6
CONTINUOUS
 62
     0
100
AcDbLine
 10
33.798691
 20
23.27890599999999
 30
0.0
 11
35.986573
 21
25.466788
 31
0.0
  0
LINE
  5
4E2B
330
4E14
100
AcDbEntity
  8
0
  6
CONTINUOUS
 62
     0
100
AcDbLine
 10
31.394628
 20
20.87484299999998
 30
0.0
 11
32.578781
 21
22.05899599999999
 31
0.0
  0
LINE
  5
4E2C
330
4E14
100
AcDbEntity
  8
0
  6
CONTINUOUS
 62
     0
100
AcDbLine
 10
33.595067
 20
23.358124
 30
0.0
 11
35.986573
 21
25.749631
 31
0.0
  0
LINE
  5
4E2D
330
4E14
100
AcDbEntity
  8
0
  6
CONTINUOUS
 62
     0
100
AcDbLine
 10
31.22313099999999
 20
20.986189
 30
0.0
 11
32.424733
 21
22.187791
 31
0.0
  0
LINE
  5
4E2E
330
4E14
100
AcDbEntity
  8
0
  6
CONTINUOUS
 62
     0
100
AcDbLine
 10
33.37303699999999
 20
23.41893699999999
 30
0.0
 11
35.77784299999999
 21
25.823744
 31
0.0
  0
LINE
  5
4E2F
330
4E14
100
AcDbEntity
  8
0
  6
CONTINUOUS
 62
     0
100
AcDbLine
 10
31.067037
 20
21.112937
 30
0.0
 11
32.307803
 21
22.353704
 31
0.0
  0
LINE
  5
4E30
330
4E14
100
AcDbEntity
  8
0
  6
CONTINUOUS
 62
     0
100
AcDbLine
 10
33.11599499999999
 20
23.444738
 30
0.0
 11
34.077945
 21
24.406688
 31
0.0
  0
LINE
  5
4E31
330
4E14
100
AcDbEntity
  8
0
  6
CONTINUOUS
 62
     0
100
AcDbLine
 10
34.19152299999999
 20
24.52026599999999
 30
0.0
 11
35.495
 21
25.823744
 31
0.0
  0
LINE
  5
4E32
330
4E14
100
AcDbEntity
  8
0
  6
CONTINUOUS
 62
     0
100
AcDbLine
 10
30.92289099999999
 20
21.25163399999999
 30
0.0
 11
32.23358499999999
 21
22.562329
 31
0.0
  0
LINE
  5
4E33
330
4E14
100
AcDbEntity
  8
0
  6
CONTINUOUS
 62
     0
100
AcDbLine
 10
32.74817399999999
 20
23.35976
 30
0.0
 11
33.885911
 21
24.49749699999999
 31
0.0
  0
LINE
  5
4E34
330
4E14
100
AcDbEntity
  8
0
  6
CONTINUOUS
 62
     0
100
AcDbLine
 10
34.19152299999999
 20
24.803109
 30
0.0
 11
35.212158
 21
25.823744
 31
0.0
  0
LINE
  5
4E35
330
4E14
100
AcDbEntity
  8
0
  6
CONTINUOUS
 62
     0
100
AcDbLine
 10
30.79573599999999
 20
21.40732199999998
 30
0.0
 11
32.26604099999998
 21
22.877627
 31
0.0
  0
LINE
  5
4E36
330
4E14
100
AcDbEntity
  8
0
  6
CONTINUOUS
 62
     0
100
AcDbLine
 10
34.19152299999999
 20
25.085952
 30
0.0
 11
34.929315
 21
25.823744
 31
0.0
  0
LINE
  5
4E37
330
4E14
100
AcDbEntity
  8
0
  6
CONTINUOUS
 62
     0
100
AcDbLine
 10
30.684862
 20
21.579291
 30
0.0
 11
33.65907999999999
 21
24.553509
 31
0.0
  0
LINE
  5
4E38
330
4E14
100
AcDbEntity
  8
0
  6
CONTINUOUS
 62
     0
100
AcDbLine
 10
34.19152299999999
 20
25.368794
 30
0.0
 11
34.64647199999999
 21
25.823744
 31
0.0
  0
LINE
  5
4E39
330
4E14
100
AcDbEntity
  8
0
  6
CONTINUOUS
 62
     0
100
AcDbLine
 10
30.59117899999999
 20
21.76845
 30
0.0
 11
33.418127
 21
24.595399
 31
0.0
  0
LINE
  5
4E3A
330
4E14
100
AcDbEntity
  8
0
  6
CONTINUOUS
 62
     0
100
AcDbLine
 10
34.19152299999999
 20
25.651637
 30
0.0
 11
34.36362899999998
 21
25.823744
 31
0.0
  0
LINE
  5
4E3B
330
4E14
100
AcDbEntity
  8
0
  6
CONTINUOUS
 62
     0
100
AcDbLine
 10
30.51714
 20
21.977254
 30
0.0
 11
33.172249
 21
24.632364
 31
0.0
  0
LINE
  5
4E3C
330
4E14
100
AcDbEntity
  8
0
  6
CONTINUOUS
 62
     0
100
AcDbLine
 10
30.459126
 20
22.20208299999999
 30
0.0
 11
32.905926
 21
24.648883
 31
0.0
  0
LINE
  5
4E3D
330
4E14
100
AcDbEntity
  8
0
  6
CONTINUOUS
 62
     0
100
AcDbLine
 10
30.423694
 20
22.449493
 30
0.0
 11
32.62147499999999
 21
24.647275
 31
0.0
  0
LINE
  5
4E3E
330
4E14
100
AcDbEntity
  8
0
  6
CONTINUOUS
 62
     0
100
AcDbLine
 10
30.424318
 20
22.732961
 30
0.0
 11
32.321114
 21
24.629756
 31
0.0
  0
LINE
  5
4E3F
330
4E14
100
AcDbEntity
  8
0
  6
CONTINUOUS
 62
     0
100
AcDbLine
 10
30.48455999999999
 20
23.076045
 30
0.0
 11
31.97893099999999
 21
24.570416
 31
0.0
  0
LINE
  5
4E40
330
4E14
100
AcDbEntity
  8
0
  6
CONTINUOUS
 62
     0
100
AcDbLine
 10
30.667096
 20
23.541423
 30
0.0
 11
31.51624099999999
 21
24.390569
 31
0.0
  0
ENDBLK
  5
4E42
330
4E14
100
AcDbEntity
  8
0
100
AcDbBlockEnd
  0
BLOCK
  5
4E74
330
4E43
100
AcDbEntity
  8
0
100
AcDbBlockBegin
  2
*X25
 70
     1
 10
0.0
 20
0.0
 30
0.0
  3
*X25
  1

  0
LINE
  5
4E44
330
4E43
100
AcDbEntity
  8
0
  6
CONTINUOUS
 62
     0
100
AcDbLine
 10
41.23382399999999
 20
20.814544
 30
0.0
 11
42.038521
 21
21.61924099999999
 31
0.0
  0
LINE
  5
4E45
330
4E43
100
AcDbEntity
  8
0
  6
CONTINUOUS
 62
     0
100
AcDbLine
 10
40.761924
 20
20.625487
 30
0.0
 11
41.99208099999998
 21
21.855644
 31
0.0
  0
LINE
  5
4E46
330
4E43
100
AcDbEntity
  8
0
  6
CONTINUOUS
 62
     0
100
AcDbLine
 10
42.109364
 20
22.25577
 30
0.0
 11
42.234688
 21
22.381093
 31
0.0
  0
LINE
  5
4E47
330
4E43
100
AcDbEntity
  8
0
  6
CONTINUOUS
 62
     0
100
AcDbLine
 10
40.38714399999999
 20
20.53354899999998
 30
0.0
 11
41.70923799999999
 21
21.855644
 31
0.0
  0
LINE
  5
4E48
330
4E43
100
AcDbEntity
  8
0
  6
CONTINUOUS
 62
     0
100
AcDbLine
 10
41.825433
 20
22.25468199999999
 30
0.0
 11
42.248624
 21
22.677873
 31
0.0
  0
LINE
  5
4E49
330
4E43
100
AcDbEntity
  8
0
  6
CONTINUOUS
 62
     0
100
AcDbLine
 10
40.05277999999999
 20
20.482029
 30
0.0
 11
41.426395
 21
21.855644
 31
0.0
  0
LINE
  5
4E4A
330
4E43
100
AcDbEntity
  8
0
  6
CONTINUOUS
 62
     0
100
AcDbLine
 10
41.541502
 20
22.253593
 30
0.0
 11
42.21409
 21
22.92618099999998
 31
0.0
  0
LINE
  5
4E4B
330
4E43
100
AcDbEntity
  8
0
  6
CONTINUOUS
 62
     0
100
AcDbLine
 10
39.74394
 20
20.456031
 30
0.0
 11
41.143553
 21
21.855644
 31
0.0
  0
LINE
  5
4E4C
330
4E43
100
AcDbEntity
  8
0
  6
CONTINUOUS
 62
     0
100
AcDbLine
 10
41.25757199999998
 20
22.252505
 30
0.0
 11
42.156032
 21
23.15096599999999
 31
0.0
  0
LINE
  5
4E4D
330
4E43
100
AcDbEntity
  8
0
  6
CONTINUOUS
 62
     0
100
AcDbLine
 10
39.448788
 20
20.443722
 30
0.0
 11
40.86070999999999
 21
21.855644
 31
0.0
  0
LINE
  5
4E4E
330
4E43
100
AcDbEntity
  8
0
  6
CONTINUOUS
 62
     0
100
AcDbLine
 10
40.973641
 20
22.251417
 30
0.0
 11
42.08269699999998
 21
23.360473
 31
0.0
  0
LINE
  5
4E4F
330
4E43
100
AcDbEntity
  8
0
  6
CONTINUOUS
 62
     0
100
AcDbLine
 10
39.16676599999997
 20
20.444542
 30
0.0
 11
40.577867
 21
21.855644
 31
0.0
  0
LINE
  5
4E50
330
4E43
100
AcDbEntity
  8
0
  6
CONTINUOUS
 62
     0
100
AcDbLine
 10
40.68971
 20
22.25032899999999
 30
0.0
 11
41.992262
 21
23.552881
 31
0.0
  0
LINE
  5
4E51
330
4E43
100
AcDbEntity
  8
0
  6
CONTINUOUS
 62
     0
100
AcDbLine
 10
38.902535
 20
20.463154
 30
0.0
 11
40.17887199999999
 21
21.739491
 31
0.0
  0
LINE
  5
4E52
330
4E43
100
AcDbEntity
  8
0
  6
CONTINUOUS
 62
     0
100
AcDbLine
 10
40.40577899999997
 20
22.249241
 30
0.0
 11
41.885758
 21
23.729219
 31
0.0
  0
LINE
  5
4E53
330
4E43
100
AcDbEntity
  8
0
  6
CONTINUOUS
 62
     0
100
AcDbLine
 10
38.650769
 20
20.49423099999998
 30
0.0
 11
39.71113499999999
 21
21.55459599999999
 31
0.0
  0
LINE
  5
4E54
330
4E43
100
AcDbEntity
  8
0
  6
CONTINUOUS
 62
     0
100
AcDbLine
 10
40.12184799999999
 20
22.24815199999999
 30
0.0
 11
41.763132
 21
23.889436
 31
0.0
  0
LINE
  5
4E55
330
4E43
100
AcDbEntity
  8
0
  6
CONTINUOUS
 62
     0
100
AcDbLine
 10
38.407693
 20
20.533998
 30
0.0
 11
39.411545
 21
21.53785
 31
0.0
  0
LINE
  5
4E56
330
4E43
100
AcDbEntity
  8
0
  6
CONTINUOUS
 62
     0
100
AcDbLine
 10
39.83791699999999
 20
22.247064
 30
0.0
 11
41.62484899999999
 21
24.033997
 31
0.0
  0
LINE
  5
4E57
330
4E43
100
AcDbEntity
  8
0
  6
CONTINUOUS
 62
     0
100
AcDbLine
 10
38.180128
 20
20.589276
 30
0.0
 11
39.162324
 21
21.57147099999999
 31
0.0
  0
LINE
  5
4E58
330
4E43
100
AcDbEntity
  8
0
  6
CONTINUOUS
 62
     0
100
AcDbLine
 10
39.553986
 20
22.245976
 30
0.0
 11
41.470496
 21
24.16248599999999
 31
0.0
  0
LINE
  5
4E59
330
4E43
100
AcDbEntity
  8
0
  6
CONTINUOUS
 62
     0
100
AcDbLine
 10
37.96719
 20
20.65917999999999
 30
0.0
 11
38.94359
 21
21.63557999999999
 31
0.0
  0
LINE
  5
4E5A
330
4E43
100
AcDbEntity
  8
0
  6
CONTINUOUS
 62
     0
100
AcDbLine
 10
39.27005499999999
 20
22.244888
 30
0.0
 11
40.10436099999997
 21
23.079194
 31
0.0
  0
LINE
  5
4E5B
330
4E43
100
AcDbEntity
  8
0
  6
CONTINUOUS
 62
     0
100
AcDbLine
 10
40.296756
 20
23.271589
 30
0.0
 11
41.30607499999999
 21
24.280908
 31
0.0
  0
LINE
  5
4E5C
330
4E43
100
AcDbEntity
  8
0
  6
CONTINUOUS
 62
     0
100
AcDbLine
 10
37.762127
 20
20.736959
 30
0.0
 11
38.75166699999999
 21
21.7265
 31
0.0
  0
LINE
  5
4E5D
330
4E43
100
AcDbEntity
  8
0
  6
CONTINUOUS
 62
     0
100
AcDbLine
 10
38.986768
 20
22.244444
 30
0.0
 11
39.821518
 21
23.079194
 31
0.0
  0
LINE
  5
4E5E
330
4E43
100
AcDbEntity
  8
0
  6
CONTINUOUS
 62
     0
100
AcDbLine
 10
40.18585499999999
 20
23.443531
 30
0.0
 11
41.127162
 21
24.384837
 31
0.0
  0
LINE
  5
4E5F
330
4E43
100
AcDbEntity
  8
0
  6
CONTINUOUS
 62
     0
100
AcDbLine
 10
37.567077
 20
20.824752
 30
0.0
 11
38.58724199999999
 21
21.844917
 31
0.0
  0
LINE
  5
4E60
330
4E43
100
AcDbEntity
  8
0
  6
CONTINUOUS
 62
     0
100
AcDbLine
 10
38.703926
 20
22.244444
 30
0.0
 11
39.538676
 21
23.079194
 31
0.0
  0
LINE
  5
4E61
330
4E43
100
AcDbEntity
  8
0
  6
CONTINUOUS
 62
     0
100
AcDbLine
 10
40.03559899999999
 20
23.576117
 30
0.0
 11
40.93254199999999
 21
24.47306
 31
0.0
  0
LINE
  5
4E62
330
4E43
100
AcDbEntity
  8
0
  6
CONTINUOUS
 62
     0
100
AcDbLine
 10
37.386162
 20
20.92667999999997
 30
0.0
 11
38.458814
 21
21.99933199999999
 31
0.0
  0
LINE
  5
4E63
330
4E43
100
AcDbEntity
  8
0
  6
CONTINUOUS
 62
     0
100
AcDbLine
 10
38.421083
 20
22.244444
 30
0.0
 11
39.255833
 21
23.079194
 31
0.0
  0
LINE
  5
4E64
330
4E43
100
AcDbEntity
  8
0
  6
CONTINUOUS
 62
     0
100
AcDbLine
 10
39.85366199999999
 20
23.677023
 30
0.0
 11
40.721945
 21
24.545306
 31
0.0
  0
LINE
  5
4E65
330
4E43
100
AcDbEntity
  8
0
  6
CONTINUOUS
 62
     0
100
AcDbLine
 10
37.22185
 20
21.04521099999999
 30
0.0
 11
38.375638
 21
22.198999
 31
0.0
  0
LINE
  5
4E66
330
4E43
100
AcDbEntity
  8
0
  6
CONTINUOUS
 62
     0
100
AcDbLine
 10
39.63845399999997
 20
23.744657
 30
0.0
 11
40.501236
 21
24.607439
 31
0.0
  0
LINE
  5
4E67
330
4E43
100
AcDbEntity
  8
0
  6
CONTINUOUS
 62
     0
100
AcDbLine
 10
37.07656
 20
21.182763
 30
0.0
 11
38.97299
 21
23.079194
 31
0.0
  0
LINE
  5
4E68
330
4E43
100
AcDbEntity
  8
0
  6
CONTINUOUS
 62
     0
100
AcDbLine
 10
39.38487999999999
 20
23.77392599999998
 30
0.0
 11
40.269576
 21
24.658623
 31
0.0
  0
LINE
  5
4E69
330
4E43
100
AcDbEntity
  8
0
  6
CONTINUOUS
 62
     0
100
AcDbLine
 10
36.946052
 20
21.335098
 30
0.0
 11
38.69014699999999
 21
23.079194
 31
0.0
  0
LINE
  5
4E6A
330
4E43
100
AcDbEntity
  8
0
  6
CONTINUOUS
 62
     0
100
AcDbLine
 10
39.069245
 20
23.741134
 30
0.0
 11
40.026103
 21
24.697992
 31
0.0
  0
LINE
  5
4E6B
330
4E43
100
AcDbEntity
  8
0
  6
CONTINUOUS
 62
     0
100
AcDbLine
 10
36.825922
 20
21.49781099999999
 30
0.0
 11
38.407305
 21
23.079194
 31
0.0
  0
LINE
  5
4E6C
330
4E43
100
AcDbEntity
  8
0
  6
CONTINUOUS
 62
     0
100
AcDbLine
 10
36.722045
 20
21.676776
 30
0.0
 11
39.76916899999999
 21
24.723901
 31
0.0
  0
LINE
  5
4E6D
330
4E43
100
AcDbEntity
  8
0
  6
CONTINUOUS
 62
     0
100
AcDbLine
 10
36.63367199999999
 20
21.871247
 30
0.0
 11
39.492393
 21
24.729967
 31
0.0
  0
LINE
  5
4E6E
330
4E43
100
AcDbEntity
  8
0
  6
CONTINUOUS
 62
     0
100
AcDbLine
 10
36.558727
 20
22.07914399999999
 30
0.0
 11
39.21488899999999
 21
24.735306
 31
0.0
  0
LINE
  5
4E6F
330
4E43
100
AcDbEntity
  8
0
  6
CONTINUOUS
 62
     0
100
AcDbLine
 10
36.503475
 20
22.30673499999999
 30
0.0
 11
38.910338
 21
24.713597
 31
0.0
  0
LINE
  5
4E70
330
4E43
100
AcDbEntity
  8
0
  6
CONTINUOUS
 62
     0
100
AcDbLine
 10
36.47892399999999
 20
22.56502699999999
 30
0.0
 11
38.59996399999999
 21
24.686067
 31
0.0
  0
LINE
  5
4E71
330
4E43
100
AcDbEntity
  8
0
  6
CONTINUOUS
 62
     0
100
AcDbLine
 10
36.497306
 20
22.866251
 30
0.0
 11
38.252546
 21
24.62149099999999
 31
0.0
  0
LINE
  5
4E72
330
4E43
100
AcDbEntity
  8
0
  6
CONTINUOUS
 62
     0
100
AcDbLine
 10
36.58207
 20
23.233858
 30
0.0
 11
37.861674
 21
24.513462
 31
0.0
  0
LINE
  5
4E73
330
4E43
100
AcDbEntity
  8
0
  6
CONTINUOUS
 62
     0
100
AcDbLine
 10
36.878958
 20
23.813588
 30
0.0
 11
37.289934
 21
24.224564
 31
0.0
  0
ENDBLK
  5
4E75
330
4E43
100
AcDbEntity
  8
0
100
AcDbBlockEnd
  0
BLOCK
  5
4E97
330
4E76
100
AcDbEntity
  8
0
100
AcDbBlockBegin
  2
*X26
 70
     1
 10
0.0
 20
0.0
 30
0.0
  3
*X26
  1

  0
LINE
  5
4E77
330
4E76
100
AcDbEntity
  8
0
  6
CONTINUOUS
 62
     0
100
AcDbLine
 10
47.249714
 20
22.58779399999999
 30
0.0
 11
47.287957
 21
22.62603599999999
 31
0.0
  0
LINE
  5
4E78
330
4E76
100
AcDbEntity
  8
0
  6
CONTINUOUS
 62
     0
100
AcDbLine
 10
46.96687199999998
 20
22.58779399999999
 30
0.0
 11
47.307662
 21
22.928584
 31
0.0
  0
LINE
  5
4E79
330
4E76
100
AcDbEntity
  8
0
  6
CONTINUOUS
 62
     0
100
AcDbLine
 10
46.68402899999999
 20
22.58779399999999
 30
0.0
 11
47.29611499999999
 21
23.19987999999999
 31
0.0
  0
LINE
  5
4E7A
330
4E76
100
AcDbEntity
  8
0
  6
CONTINUOUS
 62
     0
100
AcDbLine
 10
46.401186
 20
22.58779399999999
 30
0.0
 11
47.261533
 21
23.448141
 31
0.0
  0
LINE
  5
4E7B
330
4E76
100
AcDbEntity
  8
0
  6
CONTINUOUS
 62
     0
100
AcDbLine
 10
44.445486
 20
20.63209399999998
 30
0.0
 11
44.459623
 21
20.64623
 31
0.0
  0
LINE
  5
4E7C
330
4E76
100
AcDbEntity
  8
0
  6
CONTINUOUS
 62
     0
100
AcDbLine
 10
46.11834299999999
 20
22.58779399999999
 30
0.0
 11
47.209214
 21
23.67866499999999
 31
0.0
  0
LINE
  5
4E7D
330
4E76
100
AcDbEntity
  8
0
  6
CONTINUOUS
 62
     0
100
AcDbLine
 10
44.162643
 20
20.63209399999998
 30
0.0
 11
44.459623
 21
20.929073
 31
0.0
  0
LINE
  5
4E7E
330
4E76
100
AcDbEntity
  8
0
  6
CONTINUOUS
 62
     0
100
AcDbLine
 10
45.835501
 20
22.58779399999999
 30
0.0
 11
47.132011
 21
23.884304
 31
0.0
  0
LINE
  5
4E7F
330
4E76
100
AcDbEntity
  8
0
  6
CONTINUOUS
 62
     0
100
AcDbLine
 10
43.879801
 20
20.63209399999998
 30
0.0
 11
44.459623
 21
21.21191599999999
 31
0.0
  0
LINE
  5
4E80
330
4E76
100
AcDbEntity
  8
0
  6
CONTINUOUS
 62
     0
100
AcDbLine
 10
45.55265799999999
 20
22.58779399999999
 30
0.0
 11
47.02930300000001
 21
24.06443799999999
 31
0.0
  0
LINE
  5
4E81
330
4E76
100
AcDbEntity
  8
0
  6
CONTINUOUS
 62
     0
100
AcDbLine
 10
43.59695799999999
 20
20.63209399999998
 30
0.0
 11
44.459623
 21
21.494759
 31
0.0
  0
LINE
  5
4E82
330
4E76
100
AcDbEntity
  8
0
  6
CONTINUOUS
 62
     0
100
AcDbLine
 10
45.45457299999998
 20
22.772551
 30
0.0
 11
46.900895
 21
24.218874
 31
0.0
  0
LINE
  5
4E83
330
4E76
100
AcDbEntity
  8
0
  6
CONTINUOUS
 62
     0
100
AcDbLine
 10
43.314115
 20
20.63209399999998
 30
0.0
 11
44.459623
 21
21.77760099999999
 31
0.0
  0
LINE
  5
4E84
330
4E76
100
AcDbEntity
  8
0
  6
CONTINUOUS
 62
     0
100
AcDbLine
 10
45.418199
 20
23.01902
 30
0.0
 11
46.74470999999999
 21
24.345531
 31
0.0
  0
LINE
  5
4E85
330
4E76
100
AcDbEntity
  8
0
  6
CONTINUOUS
 62
     0
100
AcDbLine
 10
43.03127299999998
 20
20.63209399999998
 30
0.0
 11
44.459623
 21
22.060444
 31
0.0
  0
LINE
  5
4E86
330
4E76
100
AcDbEntity
  8
0
  6
CONTINUOUS
 62
     0
100
AcDbLine
 10
45.294614
 20
23.17827799999999
 30
0.0
 11
46.558784
 21
24.442448
 31
0.0
  0
LINE
  5
4E87
330
4E76
100
AcDbEntity
  8
0
  6
CONTINUOUS
 62
     0
100
AcDbLine
 10
42.74842999999999
 20
20.63209399999998
 30
0.0
 11
44.459623
 21
22.343287
 31
0.0
  0
LINE
  5
4E88
330
4E76
100
AcDbEntity
  8
0
  6
CONTINUOUS
 62
     0
100
AcDbLine
 10
45.10254699999999
 20
23.26905299999999
 30
0.0
 11
46.34635699999999
 21
24.512863
 31
0.0
  0
LINE
  5
4E89
330
4E76
100
AcDbEntity
  8
0
  6
CONTINUOUS
 62
     0
100
AcDbLine
 10
42.732973
 20
20.89947899999998
 30
0.0
 11
44.459623
 21
22.626129
 31
0.0
  0
LINE
  5
4E8A
330
4E76
100
AcDbEntity
  8
0
  6
CONTINUOUS
 62
     0
100
AcDbLine
 10
44.79762199999998
 20
23.24697099999999
 30
0.0
 11
46.11516599999998
 21
24.564515
 31
0.0
  0
LINE
  5
4E8B
330
4E76
100
AcDbEntity
  8
0
  6
CONTINUOUS
 62
     0
100
AcDbLine
 10
42.732973
 20
21.182322
 30
0.0
 11
44.492506
 21
22.941855
 31
0.0
  0
LINE
  5
4E8C
330
4E76
100
AcDbEntity
  8
0
  6
CONTINUOUS
 62
     0
100
AcDbLine
 10
42.732973
 20
21.465165
 30
0.0
 11
45.85771499999999
 21
24.58990599999999
 31
0.0
  0
LINE
  5
4E8D
330
4E76
100
AcDbEntity
  8
0
  6
CONTINUOUS
 62
     0
100
AcDbLine
 10
42.732973
 20
21.74800799999999
 30
0.0
 11
45.563093
 21
24.57812699999999
 31
0.0
  0
LINE
  5
4E8E
330
4E76
100
AcDbEntity
  8
0
  6
CONTINUOUS
 62
     0
100
AcDbLine
 10
42.732973
 20
22.03085
 30
0.0
 11
45.22227700000001
 21
24.52015499999999
 31
0.0
  0
LINE
  5
4E8F
330
4E76
100
AcDbEntity
  8
0
  6
CONTINUOUS
 62
     0
100
AcDbLine
 10
42.732973
 20
22.313693
 30
0.0
 11
44.777089
 21
24.357809
 31
0.0
  0
LINE
  5
4E90
330
4E76
100
AcDbEntity
  8
0
  6
CONTINUOUS
 62
     0
100
AcDbLine
 10
42.732973
 20
22.59653599999999
 30
0.0
 11
44.459623
 21
24.323186
 31
0.0
  0
LINE
  5
4E91
330
4E76
100
AcDbEntity
  8
0
  6
CONTINUOUS
 62
     0
100
AcDbLine
 10
42.732973
 20
22.87937799999999
 30
0.0
 11
44.361988
 21
24.508394
 31
0.0
  0
LINE
  5
4E92
330
4E76
100
AcDbEntity
  8
0
  6
CONTINUOUS
 62
     0
100
AcDbLine
 10
42.732973
 20
23.162221
 30
0.0
 11
44.079145
 21
24.508394
 31
0.0
  0
LINE
  5
4E93
330
4E76
100
AcDbEntity
  8
0
  6
CONTINUOUS
 62
     0
100
AcDbLine
 10
42.732973
 20
23.445064
 30
0.0
 11
43.796303
 21
24.508394
 31
0.0
  0
LINE
  5
4E94
330
4E76
100
AcDbEntity
  8
0
  6
CONTINUOUS
 62
     0
100
AcDbLine
 10
42.732973
 20
23.727907
 30
0.0
 11
43.51345999999998
 21
24.508394
 31
0.0
  0
LINE
  5
4E95
330
4E76
100
AcDbEntity
  8
0
  6
CONTINUOUS
 62
     0
100
AcDbLine
 10
42.732973
 20
24.010749
 30
0.0
 11
43.23061699999999
 21
24.508394
 31
0.0
  0
LINE
  5
4E96
330
4E76
100
AcDbEntity
  8
0
  6
CONTINUOUS
 62
     0
100
AcDbLine
 10
42.732973
 20
24.293592
 30
0.0
 11
42.947775
 21
24.508394
 31
0.0
  0
ENDBLK
  5
4E98
330
4E76
100
AcDbEntity
  8
0
100
AcDbBlockEnd
  0
BLOCK
  5
4F09
330
4EFF
100
AcDbEntity
  8
0
100
AcDbBlockBegin
  2
*D27
 70
     1
 10
0.0
 20
0.0
 30
0.0
  3
*D27
  1

  0
LINE
  5
4F5B
330
4EFF
100
AcDbEntity
  8
DIM
  6
CONTINUOUS
100
AcDbLine
 10
76.556929
 20
189.795902
 30
0.0
 11
67.75
 21
189.795902
 31
0.0
  0
LINE
  5
4F5C
330
4EFF
100
AcDbEntity
  8
DIM
  6
CONTINUOUS
100
AcDbLine
 10
86.256929
 20
201.1959019999999
 30
0.0
 11
67.75
 21
201.1959019999999
 31
0.0
  0
LINE
  5
4F5D
330
4EFF
100
AcDbEntity
  8
DIM
  6
CONTINUOUS
100
AcDbLine
 10
69.0
 20
192.295902
 30
0.0
 11
69.0
 21
198.695902
 31
0.0
  0
SOLID
  5
4F5E
330
4EFF
100
AcDbEntity
  8
DIM
  6
CONTINUOUS
100
AcDbTrace
 10
68.58333333333333
 20
192.295902
 30
0.0
 11
69.41666666666667
 21
192.295902
 31
0.0
 12
69.0
 22
189.795902
 32
0.0
 13
69.0
 23
189.795902
 33
0.0
  0
SOLID
  5
4F5F
330
4EFF
100
AcDbEntity
  8
DIM
  6
CONTINUOUS
100
AcDbTrace
 10
68.58333333333333
 20
198.695902
 30
0.0
 11
69.41666666666667
 21
198.695902
 31
0.0
 12
69.0
 22
201.1959019999999
 32
0.0
 13
69.0
 23
201.1959019999999
 33
0.0
  0
MTEXT
  5
4F60
330
4EFF
100
AcDbEntity
  8
DIM
  6
CONTINUOUS
 62
     2
100
AcDbMText
 10
67.47131650750339
 20
195.495902
 30
0.0
 40
1.8
 41
0.0
 71
     5
 72
     1
  1
11.4
  7
FINDER
 11
0.0000000000000001
 21
1.0
 31
0.0
1001
ACAD
1000
MTEXTBEGIN
1070
    73
1070
     1
1070
    44
1040
1.0
1070
    74
1070
     0
1000
MTEXTEND
1000
MTEXTBEGIN
1070
    73
1070
     1
1070
    44
1040
1.0
1070
    74
1070
     0
1000
MTEXTEND
  0
POINT
  5
4F61
330
4EFF
100
AcDbEntity
  8
DEFPOINTS
  6
CONTINUOUS
 62
     0
100
AcDbPoint
 10
78.556929
 20
189.795902
 30
0.0
  0
POINT
  5
4F62
330
4EFF
100
AcDbEntity
  8
DEFPOINTS
  6
CONTINUOUS
 62
     0
100
AcDbPoint
 10
88.25692899999998
 20
201.1959019999999
 30
0.0
  0
POINT
  5
4F63
330
4EFF
100
AcDbEntity
  8
DEFPOINTS
  6
CONTINUOUS
 62
     0
100
AcDbPoint
 10
69.0
 20
201.1959019999999
 30
0.0
  0
ENDBLK
  5
4F0A
330
4EFF
100
AcDbEntity
  8
0
100
AcDbBlockEnd
  0
BLOCK
  5
4F18
330
4F0C
100
AcDbEntity
  8
0
100
AcDbBlockBegin
  2
*D28
 70
     1
 10
0.0
 20
0.0
 30
0.0
  3
*D28
  1

  0
LINE
  5
4F0D
330
4F0C
100
AcDbEntity
  8
DIM
  6
CONTINUOUS
100
AcDbLine
 10
79.55626799999997
 20
190.1959019999999
 30
0.0
 11
79.96483731493595
 21
190.1959019999999
 31
0.0
  0
LINE
  5
4F0E
330
4F0C
100
AcDbEntity
  8
DIM
  6
CONTINUOUS
100
AcDbLine
 10
79.55626799999997
 20
189.395902
 30
0.0
 11
79.96483731493595
 21
189.395902
 31
0.0
  0
LINE
  5
4F0F
330
4F0C
100
AcDbEntity
  8
DIM
  6
CONTINUOUS
100
AcDbLine
 10
81.21483731493595
 20
192.6959019999999
 30
0.0
 11
81.21483731493595
 21
195.1959019999999
 31
0.0
  0
LINE
  5
4F10
330
4F0C
100
AcDbEntity
  8
DIM
  6
CONTINUOUS
100
AcDbLine
 10
81.21483731493595
 20
186.895902
 30
0.0
 11
81.21483731493595
 21
179.8651380163708
 31
0.0
  0
LINE
  5
4F11
330
4F0C
100
AcDbEntity
  8
DIM
  6
CONTINUOUS
100
AcDbLine
 10
81.21483731493595
 20
190.1959019999999
 30
0.0
 11
81.21483731493595
 21
189.395902
 31
0.0
  0
SOLID
  5
4F12
330
4F0C
100
AcDbEntity
  8
DIM
  6
CONTINUOUS
100
AcDbTrace
 10
80.79817064826928
 20
192.6959019999999
 30
0.0
 11
81.63150398160262
 21
192.6959019999999
 31
0.0
 12
81.21483731493595
 22
190.1959019999999
 32
0.0
 13
81.21483731493595
 23
190.1959019999999
 33
0.0
  0
SOLID
  5
4F13
330
4F0C
100
AcDbEntity
  8
DIM
  6
CONTINUOUS
100
AcDbTrace
 10
80.79817064826928
 20
186.895902
 30
0.0
 11
81.63150398160262
 21
186.895902
 31
0.0
 12
81.21483731493595
 22
189.395902
 32
0.0
 13
81.21483731493595
 23
189.395902
 33
0.0
  0
MTEXT
  5
4F14
330
4F0C
100
AcDbEntity
  8
DIM
  6
CONTINUOUS
 62
     2
100
AcDbMText
 10
79.67080593703688
 20
182.1305200081854
 30
0.0
 40
1.8
 41
0.0
 71
     5
 72
     1
  1
0.8
  7
FINDER
 11
0.0000000000000001
 21
1.0
 31
0.0
1001
ACAD
1000
MTEXTBEGIN
1070
    73
1070
     1
1070
    44
1040
1.0
1070
    74
1070
     0
1000
MTEXTEND
1000
MTEXTBEGIN
1070
    73
1070
     1
1070
    44
1040
1.0
1070
    74
1070
     0
1000
MTEXTEND
1000
MTEXTBEGIN
1070
    73
1070
     1
1070
    44
1040
1.0
1070
    74
1070
     0
1000
MTEXTEND
  0
POINT
  5
4F15
330
4F0C
100
AcDbEntity
  8
DEFPOINTS
  6
CONTINUOUS
 62
     0
100
AcDbPoint
 10
81.55626799999998
 20
190.1959019999999
 30
0.0
  0
POINT
  5
4F16
330
4F0C
100
AcDbEntity
  8
DEFPOINTS
  6
CONTINUOUS
 62
     0
100
AcDbPoint
 10
81.55626799999998
 20
189.395902
 30
0.0
  0
POINT
  5
4F17
330
4F0C
100
AcDbEntity
  8
DEFPOINTS
  6
CONTINUOUS
 62
     0
100
AcDbPoint
 10
81.21483731493595
 20
189.395902
 30
0.0
  0
ENDBLK
  5
4F19
330
4F0C
100
AcDbEntity
  8
0
100
AcDbBlockEnd
  0
BLOCK
  5
4F27
330
4F1B
100
AcDbEntity
  8
0
100
AcDbBlockBegin
  2
*D29
 70
     1
 10
0.0
 20
0.0
 30
0.0
  3
*D29
  1

  0
LINE
  5
4F29
330
4F1B
100
AcDbEntity
  8
DIM
  6
CONTINUOUS
100
AcDbLine
 10
80.556929
 20
190.1959019999999
 30
0.0
 11
81.87382929354773
 21
190.1959019999999
 31
0.0
  0
LINE
  5
4F2A
330
4F1B
100
AcDbEntity
  8
DIM
  6
CONTINUOUS
100
AcDbLine
 10
80.556929
 20
189.395902
 30
0.0
 11
81.87382929354773
 21
189.395902
 31
0.0
  0
LINE
  5
4F2B
330
4F1B
100
AcDbEntity
  8
DIM
  6
CONTINUOUS
100
AcDbLine
 10
80.62382929354773
 20
186.895902
 30
0.0
 11
80.62382929354773
 21
184.3959019999999
 31
0.0
  0
LINE
  5
4F2C
330
4F1B
100
AcDbEntity
  8
DIM
  6
CONTINUOUS
100
AcDbLine
 10
80.62382929354773
 20
192.6959019999999
 30
0.0
 11
80.62382929354773
 21
199.7266659836289
 31
0.0
  0
LINE
  5
4F2D
330
4F1B
100
AcDbEntity
  8
DIM
  6
CONTINUOUS
100
AcDbLine
 10
80.62382929354773
 20
189.395902
 30
0.0
 11
80.62382929354773
 21
190.1959019999999
 31
0.0
  0
SOLID
  5
4F2E
330
4F1B
100
AcDbEntity
  8
DIM
  6
CONTINUOUS
100
AcDbTrace
 10
80.20716262688107
 20
186.895902
 30
0.0
 11
81.0404959602144
 21
186.895902
 31
0.0
 12
80.62382929354773
 22
189.395902
 32
0.0
 13
80.62382929354773
 23
189.395902
 33
0.0
  0
SOLID
  5
4F2F
330
4F1B
100
AcDbEntity
  8
DIM
  6
CONTINUOUS
100
AcDbTrace
 10
80.20716262688107
 20
192.6959019999999
 30
0.0
 11
81.0404959602144
 21
192.6959019999999
 31
0.0
 12
80.62382929354773
 22
190.1959019999999
 32
0.0
 13
80.62382929354773
 23
190.1959019999999
 33
0.0
  0
MTEXT
  5
4F30
330
4F1B
100
AcDbEntity
  8
DIM
  6
CONTINUOUS
 62
     2
100
AcDbMText
 10
79.07979791564867
 20
197.4612839918144
 30
0.0
 40
1.8
 41
0.0
 71
     5
 72
     1
  1
0.8
  7
FINDER
 11
0.0000000000000001
 21
1.0
 31
0.0
1001
ACAD
1000
MTEXTBEGIN
1070
    73
1070
     1
1070
    44
1040
1.0
1070
    74
1070
     0
1000
MTEXTEND
1000
MTEXTBEGIN
1070
    73
1070
     1
1070
    44
1040
1.0
1070
    74
1070
     0
1000
MTEXTEND
1000
MTEXTBEGIN
1070
    73
1070
     1
1070
    44
1040
1.0
1070
    74
1070
     0
1000
MTEXTEND
  0
POINT
  5
4F31
330
4F1B
100
AcDbEntity
  8
DEFPOINTS
  6
CONTINUOUS
 62
     0
100
AcDbPoint
 10
78.556929
 20
190.1959019999999
 30
0.0
  0
POINT
  5
4F32
330
4F1B
100
AcDbEntity
  8
DEFPOINTS
  6
CONTINUOUS
 62
     0
100
AcDbPoint
 10
78.556929
 20
189.395902
 30
0.0
  0
POINT
  5
4F33
330
4F1B
100
AcDbEntity
  8
DEFPOINTS
  6
CONTINUOUS
 62
     0
100
AcDbPoint
 10
80.62382929354773
 20
189.395902
 30
0.0
  0
ENDBLK
  5
4F28
330
4F1B
100
AcDbEntity
  8
0
100
AcDbBlockEnd
  0
BLOCK
  5
4F6D
330
4F6B
100
AcDbEntity
  8
0
100
AcDbBlockBegin
  2
_G_T_1
 70
     0
 10
0.0
 20
0.0
 30
0.0
  3
_G_T_1
  1

  0
TEXT
  5
4F6C
330
4F6B
100
AcDbEntity
  8
5
  6
CONTINUOUS
 62
     1
100
AcDbText
 10
617.8561399999998
 20
194.504929
 30
0.0
 40
1.399999999999999
  1
3
 41
1.000004
  7
TSTYLE5
100
AcDbText
  0
ENDBLK
  5
4F6E
330
4F6B
100
AcDbEntity
  8
0
100
AcDbBlockEnd
  0
BLOCK
  5
4F71
330
4F6F
100
AcDbEntity
  8
0
100
AcDbBlockBegin
  2
_G_T_10
 70
     0
 10
0.0
 20
0.0
 30
0.0
  3
_G_T_10
  1

  0
TEXT
  5
4F70
330
4F6F
100
AcDbEntity
  8
5
  6
CONTINUOUS
 62
     1
100
AcDbText
 10
631.692566
 20
190.9139399999999
 30
0.0
 40
1.399999999999999
  1
21
 50
90.0
 41
1.000004
  7
TSTYLE5
100
AcDbText
  0
ENDBLK
  5
4F72
330
4F6F
100
AcDbEntity
  8
0
100
AcDbBlockEnd
  0
BLOCK
  5
4F75
330
4F73
100
AcDbEntity
  8
0
100
AcDbBlockBegin
  2
_G_T_11
 70
     0
 10
0.0
 20
0.0
 30
0.0
  3
_G_T_11
  1

  0
TEXT
  5
4F74
330
4F73
100
AcDbEntity
  8
5
  6
CONTINUOUS
 62
     1
100
AcDbText
 10
621.6189579999998
 20
198.5601959999999
 30
0.0
 40
1.399999999999999
  1
12
 50
90.0
 41
1.000004
  7
TSTYLE5
100
AcDbText
  0
ENDBLK
  5
4F76
330
4F73
100
AcDbEntity
  8
0
100
AcDbBlockEnd
  0
BLOCK
  5
4F79
330
4F77
100
AcDbEntity
  8
0
100
AcDbBlockBegin
  2
_G_T_12
 70
     0
 10
0.0
 20
0.0
 30
0.0
  3
_G_T_12
  1

  0
TEXT
  5
4F78
330
4F77
100
AcDbEntity
  8
5
  6
CONTINUOUS
 62
     1
100
AcDbText
 10
617.8561399999998
 20
199.254929
 30
0.0
 40
1.399999999999999
  1
1
 41
1.000004
  7
TSTYLE5
100
AcDbText
  0
ENDBLK
  5
4F7A
330
4F77
100
AcDbEntity
  8
0
100
AcDbBlockEnd
  0
BLOCK
  5
4F7D
330
4F7B
100
AcDbEntity
  8
0
100
AcDbBlockBegin
  2
_G_T_13
 70
     0
 10
0.0
 20
0.0
 30
0.0
  3
_G_T_13
  1

  0
TEXT
  5
4F7C
330
4F7B
100
AcDbEntity
  8
5
  6
CONTINUOUS
 62
     1
100
AcDbText
 10
628.177368
 20
199.254929
 30
0.0
 40
1.399999999999999
  1
2
 41
1.000004
  7
TSTYLE5
100
AcDbText
  0
ENDBLK
  5
4F7E
330
4F7B
100
AcDbEntity
  8
0
100
AcDbBlockEnd
  0
BLOCK
  5
4F81
330
4F7F
100
AcDbEntity
  8
0
100
AcDbBlockBegin
  2
_G_T_14
 70
     0
 10
0.0
 20
0.0
 30
0.0
  3
_G_T_14
  1

  0
TEXT
  5
4F80
330
4F7F
100
AcDbEntity
  8
5
  6
CONTINUOUS
 62
     1
100
AcDbText
 10
631.6739499999998
 20
198.5839999999999
 30
0.0
 40
1.399999999999999
  1
22
 50
90.0
 41
1.000004
  7
TSTYLE5
100
AcDbText
  0
ENDBLK
  5
4F82
330
4F7F
100
AcDbEntity
  8
0
100
AcDbBlockEnd
  0
BLOCK
  5
4F85
330
4F83
100
AcDbEntity
  8
0
100
AcDbBlockBegin
  2
_G_T_2
 70
     0
 10
0.0
 20
0.0
 30
0.0
  3
_G_T_2
  1

  0
TEXT
  5
4F84
330
4F83
100
AcDbEntity
  8
5
  6
CONTINUOUS
 62
     1
100
AcDbText
 10
628.177368
 20
194.504929
 30
0.0
 40
1.399999999999999
  1
4
 41
1.000004
  7
TSTYLE5
100
AcDbText
  0
ENDBLK
  5
4F86
330
4F83
100
AcDbEntity
  8
0
100
AcDbBlockEnd
  0
BLOCK
  5
4F89
330
4F87
100
AcDbEntity
  8
0
100
AcDbBlockBegin
  2
_G_T_3
 70
     0
 10
0.0
 20
0.0
 30
0.0
  3
_G_T_3
  1

  0
TEXT
  5
4F88
330
4F87
100
AcDbEntity
  8
5
  6
CONTINUOUS
 62
     1
100
AcDbText
 10
617.904724
 20
191.142548
 30
0.0
 40
1.399999999999999
  1
5
 41
1.000004
  7
TSTYLE5
100
AcDbText
  0
ENDBLK
  5
4F8A
330
4F87
100
AcDbEntity
  8
0
100
AcDbBlockEnd
  0
BLOCK
  5
4F8D
330
4F8B
100
AcDbEntity
  8
0
100
AcDbBlockBegin
  2
_G_T_4
 70
     0
 10
0.0
 20
0.0
 30
0.0
  3
_G_T_4
  1

  0
TEXT
  5
4F8C
330
4F8B
100
AcDbEntity
  8
5
  6
CONTINUOUS
 62
     1
100
AcDbText
 10
628.177368
 20
191.142563
 30
0.0
 40
1.399999999999999
  1
6
 41
1.000004
  7
TSTYLE5
100
AcDbText
  0
ENDBLK
  5
4F8E
330
4F8B
100
AcDbEntity
  8
0
100
AcDbBlockEnd
  0
BLOCK
  5
4F91
330
4F8F
100
AcDbEntity
  8
0
100
AcDbBlockBegin
  2
_G_T_5
 70
     0
 10
0.0
 20
0.0
 30
0.0
  3
_G_T_5
  1

  0
TEXT
  5
4F90
330
4F8F
100
AcDbEntity
  8
5
  6
CONTINUOUS
 62
     1
100
AcDbText
 10
619.0778199999998
 20
183.802872
 30
0.0
 40
1.399999999999999
  1
7
 41
1.000004
  7
TSTYLE5
100
AcDbText
  0
ENDBLK
  5
4F92
330
4F8F
100
AcDbEntity
  8
0
100
AcDbBlockEnd
  0
BLOCK
  5
4F95
330
4F93
100
AcDbEntity
  8
0
100
AcDbBlockBegin
  2
_G_T_6
 70
     0
 10
0.0
 20
0.0
 30
0.0
  3
_G_T_6
  1

  0
TEXT
  5
4F94
330
4F93
100
AcDbEntity
  8
5
  6
CONTINUOUS
 62
     1
100
AcDbText
 10
630.1074219999998
 20
183.7516019999999
 30
0.0
 40
1.399999999999999
  1
8
 41
1.000004
  7
TSTYLE5
100
AcDbText
  0
ENDBLK
  5
4F96
330
4F93
100
AcDbEntity
  8
0
100
AcDbBlockEnd
  0
BLOCK
  5
4F99
330
4F97
100
AcDbEntity
  8
0
100
AcDbBlockBegin
  2
_G_T_7
 70
     0
 10
0.0
 20
0.0
 30
0.0
  3
_G_T_7
  1

  0
TEXT
  5
4F98
330
4F97
100
AcDbEntity
  8
5
  6
CONTINUOUS
 62
     1
100
AcDbText
 10
621.6189579999998
 20
193.810196
 30
0.0
 40
1.399999999999999
  1
14
 50
90.0
 41
1.000004
  7
TSTYLE5
100
AcDbText
  0
ENDBLK
  5
4F9A
330
4F97
100
AcDbEntity
  8
0
100
AcDbBlockEnd
  0
BLOCK
  5
4F9D
330
4F9B
100
AcDbEntity
  8
0
100
AcDbBlockBegin
  2
_G_T_8
 70
     0
 10
0.0
 20
0.0
 30
0.0
  3
_G_T_8
  1

  0
TEXT
  5
4F9C
330
4F9B
100
AcDbEntity
  8
5
  6
CONTINUOUS
 62
     1
100
AcDbText
 10
621.619019
 20
190.8277889999999
 30
0.0
 40
1.399999999999999
  1
11
 50
90.0
 41
1.000004
  7
TSTYLE5
100
AcDbText
  0
ENDBLK
  5
4F9E
330
4F9B
100
AcDbEntity
  8
0
100
AcDbBlockEnd
  0
BLOCK
  5
4FA1
330
4F9F
100
AcDbEntity
  8
0
100
AcDbBlockBegin
  2
_G_T_9
 70
     0
 10
0.0
 20
0.0
 30
0.0
  3
_G_T_9
  1

  0
TEXT
  5
4FA0
330
4F9F
100
AcDbEntity
  8
5
  6
CONTINUOUS
 62
     1
100
AcDbText
 10
631.6739499999998
 20
193.834
 30
0.0
 40
1.399999999999999
  1
24
 50
90.0
 41
1.000004
  7
TSTYLE5
100
AcDbText
  0
ENDBLK
  5
4FA2
330
4F9F
100
AcDbEntity
  8
0
100
AcDbBlockEnd
  0
BLOCK
  5
4FAC
330
4FA3
100
AcDbEntity
  8
0
100
AcDbBlockBegin
  2
LW_POLYLINE_16
 70
     0
 10
0.0
 20
0.0
 30
0.0
  3
LW_POLYLINE_16
  1

  0
LINE
  5
4FA4
330
4FA3
100
AcDbEntity
  8
2
  6
CONTINUOUS
 62
     4
100
AcDbLine
 10
615.5381049999999
 20
177.290059
 30
0.0
 11
634.238105
 21
177.290059
 31
0.0
  0
LINE
  5
4FA5
330
4FA3
100
AcDbEntity
  8
2
  6
CONTINUOUS
 62
     4
100
AcDbLine
 10
634.238105
 20
177.290059
 30
0.0
 11
635.2381049999998
 21
178.290059
 31
0.0
  0
LINE
  5
4FA6
330
4FA3
100
AcDbEntity
  8
2
  6
CONTINUOUS
 62
     4
100
AcDbLine
 10
635.2381049999998
 20
178.290059
 30
0.0
 11
635.2381049999998
 21
203.990059
 31
0.0
  0
LINE
  5
4FA7
330
4FA3
100
AcDbEntity
  8
2
  6
CONTINUOUS
 62
     4
100
AcDbLine
 10
635.2381049999998
 20
203.990059
 30
0.0
 11
634.238105
 21
204.990059
 31
0.0
  0
LINE
  5
4FA8
330
4FA3
100
AcDbEntity
  8
2
  6
CONTINUOUS
 62
     4
100
AcDbLine
 10
634.238105
 20
204.990059
 30
0.0
 11
615.5381049999999
 21
204.990059
 31
0.0
  0
LINE
  5
4FA9
330
4FA3
100
AcDbEntity
  8
2
  6
CONTINUOUS
 62
     4
100
AcDbLine
 10
615.5381049999999
 20
204.990059
 30
0.0
 11
614.538105
 21
203.990059
 31
0.0
  0
LINE
  5
4FAA
330
4FA3
100
AcDbEntity
  8
2
  6
CONTINUOUS
 62
     4
100
AcDbLine
 10
614.538105
 20
203.990059
 30
0.0
 11
614.538105
 21
178.290059
 31
0.0
  0
LINE
  5
4FAB
330
4FA3
100
AcDbEntity
  8
2
  6
CONTINUOUS
 62
     4
100
AcDbLine
 10
614.538105
 20
178.290059
 30
0.0
 11
615.5381049999999
 21
177.290059
 31
0.0
  0
ENDBLK
  5
4FAD
330
4FA3
100
AcDbEntity
  8
0
100
AcDbBlockEnd
  0
BLOCK
  5
4FB6
330
4FAE
100
AcDbEntity
  8
0
100
AcDbBlockBegin
  2
*D45
 70
     1
 10
0.0
 20
0.0
 30
0.0
  3
*D45
  1

  0
LINE
  5
4FAF
330
4FAE
100
AcDbEntity
  8
1
  6
CONTINUOUS
 62
     3
100
AcDbLine
 10
613.4210229999998
 20
134.7747449999999
 30
0.0
 11
613.420066
 21
138.21886
 31
0.0
  0
LINE
  5
4FB0
330
4FAE
100
AcDbEntity
  8
1
  6
CONTINUOUS
 62
     3
100
AcDbLine
 10
613.420344
 20
137.21886
 30
0.0
 11
634.1479249999999
 21
137.224619
 31
0.0
  0
TEXT
  5
4FB1
330
4FAE
100
AcDbEntity
  8
1
  6
CONTINUOUS
 62
     4
100
AcDbText
 10
619.7888419126359
 20
138.2206240912504
 30
0.0
 40
3.0
  1
20.7
 50
0.015919
 41
0.9399999999999998
 72
     1
 11
623.7834249999998
 21
139.721734
 31
0.0
100
AcDbText
 73
     2
  0
LINE
  5
4FB2
330
4FAE
100
AcDbEntity
  8
1
  6
CONTINUOUS
 62
     3
100
AcDbLine
 10
634.148673
 20
134.5312709999999
 30
0.0
 11
634.1476469999999
 21
138.2246189999999
 31
0.0
  0
POINT
  5
4FB3
330
4FAE
100
AcDbEntity
  8
DEFPOINTS
 62
     3
100
AcDbPoint
 10
613.4313179999998
 20
97.72264200000002
 30
0.0
  0
POINT
  5
4FB4
330
4FAE
100
AcDbEntity
  8
DEFPOINTS
 62
     3
100
AcDbPoint
 10
634.1588989999998
 20
97.72840100000001
 30
0.0
  0
POINT
  5
4FB5
330
4FAE
100
AcDbEntity
  8
DEFPOINTS
 62
     3
100
AcDbPoint
 10
634.1479249999999
 20
137.224619
 30
0.0
  0
ENDBLK
  5
4FB7
330
4FAE
100
AcDbEntity
  8
0
100
AcDbBlockEnd
  0
BLOCK
  5
4FC0
330
4FB8
100
AcDbEntity
  8
0
100
AcDbBlockBegin
  2
*D46
 70
     1
 10
0.0
 20
0.0
 30
0.0
  3
*D46
  1

  0
LINE
  5
4FB9
330
4FB8
100
AcDbEntity
  8
1
  6
CONTINUOUS
 62
     3
100
AcDbLine
 10
672.080592
 20
134.580003
 30
0.0
 11
672.080592
 21
138.211869
 31
0.0
  0
LINE
  5
4FBA
330
4FB8
100
AcDbEntity
  8
1
  6
CONTINUOUS
 62
     3
100
AcDbLine
 10
672.080592
 20
137.211869
 30
0.0
 11
644.352944
 21
137.211869
 31
0.0
  0
TEXT
  5
4FBB
330
4FB8
100
AcDbEntity
  8
1
  6
CONTINUOUS
 62
     4
100
AcDbText
 10
653.986769
 20
138.21187
 30
0.0
 40
3.0
  1
27.7
 50
360.0
 41
0.9399999999999998
 72
     1
 11
658.216769
 21
139.71187
 31
0.0
100
AcDbText
 73
     2
  0
LINE
  5
4FBC
330
4FB8
100
AcDbEntity
  8
1
  6
CONTINUOUS
 62
     3
100
AcDbLine
 10
644.352944
 20
134.464673
 30
0.0
 11
644.352944
 21
138.211869
 31
0.0
  0
POINT
  5
4FBD
330
4FB8
100
AcDbEntity
  8
DEFPOINTS
 62
     3
100
AcDbPoint
 10
672.080592
 20
97.222649
 30
0.0
  0
POINT
  5
4FBE
330
4FB8
100
AcDbEntity
  8
DEFPOINTS
 62
     3
100
AcDbPoint
 10
644.352944
 20
97.222649
 30
0.0
  0
POINT
  5
4FBF
330
4FB8
100
AcDbEntity
  8
DEFPOINTS
 62
     3
100
AcDbPoint
 10
644.352944
 20
137.211869
 30
0.0
  0
ENDBLK
  5
4FC1
330
4FB8
100
AcDbEntity
  8
0
100
AcDbBlockEnd
  0
BLOCK
  5
4FCA
330
4FC2
100
AcDbEntity
  8
0
100
AcDbBlockBegin
  2
*D47
 70
     1
 10
0.0
 20
0.0
 30
0.0
  3
*D47
  1

  0
LINE
  5
4FC3
330
4FC2
100
AcDbEntity
  8
1
  6
CONTINUOUS
 62
     3
100
AcDbLine
 10
671.477879
 20
134.022649
 30
0.0
 11
680.5903929999998
 21
134.022649
 31
0.0
  0
LINE
  5
4FC4
330
4FC2
100
AcDbEntity
  8
1
  6
CONTINUOUS
 62
     3
100
AcDbLine
 10
679.5903929999998
 20
134.022649
 30
0.0
 11
679.5903929999998
 21
97.222649
 31
0.0
  0
TEXT
  5
4FC5
330
4FC2
100
AcDbEntity
  8
1
  6
CONTINUOUS
 62
     4
100
AcDbText
 10
678.5903940000001
 20
111.3926499999999
 30
0.0
 40
3.0
  1
36.8
 50
90.0
 41
0.9399999999999998
 72
     1
 11
677.0903940000001
 21
115.62265
 31
0.0
100
AcDbText
 73
     2
  0
LINE
  5
4FC6
330
4FC2
100
AcDbEntity
  8
1
  6
CONTINUOUS
 62
     3
100
AcDbLine
 10
674.283635
 20
97.222649
 30
0.0
 11
680.5903929999998
 21
97.222649
 31
0.0
  0
POINT
  5
4FC7
330
4FC2
100
AcDbEntity
  8
DEFPOINTS
 62
     3
100
AcDbPoint
 10
670.3667679999998
 20
134.022649
 30
0.0
  0
POINT
  5
4FC8
330
4FC2
100
AcDbEntity
  8
DEFPOINTS
 62
     3
100
AcDbPoint
 10
672.080592
 20
97.222649
 30
0.0
  0
POINT
  5
4FC9
330
4FC2
100
AcDbEntity
  8
DEFPOINTS
 62
     3
100
AcDbPoint
 10
679.5903929999998
 20
97.222649
 30
0.0
  0
ENDBLK
  5
4FCB
330
4FC2
100
AcDbEntity
  8
0
100
AcDbBlockEnd
  0
BLOCK
  5
4FD6
330
4FCC
100
AcDbEntity
  8
0
100
AcDbBlockBegin
  2
*D48
 70
     1
 10
0.0
 20
0.0
 30
0.0
  3
*D48
  1

  0
LINE
  5
4FCD
330
4FCC
100
AcDbEntity
  8
1
  6
CONTINUOUS
 62
     3
100
AcDbLine
 10
677.78403
 20
97.222649
 30
0.0
 11
680.5903929999998
 21
97.222649
 31
0.0
  0
LINE
  5
4FCE
330
4FCC
100
AcDbEntity
  8
1
  6
CONTINUOUS
 62
     3
100
AcDbLine
 10
679.5903929999998
 20
100.972649
 30
0.0
 11
679.5903929999998
 21
97.222649
 31
0.0
  0
LINE
  5
4FCF
330
4FCC
100
AcDbEntity
  8
1
  6
CONTINUOUS
 62
     3
100
AcDbLine
 10
679.5903929999998
 20
97.222649
 30
0.0
 11
679.5903929999998
 21
92.92264900000001
 31
0.0
  0
LINE
  5
4FD0
330
4FCC
100
AcDbEntity
  8
1
  6
CONTINUOUS
 62
     3
100
AcDbLine
 10
679.5903929999998
 20
92.92264900000001
 30
0.0
 11
679.5903929999998
 21
79.342145
 31
0.0
  0
TEXT
  5
4FD1
330
4FCC
100
AcDbEntity
  8
1
  6
CONTINUOUS
 62
     4
100
AcDbText
 10
678.5903910000001
 20
83.17218000000002
 30
0.0
 40
3.0
  1
4.3
 50
90.0
 41
0.9399999999999998
 72
     1
 11
677.0903910000002
 21
85.99218
 31
0.0
100
AcDbText
 73
     2
  0
LINE
  5
4FD2
330
4FCC
100
AcDbEntity
  8
1
  6
CONTINUOUS
 62
     3
100
AcDbLine
 10
664.827879
 20
92.92264900000001
 30
0.0
 11
680.5903929999998
 21
92.92264900000001
 31
0.0
  0
POINT
  5
4FD3
330
4FCC
100
AcDbEntity
  8
DEFPOINTS
 62
     3
100
AcDbPoint
 10
672.080592
 20
97.222649
 30
0.0
  0
POINT
  5
4FD4
330
4FCC
100
AcDbEntity
  8
DEFPOINTS
 62
     3
100
AcDbPoint
 10
663.716768
 20
92.92264900000001
 30
0.0
  0
POINT
  5
4FD5
330
4FCC
100
AcDbEntity
  8
DEFPOINTS
 62
     3
100
AcDbPoint
 10
679.5903929999998
 20
92.92264900000001
 30
0.0
  0
ENDBLK
  5
4FD7
330
4FCC
100
AcDbEntity
  8
0
100
AcDbBlockEnd
  0
BLOCK
  5
4FE2
330
4FD8
100
AcDbEntity
  8
0
100
AcDbBlockBegin
  2
*D49
 70
     1
 10
0.0
 20
0.0
 30
0.0
  3
*D49
  1

  0
LINE
  5
4FD9
330
4FD8
100
AcDbEntity
  8
1
  6
CONTINUOUS
 62
     3
100
AcDbLine
 10
657.316768
 20
91.74898799999999
 30
0.0
 11
657.316768
 21
85.3218
 31
0.0
  0
LINE
  5
4FDA
330
4FD8
100
AcDbEntity
  8
1
  6
CONTINUOUS
 62
     3
100
AcDbLine
 10
640.266801
 20
86.32179999999998
 30
0.0
 11
657.316768
 21
86.32179999999998
 31
0.0
  0
LINE
  5
4FDB
330
4FD8
100
AcDbEntity
  8
1
  6
CONTINUOUS
 62
     3
100
AcDbLine
 10
657.316768
 20
86.32179999999998
 30
0.0
 11
657.8167679999998
 21
86.32179999999998
 31
0.0
  0
LINE
  5
4FDC
330
4FD8
100
AcDbEntity
  8
1
  6
CONTINUOUS
 62
     3
100
AcDbLine
 10
657.8167679999998
 20
86.32179999999998
 30
0.0
 11
661.566768
 21
86.32179999999998
 31
0.0
  0
TEXT
  5
4FDD
330
4FD8
100
AcDbEntity
  8
1
  6
CONTINUOUS
 62
     4
100
AcDbText
 10
644.3317799999999
 20
87.32179999999997
 30
0.0
 40
3.0
  1
0.5
 41
0.9399999999999998
 72
     1
 11
646.91678
 21
88.82179999999998
 31
0.0
100
AcDbText
 73
     2
  0
LINE
  5
4FDE
330
4FD8
100
AcDbEntity
  8
1
  6
CONTINUOUS
 62
     3
100
AcDbLine
 10
657.8167679999998
 20
91.74899000000001
 30
0.0
 11
657.8167679999998
 21
85.3218
 31
0.0
  0
POINT
  5
4FDF
330
4FD8
100
AcDbEntity
  8
DEFPOINTS
 62
     3
100
AcDbPoint
 10
657.316768
 20
93.42264900000001
 30
0.0
  0
POINT
  5
4FE0
330
4FD8
100
AcDbEntity
  8
DEFPOINTS
 62
     3
100
AcDbPoint
 10
657.8167679999998
 20
93.42264900000001
 30
0.0
  0
POINT
  5
4FE1
330
4FD8
100
AcDbEntity
  8
DEFPOINTS
 62
     3
100
AcDbPoint
 10
657.8167679999998
 20
86.32179999999998
 30
0.0
  0
ENDBLK
  5
4FE3
330
4FD8
100
AcDbEntity
  8
0
100
AcDbBlockEnd
  0
BLOCK
  5
4FEE
330
4FE4
100
AcDbEntity
  8
0
100
AcDbBlockBegin
  2
*D50
 70
     1
 10
0.0
 20
0.0
 30
0.0
  3
*D50
  1

  0
LINE
  5
4FE5
330
4FE4
100
AcDbEntity
  8
1
  6
CONTINUOUS
 62
     3
100
AcDbLine
 10
619.7951419999998
 20
91.74898699999999
 30
0.0
 11
619.7951419999998
 21
85.3218
 31
0.0
  0
LINE
  5
4FE6
330
4FE4
100
AcDbEntity
  8
1
  6
CONTINUOUS
 62
     3
100
AcDbLine
 10
631.3752809999998
 20
86.32179999999998
 30
0.0
 11
619.7951419999998
 21
86.32179999999998
 31
0.0
  0
LINE
  5
4FE7
330
4FE4
100
AcDbEntity
  8
1
  6
CONTINUOUS
 62
     3
100
AcDbLine
 10
619.7951419999998
 20
86.32179999999998
 30
0.0
 11
617.7951419999998
 21
86.32179999999998
 31
0.0
  0
LINE
  5
4FE8
330
4FE4
100
AcDbEntity
  8
1
  6
CONTINUOUS
 62
     3
100
AcDbLine
 10
617.7951419999998
 20
86.32179999999998
 30
0.0
 11
614.0451419999997
 21
86.32179999999998
 31
0.0
  0
TEXT
  5
4FE9
330
4FE4
100
AcDbEntity
  8
1
  6
CONTINUOUS
 62
     4
100
AcDbText
 10
626.5202169999997
 20
87.32179999999997
 30
0.0
 40
3.0
  1
2
 50
360.0
 41
0.9399999999999998
 72
     1
 11
627.4602169999998
 21
88.82179999999998
 31
0.0
100
AcDbText
 73
     2
  0
LINE
  5
4FEA
330
4FE4
100
AcDbEntity
  8
1
  6
CONTINUOUS
 62
     3
100
AcDbLine
 10
617.7951419999998
 20
91.80250800000001
 30
0.0
 11
617.7951419999998
 21
85.3218
 31
0.0
  0
POINT
  5
4FEB
330
4FE4
100
AcDbEntity
  8
DEFPOINTS
 62
     3
100
AcDbPoint
 10
619.7951419999998
 20
93.92264199999999
 30
0.0
  0
POINT
  5
4FEC
330
4FE4
100
AcDbEntity
  8
DEFPOINTS
 62
     3
100
AcDbPoint
 10
617.7951419999998
 20
93.92264199999999
 30
0.0
  0
POINT
  5
4FED
330
4FE4
100
AcDbEntity
  8
DEFPOINTS
 62
     3
100
AcDbPoint
 10
617.7951419999998
 20
86.32179999999998
 30
0.0
  0
ENDBLK
  5
4FEF
330
4FE4
100
AcDbEntity
  8
0
100
AcDbBlockEnd
  0
BLOCK
  5
5295
330
528B
100
AcDbEntity
  8
0
100
AcDbBlockBegin
  2
*D51
 70
     1
 10
0.0
 20
0.0
 30
0.0
  3
*D51
  1

  0
LINE
  5
53B7
330
528B
100
AcDbEntity
  8
DIM
  6
CONTINUOUS
 62
     0
100
AcDbLine
 10
157.14165988273
 20
178.6499877324198
 30
0.0
 11
163.4091728827302
 21
178.6499877324198
 31
0.0
  0
LINE
  5
53B8
330
528B
100
AcDbEntity
  8
DIM
  6
CONTINUOUS
 62
     0
100
AcDbLine
 10
158.8554838827301
 20
141.8499877324198
 30
0.0
 11
163.4091728827302
 21
141.8499877324198
 31
0.0
  0
LINE
  5
53B9
330
528B
100
AcDbEntity
  8
DIM
  6
CONTINUOUS
 62
     0
100
AcDbLine
 10
162.4091728827302
 20
176.1499877324198
 30
0.0
 11
162.4091728827302
 21
144.3499877324198
 31
0.0
  0
SOLID
  5
53BA
330
528B
100
AcDbEntity
  8
DIM
  6
CONTINUOUS
 62
     0
100
AcDbTrace
 10
161.9925062160636
 20
176.1499877324198
 30
0.0
 11
162.8258395493969
 21
176.1499877324198
 31
0.0
 12
162.4091728827302
 22
178.6499877324198
 32
0.0
 13
162.4091728827302
 23
178.6499877324198
 33
0.0
  0
SOLID
  5
53BB
330
528B
100
AcDbEntity
  8
DIM
  6
CONTINUOUS
 62
     0
100
AcDbTrace
 10
161.9925062160636
 20
144.3499877324198
 30
0.0
 11
162.8258395493969
 21
144.3499877324198
 31
0.0
 12
162.4091728827302
 22
141.8499877324198
 32
0.0
 13
162.4091728827302
 23
141.8499877324198
 33
0.0
  0
MTEXT
  5
53BC
330
528B
100
AcDbEntity
  8
DIM
  6
CONTINUOUS
 62
     4
100
AcDbMText
 10
160.2633338649948
 20
160.2499877324198
 30
0.0
 40
3.0
 41
0.0
 71
     5
 72
     1
  1
\A1;36.8
  7
TSTYLE7
 11
0.0000000000000001
 21
1.0
 31
0.0
1001
ACAD
1000
MTEXTBEGIN
1070
    73
1070
     1
1070
    44
1040
1.0
1070
    74
1070
     0
1000
MTEXTEND
1000
MTEXTBEGIN
1070
    73
1070
     1
1070
    44
1040
1.0
1070
    74
1070
     0
1000
MTEXTEND
  0
POINT
  5
53BD
330
528B
100
AcDbEntity
  8
DEFPOINTS
  6
CONTINUOUS
 62
     0
100
AcDbPoint
 10
156.0305488827301
 20
178.6499877324198
 30
0.0
  0
POINT
  5
53BE
330
528B
100
AcDbEntity
  8
DEFPOINTS
  6
CONTINUOUS
 62
     0
100
AcDbPoint
 10
157.7443728827301
 20
141.8499877324198
 30
0.0
  0
POINT
  5
53BF
330
528B
100
AcDbEntity
  8
DEFPOINTS
  6
CONTINUOUS
 62
     0
100
AcDbPoint
 10
162.4091728827302
 20
141.8499877324198
 30
0.0
  0
ENDBLK
  5
5296
330
528B
100
AcDbEntity
  8
0
100
AcDbBlockEnd
  0
BLOCK
  5
52A1
330
5297
100
AcDbEntity
  8
0
100
AcDbBlockBegin
  2
*D52
 70
     1
 10
0.0
 20
0.0
 30
0.0
  3
*D52
  1

  0
LINE
  5
53AE
330
5297
100
AcDbEntity
  8
DIM
  6
CONTINUOUS
 62
     0
100
AcDbLine
 10
157.7443728827301
 20
179.0920117324198
 30
0.0
 11
157.7443728827301
 21
185.6842087324198
 31
0.0
  0
LINE
  5
53AF
330
5297
100
AcDbEntity
  8
DIM
  6
CONTINUOUS
 62
     0
100
AcDbLine
 10
130.0167248827301
 20
179.0920117324198
 30
0.0
 11
130.0167248827301
 21
185.6842087324198
 31
0.0
  0
LINE
  5
53B0
330
5297
100
AcDbEntity
  8
DIM
  6
CONTINUOUS
 62
     0
100
AcDbLine
 10
155.2443728827301
 20
184.6842087324198
 30
0.0
 11
132.5167248827301
 21
184.6842087324198
 31
0.0
  0
SOLID
  5
53B1
330
5297
100
AcDbEntity
  8
DIM
  6
CONTINUOUS
 62
     0
100
AcDbTrace
 10
155.2443728827301
 20
185.1008753990864
 30
0.0
 11
155.2443728827301
 21
184.2675420657531
 31
0.0
 12
157.7443728827301
 22
184.6842087324198
 32
0.0
 13
157.7443728827301
 23
184.6842087324198
 33
0.0
  0
SOLID
  5
53B2
330
5297
100
AcDbEntity
  8
DIM
  6
CONTINUOUS
 62
     0
100
AcDbTrace
 10
132.5167248827301
 20
185.1008753990864
 30
0.0
 11
132.5167248827301
 21
184.2675420657531
 31
0.0
 12
130.0167248827301
 22
184.6842087324198
 32
0.0
 13
130.0167248827301
 23
184.6842087324198
 33
0.0
  0
MTEXT
  5
53B3
330
5297
100
AcDbEntity
  8
DIM
  6
CONTINUOUS
 62
     4
100
AcDbMText
 10
143.88054888273
 20
186.7928035482451
 30
0.0
 40
3.0
 41
0.0
 71
     5
 72
     1
  1
\A1;27.7
  7
TSTYLE7
1001
ACAD
1000
MTEXTBEGIN
1070
    73
1070
     1
1070
    44
1040
1.0
1070
    74
1070
     0
1000
MTEXTEND
1000
MTEXTBEGIN
1070
    73
1070
     1
1070
    44
1040
1.0
1070
    74
1070
     0
1000
MTEXTEND
  0
POINT
  5
53B4
330
5297
100
AcDbEntity
  8
DEFPOINTS
  6
CONTINUOUS
 62
     0
100
AcDbPoint
 10
157.7443728827301
 20
141.8499877324198
 30
0.0
  0
POINT
  5
53B5
330
5297
100
AcDbEntity
  8
DEFPOINTS
  6
CONTINUOUS
 62
     0
100
AcDbPoint
 10
130.0167248827301
 20
141.8499877324198
 30
0.0
  0
POINT
  5
53B6
330
5297
100
AcDbEntity
  8
DEFPOINTS
  6
CONTINUOUS
 62
     0
100
AcDbPoint
 10
130.0167248827301
 20
184.6842087324198
 30
0.0
  0
ENDBLK
  5
52A2
330
5297
100
AcDbEntity
  8
0
100
AcDbBlockEnd
  0
BLOCK
  5
52AD
330
52A3
100
AcDbEntity
  8
0
100
AcDbBlockBegin
  2
*D53
 70
     1
 10
0.0
 20
0.0
 30
0.0
  3
*D53
  1

  0
LINE
  5
53A5
330
52A3
100
AcDbEntity
  8
DIM
  6
CONTINUOUS
 62
     0
100
AcDbLine
 10
99.08487348635281
 20
179.1528513118956
 30
0.0
 11
99.08305685718728
 21
185.6911961939098
 31
0.0
  0
LINE
  5
53A6
330
52A3
100
AcDbEntity
  8
DIM
  6
CONTINUOUS
 62
     0
100
AcDbLine
 10
119.8124544863529
 20
179.1586103118956
 30
0.0
 11
119.8106378571872
 21
185.6969551939097
 31
0.0
  0
LINE
  5
53A7
330
52A3
100
AcDbEntity
  8
DIM
  6
CONTINUOUS
 62
     0
100
AcDbLine
 10
101.58333460304
 20
184.6918908383784
 30
0.0
 11
117.3109157960309
 21
184.6962606266374
 31
0.0
  0
SOLID
  5
53A8
330
52A3
100
AcDbEntity
  8
DIM
  6
CONTINUOUS
 62
     0
100
AcDbTrace
 10
101.5832188353948
 20
185.1085574889625
 30
0.0
 11
101.5834503706849
 21
184.2752241877944
 31
0.0
 12
99.08333469953548
 22
184.691196232508
 32
0.0
 13
99.08333469953548
 23
184.691196232508
 33
0.0
  0
SOLID
  5
53A9
330
52A3
100
AcDbEntity
  8
DIM
  6
CONTINUOUS
 62
     0
100
AcDbTrace
 10
117.3108000283859
 20
185.1129272772215
 30
0.0
 11
117.3110315636761
 21
184.2795939760533
 31
0.0
 12
119.8109156995355
 22
184.6969552325078
 32
0.0
 13
119.8109156995355
 23
184.6969552325078
 33
0.0
  0
MTEXT
  5
53AA
330
52A3
100
AcDbEntity
  8
DIM
  6
CONTINUOUS
 62
     4
100
AcDbMText
 10
109.4465290757792
 20
186.8384821980808
 30
0.0
 40
3.0
 41
0.0
 71
     5
 72
     1
  1
\A1;20.7
  7
TSTYLE7
 11
0.9999999614018141
 21
0.0002778423482086
 31
0.0
1001
ACAD
1000
MTEXTBEGIN
1070
    73
1070
     1
1070
    44
1040
1.0
1070
    74
1070
     0
1000
MTEXTEND
1000
MTEXTBEGIN
1070
    73
1070
     1
1070
    44
1040
1.0
1070
    74
1070
     0
1000
MTEXTEND
  0
POINT
  5
53AB
330
52A3
100
AcDbEntity
  8
DEFPOINTS
  6
CONTINUOUS
 62
     0
100
AcDbPoint
 10
99.0950988827301
 20
142.3499807324198
 30
0.0
  0
POINT
  5
53AC
330
52A3
100
AcDbEntity
  8
DEFPOINTS
  6
CONTINUOUS
 62
     0
100
AcDbPoint
 10
119.8226798827302
 20
142.3557397324198
 30
0.0
  0
POINT
  5
53AD
330
52A3
100
AcDbEntity
  8
DEFPOINTS
  6
CONTINUOUS
 62
     0
100
AcDbPoint
 10
119.8109156995355
 20
184.6969552325078
 30
0.0
  0
ENDBLK
  5
52AE
330
52A3
100
AcDbEntity
  8
0
100
AcDbBlockEnd
  0
BLOCK
  5
52BA
330
52AF
100
AcDbEntity
  8
0
100
AcDbBlockBegin
  2
*D54
 70
     1
 10
0.0
 20
0.0
 30
0.0
  3
*D54
  1

  0
LINE
  5
542D
330
52AF
100
AcDbEntity
  8
DIM
  6
CONTINUOUS
 62
     0
100
AcDbLine
 10
143.5193355469774
 20
133.50396295974
 30
0.0
 11
143.5193355469774
 21
129.9217749597401
 31
0.0
  0
LINE
  5
542E
330
52AF
100
AcDbEntity
  8
DIM
  6
CONTINUOUS
 62
     0
100
AcDbLine
 10
144.0193355469774
 20
133.50396295974
 30
0.0
 11
144.0193355469774
 21
129.9217749597401
 31
0.0
  0
LINE
  5
542F
330
52AF
100
AcDbEntity
  8
DIM
  6
CONTINUOUS
 62
     0
100
AcDbLine
 10
146.5193355469774
 20
130.9217749597401
 30
0.0
 11
149.0193355469774
 21
130.9217749597401
 31
0.0
  0
LINE
  5
5430
330
52AF
100
AcDbEntity
  8
DIM
  6
CONTINUOUS
 62
     0
100
AcDbLine
 10
141.0193355469774
 20
130.9217749597401
 30
0.0
 11
130.5143037980005
 21
130.9217749597401
 31
0.0
  0
SOLID
  5
5431
330
52AF
100
AcDbEntity
  8
DIM
  6
CONTINUOUS
 62
     0
100
AcDbTrace
 10
146.5193355469774
 20
131.3384416264067
 30
0.0
 11
146.5193355469774
 21
130.5051082930734
 31
0.0
 12
144.0193355469774
 22
130.9217749597401
 32
0.0
 13
144.0193355469774
 23
130.9217749597401
 33
0.0
  0
SOLID
  5
5432
330
52AF
100
AcDbEntity
  8
DIM
  6
CONTINUOUS
 62
     0
100
AcDbTrace
 10
141.0193355469774
 20
131.3384416264067
 30
0.0
 11
141.0193355469774
 21
130.5051082930734
 31
0.0
 12
143.5193355469774
 22
130.9217749597401
 32
0.0
 13
143.5193355469774
 23
130.9217749597401
 33
0.0
  0
MTEXT
  5
5433
330
52AF
100
AcDbEntity
  8
DIM
  6
CONTINUOUS
 62
     4
100
AcDbMText
 10
133.1193515469773
 20
133.0661815081712
 30
0.0
 40
3.0
 41
0.0
 71
     5
 72
     1
  1
\A1;0.5
  7
TSTYLE7
1001
ACAD
1000
MTEXTBEGIN
1070
    73
1070
     1
1070
    44
1040
1.0
1070
    74
1070
     0
1000
MTEXTEND
  0
POINT
  5
5434
330
52AF
100
AcDbEntity
  8
DEFPOINTS
  6
CONTINUOUS
 62
     0
100
AcDbPoint
 10
143.5193355469774
 20
135.17762295974
 30
0.0
  0
POINT
  5
5435
330
52AF
100
AcDbEntity
  8
DEFPOINTS
  6
CONTINUOUS
 62
     0
100
AcDbPoint
 10
144.0193355469774
 20
135.17762295974
 30
0.0
  0
POINT
  5
5436
330
52AF
100
AcDbEntity
  8
DEFPOINTS
  6
CONTINUOUS
 62
     0
100
AcDbPoint
 10
144.0193355469774
 20
130.9217749597401
 30
0.0
  0
ENDBLK
  5
52BB
330
52AF
100
AcDbEntity
  8
0
100
AcDbBlockEnd
  0
BLOCK
  5
52C7
330
52BC
100
AcDbEntity
  8
0
100
AcDbBlockBegin
  2
*D55
 70
     1
 10
0.0
 20
0.0
 30
0.0
  3
*D55
  1

  0
LINE
  5
5437
330
52BC
100
AcDbEntity
  8
DIM
  6
CONTINUOUS
 62
     0
100
AcDbLine
 10
105.4589228827301
 20
136.4298467324197
 30
0.0
 11
105.4589228827301
 21
131.7941397324198
 31
0.0
  0
LINE
  5
5438
330
52BC
100
AcDbEntity
  8
DIM
  6
CONTINUOUS
 62
     0
100
AcDbLine
 10
103.4589228827301
 20
136.4298467324197
 30
0.0
 11
103.4589228827301
 21
131.7941397324198
 31
0.0
  0
LINE
  5
5439
330
52BC
100
AcDbEntity
  8
DIM
  6
CONTINUOUS
 62
     0
100
AcDbLine
 10
100.9589228827301
 20
132.7941397324198
 30
0.0
 11
98.45892288273011
 21
132.7941397324198
 31
0.0
  0
LINE
  5
543A
330
52BC
100
AcDbEntity
  8
DIM
  6
CONTINUOUS
 62
     0
100
AcDbLine
 10
107.9589228827301
 20
132.7941397324198
 30
0.0
 11
114.0678356753632
 21
132.7941397324198
 31
0.0
  0
SOLID
  5
543B
330
52BC
100
AcDbEntity
  8
DIM
  6
CONTINUOUS
 62
     0
100
AcDbTrace
 10
100.9589228827301
 20
133.2108063990864
 30
0.0
 11
100.9589228827301
 21
132.3774730657531
 31
0.0
 12
103.4589228827301
 22
132.7941397324198
 32
0.0
 13
103.4589228827301
 23
132.7941397324198
 33
0.0
  0
SOLID
  5
543C
330
52BC
100
AcDbEntity
  8
DIM
  6
CONTINUOUS
 62
     0
100
AcDbTrace
 10
107.9589228827301
 20
133.2108063990864
 30
0.0
 11
107.9589228827301
 21
132.3774730657531
 31
0.0
 12
105.4589228827301
 22
132.7941397324198
 32
0.0
 13
105.4589228827301
 23
132.7941397324198
 33
0.0
  0
MTEXT
  5
543D
330
52BC
100
AcDbEntity
  8
DIM
  6
CONTINUOUS
 62
     4
100
AcDbMText
 10
113.1239918827301
 20
134.9027345482451
 30
0.0
 40
3.0
 41
0.0
 71
     5
 72
     1
  1
\A1;2
  7
TSTYLE7
1001
ACAD
1000
MTEXTBEGIN
1070
    73
1070
     1
1070
    44
1040
1.0
1070
    74
1070
     0
1000
MTEXTEND
  0
POINT
  5
543E
330
52BC
100
AcDbEntity
  8
DEFPOINTS
  6
CONTINUOUS
 62
     0
100
AcDbPoint
 10
105.4589228827301
 20
138.5499807324197
 30
0.0
  0
POINT
  5
543F
330
52BC
100
AcDbEntity
  8
DEFPOINTS
  6
CONTINUOUS
 62
     0
100
AcDbPoint
 10
103.4589228827301
 20
138.5499807324197
 30
0.0
  0
POINT
  5
5440
330
52BC
100
AcDbEntity
  8
DEFPOINTS
  6
CONTINUOUS
 62
     0
100
AcDbPoint
 10
103.4589228827301
 20
132.7941397324198
 30
0.0
  0
ENDBLK
  5
52C8
330
52BC
100
AcDbEntity
  8
0
100
AcDbBlockEnd
  0
BLOCK
  5
52D4
330
52C9
100
AcDbEntity
  8
0
100
AcDbBlockBegin
  2
*D56
 70
     1
 10
0.0
 20
0.0
 30
0.0
  3
*D56
  1

  0
LINE
  5
53C0
330
52C9
100
AcDbEntity
  8
DIM
  6
CONTINUOUS
 62
     0
100
AcDbLine
 10
158.8554838827301
 20
141.8499877324198
 30
0.0
 11
163.4091728827302
 21
141.8499877324198
 31
0.0
  0
LINE
  5
53C1
330
52C9
100
AcDbEntity
  8
DIM
  6
CONTINUOUS
 62
     0
100
AcDbLine
 10
150.4916598827301
 20
137.5499877324197
 30
0.0
 11
163.4091728827302
 21
137.5499877324197
 31
0.0
  0
LINE
  5
53C2
330
52C9
100
AcDbEntity
  8
DIM
  6
CONTINUOUS
 62
     0
100
AcDbLine
 10
162.4091728827302
 20
144.3499877324198
 30
0.0
 11
162.4091728827302
 21
146.8499877324198
 31
0.0
  0
LINE
  5
53C3
330
52C9
100
AcDbEntity
  8
DIM
  6
CONTINUOUS
 62
     0
100
AcDbLine
 10
162.4091728827302
 20
135.0499877324198
 30
0.0
 11
162.4091728827302
 21
127.2465770912192
 31
0.0
  0
SOLID
  5
53C4
330
52C9
100
AcDbEntity
  8
DIM
  6
CONTINUOUS
 62
     0
100
AcDbTrace
 10
161.9925062160636
 20
144.3499877324198
 30
0.0
 11
162.8258395493969
 21
144.3499877324198
 31
0.0
 12
162.4091728827302
 22
141.8499877324198
 32
0.0
 13
162.4091728827302
 23
141.8499877324198
 33
0.0
  0
SOLID
  5
53C5
330
52C9
100
AcDbEntity
  8
DIM
  6
CONTINUOUS
 62
     0
100
AcDbTrace
 10
161.9925062160636
 20
135.0499877324198
 30
0.0
 11
162.8258395493969
 21
135.0499877324198
 31
0.0
 12
162.4091728827302
 22
137.5499877324197
 32
0.0
 13
162.4091728827302
 23
137.5499877324197
 33
0.0
  0
MTEXT
  5
53C6
330
52C9
100
AcDbEntity
  8
DIM
  6
CONTINUOUS
 62
     4
100
AcDbMText
 10
160.2633338649948
 20
129.8982824118195
 30
0.0
 40
3.0
 41
0.0
 71
     5
 72
     1
  1
\A1;4.3
  7
TSTYLE7
 11
0.0000000000000001
 21
1.0
 31
0.0
1001
ACAD
1000
MTEXTBEGIN
1070
    73
1070
     1
1070
    44
1040
1.0
1070
    74
1070
     0
1000
MTEXTEND
1000
MTEXTBEGIN
1070
    73
1070
     1
1070
    44
1040
1.0
1070
    74
1070
     0
1000
MTEXTEND
  0
POINT
  5
53C7
330
52C9
100
AcDbEntity
  8
DEFPOINTS
  6
CONTINUOUS
 62
     0
100
AcDbPoint
 10
157.7443728827301
 20
141.8499877324198
 30
0.0
  0
POINT
  5
53C8
330
52C9
100
AcDbEntity
  8
DEFPOINTS
  6
CONTINUOUS
 62
     0
100
AcDbPoint
 10
149.38054888273
 20
137.5499877324197
 30
0.0
  0
POINT
  5
53C9
330
52C9
100
AcDbEntity
  8
DEFPOINTS
  6
CONTINUOUS
 62
     0
100
AcDbPoint
 10
162.4091728827302
 20
137.5499877324197
 30
0.0
  0
ENDBLK
  5
52D5
330
52C9
100
AcDbEntity
  8
0
100
AcDbBlockEnd
  0
ENDSEC
  0
SECTION
  2
ENTITIES
  0
DIMENSION
  5
5149
330
A
100
AcDbEntity
  8
DIM
  6
CONTINUOUS
100
AcDbDimension
  2
*D51
 10
162.4091728827302
 20
141.8499877324198
 30
0.0
 11
162.4091728827302
 21
160.2499877324198
 31
0.0
 70
   160
  1
<>
  3
DSTYLE3
100
AcDbAlignedDimension
 13
156.0305488827301
 23
178.6499877324198
 33
0.0
 14
157.7443728827301
 24
141.8499877324198
 34
0.0
 50
90.0
100
AcDbRotatedDimension
  0
DIMENSION
  5
514A
330
A
100
AcDbEntity
  8
DIM
  6
CONTINUOUS
100
AcDbDimension
  2
*D52
 10
130.0167248827301
 20
184.6842087324198
 30
0.0
 11
143.88054888273
 21
184.6842087324198
 31
0.0
 70
   161
  1
27.7
  3
DSTYLE2
100
AcDbAlignedDimension
 13
157.7443728827301
 23
141.8499877324198
 33
0.0
 14
130.0167248827301
 24
141.8499877324198
 34
0.0
  0
DIMENSION
  5
514B
330
A
100
AcDbEntity
  8
DIM
  6
CONTINUOUS
100
AcDbDimension
  2
*D53
 10
119.8109156995355
 20
184.6969552325078
 30
0.0
 11
109.4471248827301
 21
184.6940757324198
 31
0.0
 70
   161
  1
20.7
  3
DSTYLE1
100
AcDbAlignedDimension
 13
99.0950988827301
 23
142.3499807324198
 33
0.0
 14
119.8226798827302
 24
142.3557397324198
 34
0.0
  0
LINE
  5
514C
330
A
100
AcDbEntity
  8
DRAW
  6
CONTINUOUS
100
AcDbLine
 10
130.4234368827301
 20
177.6557477324198
 30
0.0
 11
130.09045188273
 21
148.7499877324198
 31
0.0
  0
LINE
  5
514D
330
A
100
AcDbEntity
  8
DRAW
  6
CONTINUOUS
100
AcDbLine
 10
131.3432888827302
 20
177.6557477324198
 30
0.0
 11
131.2053618827301
 21
148.7499877324198
 31
0.0
  0
LINE
  5
514E
330
A
100
AcDbEntity
  8
DRAW
  6
CONTINUOUS
100
AcDbLine
 10
156.1118718827301
 20
176.9499877324198
 30
0.0
 11
156.1698568827301
 21
148.7499877324198
 31
0.0
  0
LINE
  5
514F
330
A
100
AcDbEntity
  8
DRAW
  6
CONTINUOUS
100
AcDbLine
 10
157.3457918827301
 20
176.9499877324198
 30
0.0
 11
157.6706468827301
 21
148.7499877324198
 31
0.0
  0
LINE
  5
5150
330
A
100
AcDbEntity
  8
DRAW
  6
CONTINUOUS
100
AcDbLine
 10
118.09618288273
 20
177.6557397324198
 30
0.0
 11
118.2341098827301
 21
148.7499807324198
 31
0.0
  0
LINE
  5
5151
330
A
100
AcDbEntity
  8
DRAW
  6
CONTINUOUS
100
AcDbLine
 10
119.4160348827301
 20
177.6557397324198
 30
0.0
 11
119.7490198827301
 21
148.7499807324198
 31
0.0
  0
LINE
  5
5152
330
A
100
AcDbEntity
  8
DRAW
  6
CONTINUOUS
100
AcDbLine
 10
99.49367988273024
 20
176.9499807324198
 30
0.0
 11
99.16882488273017
 21
148.7499807324198
 31
0.0
  0
LINE
  5
5153
330
A
100
AcDbEntity
  8
DRAW
  6
CONTINUOUS
100
AcDbLine
 10
100.7275998827302
 20
176.9499807324198
 30
0.0
 11
100.66961488273
 21
148.7499807324198
 31
0.0
  0
LINE
  5
5154
330
A
100
AcDbEntity
  8
CARTOUCHE
  6
CONTINUOUS
100
AcDbLine
 10
27.92774288273017
 20
14.61093173241984
 30
0.0
 11
27.92774288273017
 21
301.6109317324199
 31
0.0
  0
LINE
  5
5155
330
A
100
AcDbEntity
  8
CARTOUCHE
  6
CONTINUOUS
100
AcDbLine
 10
227.9277798827302
 20
301.6111147324198
 30
0.0
 11
227.9277798827302
 21
14.61111473241984
 31
0.0
  0
LINE
  5
5156
330
A
100
AcDbEntity
  8
CARTOUCHE
  6
CONTINUOUS
100
AcDbLine
 10
227.9277798827302
 20
14.61111473241984
 30
0.0
 11
27.92774288273017
 21
14.61093173241984
 31
0.0
  0
LINE
  5
5157
330
A
100
AcDbEntity
  8
CARTOUCHE
  6
CONTINUOUS
100
AcDbLine
 10
227.9277798827302
 20
46.45608773241984
 30
0.0
 11
27.92774288273017
 21
46.45639373241984
 31
0.0
  0
LINE
  5
5158
330
A
100
AcDbEntity
  8
CARTOUCHE
  6
CONTINUOUS
100
AcDbLine
 10
227.9277508827301
 20
29.61373973241983
 30
0.0
 11
72.92771588273012
 21
29.61397673241984
 31
0.0
  0
LINE
  5
5159
330
A
100
AcDbEntity
  8
CARTOUCHE
  6
CONTINUOUS
100
AcDbLine
 10
227.9277798827302
 20
19.61172473241983
 30
0.0
 11
27.92774288273017
 21
19.61199973241983
 31
0.0
  0
TEXT
  5
515A
330
A
100
AcDbEntity
  8
CARTOUCHE
  6
CONTINUOUS
100
AcDbText
 10
39.41604588273026
 20
23.91971273241983
 30
0.0
 40
1.8
  1
www.findernet.com
 50
359.9999079999998
 41
0.6
  7
TSTYLE2
100
AcDbText
  0
LINE
  5
515B
330
A
100
AcDbEntity
  8
CARTOUCHE
  6
CONTINUOUS
100
AcDbLine
 10
72.92774388273016
 20
46.45632473241984
 30
0.0
 11
72.92774388273016
 21
14.61097273241984
 31
0.0
  0
TEXT
  5
515C
330
A
100
AcDbEntity
  8
CARTOUCHE
  6
CONTINUOUS
100
AcDbText
 10
42.71903388273017
 20
16.21190673241983
 30
0.0
 40
1.8
  1
MOD. UT 902
 50
359.9999079999998
 41
0.6
  7
TSTYLE2
100
AcDbText
  0
HATCH
  5
515D
330
A
100
AcDbEntity
  8
CARTOUCHE
  6
CONTINUOUS
100
AcDbHatch
 10
0.0
 20
0.0
 30
0.0
210
0.0
220
0.0
230
1.0
  2
ANSI31
 70
     0
 71
     0
 91
        1
 92
        1
 93
       50
 72
     1
 10
33.39256567472239
 20
37.01043783868968
 11
33.39256567472239
 21
34.03967583868968
 72
     1
 10
33.39256567472239
 20
34.03967583868968
 11
31.10251867472243
 21
34.03967583868968
 72
     1
 10
34.34161567472232
 20
37.26355283868967
 11
34.34161567472232
 21
33.37744583868968
 72
     1
 10
34.04416567472218
 20
33.02177583868967
 11
33.81556567472228
 21
33.02177583868967
 72
     1
 10
33.81556567472239
 20
33.02177583868967
 11
35.29066567472239
 21
31.42112583868966
 72
     1
 10
35.29066567472239
 20
31.42112583868968
 11
35.29066567472239
 21
37.26641683868967
 72
     1
 10
37.28139867472236
 20
35.11427583868968
 11
36.25096567472235
 21
35.11427583868968
 72
     1
 10
36.25096567472235
 20
35.11427583868968
 11
36.25096567472235
 21
37.01506583868968
 72
     1
 10
31.10405567472219
 20
33.02177583868967
 11
32.30626567472234
 21
33.02177583868967
 72
     1
 10
32.30626567472234
 20
33.02177583868967
 11
35.10144167472219
 21
30.27925983868967
 72
     1
 10
35.10144167472219
 20
30.27925983868968
 11
35.15635967472235
 21
30.24378483868968
 72
     1
 10
35.15635967472235
 20
30.24378483868968
 11
35.21375567472239
 21
30.21229483868967
 72
     1
 10
35.21375567472239
 20
30.21229483868967
 11
35.29374067472236
 21
30.17683283868968
 72
     1
 10
35.29374067472236
 20
30.17683283868968
 11
35.33474967472239
 21
30.16216083868968
 72
     1
 10
35.33474967472239
 20
30.16216083868968
 11
35.37647867472242
 21
30.14972883868968
 72
     1
 10
35.37647867472242
 20
30.14972883868968
 11
35.41879567472244
 21
30.13983883868968
 72
     1
 10
35.41879567472232
 20
30.13983883868968
 11
35.46157167472232
 21
30.13279183868968
 72
     1
 10
35.46157167472232
 20
30.13279183868968
 11
35.50467667472218
 21
30.12889183868967
 72
     1
 10
35.50467667472218
 20
30.12889183868967
 11
35.54793367472234
 21
30.12834783868968
 72
     1
 10
35.54793367472234
 20
30.12834783868968
 11
35.59119867472236
 21
30.13100183868968
 72
     1
 10
35.59119867472236
 20
30.13100183868968
 11
35.63428167472238
 21
30.13660983868968
 72
     1
 10
35.63428167472238
 20
30.13660983868968
 11
35.67699167472233
 21
30.14492583868968
 72
     1
 10
35.67699167472233
 20
30.14492583868968
 11
35.71914067472231
 21
30.15570683868968
 72
     1
 10
35.71914067472231
 20
30.15570683868968
 11
35.76114267472235
 21
30.16894183868966
 72
     1
 10
35.76114267472235
 20
30.16894183868968
 11
35.80229767472235
 21
30.18441083868967
 72
     1
 10
35.80229767472235
 20
30.18441083868967
 11
35.84252967472218
 21
30.20206083868968
 72
     1
 10
35.84252967472218
 20
30.20206083868968
 11
35.91992967472218
 21
30.24370683868967
 72
     1
 10
35.91992967472242
 20
30.24370683868967
 11
35.95661367472246
 21
30.26739883868968
 72
     1
 10
35.95661367472235
 20
30.26739883868968
 11
35.99193667472218
 21
30.29309583868968
 72
     1
 10
35.9919366747224
 20
30.29309583868968
 11
36.0256626747224
 21
30.32080583868967
 72
     1
 10
36.02566267472218
 20
30.32080583868967
 11
36.05755767472237
 21
30.35053683868968
 72
     1
 10
36.05755767472237
 20
30.35053683868968
 11
36.08738567472232
 21
30.38229683868967
 72
     1
 10
36.08738567472232
 20
30.38229683868967
 11
36.11505467472237
 21
30.41620983868968
 72
     1
 10
36.11505467472237
 20
30.41620983868968
 11
36.1403506747224
 21
30.45197683868968
 72
     1
 10
36.1403506747224
 20
30.45197683868968
 11
36.1632226747224
 21
30.48939783868966
 72
     1
 10
36.1632226747224
 20
30.48939783868968
 11
36.18361967472242
 21
30.52827183868968
 72
     1
 10
36.18361967472242
 20
30.52827183868968
 11
36.20149267472243
 21
30.56839983868968
 72
     1
 10
36.20149267472243
 20
30.56839983868968
 11
36.21677167472238
 21
30.60953683868968
 72
     1
 10
36.21677167472238
 20
30.60953683868968
 11
36.2294196747224
 21
30.65153383868968
 72
     1
 10
36.2294196747224
 20
30.65153383868968
 11
36.2393746747224
 21
30.69419983868968
 72
     1
 10
36.2393746747224
 20
30.69419983868968
 11
36.2465776747224
 21
30.73734383868968
 72
     1
 10
36.2465776747224
 20
30.73734383868968
 11
36.25096567472246
 21
30.78077583868968
 72
     1
 10
36.25096567472235
 20
30.78077583868968
 11
36.25096567472235
 21
34.11932583868968
 72
     1
 10
36.25096567472235
 20
34.11932583868967
 11
37.38316567472236
 21
34.11932583868967
 72
     2
 10
34.8273936747223
 20
33.53634883868966
 40
3.758726999999998
 50
112.441019
 51
172.304452
 73
     1
 72
     2
 10
33.87869667472239
 20
33.46242483868968
 40
0.4706070000000002
 50
290.581791
 51
349.597934
 73
     1
 72
     2
 10
34.8273936747223
 20
33.53634883868966
 40
3.758726999999998
 50
82.920171
 51
97.425686
 73
     1
 72
     2
 10
34.8273936747223
 20
33.53634883868966
 40
3.758726999999998
 50
187.868564
 51
427.744449
 73
     1
 72
     2
 10
37.33228167472236
 20
34.61680083868968
 40
0.5000710000000002
 50
275.8401029999999
 51
455.8401219999998
 73
     1
 72
     2
 10
34.82738867472233
 20
33.53635383868967
 40
4.756723
 50
0.0
 51
360.0
 73
     1
 97
        0
 75
     0
 76
     1
 52
315.0
 41
1.259843
 77
     0
 78
     1
 53
0.0
 43
-514.3362191172696
 44
44.62733873241984
 45
0.0
 46
4.0
 79
     0
 98
        1
 10
-514.3362191172696
 20
44.62733873241984
  0
ARC
  5
515E
330
A
100
AcDbEntity
  8
CARTOUCHE
  6
CONTINUOUS
100
AcDbCircle
 10
34.82739388273012
 20
33.53634873241984
 30
0.0
 40
3.758726999999998
100
AcDbArc
 50
112.4410320000015
 51
172.30447
  0
CIRCLE
  5
515F
330
A
100
AcDbEntity
  8
CARTOUCHE
  6
CONTINUOUS
100
AcDbCircle
 10
34.82738888273013
 20
33.53635373241984
 30
0.0
 40
4.756723
  0
HATCH
  5
5160
330
A
100
AcDbEntity
  8
CARTOUCHE
  6
CONTINUOUS
100
AcDbHatch
 10
0.0
 20
0.0
 30
0.0
210
0.0
220
0.0
230
1.0
  2
ANSI31
 70
     0
 71
     0
 91
        1
 92
        1
 93
      165
 72
     1
 10
61.97881567472235
 20
31.85537583868968
 11
62.08186567472228
 21
31.85537583868968
 72
     1
 10
62.08186567472228
 20
31.85537583868968
 11
65.13466567472232
 21
31.86707583868968
 72
     1
 10
65.13466567472232
 20
31.86707583868968
 11
65.16012067472229
 21
31.97677883868967
 72
     1
 10
65.16012067472229
 20
31.97677883868967
 11
65.17279067472225
 21
32.06039383868967
 72
     1
 10
65.17279067472225
 20
32.06039383868967
 11
65.1796166747223
 21
32.14463483868966
 72
     1
 10
65.1796166747223
 20
32.14463483868968
 11
65.17947767472231
 21
32.25790083868968
 72
     1
 10
65.17947767472231
 20
32.25790083868968
 11
65.16245267472243
 21
32.42702783868968
 72
     1
 10
65.16245267472232
 20
32.42702783868968
 11
65.1362076747223
 21
32.56714483868968
 72
     1
 10
65.1362076747223
 20
32.56714483868968
 11
65.10132167472227
 21
32.70529983868968
 72
     1
 10
65.10132167472227
 20
32.70529983868968
 11
65.05953767472249
 21
32.84007783868968
 72
     1
 10
65.05953767472249
 20
32.84007783868968
 11
65.01008467472229
 21
32.97235283868968
 72
     1
 10
65.01008467472229
 20
32.97235283868968
 11
64.96460467472229
 21
33.07564783868967
 72
     1
 10
64.96460467472229
 20
33.07564783868967
 11
64.91360367472225
 21
33.17646683868967
 72
     1
 10
64.91360367472225
 20
33.17646683868967
 11
64.85702267472243
 21
33.27425483868967
 72
     1
 10
64.85702267472243
 20
33.27425483868967
 11
64.79480367472229
 21
33.36845883868967
 72
     1
 10
64.79480367472229
 20
33.36845883868967
 11
64.72688767472232
 21
33.45852683868967
 72
     1
 10
64.72688767472232
 20
33.45852683868967
 11
64.65326667472232
 21
33.54406183868968
 72
     1
 10
64.65326667472232
 20
33.54406183868968
 11
64.57446167472233
 21
33.62493583868968
 72
     1
 10
64.57446167472243
 20
33.62493583868968
 11
64.49105167472248
 21
33.70118683868968
 72
     1
 10
64.49105167472225
 20
33.70118683868968
 11
64.31273867472225
 21
33.83995783868968
 72
     1
 10
64.31273867472225
 20
33.83995783868968
 11
64.19472867472234
 21
33.91753683868968
 72
     1
 10
64.19472867472234
 20
33.91753683868968
 11
64.07219267472226
 21
33.98737383868967
 72
     1
 10
64.07219267472226
 20
33.98737383868967
 11
63.94546167472231
 21
34.04891783868967
 72
     1
 10
63.94546167472231
 20
34.04891783868968
 11
63.81513867472232
 21
34.10258083868968
 72
     1
 10
63.81513867472246
 20
34.10258083868968
 11
63.54661467472249
 21
34.18966583868968
 72
     1
 10
63.54661467472249
 20
34.18966583868968
 11
63.27239467472224
 21
34.25658083868967
 72
     1
 10
63.27239467472224
 20
34.25658083868968
 11
62.99474767472226
 21
34.30456183868968
 72
     1
 10
62.99474767472226
 20
34.30456183868968
 11
62.71452067472228
 21
34.33444683868968
 72
     1
 10
62.71452067472228
 20
34.33444683868968
 11
62.15059767472222
 21
34.34680583868967
 72
     1
 10
62.15059767472222
 20
34.34680583868968
 11
61.58832867472233
 21
34.30672683868968
 72
     1
 10
61.58832867472233
 20
34.30672683868968
 11
61.31004267472224
 21
34.26207083868968
 72
     1
 10
61.31004267472224
 20
34.26207083868968
 11
61.03502567472229
 21
34.19923183868967
 72
     1
 10
61.03502567472229
 20
34.19923183868967
 11
60.81833567472243
 21
34.13501183868968
 72
     1
 10
60.81833567472243
 20
34.13501183868968
 11
60.65932867472247
 21
34.07662883868967
 72
     1
 10
60.65932867472223
 20
34.07662883868967
 11
60.50465267472225
 21
34.00755683868968
 72
     1
 10
60.50465267472225
 20
34.00755683868968
 11
60.40474867472243
 21
33.95491083868968
 72
     1
 10
60.40474867472243
 20
33.95491083868968
 11
60.30780967472231
 21
33.89679483868968
 72
     1
 10
60.30780967472231
 20
33.89679483868968
 11
60.21435567472224
 21
33.83323783868966
 72
     1
 10
60.21435567472224
 20
33.83323783868968
 11
60.12490767472229
 21
33.76427183868968
 72
     1
 10
60.12490767472229
 20
33.76427183868968
 11
60.03998567472229
 21
33.68992683868968
 72
     1
 10
60.03998567472229
 20
33.68992683868968
 11
59.96006267472228
 21
33.61034583868968
 72
     1
 10
59.96006267472228
 20
33.61034583868968
 11
59.88521167472232
 21
33.52590583868968
 72
     1
 10
59.88521167472232
 20
33.52590583868968
 11
59.81546567472229
 21
33.43709583868967
 72
     1
 10
59.81546567472229
 20
33.43709583868967
 11
59.75085567472229
 21
33.34440083868968
 72
     1
 10
59.75085567472229
 20
33.34440083868968
 11
59.6914116747223
 21
33.24830683868968
 72
     1
 10
59.6914116747223
 20
33.24830683868968
 11
59.58823367472234
 21
33.04742083868968
 72
     1
 10
59.58823367472234
 20
33.04742083868968
 11
59.54480367472228
 21
32.94323083868968
 72
     1
 10
59.54480367472228
 20
32.94323083868968
 11
59.50699967472225
 21
32.83687483868968
 72
     1
 10
59.50699967472225
 20
32.83687483868968
 11
59.47496467472229
 21
32.72860583868968
 72
     1
 10
59.47496467472229
 20
32.72860583868968
 11
59.44884667472229
 21
32.61872183868968
 72
     1
 10
59.44884667472229
 20
32.61872183868968
 11
59.42879367472233
 21
32.50754483868968
 72
     1
 10
59.42879367472233
 20
32.50754483868968
 11
59.41496567472235
 21
32.39544383868968
 72
     1
 10
59.41496567472235
 20
32.39544383868968
 11
59.40752067472249
 21
32.28278783868967
 72
     1
 10
59.40752067472249
 20
32.28278783868967
 11
59.4066186747225
 21
32.16994583868967
 72
     1
 10
59.4066186747225
 20
32.16994583868967
 11
59.41250067472231
 21
32.05700383868968
 72
     1
 10
59.41250067472231
 20
32.05700383868968
 11
59.43504567472245
 21
31.88917483868968
 72
     1
 10
59.43504567472235
 20
31.88917483868968
 11
59.45958467472222
 21
31.77929483868968
 72
     1
 10
59.45958467472222
 20
31.77929483868968
 11
59.50840367472233
 21
31.61728583868967
 72
     1
 10
59.50840367472233
 20
31.61728583868967
 11
59.59091867472228
 21
31.40698283868967
 72
     1
 10
59.59091867472228
 20
31.40698283868967
 11
59.66584467472228
 21
31.25517483868966
 72
     1
 10
59.66584467472228
 20
31.25517483868968
 11
59.7526186747225
 21
31.11021683868968
 72
     1
 10
59.7526186747225
 20
31.11021683868968
 11
59.83430767472225
 21
30.99515183868968
 72
     1
 10
59.83430767472225
 20
30.99515183868968
 11
59.92281767472229
 21
30.88504583868968
 72
     1
 10
59.92281767472229
 20
30.88504583868968
 11
59.99771867472225
 21
30.80016383868968
 72
     1
 10
59.99771867472225
 20
30.80016383868968
 11
60.1186486747223
 21
30.68133983868968
 72
     1
 10
60.1186486747223
 20
30.68133983868968
 11
60.20588267472248
 21
30.61030483868968
 72
     1
 10
60.20588267472248
 20
30.61030483868968
 11
60.3459496747223
 21
30.51604683868967
 72
     1
 10
60.3459496747223
 20
30.51604683868967
 11
60.46973467472231
 21
30.44768883868968
 72
     1
 10
60.46973467472231
 20
30.44768883868968
 11
60.59737367472222
 21
30.38660483868968
 72
     1
 10
60.59737367472222
 20
30.38660483868968
 11
60.80575067472228
 21
30.29938883868968
 72
     1
 10
60.80575067472228
 20
30.29938883868968
 11
61.1273486747225
 21
30.19381283868968
 72
     1
 10
61.1273486747225
 20
30.19381283868968
 11
61.34675767472231
 21
30.14226983868967
 72
     1
 10
61.34675767472231
 20
30.14226983868967
 11
61.68089567472225
 21
30.08876983868967
 72
     1
 10
61.68089567472225
 20
30.08876983868967
 11
61.96162267472232
 21
30.06117483868968
 72
     1
 10
61.96162267472232
 20
30.06117483868968
 11
62.24322467472235
 21
30.04909383868968
 72
     1
 10
62.24322467472235
 20
30.04909383868968
 11
62.80606667472227
 21
30.07256683868968
 72
     1
 10
62.80606667472227
 20
30.07256683868968
 11
63.08693467472243
 21
30.10539983868968
 72
     1
 10
63.08693467472243
 20
30.10539983868968
 11
63.36554667472251
 21
30.15316683868968
 72
     1
 10
63.36554667472228
 20
30.15316683868968
 11
63.63986067472229
 21
30.21927583868968
 72
     1
 10
63.63986067472229
 20
30.21927583868968
 11
63.90596467472231
 21
30.31086583868968
 72
     1
 10
63.90596467472231
 20
30.31086583868968
 11
64.16330667472232
 21
30.42625583868967
 72
     1
 10
64.16330667472244
 20
30.42625583868968
 11
64.28904167472251
 21
30.49011783868968
 72
     1
 10
64.28904167472229
 20
30.49011783868968
 11
64.41072267472225
 21
30.56117683868968
 72
     1
 10
64.41072267472225
 20
30.56117683868968
 11
64.50336067472242
 21
30.62571383868968
 72
     1
 10
64.50336067472242
 20
30.62571383868968
 11
64.56936367472223
 21
30.67882683868968
 72
     1
 10
64.56936367472223
 20
30.67882683868968
 11
64.63191867472231
 21
30.73587883868968
 72
     1
 10
64.63191867472231
 20
30.73587883868968
 11
64.70945267472234
 21
30.81774683868967
 72
     1
 10
64.70945267472234
 20
30.81774683868967
 11
64.81386767472224
 21
30.95102083868968
 72
     1
 10
64.81386767472224
 20
30.95102083868968
 11
64.87581067472229
 21
31.04552483868967
 72
     1
 10
64.87581067472229
 20
31.04552483868967
 11
64.91728867472227
 21
31.11931783868968
 72
     1
 10
64.91728867472227
 20
31.11931783868968
 11
64.95355267472234
 21
31.19575983868967
 72
     1
 10
64.95355267472234
 20
31.19575983868967
 11
64.99269567472243
 21
31.30173783868968
 72
     1
 10
64.99269567472243
 20
31.30173783868968
 11
65.0150926747225
 21
31.38353183868968
 72
     1
 10
65.0150926747225
 20
31.38353183868968
 11
65.03161567472227
 21
31.46657583868968
 72
     1
 10
65.03161567472227
 20
31.46657583868968
 11
63.2707656747225
 21
31.46657583868968
 72
     1
 10
63.2707656747225
 20
31.46657583868968
 11
63.16250267472231
 21
31.38607083868968
 72
     1
 10
63.16250267472231
 20
31.38607083868968
 11
63.0770846747223
 21
31.33158683868968
 72
     1
 10
63.0770846747223
 20
31.33158683868968
 11
62.9885186747223
 21
31.28236483868968
 72
     1
 10
62.9885186747223
 20
31.28236483868968
 11
62.91250067472231
 21
31.24570483868968
 72
     1
 10
62.91250067472231
 20
31.24570483868968
 11
62.83431867472245
 21
31.21423883868968
 72
     1
 10
62.83431867472234
 20
31.21423883868968
 11
62.77001967472235
 21
31.19356683868968
 72
     1
 10
62.77001967472235
 20
31.19356683868968
 11
62.67139367472225
 21
31.17001983868968
 72
     1
 10
62.67139367472225
 20
31.17001983868968
 11
62.53707967472222
 21
31.15146783868968
 72
     1
 10
62.53707967472222
 20
31.15146783868968
 11
62.43538167472229
 21
31.14658783868968
 72
     1
 10
62.43538167472229
 20
31.14658783868968
 11
62.33355167472235
 21
31.14891283868967
 72
     1
 10
62.33355167472235
 20
31.14891283868967
 11
62.19913467472224
 21
31.16242783868968
 72
     1
 10
62.19913467472224
 20
31.16242783868968
 11
62.09942367472229
 21
31.18011983868968
 72
     1
 10
62.09942367472229
 20
31.18011983868968
 11
62.00107167472243
 21
31.20411783868968
 72
     1
 10
62.00107167472243
 20
31.20411783868968
 11
61.87262667472225
 21
31.24596883868968
 72
     1
 10
61.87262667472225
 20
31.24596883868968
 11
61.77913767472228
 21
31.28523283868968
 72
     1
 10
61.77913767472228
 20
31.28523283868968
 11
61.6887236747225
 21
31.33177783868967
 72
     1
 10
61.6887236747225
 20
31.33177783868967
 11
61.63058267472229
 21
31.36707183868967
 72
     1
 10
61.63058267472229
 20
31.36707183868967
 11
61.57481967472232
 21
31.40603583868967
 72
     1
 10
61.57481967472246
 20
31.40603583868967
 11
61.52219267472229
 21
31.44889883868968
 72
     1
 10
61.52219267472229
 20
31.44889883868968
 11
61.47346167472243
 21
31.49588783868968
 72
     1
 10
61.47346167472233
 20
31.49588783868968
 11
61.4293846747223
 21
31.54723183868968
 72
     1
 10
61.4293846747223
 20
31.54723183868968
 11
61.3906196747223
 21
31.60298183868968
 72
     1
 10
61.3906196747223
 20
31.60298183868968
 11
61.35741167472224
 21
31.66249383868967
 72
     1
 10
61.35741167472224
 20
31.66249383868968
 11
61.32990367472235
 21
31.72494483868968
 72
     1
 10
61.32990367472235
 20
31.72494483868968
 11
61.30824067472224
 21
31.78951283868968
 72
     1
 10
61.30824067472224
 20
31.78951283868968
 11
61.29256567472225
 21
31.85537583868968
 72
     1
 10
61.29256567472225
 20
31.85537583868968
 11
61.97881567472235
 21
31.85537583868968
 72
     1
 10
61.29256567472225
 20
32.69012583868968
 11
62.08186567472228
 21
32.69012583868968
 72
     1
 10
62.08186567472228
 20
32.69012583868968
 11
63.2707656747225
 21
32.69012583868968
 72
     1
 10
63.2707656747225
 20
32.69012583868968
 11
63.2668416747223
 21
32.72734783868968
 72
     1
 10
63.2668416747223
 20
32.72734783868968
 11
63.26074467472245
 21
32.76436283868967
 72
     1
 10
63.26074467472245
 20
32.76436283868967
 11
63.25243467472251
 21
32.80098083868968
 72
     1
 10
63.25243467472228
 20
32.80098083868968
 11
63.24187467472235
 21
32.83700983868968
 72
     1
 10
63.24187467472235
 20
32.83700983868968
 11
63.22902767472226
 21
32.87226083868967
 72
     1
 10
63.22902767472226
 20
32.87226083868967
 11
63.21389867472226
 21
32.90653783868968
 72
     1
 10
63.21389867472226
 20
32.90653783868968
 11
63.19660667472248
 21
32.93977783868967
 72
     1
 10
63.19660667472248
 20
32.93977783868967
 11
63.17730967472243
 21
32.97191383868968
 72
     1
 10
63.17730967472243
 20
32.97191383868968
 11
63.15616767472249
 21
33.00287583868968
 72
     1
 10
63.15616767472249
 20
33.00287583868968
 11
63.1333376747225
 21
33.03259583868968
 72
     1
 10
63.1333376747225
 20
33.03259583868968
 11
63.08290067472228
 21
33.08846583868968
 72
     1
 10
63.08290067472228
 20
33.08846583868968
 11
63.04163067472234
 21
33.12699083868968
 72
     1
 10
63.04163067472234
 20
33.12699083868968
 11
62.99789167472249
 21
33.16269983868966
 72
     1
 10
62.99789167472249
 20
33.16269983868966
 11
62.9366396747223
 21
33.20586783868967
 72
     1
 10
62.9366396747223
 20
33.20586783868967
 11
62.88863667472231
 21
33.23507583868968
 72
     1
 10
62.88863667472231
 20
33.23507583868968
 11
62.83909367472245
 21
33.26157483868968
 72
     1
 10
62.83909367472233
 20
33.26157483868968
 11
62.77095567472224
 21
33.29273383868967
 72
     1
 10
62.77095567472224
 20
33.29273383868967
 11
62.6652056747223
 21
33.33074283868968
 72
     1
 10
62.6652056747223
 20
33.33074283868968
 11
62.59277667472225
 21
33.35047783868967
 72
     1
 10
62.59277667472225
 20
33.35047783868967
 11
62.48221767472228
 21
33.37173883868968
 72
     1
 10
62.48221767472228
 20
33.37173883868968
 11
62.40732467472231
 21
33.38046583868968
 72
     1
 10
62.40732467472231
 20
33.38046583868968
 11
62.29442067472234
 21
33.38570183868967
 72
     1
 10
62.29442067472234
 20
33.38570183868967
 11
62.2189716747223
 21
33.38415783868969
 72
     1
 10
62.2189716747223
 20
33.38415783868968
 11
62.10598667472232
 21
33.37373383868968
 72
     1
 10
62.10598667472232
 20
33.37373383868968
 11
62.03213067472232
 21
33.36075583868967
 72
     1
 10
62.03213067472232
 20
33.36075583868967
 11
61.99582767472225
 21
33.35177883868968
 72
     1
 10
61.99582767472225
 20
33.35177883868968
 11
61.96025667472224
 21
33.34074283868968
 72
     1
 10
61.96025667472224
 20
33.34074283868968
 11
61.92565467472229
 21
33.32734983868967
 72
     1
 10
61.92565467472229
 20
33.32734983868967
 11
61.89208667472222
 21
33.31143983868968
 72
     1
 10
61.89208667472222
 20
33.31143983868968
 11
61.76258567472235
 21
33.23661283868968
 72
     1
 10
61.76258567472235
 20
33.23661283868968
 11
61.59933667472228
 21
33.14651283868968
 72
     1
 10
61.59933667472228
 20
33.14651283868968
 11
61.56871867472228
 21
33.12509183868967
 72
     1
 10
61.56871867472228
 20
33.12509183868967
 11
61.53936767472226
 21
33.10181183868968
 72
     1
 10
61.53936767472226
 20
33.10181183868968
 11
61.51133367472244
 21
33.07684283868967
 72
     1
 10
61.51133367472244
 20
33.07684283868967
 11
61.4594236747223
 21
33.02252183868967
 72
     1
 10
61.4594236747223
 20
33.02252183868967
 11
61.4130836747223
 21
32.96295683868969
 72
     1
 10
61.41308367472244
 20
32.96295683868967
 11
61.38236367472245
 21
32.91548283868968
 72
     1
 10
61.38236367472234
 20
32.91548283868968
 11
61.35519967472227
 21
32.86586383868967
 72
     1
 10
61.35519967472227
 20
32.86586383868967
 11
61.32494267472225
 21
32.79740483868967
 72
     1
 10
61.32494267472225
 20
32.79740483868968
 11
61.30672267472231
 21
32.74432683868968
 72
     1
 10
61.30672267472231
 20
32.74432683868968
 11
61.29256567472225
 21
32.69012583868968
 97
        0
 75
     0
 76
     1
 52
315.0
 41
1.259843
 77
     0
 78
     1
 53
0.0
 43
-514.3362191172696
 44
44.62733873241984
 45
0.0
 46
4.0
 79
     0
 98
        1
 10
-514.3362191172696
 20
44.62733873241984
  0
SPLINE
  5
5161
330
A
100
AcDbEntity
  8
CARTOUCHE
  6
CONTINUOUS
100
AcDbSpline
210
0.0
220
0.0
230
1.0
 70
     8
 71
     3
 72
    48
 73
    44
 74
    42
 42
0.0000000001
 43
0.0000000001
 44
0.000001
 12
0.2679235453443169
 22
0.963440176580846
 32
0.0
 13
0.1610223945671779
 23
0.9869507527976521
 33
0.0
 40
0.0
 40
0.0
 40
0.0
 40
0.0
 40
0.2818680440732451
 40
0.5637438622441798
 40
0.8456206423664136
 40
1.127487549250496
 40
1.410195239570877
 40
1.692701565213704
 40
1.975094154821125
 40
2.257824114950078
 40
2.539701857397903
 40
2.821572029861535
 40
3.103444310957268
 40
3.385316597162719
 40
3.949059070305078
 40
4.512801862640414
 40
5.076549211017902
 40
5.640288698831379
 40
6.204038075969388
 40
6.767777945536394
 40
7.331509982442062
 40
7.895250412814446
 40
8.458987271217132
 40
8.740857414631038
 40
9.022732806849781
 40
9.586464206115334
 40
9.86834044911305
 40
10.15021055202981
 40
10.43208121104798
 40
10.71395548681775
 40
11.2776991809366
 40
11.84144433135688
 40
12.40518731806548
 40
12.96893224997308
 40
13.53267745240209
 40
13.81454988463909
 40
14.09642160850193
 40
14.37829351861341
 40
14.66016601896493
 40
14.94203821121548
 40
15.22390966069217
 40
15.50578181462566
 40
15.78765328968325
 40
15.78765328968325
 40
15.78765328968325
 40
15.78765328968325
 10
65.13466565093493
 20
31.86707544580638
 30
0.0
 10
65.15983867949739
 20
31.95759644519118
 30
0.0
 10
65.19109724816662
 20
32.14504721045557
 30
0.0
 10
65.16929200107897
 20
32.42794329422564
 30
0.0
 10
65.10676459426616
 20
32.70329133322168
 30
0.0
 10
65.01698862599174
 20
32.97139681714436
 30
0.0
 10
64.89353704740702
 20
33.2263017520829
 30
0.0
 10
64.73462448107802
 20
33.46133263591038
 30
0.0
 10
64.53927949471735
 20
33.66709430454389
 30
0.0
 10
64.3177488903408
 20
33.84324800501895
 30
0.0
 10
64.0770856524729
 20
33.99199489950679
 30
0.0
 10
63.81877689968921
 20
34.10681570319525
 30
0.0
 10
63.54973291014625
 20
34.19202322905904
 30
0.0
 10
63.18452843995019
 20
34.28159603883516
 30
0.0
 10
62.71749930646088
 20
34.34567937915325
 30
0.0
 10
62.15312790812771
 20
34.35412870049541
 30
0.0
 10
61.58943008664054
 20
34.31901868817367
 30
0.0
 10
61.03457680619368
 20
34.21211900130458
 30
0.0
 10
60.49692124793626
 20
34.03171223213586
 30
0.0
 10
60.02024008700288
 20
33.71354868192004
 30
0.0
 10
59.67000404147133
 20
33.26108233900163
 30
0.0
 10
59.45025804688686
 20
32.73546460089684
 30
0.0
 10
59.39054927927802
 20
32.26269449066492
 30
0.0
 10
59.42688545644809
 20
31.88683829991729
 30
0.0
 10
59.52951900031791
 20
31.52431171794012
 30
0.0
 10
59.69033481262628
 20
31.17922035946445
 30
0.0
 10
59.92049211663101
 20
30.88123823442903
 30
0.0
 10
60.1128281097031
 20
30.67378762858389
 30
0.0
 10
60.34364087447984
 20
30.50852837335702
 30
0.0
 10
60.68094331610384
 20
30.34167511854327
 30
0.0
 10
61.12344053258325
 20
30.17705335481792
 30
0.0
 10
61.68072027464465
 20
30.07929873475438
 30
0.0
 10
62.2438647512238
 20
30.0377725845961
 30
0.0
 10
62.80812286397999
 20
30.06410860917616
 30
0.0
 10
63.27422716614654
 20
30.12891895317889
 30
0.0
 10
63.64060177632691
 20
30.21446071781
 30
0.0
 10
63.90765303818665
 20
30.30656099087796
 30
0.0
 10
64.16389637212183
 20
30.42421515573117
 30
0.0
 10
64.41510244018193
 20
30.55338416180214
 30
0.0
 10
64.63892844214334
 20
30.72859686316265
 30
0.0
 10
64.81978318098521
 20
30.94660826945776
 30
0.0
 10
64.96478277609426
 20
31.19057636758611
 30
0.0
 10
65.01648644431023
 20
31.37384435763961
 30
0.0
 10
65.03161565093488
 20
31.46657544580637
 30
0.0
 11
65.13466565093493
 21
31.86707544580638
 31
0.0
 11
65.17964752257057
 21
32.14533162758137
 31
0.0
 11
65.16250411889268
 21
32.42668558633873
 31
0.0
 11
65.10223617137978
 21
32.70204405544704
 31
0.0
 11
65.01149360889495
 21
32.96890495602486
 31
0.0
 11
64.88760377130654
 21
33.22302096151091
 31
0.0
 11
64.72853050066976
 21
33.45648512288938
 31
0.0
 11
64.53496967104832
 21
33.66210558845365
 31
0.0
 11
64.31430222171434
 21
33.83885995082826
 31
0.0
 11
64.0741009651656
 21
33.98636729676058
 31
0.0
 11
63.8169871745497
 21
34.10188047102735
 31
0.0
 11
63.54892213335837
 21
34.18901897162264
 31
0.0
 11
63.27512652757707
 21
34.25601116507115
 31
0.0
 11
62.71684260585097
 21
34.33427129131607
 31
0.0
 11
62.15324058529086
 21
34.34686916868975
 31
0.0
 11
61.59090099347702
 21
34.30705380580223
 31
0.0
 11
61.0374449367929
 21
34.19986886314686
 31
0.0
 11
60.50707952186655
 21
34.00875135946373
 31
0.0
 11
60.04131091822636
 21
33.69116314423228
 31
0.0
 11
59.69175271234997
 21
33.24889296630769
 31
0.0
 11
59.47493948579358
 21
32.72851296555638
 31
0.0
 11
59.40664084083699
 21
32.16892866401683
 31
0.0
 11
59.43517143717896
 21
31.88850613514768
 31
0.0
 11
59.50870949048976
 21
31.61639236803083
 31
0.0
 11
59.75364902971556
 21
31.10865449247273
 31
0.0
 11
59.92377849242689
 21
30.88390977153885
 31
0.0
 11
60.11923981135566
 21
30.68081956068325
 31
0.0
 11
60.34733278998363
 21
30.51521562075392
 31
0.0
 11
60.59800877238945
 21
30.38631775183147
 31
0.0
 11
61.12781978626833
 21
30.19368534448312
 31
0.0
 11
61.68169737870903
 21
30.08867007623517
 31
0.0
 11
62.2440487060469
 21
30.04908296593157
 31
0.0
 11
62.80729950709336
 21
30.07268135293343
 31
0.0
 11
63.36527757541421
 21
30.15311224293957
 31
0.0
 11
63.63931277210031
 21
30.21911813641203
 31
0.0
 11
63.90585065712979
 21
30.31081995165446
 31
0.0
 11
64.16305562707794
 21
30.4261341903703
 31
0.0
 11
64.41053820154286
 21
30.56105813726569
 31
0.0
 11
64.63176576538001
 21
30.73573006682404
 31
0.0
 11
64.81380621994367
 21
30.95093409304402
 31
0.0
 11
64.95354119496425
 21
31.1957319970803
 31
0.0
 11
65.03161565093488
 21
31.46657544580637
 31
0.0
  0
ARC
  5
5162
330
A
100
AcDbEntity
  8
CARTOUCHE
  6
CONTINUOUS
100
AcDbCircle
 10
37.33228188273017
 20
34.61680073241984
 30
0.0
 40
0.5000710000000002
100
AcDbArc
 50
275.8401250000003
 51
95.8401250000003
  0
ARC
  5
5163
330
A
100
AcDbEntity
  8
CARTOUCHE
  6
CONTINUOUS
100
AcDbCircle
 10
34.82739388273012
 20
33.53634873241984
 30
0.0
 40
3.758726999999998
100
AcDbArc
 50
187.868554
 51
67.74447600000178
  0
ARC
  5
5164
330
A
100
AcDbEntity
  8
CARTOUCHE
  6
CONTINUOUS
100
AcDbCircle
 10
42.50800188273013
 20
34.54033273241984
 30
0.0
 40
0.905639
100
AcDbArc
 50
90.0
 51
180.0
  0
LINE
  5
5165
330
A
100
AcDbEntity
  8
CARTOUCHE
  6
CONTINUOUS
100
AcDbLine
 10
46.5537158827301
 20
35.44592573241984
 30
0.0
 11
46.5537158827301
 21
34.55402573241983
 31
0.0
  0
LINE
  5
5166
330
A
100
AcDbEntity
  8
CARTOUCHE
  6
CONTINUOUS
100
AcDbLine
 10
44.73571588273012
 20
34.55402573241983
 30
0.0
 11
44.73571588273012
 21
35.44592573241984
 31
0.0
  0
LINE
  5
5167
330
A
100
AcDbEntity
  8
CARTOUCHE
  6
CONTINUOUS
100
AcDbLine
 10
44.01526588273009
 20
34.54277573241984
 30
0.0
 11
44.01526588273009
 21
35.44592573241984
 31
0.0
  0
LINE
  5
5168
330
A
100
AcDbEntity
  8
CARTOUCHE
  6
CONTINUOUS
100
AcDbLine
 10
57.11926588273013
 20
33.93083573241983
 30
0.0
 11
57.11926588273013
 21
35.43467573241985
 31
0.0
  0
LINE
  5
5169
330
A
100
AcDbEntity
  8
CARTOUCHE
  6
CONTINUOUS
100
AcDbLine
 10
58.91431588273018
 20
35.43467573241985
 30
0.0
 11
58.91431588273018
 21
30.23177573241984
 31
0.0
  0
LINE
  5
516A
330
A
100
AcDbEntity
  8
CARTOUCHE
  6
CONTINUOUS
100
AcDbLine
 10
33.39256588273019
 20
37.01043773241984
 30
0.0
 11
33.39256588273019
 21
34.03967573241983
 31
0.0
  0
LINE
  5
516B
330
A
100
AcDbEntity
  8
CARTOUCHE
  6
CONTINUOUS
100
AcDbLine
 10
34.34161588273013
 20
33.37744573241983
 30
0.0
 11
34.34161588273013
 21
37.26355273241984
 31
0.0
  0
LINE
  5
516C
330
A
100
AcDbEntity
  8
CARTOUCHE
  6
CONTINUOUS
100
AcDbLine
 10
35.29066588273019
 20
37.26641673241984
 30
0.0
 11
35.29066588273019
 21
31.42112573241984
 31
0.0
  0
HATCH
  5
516D
330
A
100
AcDbEntity
  8
CARTOUCHE
  6
CONTINUOUS
100
AcDbHatch
 10
0.0
 20
0.0
 30
0.0
210
0.0
220
0.0
230
1.0
  2
ANSI31
 70
     0
 71
     0
 91
        1
 92
        1
 93
        4
 72
     1
 10
44.7357156747222
 20
34.11932583868967
 11
44.7357156747222
 21
30.24302583868967
 72
     1
 10
44.7357156747222
 20
30.24302583868967
 11
46.55371567472218
 21
30.24302583868967
 72
     1
 10
46.55371567472218
 20
30.24302583868967
 11
46.55371567472218
 21
34.11932583868968
 72
     1
 10
46.55371567472218
 20
34.11932583868967
 11
44.7357156747222
 21
34.11932583868967
 97
        0
 75
     0
 76
     1
 52
315.0
 41
1.259843
 77
     0
 78
     1
 53
0.0
 43
-514.3362191172696
 44
44.62733873241984
 45
0.0
 46
4.0
 79
     0
 98
        1
 10
-514.3362191172696
 20
44.62733873241984
  0
LINE
  5
516E
330
A
100
AcDbEntity
  8
CARTOUCHE
  6
CONTINUOUS
100
AcDbLine
 10
46.5537158827301
 20
34.55402573241983
 30
0.0
 11
44.73571588273012
 21
34.55402573241983
 31
0.0
  0
LINE
  5
516F
330
A
100
AcDbEntity
  8
CARTOUCHE
  6
CONTINUOUS
100
AcDbLine
 10
46.5537158827301
 20
30.24302573241984
 30
0.0
 11
44.73571588273012
 21
30.24302573241984
 31
0.0
  0
LINE
  5
5170
330
A
100
AcDbEntity
  8
CARTOUCHE
  6
CONTINUOUS
100
AcDbLine
 10
44.73571588273012
 20
34.11932573241983
 30
0.0
 11
46.5537158827301
 21
34.11932573241983
 31
0.0
  0
SPLINE
  5
5171
330
A
100
AcDbEntity
  8
CARTOUCHE
  6
CONTINUOUS
100
AcDbSpline
210
0.0
220
0.0
230
1.0
 70
     8
 71
     3
 72
    14
 73
    10
 74
     8
 42
0.0000000001
 43
0.0000000001
 44
0.000001
 12
-0.0678904074542076
 22
-0.9976927846665534
 32
0.0
 13
-0.8200536786282802
 23
0.5722866101598268
 33
0.0
 40
0.0
 40
0.0
 40
0.0
 40
0.0
 40
0.2176135355074795
 40
0.4352355907184308
 40
0.6528409897774595
 40
0.8704569022321109
 40
1.088068224858207
 40
1.305663728345022
 40
1.523275238255799
 40
1.523275238255799
 40
1.523275238255799
 40
1.523275238255799
 10
36.25096565093485
 20
30.78077544580636
 30
0.0
 10
36.24604102707047
 20
30.70840496106582
 30
0.0
 10
36.2123237515628
 20
30.56446711578663
 30
0.0
 10
36.09777783470878
 20
30.37466864826687
 30
0.0
 10
35.92540209504979
 20
30.23582385357227
 30
0.0
 10
35.72477558862344
 20
30.14707564590692
 30
0.0
 10
35.50490093837892
 20
30.11430138252348
 30
0.0
 10
35.28989527468687
 20
30.16876145095181
 30
0.0
 10
35.1609260269025
 20
30.23774786116712
 30
0.0
 10
35.1014416538311
 20
30.27925991227998
 30
0.0
 11
36.25096565093485
 21
30.78077544580636
 31
0.0
 11
36.20166313694324
 21
30.56881960452646
 31
0.0
 11
36.08813624503818
 21
30.38315585929571
 31
0.0
 11
35.92069632603328
 21
30.24417374065158
 31
0.0
 11
35.72156558677272
 21
30.15640324870954
 31
0.0
 11
35.50570691933603
 21
30.12883948347369
 31
0.0
 11
35.29349174177957
 21
30.17692855079288
 31
0.0
 11
35.1014416538311
 21
30.27925991227998
 31
0.0
  0
ARC
  5
5172
330
A
100
AcDbEntity
  8
CARTOUCHE
  6
CONTINUOUS
100
AcDbCircle
 10
33.87869688273019
 20
33.46242473241984
 30
0.0
 40
0.4706070000000002
100
AcDbArc
 50
290.5817910000001
 51
349.5979119999996
  0
LINE
  5
5173
330
A
100
AcDbEntity
  8
CARTOUCHE
  6
CONTINUOUS
100
AcDbLine
 10
36.25096588273015
 20
34.11932573241983
 30
0.0
 11
37.38316588273017
 21
34.11932573241983
 31
0.0
  0
LINE
  5
5174
330
A
100
AcDbEntity
  8
CARTOUCHE
  6
CONTINUOUS
100
AcDbLine
 10
36.25096588273015
 20
30.78077573241984
 30
0.0
 11
36.25096588273015
 21
34.11932573241983
 31
0.0
  0
LINE
  5
5175
330
A
100
AcDbEntity
  8
CARTOUCHE
  6
CONTINUOUS
100
AcDbLine
 10
32.30626588273013
 20
33.02177573241984
 30
0.0
 11
35.10144188273021
 21
30.27925973241984
 31
0.0
  0
LINE
  5
5176
330
A
100
AcDbEntity
  8
CARTOUCHE
  6
CONTINUOUS
100
AcDbLine
 10
31.10405588273021
 20
33.02177573241984
 30
0.0
 11
32.30626588273013
 21
33.02177573241984
 31
0.0
  0
LINE
  5
5177
330
A
100
AcDbEntity
  8
CARTOUCHE
  6
CONTINUOUS
100
AcDbLine
 10
33.39256588273019
 20
34.03967573241983
 30
0.0
 11
31.10251888273012
 21
34.03967573241983
 31
0.0
  0
LINE
  5
5178
330
A
100
AcDbEntity
  8
CARTOUCHE
  6
CONTINUOUS
100
AcDbLine
 10
33.81556588273019
 20
33.02177573241984
 30
0.0
 11
34.0441658827301
 21
33.02177573241984
 31
0.0
  0
LINE
  5
5179
330
A
100
AcDbEntity
  8
CARTOUCHE
  6
CONTINUOUS
100
AcDbLine
 10
35.29066588273019
 20
31.42112573241984
 30
0.0
 11
33.81556588273019
 21
33.02177573241984
 31
0.0
  0
HATCH
  5
517A
330
A
100
AcDbEntity
  8
CARTOUCHE
  6
CONTINUOUS
100
AcDbHatch
 10
0.0
 20
0.0
 30
0.0
210
0.0
220
0.0
230
1.0
  2
ANSI31
 70
     0
 71
     0
 91
        1
 92
        1
 93
       16
 72
     1
 10
43.60679567472243
 20
34.54277583868968
 11
44.01526567472239
 21
34.54277583868968
 72
     1
 10
44.01526567472239
 20
34.54277583868968
 11
44.01526567472239
 21
35.44592583868967
 72
     1
 10
44.01526567472239
 20
35.44592583868968
 11
42.50800167472243
 21
35.44592583868968
 72
     1
 10
41.60236567472236
 20
34.54033283868968
 11
41.60236567472236
 21
34.11932583868967
 72
     1
 10
41.60236567472236
 20
34.11932583868967
 11
41.0650656747224
 21
34.11932583868967
 72
     1
 10
41.0650656747224
 20
34.11932583868967
 11
41.0650656747224
 21
33.02177583868967
 72
     1
 10
41.0650656747224
 20
33.02177583868967
 11
41.60236567472236
 21
33.02177583868967
 72
     1
 10
41.60236567472236
 20
33.02177583868967
 11
41.60236567472236
 21
30.24302583868967
 72
     1
 10
41.60236567472236
 20
30.24302583868967
 11
43.39786567472242
 21
30.24302583868967
 72
     1
 10
43.39786567472242
 20
30.24302583868967
 11
43.39786567472242
 21
33.02177583868967
 72
     1
 10
43.39786567472242
 20
33.02177583868967
 11
44.01526567472239
 21
33.02177583868967
 72
     1
 10
44.01526567472239
 20
33.02177583868967
 11
44.01526567472239
 21
34.11932583868967
 72
     1
 10
44.01526567472239
 20
34.11932583868967
 11
43.34071567472232
 21
34.11932583868967
 72
     1
 10
43.34071567472232
 20
34.11932583868967
 11
43.38882167472217
 21
34.37955383868967
 72
     2
 10
42.50800167472243
 20
34.54033283868968
 40
0.905639
 50
89.999981
 51
180.00002
 73
     1
 72
     2
 10
43.63373067472219
 20
34.27964783868967
 40
0.264503
 50
95.844666
 51
157.8078169999999
 73
     1
 97
        0
 75
     0
 76
     1
 52
315.0
 41
1.259843
 77
     0
 78
     1
 53
0.0
 43
-514.3362191172696
 44
44.62733873241984
 45
0.0
 46
4.0
 79
     0
 98
        1
 10
-514.3362191172696
 20
44.62733873241984
  0
ARC
  5
517B
330
A
100
AcDbEntity
  8
CARTOUCHE
  6
CONTINUOUS
100
AcDbCircle
 10
43.63373088273021
 20
34.27964773241984
 30
0.0
 40
0.264503
100
AcDbArc
 50
95.84467300000108
 51
157.807812
  0
LINE
  5
517C
330
A
100
AcDbEntity
  8
CARTOUCHE
  6
CONTINUOUS
100
AcDbLine
 10
44.73571588273012
 20
30.24302573241984
 30
0.0
 11
44.73571588273012
 21
34.11932573241983
 31
0.0
  0
LINE
  5
517D
330
A
100
AcDbEntity
  8
CARTOUCHE
  6
CONTINUOUS
100
AcDbLine
 10
43.60679588273025
 20
34.54277573241984
 30
0.0
 11
44.01526588273009
 21
34.54277573241984
 31
0.0
  0
LINE
  5
517E
330
A
100
AcDbEntity
  8
CARTOUCHE
  6
CONTINUOUS
100
AcDbLine
 10
43.34071588273014
 20
34.11932573241983
 30
0.0
 11
43.38882188273021
 21
34.37955373241983
 31
0.0
  0
LINE
  5
517F
330
A
100
AcDbEntity
  8
CARTOUCHE
  6
CONTINUOUS
100
AcDbLine
 10
44.01526588273009
 20
34.11932573241983
 30
0.0
 11
43.34071588273014
 21
34.11932573241983
 31
0.0
  0
LINE
  5
5180
330
A
100
AcDbEntity
  8
CARTOUCHE
  6
CONTINUOUS
100
AcDbLine
 10
44.01526588273009
 20
33.02177573241984
 30
0.0
 11
44.01526588273009
 21
34.11932573241983
 31
0.0
  0
LINE
  5
5181
330
A
100
AcDbEntity
  8
CARTOUCHE
  6
CONTINUOUS
100
AcDbLine
 10
43.3978658827301
 20
33.02177573241984
 30
0.0
 11
44.01526588273009
 21
33.02177573241984
 31
0.0
  0
LINE
  5
5182
330
A
100
AcDbEntity
  8
CARTOUCHE
  6
CONTINUOUS
100
AcDbLine
 10
43.3978658827301
 20
30.24302573241984
 30
0.0
 11
43.3978658827301
 21
33.02177573241984
 31
0.0
  0
LINE
  5
5183
330
A
100
AcDbEntity
  8
CARTOUCHE
  6
CONTINUOUS
100
AcDbLine
 10
41.60236588273018
 20
30.24302573241984
 30
0.0
 11
43.3978658827301
 21
30.24302573241984
 31
0.0
  0
LINE
  5
5184
330
A
100
AcDbEntity
  8
CARTOUCHE
  6
CONTINUOUS
100
AcDbLine
 10
41.60236588273018
 20
33.02177573241984
 30
0.0
 11
41.60236588273018
 21
30.24302573241984
 31
0.0
  0
LINE
  5
5185
330
A
100
AcDbEntity
  8
CARTOUCHE
  6
CONTINUOUS
100
AcDbLine
 10
41.06506588273009
 20
33.02177573241984
 30
0.0
 11
41.60236588273018
 21
33.02177573241984
 31
0.0
  0
LINE
  5
5186
330
A
100
AcDbEntity
  8
CARTOUCHE
  6
CONTINUOUS
100
AcDbLine
 10
41.06506588273009
 20
34.11932573241983
 30
0.0
 11
41.06506588273009
 21
33.02177573241984
 31
0.0
  0
LINE
  5
5187
330
A
100
AcDbEntity
  8
CARTOUCHE
  6
CONTINUOUS
100
AcDbLine
 10
41.60236588273018
 20
34.11932573241983
 30
0.0
 11
41.06506588273009
 21
34.11932573241983
 31
0.0
  0
LINE
  5
5188
330
A
100
AcDbEntity
  8
CARTOUCHE
  6
CONTINUOUS
100
AcDbLine
 10
41.60236588273018
 20
34.54277573241984
 30
0.0
 11
41.60236588273018
 21
34.11932573241983
 31
0.0
  0
HATCH
  5
5189
330
A
100
AcDbEntity
  8
CARTOUCHE
  6
CONTINUOUS
100
AcDbHatch
 10
0.0
 20
0.0
 30
0.0
210
0.0
220
0.0
230
1.0
  2
ANSI31
 70
     0
 71
     0
 91
        1
 92
        1
 93
       12
 72
     1
 10
51.0361656747225
 20
32.08996583868968
 11
51.0361656747225
 21
30.24302583868967
 72
     1
 10
51.0361656747225
 20
30.24302583868967
 11
52.81996567472242
 21
30.24302583868967
 72
     1
 10
52.81996567472242
 20
30.24302583868967
 11
52.81996567472242
 21
32.93548483868968
 72
     1
 10
49.21771567472227
 20
33.68507583868967
 11
49.21771567472227
 21
34.11932583868968
 72
     1
 10
49.21771567472227
 20
34.11932583868967
 11
47.42266567472234
 21
34.11932583868967
 72
     1
 10
47.42266567472234
 20
34.11932583868967
 11
47.42266567472234
 21
30.24302583868967
 72
     1
 10
47.42266567472234
 20
30.24302583868967
 11
49.21771567472227
 21
30.24302583868967
 72
     1
 10
49.21771567472227
 20
30.24302583868967
 11
49.21771567472227
 21
32.04443083868968
 72
     2
 10
50.38506667472233
 20
32.08996583868968
 40
0.6511239999999999
 50
0.0
 51
97.150666
 73
     1
 72
     2
 10
51.60277067472225
 20
32.87580483868968
 40
1.218658
 50
2.806977999999998
 51
66.54578199999999
 73
     1
 72
     2
 10
50.99514567472249
 20
30.65619283868968
 40
3.511892
 50
71.872399
 51
120.405534
 73
     1
 72
     2
 10
50.37155267472225
 20
31.43101083868968
 40
1.306761
 50
92.962517
 51
152.003297
 73
     1
 97
        0
 75
     0
 76
     1
 52
315.0
 41
1.259843
 77
     0
 78
     1
 53
0.0
 43
-514.3362191172696
 44
44.62733873241984
 45
0.0
 46
4.0
 79
     0
 98
        1
 10
-514.3362191172696
 20
44.62733873241984
  0
ARC
  5
518A
330
A
100
AcDbEntity
  8
CARTOUCHE
  6
CONTINUOUS
100
AcDbCircle
 10
51.60277088273017
 20
32.87580473241983
 30
0.0
 40
1.218658
100
AcDbArc
 50
2.806997000000158
 51
66.54578099999715
  0
LINE
  5
518B
330
A
100
AcDbEntity
  8
CARTOUCHE
  6
CONTINUOUS
100
AcDbLine
 10
51.03616588273019
 20
30.24302573241984
 30
0.0
 11
52.81996588273011
 21
30.24302573241984
 31
0.0
  0
ARC
  5
518C
330
A
100
AcDbEntity
  8
CARTOUCHE
  6
CONTINUOUS
100
AcDbCircle
 10
50.37155288273016
 20
31.43101073241984
 30
0.0
 40
1.306761
100
AcDbArc
 50
92.96251300000223
 51
152.0033240000001
  0
ARC
  5
518D
330
A
100
AcDbEntity
  8
CARTOUCHE
  6
CONTINUOUS
100
AcDbCircle
 10
50.38506688273026
 20
32.08996573241984
 30
0.0
 40
0.6511239999999999
100
AcDbArc
 50
0.0
 51
97.1506829999997
  0
ARC
  5
518E
330
A
100
AcDbEntity
  8
CARTOUCHE
  6
CONTINUOUS
100
AcDbCircle
 10
50.99514588273017
 20
30.65619273241984
 30
0.0
 40
3.511892
100
AcDbArc
 50
71.87239199999805
 51
120.4055569999985
  0
LINE
  5
518F
330
A
100
AcDbEntity
  8
CARTOUCHE
  6
CONTINUOUS
100
AcDbLine
 10
46.5537158827301
 20
34.11932573241983
 30
0.0
 11
46.5537158827301
 21
30.24302573241984
 31
0.0
  0
LINE
  5
5190
330
A
100
AcDbEntity
  8
CARTOUCHE
  6
CONTINUOUS
100
AcDbLine
 10
49.21771588273009
 20
30.24302573241984
 30
0.0
 11
49.21771588273009
 21
32.04443073241984
 31
0.0
  0
LINE
  5
5191
330
A
100
AcDbEntity
  8
CARTOUCHE
  6
CONTINUOUS
100
AcDbLine
 10
47.42266588273014
 20
30.24302573241984
 30
0.0
 11
49.21771588273009
 21
30.24302573241984
 31
0.0
  0
LINE
  5
5192
330
A
100
AcDbEntity
  8
CARTOUCHE
  6
CONTINUOUS
100
AcDbLine
 10
47.42266588273014
 20
34.11932573241983
 30
0.0
 11
47.42266588273014
 21
30.24302573241984
 31
0.0
  0
LINE
  5
5193
330
A
100
AcDbEntity
  8
CARTOUCHE
  6
CONTINUOUS
100
AcDbLine
 10
49.21771588273009
 20
34.11932573241983
 30
0.0
 11
47.42266588273014
 21
34.11932573241983
 31
0.0
  0
LINE
  5
5194
330
A
100
AcDbEntity
  8
CARTOUCHE
  6
CONTINUOUS
100
AcDbLine
 10
49.21771588273009
 20
33.68507573241984
 30
0.0
 11
49.21771588273009
 21
34.11932573241983
 31
0.0
  0
LINE
  5
5195
330
A
100
AcDbEntity
  8
CARTOUCHE
  6
CONTINUOUS
100
AcDbLine
 10
51.03616588273019
 20
32.08996573241984
 30
0.0
 11
51.03616588273019
 21
30.24302573241984
 31
0.0
  0
HATCH
  5
5196
330
A
100
AcDbEntity
  8
CARTOUCHE
  6
CONTINUOUS
100
AcDbHatch
 10
0.0
 20
0.0
 30
0.0
210
0.0
220
0.0
230
1.0
  2
ANSI31
 70
     0
 71
     0
 91
        1
 92
        1
 93
      154
 72
     1
 10
57.11926567472232
 20
33.93083583868968
 11
57.06438167472231
 21
33.97639683868968
 72
     1
 10
57.06438167472242
 20
33.97639683868968
 11
57.02109567472246
 21
34.00788383868968
 72
     1
 10
57.02109567472234
 20
34.00788383868968
 11
56.97588867472235
 21
34.03644983868967
 72
     1
 10
56.97588867472235
 20
34.03644983868967
 11
56.9130576747225
 21
34.06917483868967
 72
     1
 10
56.9130576747225
 20
34.06917483868967
 11
56.86415767472249
 21
34.09011483868967
 72
     1
 10
56.86415767472249
 20
34.09011483868968
 11
56.81415667472244
 21
34.10828083868968
 72
     1
 10
56.81415667472244
 20
34.10828083868968
 11
56.7281116747223
 21
34.13360183868968
 72
     1
 10
56.7281116747223
 20
34.13360183868968
 11
56.64079867472231
 21
34.15406883868968
 72
     1
 10
56.64079867472231
 20
34.15406883868968
 11
56.46372767472222
 21
34.18809583868966
 72
     1
 10
56.46372767472222
 20
34.18809583868966
 11
56.11160367472234
 21
34.24257483868967
 72
     1
 10
56.11160367472234
 20
34.24257483868967
 11
55.75745667472233
 21
34.26454283868967
 72
     1
 10
55.75745667472233
 20
34.26454283868967
 11
55.40081767472226
 21
34.25369083868968
 72
     1
 10
55.40081767472226
 20
34.25369083868968
 11
55.22327767472233
 21
34.23849883868967
 72
     1
 10
55.22327767472233
 20
34.23849883868967
 11
55.04716467472224
 21
34.21285383868968
 72
     1
 10
55.04716467472224
 20
34.21285383868968
 11
54.9081356747223
 21
34.18180583868967
 72
     1
 10
54.9081356747223
 20
34.18180583868967
 11
54.70401167472243
 21
34.11785083868967
 72
     1
 10
54.70401167472232
 20
34.11785083868966
 11
54.57159967472228
 21
34.06437383868967
 72
     1
 10
54.57159967472228
 20
34.06437383868968
 11
54.47494167472246
 21
34.01840983868968
 72
     1
 10
54.47494167472235
 20
34.01840983868968
 11
54.38106067472233
 21
33.96713183868968
 72
     1
 10
54.38106067472233
 20
33.96713183868968
 11
54.26101867472231
 21
33.89047283868968
 72
     1
 10
54.26101867472244
 20
33.89047283868968
 11
54.09199367472229
 21
33.75961983868968
 72
     1
 10
54.09199367472229
 20
33.75961983868968
 11
53.98668067472249
 21
33.66328983868967
 72
     1
 10
53.98668067472249
 20
33.66328983868967
 11
53.84042567472249
 21
33.50704583868967
 72
     1
 10
53.84042567472249
 20
33.50704583868967
 11
53.75118767472224
 21
33.39586283868968
 72
     1
 10
53.75118767472224
 20
33.39586283868968
 11
53.63153567472227
 21
33.21875083868968
 72
     1
 10
53.63153567472227
 20
33.21875083868968
 11
53.56255867472225
 21
33.09395183868967
 72
     1
 10
53.56255867472225
 20
33.09395183868967
 11
53.51683867472228
 21
32.99724183868967
 72
     1
 10
53.51683867472228
 20
32.99724183868968
 11
53.47640367472229
 21
32.89822383868968
 72
     1
 10
53.47640367472229
 20
32.89822383868968
 11
53.43081967472244
 21
32.76306383868968
 72
     1
 10
53.43081967472233
 20
32.76306383868968
 11
53.38021567472231
 21
32.55513083868967
 72
     1
 10
53.38021567472231
 20
32.55513083868967
 11
53.35837467472242
 21
32.41408183868968
 72
     1
 10
53.35837467472242
 20
32.41408183868968
 11
53.3487896747223
 21
32.30751983868968
 72
     1
 10
53.3487896747223
 20
32.30751983868968
 11
53.34556267472247
 21
32.20066183868967
 72
     1
 10
53.34556267472226
 20
32.20066183868968
 11
53.35152567472231
 21
32.05828683868968
 72
     1
 10
53.35152567472231
 20
32.05828683868968
 11
53.37978967472224
 21
31.84619783868968
 72
     1
 10
53.37978967472224
 20
31.84619783868968
 11
53.40956567472233
 21
31.70661483868968
 72
     1
 10
53.40956567472233
 20
31.70661483868968
 11
53.47068367472228
 21
31.50166883868968
 72
     1
 10
53.47068367472228
 20
31.50166883868968
 11
53.52298767472234
 21
31.36907583868968
 72
     1
 10
53.52298767472234
 20
31.36907583868968
 11
53.56840567472227
 21
31.27225783868968
 72
     1
 10
53.56840567472227
 20
31.27225783868968
 11
53.61913867472231
 21
31.17809483868968
 72
     1
 10
53.61913867472231
 20
31.17809483868968
 11
53.69508367472224
 21
31.05723383868967
 72
     1
 10
53.69508367472224
 20
31.05723383868967
 11
53.75811367472248
 21
30.97070983868968
 72
     1
 10
53.75811367472248
 20
30.97070983868968
 11
53.82623267472229
 21
30.88818183868967
 72
     1
 10
53.82623267472229
 20
30.88818183868967
 11
53.92450967472246
 21
30.78501183868968
 72
     1
 10
53.92450967472234
 20
30.78501183868968
 11
54.08576767472232
 21
30.64469883868968
 72
     1
 10
54.08576767472232
 20
30.64469883868968
 11
54.20097467472226
 21
30.56050883868968
 72
     1
 10
54.20097467472226
 20
30.56050883868968
 11
54.38322567472233
 21
30.44831083868968
 72
     1
 10
54.38322567472233
 20
30.44831083868968
 11
54.51002767472232
 21
30.38312783868967
 72
     1
 10
54.51002767472232
 20
30.38312783868968
 11
54.60778067472233
 21
30.33987483868968
 72
     1
 10
54.60778067472233
 20
30.33987483868968
 11
54.7077126747223
 21
30.30205683868968
 72
     1
 10
54.7077126747223
 20
30.30205683868968
 11
54.84414867472231
 21
30.26066883868967
 72
     1
 10
54.84414867472231
 20
30.26066883868967
 11
55.05355667472224
 21
30.21701383868968
 72
     1
 10
55.05355667472224
 20
30.21701383868968
 11
55.23041967472249
 21
30.19566583868968
 72
     1
 10
55.23041967472249
 20
30.19566583868968
 11
55.40824667472225
 21
30.18467283868968
 72
     1
 10
55.40824667472225
 20
30.18467283868968
 11
55.76416267472235
 21
30.18182583868967
 72
     1
 10
55.76416267472235
 20
30.18182583868968
 11
56.12061267472235
 21
30.19703383868968
 72
     1
 10
56.12061267472235
 20
30.19703383868968
 11
56.26233967472227
 21
30.21093183868968
 72
     1
 10
56.26233967472227
 20
30.21093183868968
 11
56.47301367472243
 21
30.24681583868968
 72
     1
 10
56.47301367472231
 20
30.24681583868968
 11
56.61059567472229
 21
30.28394783868968
 72
     1
 10
56.61059567472229
 20
30.28394783868968
 11
56.74517567472229
 21
30.33208583868967
 72
     1
 10
56.74517567472229
 20
30.33208583868967
 11
56.87559067472228
 21
30.39075383868967
 72
     1
 10
56.87559067472228
 20
30.39075383868968
 11
57.00067567472228
 21
30.45947583868968
 72
     1
 10
57.00067567472228
 20
30.45947583868968
 11
57.11926567472243
 21
30.53777583868968
 72
     1
 10
57.11926567472232
 20
30.53777583868968
 11
57.11926567472232
 21
30.23177583868967
 72
     1
 10
57.11926567472232
 20
30.23177583868967
 11
58.91431567472228
 21
30.23177583868967
 72
     1
 10
58.91431567472228
 20
30.23177583868967
 11
58.91431567472228
 21
35.43467583868967
 72
     1
 10
58.91431567472228
 20
35.43467583868967
 11
57.11926567472232
 21
35.43467583868967
 72
     1
 10
57.11926567472232
 20
35.43467583868967
 11
57.11926567472232
 21
33.93083583868969
 72
     1
 10
57.11926567472232
 20
32.37017583868968
 11
57.11296667472232
 21
32.40836083868968
 72
     1
 10
57.11296667472243
 20
32.40836083868968
 11
57.10444667472234
 21
32.44618983868968
 72
     1
 10
57.10444667472234
 20
32.44618983868967
 11
57.09371467472249
 21
32.48349683868966
 72
     1
 10
57.09371467472249
 20
32.48349683868968
 11
57.08078367472229
 21
32.52011583868966
 72
     1
 10
57.08078367472229
 20
32.52011583868966
 11
57.06566167472249
 21
32.55588183868967
 72
     1
 10
57.06566167472249
 20
32.55588183868967
 11
57.04836467472228
 21
32.59065583868967
 72
     1
 10
57.04836467472228
 20
32.59065583868967
 11
57.02898367472243
 21
32.62430183868966
 72
     1
 10
57.02898367472243
 20
32.62430183868968
 11
57.00761367472228
 21
32.65671283868968
 72
     1
 10
57.00761367472228
 20
32.65671283868968
 11
56.98435267472246
 21
32.68777983868968
 72
     1
 10
56.98435267472234
 20
32.68777983868968
 11
56.95929667472228
 21
32.71739583868968
 72
     1
 10
56.95929667472228
 20
32.71739583868968
 11
56.93255067472228
 21
32.74547183868968
 72
     1
 10
56.93255067472228
 20
32.74547183868968
 11
56.90425567472243
 21
32.77199083868968
 72
     1
 10
56.90425567472243
 20
32.77199083868968
 11
56.85923967472229
 21
32.80885183868967
 72
     1
 10
56.85923967472229
 20
32.80885183868967
 11
56.81158167472244
 21
32.84221983868967
 72
     1
 10
56.81158167472233
 20
32.84221983868968
 11
56.74515067472225
 21
32.88118583868968
 72
     1
 10
56.74515067472225
 20
32.88118583868968
 11
56.64034267472243
 21
32.92963683868968
 72
     1
 10
56.64034267472243
 20
32.92963683868968
 11
56.45686867472227
 21
32.99117183868968
 72
     1
 10
56.45686867472227
 20
32.99117183868968
 11
56.26903767472242
 21
33.03773883868966
 72
     1
 10
56.26903767472231
 20
33.03773883868966
 11
56.19310967472235
 21
33.04965183868967
 72
     1
 10
56.19310967472235
 20
33.04965183868967
 11
56.13573467472225
 21
33.05511583868968
 72
     1
 10
56.13573467472225
 20
33.05511583868968
 11
56.07817567472228
 21
33.05711683868968
 72
     1
 10
56.07817567472228
 20
33.05711683868968
 11
56.00094867472228
 21
33.05387283868967
 72
     1
 10
56.00094867472228
 20
33.05387283868967
 11
55.9433026747223
 21
33.04720083868968
 72
     1
 10
55.9433026747223
 20
33.04720083868966
 11
55.88612567472228
 21
33.03718383868968
 72
     1
 10
55.88612567472228
 20
33.03718383868968
 11
55.81053367472225
 21
33.01888183868967
 72
     1
 10
55.81053367472225
 20
33.01888183868967
 11
55.75483567472224
 21
33.00162083868968
 72
     1
 10
55.75483567472224
 20
33.00162083868968
 11
55.70014367472231
 21
32.98141083868968
 72
     1
 10
55.70014367472231
 20
32.98141083868968
 11
55.62936567472228
 21
32.95009583868967
 72
     1
 10
55.62936567472228
 20
32.95009583868967
 11
55.57791867472224
 21
32.92317683868967
 72
     1
 10
55.57791867472224
 20
32.92317683868967
 11
55.52812067472235
 21
32.89323183868968
 72
     1
 10
55.52812067472235
 20
32.89323183868968
 11
55.46518367472231
 21
32.84891183868968
 72
     1
 10
55.46518367472231
 20
32.84891183868968
 11
55.40611467472229
 21
32.79934483868967
 72
     1
 10
55.40611467472229
 20
32.79934483868967
 11
55.35151167472225
 21
32.74470783868967
 72
     1
 10
55.35151167472225
 20
32.74470783868967
 11
55.30197267472249
 21
32.68517883868968
 72
     1
 10
55.30197267472249
 20
32.68517883868968
 11
55.25809567472244
 21
32.62093483868968
 72
     1
 10
55.25809567472244
 20
32.62093483868968
 11
55.22056067472249
 21
32.55232583868968
 72
     1
 10
55.22056067472249
 20
32.55232583868968
 11
55.19026367472225
 21
32.48017783868967
 72
     1
 10
55.19026367472225
 20
32.48017783868967
 11
55.17813867472227
 21
32.44308683868968
 72
     1
 10
55.17813867472227
 20
32.44308683868968
 11
55.16819167472249
 21
32.40548383868967
 72
     1
 10
55.16819167472249
 20
32.40548383868967
 11
55.16054767472224
 21
32.36749283868967
 72
     1
 10
55.16054767472224
 20
32.36749283868967
 11
55.15532867472234
 21
32.32923783868967
 72
     1
 10
55.15532867472234
 20
32.32923783868967
 11
55.15265967472226
 21
32.29084383868968
 72
     1
 10
55.15265967472226
 20
32.29084383868968
 11
55.15266167472225
 21
32.25243483868968
 72
     1
 10
55.15266167472225
 20
32.25243483868968
 11
55.1554356747223
 21
32.21387183868968
 72
     1
 10
55.1554356747223
 20
32.21387183868968
 11
55.16085367472249
 21
32.17554983868968
 72
     1
 10
55.16085367472249
 20
32.17554983868966
 11
55.16872367472227
 21
32.13759883868966
 72
     1
 10
55.16872367472227
 20
32.13759883868968
 11
55.17885667472228
 21
32.10014883868967
 72
     1
 10
55.17885667472228
 20
32.10014883868967
 11
55.19106067472228
 21
32.06333183868967
 72
     1
 10
55.19106067472228
 20
32.06333183868967
 11
55.22138767472235
 21
31.99135683868968
 72
     1
 10
55.22138767472235
 20
31.99135683868968
 11
55.24879067472227
 21
31.93963783868968
 72
     1
 10
55.24879067472227
 20
31.93963783868968
 11
55.2798966747223
 21
31.89003183868968
 72
     1
 10
55.2798966747223
 20
31.89003183868968
 11
55.32632867472226
 21
31.82804483868968
 72
     1
 10
55.32632867472226
 20
31.82804483868968
 11
55.36497767472224
 21
31.78470383868968
 72
     1
 10
55.36497767472224
 20
31.78470383868968
 11
55.40680867472224
 21
31.74448583868968
 72
     1
 10
55.40680867472224
 20
31.74448583868968
 11
55.46692867472234
 21
31.69641883868968
 72
     1
 10
55.46692867472234
 20
31.69641883868968
 11
55.51495467472228
 21
31.66428683868968
 72
     1
 10
55.51495467472228
 20
31.66428683868968
 11
55.56499967472245
 21
31.63541283868968
 72
     1
 10
55.56499967472234
 20
31.63541283868968
 11
55.63479067472224
 21
31.60145083868968
 72
     1
 10
55.63479067472224
 20
31.60145083868968
 11
55.74339067472249
 21
31.55951283868967
 72
     1
 10
55.74339067472249
 20
31.55951283868968
 11
55.8174056747223
 21
31.53663083868968
 72
     1
 10
55.8174056747223
 20
31.53663083868968
 11
55.93048067472228
 21
31.51009983868968
 72
     1
 10
55.93048067472228
 20
31.51009983868968
 11
56.00665667472231
 21
31.49817683868968
 72
     1
 10
56.00665667472231
 20
31.49817683868968
 11
56.12194167472228
 21
31.48957783868968
 72
     1
 10
56.12194167472228
 20
31.48957783868968
 11
56.19920567472229
 21
31.49044083868968
 72
     1
 10
56.19920567472229
 20
31.49044083868968
 11
56.31464467472245
 21
31.50183183868968
 72
     1
 10
56.31464467472233
 20
31.50183183868968
 11
56.39053267472228
 21
31.51605883868968
 72
     1
 10
56.39053267472228
 20
31.51605883868968
 11
56.46537367472229
 21
31.53548583868968
 72
     1
 10
56.46537367472229
 20
31.53548583868968
 11
56.53874467472224
 21
31.55997883868968
 72
     1
 10
56.53874467472224
 20
31.55997883868968
 11
56.61021967472243
 21
31.58940483868968
 72
     1
 10
56.61021967472243
 20
31.58940483868968
 11
56.67937667472243
 21
31.62362983868968
 72
     1
 10
56.67937667472235
 20
31.62362983868968
 11
56.74624167472234
 21
31.66277783868968
 72
     1
 10
56.74624167472234
 20
31.66277783868968
 11
56.8409526747223
 21
31.73005783868968
 72
     1
 10
56.8409526747223
 20
31.73005783868968
 11
56.89988867472232
 21
31.78053083868968
 72
     1
 10
56.89988867472243
 20
31.78053083868968
 11
56.94106767472248
 21
31.82159583868968
 72
     1
 10
56.94106767472248
 20
31.82159583868968
 11
56.97893967472225
 21
31.86567283868967
 72
     1
 10
56.97893967472225
 20
31.86567283868968
 11
57.00197967472229
 21
31.89671383868968
 72
     1
 10
57.00197967472229
 20
31.89671383868968
 11
57.02319267472228
 21
31.92907283868968
 72
     1
 10
57.02319267472228
 20
31.92907283868968
 11
57.04249467472243
 21
31.96263283868967
 72
     1
 10
57.04249467472232
 20
31.96263283868967
 11
57.05980267472227
 21
31.99727583868968
 72
     1
 10
57.05980267472227
 20
31.99727583868968
 11
57.07503167472225
 21
32.03288583868967
 72
     1
 10
57.07503167472225
 20
32.03288583868967
 11
57.08815367472244
 21
32.06945683868968
 72
     1
 10
57.08815367472244
 20
32.06945683868968
 11
57.09911967472248
 21
32.10672883868967
 72
     1
 10
57.09911967472226
 20
32.10672883868967
 11
57.10794767472226
 21
32.14455083868968
 72
     1
 10
57.10794767472226
 20
32.14455083868968
 11
57.11465667472225
 21
32.18276683868968
 72
     1
 10
57.11465667472225
 20
32.18276683868968
 11
57.11926567472232
 21
32.22122583868967
 72
     1
 10
57.11926567472232
 20
32.22122583868967
 11
57.11926567472232
 21
32.37017583868967
 97
        0
 75
     0
 76
     1
 52
315.0
 41
1.259843
 77
     0
 78
     1
 53
0.0
 43
-514.3362191172696
 44
44.62733873241984
 45
0.0
 46
4.0
 79
     0
 98
        1
 10
-514.3362191172696
 20
44.62733873241984
  0
LINE
  5
5197
330
A
100
AcDbEntity
  8
CARTOUCHE
  6
CONTINUOUS
100
AcDbLine
 10
57.11926588273013
 20
30.23177573241984
 30
0.0
 11
57.11926588273013
 21
30.53777573241983
 31
0.0
  0
LINE
  5
5198
330
A
100
AcDbEntity
  8
CARTOUCHE
  6
CONTINUOUS
100
AcDbLine
 10
57.11926588273013
 20
32.22122573241984
 30
0.0
 11
57.11926588273013
 21
32.37017573241983
 31
0.0
  0
SPLINE
  5
5199
330
A
100
AcDbEntity
  8
CARTOUCHE
  6
CONTINUOUS
100
AcDbSpline
210
0.0
220
0.0
230
1.0
 70
     8
 71
     3
 72
    32
 73
    28
 74
    26
 42
0.0000000001
 43
0.0000000001
 44
0.000001
 12
-0.134108993271187
 22
0.9909665876929397
 32
0.0
 13
0.0921211275964532
 23
0.9957478083583001
 33
0.0
 40
0.0
 40
0.0
 40
0.0
 40
0.0
 40
0.1929417000059554
 40
0.3858860021874047
 40
0.5788278186578824
 40
0.7717660881769404
 40
0.9647057414616014
 40
1.157646554945014
 40
1.350584760884532
 40
1.543523858803656
 40
1.736468012364915
 40
1.929406376012584
 40
2.315236575975183
 40
2.700991836250823
 40
2.893945905685631
 40
3.086891500294774
 40
3.27983107010177
 40
3.472768464172053
 40
3.665710755763093
 40
3.858651392814076
 40
4.051590391770174
 40
4.244531298888052
 40
4.630394313786916
 40
4.823335345994063
 40
5.01627583895882
 40
5.209216372248073
 40
5.402158865530701
 40
5.402158865530701
 40
5.402158865530701
 40
5.402158865530701
 10
57.11926565093495
 20
32.37017544580636
 30
0.0
 10
57.11064057855235
 20
32.43390837183255
 30
0.0
 10
57.07485648076188
 20
32.55979070298405
 30
0.0
 10
56.96688905853918
 20
32.72325663584432
 30
0.0
 10
56.81658952938286
 20
32.84797100070315
 30
0.0
 10
56.64257409772893
 20
32.93407340792081
 30
0.0
 10
56.4583696748084
 20
32.9922692594048
 30
0.0
 10
56.27180439352431
 20
33.0419509236195
 30
0.0
 10
56.07885419301005
 20
33.06442223738606
 30
0.0
 10
55.88563232847589
 20
33.04304894792881
 30
0.0
 10
55.69992592351537
 20
32.98740790939957
 30
0.0
 10
55.46896296173327
 20
32.87118492120082
 30
0.0
 10
55.23165049567952
 20
32.64011271956864
 30
0.0
 10
55.12655413888094
 20
32.31310975743393
 30
0.0
 10
55.18417168972469
 20
32.05768379674494
 30
0.0
 10
55.27408561671574
 20
31.8852391661043
 30
0.0
 10
55.40156733426613
 20
31.73757771540291
 30
0.0
 10
55.56334928208171
 20
31.62884075778353
 30
0.0
 10
55.74260079513638
 20
31.55549338884407
 30
0.0
 10
55.92943123810775
 20
31.50530389563976
 30
0.0
 10
56.12216572166926
 20
31.48396529669637
 30
0.0
 10
56.37988442145201
 20
31.50035725502322
 30
0.0
 10
56.62978380701768
 20
31.58391179465211
 30
0.0
 10
56.84505390478271
 20
31.72612243328689
 30
0.0
 10
56.98649791312765
 20
31.86003978822685
 30
0.0
 10
57.0842397398705
 20
32.02984193652569
 30
0.0
 10
57.11334095758722
 20
32.15718475753124
 30
0.0
 10
57.11926565093471
 20
32.22122544580637
 30
0.0
 11
57.11926565093495
 21
32.37017544580636
 31
0.0
 11
57.06580737171202
 21
32.55556416288371
 31
0.0
 11
56.9598320581307
 21
32.71679913637274
 31
0.0
 11
56.81263472594617
 21
32.84153677800643
 31
0.0
 11
56.64087534650821
 21
32.92942242812781
 31
0.0
 11
56.45797559072775
 21
32.99085034044549
 31
0.0
 11
56.27073838082754
 21
33.03741625877445
 31
0.0
 11
56.0788084244474
 21
33.05711507369692
 31
0.0
 11
55.88688559700506
 21
33.03733816659046
 31
0.0
 11
55.70200200016711
 21
32.98215205753577
 31
0.0
 11
55.530116454687
 21
32.894513148653
 31
0.0
 11
55.2580786094203
 21
32.62090686057713
 31
0.0
 11
55.15276281079207
 21
32.24980609870573
 31
0.0
 11
55.19195404548009
 21
32.06087399837162
 31
0.0
 11
55.28034754124894
 21
31.88936712214248
 31
0.0
 11
55.4072836790683
 21
31.74406430838917
 31
0.0
 11
55.56625839802894
 21
31.63473962813683
 31
0.0
 11
55.74386341958723
 21
31.55935269213482
 31
0.0
 11
55.93041488448374
 21
31.51011200508635
 31
0.0
 11
56.12225728882435
 21
31.48957051120131
 31
0.0
 11
56.31480663655146
 21
31.50185645699232
 31
0.0
 11
56.68071051163053
 21
31.62434980538593
 31
0.0
 11
56.84171772005789
 21
31.73066498687884
 31
0.0
 11
56.9792132736353
 21
31.86602006310591
 31
0.0
 11
57.07522361954625
 21
32.03337609971529
 31
0.0
 11
57.11926565093471
 21
32.22122544580637
 31
0.0
  0
SPLINE
  5
519A
330
A
100
AcDbEntity
  8
CARTOUCHE
  6
CONTINUOUS
100
AcDbSpline
210
0.0
220
0.0
230
1.0
 70
     8
 71
     3
 72
    36
 73
    32
 74
    30
 42
0.0000000001
 43
0.0000000001
 44
0.000001
 12
-0.7486966541785744
 22
0.6629127544570314
 32
0.0
 13
0.8109899424984657
 23
0.5850600936368293
 33
0.0
 40
0.0
 40
0.0
 40
0.0
 40
0.0
 40
0.1780452274969013
 40
0.3560877368949582
 40
0.5341342068234063
 40
0.7121796397817071
 40
1.068272485405865
 40
1.424362065622542
 40
1.780451368035622
 40
2.136547803889945
 40
2.492633915001108
 40
2.848730808850742
 40
3.204818200237176
 40
3.560910569289987
 40
3.91700317983133
 40
4.273094319389263
 40
4.629183609743235
 40
4.985281207724145
 40
5.341365789049557
 40
5.697461870205854
 40
6.053551079961877
 40
6.409645582314515
 40
6.765733947827919
 40
7.121824762951119
 40
7.477920130638657
 40
7.834009176229204
 40
8.190100012311441
 40
8.546191599297211
 40
8.902283648164397
 40
9.258369457089466
 40
9.970493285481587
 40
9.970493285481587
 40
9.970493285481587
 40
9.970493285481587
 10
57.11926565093495
 20
33.9308360358215
 30
0.0
 10
57.07483169556183
 20
33.97017885321413
 30
0.0
 10
56.97964444776309
 20
34.04287704190241
 30
0.0
 10
56.81449779350606
 20
34.11326648129875
 30
0.0
 10
56.64132461914794
 20
34.15574791083073
 30
0.0
 10
56.40785662138478
 20
34.19860986222042
 30
0.0
 10
56.1151161689274
 20
34.24867329761302
 30
0.0
 10
55.75883352061818
 20
34.27031043812171
 30
0.0
 10
55.40288567964961
 20
34.25723901174812
 30
0.0
 10
55.04737501123677
 20
34.22372642897508
 30
0.0
 10
54.70275220624796
 20
34.12723448205102
 30
0.0
 10
54.37711099159327
 20
33.97862154608261
 30
0.0
 10
54.08723490597023
 20
33.76811482890592
 30
0.0
 10
53.83535821111712
 20
33.51472958026953
 30
0.0
 10
53.62350580706385
 20
33.2264797682561
 30
0.0
 10
53.46724377617551
 20
32.90415253527673
 30
0.0
 10
53.37102841534028
 20
32.5596979438791
 30
0.0
 10
53.33289838817345
 20
32.20331233974095
 30
0.0
 10
53.37075881095184
 20
31.84719384645088
 30
0.0
 10
53.45990259343274
 20
31.50111588785135
 30
0.0
 10
53.60785545913625
 20
31.17499276106654
 30
0.0
 10
53.81498300964286
 20
30.88232609871776
 30
0.0
 10
54.07756381638043
 20
30.63853987491072
 30
0.0
 10
54.37604737042269
 20
30.44214461025836
 30
0.0
 10
54.70097649734795
 20
30.29197872957282
 30
0.0
 10
55.04929808552809
 20
30.20818522662571
 30
0.0
 10
55.40505702409447
 20
30.18022942498403
 30
0.0
 10
55.76122048235503
 20
30.1796813992188
 30
0.0
 10
56.1172771637431
 20
30.19171212576815
 30
0.0
 10
56.58960483979849
 20
30.24808295219712
 30
0.0
 10
56.92675723005465
 20
30.39889703456633
 30
0.0
 10
57.11926565093449
 20
30.53777544580637
 30
0.0
 11
57.11926565093495
 21
33.9308360358215
 31
0.0
 11
56.97591520081255
 21
34.03643421294577
 31
0.0
 11
56.81316039654848
 21
34.10861431883339
 31
0.0
 11
56.64100231062115
 21
34.15402498238987
 31
0.0
 11
56.46616268754645
 21
34.18765962035759
 31
0.0
 11
56.11428168351062
 21
34.24226664429041
 31
0.0
 11
55.75888844111943
 21
34.26452554505778
 31
0.0
 11
55.40295972658396
 21
34.25383222208842
 31
0.0
 11
55.04918568359471
 21
34.21322935913542
 31
0.0
 11
54.70591771518048
 21
34.11854878064735
 31
0.0
 11
54.38306842825205
 21
33.9683045395238
 31
0.0
 11
54.09356819209233
 21
33.7609694296006
 31
0.0
 11
53.84202813545903
 21
33.5089190680584
 31
0.0
 11
53.63276953675563
 21
33.22079964917856
 31
0.0
 11
53.47725038842952
 21
32.9004643370496
 31
0.0
 11
53.38070880918258
 21
32.55771176197993
 31
0.0
 11
53.34556244518058
 21
32.20335282499002
 31
0.0
 11
53.37930441801757
 21
31.84887047921932
 31
0.0
 11
53.46970372473833
 21
31.50443992065563
 31
0.0
 11
53.61771625291249
 21
31.18056982114012
 31
0.0
 11
53.82422554361539
 21
30.89047116715839
 31
0.0
 11
54.08354592444323
 21
30.64643862828281
 31
0.0
 11
54.38045265540278
 21
30.44985004186853
 31
0.0
 11
54.70487627261547
 21
30.3030398503928
 31
0.0
 11
55.05053628894848
 21
30.2174912909753
 31
0.0
 11
55.40512304661479
 21
30.18479721051118
 31
0.0
 11
55.76120181919577
 21
30.18177774287571
 31
0.0
 11
56.11697880813199
 21
30.19675370822692
 31
0.0
 11
56.46963551029955
 21
30.24605231634714
 31
0.0
 11
57.11926565093449
 21
30.53777544580637
 31
0.0
  0
LINE
  5
519B
330
A
100
AcDbEntity
  8
CARTOUCHE
  6
CONTINUOUS
100
AcDbLine
 10
58.91431588273018
 20
30.23177573241984
 30
0.0
 11
57.11926588273013
 21
30.23177573241984
 31
0.0
  0
LINE
  5
519C
330
A
100
AcDbEntity
  8
CARTOUCHE
  6
CONTINUOUS
100
AcDbLine
 10
52.81996588273011
 20
30.24302573241984
 30
0.0
 11
52.81996588273011
 21
32.93548473241983
 31
0.0
  0
LINE
  5
519D
330
A
100
AcDbEntity
  8
CARTOUCHE
  6
CONTINUOUS
100
AcDbLine
 10
44.73571588273012
 20
35.44592573241984
 30
0.0
 11
46.5537158827301
 21
35.44592573241984
 31
0.0
  0
ARC
  5
519E
330
A
100
AcDbEntity
  8
CARTOUCHE
  6
CONTINUOUS
100
AcDbCircle
 10
34.82739388273012
 20
33.53634873241984
 30
0.0
 40
3.758726999999998
100
AcDbArc
 50
82.92015399999781
 51
97.425676
  0
LINE
  5
519F
330
A
100
AcDbEntity
  8
CARTOUCHE
  6
CONTINUOUS
100
AcDbLine
 10
36.25096588273015
 20
35.11427573241984
 30
0.0
 11
36.25096588273015
 21
37.01506573241984
 31
0.0
  0
LINE
  5
51A0
330
A
100
AcDbEntity
  8
CARTOUCHE
  6
CONTINUOUS
100
AcDbLine
 10
37.28139888273017
 20
35.11427573241984
 30
0.0
 11
36.25096588273015
 21
35.11427573241984
 31
0.0
  0
LINE
  5
51A1
330
A
100
AcDbEntity
  8
CARTOUCHE
  6
CONTINUOUS
100
AcDbLine
 10
44.01526588273009
 20
35.44592573241984
 30
0.0
 11
42.51721588273015
 21
35.44592573241984
 31
0.0
  0
LINE
  5
51A2
330
A
100
AcDbEntity
  8
CARTOUCHE
  6
CONTINUOUS
100
AcDbLine
 10
57.11926588273013
 20
35.43467573241985
 30
0.0
 11
58.91431588273018
 21
35.43467573241985
 31
0.0
  0
HATCH
  5
51A3
330
A
100
AcDbEntity
  8
CARTOUCHE
  6
CONTINUOUS
100
AcDbHatch
 10
0.0
 20
0.0
 30
0.0
210
0.0
220
0.0
230
1.0
  2
ANSI31
 70
     0
 71
     0
 91
        1
 92
        1
 93
       78
 72
     1
 10
65.66071567472249
 20
34.11932583868967
 11
65.66071567472249
 21
30.24302583868967
 72
     1
 10
65.66071567472249
 20
30.24302583868967
 11
67.38736567472233
 21
30.24302583868967
 72
     1
 10
67.38736567472233
 20
30.24302583868967
 11
67.38736567472233
 21
32.39312583868967
 72
     1
 10
67.38736567472233
 20
32.39312583868967
 11
67.39123067472224
 21
32.43649483868968
 72
     1
 10
67.39123067472224
 20
32.43649483868968
 11
67.39868867472228
 21
32.47951783868968
 72
     1
 10
67.39868867472228
 20
32.47951783868968
 11
67.4096216747223
 21
32.52192283868966
 72
     1
 10
67.4096216747223
 20
32.52192283868966
 11
67.42391467472225
 21
32.56343583868968
 72
     1
 10
67.42391467472225
 20
32.56343583868968
 11
67.44144967472244
 21
32.60378283868968
 72
     1
 10
67.44144967472244
 20
32.60378283868968
 11
67.46212867472229
 21
32.64268683868968
 72
     1
 10
67.46212867472229
 20
32.64268683868968
 11
67.4858646747225
 21
32.67974583868968
 72
     1
 10
67.48586467472228
 20
32.67974583868968
 11
67.51258367472224
 21
32.71455583868967
 72
     1
 10
67.51258367472224
 20
32.71455583868966
 11
67.54221567472234
 21
32.74671183868967
 72
     1
 10
67.54221567472234
 20
32.74671183868967
 11
67.57468567472233
 21
32.77580983868968
 72
     1
 10
67.57468567472233
 20
32.77580983868968
 11
67.60985167472222
 21
32.80151883868968
 72
     1
 10
67.60985167472234
 20
32.80151883868968
 11
67.64736867472243
 21
32.82386483868968
 72
     1
 10
67.64736867472243
 20
32.82386483868968
 11
67.68682567472229
 21
32.84294383868967
 72
     1
 10
67.68682567472229
 20
32.84294383868967
 11
67.72780967472226
 21
32.85885183868968
 72
     1
 10
67.72780967472249
 20
32.85885183868968
 11
67.76990867472227
 21
32.87168683868968
 72
     1
 10
67.76990867472227
 20
32.87168683868968
 11
67.81319767472234
 21
32.88158683868967
 72
     1
 10
67.81319767472234
 20
32.88158683868967
 11
67.8569836747223
 21
32.88827583868968
 72
     1
 10
67.8569836747223
 20
32.88827583868968
 11
67.90104967472235
 21
32.89158083868967
 72
     1
 10
67.90104967472235
 20
32.89158083868967
 11
67.94517567472222
 21
32.89133283868967
 72
     1
 10
67.94517567472222
 20
32.89133283868967
 11
67.9891416747223
 21
32.88735983868968
 72
     1
 10
67.9891416747223
 20
32.88735983868967
 11
68.03206167472229
 21
32.87966783868967
 72
     1
 10
68.03206167472229
 20
32.87966783868967
 11
68.07421367472227
 21
32.86822583868968
 72
     1
 10
68.07421367472227
 20
32.86822583868968
 11
68.11519867472225
 21
32.85306783868968
 72
     1
 10
68.11519867472225
 20
32.85306783868968
 11
68.15461567472244
 21
32.83422483868967
 72
     1
 10
68.15461567472244
 20
32.83422483868967
 11
68.19206367472247
 21
32.81172883868967
 72
     1
 10
68.19206367472225
 20
32.81172883868968
 11
68.22724667472243
 21
32.78557383868967
 72
     1
 10
68.22724667472243
 20
32.78557383868967
 11
68.25968967472249
 21
32.75605083868968
 72
     1
 10
68.25968967472249
 20
32.75605083868968
 11
68.2890336747223
 21
32.72343083868967
 72
     1
 10
68.2890336747223
 20
32.72343083868967
 11
68.31492367472231
 21
32.68798583868967
 72
     1
 10
68.31492367472231
 20
32.68798583868967
 11
68.33699967472226
 21
32.64998783868968
 72
     1
 10
68.33699967472226
 20
32.64998783868968
 11
68.35487167472229
 21
32.60994283868968
 72
     1
 10
68.35487167472229
 20
32.60994283868967
 11
68.36847467472228
 21
32.56820883868968
 72
     1
 10
68.36847467472228
 20
32.56820883868968
 11
68.37767267472225
 21
32.52535483868967
 72
     1
 10
68.37767267472225
 20
32.52535483868967
 11
68.38233167472231
 21
32.48195383868967
 72
     1
 10
68.38233167472231
 20
32.48195383868967
 11
68.38291667472231
 21
32.46022583868968
 72
     1
 10
68.38291667472231
 20
32.46022583868968
 11
68.38231567472224
 21
32.43857583868968
 72
     1
 10
68.38231567472224
 20
32.43857583868968
 11
68.38231567472224
 21
32.19872583868968
 72
     1
 10
68.38231567472224
 20
32.19872583868968
 11
70.21156567472224
 21
32.19872583868968
 72
     1
 10
70.21156567472224
 20
32.19872583868968
 11
70.22822267472225
 21
32.35283283868968
 72
     1
 10
70.22822267472225
 20
32.35283283868968
 11
70.23577667472228
 21
32.50769583868967
 72
     1
 10
70.23577667472228
 20
32.50769583868967
 11
70.2339656747223
 21
32.66285283868968
 72
     1
 10
70.2339656747223
 20
32.66285283868968
 11
70.22339067472228
 21
32.81764783868968
 72
     1
 10
70.22339067472228
 20
32.81764783868968
 11
70.2046506747223
 21
32.97190383868967
 72
     1
 10
70.2046506747223
 20
32.97190383868967
 11
70.17764267472228
 21
33.12502883868968
 72
     1
 10
70.17764267472228
 20
33.12502883868968
 11
70.14961667472244
 21
33.24600383868968
 72
     1
 10
70.14961667472244
 20
33.24600383868968
 11
70.12366267472248
 21
33.33537683868968
 72
     1
 10
70.12366267472225
 20
33.33537683868968
 11
70.09242267472234
 21
33.42298083868968
 72
     1
 10
70.09242267472234
 20
33.42298083868968
 11
70.0412416747223
 21
33.53618183868968
 72
     1
 10
70.0412416747223
 20
33.53618183868968
 11
69.99560967472234
 21
33.61754683868968
 72
     1
 10
69.99560967472234
 20
33.61754683868968
 11
69.9437996747223
 21
33.69523183868968
 72
     1
 10
69.9437996747223
 20
33.69523183868968
 11
69.90576067472227
 21
33.74477983868968
 72
     1
 10
69.90576067472227
 20
33.74477983868968
 11
69.86502967472232
 21
33.79213983868968
 72
     1
 10
69.86502967472232
 20
33.79213983868968
 11
69.82165967472224
 21
33.83702883868966
 72
     1
 10
69.82165967472224
 20
33.83702883868966
 11
69.77570567472231
 21
33.87916183868968
 72
     1
 10
69.77570567472231
 20
33.87916183868968
 11
69.72721867472228
 21
33.91825783868968
 72
     1
 10
69.72721867472228
 20
33.91825783868968
 11
69.67658967472243
 21
33.95391283868969
 72
     1
 10
69.67658967472243
 20
33.95391283868968
 11
69.62382967472229
 21
33.98642883868967
 72
     1
 10
69.62382967472229
 20
33.98642883868967
 11
69.54139967472247
 21
34.02963483868967
 72
     1
 10
69.54139967472224
 20
34.02963483868968
 11
69.45598467472234
 21
34.06659583868968
 72
     1
 10
69.45598467472234
 20
34.06659583868968
 11
69.33802767472228
 21
34.10746583868967
 72
     1
 10
69.33802767472228
 20
34.10746583868967
 11
69.15662267472225
 21
34.15380383868967
 72
     1
 10
69.15662267472225
 20
34.15380383868968
 11
69.0347136747223
 21
34.17700683868968
 72
     1
 10
69.0347136747223
 20
34.17700683868968
 11
68.85012867472233
 21
34.19875283868968
 72
     1
 10
68.85012867472233
 20
34.19875283868968
 11
68.72624667472234
 21
34.20274783868968
 72
     1
 10
68.72624667472234
 20
34.20274783868968
 11
68.54031067472249
 21
34.19463483868968
 72
     1
 10
68.54031067472249
 20
34.19463483868968
 11
68.3856686747223
 21
34.17720583868968
 72
     1
 10
68.3856686747223
 20
34.17720583868968
 11
68.23245867472246
 21
34.15041383868968
 72
     1
 10
68.23245867472222
 20
34.15041383868968
 11
68.11154767472226
 21
34.12206683868967
 72
     1
 10
68.11154767472226
 20
34.12206683868967
 11
67.93354167472227
 21
34.06696183868968
 72
     1
 10
67.93354167472227
 20
34.06696183868968
 11
67.81817667472228
 21
34.02144983868967
 72
     1
 10
67.81817667472228
 20
34.02144983868967
 11
67.70555967472228
 21
33.96912983868968
 72
     1
 10
67.70555967472228
 20
33.96912983868968
 11
67.59600667472227
 21
33.91051183868968
 72
     1
 10
67.59600667472227
 20
33.91051183868968
 11
67.38736567472233
 21
33.77642583868967
 72
     1
 10
67.38736567472233
 20
33.77642583868968
 11
67.38736567472233
 21
34.11932583868968
 72
     1
 10
67.38736567472233
 20
34.11932583868967
 11
65.66071567472227
 21
34.11932583868967
 97
        0
 75
     0
 76
     1
 52
315.0
 41
1.259843
 77
     0
 78
     1
 53
0.0
 43
-514.3362191172696
 44
44.62733873241984
 45
0.0
 46
4.0
 79
     0
 98
        1
 10
-514.3362191172696
 20
44.62733873241984
  0
LINE
  5
51A4
330
A
100
AcDbEntity
  8
CARTOUCHE
  6
CONTINUOUS
100
AcDbLine
 10
67.38736588273013
 20
30.24302573241984
 30
0.0
 11
65.66071588273017
 21
30.24302573241984
 31
0.0
  0
LINE
  5
51A5
330
A
100
AcDbEntity
  8
CARTOUCHE
  6
CONTINUOUS
100
AcDbLine
 10
65.66071588273017
 20
34.11932573241983
 30
0.0
 11
67.38736588273013
 21
34.11932573241983
 31
0.0
  0
SPLINE
  5
51A6
330
A
100
AcDbEntity
  8
CARTOUCHE
  6
CONTINUOUS
100
AcDbSpline
210
0.0
220
0.0
230
1.0
 70
     8
 71
     3
 72
    21
 73
    17
 74
    15
 42
0.0000000001
 43
0.0000000001
 44
0.000001
 12
-0.0762450288987748
 22
0.9970891111471559
 32
0.0
 13
-0.2154301143726971
 23
-0.9765192603432698
 33
0.0
 40
0.0
 40
0.0
 40
0.0
 40
0.0
 40
0.1872239767895983
 40
0.3744488814534246
 40
0.5616797665682273
 40
0.7489072874824619
 40
0.9361354158715249
 40
1.123364231022108
 40
1.310595054581324
 40
1.497813820487207
 40
1.685063469726937
 40
1.872275753859715
 40
2.059506638347837
 40
2.246733387729879
 40
2.433965507953956
 40
2.621189713029888
 40
2.621189713029888
 40
2.621189713029888
 40
2.621189713029888
 10
63.27076565093488
 20
32.69012544580637
 30
0.0
 10
63.26600735176126
 20
32.75235177534056
 30
0.0
 10
63.23861503437795
 20
32.87666739282294
 30
0.0
 10
63.13916451260176
 20
33.03877531092971
 30
0.0
 10
63.0014033079948
 20
33.16792779635042
 30
0.0
 10
62.84115192955519
 20
33.26679746144928
 30
0.0
 10
62.66606731708705
 20
33.33557232845696
 30
0.0
 10
62.482645511382
 20
33.37633376279558
 30
0.0
 10
62.2951390302149
 20
33.38974164403082
 30
0.0
 10
62.10832922193361
 20
33.37887230140183
 30
0.0
 10
61.92186005687111
 20
33.3391418362293
 30
0.0
 10
61.76585401121274
 20
33.23195682309074
 30
0.0
 10
61.59428087901215
 20
33.15497961063282
 30
0.0
 10
61.45309222015741
 20
33.02723173486199
 30
0.0
 10
61.34882319678078
 20
32.86997638141841
 30
0.0
 10
61.30601022823893
 20
32.75106812655941
 30
0.0
 10
61.29256565093465
 20
32.69012544580638
 30
0.0
 11
63.27076565093488
 21
32.69012544580637
 31
0.0
 11
63.22888799184375
 21
32.87260681689167
 31
0.0
 11
63.13278017819129
 21
33.03328182600223
 31
0.0
 11
62.99765348321182
 21
33.16288192868034
 31
0.0
 11
62.8386790853616
 21
33.26178232859969
 31
0.0
 11
62.66467746653598
 21
33.33090400741451
 31
0.0
 11
62.48196421235036
 21
33.37177551523617
 31
0.0
 11
62.29525173105344
 21
33.38569640018367
 31
0.0
 11
62.10839485707447
 21
33.37406418473495
 31
0.0
 11
61.92692632363026
 21
33.32789564589289
 31
0.0
 11
61.76326422985494
 21
33.23699466975246
 31
0.0
 11
61.59934502297915
 21
33.14651855436219
 31
0.0
 11
61.45924651811549
 21
33.02231588276486
 31
0.0
 11
61.35549702367905
 21
32.86645724361118
 31
0.0
 11
61.29256565093465
 21
32.69012544580638
 31
0.0
  0
SPLINE
  5
51A7
330
A
100
AcDbEntity
  8
CARTOUCHE
  6
CONTINUOUS
100
AcDbSpline
210
0.0
220
0.0
230
1.0
 70
     8
 71
     3
 72
    15
 73
    11
 74
     9
 42
0.0000000001
 43
0.0000000001
 44
0.000001
 12
0.1873467659218163
 22
-0.9822938406091308
 32
0.0
 13
0.777012928696381
 23
0.6294846373333291
 33
0.0
 40
0.0
 40
0.0
 40
0.0
 40
0.0
 40
0.3373811758008568
 40
0.6747694790311108
 40
1.012155313481037
 40
1.349542684605717
 40
1.68693595698267
 40
1.855630980301372
 40
2.024323584144547
 40
2.361710579467517
 40
2.361710579467517
 40
2.361710579467517
 40
2.361710579467517
 10
61.29256565093489
 20
31.85537544580637
 30
0.0
 10
61.31363474165794
 20
31.74490629549748
 30
0.0
 10
61.40695496192687
 20
31.52791610670869
 30
0.0
 10
61.6823869503862
 20
31.31719739487484
 30
0.0
 10
61.99826038518132
 20
31.1925838242025
 30
0.0
 10
62.33343835998756
 20
31.13650055991319
 30
0.0
 10
62.61721581001891
 20
31.15160654726375
 30
0.0
 10
62.83550789781155
 20
31.20967534860008
 30
0.0
 10
63.04079688640409
 20
31.30300912767431
 30
0.0
 10
63.18338096515489
 20
31.39578213567574
 30
0.0
 10
63.27076565093488
 20
31.46657544580637
 30
0.0
 11
61.29256565093489
 21
31.85537544580637
 31
0.0
 11
61.42952932805805
 21
31.54704499608842
 31
0.0
 11
61.68912853572384
 21
31.33154763048621
 31
0.0
 11
62.0014779952055
 21
31.20400542774245
 31
0.0
 11
62.33432958520984
 21
31.14886877737057
 31
0.0
 11
62.67106316025729
 21
31.16995544303025
 31
0.0
 11
62.83388431533693
 21
31.2140832049722
 31
0.0
 11
62.9882105181165
 21
31.28220526549592
 31
0.0
 11
63.27076565093488
 21
31.46657544580637
 31
0.0
  0
LINE
  5
51A8
330
A
100
AcDbEntity
  8
CARTOUCHE
  6
CONTINUOUS
100
AcDbLine
 10
61.29256588273016
 20
32.69012573241983
 30
0.0
 11
62.0818658827302
 21
32.69012573241983
 31
0.0
  0
LINE
  5
51A9
330
A
100
AcDbEntity
  8
CARTOUCHE
  6
CONTINUOUS
100
AcDbLine
 10
62.0818658827302
 20
32.69012573241983
 30
0.0
 11
63.27076588273019
 21
32.69012573241983
 31
0.0
  0
LINE
  5
51AA
330
A
100
AcDbEntity
  8
CARTOUCHE
  6
CONTINUOUS
100
AcDbLine
 10
65.13466588273013
 20
31.86707573241983
 30
0.0
 11
62.0818658827302
 21
31.85537573241983
 31
0.0
  0
LINE
  5
51AB
330
A
100
AcDbEntity
  8
CARTOUCHE
  6
CONTINUOUS
100
AcDbLine
 10
63.27076588273019
 20
31.46657573241983
 30
0.0
 11
65.0316158827302
 21
31.46657573241983
 31
0.0
  0
LINE
  5
51AC
330
A
100
AcDbEntity
  8
CARTOUCHE
  6
CONTINUOUS
100
AcDbLine
 10
61.97881588273014
 20
31.85537573241983
 30
0.0
 11
61.29256588273016
 21
31.85537573241983
 31
0.0
  0
LINE
  5
51AD
330
A
100
AcDbEntity
  8
CARTOUCHE
  6
CONTINUOUS
100
AcDbLine
 10
62.0818658827302
 20
31.85537573241983
 30
0.0
 11
61.97881588273014
 21
31.85537573241983
 31
0.0
  0
LINE
  5
51AE
330
A
100
AcDbEntity
  8
CARTOUCHE
  6
CONTINUOUS
100
AcDbLine
 10
65.66071588273017
 20
30.24302573241984
 30
0.0
 11
65.66071588273017
 21
34.11932573241983
 31
0.0
  0
SPLINE
  5
51AF
330
A
100
AcDbEntity
  8
CARTOUCHE
  6
CONTINUOUS
100
AcDbSpline
210
0.0
220
0.0
230
1.0
 70
     8
 71
     3
 72
    20
 73
    16
 74
    14
 42
0.0000000001
 43
0.0000000001
 44
0.000001
 12
0.1358608544272444
 22
0.9907279284618452
 32
0.0
 13
-0.8123777522852268
 23
-0.5831315354120395
 33
0.0
 40
0.0
 40
0.0
 40
0.0
 40
0.0
 40
0.3101716211153249
 40
0.6203441609814558
 40
0.9305169149356293
 40
1.240689339272309
 40
1.550861576564136
 40
1.861041752688863
 40
2.171205819844217
 40
2.48137989054666
 40
2.791555050226782
 40
3.101724851736103
 40
3.411899428548861
 40
3.722070615832139
 40
4.342400383922956
 40
4.342400383922956
 40
4.342400383922956
 40
4.342400383922956
 10
70.21156565093486
 20
32.19872544580637
 30
0.0
 10
70.22561237808947
 20
32.30115734169145
 30
0.0
 10
70.24217287930804
 20
32.50786336268411
 30
0.0
 10
70.22865859694755
 20
32.8184467748291
 30
0.0
 10
70.18340249801415
 20
33.12559730068318
 30
0.0
 10
70.10402461096383
 20
33.42717826802978
 30
0.0
 10
69.95523524771067
 20
33.70305278448915
 30
0.0
 10
69.73816273934956
 20
33.93153481082503
 30
0.0
 10
69.45931848602956
 20
34.07741181655476
 30
0.0
 10
69.15922737343627
 20
34.15887461920547
 30
0.0
 10
68.85181484437589
 20
34.20812429466979
 30
0.0
 10
68.54036657771267
 20
34.20073032705492
 30
0.0
 10
68.23268884994972
 20
34.15709963124821
 30
0.0
 10
67.83258579938909
 20
34.04790875947973
 30
0.0
 10
67.55534635182737
 20
33.89700339584922
 30
0.0
 10
67.38736565093495
 20
33.77642544580636
 30
0.0
 11
70.21156565093486
 21
32.19872544580637
 31
0.0
 11
70.2357811692392
 21
32.50795101614381
 31
0.0
 11
70.22336908054568
 21
32.81787513835467
 31
0.0
 11
70.17771627252455
 21
33.12466980803289
 31
0.0
 11
70.09245694905168
 21
33.42289422832549
 31
0.0
 11
69.94385659213651
 21
33.69515292859212
 31
0.0
 11
69.72786385397251
 21
33.91777129766662
 31
0.0
 11
69.45578076039192
 21
34.06667594148155
 31
0.0
 11
69.15800826896862
 21
34.15350645715054
 31
0.0
 11
68.85114088564228
 21
34.19868473389066
 31
0.0
 11
68.5409967448261
 21
34.19469191803985
 31
0.0
 11
68.23395434471115
 21
34.15072311598157
 31
0.0
 11
67.93514591856467
 21
34.06753824502543
 31
0.0
 11
67.38736565093495
 21
33.77642544580636
 31
0.0
  0
SPLINE
  5
51B0
330
A
100
AcDbEntity
  8
CARTOUCHE
  6
CONTINUOUS
100
AcDbSpline
210
0.0
220
0.0
230
1.0
 70
     8
 71
     3
 72
    14
 73
    10
 74
     8
 42
0.0000000001
 43
0.0000000001
 44
0.000001
 12
0.0554704849902568
 22
0.9984603273515407
 32
0.0
 13
-0.0466631639365102
 23
-0.9989106812580565
 33
0.0
 40
0.0
 40
0.0
 40
0.0
 40
0.0
 40
0.2174460241478691
 40
0.4349107687474212
 40
0.6523648651332059
 40
0.8698754195832647
 40
1.087347445116324
 40
1.304824541147033
 40
1.522297871370056
 40
1.522297871370056
 40
1.522297871370056
 40
1.522297871370056
 10
68.38231565093486
 20
32.43857544580635
 30
0.0
 10
68.38633626307441
 20
32.51094585529034
 30
0.0
 10
68.35380509521378
 20
32.66071985613914
 30
0.0
 10
68.20065859178284
 20
32.82782693219284
 30
0.0
 10
67.98810796986791
 20
32.90356022886611
 30
0.0
 10
67.7668661719786
 20
32.88405053627359
 30
0.0
 10
67.56305480307216
 20
32.79013638284975
 30
0.0
 10
67.42842515238859
 20
32.60976288063957
 30
0.0
 10
67.39074831548784
 20
32.46553758995587
 30
0.0
 10
67.3873656509345
 20
32.39312544580636
 30
0.0
 11
68.38231565093486
 21
32.43857544580635
 31
0.0
 11
68.33641628589521
 21
32.65112296861552
 31
0.0
 11
68.19075807506374
 21
32.81259937879345
 31
0.0
 11
67.98667834254159
 21
32.88768454382774
 31
0.0
 11
67.76975975385778
 21
32.87164724177142
 31
0.0
 11
67.5745841169246
 21
32.77572756551379
 31
0.0
 11
67.44144336245779
 21
32.60376872066724
 31
0.0
 11
67.3873656509345
 21
32.39312544580636
 31
0.0
  0
LINE
  5
51B1
330
A
100
AcDbEntity
  8
CARTOUCHE
  6
CONTINUOUS
100
AcDbLine
 10
67.38736588273013
 20
32.39312573241984
 30
0.0
 11
67.38736588273013
 21
30.24302573241984
 31
0.0
  0
LINE
  5
51B2
330
A
100
AcDbEntity
  8
CARTOUCHE
  6
CONTINUOUS
100
AcDbLine
 10
68.38231588273015
 20
32.19872573241984
 30
0.0
 11
68.38231588273015
 21
32.43857573241984
 31
0.0
  0
LINE
  5
51B3
330
A
100
AcDbEntity
  8
CARTOUCHE
  6
CONTINUOUS
100
AcDbLine
 10
70.21156588273015
 20
32.19872573241984
 30
0.0
 11
68.38231588273015
 21
32.19872573241984
 31
0.0
  0
LINE
  5
51B4
330
A
100
AcDbEntity
  8
CARTOUCHE
  6
CONTINUOUS
100
AcDbLine
 10
67.38736588273013
 20
34.11932573241983
 30
0.0
 11
67.38736588273013
 21
33.77642573241983
 31
0.0
  0
TEXT
  5
51B5
330
A
100
AcDbEntity
  8
DRAW-TEXT
  6
CONTINUOUS
100
AcDbText
 10
200.8153738827301
 20
21.38705373241984
 30
0.0
 40
2.1
  1
1:1
 50
359.9999079999998
 41
0.4600000000000001
  7
TSTYLE3
100
AcDbText
  0
TEXT
  5
51B6
330
A
100
AcDbEntity
  8
DRAW-TEXT
  6
CONTINUOUS
100
AcDbText
 10
146.3541468827301
 20
21.38715273241984
 30
0.0
 40
2.1
  1
15/06/06
 50
359.9999079999998
 41
0.4600000000000001
  7
TSTYLE3
100
AcDbText
  0
LINE
  5
51B7
330
A
100
AcDbEntity
  8
CARTOUCHE
  6
CONTINUOUS
100
AcDbLine
 10
176.2610728827301
 20
29.61381873241984
 30
0.0
 11
176.2610728827301
 21
19.61187673241983
 31
0.0
  0
LINE
  5
51B8
330
A
100
AcDbEntity
  8
CARTOUCHE
  6
CONTINUOUS
100
AcDbLine
 10
124.5943938827301
 20
29.61389773241984
 30
0.0
 11
124.5943938827301
 21
19.61195573241984
 31
0.0
  0
TEXT
  5
51B9
330
A
100
AcDbEntity
  8
DRAW-TEXT
  6
CONTINUOUS
100
AcDbText
 10
98.38048388273023
 20
21.38721073241983
 30
0.0
 40
2.1
  1
0
 50
359.9999079999998
 41
0.4600000000000001
  7
TSTYLE3
100
AcDbText
  0
TEXT
  5
51BA
330
A
100
AcDbEntity
  8
DRAW-TEXT
  6
CONTINUOUS
100
AcDbText
 10
146.6995728827301
 20
34.20156673241984
 30
0.0
 40
3.0
  1
56.42
 50
359.9999079999998
 41
0.4600000000000001
  7
TSTYLE4
100
AcDbText
  0
TEXT
  5
51BB
330
A
100
AcDbEntity
  8
CARTOUCHE
  6
CONTINUOUS
100
AcDbText
 10
142.8769628827301
 20
42.04689773241984
 30
0.0
 40
1.8
  1
PRODUCT TYPE
 50
359.9999079999998
 41
0.4600000000000001
  7
TSTYLE1
100
AcDbText
  0
TEXT
  5
51BC
330
A
100
AcDbEntity
  8
CARTOUCHE
  6
CONTINUOUS
100
AcDbText
 10
96.64860688273018
 20
26.23523673241983
 30
0.0
 40
1.8
  1
REV.
 50
359.9999079999998
 41
0.4600000000000001
  7
TSTYLE1
100
AcDbText
  0
TEXT
  5
51BD
330
A
100
AcDbEntity
  8
CARTOUCHE
  6
CONTINUOUS
100
AcDbText
 10
148.07410588273
 20
26.23515673241984
 30
0.0
 40
1.8
  1
DATE
 50
359.9999079999998
 41
0.4600000000000001
  7
TSTYLE1
100
AcDbText
  0
TEXT
  5
51BE
330
A
100
AcDbEntity
  8
CARTOUCHE
  6
CONTINUOUS
100
AcDbText
 10
199.03158688273
 20
26.23507873241984
 30
0.0
 40
1.8
  1
SCALE
 50
359.9999079999998
 41
0.4600000000000001
  7
TSTYLE1
100
AcDbText
  0
DIMENSION
  5
51BF
330
A
100
AcDbEntity
  8
DIM
  6
CONTINUOUS
100
AcDbDimension
  2
*D54
 10
144.0193355469774
 20
130.9217749597401
 30
0.0
 11
133.1193515469773
 21
130.9217749597401
 31
0.0
 70
   161
  1
<>
  3
DSTYLE5
100
AcDbAlignedDimension
 13
143.5193355469774
 23
135.17762295974
 33
0.0
 14
144.0193355469774
 24
135.17762295974
 34
0.0
  0
LINE
  5
51C0
330
A
100
AcDbEntity
  8
DRAW
  6
CONTINUOUS
100
AcDbLine
 10
156.8444328827301
 20
142.3499877324197
 30
0.0
 11
145.8805488827301
 21
142.3499877324197
 31
0.0
  0
DIMENSION
  5
51C1
330
A
100
AcDbEntity
  8
DIM
  6
CONTINUOUS
100
AcDbDimension
  2
*D55
 10
103.4589228827301
 20
132.7941397324198
 30
0.0
 11
113.1239918827301
 21
132.7941397324198
 31
0.0
 70
   160
  1
<>
  3
DSTYLE6
100
AcDbAlignedDimension
 13
105.4589228827301
 23
138.5499807324197
 33
0.0
 14
103.4589228827301
 24
138.5499807324197
 34
0.0
 50
180.0
100
AcDbRotatedDimension
  0
LINE
  5
51C2
330
A
100
AcDbEntity
  8
DRAW
  6
CONTINUOUS
100
AcDbLine
 10
110.9589228827301
 20
142.3499807324198
 30
0.0
 11
118.7076298827302
 21
142.3499807324198
 31
0.0
  0
LINE
  5
51C3
330
A
100
AcDbEntity
  8
DRAW
  6
CONTINUOUS
100
AcDbLine
 10
99.0950988827301
 20
142.3499807324198
 30
0.0
 11
99.16882488273017
 21
148.7499807324198
 31
0.0
  0
LINE
  5
51C4
330
A
100
AcDbEntity
  8
DRAW
  6
CONTINUOUS
100
AcDbLine
 10
100.21021488273
 20
142.3499807324198
 30
0.0
 11
107.9589228827301
 21
142.3499807324198
 31
0.0
  0
LINE
  5
51C5
330
A
100
AcDbEntity
  8
DRAW
  6
CONTINUOUS
100
AcDbLine
 10
102.6089228827302
 20
138.5499807324197
 30
0.0
 11
102.6089228827302
 21
142.1499807324198
 31
0.0
  0
LINE
  5
51C6
330
A
100
AcDbEntity
  8
DRAW
  6
CONTINUOUS
100
AcDbLine
 10
102.1089228827301
 20
142.1499807324198
 30
0.0
 11
102.1089228827301
 21
138.5499807324197
 31
0.0
  0
LINE
  5
51C7
330
A
100
AcDbEntity
  8
DRAW
  6
CONTINUOUS
100
AcDbLine
 10
102.1089228827301
 20
138.5499807324197
 30
0.0
 11
102.1089228827301
 21
137.5499807324197
 31
0.0
  0
LINE
  5
51C8
330
A
100
AcDbEntity
  8
DRAW
  6
CONTINUOUS
100
AcDbLine
 10
102.6089228827302
 20
138.5499807324197
 30
0.0
 11
102.6089228827302
 21
137.5499807324197
 31
0.0
  0
LINE
  5
51C9
330
A
100
AcDbEntity
  8
DRAW
  6
CONTINUOUS
100
AcDbLine
 10
102.1089228827301
 20
137.5499807324197
 30
0.0
 11
102.6089228827302
 21
137.5499807324197
 31
0.0
  0
POINT
  5
51CA
330
A
100
AcDbEntity
  8
DRAW
  6
CONTINUOUS
100
AcDbPoint
 10
99.0950988827301
 20
142.3499807324198
 30
0.0
  0
ARC
  5
51CB
330
A
100
AcDbEntity
  8
DRAW
  6
CONTINUOUS
100
AcDbCircle
 10
99.58509888273013
 20
142.3399807324198
 30
0.0
 40
0.4900000000000002
100
AcDbArc
 50
180.0
 51
270.0
  0
LINE
  5
51CC
330
A
100
AcDbEntity
  8
DRAW
  6
CONTINUOUS
100
AcDbLine
 10
99.58509888273013
 20
141.8499807324198
 30
0.0
 11
100.04408688273
 21
141.8499807324198
 31
0.0
  0
LINE
  5
51CD
330
A
100
AcDbEntity
  8
DRAW
  6
CONTINUOUS
100
AcDbLine
 10
99.0950988827301
 20
142.3499807324198
 30
0.0
 11
99.0950988827301
 21
142.3399807324198
 31
0.0
  0
LINE
  5
51CE
330
A
100
AcDbEntity
  8
DRAW
  6
CONTINUOUS
100
AcDbLine
 10
100.21021488273
 20
142.3499807324198
 30
0.0
 11
100.04408688273
 21
141.8499807324198
 31
0.0
  0
LINE
  5
51CF
330
A
100
AcDbEntity
  8
DRAW
  6
CONTINUOUS
100
AcDbLine
 10
100.21021488273
 20
142.3499807324198
 30
0.0
 11
99.0950988827301
 21
142.3499807324198
 31
0.0
  0
LINE
  5
51D0
330
A
100
AcDbEntity
  8
DRAW
  6
CONTINUOUS
100
AcDbLine
 10
102.1089228827301
 20
142.1499807324198
 30
0.0
 11
102.1089228827301
 21
142.3499807324198
 31
0.0
  0
LINE
  5
51D1
330
A
100
AcDbEntity
  8
DRAW
  6
CONTINUOUS
100
AcDbLine
 10
102.6089228827302
 20
142.1499807324198
 30
0.0
 11
102.6089228827302
 21
142.3499807324198
 31
0.0
  0
LINE
  5
51D2
330
A
100
AcDbEntity
  8
DRAW
  6
CONTINUOUS
100
AcDbLine
 10
115.4589228827301
 20
138.5499807324197
 30
0.0
 11
115.4589228827301
 21
142.1499807324198
 31
0.0
  0
LINE
  5
51D3
330
A
100
AcDbEntity
  8
DRAW
  6
CONTINUOUS
100
AcDbLine
 10
113.4589228827301
 20
142.1499807324198
 30
0.0
 11
113.4589228827301
 21
138.5499807324197
 31
0.0
  0
LINE
  5
51D4
330
A
100
AcDbEntity
  8
DRAW
  6
CONTINUOUS
100
AcDbLine
 10
105.4589228827301
 20
138.5499807324197
 30
0.0
 11
105.4589228827301
 21
142.1499807324198
 31
0.0
  0
LINE
  5
51D5
330
A
100
AcDbEntity
  8
DRAW
  6
CONTINUOUS
100
AcDbLine
 10
103.4589228827301
 20
142.1499807324198
 30
0.0
 11
103.4589228827301
 21
138.5499807324197
 31
0.0
  0
LINE
  5
51D6
330
A
100
AcDbEntity
  8
DRAW
  6
CONTINUOUS
100
AcDbLine
 10
116.8089218827301
 20
142.1499807324198
 30
0.0
 11
116.8089218827301
 21
138.5499807324197
 31
0.0
  0
LINE
  5
51D7
330
A
100
AcDbEntity
  8
DRAW
  6
CONTINUOUS
100
AcDbLine
 10
116.30892188273
 20
138.5499807324197
 30
0.0
 11
116.30892188273
 21
142.1499807324198
 31
0.0
  0
LINE
  5
51D8
330
A
100
AcDbEntity
  8
DRAW
  6
CONTINUOUS
100
AcDbLine
 10
105.4589228827301
 20
138.5499807324197
 30
0.0
 11
104.4589228827301
 21
137.5499807324197
 31
0.0
  0
LINE
  5
51D9
330
A
100
AcDbEntity
  8
DRAW
  6
CONTINUOUS
100
AcDbLine
 10
103.4589228827301
 20
138.5499807324197
 30
0.0
 11
104.4589228827301
 21
137.5499807324197
 31
0.0
  0
LINE
  5
51DA
330
A
100
AcDbEntity
  8
DRAW
  6
CONTINUOUS
100
AcDbLine
 10
115.4589228827301
 20
138.5499807324197
 30
0.0
 11
114.4589228827301
 21
137.5499807324197
 31
0.0
  0
LINE
  5
51DB
330
A
100
AcDbEntity
  8
DRAW
  6
CONTINUOUS
100
AcDbLine
 10
113.4589228827301
 20
138.5499807324197
 30
0.0
 11
114.4589228827301
 21
137.5499807324197
 31
0.0
  0
LINE
  5
51DC
330
A
100
AcDbEntity
  8
DRAW
  6
CONTINUOUS
100
AcDbLine
 10
116.30892188273
 20
138.5499807324197
 30
0.0
 11
116.30892188273
 21
137.5499807324197
 31
0.0
  0
LINE
  5
51DD
330
A
100
AcDbEntity
  8
DRAW
  6
CONTINUOUS
100
AcDbLine
 10
116.8089218827301
 20
137.5499807324197
 30
0.0
 11
116.30892188273
 21
137.5499807324197
 31
0.0
  0
LINE
  5
51DE
330
A
100
AcDbEntity
  8
DRAW
  6
CONTINUOUS
100
AcDbLine
 10
116.8089218827301
 20
138.5499807324197
 30
0.0
 11
116.8089218827301
 21
137.5499807324197
 31
0.0
  0
ARC
  5
51DF
330
A
100
AcDbEntity
  8
DRAW
  6
CONTINUOUS
100
AcDbCircle
 10
110.4589228827301
 20
142.3499807324198
 30
0.0
 40
0.5
100
AcDbArc
 50
270.0
 51
0.0
  0
LINE
  5
51E0
330
A
100
AcDbEntity
  8
DRAW
  6
CONTINUOUS
100
AcDbLine
 10
110.4589228827301
 20
141.8499807324198
 30
0.0
 11
108.4589228827301
 21
141.8499807324198
 31
0.0
  0
ARC
  5
51E1
330
A
100
AcDbEntity
  8
DRAW
  6
CONTINUOUS
100
AcDbCircle
 10
108.4589228827301
 20
142.3499807324198
 30
0.0
 40
0.5
100
AcDbArc
 50
180.0
 51
270.0
  0
ARC
  5
51E2
330
A
100
AcDbEntity
  8
DRAW
  6
CONTINUOUS
100
AcDbCircle
 10
105.65892288273
 20
142.1499807324198
 30
0.0
 40
0.2
100
AcDbArc
 50
90.0
 51
180.0
  0
ARC
  5
51E3
330
A
100
AcDbEntity
  8
DRAW
  6
CONTINUOUS
100
AcDbCircle
 10
103.2589228827301
 20
142.1499807324198
 30
0.0
 40
0.2
100
AcDbArc
 50
0.0
 51
90.0
  0
ARC
  5
51E4
330
A
100
AcDbEntity
  8
DRAW
  6
CONTINUOUS
100
AcDbCircle
 10
115.65892288273
 20
142.1499807324198
 30
0.0
 40
0.2
100
AcDbArc
 50
90.0
 51
180.0
  0
ARC
  5
51E5
330
A
100
AcDbEntity
  8
DRAW
  6
CONTINUOUS
100
AcDbCircle
 10
113.2589228827301
 20
142.1499807324198
 30
0.0
 40
0.2
100
AcDbArc
 50
0.0
 51
90.0
  0
LINE
  5
51E6
330
A
100
AcDbEntity
  8
DRAW
  6
CONTINUOUS
100
AcDbLine
 10
116.30892188273
 20
142.1499807324198
 30
0.0
 11
116.30892188273
 21
142.3499807324198
 31
0.0
  0
LINE
  5
51E7
330
A
100
AcDbEntity
  8
DRAW
  6
CONTINUOUS
100
AcDbLine
 10
116.8089218827301
 20
142.1499807324198
 30
0.0
 11
116.8089218827301
 21
142.3499807324198
 31
0.0
  0
LINE
  5
51E8
330
A
100
AcDbEntity
  8
DRAW
  6
CONTINUOUS
100
AcDbLine
 10
100.0687648827301
 20
148.7499807324198
 30
0.0
 11
100.66961488273
 21
148.7499807324198
 31
0.0
  0
LINE
  5
51E9
330
A
100
AcDbEntity
  8
DRAW
  6
CONTINUOUS
100
AcDbLine
 10
100.0687648827301
 20
148.7499807324198
 30
0.0
 11
99.16882488273017
 21
148.7499807324198
 31
0.0
  0
LINE
  5
51EA
330
A
100
AcDbEntity
  8
DRAW
  6
CONTINUOUS
100
AcDbLine
 10
130.09045188273
 20
148.7499877324198
 30
0.0
 11
130.01672588273
 21
142.3499877324197
 31
0.0
  0
LINE
  5
51EB
330
A
100
AcDbEntity
  8
DRAW
  6
CONTINUOUS
100
AcDbLine
 10
119.7490198827301
 20
148.7499807324198
 30
0.0
 11
119.8227458827302
 21
142.3499807324198
 31
0.0
  0
LINE
  5
51EC
330
A
100
AcDbEntity
  8
DRAW
  6
CONTINUOUS
100
AcDbLine
 10
130.9166658827301
 20
142.3499877324197
 30
0.0
 11
141.88054888273
 21
142.3499877324197
 31
0.0
  0
POINT
  5
51ED
330
A
100
AcDbEntity
  8
DRAW
  6
CONTINUOUS
100
AcDbPoint
 10
119.8226798827302
 20
142.3557397324198
 30
0.0
  0
ARC
  5
51EE
330
A
100
AcDbEntity
  8
DRAW
  6
CONTINUOUS
100
AcDbCircle
 10
119.3227458827301
 20
142.3499807324198
 30
0.0
 40
0.5
100
AcDbArc
 50
270.0
 51
0.0
  0
LINE
  5
51EF
330
A
100
AcDbEntity
  8
DRAW
  6
CONTINUOUS
100
AcDbLine
 10
118.8737578827301
 20
141.8499807324198
 30
0.0
 11
119.3227458827301
 21
141.8499807324198
 31
0.0
  0
LINE
  5
51F0
330
A
100
AcDbEntity
  8
DRAW
  6
CONTINUOUS
100
AcDbLine
 10
118.7076298827302
 20
142.3499807324198
 30
0.0
 11
118.8737578827301
 21
141.8499807324198
 31
0.0
  0
LINE
  5
51F1
330
A
100
AcDbEntity
  8
DRAW
  6
CONTINUOUS
100
AcDbLine
 10
119.8227458827302
 20
142.3499807324198
 30
0.0
 11
118.7076298827302
 21
142.3499807324198
 31
0.0
  0
POINT
  5
51F2
330
A
100
AcDbEntity
  8
DRAW
  6
CONTINUOUS
100
AcDbPoint
 10
130.0167248827301
 20
141.8499877324198
 30
0.0
  0
LINE
  5
51F3
330
A
100
AcDbEntity
  8
DRAW
  6
CONTINUOUS
100
AcDbLine
 10
130.6263598827301
 20
142.3499877324197
 30
0.0
 11
130.01672588273
 21
142.3499877324197
 31
0.0
  0
LINE
  5
51F4
330
A
100
AcDbEntity
  8
DRAW
  6
CONTINUOUS
100
AcDbLine
 10
130.0167248827301
 20
142.3499877324197
 30
0.0
 11
130.0167248827301
 21
141.8499877324198
 31
0.0
  0
LINE
  5
51F5
330
A
100
AcDbEntity
  8
DRAW
  6
CONTINUOUS
100
AcDbLine
 10
130.6263598827301
 20
142.3499877324197
 30
0.0
 11
130.6263598827301
 21
141.8499877324198
 31
0.0
  0
LINE
  5
51F6
330
A
100
AcDbEntity
  8
DRAW
  6
CONTINUOUS
100
AcDbLine
 10
130.6263598827301
 20
141.8499877324198
 30
0.0
 11
130.0167248827301
 21
141.8499877324198
 31
0.0
  0
LINE
  5
51F7
330
A
100
AcDbEntity
  8
DRAW
  6
CONTINUOUS
100
AcDbLine
 10
130.9166658827301
 20
142.3499877324197
 30
0.0
 11
130.6263598827301
 21
142.3499877324197
 31
0.0
  0
LINE
  5
51F8
330
A
100
AcDbEntity
  8
DRAW
  6
CONTINUOUS
100
AcDbLine
 10
142.9805488827301
 20
138.5499877324197
 30
0.0
 11
142.9805488827301
 21
141.8499877324198
 31
0.0
  0
LINE
  5
51F9
330
A
100
AcDbEntity
  8
DRAW
  6
CONTINUOUS
100
AcDbLine
 10
134.9805488827302
 20
138.5499877324197
 30
0.0
 11
134.9805488827302
 21
142.1499877324198
 31
0.0
  0
LINE
  5
51FA
330
A
100
AcDbEntity
  8
DRAW
  6
CONTINUOUS
100
AcDbLine
 10
136.9805488827302
 20
142.1499877324198
 30
0.0
 11
136.9805488827302
 21
138.5499877324197
 31
0.0
  0
LINE
  5
51FB
330
A
100
AcDbEntity
  8
DRAW
  6
CONTINUOUS
100
AcDbLine
 10
143.4805488827301
 20
138.5499877324197
 30
0.0
 11
143.4805488827301
 21
141.8499877324198
 31
0.0
  0
LINE
  5
51FC
330
A
100
AcDbEntity
  8
DRAW
  6
CONTINUOUS
100
AcDbLine
 10
136.9805488827302
 20
138.5499877324197
 30
0.0
 11
135.9805488827302
 21
137.5499877324197
 31
0.0
  0
LINE
  5
51FD
330
A
100
AcDbEntity
  8
DRAW
  6
CONTINUOUS
100
AcDbLine
 10
134.9805488827302
 20
138.5499877324197
 30
0.0
 11
135.9805488827302
 21
137.5499877324197
 31
0.0
  0
LINE
  5
51FE
330
A
100
AcDbEntity
  8
DRAW
  6
CONTINUOUS
100
AcDbLine
 10
142.9805488827301
 20
137.5499877324197
 30
0.0
 11
143.4805488827301
 21
137.5499877324197
 31
0.0
  0
LINE
  5
51FF
330
A
100
AcDbEntity
  8
DRAW
  6
CONTINUOUS
100
AcDbLine
 10
143.4805488827301
 20
137.5499877324197
 30
0.0
 11
143.4805488827301
 21
138.5499877324197
 31
0.0
  0
LINE
  5
5200
330
A
100
AcDbEntity
  8
DRAW
  6
CONTINUOUS
100
AcDbLine
 10
142.9805488827301
 20
137.5499877324197
 30
0.0
 11
142.9805488827301
 21
138.5499877324197
 31
0.0
  0
ARC
  5
5201
330
A
100
AcDbEntity
  8
DRAW
  6
CONTINUOUS
100
AcDbCircle
 10
134.7805488827301
 20
142.1499877324198
 30
0.0
 40
0.2
100
AcDbArc
 50
0.0
 51
90.0
  0
ARC
  5
5202
330
A
100
AcDbEntity
  8
DRAW
  6
CONTINUOUS
100
AcDbCircle
 10
137.1805488827301
 20
142.1499877324198
 30
0.0
 40
0.2
100
AcDbArc
 50
90.0
 51
180.0
  0
ARC
  5
5203
330
A
100
AcDbEntity
  8
DRAW
  6
CONTINUOUS
100
AcDbCircle
 10
142.3805488827301
 20
142.3499877324197
 30
0.0
 40
0.5
100
AcDbArc
 50
180.0
 51
270.0
  0
ARC
  5
5204
330
A
100
AcDbEntity
  8
DRAW
  6
CONTINUOUS
100
AcDbCircle
 10
145.3805488827301
 20
142.3499877324197
 30
0.0
 40
0.5
100
AcDbArc
 50
270.0
 51
0.0
  0
LINE
  5
5205
330
A
100
AcDbEntity
  8
DRAW
  6
CONTINUOUS
100
AcDbLine
 10
145.3805488827301
 20
141.8499877324198
 30
0.0
 11
142.3805488827301
 21
141.8499877324198
 31
0.0
  0
LINE
  5
5206
330
A
100
AcDbEntity
  8
DRAW
  6
CONTINUOUS
100
AcDbLine
 10
118.8490798827301
 20
148.7499807324198
 30
0.0
 11
118.2341098827301
 21
148.7499807324198
 31
0.0
  0
LINE
  5
5207
330
A
100
AcDbEntity
  8
DRAW
  6
CONTINUOUS
100
AcDbLine
 10
119.7490198827301
 20
148.7499807324198
 30
0.0
 11
118.8490798827301
 21
148.7499807324198
 31
0.0
  0
LINE
  5
5208
330
A
100
AcDbEntity
  8
DRAW
  6
CONTINUOUS
100
AcDbLine
 10
131.2053618827301
 20
148.7499877324198
 30
0.0
 11
130.9903918827302
 21
148.7499877324198
 31
0.0
  0
LINE
  5
5209
330
A
100
AcDbEntity
  8
DRAW
  6
CONTINUOUS
100
AcDbLine
 10
130.9903918827302
 20
148.7499877324198
 30
0.0
 11
130.09045188273
 21
148.7499877324198
 31
0.0
  0
DIMENSION
  5
520A
330
A
100
AcDbEntity
  8
DIM
  6
CONTINUOUS
100
AcDbDimension
  2
*D56
 10
162.4091728827302
 20
137.5499877324197
 30
0.0
 11
162.4091728827302
 21
129.8982824118195
 31
0.0
 70
   160
  1
<>
  3
DSTYLE4
100
AcDbAlignedDimension
 13
157.7443728827301
 23
141.8499877324198
 33
0.0
 14
149.38054888273
 24
137.5499877324197
 34
0.0
 50
90.0
100
AcDbRotatedDimension
  0
LINE
  5
520B
330
A
100
AcDbEntity
  8
DRAW
  6
CONTINUOUS
100
AcDbLine
 10
157.7443728827301
 20
142.3499877324197
 30
0.0
 11
157.6706468827301
 21
148.7499877324198
 31
0.0
  0
LINE
  5
520C
330
A
100
AcDbEntity
  8
DRAW
  6
CONTINUOUS
100
AcDbLine
 10
154.13054888273
 20
142.1499877324198
 30
0.0
 11
154.13054888273
 21
138.5499877324197
 31
0.0
  0
LINE
  5
520D
330
A
100
AcDbEntity
  8
DRAW
  6
CONTINUOUS
100
AcDbLine
 10
153.63054888273
 20
142.1499877324198
 30
0.0
 11
153.63054888273
 21
138.5499877324197
 31
0.0
  0
LINE
  5
520E
330
A
100
AcDbEntity
  8
DRAW
  6
CONTINUOUS
100
AcDbLine
 10
149.38054888273
 20
142.1499877324198
 30
0.0
 11
149.38054888273
 21
138.5499877324197
 31
0.0
  0
LINE
  5
520F
330
A
100
AcDbEntity
  8
DRAW
  6
CONTINUOUS
100
AcDbLine
 10
148.8805488827301
 20
142.1499877324198
 30
0.0
 11
148.8805488827301
 21
138.5499877324197
 31
0.0
  0
LINE
  5
5210
330
A
100
AcDbEntity
  8
DRAW
  6
CONTINUOUS
100
AcDbLine
 10
153.63054888273
 20
137.5499877324197
 30
0.0
 11
154.13054888273
 21
137.5499877324197
 31
0.0
  0
POINT
  5
5211
330
A
100
AcDbEntity
  8
DRAW
  6
CONTINUOUS
100
AcDbPoint
 10
149.38054888273
 20
137.5499877324197
 30
0.0
  0
LINE
  5
5212
330
A
100
AcDbEntity
  8
DRAW
  6
CONTINUOUS
100
AcDbLine
 10
153.63054888273
 20
138.5499877324197
 30
0.0
 11
153.63054888273
 21
137.5499877324197
 31
0.0
  0
LINE
  5
5213
330
A
100
AcDbEntity
  8
DRAW
  6
CONTINUOUS
100
AcDbLine
 10
148.8805488827301
 20
137.5499877324197
 30
0.0
 11
149.38054888273
 21
137.5499877324197
 31
0.0
  0
LINE
  5
5214
330
A
100
AcDbEntity
  8
DRAW
  6
CONTINUOUS
100
AcDbLine
 10
149.38054888273
 20
138.5499877324197
 30
0.0
 11
149.38054888273
 21
137.5499877324197
 31
0.0
  0
LINE
  5
5215
330
A
100
AcDbEntity
  8
DRAW
  6
CONTINUOUS
100
AcDbLine
 10
148.8805488827301
 20
138.5499877324197
 30
0.0
 11
148.8805488827301
 21
137.5499877324197
 31
0.0
  0
LINE
  5
5216
330
A
100
AcDbEntity
  8
DRAW
  6
CONTINUOUS
100
AcDbLine
 10
154.13054888273
 20
138.5499877324197
 30
0.0
 11
154.13054888273
 21
137.5499877324197
 31
0.0
  0
LINE
  5
5217
330
A
100
AcDbEntity
  8
DRAW
  6
CONTINUOUS
100
AcDbLine
 10
153.63054888273
 20
142.1499877324198
 30
0.0
 11
153.63054888273
 21
142.3499877324197
 31
0.0
  0
LINE
  5
5218
330
A
100
AcDbEntity
  8
DRAW
  6
CONTINUOUS
100
AcDbLine
 10
148.8805488827301
 20
142.1499877324198
 30
0.0
 11
148.8805488827301
 21
142.3499877324197
 31
0.0
  0
LINE
  5
5219
330
A
100
AcDbEntity
  8
DRAW
  6
CONTINUOUS
100
AcDbLine
 10
149.38054888273
 20
142.1499877324198
 30
0.0
 11
149.38054888273
 21
142.3499877324197
 31
0.0
  0
POINT
  5
521A
330
A
100
AcDbEntity
  8
DRAW
  6
CONTINUOUS
100
AcDbPoint
 10
157.7443728827301
 20
141.8499877324198
 30
0.0
  0
POINT
  5
521B
330
A
100
AcDbEntity
  8
DRAW
  6
CONTINUOUS
100
AcDbPoint
 10
157.7443728827301
 20
141.8499877324198
 30
0.0
  0
POINT
  5
521C
330
A
100
AcDbEntity
  8
DRAW
  6
CONTINUOUS
100
AcDbPoint
 10
157.7443728827301
 20
141.8499877324198
 30
0.0
  0
LINE
  5
521D
330
A
100
AcDbEntity
  8
DRAW
  6
CONTINUOUS
100
AcDbLine
 10
154.13054888273
 20
142.1499877324198
 30
0.0
 11
154.13054888273
 21
142.3499877324197
 31
0.0
  0
LINE
  5
521E
330
A
100
AcDbEntity
  8
DRAW
  6
CONTINUOUS
100
AcDbLine
 10
156.8410208827301
 20
142.3499877324197
 30
0.0
 11
156.8410208827301
 21
141.8499877324198
 31
0.0
  0
LINE
  5
521F
330
A
100
AcDbEntity
  8
DRAW
  6
CONTINUOUS
100
AcDbLine
 10
157.7443728827301
 20
142.3499877324197
 30
0.0
 11
157.7443728827301
 21
141.8499877324198
 31
0.0
  0
LINE
  5
5220
330
A
100
AcDbEntity
  8
DRAW
  6
CONTINUOUS
100
AcDbLine
 10
157.7443728827301
 20
141.8499877324198
 30
0.0
 11
156.8410208827301
 21
141.8499877324198
 31
0.0
  0
LINE
  5
5221
330
A
100
AcDbEntity
  8
DRAW
  6
CONTINUOUS
100
AcDbLine
 10
157.7443728827301
 20
142.3499877324197
 30
0.0
 11
156.8444328827301
 21
142.3499877324197
 31
0.0
  0
LINE
  5
5222
330
A
100
AcDbEntity
  8
DRAW
  6
CONTINUOUS
100
AcDbLine
 10
157.6706468827301
 20
148.7499877324198
 30
0.0
 11
156.7707068827301
 21
148.7499877324198
 31
0.0
  0
LINE
  5
5223
330
A
100
AcDbEntity
  8
DRAW
  6
CONTINUOUS
100
AcDbLine
 10
156.1698568827301
 20
148.7499877324198
 30
0.0
 11
156.7707068827301
 21
148.7499877324198
 31
0.0
  0
LINE
  5
5224
330
A
100
AcDbEntity
  8
CARTOUCHE
  6
CONTINUOUS
100
AcDbLine
 10
27.92774288273017
 20
301.6109317324199
 30
0.0
 11
227.92751688273
 21
301.6111147324198
 31
0.0
  0
INSERT
  5
5225
330
A
100
AcDbEntity
  8
DRAW
100
AcDbBlockReference
  2
LW_POLYLINE_16
 10
-514.3362191172696
 20
44.62733873241984
 30
0.0
  0
LINE
  5
5226
330
A
100
AcDbEntity
  8
DRAW
  6
CONTINUOUS
100
AcDbLine
 10
131.5503818827301
 20
178.1499877324198
 30
0.0
 11
153.4305488827301
 21
178.1499877324198
 31
0.0
  0
LINE
  5
5227
330
A
100
AcDbEntity
  8
DRAW
  6
CONTINUOUS
100
AcDbLine
 10
117.8890898827302
 20
178.1499807324198
 30
0.0
 11
109.1089228827301
 21
178.1499807324198
 31
0.0
  0
LINE
  5
5228
330
A
100
AcDbEntity
  8
DRAW
  6
CONTINUOUS
100
AcDbLine
 10
100.7275998827302
 20
176.9499807324198
 30
0.0
 11
109.1089228827301
 21
176.9499807324198
 31
0.0
  0
LINE
  5
5229
330
A
100
AcDbEntity
  8
DRAW
  6
CONTINUOUS
100
AcDbLine
 10
104.5089228827301
 20
178.6499807324197
 30
0.0
 11
103.0089228827301
 21
178.6499807324197
 31
0.0
  0
LINE
  5
522A
330
A
100
AcDbEntity
  8
DRAW
  6
CONTINUOUS
100
AcDbLine
 10
100.75892288273
 20
176.9499787324198
 30
0.0
 11
100.75892288273
 21
178.1499807324198
 31
0.0
  0
LINE
  5
522B
330
A
100
AcDbEntity
  8
DRAW
  6
CONTINUOUS
100
AcDbLine
 10
102.2589228827301
 20
176.9499787324198
 30
0.0
 11
102.2589228827301
 21
178.1499807324198
 31
0.0
  0
LINE
  5
522C
330
A
100
AcDbEntity
  8
DRAW
  6
CONTINUOUS
100
AcDbLine
 10
103.0089228827301
 20
176.9499807324198
 30
0.0
 11
103.0089228827301
 21
178.1499807324198
 31
0.0
  0
LINE
  5
522D
330
A
100
AcDbEntity
  8
DRAW
  6
CONTINUOUS
100
AcDbLine
 10
100.75892288273
 20
178.1499807324198
 30
0.0
 11
100.75892288273
 21
178.6499807324197
 31
0.0
  0
LINE
  5
522E
330
A
100
AcDbEntity
  8
DRAW
  6
CONTINUOUS
100
AcDbLine
 10
103.0089228827301
 20
178.1499807324198
 30
0.0
 11
103.0089228827301
 21
178.6499807324197
 31
0.0
  0
LINE
  5
522F
330
A
100
AcDbEntity
  8
DRAW
  6
CONTINUOUS
100
AcDbLine
 10
99.50180988273018
 20
177.6557397324198
 30
0.0
 11
99.49367988273024
 21
176.9499807324198
 31
0.0
  0
LINE
  5
5230
330
A
100
AcDbEntity
  8
DRAW
  6
CONTINUOUS
100
AcDbLine
 10
100.0017768827301
 20
178.1499807324198
 30
0.0
 11
100.75892288273
 21
178.1499807324198
 31
0.0
  0
LINE
  5
5231
330
A
100
AcDbEntity
  8
DRAW
  6
CONTINUOUS
100
AcDbLine
 10
102.2589228827301
 20
178.1499807324198
 30
0.0
 11
103.0089228827301
 21
178.1499807324198
 31
0.0
  0
ARC
  5
5232
330
A
100
AcDbEntity
  8
DRAW
  6
CONTINUOUS
100
AcDbCircle
 10
100.0017768827301
 20
177.6499807324197
 30
0.0
 40
0.5
100
AcDbArc
 50
90.0
 51
179.34
  0
LINE
  5
5233
330
A
100
AcDbEntity
  8
DRAW
  6
CONTINUOUS
100
AcDbLine
 10
102.2589228827301
 20
178.6499807324197
 30
0.0
 11
100.75892288273
 21
178.6499807324197
 31
0.0
  0
LINE
  5
5234
330
A
100
AcDbEntity
  8
DRAW
  6
CONTINUOUS
100
AcDbLine
 10
100.7275998827302
 20
176.9499807324198
 30
0.0
 11
99.49367988273024
 21
176.9499807324198
 31
0.0
  0
LINE
  5
5235
330
A
100
AcDbEntity
  8
DRAW
  6
CONTINUOUS
100
AcDbLine
 10
102.2589228827301
 20
178.1499807324198
 30
0.0
 11
102.2589228827301
 21
178.6499807324197
 31
0.0
  0
LINE
  5
5236
330
A
100
AcDbEntity
  8
DRAW
  6
CONTINUOUS
100
AcDbLine
 10
104.5089228827301
 20
176.9499807324198
 30
0.0
 11
104.5089228827301
 21
178.1499807324198
 31
0.0
  0
LINE
  5
5237
330
A
100
AcDbEntity
  8
DRAW
  6
CONTINUOUS
100
AcDbLine
 10
104.5089228827301
 20
178.1499807324198
 30
0.0
 11
104.5089228827301
 21
178.6499807324197
 31
0.0
  0
LINE
  5
5238
330
A
100
AcDbEntity
  8
DRAW
  6
CONTINUOUS
100
AcDbLine
 10
104.5089228827301
 20
178.1499807324198
 30
0.0
 11
107.2589228827302
 21
178.1499807324198
 31
0.0
  0
LINE
  5
5239
330
A
100
AcDbEntity
  8
DRAW
  6
CONTINUOUS
100
AcDbLine
 10
109.1089228827301
 20
177.6557397324198
 30
0.0
 11
109.1089228827301
 21
176.9499807324198
 31
0.0
  0
LINE
  5
523A
330
A
100
AcDbEntity
  8
DRAW
  6
CONTINUOUS
100
AcDbLine
 10
109.1089228827301
 20
177.6557397324198
 30
0.0
 11
109.1089228827301
 21
178.1499807324198
 31
0.0
  0
LINE
  5
523B
330
A
100
AcDbEntity
  8
DRAW
  6
CONTINUOUS
100
AcDbLine
 10
107.2589228827302
 20
178.1499807324198
 30
0.0
 11
109.1089228827301
 21
178.1499807324198
 31
0.0
  0
LINE
  5
523C
330
A
100
AcDbEntity
  8
DRAW
  6
CONTINUOUS
100
AcDbLine
 10
113.3089228827301
 20
178.6499807324197
 30
0.0
 11
115.90892288273
 21
178.6499807324197
 31
0.0
  0
LINE
  5
523D
330
A
100
AcDbEntity
  8
DRAW
  6
CONTINUOUS
100
AcDbLine
 10
116.1089228827302
 20
178.1499807324198
 30
0.0
 11
116.1089228827302
 21
178.6499807324197
 31
0.0
  0
LINE
  5
523E
330
A
100
AcDbEntity
  8
DRAW
  6
CONTINUOUS
100
AcDbLine
 10
115.90892288273
 20
178.6499807324197
 30
0.0
 11
116.1089228827302
 21
178.6499807324197
 31
0.0
  0
LINE
  5
523F
330
A
100
AcDbEntity
  8
DRAW
  6
CONTINUOUS
100
AcDbLine
 10
113.1089228827302
 20
178.1499807324198
 30
0.0
 11
113.1089228827302
 21
178.6499807324197
 31
0.0
  0
LINE
  5
5240
330
A
100
AcDbEntity
  8
DRAW
  6
CONTINUOUS
100
AcDbLine
 10
113.3089228827301
 20
178.6499807324197
 30
0.0
 11
113.1089228827302
 21
178.6499807324197
 31
0.0
  0
LINE
  5
5241
330
A
100
AcDbEntity
  8
DRAW
  6
CONTINUOUS
100
AcDbLine
 10
117.8890898827302
 20
178.1499807324198
 30
0.0
 11
118.9160678827302
 21
178.1499807324198
 31
0.0
  0
SPLINE
  5
5242
330
A
100
AcDbEntity
  8
DRAW
  6
CONTINUOUS
100
AcDbSpline
210
0.0
220
0.0
230
1.0
 70
     8
 71
     3
 72
    14
 73
    10
 74
     8
 42
0.0000000001
 43
0.0000000001
 44
0.000001
 12
1.0
 22
0.0
 32
0.0
 13
0.0047715544426401
 23
-0.9999886160693035
 33
0.0
 40
0.0
 40
0.0
 40
0.0
 40
0.0
 40
0.0455724309188498
 40
0.1001278795101135
 40
0.1683294882294894
 40
0.2516174651056948
 40
0.3491694792384826
 40
0.4577543802495479
 40
0.5725206577633577
 40
0.5725206577633577
 40
0.5725206577633577
 40
0.5725206577633577
 10
117.8890902397909
 20
178.1499804703305
 30
0.0
 10
117.9042810500971
 20
178.1499804703305
 30
0.0
 10
117.9378922087024
 20
178.1403094999611
 30
0.0
 10
117.9807682889278
 20
178.1024638589193
 30
0.0
 10
118.0188603526876
 20
178.0447289075503
 30
0.0
 10
118.051121237442
 20
177.9678515644542
 30
0.0
 10
118.0760630866911
 20
177.8744209535175
 30
0.0
 10
118.092148870472
 20
177.7684825318513
 30
0.0
 10
118.0960007426431
 20
177.6939949198292
 30
0.0
 10
118.0961832804903
 20
177.6557399294884
 30
0.0
 11
117.8890902397909
 21
178.1499804703305
 31
0.0
 11
117.933197643454
 21
178.1385161378891
 31
0.0
 11
117.9755991189282
 21
178.1041883533743
 31
0.0
 11
118.0143722795899
 21
178.0480804954104
 31
0.0
 11
118.0476099715695
 21
177.9717120720666
 31
0.0
 11
118.0734478154585
 21
177.8776440307987
 31
0.0
 11
118.0901030129636
 21
177.7703440689708
 31
0.0
 11
118.0961832804903
 21
177.6557399294884
 31
0.0
  0
ARC
  5
5243
330
A
100
AcDbEntity
  8
DRAW
  6
CONTINUOUS
100
AcDbCircle
 10
118.9160338827301
 20
177.6499457324198
 30
0.0
 40
0.500035
100
AcDbArc
 50
0.6639840000000011
 51
89.99601600000099
  0
SPLINE
  5
5244
330
A
100
AcDbEntity
  8
DRAW
  6
CONTINUOUS
100
AcDbSpline
210
0.0
220
0.0
230
1.0
 70
     8
 71
     3
 72
    14
 73
    10
 74
     8
 42
0.0000000001
 43
0.0000000001
 44
0.000001
 12
-1.0
 22
0.000000000000001
 32
0.0
 13
-0.0047715539388875
 23
-0.9999886160717073
 33
0.0
 40
0.0
 40
0.0
 40
0.0
 40
0.0
 40
0.0455740227562382
 40
0.1001285578304327
 40
0.1683245264245061
 40
0.2516179455934422
 40
0.3491670390938174
 40
0.4577585474698573
 40
0.5725202705661822
 40
0.5725202705661822
 40
0.5725202705661822
 40
0.5725202705661822
 10
131.5503816338287
 20
178.1499880997249
 30
0.0
 10
131.5351902929099
 20
178.1499880997249
 30
0.0
 10
131.5015788756179
 20
178.1403161170378
 30
0.0
 10
131.4587056992917
 20
178.1024704953945
 30
0.0
 10
131.4206092275105
 20
178.0447388253537
 30
0.0
 10
131.3883546762619
 20
177.9678597099716
 30
0.0
 10
131.3634042018405
 20
177.8744285527435
 30
0.0
 10
131.3473259950274
 20
177.7684888954769
 30
0.0
 10
131.3434711455672
 20
177.6940010311019
 30
0.0
 10
131.3432886149833
 20
177.6557475588828
 30
0.0
 11
131.5503816338287
 21
178.1499880997249
 31
0.0
 11
131.5062729171667
 21
178.1385224911365
 31
0.0
 11
131.4638727870425
 21
178.1041944966564
 31
0.0
 11
131.4251008270182
 21
178.0480926648229
 31
0.0
 11
131.3918627611925
 21
177.9717184688417
 31
0.0
 11
131.366022797591
 21
177.8776540386135
 31
0.0
 11
131.3493694087342
 21
177.7703471096485
 31
0.0
 11
131.3432886149833
 21
177.6557475588828
 31
0.0
  0
LINE
  5
5245
330
A
100
AcDbEntity
  8
DRAW
  6
CONTINUOUS
100
AcDbLine
 10
130.9234038827301
 20
178.1499877324198
 30
0.0
 11
131.5503818827301
 21
178.1499877324198
 31
0.0
  0
ARC
  5
5246
330
A
100
AcDbEntity
  8
DRAW
  6
CONTINUOUS
100
AcDbCircle
 10
130.9233948827301
 20
177.6499967324198
 30
0.0
 40
0.499991
100
AcDbArc
 50
89.99903299999772
 51
179.340968
  0
LINE
  5
5247
330
A
100
AcDbEntity
  8
DRAW
  6
CONTINUOUS
100
AcDbLine
 10
133.2305488827302
 20
178.1499877324198
 30
0.0
 11
133.2305488827302
 21
178.6499877324198
 31
0.0
  0
LINE
  5
5248
330
A
100
AcDbEntity
  8
DRAW
  6
CONTINUOUS
100
AcDbLine
 10
133.4305488827301
 20
178.6499877324198
 30
0.0
 11
136.03054888273
 21
178.6499877324198
 31
0.0
  0
LINE
  5
5249
330
A
100
AcDbEntity
  8
DRAW
  6
CONTINUOUS
100
AcDbLine
 10
133.4305488827301
 20
178.6499877324198
 30
0.0
 11
133.2305488827302
 21
178.6499877324198
 31
0.0
  0
LINE
  5
524A
330
A
100
AcDbEntity
  8
DRAW
  6
CONTINUOUS
100
AcDbLine
 10
136.03054888273
 20
178.6499877324198
 30
0.0
 11
136.2305488827302
 21
178.6499877324198
 31
0.0
  0
LINE
  5
524B
330
A
100
AcDbEntity
  8
DRAW
  6
CONTINUOUS
100
AcDbLine
 10
136.2305488827302
 20
178.1499877324198
 30
0.0
 11
136.2305488827302
 21
178.6499877324198
 31
0.0
  0
LINE
  5
524C
330
A
100
AcDbEntity
  8
DRAW
  6
CONTINUOUS
100
AcDbLine
 10
156.1118718827301
 20
176.9499877324198
 30
0.0
 11
153.4305488827301
 21
176.9499877324198
 31
0.0
  0
LINE
  5
524D
330
A
100
AcDbEntity
  8
DRAW
  6
CONTINUOUS
100
AcDbLine
 10
154.5305488827301
 20
178.1499877324198
 30
0.0
 11
153.4305488827301
 21
178.1499877324198
 31
0.0
  0
LINE
  5
524E
330
A
100
AcDbEntity
  8
DRAW
  6
CONTINUOUS
100
AcDbLine
 10
153.4305488827301
 20
177.6557477324198
 30
0.0
 11
153.4305488827301
 21
176.9499877324198
 31
0.0
  0
LINE
  5
524F
330
A
100
AcDbEntity
  8
DRAW
  6
CONTINUOUS
100
AcDbLine
 10
153.4305488827301
 20
177.6557477324198
 30
0.0
 11
153.4305488827301
 21
178.1499877324198
 31
0.0
  0
POINT
  5
5250
330
A
100
AcDbEntity
  8
DRAW
  6
CONTINUOUS
100
AcDbPoint
 10
156.0305488827301
 20
178.6499877324198
 30
0.0
  0
LINE
  5
5251
330
A
100
AcDbEntity
  8
DRAW
  6
CONTINUOUS
100
AcDbLine
 10
154.5305488827301
 20
176.9499867324197
 30
0.0
 11
154.5305488827301
 21
178.1499877324198
 31
0.0
  0
LINE
  5
5252
330
A
100
AcDbEntity
  8
DRAW
  6
CONTINUOUS
100
AcDbLine
 10
156.0305488827301
 20
176.9499867324197
 30
0.0
 11
156.0305488827301
 21
178.1499877324198
 31
0.0
  0
LINE
  5
5253
330
A
100
AcDbEntity
  8
DRAW
  6
CONTINUOUS
100
AcDbLine
 10
156.0305488827301
 20
178.1499877324198
 30
0.0
 11
156.0305488827301
 21
178.6499877324198
 31
0.0
  0
LINE
  5
5254
330
A
100
AcDbEntity
  8
DRAW
  6
CONTINUOUS
100
AcDbLine
 10
156.0305488827301
 20
178.1499877324198
 30
0.0
 11
156.83769488273
 21
178.1499877324198
 31
0.0
  0
LINE
  5
5255
330
A
100
AcDbEntity
  8
DRAW
  6
CONTINUOUS
100
AcDbLine
 10
157.33766088273
 20
177.6557477324198
 30
0.0
 11
157.3457908827301
 21
176.9499877324198
 31
0.0
  0
ARC
  5
5256
330
A
100
AcDbEntity
  8
DRAW
  6
CONTINUOUS
100
AcDbCircle
 10
156.83769488273
 20
177.6499877324198
 30
0.0
 40
0.5
100
AcDbArc
 50
0.6599999999999305
 51
90.0
  0
LINE
  5
5257
330
A
100
AcDbEntity
  8
DRAW
  6
CONTINUOUS
100
AcDbLine
 10
154.5305488827301
 20
178.1499877324198
 30
0.0
 11
154.5305488827301
 21
178.6499877324198
 31
0.0
  0
LINE
  5
5258
330
A
100
AcDbEntity
  8
DRAW
  6
CONTINUOUS
100
AcDbLine
 10
156.0305488827301
 20
178.6499877324198
 30
0.0
 11
154.5305488827301
 21
178.6499877324198
 31
0.0
  0
LINE
  5
5259
330
A
100
AcDbEntity
  8
DRAW
  6
CONTINUOUS
100
AcDbLine
 10
157.3457918827301
 20
176.9499877324198
 30
0.0
 11
156.1118718827301
 21
176.9499877324198
 31
0.0
  0
INSERT
  5
525A
330
A
100
AcDbEntity
  8
DRAW-TEXT
100
AcDbBlockReference
  2
_G_T_14
 10
-514.3362191172696
 20
44.62733873241984
 30
0.0
  0
INSERT
  5
525B
330
A
100
AcDbEntity
  8
DRAW-TEXT
100
AcDbBlockReference
  2
_G_T_10
 10
-514.3362191172696
 20
44.62733873241984
 30
0.0
  0
INSERT
  5
525C
330
A
100
AcDbEntity
  8
DRAW-TEXT
100
AcDbBlockReference
  2
_G_T_9
 10
-514.3362191172696
 20
44.62733873241984
 30
0.0
  0
LINE
  5
525D
330
A
100
AcDbEntity
  8
DRAW
  6
CONTINUOUS
100
AcDbLine
 10
117.3018858827301
 20
226.8701917324198
 30
0.0
 11
117.8018858827301
 21
226.8701917324198
 31
0.0
  0
LINE
  5
525E
330
A
100
AcDbEntity
  8
DRAW
  6
CONTINUOUS
100
AcDbLine
 10
117.3018858827301
 20
228.8701917324198
 30
0.0
 11
117.8018858827301
 21
228.8701917324198
 31
0.0
  0
INSERT
  5
525F
330
A
100
AcDbEntity
  8
DRAW-TEXT
100
AcDbBlockReference
  2
_G_T_8
 10
-514.3362191172696
 20
44.62733873241984
 30
0.0
  0
INSERT
  5
5260
330
A
100
AcDbEntity
  8
DRAW-TEXT
100
AcDbBlockReference
  2
_G_T_4
 10
-514.3362191172696
 20
44.62733873241984
 30
0.0
  0
INSERT
  5
5261
330
A
100
AcDbEntity
  8
DRAW-TEXT
100
AcDbBlockReference
  2
_G_T_3
 10
-514.3362191172696
 20
44.62733873241984
 30
0.0
  0
TEXT
  5
5262
330
A
100
AcDbEntity
  8
DRAW-TEXT
  6
CONTINUOUS
100
AcDbText
 10
105.01571088273
 20
226.5550037324198
 30
0.0
 40
1.399999999999999
  1
A1
 41
0.95
  7
TSTYLE6
100
AcDbText
  0
INSERT
  5
5263
330
A
100
AcDbEntity
  8
DRAW-TEXT
100
AcDbBlockReference
  2
_G_T_5
 10
-514.3362191172696
 20
44.62733873241984
 30
0.0
  0
LINE
  5
5264
330
A
100
AcDbEntity
  8
DRAW
  6
CONTINUOUS
100
AcDbLine
 10
103.8018858827301
 20
226.8701917324198
 30
0.0
 11
103.8018858827301
 21
228.8701917324198
 31
0.0
  0
LINE
  5
5265
330
A
100
AcDbEntity
  8
DRAW
  6
CONTINUOUS
100
AcDbLine
 10
103.3018858827301
 20
226.8701917324198
 30
0.0
 11
103.3018858827301
 21
228.8701917324198
 31
0.0
  0
LINE
  5
5266
330
A
100
AcDbEntity
  8
DRAW
  6
CONTINUOUS
100
AcDbLine
 10
103.3018858827301
 20
226.8701917324198
 30
0.0
 11
103.8018858827301
 21
226.8701917324198
 31
0.0
  0
LINE
  5
5267
330
A
100
AcDbEntity
  8
DRAW
  6
CONTINUOUS
100
AcDbLine
 10
103.3018858827301
 20
228.8701917324198
 30
0.0
 11
103.8018858827301
 21
228.8701917324198
 31
0.0
  0
TEXT
  5
5268
330
A
100
AcDbEntity
  8
DRAW-TEXT
  6
CONTINUOUS
100
AcDbText
 10
114.7008298827302
 20
226.5869557324198
 30
0.0
 40
1.399999999999999
  1
A1
 41
0.95
  7
TSTYLE6
100
AcDbText
  0
INSERT
  5
5269
330
A
100
AcDbEntity
  8
DRAW-TEXT
100
AcDbBlockReference
  2
_G_T_6
 10
-514.3362191172696
 20
44.62733873241984
 30
0.0
  0
LINE
  5
526A
330
A
100
AcDbEntity
  8
DRAW
  6
CONTINUOUS
100
AcDbLine
 10
117.3018858827301
 20
226.8701917324198
 30
0.0
 11
117.3018858827301
 21
228.8701917324198
 31
0.0
  0
LINE
  5
526B
330
A
100
AcDbEntity
  8
DRAW
  6
CONTINUOUS
100
AcDbLine
 10
106.5518858827301
 20
234.8701917324198
 30
0.0
 11
106.5518858827301
 21
235.3701917324197
 31
0.0
  0
LINE
  5
526C
330
A
100
AcDbEntity
  8
DRAW
  6
CONTINUOUS
100
AcDbLine
 10
104.5518858827301
 20
234.8701917324198
 30
0.0
 11
104.5518858827301
 21
235.3701917324197
 31
0.0
  0
LINE
  5
526D
330
A
100
AcDbEntity
  8
DRAW
  6
CONTINUOUS
100
AcDbLine
 10
104.5518858827301
 20
234.8701917324198
 30
0.0
 11
106.5518858827301
 21
234.8701917324198
 31
0.0
  0
LINE
  5
526E
330
A
100
AcDbEntity
  8
DRAW
  6
CONTINUOUS
100
AcDbLine
 10
104.5518858827301
 20
235.3701917324197
 30
0.0
 11
106.5518858827301
 21
235.3701917324197
 31
0.0
  0
LINE
  5
526F
330
A
100
AcDbEntity
  8
DRAW
  6
CONTINUOUS
100
AcDbLine
 10
114.5518858827301
 20
234.8701917324198
 30
0.0
 11
116.5518858827301
 21
234.8701917324198
 31
0.0
  0
LINE
  5
5270
330
A
100
AcDbEntity
  8
DRAW
  6
CONTINUOUS
100
AcDbLine
 10
114.5518858827301
 20
235.3701917324197
 30
0.0
 11
116.5518858827301
 21
235.3701917324197
 31
0.0
  0
LINE
  5
5271
330
A
100
AcDbEntity
  8
DRAW
  6
CONTINUOUS
100
AcDbLine
 10
116.5518858827301
 20
234.8701917324198
 30
0.0
 11
116.5518858827301
 21
235.3701917324197
 31
0.0
  0
LINE
  5
5272
330
A
100
AcDbEntity
  8
DRAW
  6
CONTINUOUS
100
AcDbLine
 10
114.5518858827301
 20
234.8701917324198
 30
0.0
 11
114.5518858827301
 21
235.3701917324197
 31
0.0
  0
INSERT
  5
5273
330
A
100
AcDbEntity
  8
DRAW-TEXT
100
AcDbBlockReference
  2
_G_T_7
 10
-514.3362191172696
 20
44.62733873241984
 30
0.0
  0
INSERT
  5
5274
330
A
100
AcDbEntity
  8
DRAW-TEXT
100
AcDbBlockReference
  2
_G_T_1
 10
-514.3362191172696
 20
44.62733873241984
 30
0.0
  0
LINE
  5
5275
330
A
100
AcDbEntity
  8
DRAW
  6
CONTINUOUS
100
AcDbLine
 10
104.5518698827301
 20
240.7701887324198
 30
0.0
 11
104.9268698827301
 21
240.7701887324198
 31
0.0
  0
LINE
  5
5276
330
A
100
AcDbEntity
  8
DRAW
  6
CONTINUOUS
100
AcDbLine
 10
104.5518858827301
 20
240.7701917324198
 30
0.0
 11
104.5518858827301
 21
241.2701917324198
 31
0.0
  0
LINE
  5
5277
330
A
100
AcDbEntity
  8
DRAW
  6
CONTINUOUS
100
AcDbLine
 10
106.5518858827301
 20
240.7701917324198
 30
0.0
 11
106.5518858827301
 21
241.2701917324198
 31
0.0
  0
LINE
  5
5278
330
A
100
AcDbEntity
  8
DRAW
  6
CONTINUOUS
100
AcDbLine
 10
104.5518858827301
 20
240.7701917324198
 30
0.0
 11
106.5518858827301
 21
240.7701917324198
 31
0.0
  0
LINE
  5
5279
330
A
100
AcDbEntity
  8
DRAW
  6
CONTINUOUS
100
AcDbLine
 10
104.5518858827301
 20
241.2701917324198
 30
0.0
 11
106.5518858827301
 21
241.2701917324198
 31
0.0
  0
INSERT
  5
527A
330
A
100
AcDbEntity
  8
DRAW-TEXT
100
AcDbBlockReference
  2
_G_T_2
 10
-514.3362191172696
 20
44.62733873241984
 30
0.0
  0
LINE
  5
527B
330
A
100
AcDbEntity
  8
DRAW
  6
CONTINUOUS
100
AcDbLine
 10
114.5518858827301
 20
240.7701917324198
 30
0.0
 11
116.5518858827301
 21
240.7701917324198
 31
0.0
  0
LINE
  5
527C
330
A
100
AcDbEntity
  8
DRAW
  6
CONTINUOUS
100
AcDbLine
 10
114.5518858827301
 20
241.2701917324198
 30
0.0
 11
116.5518858827301
 21
241.2701917324198
 31
0.0
  0
LINE
  5
527D
330
A
100
AcDbEntity
  8
DRAW
  6
CONTINUOUS
100
AcDbLine
 10
114.5518858827301
 20
240.7701917324198
 30
0.0
 11
114.5518858827301
 21
241.2701917324198
 31
0.0
  0
LINE
  5
527E
330
A
100
AcDbEntity
  8
DRAW
  6
CONTINUOUS
100
AcDbLine
 10
116.5518858827301
 20
240.7701917324198
 30
0.0
 11
116.5518858827301
 21
241.2701917324198
 31
0.0
  0
INSERT
  5
527F
330
A
100
AcDbEntity
  8
DRAW-TEXT
100
AcDbBlockReference
  2
_G_T_12
 10
-514.3362191172696
 20
44.62733873241984
 30
0.0
  0
INSERT
  5
5280
330
A
100
AcDbEntity
  8
DRAW-TEXT
100
AcDbBlockReference
  2
_G_T_11
 10
-514.3362191172696
 20
44.62733873241984
 30
0.0
  0
LINE
  5
5281
330
A
100
AcDbEntity
  8
DRAW
  6
CONTINUOUS
100
AcDbLine
 10
106.5518858827301
 20
245.5201917324198
 30
0.0
 11
106.5518858827301
 21
246.0201917324198
 31
0.0
  0
LINE
  5
5282
330
A
100
AcDbEntity
  8
DRAW
  6
CONTINUOUS
100
AcDbLine
 10
104.5518858827301
 20
245.5201917324198
 30
0.0
 11
104.5518858827301
 21
246.0201917324198
 31
0.0
  0
LINE
  5
5283
330
A
100
AcDbEntity
  8
DRAW
  6
CONTINUOUS
100
AcDbLine
 10
104.5518858827301
 20
245.5201917324198
 30
0.0
 11
106.5518858827301
 21
245.5201917324198
 31
0.0
  0
LINE
  5
5284
330
A
100
AcDbEntity
  8
DRAW
  6
CONTINUOUS
100
AcDbLine
 10
104.5518858827301
 20
246.0201917324198
 30
0.0
 11
106.5518858827301
 21
246.0201917324198
 31
0.0
  0
INSERT
  5
5285
330
A
100
AcDbEntity
  8
DRAW-TEXT
100
AcDbBlockReference
  2
_G_T_13
 10
-514.3362191172696
 20
44.62733873241984
 30
0.0
  0
LINE
  5
5286
330
A
100
AcDbEntity
  8
DRAW
  6
CONTINUOUS
100
AcDbLine
 10
114.5518858827301
 20
246.0201917324198
 30
0.0
 11
116.5518858827301
 21
246.0201917324198
 31
0.0
  0
LINE
  5
5287
330
A
100
AcDbEntity
  8
DRAW
  6
CONTINUOUS
100
AcDbLine
 10
114.5518858827301
 20
245.5201917324198
 30
0.0
 11
116.5518858827301
 21
245.5201917324198
 31
0.0
  0
LINE
  5
5288
330
A
100
AcDbEntity
  8
DRAW
  6
CONTINUOUS
100
AcDbLine
 10
116.5518858827301
 20
245.5201917324198
 30
0.0
 11
116.5518858827301
 21
246.0201917324198
 31
0.0
  0
LINE
  5
5289
330
A
100
AcDbEntity
  8
DRAW
  6
CONTINUOUS
100
AcDbLine
 10
114.5518858827301
 20
245.5201917324198
 30
0.0
 11
114.5518858827301
 21
246.0201917324198
 31
0.0
  0
LINE
  5
528A
330
A
100
AcDbEntity
  8
DRAW
  6
CONTINUOUS
100
AcDbLine
 10
117.8018858827301
 20
226.8701917324198
 30
0.0
 11
117.8018858827301
 21
228.8701917324198
 31
0.0
  0
ENDSEC
  0
SECTION
  2
OBJECTS
  0
DICTIONARY
  5
19
330
0
100
AcDbDictionary
  3
ACAD_GROUP
350
1A
  3
ACAD_LAYOUT
350
4EF8
  3
ACAD_MLINESTYLE
350
1B
  3
ACAD_PLOTSETTINGS
350
4EF9
  3
ACAD_PLOTSTYLENAME
350
4EF6
  3
ACDBHEADERROUNDTRIPXREC
350
5442
  3
ACDBVARIABLEDICTIONARY
350
4F34
  0
DICTIONARY
  5
4F57
330
A
100
AcDbDictionary
280
     1
  3
ACAD_LAYOUTSELFREF
360
5462
  0
DICTIONARY
  5
4F59
330
B
100
AcDbDictionary
280
     1
  3
ACAD_LAYOUTSELFREF
360
5463
  0
DICTIONARY
  5
1A
102
{ACAD_REACTORS
330
19
102
}
330
19
100
AcDbDictionary
  0
DICTIONARY
  5
4EF8
102
{ACAD_REACTORS
330
19
102
}
330
19
100
AcDbDictionary
  0
DICTIONARY
  5
1B
102
{ACAD_REACTORS
330
19
102
}
330
19
100
AcDbDictionary
  3
STANDARD
350
1C
  0
DICTIONARY
  5
4EF9
102
{ACAD_REACTORS
330
19
102
}
330
19
100
AcDbDictionary
  0
ACDBDICTIONARYWDFLT
  5
4EF6
102
{ACAD_REACTORS
330
19
102
}
330
19
100
AcDbDictionary
281
     1
  3
Normal
350
4EF7
100
AcDbDictionaryWithDefault
340
4EF7
  0
DICTIONARY
  5
5442
102
{ACAD_REACTORS
330
19
102
}
330
19
100
AcDbDictionary
  3
CEPSNTYPE
350
544C
  3
FINGERPRINTGUID
350
544D
  3
HYPERLINKBASE
350
5445
  3
INSUNITS
350
544B
  3
LAYOUTDICT
350
5447
  3
LWETCUNION
350
544A
  3
PLOTSETDICT
350
5448
  3
PLOTSTYLNAMDICT
350
5449
  3
PSVPSCALE
350
544F
  3
PUCSBASE
350
5452
  3
PUCSORGBACK
350
5458
  3
PUCSORGBOTTOM
350
5454
  3
PUCSORGFRONT
350
5457
  3
PUCSORGLEFT
350
5455
  3
PUCSORGRIGHT
350
5456
  3
PUCSORGTOP
350
5453
  3
PUCSORTHOREF
350
5450
  3
PUCSORTHOVIEW
350
5451
  3
STYLESHEET
350
5446
  3
TSTACKALIGN
350
5443
  3
TSTACKSIZE
350
5444
  3
UCSBASE
350
545B
  3
UCSORGBACK
350
5461
  3
UCSORGBOTTOM
350
545D
  3
UCSORGFRONT
350
5460
  3
UCSORGLEFT
350
545E
  3
UCSORGRIGHT
350
545F
  3
UCSORGTOP
350
545C
  3
UCSORTHOREF
350
5459
  3
UCSORTHOVIEW
350
545A
  3
VERSIONGUID
350
544E
  0
DICTIONARY
  5
4F34
102
{ACAD_REACTORS
330
19
102
}
330
19
100
AcDbDictionary
  3
DIMASSOC
350
4F35
  0
XRECORD
  5
5462
102
{ACAD_REACTORS
330
4F57
102
}
330
4F57
100
AcDbXrecord
340
A
  0
XRECORD
  5
5463
102
{ACAD_REACTORS
330
4F59
102
}
330
4F59
100
AcDbXrecord
340
B
  0
MLINESTYLE
  5
1C
102
{ACAD_REACTORS
330
1B
102
}
330
1B
100
AcDbMlineStyle
  2
STANDARD
 70
     0
  3

 62
     0
 51
90.0
 52
90.0
 71
     2
 49
0.5
 62
   256
  6
BYLAYER
 49
-0.5
 62
   256
  6
BYLAYER
  0
ACDBPLACEHOLDER
  5
4EF7
102
{ACAD_REACTORS
330
4EF6
102
}
330
4EF6
100
AcDbPlaceHolder
280
     0
  0
XRECORD
  5
544C
102
{ACAD_REACTORS
330
5442
102
}
330
5442
100
AcDbXrecord
 90
        0
  0
XRECORD
  5
544D
102
{ACAD_REACTORS
330
5442
102
}
330
5442
100
AcDbXrecord
  1
{BB9255C5-B997-4A53-A53C-E982077E6E11}
  0
XRECORD
  5
5445
102
{ACAD_REACTORS
330
5442
102
}
330
5442
100
AcDbXrecord
  1

  0
XRECORD
  5
544B
102
{ACAD_REACTORS
330
5442
102
}
330
5442
100
AcDbXrecord
 90
        0
  0
XRECORD
  5
5447
102
{ACAD_REACTORS
330
5442
102
}
330
5442
100
AcDbXrecord
340
4EF8
  0
XRECORD
  5
544A
102
{ACAD_REACTORS
330
5442
102
}
330
5442
100
AcDbXrecord
 90
    10781
  0
XRECORD
  5
5448
102
{ACAD_REACTORS
330
5442
102
}
330
5442
100
AcDbXrecord
340
4EF9
  0
XRECORD
  5
5449
102
{ACAD_REACTORS
330
5442
102
}
330
5442
100
AcDbXrecord
340
4EF6
  0
XRECORD
  5
544F
102
{ACAD_REACTORS
330
5442
102
}
330
5442
100
AcDbXrecord
 40
0.0
  0
XRECORD
  5
5452
102
{ACAD_REACTORS
330
5442
102
}
330
5442
100
AcDbXrecord
340
0
  0
XRECORD
  5
5458
102
{ACAD_REACTORS
330
5442
102
}
330
5442
100
AcDbXrecord
 10
0.0
 20
0.0
 30
0.0
  0
XRECORD
  5
5454
102
{ACAD_REACTORS
330
5442
102
}
330
5442
100
AcDbXrecord
 10
0.0
 20
0.0
 30
0.0
  0
XRECORD
  5
5457
102
{ACAD_REACTORS
330
5442
102
}
330
5442
100
AcDbXrecord
 10
0.0
 20
0.0
 30
0.0
  0
XRECORD
  5
5455
102
{ACAD_REACTORS
330
5442
102
}
330
5442
100
AcDbXrecord
 10
0.0
 20
0.0
 30
0.0
  0
XRECORD
  5
5456
102
{ACAD_REACTORS
330
5442
102
}
330
5442
100
AcDbXrecord
 10
0.0
 20
0.0
 30
0.0
  0
XRECORD
  5
5453
102
{ACAD_REACTORS
330
5442
102
}
330
5442
100
AcDbXrecord
 10
0.0
 20
0.0
 30
0.0
  0
XRECORD
  5
5450
102
{ACAD_REACTORS
330
5442
102
}
330
5442
100
AcDbXrecord
340
0
  0
XRECORD
  5
5451
102
{ACAD_REACTORS
330
5442
102
}
330
5442
100
AcDbXrecord
 70
     0
  0
XRECORD
  5
5446
102
{ACAD_REACTORS
330
5442
102
}
330
5442
100
AcDbXrecord
  1

  0
XRECORD
  5
5443
102
{ACAD_REACTORS
330
5442
102
}
330
5442
100
AcDbXrecord
 90
        1
  0
XRECORD
  5
5444
102
{ACAD_REACTORS
330
5442
102
}
330
5442
100
AcDbXrecord
 90
       70
  0
XRECORD
  5
545B
102
{ACAD_REACTORS
330
5442
102
}
330
5442
100
AcDbXrecord
340
0
  0
XRECORD
  5
5461
102
{ACAD_REACTORS
330
5442
102
}
330
5442
100
AcDbXrecord
 10
0.0
 20
0.0
 30
0.0
  0
XRECORD
  5
545D
102
{ACAD_REACTORS
330
5442
102
}
330
5442
100
AcDbXrecord
 10
0.0
 20
0.0
 30
0.0
  0
XRECORD
  5
5460
102
{ACAD_REACTORS
330
5442
102
}
330
5442
100
AcDbXrecord
 10
0.0
 20
0.0
 30
0.0
  0
XRECORD
  5
545E
102
{ACAD_REACTORS
330
5442
102
}
330
5442
100
AcDbXrecord
 10
0.0
 20
0.0
 30
0.0
  0
XRECORD
  5
545F
102
{ACAD_REACTORS
330
5442
102
}
330
5442
100
AcDbXrecord
 10
0.0
 20
0.0
 30
0.0
  0
XRECORD
  5
545C
102
{ACAD_REACTORS
330
5442
102
}
330
5442
100
AcDbXrecord
 10
0.0
 20
0.0
 30
0.0
  0
XRECORD
  5
5459
102
{ACAD_REACTORS
330
5442
102
}
330
5442
100
AcDbXrecord
340
0
  0
XRECORD
  5
545A
102
{ACAD_REACTORS
330
5442
102
}
330
5442
100
AcDbXrecord
 70
     0
  0
XRECORD
  5
544E
102
{ACAD_REACTORS
330
5442
102
}
330
5442
100
AcDbXrecord
  1
{90CE6295-D230-409C-8D79-F176A4332077}
  0
DICTIONARYVAR
  5
4F35
102
{ACAD_REACTORS
330
4F34
102
}
330
4F34
100
DictionaryVariables
280
     0
  1
1
  0
ENDSEC
  0
EOF
