  0
SECTION
  2
HEADER
  9
$ACADVER
  1
AC1015
  9
$ACADMAINTVER
 70
    20
  9
$DWGCODEPAGE
  3
ANSI_1252
  9
$INSBASE
 10
0.0
 20
0.0
 30
0.0
  9
$EXTMIN
 10
69.39541662230897
 20
288.7994897070327
 30
-1.0
  9
$EXTMAX
 10
339.3954166223088
 20
488.7994897070324
 30
0.7
  9
$LIMMIN
 10
0.0
 20
0.0
  9
$LIMMAX
 10
420.0
 20
297.0
  9
$ORTHOMODE
 70
     0
  9
$REGENMODE
 70
     1
  9
$FILLMODE
 70
     1
  9
$QTEXTMODE
 70
     0
  9
$MIRRTEXT
 70
     0
  9
$LTSCALE
 40
23.1
  9
$ATTMODE
 70
     1
  9
$TEXTSIZE
 40
0.2
  9
$TRACEWID
 40
0.05
  9
$TEXTSTYLE
  7
Standard
  9
$CLAYER
  8
11100_LEFT_DIM
  9
$CELTYPE
  6
ByLayer
  9
$CECOLOR
 62
   256
  9
$CELTSCALE
 40
1.0
  9
$DISPSILH
 70
     0
  9
$DIMSCALE
 40
0.0
  9
$DIMASZ
 40
3.5
  9
$DIMEXO
 40
0.0
  9
$DIMDLI
 40
3.75
  9
$DIMRND
 40
0.0
  9
$DIMDLE
 40
0.0
  9
$DIMEXE
 40
2.0
  9
$DIMTP
 40
0.0
  9
$DIMTM
 40
0.0
  9
$DIMTXT
 40
3.5
  9
$DIMCEN
 40
2.5
  9
$DIMTSZ
 40
0.0
  9
$DIMTOL
 70
     0
  9
$DIMLIM
 70
     0
  9
$DIMTIH
 70
     0
  9
$DIMTOH
 70
     0
  9
$DIMSE1
 70
     0
  9
$DIMSE2
 70
     0
  9
$DIMTAD
 70
     1
  9
$DIMZIN
 70
     8
  9
$DIMBLK
  1

  9
$DIMASO
 70
     1
  9
$DIMSHO
 70
     1
  9
$DIMPOST
  1

  9
$DIMAPOST
  1

  9
$DIMALT
 70
     0
  9
$DIMALTD
 70
     4
  9
$DIMALTF
 40
0.039
  9
$DIMLFAC
 40
1.0
  9
$DIMTOFL
 70
     1
  9
$DIMTVP
 40
0.0
  9
$DIMTIX
 70
     0
  9
$DIMSOXD
 70
     0
  9
$DIMSAH
 70
     0
  9
$DIMBLK1
  1

  9
$DIMBLK2
  1

  9
$DIMSTYLE
  2
H035
  9
$DIMCLRD
 70
   256
  9
$DIMCLRE
 70
     7
  9
$DIMCLRT
 70
     7
  9
$DIMTFAC
 40
1.0
  9
$DIMGAP
 40
0.5
  9
$DIMJUST
 70
     0
  9
$DIMSD1
 70
     0
  9
$DIMSD2
 70
     0
  9
$DIMTOLJ
 70
     1
  9
$DIMTZIN
 70
     0
  9
$DIMALTZ
 70
     0
  9
$DIMALTTZ
 70
     0
  9
$DIMUPT
 70
     0
  9
$DIMDEC
 70
     0
  9
$DIMTDEC
 70
     2
  9
$DIMALTU
 70
     8
  9
$DIMALTTD
 70
     4
  9
$DIMTXSTY
  7
Standard
  9
$DIMAUNIT
 70
     0
  9
$DIMADEC
 70
     0
  9
$DIMALTRND
 40
0.0
  9
$DIMAZIN
 70
     0
  9
$DIMDSEP
 70
    46
  9
$DIMATFIT
 70
     3
  9
$DIMFRAC
 70
     0
  9
$DIMLDRBLK
  1

  9
$DIMLUNIT
 70
     2
  9
$DIMLWD
 70
    -2
  9
$DIMLWE
 70
    -2
  9
$DIMTMOVE
 70
     0
  9
$LUNITS
 70
     2
  9
$LUPREC
 70
     4
  9
$SKETCHINC
 40
0.1
  9
$FILLETRAD
 40
0.5
  9
$AUNITS
 70
     0
  9
$AUPREC
 70
     0
  9
$MENU
  1
.
  9
$ELEVATION
 40
0.0
  9
$PELEVATION
 40
0.0
  9
$THICKNESS
 40
0.0
  9
$LIMCHECK
 70
     0
  9
$CHAMFERA
 40
0.0
  9
$CHAMFERB
 40
0.0
  9
$CHAMFERC
 40
0.0
  9
$CHAMFERD
 40
0.0
  9
$SKPOLY
 70
     0
  9
$TDCREATE
 40
2452829.417613079
  9
$TDUCREATE
 40
2452829.375946412
  9
$TDUPDATE
 40
2453424.695561158
  9
$TDUUPDATE
 40
2453424.653894491
  9
$TDINDWG
 40
2.2235156019
  9
$TDUSRTIMER
 40
2.2235094444
  9
$USRTIMER
 70
     1
  9
$ANGBASE
 50
0.0
  9
$ANGDIR
 70
     0
  9
$PDMODE
 70
     0
  9
$PDSIZE
 40
0.0
  9
$PLINEWID
 40
0.0
  9
$SPLFRAME
 70
     0
  9
$SPLINETYPE
 70
     6
  9
$SPLINESEGS
 70
     8
  9
$HANDSEED
  5
BFE2
  9
$SURFTAB1
 70
     6
  9
$SURFTAB2
 70
     6
  9
$SURFTYPE
 70
     6
  9
$SURFU
 70
     6
  9
$SURFV
 70
     6
  9
$UCSBASE
  2

  9
$UCSNAME
  2

  9
$UCSORG
 10
0.0
 20
0.0
 30
0.0
  9
$UCSXDIR
 10
1.0
 20
0.0
 30
0.0
  9
$UCSYDIR
 10
0.0
 20
1.0
 30
0.0
  9
$UCSORTHOREF
  2

  9
$UCSORTHOVIEW
 70
     0
  9
$UCSORGTOP
 10
0.0
 20
0.0
 30
0.0
  9
$UCSORGBOTTOM
 10
0.0
 20
0.0
 30
0.0
  9
$UCSORGLEFT
 10
0.0
 20
0.0
 30
0.0
  9
$UCSORGRIGHT
 10
0.0
 20
0.0
 30
0.0
  9
$UCSORGFRONT
 10
0.0
 20
0.0
 30
0.0
  9
$UCSORGBACK
 10
0.0
 20
0.0
 30
0.0
  9
$PUCSBASE
  2

  9
$PUCSNAME
  2

  9
$PUCSORG
 10
0.0
 20
0.0
 30
0.0
  9
$PUCSXDIR
 10
1.0
 20
0.0
 30
0.0
  9
$PUCSYDIR
 10
0.0
 20
1.0
 30
0.0
  9
$PUCSORTHOREF
  2

  9
$PUCSORTHOVIEW
 70
     0
  9
$PUCSORGTOP
 10
0.0
 20
0.0
 30
0.0
  9
$PUCSORGBOTTOM
 10
0.0
 20
0.0
 30
0.0
  9
$PUCSORGLEFT
 10
0.0
 20
0.0
 30
0.0
  9
$PUCSORGRIGHT
 10
0.0
 20
0.0
 30
0.0
  9
$PUCSORGFRONT
 10
0.0
 20
0.0
 30
0.0
  9
$PUCSORGBACK
 10
0.0
 20
0.0
 30
0.0
  9
$USERI1
 70
     0
  9
$USERI2
 70
     0
  9
$USERI3
 70
     0
  9
$USERI4
 70
     0
  9
$USERI5
 70
     0
  9
$USERR1
 40
0.0
  9
$USERR2
 40
0.0
  9
$USERR3
 40
0.0
  9
$USERR4
 40
0.0
  9
$USERR5
 40
0.0
  9
$WORLDVIEW
 70
     1
  9
$SHADEDGE
 70
     3
  9
$SHADEDIF
 70
    70
  9
$TILEMODE
 70
     1
  9
$MAXACTVP
 70
    64
  9
$PINSBASE
 10
0.0
 20
0.0
 30
0.0
  9
$PLIMCHECK
 70
     0
  9
$PEXTMIN
 10
1.000000000000000E+20
 20
1.000000000000000E+20
 30
1.000000000000000E+20
  9
$PEXTMAX
 10
-1.000000000000000E+20
 20
-1.000000000000000E+20
 30
-1.000000000000000E+20
  9
$PLIMMIN
 10
0.0
 20
0.0
  9
$PLIMMAX
 10
12.0
 20
9.0
  9
$UNITMODE
 70
     0
  9
$VISRETAIN
 70
     1
  9
$PLINEGEN
 70
     0
  9
$PSLTSCALE
 70
     1
  9
$TREEDEPTH
 70
  3020
  9
$CMLSTYLE
  2
Standard
  9
$CMLJUST
 70
     0
  9
$CMLSCALE
 40
1.0
  9
$PROXYGRAPHICS
 70
     1
  9
$MEASUREMENT
 70
     0
  9
$CELWEIGHT
370
    -1
  9
$ENDCAPS
280
     0
  9
$JOINSTYLE
280
     0
  9
$LWDISPLAY
290
     0
  9
$INSUNITS
 70
     0
  9
$HYPERLINKBASE
  1

  9
$STYLESHEET
  1
MONOCHROME.CTB
  9
$XEDIT
290
     1
  9
$CEPSNTYPE
380
     0
  9
$PSTYLEMODE
290
     1
  9
$FINGERPRINTGUID
  2
{D88032C4-1185-41D3-97DD-7638FCF99E3F}
  9
$VERSIONGUID
  2
{F1E7D089-0301-43AB-BEE3-1600FE9ACFF9}
  9
$EXTNAMES
290
     1
  9
$PSVPSCALE
 40
0.0
  9
$OLESTARTUP
290
     0
  0
ENDSEC
  0
SECTION
  2
CLASSES
  0
CLASS
  1
ACDBDICTIONARYWDFLT
  2
AcDbDictionaryWithDefault
  3
ObjectDBX Classes
 90
        0
280
     0
281
     0
  0
CLASS
  1
DICTIONARYVAR
  2
AcDbDictionaryVar
  3
ObjectDBX Classes
 90
        0
280
     0
281
     0
  0
CLASS
  1
ACDBPLACEHOLDER
  2
AcDbPlaceHolder
  3
ObjectDBX Classes
 90
        0
280
     0
281
     0
  0
CLASS
  1
LAYOUT
  2
AcDbLayout
  3
ObjectDBX Classes
 90
        0
280
     0
281
     0
  0
ENDSEC
  0
SECTION
  2
TABLES
  0
TABLE
  2
VPORT
  5
8
330
0
100
AcDbSymbolTable
 70
     2
  0
VPORT
  5
BFD9
330
8
100
AcDbSymbolTableRecord
100
AcDbViewportTableRecord
  2
*Active
 70
     0
 10
0.0
 20
0.0
 11
1.0
 21
1.0
 12
204.4084177194262
 22
391.2846093046505
 13
0.0
 23
0.0
 14
1.0
 24
1.0
 15
0.0
 25
0.0
 16
0.0
 26
0.0
 36
1.0
 17
0.0
 27
0.0
 37
0.0
 40
206.5682678275451
 41
1.571994715984147
 42
50.0
 43
0.0
 44
0.0
 50
0.0
 51
0.0
 71
     0
 72
   100
 73
     1
 74
     1
 75
     0
 76
     0
 77
     0
 78
     0
281
     0
 65
     1
110
0.0
120
0.0
130
0.0
111
1.0
121
0.0
131
0.0
112
0.0
122
1.0
132
0.0
 79
     0
146
0.0
  0
ENDTAB
  0
TABLE
  2
LTYPE
  5
5
330
0
100
AcDbSymbolTable
 70
     3
  0
LTYPE
  5
13
330
5
100
AcDbSymbolTableRecord
100
AcDbLinetypeTableRecord
  2
ByBlock
 70
     0
  3

 72
    65
 73
     0
 40
0.0
  0
LTYPE
  5
14
330
5
100
AcDbSymbolTableRecord
100
AcDbLinetypeTableRecord
  2
ByLayer
 70
     0
  3

 72
    65
 73
     0
 40
0.0
  0
LTYPE
  5
15
330
5
100
AcDbSymbolTableRecord
100
AcDbLinetypeTableRecord
  2
CONTINUOUS
 70
     0
  3
Solid line
 72
    65
 73
     0
 40
0.0
  0
LTYPE
  5
26
330
5
100
AcDbSymbolTableRecord
100
AcDbLinetypeTableRecord
  2
CENTER
 70
     0
  3
____ _ ____ _ ____ _ ____ _ ____ _ ____ _ ____
 72
    65
 73
     4
 40
0.6
 49
0.375
 74
     0
 49
-0.075
 74
     0
 49
0.075
 74
     0
 49
-0.075
 74
     0
  0
LTYPE
  5
4F7A
330
5
100
AcDbSymbolTableRecord
100
AcDbLinetypeTableRecord
  2
DASHED
 70
     0
  3
_ _ _ _ _ _ _ _ _ _ _ _ _ _ _ _ _ _ _ _ _ _ _ _
 72
    65
 73
     2
 40
0.375
 49
0.25
 74
     0
 49
-0.125
 74
     0
  0
ENDTAB
  0
TABLE
  2
LAYER
  5
2
330
0
100
AcDbSymbolTable
 70
    10
  0
LAYER
  5
10
330
2
100
AcDbSymbolTableRecord
100
AcDbLayerTableRecord
  2
0
 70
     0
 62
     7
  6
CONTINUOUS
370
    -3
390
F
  0
LAYER
  5
1D8
330
2
100
AcDbSymbolTableRecord
100
AcDbLayerTableRecord
  2
Defpoints
 70
     0
 62
     7
  6
CONTINUOUS
290
     0
370
    -3
390
F
  0
LAYER
  5
1D9
330
2
100
AcDbSymbolTableRecord
100
AcDbLayerTableRecord
  2
91000_TIP
 70
     0
 62
     7
  6
CONTINUOUS
370
    -3
390
F
  0
LAYER
  5
1DA
330
2
100
AcDbSymbolTableRecord
100
AcDbLayerTableRecord
  2
11000_Left
 70
     0
 62
     7
  6
CONTINUOUS
370
    -3
390
F
  0
LAYER
  5
1DB
330
2
100
AcDbSymbolTableRecord
100
AcDbLayerTableRecord
  2
10000_FRONT
 70
     0
 62
     7
  6
CONTINUOUS
370
    -3
390
F
  0
LAYER
  5
1DC
330
2
100
AcDbSymbolTableRecord
100
AcDbLayerTableRecord
  2
10100_FRONT_DIM
 70
     0
 62
     7
  6
CONTINUOUS
370
    -3
390
F
  0
LAYER
  5
1DD
330
2
100
AcDbSymbolTableRecord
100
AcDbLayerTableRecord
  2
90000_FRAME
 70
     0
 62
     7
  6
CONTINUOUS
370
    -3
390
F
  0
LAYER
  5
1DE
330
2
100
AcDbSymbolTableRecord
100
AcDbLayerTableRecord
  2
11100_LEFT_DIM
 70
     0
 62
     7
  6
CONTINUOUS
370
    -3
390
F
  0
LAYER
  5
BC6C
330
2
100
AcDbSymbolTableRecord
100
AcDbLayerTableRecord
  2
30000_Drilling
 70
     0
 62
     7
  6
CONTINUOUS
370
    -3
390
F
  0
LAYER
  5
BC6D
330
2
100
AcDbSymbolTableRecord
100
AcDbLayerTableRecord
  2
30100_Drilling_DIM
 70
     0
 62
     7
  6
CONTINUOUS
370
    -3
390
F
  0
ENDTAB
  0
TABLE
  2
STYLE
  5
3
330
0
100
AcDbSymbolTable
 70
     1
  0
STYLE
  5
11
330
3
100
AcDbSymbolTableRecord
100
AcDbTextStyleTableRecord
  2
Standard
 70
     0
 40
0.0
 41
1.0
 50
0.0
 71
     0
 42
0.2
  3
txt
  4

  0
ENDTAB
  0
TABLE
  2
VIEW
  5
6
330
0
100
AcDbSymbolTable
 70
     0
  0
ENDTAB
  0
TABLE
  2
UCS
  5
7
330
0
100
AcDbSymbolTable
 70
     0
  0
ENDTAB
  0
TABLE
  2
APPID
  5
9
330
0
100
AcDbSymbolTable
 70
     3
  0
APPID
  5
12
330
9
100
AcDbSymbolTableRecord
100
AcDbRegAppTableRecord
  2
ACAD
 70
     0
  0
APPID
  5
1E8
330
9
100
AcDbSymbolTableRecord
100
AcDbRegAppTableRecord
  2
AUSTER_ANSICHT
 70
     0
  0
APPID
  5
1E9
330
9
100
AcDbSymbolTableRecord
100
AcDbRegAppTableRecord
  2
AUSTER_FOLIE
 70
     0
  0
ENDTAB
  0
TABLE
  2
DIMSTYLE
  5
A
330
0
100
AcDbSymbolTable
 70
     2
100
AcDbDimStyleTable
 71
     2
340
3A1A
340
BA
  0
DIMSTYLE
105
BA
330
A
100
AcDbSymbolTableRecord
100
AcDbDimStyleTableRecord
  2
Standard
 70
     0
340
11
  0
DIMSTYLE
105
3A1A
102
{ACAD_REACTORS
330
BB72
330
BB7F
330
BC46
330
BC53
330
BC60
330
BBD1
330
BBC4
330
BB8C
330
BBB5
102
}
330
A
100
AcDbSymbolTableRecord
100
AcDbDimStyleTableRecord
  2
H035
 70
     0
 40
0.0
 41
3.5
 42
0.0
 43
3.75
 44
2.0
 73
     0
 74
     0
 77
     1
 78
     8
140
3.5
141
2.5
143
0.039
147
0.5
171
     4
172
     1
176
   256
177
     7
178
     7
271
     0
272
     2
273
     8
274
     4
340
11
  0
ENDTAB
  0
TABLE
  2
BLOCK_RECORD
  5
1
330
0
100
AcDbSymbolTable
 70
    10
  0
BLOCK_RECORD
  5
20
330
1
100
AcDbSymbolTableRecord
100
AcDbBlockTableRecord
  2
*Model_Space
340
23
  0
BLOCK_RECORD
  5
1C
330
1
100
AcDbSymbolTableRecord
100
AcDbBlockTableRecord
  2
*Paper_Space
340
1F
  0
BLOCK_RECORD
  5
3A
330
1
100
AcDbSymbolTableRecord
100
AcDbBlockTableRecord
  2
SIEMENS_OUTLINE_BL0
340
0
102
{BLKREFS
331
8CC5
102
}
  0
BLOCK_RECORD
  5
BB73
330
1
100
AcDbSymbolTableRecord
100
AcDbBlockTableRecord
  2
*D1
340
0
  0
BLOCK_RECORD
  5
BB80
330
1
100
AcDbSymbolTableRecord
100
AcDbBlockTableRecord
  2
*D2
340
0
  0
BLOCK_RECORD
  5
BB8D
330
1
100
AcDbSymbolTableRecord
100
AcDbBlockTableRecord
  2
*D3
340
0
  0
BLOCK_RECORD
  5
BBB6
330
1
100
AcDbSymbolTableRecord
100
AcDbBlockTableRecord
  2
*D4
340
0
  0
BLOCK_RECORD
  5
BBC5
330
1
100
AcDbSymbolTableRecord
100
AcDbBlockTableRecord
  2
*D5
340
0
  0
BLOCK_RECORD
  5
BBD2
330
1
100
AcDbSymbolTableRecord
100
AcDbBlockTableRecord
  2
*D6
340
0
  0
BLOCK_RECORD
  5
BC47
330
1
100
AcDbSymbolTableRecord
100
AcDbBlockTableRecord
  2
*D7
340
0
  0
BLOCK_RECORD
  5
BC54
330
1
100
AcDbSymbolTableRecord
100
AcDbBlockTableRecord
  2
*D8
340
0
  0
BLOCK_RECORD
  5
BC61
330
1
100
AcDbSymbolTableRecord
100
AcDbBlockTableRecord
  2
*D9
340
0
  0
ENDTAB
  0
ENDSEC
  0
SECTION
  2
BLOCKS
  0
BLOCK
  5
21
330
20
100
AcDbEntity
  8
0
100
AcDbBlockBegin
  2
*Model_Space
 70
     0
 10
0.0
 20
0.0
 30
0.0
  3
*Model_Space
  1

  0
ENDBLK
  5
22
330
20
100
AcDbEntity
  8
0
100
AcDbBlockEnd
  0
BLOCK
  5
1D
330
1C
100
AcDbEntity
 67
     1
  8
0
100
AcDbBlockBegin
  2
*Paper_Space
 70
     0
 10
0.0
 20
0.0
 30
0.0
  3
*Paper_Space
  1

  0
ENDBLK
  5
1E
330
1C
100
AcDbEntity
 67
     1
  8
0
100
AcDbBlockEnd
  0
BLOCK
  5
3B
330
3A
100
AcDbEntity
  8
0
  6
Continuous
 62
     7
100
AcDbBlockBegin
  2
SIEMENS_OUTLINE_BL0
 70
     0
 10
0.0
 20
0.0
 30
0.0
  3
SIEMENS_OUTLINE_BL0
  1

  0
LINE
  5
3C
330
3A
100
AcDbEntity
  8
0
  6
Continuous
 62
     7
100
AcDbLine
 10
289.1235341257
 20
21.4969115175
 30
0.0
 11
289.1235341257
 21
16.7436424342
 31
0.0
  0
LINE
  5
3D
330
3A
100
AcDbEntity
  8
0
  6
Continuous
 62
     7
100
AcDbLine
 10
290.5495148507
 20
21.4969115175
 30
0.0
 11
290.5495148507
 21
16.7436424342
 31
0.0
  0
LINE
  5
3E
330
3A
100
AcDbEntity
  8
0
  6
Continuous
 62
     7
100
AcDbLine
 10
289.1235341257
 20
16.7436424342
 30
0.0
 11
290.5495148507
 21
16.7436424342
 31
0.0
  0
LINE
  5
3F
330
3A
100
AcDbEntity
  8
0
  6
Continuous
 62
     7
100
AcDbLine
 10
289.1235341257
 20
21.4969115175
 30
0.0
 11
290.5495148507
 21
21.4969115175
 31
0.0
  0
LINE
  5
40
330
3A
100
AcDbEntity
  8
0
  6
Continuous
 62
     7
100
AcDbLine
 10
291.6427667399
 20
21.4969115175
 30
0.0
 11
291.6427667399
 21
16.7436424342
 31
0.0
  0
LINE
  5
41
330
3A
100
AcDbEntity
  8
0
  6
Continuous
 62
     7
100
AcDbLine
 10
291.6427667399
 20
16.7436424342
 30
0.0
 11
295.2077185523
 21
16.7436424342
 31
0.0
  0
LINE
  5
42
330
3A
100
AcDbEntity
  8
0
  6
Continuous
 62
     7
100
AcDbLine
 10
295.2077185523
 20
17.64676356
 30
0.0
 11
293.021214774
 21
17.64676356
 31
0.0
  0
LINE
  5
43
330
3A
100
AcDbEntity
  8
0
  6
Continuous
 62
     7
100
AcDbLine
 10
295.2077185523
 20
17.64676356
 30
0.0
 11
295.2077185523
 21
16.7436424342
 31
0.0
  0
LINE
  5
44
330
3A
100
AcDbEntity
  8
0
  6
Continuous
 62
     7
100
AcDbLine
 10
295.1601858615
 20
21.4969115175
 30
0.0
 11
291.6427667399
 21
21.4969115175
 31
0.0
  0
LINE
  5
45
330
3A
100
AcDbEntity
  8
0
  6
Continuous
 62
     7
100
AcDbLine
 10
295.1601858615
 20
20.6175567371
 30
0.0
 11
293.021214774
 21
20.6175567371
 31
0.0
  0
LINE
  5
46
330
3A
100
AcDbEntity
  8
0
  6
Continuous
 62
     7
100
AcDbLine
 10
295.1601858615
 20
21.4969115175
 30
0.0
 11
295.1601858615
 21
20.6175567371
 31
0.0
  0
LINE
  5
47
330
3A
100
AcDbEntity
  8
0
  6
Continuous
 62
     7
100
AcDbLine
 10
294.8749897165
 20
18.7637817946
 30
0.0
 11
293.021214774
 21
18.7637817946
 31
0.0
  0
LINE
  5
48
330
3A
100
AcDbEntity
  8
0
  6
Continuous
 62
     7
100
AcDbLine
 10
294.8749897165
 20
19.5480711933
 30
0.0
 11
294.8749897165
 21
18.7637817946
 31
0.0
  0
LINE
  5
49
330
3A
100
AcDbEntity
  8
0
  6
Continuous
 62
     7
100
AcDbLine
 10
294.8749897165
 20
19.5480711933
 30
0.0
 11
293.021214774
 21
19.5480711933
 31
0.0
  0
LINE
  5
4A
330
3A
100
AcDbEntity
  8
0
  6
Continuous
 62
     7
100
AcDbLine
 10
293.021214774
 20
20.6175567371
 30
0.0
 11
293.021214774
 21
19.5480711933
 31
0.0
  0
LINE
  5
4B
330
3A
100
AcDbEntity
  8
0
  6
Continuous
 62
     7
100
AcDbLine
 10
293.021214774
 20
18.7637817946
 30
0.0
 11
293.021214774
 21
17.64676356
 31
0.0
  0
LINE
  5
4C
330
3A
100
AcDbEntity
  8
0
  6
Continuous
 62
     7
100
AcDbLine
 10
296.0157742965
 20
16.7436424342
 30
0.0
 11
296.0157742965
 21
21.4969115175
 31
0.0
  0
LINE
  5
4D
330
3A
100
AcDbEntity
  8
0
  6
Continuous
 62
     7
100
AcDbLine
 10
296.0157742965
 20
16.7436424342
 30
0.0
 11
296.9664281131
 21
16.7436424342
 31
0.0
  0
LINE
  5
4E
330
3A
100
AcDbEntity
  8
0
  6
Continuous
 62
     7
100
AcDbLine
 10
301.8622952689
 20
21.4969115175
 30
0.0
 11
301.8622952689
 21
16.7436424342
 31
0.0
  0
LINE
  5
4F
330
3A
100
AcDbEntity
  8
0
  6
Continuous
 62
     7
100
AcDbLine
 10
301.8622952689
 20
16.7436424342
 30
0.0
 11
300.4838472348
 21
16.7436424342
 31
0.0
  0
LINE
  5
50
330
3A
100
AcDbEntity
  8
0
  6
Continuous
 62
     7
100
AcDbLine
 10
298.2973434565
 20
16.6961097434
 30
0.0
 11
299.1529318914
 21
16.6961097434
 31
0.0
  0
LINE
  5
51
330
3A
100
AcDbEntity
  8
0
  6
Continuous
 62
     7
100
AcDbLine
 10
298.2973434565
 20
16.6961097434
 30
0.0
 11
296.9664281131
 21
19.7857346475
 31
0.0
  0
LINE
  5
52
330
3A
100
AcDbEntity
  8
0
  6
Continuous
 62
     7
100
AcDbLine
 10
296.9664281131
 20
16.7436424342
 30
0.0
 11
296.9664281131
 21
19.7857346475
 31
0.0
  0
LINE
  5
53
330
3A
100
AcDbEntity
  8
0
  6
Continuous
 62
     7
100
AcDbLine
 10
300.4838472348
 20
19.8332673383
 30
0.0
 11
299.1529318914
 21
16.6961097434
 31
0.0
  0
LINE
  5
54
330
3A
100
AcDbEntity
  8
0
  6
Continuous
 62
     7
100
AcDbLine
 10
297.7269511665
 20
21.4969115175
 30
0.0
 11
296.0157742965
 21
21.4969115175
 31
0.0
  0
LINE
  5
55
330
3A
100
AcDbEntity
  8
0
  6
Continuous
 62
     7
100
AcDbLine
 10
301.8622952689
 20
21.4969115175
 30
0.0
 11
300.1511183989
 21
21.4969115175
 31
0.0
  0
LINE
  5
56
330
3A
100
AcDbEntity
  8
0
  6
Continuous
 62
     7
100
AcDbLine
 10
297.7269511665
 20
21.4969115175
 30
0.0
 11
298.9628011281
 21
18.5974173767
 31
0.0
  0
LINE
  5
57
330
3A
100
AcDbEntity
  8
0
  6
Continuous
 62
     7
100
AcDbLine
 10
300.1511183989
 20
21.4969115175
 30
0.0
 11
298.9628011281
 21
18.5974173767
 31
0.0
  0
LINE
  5
58
330
3A
100
AcDbEntity
  8
0
  6
Continuous
 62
     7
100
AcDbLine
 10
300.4838472348
 20
19.8332673383
 30
0.0
 11
300.4838472348
 21
16.7436424342
 31
0.0
  0
LINE
  5
59
330
3A
100
AcDbEntity
  8
0
  6
Continuous
 62
     7
100
AcDbLine
 10
302.9555471581
 20
21.4969115175
 30
0.0
 11
302.9555471581
 21
16.7436424342
 31
0.0
  0
LINE
  5
5A
330
3A
100
AcDbEntity
  8
0
  6
Continuous
 62
     7
100
AcDbLine
 10
302.9555471581
 20
16.7436424342
 30
0.0
 11
306.5204989705
 21
16.7436424342
 31
0.0
  0
LINE
  5
5B
330
3A
100
AcDbEntity
  8
0
  6
Continuous
 62
     7
100
AcDbLine
 10
306.5204989705
 20
17.64676356
 30
0.0
 11
304.3339951922
 21
17.64676356
 31
0.0
  0
LINE
  5
5C
330
3A
100
AcDbEntity
  8
0
  6
Continuous
 62
     7
100
AcDbLine
 10
306.5204989705
 20
17.64676356
 30
0.0
 11
306.5204989705
 21
16.7436424342
 31
0.0
  0
LINE
  5
5D
330
3A
100
AcDbEntity
  8
0
  6
Continuous
 62
     7
100
AcDbLine
 10
306.4729662797
 20
21.4969115175
 30
0.0
 11
302.9555471581
 21
21.4969115175
 31
0.0
  0
LINE
  5
5E
330
3A
100
AcDbEntity
  8
0
  6
Continuous
 62
     7
100
AcDbLine
 10
306.4729662797
 20
20.6175567371
 30
0.0
 11
304.3339951922
 21
20.6175567371
 31
0.0
  0
LINE
  5
5F
330
3A
100
AcDbEntity
  8
0
  6
Continuous
 62
     7
100
AcDbLine
 10
306.4729662797
 20
21.4969115175
 30
0.0
 11
306.4729662797
 21
20.6175567371
 31
0.0
  0
LINE
  5
60
330
3A
100
AcDbEntity
  8
0
  6
Continuous
 62
     7
100
AcDbLine
 10
306.1877701347
 20
18.7637817946
 30
0.0
 11
304.3339951922
 21
18.7637817946
 31
0.0
  0
LINE
  5
61
330
3A
100
AcDbEntity
  8
0
  6
Continuous
 62
     7
100
AcDbLine
 10
306.1877701347
 20
19.5480711933
 30
0.0
 11
306.1877701347
 21
18.7637817946
 31
0.0
  0
LINE
  5
62
330
3A
100
AcDbEntity
  8
0
  6
Continuous
 62
     7
100
AcDbLine
 10
306.1877701347
 20
19.5480711933
 30
0.0
 11
304.3339951922
 21
19.5480711933
 31
0.0
  0
LINE
  5
63
330
3A
100
AcDbEntity
  8
0
  6
Continuous
 62
     7
100
AcDbLine
 10
304.3339951922
 20
20.6175567371
 30
0.0
 11
304.3339951922
 21
19.5480711933
 31
0.0
  0
LINE
  5
64
330
3A
100
AcDbEntity
  8
0
  6
Continuous
 62
     7
100
AcDbLine
 10
304.3339951922
 20
18.7637817946
 30
0.0
 11
304.3339951922
 21
17.64676356
 31
0.0
  0
LINE
  5
65
330
3A
100
AcDbEntity
  8
0
  6
Continuous
 62
     7
100
AcDbLine
 10
307.3047883693
 20
16.7436424342
 30
0.0
 11
307.3047883693
 21
21.4969115175
 31
0.0
  0
LINE
  5
66
330
3A
100
AcDbEntity
  8
0
  6
Continuous
 62
     7
100
AcDbLine
 10
311.4876651625
 20
21.4969115175
 30
0.0
 11
311.4876651625
 21
16.7436424342
 31
0.0
  0
LINE
  5
67
330
3A
100
AcDbEntity
  8
0
  6
Continuous
 62
     7
100
AcDbLine
 10
307.3047883693
 20
16.7436424342
 30
0.0
 11
308.2554421859
 21
16.7436424342
 31
0.0
  0
LINE
  5
68
330
3A
100
AcDbEntity
  8
0
  6
Continuous
 62
     7
100
AcDbLine
 10
311.4876651625
 20
21.4969115175
 30
0.0
 11
310.5370113459
 21
21.4969115175
 31
0.0
  0
LINE
  5
69
330
3A
100
AcDbEntity
  8
0
  6
Continuous
 62
     7
100
AcDbLine
 10
308.8496008213
 20
21.4969115175
 30
0.0
 11
307.3047883693
 21
21.4969115175
 31
0.0
  0
LINE
  5
6A
330
3A
100
AcDbEntity
  8
0
  6
Continuous
 62
     7
100
AcDbLine
 10
311.4876651625
 20
16.7436424342
 30
0.0
 11
309.9666190559
 21
16.7436424342
 31
0.0
  0
LINE
  5
6B
330
3A
100
AcDbEntity
  8
0
  6
Continuous
 62
     7
100
AcDbLine
 10
309.9666190559
 20
16.7436424342
 30
0.0
 11
308.2554421859
 21
19.7857346475
 31
0.0
  0
LINE
  5
6C
330
3A
100
AcDbEntity
  8
0
  6
Continuous
 62
     7
100
AcDbLine
 10
308.8496008213
 20
21.4969115175
 30
0.0
 11
310.5370113459
 21
18.5498846858
 31
0.0
  0
LINE
  5
6D
330
3A
100
AcDbEntity
  8
0
  6
Continuous
 62
     7
100
AcDbLine
 10
310.5370113459
 20
21.4969115175
 30
0.0
 11
310.5370113459
 21
18.5498846858
 31
0.0
  0
LINE
  5
6E
330
3A
100
AcDbEntity
  8
0
  6
Continuous
 62
     7
100
AcDbLine
 10
308.2554421859
 20
16.7436424342
 30
0.0
 11
308.2554421859
 21
19.7857346475
 31
0.0
  0
LINE
  5
6F
330
3A
100
AcDbEntity
  8
0
  6
Continuous
 62
     7
100
AcDbLine
 10
312.2957209067
 20
16.8387078159
 30
0.0
 11
312.2957209067
 21
17.7893616325
 31
0.0
  0
LINE
  5
70
330
3A
100
AcDbEntity
  8
0
  6
Continuous
 62
     7
100
AcDbLine
 10
315.623009265
 20
20.49872501
 30
0.0
 11
315.623009265
 21
21.4493788266
 31
0.0
  0
ARC
  5
71
330
3A
100
AcDbEntity
  8
0
  6
Continuous
 62
     7
100
AcDbCircle
 10
314.0003620317
 20
18.7008009792
 30
0.0
 40
1.111619360599997
100
AcDbArc
 50
277.7099956934
 51
295.6884927746
  0
ARC
  5
72
330
3A
100
AcDbEntity
  8
0
  6
Continuous
 62
     7
100
AcDbCircle
 10
314.2846720145
 20
17.9759752156
 30
0.0
 40
0.3401689265
100
AcDbArc
 50
305.503221255
 51
72.46528985229999
  0
ARC
  5
73
330
3A
100
AcDbEntity
  8
0
  6
Continuous
 62
     7
100
AcDbCircle
 10
313.7186782063
 20
21.3776821252
 30
0.0
 40
4.756794641099999
100
AcDbArc
 50
252.5939200548001
 51
280.9816604256
  0
ARC
  5
74
330
3A
100
AcDbEntity
  8
0
  6
Continuous
 62
     7
100
AcDbCircle
 10
314.1735135694
 20
18.7596683887
 30
0.0
 40
2.100726595299998
100
AcDbArc
 50
282.405835852
 51
311.8644433928
  0
ARC
  5
75
330
3A
100
AcDbEntity
  8
0
  6
Continuous
 62
     7
100
AcDbCircle
 10
313.8999492223
 20
20.3680101102
 30
0.0
 40
0.3029626476
100
AcDbArc
 50
154.4400348282
 51
221.8201698801
  0
ARC
  5
76
330
3A
100
AcDbEntity
  8
0
  6
Continuous
 62
     7
100
AcDbCircle
 10
313.9791703737
 20
20.2887889588
 30
0.0
 40
0.4103089737
100
AcDbArc
 50
102.8287828681
 51
149.2259639003
  0
ARC
  5
77
330
3A
100
AcDbEntity
  8
0
  6
Continuous
 62
     7
100
AcDbCircle
 10
314.3961972093
 20
18.546453629
 30
0.0
 40
2.201836557
100
AcDbArc
 50
84.0400061857
 51
103.3427657870999
  0
ARC
  5
78
330
3A
100
AcDbEntity
  8
0
  6
Continuous
 62
     7
100
AcDbCircle
 10
314.0552333846
 20
16.1290897051
 30
0.0
 40
4.642373736499997
100
AcDbArc
 50
70.2625858546
 51
82.95241863799999
  0
ARC
  5
79
330
3A
100
AcDbEntity
  8
0
  6
Continuous
 62
     7
100
AcDbCircle
 10
313.5412151824001
 20
20.8007125947
 30
0.0
 40
3.258755990899997
100
AcDbArc
 50
247.5300206145
 51
280.7579522143
  0
ARC
  5
7A
330
3A
100
AcDbEntity
  8
0
  6
Continuous
 62
     7
100
AcDbCircle
 10
307.1562487104
 20
2.5491926343
 30
0.0
 40
17.3316084133
100
AcDbArc
 50
65.34146746500001
 51
67.39977707359999
  0
ARC
  5
7B
330
3A
100
AcDbEntity
  8
0
  6
Continuous
 62
     7
100
AcDbCircle
 10
317.9521111158
 20
28.3416189974
 30
0.0
 40
10.6291642039
100
AcDbArc
 50
242.8620101252001
 51
247.1042029186
  0
ARC
  5
7C
330
3A
100
AcDbEntity
  8
0
  6
Continuous
 62
     7
100
AcDbCircle
 10
314.0972098893
 20
20.8076875004
 30
0.0
 40
2.166291629199998
100
AcDbArc
 50
227.3119280794
 51
242.7040315235
  0
ARC
  5
7D
330
3A
100
AcDbEntity
  8
0
  6
Continuous
 62
     7
100
AcDbCircle
 10
313.4931790796
 20
20.1020098596
 30
0.0
 40
1.238521734
100
AcDbArc
 50
194.7952194236
 51
225.7176549047
  0
ARC
  5
7E
330
3A
100
AcDbEntity
  8
0
  6
Continuous
 62
     7
100
AcDbCircle
 10
313.5553372138
 20
20.1422298287
 30
0.0
 40
1.309092072899999
100
AcDbArc
 50
164.1974860461
 51
195.8025139539
  0
ARC
  5
7F
330
3A
100
AcDbEntity
  8
0
  6
Continuous
 62
     7
100
AcDbCircle
 10
314.1123609345001
 20
19.2539626688
 30
0.0
 40
2.366924815299999
100
AcDbArc
 50
86.22180229280001
 51
120.4272602309
  0
ARC
  5
80
330
3A
100
AcDbEntity
  8
0
  6
Continuous
 62
     7
100
AcDbCircle
 10
313.8435041519
 20
12.5577948477
 30
0.0
 40
9.0679051661
100
AcDbArc
 50
78.68270492259998
 51
87.3147599624
  0
ARC
  5
81
330
3A
100
AcDbEntity
  8
0
  6
Continuous
 62
     7
100
AcDbCircle
 10
313.3874349735
 20
20.2497375912
 30
0.0
 40
1.119747444
100
AcDbArc
 50
142.813917903
 51
167.1522951417
  0
ARC
  5
82
330
3A
100
AcDbEntity
  8
0
  6
Continuous
 62
     7
100
AcDbCircle
 10
313.7327443151
 20
19.9431558946
 30
0.0
 40
1.580546684499998
100
AcDbArc
 50
121.2140948535
 51
141.5254768286
  0
ARC
  5
83
330
3A
100
AcDbEntity
  8
0
  6
Continuous
 62
     7
100
AcDbCircle
 10
314.3099186807
 20
20.7542132232
 30
0.0
 40
0.8661276051999998
100
AcDbArc
 50
222.7760387596
 51
239.0362434679
  0
ARC
  5
84
330
3A
100
AcDbEntity
  8
0
  6
Continuous
 62
     7
100
AcDbCircle
 10
311.8032091024
 20
13.4239410246
 30
0.0
 40
6.858773576299999
100
AcDbArc
 50
59.90202725600001
 51
68.2036481279
  0
ARC
  5
85
330
3A
100
AcDbEntity
  8
0
  6
Continuous
 62
     7
100
AcDbCircle
 10
315.2117035963
 20
22.3498275319
 30
0.0
 40
2.698741017099999
100
AcDbArc
 50
240.0481997804
 51
251.3779673736999
  0
ARC
  5
86
330
3A
100
AcDbEntity
  8
0
  6
Continuous
 62
     7
100
AcDbCircle
 10
314.5462464295
 20
18.1929289165
 30
0.0
 40
1.4334474881
100
AcDbArc
 50
315.8904553224
 51
333.5229264373
  0
ARC
  5
87
330
3A
100
AcDbEntity
  8
0
  6
Continuous
 62
     7
100
AcDbCircle
 10
314.5508846732
 20
18.1395217664
 30
0.0
 40
1.406228711899998
100
AcDbArc
 50
335.3867972702
 51
24.3915119402
  0
ARC
  5
88
330
3A
100
AcDbEntity
  8
0
  6
Continuous
 62
     7
100
AcDbCircle
 10
314.4786797697
 20
18.0616650746
 30
0.0
 40
1.504702514799999
100
AcDbArc
 50
25.95629166050001
 51
59.4834829668
  0
LINE
  5
89
330
3A
100
AcDbEntity
  8
0
  6
Continuous
 62
     7
100
AcDbLine
 10
284.7029938783
 20
16.8387078159
 30
0.0
 11
284.7029938783
 21
17.7893616325
 31
0.0
  0
LINE
  5
8A
330
3A
100
AcDbEntity
  8
0
  6
Continuous
 62
     7
100
AcDbLine
 10
288.0302822366
 20
20.49872501
 30
0.0
 11
288.0302822366
 21
21.4493788266
 31
0.0
  0
ARC
  5
8B
330
3A
100
AcDbEntity
  8
0
  6
Continuous
 62
     7
100
AcDbCircle
 10
286.4076350033
 20
18.7008009792
 30
0.0
 40
1.111619360599997
100
AcDbArc
 50
277.7099956934
 51
295.6884927746
  0
ARC
  5
8C
330
3A
100
AcDbEntity
  8
0
  6
Continuous
 62
     7
100
AcDbCircle
 10
286.691944986
 20
17.9759752156
 30
0.0
 40
0.3401689265
100
AcDbArc
 50
305.5032212556
 51
72.4652898515
  0
ARC
  5
8D
330
3A
100
AcDbEntity
  8
0
  6
Continuous
 62
     7
100
AcDbCircle
 10
286.1259511779
 20
21.3776821252
 30
0.0
 40
4.756794641099999
100
AcDbArc
 50
252.5939200545
 51
280.9816604253
  0
ARC
  5
8E
330
3A
100
AcDbEntity
  8
0
  6
Continuous
 62
     7
100
AcDbCircle
 10
286.580786541
 20
18.7596683887
 30
0.0
 40
2.100726595299998
100
AcDbArc
 50
282.4058358513
 51
311.8644433923
  0
ARC
  5
8F
330
3A
100
AcDbEntity
  8
0
  6
Continuous
 62
     7
100
AcDbCircle
 10
286.3072221939
 20
20.3680101102
 30
0.0
 40
0.3029626476
100
AcDbArc
 50
154.4400348282
 51
221.8201698801
  0
ARC
  5
90
330
3A
100
AcDbEntity
  8
0
  6
Continuous
 62
     7
100
AcDbCircle
 10
286.3864433453
 20
20.2887889588
 30
0.0
 40
0.4103089737
100
AcDbArc
 50
102.8287828727
 51
149.2259639027
  0
ARC
  5
91
330
3A
100
AcDbEntity
  8
0
  6
Continuous
 62
     7
100
AcDbCircle
 10
286.8034701809
 20
18.546453629
 30
0.0
 40
2.201836557
100
AcDbArc
 50
84.0400061859
 51
103.3427657872
  0
ARC
  5
92
330
3A
100
AcDbEntity
  8
0
  6
Continuous
 62
     7
100
AcDbCircle
 10
286.4625063562
 20
16.1290897051
 30
0.0
 40
4.642373736499997
100
AcDbArc
 50
70.2625858546
 51
82.9524186379
  0
ARC
  5
93
330
3A
100
AcDbEntity
  8
0
  6
Continuous
 62
     7
100
AcDbCircle
 10
285.948488154
 20
20.8007125947
 30
0.0
 40
3.258755990899997
100
AcDbArc
 50
247.5300206148
 51
280.7579522145
  0
ARC
  5
94
330
3A
100
AcDbEntity
  8
0
  6
Continuous
 62
     7
100
AcDbCircle
 10
279.563521682
 20
2.5491926343
 30
0.0
 40
17.3316084133
100
AcDbArc
 50
65.34146746500001
 51
67.39977707359999
  0
ARC
  5
95
330
3A
100
AcDbEntity
  8
0
  6
Continuous
 62
     7
100
AcDbCircle
 10
290.3593840874
 20
28.3416189974
 30
0.0
 40
10.6291642039
100
AcDbArc
 50
242.8620101252001
 51
247.1042029185
  0
ARC
  5
96
330
3A
100
AcDbEntity
  8
0
  6
Continuous
 62
     7
100
AcDbCircle
 10
286.5044828608
 20
20.8076875004
 30
0.0
 40
2.166291629199998
100
AcDbArc
 50
227.3119280794
 51
242.7040315235
  0
ARC
  5
97
330
3A
100
AcDbEntity
  8
0
  6
Continuous
 62
     7
100
AcDbCircle
 10
285.9004520512
 20
20.1020098596
 30
0.0
 40
1.238521734
100
AcDbArc
 50
194.7952194234
 51
225.7176549042
  0
ARC
  5
98
330
3A
100
AcDbEntity
  8
0
  6
Continuous
 62
     7
100
AcDbCircle
 10
286.519633906
 20
19.2539626688
 30
0.0
 40
2.366924815299999
100
AcDbArc
 50
86.22180229280001
 51
120.4272602309
  0
ARC
  5
99
330
3A
100
AcDbEntity
  8
0
  6
Continuous
 62
     7
100
AcDbCircle
 10
286.2507771235
 20
12.5577948477
 30
0.0
 40
9.0679051661
100
AcDbArc
 50
78.68270492259998
 51
87.3147599624
  0
ARC
  5
9A
330
3A
100
AcDbEntity
  8
0
  6
Continuous
 62
     7
100
AcDbCircle
 10
286.1400172867
 20
19.9431558946
 30
0.0
 40
1.580546684599998
100
AcDbArc
 50
121.2140948541
 51
141.525476829
  0
ARC
  5
9B
330
3A
100
AcDbEntity
  8
0
  6
Continuous
 62
     7
100
AcDbCircle
 10
286.7171916523
 20
20.7542132232
 30
0.0
 40
0.8661276051999998
100
AcDbArc
 50
222.7760387596
 51
239.0362434679
  0
ARC
  5
9C
330
3A
100
AcDbEntity
  8
0
  6
Continuous
 62
     7
100
AcDbCircle
 10
284.210482074
 20
13.4239410246
 30
0.0
 40
6.858773576299999
100
AcDbArc
 50
59.90202725620001
 51
68.20364812820002
  0
ARC
  5
9D
330
3A
100
AcDbEntity
  8
0
  6
Continuous
 62
     7
100
AcDbCircle
 10
287.6189765678
 20
22.3498275319
 30
0.0
 40
2.698741017099999
100
AcDbArc
 50
240.0481997804
 51
251.3779673734
  0
ARC
  5
9E
330
3A
100
AcDbEntity
  8
0
  6
Continuous
 62
     7
100
AcDbCircle
 10
286.953519401
 20
18.1929289165
 30
0.0
 40
1.4334474881
100
AcDbArc
 50
315.8904553226
 51
333.5229264375
  0
ARC
  5
9F
330
3A
100
AcDbEntity
  8
0
  6
Continuous
 62
     7
100
AcDbCircle
 10
286.9581576447
 20
18.1395217664
 30
0.0
 40
1.406228711899998
100
AcDbArc
 50
335.3867972703
 51
24.3915119403
  0
ARC
  5
A0
330
3A
100
AcDbEntity
  8
0
  6
Continuous
 62
     7
100
AcDbCircle
 10
286.8859527412
 20
18.0616650746
 30
0.0
 40
1.504702514699999
100
AcDbArc
 50
25.9562916611
 51
59.4834829676
  0
LINE
  5
A1
330
3A
100
AcDbEntity
  8
0
  6
Continuous
 62
     7
100
AcDbLine
 10
284.8948224676
 20
20.9161059766
 30
0.0
 11
285.1688882922
 21
21.1901790542
 31
0.0
  0
ARC
  5
A2
330
3A
100
AcDbEntity
  8
0
  6
Continuous
 62
     7
100
AcDbCircle
 10
285.9626101853
 20
20.1422298287
 30
0.0
 40
1.309092072899999
100
AcDbArc
 50
164.1974860461
 51
195.8025139539
  0
ARC
  5
A3
330
3A
100
AcDbEntity
  8
0
  6
Continuous
 62
     7
100
AcDbCircle
 10
285.7947079451
 20
20.2497375912
 30
0.0
 40
1.119747444
100
AcDbArc
 50
142.813917903
 51
167.1522951417
  0
ENDBLK
  5
A4
330
3A
100
AcDbEntity
  8
0
100
AcDbBlockEnd
  0
BLOCK
  5
BB7D
330
BB73
100
AcDbEntity
  8
0
100
AcDbBlockBegin
  2
*D1
 70
     1
 10
0.0
 20
0.0
 30
0.0
  3
*D1
  1

  0
LINE
  5
BCD6
330
BB73
100
AcDbEntity
  8
10100_FRONT_DIM
  6
Continuous
 62
     7
370
    -2
100
AcDbLine
 10
88.38187808894781
 20
369.2203647399069
 30
0.0
 11
88.38187808894781
 21
355.6546780249299
 31
0.0
  0
LINE
  5
BCD7
330
BB73
100
AcDbEntity
  8
10100_FRONT_DIM
  6
Continuous
 62
     7
370
    -2
100
AcDbLine
 10
133.1818780889478
 20
369.2203647399069
 30
0.0
 11
133.1818780889478
 21
355.6546780249299
 31
0.0
  0
LINE
  5
BCD8
330
BB73
100
AcDbEntity
  8
10100_FRONT_DIM
  6
Continuous
370
    -2
100
AcDbLine
 10
91.88187808894779
 20
357.6546780249298
 30
0.0
 11
106.3652114222811
 21
357.6546780249298
 31
0.0
  0
LINE
  5
BCD9
330
BB73
100
AcDbEntity
  8
10100_FRONT_DIM
  6
Continuous
370
    -2
100
AcDbLine
 10
129.6818780889478
 20
357.6546780249298
 30
0.0
 11
115.1985447556145
 21
357.6546780249298
 31
0.0
  0
SOLID
  5
BCDA
330
BB73
100
AcDbEntity
  8
10100_FRONT_DIM
  6
Continuous
100
AcDbTrace
 10
91.88187808894779
 20
358.2380113582632
 30
0.0
 11
91.88187808894779
 21
357.0713446915966
 31
0.0
 12
88.38187808894781
 22
357.6546780249298
 32
0.0
 13
88.38187808894781
 23
357.6546780249298
 33
0.0
  0
SOLID
  5
BCDB
330
BB73
100
AcDbEntity
  8
10100_FRONT_DIM
  6
Continuous
100
AcDbTrace
 10
129.6818780889478
 20
358.2380113582632
 30
0.0
 11
129.6818780889478
 21
357.0713446915966
 31
0.0
 12
133.1818780889478
 22
357.6546780249298
 32
0.0
 13
133.1818780889478
 23
357.6546780249298
 33
0.0
  0
MTEXT
  5
BCDC
330
BB73
100
AcDbEntity
  8
10100_FRONT_DIM
  6
Continuous
 62
     7
370
    13
100
AcDbMText
 10
110.7818780889478
 20
357.6546780249298
 30
0.0
 40
3.5
 41
0.0
 71
     5
 72
     1
  1
\A1;45
 73
     1
 44
1.0
1001
ACAD
1000
MTEXTBEGIN
1070
    73
1070
     1
1070
    44
1040
1.0
1070
    74
1070
     0
1000
MTEXTEND
  0
POINT
  5
BCDD
330
BB73
100
AcDbEntity
  8
Defpoints
  6
Continuous
 62
     0
100
AcDbPoint
 10
88.38187808894781
 20
369.2203647399069
 30
0.0
  0
POINT
  5
BCDE
330
BB73
100
AcDbEntity
  8
Defpoints
  6
Continuous
 62
     0
100
AcDbPoint
 10
133.1818780889478
 20
369.2203647399069
 30
0.0
  0
POINT
  5
BCDF
330
BB73
100
AcDbEntity
  8
Defpoints
  6
Continuous
 62
     0
100
AcDbPoint
 10
133.1818780889478
 20
357.6546780249298
 30
0.0
  0
ENDBLK
  5
BB7E
330
BB73
100
AcDbEntity
  8
0
100
AcDbBlockEnd
  0
BLOCK
  5
BB8A
330
BB80
100
AcDbEntity
  8
0
100
AcDbBlockBegin
  2
*D2
 70
     1
 10
0.0
 20
0.0
 30
0.0
  3
*D2
  1

  0
LINE
  5
BCCC
330
BB80
100
AcDbEntity
  8
10100_FRONT_DIM
  6
Continuous
 62
     7
370
    -2
100
AcDbLine
 10
132.1818780889478
 20
464.8203647399068
 30
0.0
 11
143.8651971305686
 21
464.8203647399068
 31
0.0
  0
LINE
  5
BCCD
330
BB80
100
AcDbEntity
  8
10100_FRONT_DIM
  6
Continuous
 62
     7
370
    -2
100
AcDbLine
 10
131.6818780889478
 20
367.7203647399069
 30
0.0
 11
143.8651971305686
 21
367.7203647399069
 31
0.0
  0
LINE
  5
BCCE
330
BB80
100
AcDbEntity
  8
10100_FRONT_DIM
  6
Continuous
370
    -2
100
AcDbLine
 10
141.8651971305686
 20
461.3203647399068
 30
0.0
 11
141.8651971305686
 21
420.6870314065735
 31
0.0
  0
LINE
  5
BCCF
330
BB80
100
AcDbEntity
  8
10100_FRONT_DIM
  6
Continuous
370
    -2
100
AcDbLine
 10
141.8651971305686
 20
371.2203647399069
 30
0.0
 11
141.8651971305686
 21
411.8536980732401
 31
0.0
  0
SOLID
  5
BCD0
330
BB80
100
AcDbEntity
  8
10100_FRONT_DIM
  6
Continuous
100
AcDbTrace
 10
141.2818637972353
 20
461.3203647399068
 30
0.0
 11
142.448530463902
 21
461.3203647399068
 31
0.0
 12
141.8651971305686
 22
464.8203647399068
 32
0.0
 13
141.8651971305686
 23
464.8203647399068
 33
0.0
  0
SOLID
  5
BCD1
330
BB80
100
AcDbEntity
  8
10100_FRONT_DIM
  6
Continuous
100
AcDbTrace
 10
141.2818637972353
 20
371.2203647399069
 30
0.0
 11
142.4485304639019
 21
371.2203647399069
 31
0.0
 12
141.8651971305686
 22
367.7203647399069
 32
0.0
 13
141.8651971305686
 23
367.7203647399069
 33
0.0
  0
MTEXT
  5
BCD2
330
BB80
100
AcDbEntity
  8
10100_FRONT_DIM
  6
Continuous
 62
     7
370
    13
100
AcDbMText
 10
141.8651971305685
 20
416.2703647399068
 30
0.0
 40
3.5
 41
0.0
 71
     5
 72
     1
  1
\A1;97
 11
0.0000000000000001
 21
1.0
 31
0.0
 73
     1
 44
1.0
1001
ACAD
1000
MTEXTBEGIN
1070
    73
1070
     1
1070
    44
1040
1.0
1070
    74
1070
     0
1000
MTEXTEND
  0
POINT
  5
BCD3
330
BB80
100
AcDbEntity
  8
Defpoints
  6
Continuous
 62
     0
100
AcDbPoint
 10
132.1818780889478
 20
464.8203647399068
 30
0.0
  0
POINT
  5
BCD4
330
BB80
100
AcDbEntity
  8
Defpoints
  6
Continuous
 62
     0
100
AcDbPoint
 10
131.6818780889478
 20
367.7203647399069
 30
0.0
  0
POINT
  5
BCD5
330
BB80
100
AcDbEntity
  8
Defpoints
  6
Continuous
 62
     0
100
AcDbPoint
 10
141.8651971305686
 20
367.7203647399069
 30
0.0
  0
ENDBLK
  5
BB8B
330
BB80
100
AcDbEntity
  8
0
100
AcDbBlockEnd
  0
BLOCK
  5
BB97
330
BB8D
100
AcDbEntity
  8
0
100
AcDbBlockBegin
  2
*D3
 70
     1
 10
0.0
 20
0.0
 30
0.0
  3
*D3
  1

  0
LINE
  5
BF9F
330
BB8D
100
AcDbEntity
  8
11100_LEFT_DIM
  6
Continuous
 62
     7
370
    -2
100
AcDbLine
 10
164.7664204275264
 20
400.9203647399068
 30
0.0
 11
164.7664204275264
 21
358.0830547983893
 31
0.0
  0
LINE
  5
BFA0
330
BB8D
100
AcDbEntity
  8
11100_LEFT_DIM
  6
Continuous
 62
     7
370
    -2
100
AcDbLine
 10
207.7664204275264
 20
375.0203647399068
 30
0.0
 11
207.7664204275264
 21
358.0830547983893
 31
0.0
  0
LINE
  5
BFA1
330
BB8D
100
AcDbEntity
  8
11100_LEFT_DIM
  6
Continuous
370
    -2
100
AcDbLine
 10
168.2664204275264
 20
360.0830547983894
 30
0.0
 11
181.8497537608596
 21
360.0830547983894
 31
0.0
  0
LINE
  5
BFA2
330
BB8D
100
AcDbEntity
  8
11100_LEFT_DIM
  6
Continuous
370
    -2
100
AcDbLine
 10
204.2664204275264
 20
360.0830547983894
 30
0.0
 11
190.683087094193
 21
360.0830547983894
 31
0.0
  0
SOLID
  5
BFA3
330
BB8D
100
AcDbEntity
  8
11100_LEFT_DIM
  6
Continuous
100
AcDbTrace
 10
168.2664204275264
 20
360.6663881317227
 30
0.0
 11
168.2664204275264
 21
359.4997214650561
 31
0.0
 12
164.7664204275264
 22
360.0830547983894
 32
0.0
 13
164.7664204275264
 23
360.0830547983894
 33
0.0
  0
SOLID
  5
BFA4
330
BB8D
100
AcDbEntity
  8
11100_LEFT_DIM
  6
Continuous
100
AcDbTrace
 10
204.2664204275264
 20
360.6663881317227
 30
0.0
 11
204.2664204275264
 21
359.4997214650561
 31
0.0
 12
207.7664204275264
 22
360.0830547983894
 32
0.0
 13
207.7664204275264
 23
360.0830547983894
 33
0.0
  0
MTEXT
  5
BFA5
330
BB8D
100
AcDbEntity
  8
11100_LEFT_DIM
  6
Continuous
 62
     7
370
    13
100
AcDbMText
 10
186.2664204275264
 20
360.0830547983894
 30
0.0
 40
3.5
 41
0.0
 71
     5
 72
     1
  1
\A1;43
 73
     1
 44
1.0
1001
ACAD
1000
MTEXTBEGIN
1070
    73
1070
     1
1070
    44
1040
1.0
1070
    74
1070
     0
1000
MTEXTEND
  0
POINT
  5
BFA6
330
BB8D
100
AcDbEntity
  8
Defpoints
  6
Continuous
 62
     0
100
AcDbPoint
 10
164.7664204275264
 20
400.9203647399068
 30
0.0
  0
POINT
  5
BFA7
330
BB8D
100
AcDbEntity
  8
Defpoints
  6
Continuous
 62
     0
100
AcDbPoint
 10
207.7664204275264
 20
375.0203647399068
 30
0.0
  0
POINT
  5
BFA8
330
BB8D
100
AcDbEntity
  8
Defpoints
  6
Continuous
 62
     0
100
AcDbPoint
 10
207.7664204275264
 20
360.0830547983894
 30
0.0
  0
ENDBLK
  5
BB98
330
BB8D
100
AcDbEntity
  8
0
100
AcDbBlockEnd
  0
BLOCK
  5
BBC2
330
BBB6
100
AcDbEntity
  8
0
100
AcDbBlockBegin
  2
*D4
 70
     1
 10
0.0
 20
0.0
 30
0.0
  3
*D4
  1

  0
LINE
  5
BFB4
330
BBB6
100
AcDbEntity
  8
11100_LEFT_DIM
  6
Continuous
 62
     7
370
    -2
100
AcDbLine
 10
159.7664204275264
 20
368.9703647399069
 30
0.0
 11
159.7664204275264
 21
358.0830547983893
 31
0.0
  0
LINE
  5
BFB5
330
BBB6
100
AcDbEntity
  8
11100_LEFT_DIM
  6
Continuous
 62
     7
370
    -2
100
AcDbLine
 10
164.7664204275264
 20
367.7203647399069
 30
0.0
 11
164.7664204275264
 21
358.0830547983893
 31
0.0
  0
LINE
  5
BFB6
330
BBB6
100
AcDbEntity
  8
11100_LEFT_DIM
  6
Continuous
370
    -2
100
AcDbLine
 10
156.2664204275264
 20
360.0830547983894
 30
0.0
 11
152.7664204275264
 21
360.0830547983894
 31
0.0
  0
LINE
  5
BFB7
330
BBB6
100
AcDbEntity
  8
11100_LEFT_DIM
  6
Continuous
370
    -2
100
AcDbLine
 10
168.2664204275264
 20
360.0830547983894
 30
0.0
 11
171.7664204275264
 21
360.0830547983894
 31
0.0
  0
MTEXT
  5
BFB8
330
BBB6
100
AcDbEntity
  8
11100_LEFT_DIM
  6
Continuous
 62
     7
370
    13
100
AcDbMText
 10
150.3594608666649
 20
360.0569027169056
 30
0.0
 40
3.5
 41
0.0
 71
     5
 72
     1
  1
\A1;5
 73
     1
 44
1.0
1001
ACAD
1000
MTEXTBEGIN
1070
    73
1070
     1
1070
    44
1040
1.0
1070
    74
1070
     0
1000
MTEXTEND
  0
LINE
  5
BFB9
330
BBB6
100
AcDbEntity
  8
11100_LEFT_DIM
  6
Continuous
370
    -2
100
AcDbLine
 10
159.7664204275264
 20
360.0830547983894
 30
0.0
 11
164.7664204275264
 21
360.0830547983894
 31
0.0
  0
SOLID
  5
BFBA
330
BBB6
100
AcDbEntity
  8
11100_LEFT_DIM
  6
Continuous
100
AcDbTrace
 10
156.2664204275264
 20
360.6663881317227
 30
0.0
 11
156.2664204275264
 21
359.4997214650561
 31
0.0
 12
159.7664204275264
 22
360.0830547983894
 32
0.0
 13
159.7664204275264
 23
360.0830547983894
 33
0.0
  0
SOLID
  5
BFBB
330
BBB6
100
AcDbEntity
  8
11100_LEFT_DIM
  6
Continuous
100
AcDbTrace
 10
168.2664204275264
 20
360.6663881317227
 30
0.0
 11
168.2664204275264
 21
359.4997214650561
 31
0.0
 12
164.7664204275264
 22
360.0830547983894
 32
0.0
 13
164.7664204275264
 23
360.0830547983894
 33
0.0
  0
POINT
  5
BFBC
330
BBB6
100
AcDbEntity
  8
Defpoints
  6
Continuous
 62
     0
100
AcDbPoint
 10
159.7664204275264
 20
368.9703647399069
 30
0.0
  0
POINT
  5
BFBD
330
BBB6
100
AcDbEntity
  8
Defpoints
  6
Continuous
 62
     0
100
AcDbPoint
 10
164.7664204275264
 20
367.7203647399069
 30
0.0
  0
POINT
  5
BFBE
330
BBB6
100
AcDbEntity
  8
Defpoints
  6
Continuous
 62
     0
100
AcDbPoint
 10
164.7664204275264
 20
360.0830547983894
 30
0.0
  0
ENDBLK
  5
BBC3
330
BBB6
100
AcDbEntity
  8
0
100
AcDbBlockEnd
  0
BLOCK
  5
BBCF
330
BBC5
100
AcDbEntity
  8
0
100
AcDbBlockBegin
  2
*D5
 70
     1
 10
0.0
 20
0.0
 30
0.0
  3
*D5
  1

  0
LINE
  5
BF87
330
BBC5
100
AcDbEntity
  8
11100_LEFT_DIM
  6
Continuous
 62
     7
370
    -2
100
AcDbLine
 10
164.7664204275264
 20
367.7203647399069
 30
0.0
 11
164.7664204275264
 21
352.4907290877783
 31
0.0
  0
LINE
  5
BF88
330
BBC5
100
AcDbEntity
  8
11100_LEFT_DIM
  6
Continuous
 62
     7
370
    -2
100
AcDbLine
 10
230.9664204275264
 20
391.7703647399068
 30
0.0
 11
230.9664204275264
 21
352.4907290877783
 31
0.0
  0
LINE
  5
BF89
330
BBC5
100
AcDbEntity
  8
11100_LEFT_DIM
  6
Continuous
370
    -2
100
AcDbLine
 10
168.2664204275264
 20
354.4907290877783
 30
0.0
 11
193.4497537608597
 21
354.4907290877783
 31
0.0
  0
LINE
  5
BF8A
330
BBC5
100
AcDbEntity
  8
11100_LEFT_DIM
  6
Continuous
370
    -2
100
AcDbLine
 10
227.4664204275264
 20
354.4907290877783
 30
0.0
 11
202.283087094193
 21
354.4907290877783
 31
0.0
  0
SOLID
  5
BF8B
330
BBC5
100
AcDbEntity
  8
11100_LEFT_DIM
  6
Continuous
100
AcDbTrace
 10
168.2664204275264
 20
355.0740624211116
 30
0.0
 11
168.2664204275264
 21
353.907395754445
 31
0.0
 12
164.7664204275264
 22
354.4907290877783
 32
0.0
 13
164.7664204275264
 23
354.4907290877783
 33
0.0
  0
SOLID
  5
BF8C
330
BBC5
100
AcDbEntity
  8
11100_LEFT_DIM
  6
Continuous
100
AcDbTrace
 10
227.4664204275264
 20
355.0740624211116
 30
0.0
 11
227.4664204275264
 21
353.907395754445
 31
0.0
 12
230.9664204275264
 22
354.4907290877783
 32
0.0
 13
230.9664204275264
 23
354.4907290877783
 33
0.0
  0
MTEXT
  5
BF8D
330
BBC5
100
AcDbEntity
  8
11100_LEFT_DIM
  6
Continuous
 62
     7
370
    13
100
AcDbMText
 10
197.8664204275264
 20
354.4907290877783
 30
0.0
 40
3.5
 41
0.0
 71
     5
 72
     1
  1
\A1;66
 73
     1
 44
1.0
1001
ACAD
1000
MTEXTBEGIN
1070
    73
1070
     1
1070
    44
1040
1.0
1070
    74
1070
     0
1000
MTEXTEND
  0
POINT
  5
BF8E
330
BBC5
100
AcDbEntity
  8
Defpoints
  6
Continuous
 62
     0
100
AcDbPoint
 10
164.7664204275264
 20
367.7203647399069
 30
0.0
  0
POINT
  5
BF8F
330
BBC5
100
AcDbEntity
  8
Defpoints
  6
Continuous
 62
     0
100
AcDbPoint
 10
230.9664204275264
 20
391.7703647399068
 30
0.0
  0
POINT
  5
BF90
330
BBC5
100
AcDbEntity
  8
Defpoints
  6
Continuous
 62
     0
100
AcDbPoint
 10
230.9664204275264
 20
354.4907290877783
 30
0.0
  0
ENDBLK
  5
BBD0
330
BBC5
100
AcDbEntity
  8
0
100
AcDbBlockEnd
  0
BLOCK
  5
BBDC
330
BBD2
100
AcDbEntity
  8
0
100
AcDbBlockBegin
  2
*D6
 70
     1
 10
0.0
 20
0.0
 30
0.0
  3
*D6
  1

  0
LINE
  5
BF7D
330
BBD2
100
AcDbEntity
  8
11100_LEFT_DIM
  6
Continuous
 62
     7
370
    -2
100
AcDbLine
 10
164.7664204275264
 20
367.7203647399069
 30
0.0
 11
164.7664204275264
 21
346.328863683472
 31
0.0
  0
LINE
  5
BF7E
330
BBD2
100
AcDbEntity
  8
11100_LEFT_DIM
  6
Continuous
 62
     7
370
    -2
100
AcDbLine
 10
254.3894204275264
 20
414.6203647399066
 30
0.0
 11
254.3894204275264
 21
346.328863683472
 31
0.0
  0
LINE
  5
BF7F
330
BBD2
100
AcDbEntity
  8
11100_LEFT_DIM
  6
Continuous
370
    -2
100
AcDbLine
 10
168.2664204275264
 20
348.328863683472
 30
0.0
 11
205.4529204275264
 21
348.328863683472
 31
0.0
  0
LINE
  5
BF80
330
BBD2
100
AcDbEntity
  8
11100_LEFT_DIM
  6
Continuous
370
    -2
100
AcDbLine
 10
250.8894204275264
 20
348.328863683472
 30
0.0
 11
213.7029204275264
 21
348.328863683472
 31
0.0
  0
SOLID
  5
BF81
330
BBD2
100
AcDbEntity
  8
11100_LEFT_DIM
  6
Continuous
100
AcDbTrace
 10
168.2664204275264
 20
348.9121970168053
 30
0.0
 11
168.2664204275264
 21
347.7455303501387
 31
0.0
 12
164.7664204275264
 22
348.328863683472
 32
0.0
 13
164.7664204275264
 23
348.328863683472
 33
0.0
  0
SOLID
  5
BF82
330
BBD2
100
AcDbEntity
  8
11100_LEFT_DIM
  6
Continuous
100
AcDbTrace
 10
250.8894204275264
 20
348.9121970168053
 30
0.0
 11
250.8894204275264
 21
347.7455303501387
 31
0.0
 12
254.3894204275264
 22
348.328863683472
 32
0.0
 13
254.3894204275264
 23
348.328863683472
 33
0.0
  0
MTEXT
  5
BF83
330
BBD2
100
AcDbEntity
  8
11100_LEFT_DIM
  6
Continuous
 62
     7
370
    13
100
AcDbMText
 10
209.5779204275264
 20
348.328863683472
 30
0.0
 40
3.5
 41
0.0
 71
     5
 72
     1
  1
\A1;90
 73
     1
 44
1.0
1001
ACAD
1000
MTEXTBEGIN
1070
    73
1070
     1
1070
    44
1040
1.0
1070
    74
1070
     0
1000
MTEXTEND
  0
POINT
  5
BF84
330
BBD2
100
AcDbEntity
  8
Defpoints
  6
Continuous
 62
     0
100
AcDbPoint
 10
164.7664204275264
 20
367.7203647399069
 30
0.0
  0
POINT
  5
BF85
330
BBD2
100
AcDbEntity
  8
Defpoints
  6
Continuous
 62
     0
100
AcDbPoint
 10
254.3894204275264
 20
414.6203647399066
 30
0.0
  0
POINT
  5
BF86
330
BBD2
100
AcDbEntity
  8
Defpoints
  6
Continuous
 62
     0
100
AcDbPoint
 10
254.3894204275264
 20
348.328863683472
 30
0.0
  0
ENDBLK
  5
BBDD
330
BBD2
100
AcDbEntity
  8
0
100
AcDbBlockEnd
  0
BLOCK
  5
BC51
330
BC47
100
AcDbEntity
  8
0
100
AcDbBlockBegin
  2
*D7
 70
     1
 10
0.0
 20
0.0
 30
0.0
  3
*D7
  1

  0
LINE
  5
BC99
330
BC47
100
AcDbEntity
  8
30100_Drilling_DIM
 62
     7
370
    -2
100
AcDbLine
 10
319.307515062238
 20
459.4703647399068
 30
0.0
 11
319.307515062238
 21
467.0294072212175
 31
0.0
  0
LINE
  5
BC9A
330
BC47
100
AcDbEntity
  8
30100_Drilling_DIM
 62
     7
370
    -2
100
AcDbLine
 10
284.407515062238
 20
374.4703647399069
 30
0.0
 11
284.407515062238
 21
467.0294072212175
 31
0.0
  0
LINE
  5
BC9B
330
BC47
100
AcDbEntity
  8
30100_Drilling_DIM
370
    -2
100
AcDbLine
 10
315.807515062238
 20
465.0294072212175
 30
0.0
 11
287.907515062238
 21
465.0294072212175
 31
0.0
  0
SOLID
  5
BC9C
330
BC47
100
AcDbEntity
  8
30100_Drilling_DIM
100
AcDbTrace
 10
315.807515062238
 20
465.6127405545507
 30
0.0
 11
315.807515062238
 21
464.4460738878842
 31
0.0
 12
319.307515062238
 22
465.0294072212175
 32
0.0
 13
319.307515062238
 23
465.0294072212175
 33
0.0
  0
SOLID
  5
BC9D
330
BC47
100
AcDbEntity
  8
30100_Drilling_DIM
100
AcDbTrace
 10
287.907515062238
 20
465.6127405545507
 30
0.0
 11
287.907515062238
 21
464.4460738878842
 31
0.0
 12
284.407515062238
 22
465.0294072212175
 32
0.0
 13
284.407515062238
 23
465.0294072212175
 33
0.0
  0
MTEXT
  5
BC9E
330
BC47
100
AcDbEntity
  8
30100_Drilling_DIM
 62
     7
100
AcDbMText
 10
301.857515062238
 20
467.2794072212175
 30
0.0
 40
3.5
 41
0.0
 71
     5
 72
     1
  1
\A1;35
 73
     1
 44
1.0
1001
ACAD
1000
MTEXTBEGIN
1070
    73
1070
     1
1070
    44
1040
1.0
1070
    74
1070
     0
1000
MTEXTEND
  0
POINT
  5
BC9F
330
BC47
100
AcDbEntity
  8
Defpoints
 62
     0
100
AcDbPoint
 10
319.307515062238
 20
459.4703647399068
 30
0.0
  0
POINT
  5
BCA0
330
BC47
100
AcDbEntity
  8
Defpoints
 62
     0
100
AcDbPoint
 10
284.407515062238
 20
374.4703647399069
 30
0.0
  0
POINT
  5
BCA1
330
BC47
100
AcDbEntity
  8
Defpoints
 62
     0
100
AcDbPoint
 10
284.407515062238
 20
465.0294072212175
 30
0.0
  0
ENDBLK
  5
BC52
330
BC47
100
AcDbEntity
  8
0
100
AcDbBlockEnd
  0
BLOCK
  5
BC5E
330
BC54
100
AcDbEntity
  8
0
100
AcDbBlockBegin
  2
*D8
 70
     1
 10
0.0
 20
0.0
 30
0.0
  3
*D8
  1

  0
LINE
  5
BC90
330
BC54
100
AcDbEntity
  8
30100_Drilling_DIM
 62
     7
370
    -2
100
AcDbLine
 10
317.057515062238
 20
457.2203647399068
 30
0.0
 11
273.4902291868415
 21
457.2203647399068
 31
0.0
  0
LINE
  5
BC91
330
BC54
100
AcDbEntity
  8
30100_Drilling_DIM
 62
     7
370
    -2
100
AcDbLine
 10
282.157515062238
 20
372.2203647399069
 30
0.0
 11
273.4902291868415
 21
372.2203647399069
 31
0.0
  0
LINE
  5
BC92
330
BC54
100
AcDbEntity
  8
30100_Drilling_DIM
370
    -2
100
AcDbLine
 10
275.4902291868415
 20
453.7203647399068
 30
0.0
 11
275.4902291868415
 21
375.7203647399069
 31
0.0
  0
SOLID
  5
BC93
330
BC54
100
AcDbEntity
  8
30100_Drilling_DIM
100
AcDbTrace
 10
274.9068958535082
 20
453.7203647399068
 30
0.0
 11
276.0735625201748
 21
453.7203647399068
 31
0.0
 12
275.4902291868415
 22
457.2203647399068
 32
0.0
 13
275.4902291868415
 23
457.2203647399068
 33
0.0
  0
SOLID
  5
BC94
330
BC54
100
AcDbEntity
  8
30100_Drilling_DIM
100
AcDbTrace
 10
274.9068958535082
 20
375.7203647399069
 30
0.0
 11
276.0735625201748
 21
375.7203647399069
 31
0.0
 12
275.4902291868415
 22
372.2203647399069
 32
0.0
 13
275.4902291868415
 23
372.2203647399069
 33
0.0
  0
MTEXT
  5
BC95
330
BC54
100
AcDbEntity
  8
30100_Drilling_DIM
 62
     7
100
AcDbMText
 10
273.2402291868414
 20
414.7203647399068
 30
0.0
 40
3.5
 41
0.0
 71
     5
 72
     1
  1
\A1;85
 11
0.0000000000000001
 21
1.0
 31
0.0
 73
     1
 44
1.0
1001
ACAD
1000
MTEXTBEGIN
1070
    73
1070
     1
1070
    44
1040
1.0
1070
    74
1070
     0
1000
MTEXTEND
  0
POINT
  5
BC96
330
BC54
100
AcDbEntity
  8
Defpoints
 62
     0
100
AcDbPoint
 10
317.057515062238
 20
457.2203647399068
 30
0.0
  0
POINT
  5
BC97
330
BC54
100
AcDbEntity
  8
Defpoints
 62
     0
100
AcDbPoint
 10
282.157515062238
 20
372.2203647399069
 30
0.0
  0
POINT
  5
BC98
330
BC54
100
AcDbEntity
  8
Defpoints
 62
     0
100
AcDbPoint
 10
275.4902291868415
 20
372.2203647399069
 30
0.0
  0
ENDBLK
  5
BC5F
330
BC54
100
AcDbEntity
  8
0
100
AcDbBlockEnd
  0
BLOCK
  5
BC6A
330
BC61
100
AcDbEntity
  8
0
100
AcDbBlockBegin
  2
*D9
 70
     1
 10
0.0
 20
0.0
 30
0.0
  3
*D9
  1

  0
LINE
  5
BC88
330
BC61
100
AcDbEntity
  8
30100_Drilling_DIM
370
    -2
100
AcDbLine
 10
306.1697774799524
 20
447.9427862665056
 30
0.0
 11
314.6106036986229
 21
453.9035102597789
 31
0.0
  0
LINE
  5
BC89
330
BC61
100
AcDbEntity
  8
30100_Drilling_DIM
370
    -2
100
AcDbLine
 10
324.0044264258531
 20
460.5372192200347
 30
0.0
 11
326.8634159515317
 21
462.5561741209819
 31
0.0
  0
MTEXT
  5
BC8A
330
BC61
100
AcDbEntity
  8
30100_Drilling_DIM
 62
     7
100
AcDbMText
 10
307.6627962472678
 20
451.7515926506048
 30
0.0
 40
3.5
 41
0.0
 71
     5
 72
     1
  1
\A1;\U+22055
 11
0.8168541501939177
 21
0.5768442574135351
 31
0.0
 73
     1
 44
1.0
1001
ACAD
1000
MTEXTBEGIN
1070
    73
1070
     1
1070
    44
1040
1.0
1070
    74
1070
     0
1000
MTEXTEND
  0
LINE
  5
BC8B
330
BC61
100
AcDbEntity
  8
30100_Drilling_DIM
370
    -2
100
AcDbLine
 10
321.1454369001743
 20
458.5182643190872
 30
0.0
 11
317.4695932243017
 21
455.9224651607263
 31
0.0
  0
SOLID
  5
BC8C
330
BC61
100
AcDbEntity
  8
30100_Drilling_DIM
100
AcDbTrace
 10
323.6679339423619
 20
461.0137174743143
 30
0.0
 11
324.3409189093443
 21
460.0607209657548
 31
0.0
 12
321.1454369001743
 22
458.5182643190872
 32
0.0
 13
321.1454369001743
 23
458.5182643190872
 33
0.0
  0
SOLID
  5
BC8D
330
BC61
100
AcDbEntity
  8
30100_Drilling_DIM
100
AcDbTrace
 10
314.2741112151317
 20
454.3800085140587
 30
0.0
 11
314.9470961821141
 21
453.4270120054991
 31
0.0
 12
317.4695932243017
 22
455.9224651607263
 32
0.0
 13
317.4695932243017
 23
455.9224651607263
 33
0.0
  0
POINT
  5
BC8E
330
BC61
100
AcDbEntity
  8
Defpoints
 62
     0
100
AcDbPoint
 10
317.4695932243017
 20
455.9224651607263
 30
0.0
  0
POINT
  5
BC8F
330
BC61
100
AcDbEntity
  8
Defpoints
 62
     0
100
AcDbPoint
 10
321.1454369001743
 20
458.5182643190872
 30
0.0
  0
ENDBLK
  5
BC6B
330
BC61
100
AcDbEntity
  8
0
100
AcDbBlockEnd
  0
ENDSEC
  0
SECTION
  2
ENTITIES
  0
TEXT
  5
8CAC
330
20
100
AcDbEntity
  8
91000_TIP
  6
Continuous
 62
     7
100
AcDbText
 10
73.44876640497284
 20
297.5317263287093
 30
0.0
 40
2.5
  1
Alle Bemassungswerte sind in Millimeter (mm) angegeben.
 41
0.6056311217924569
 72
     5
 11
147.1338862230551
 21
297.5317263287093
 31
0.0
100
AcDbText
  0
TEXT
  5
8CAD
330
20
100
AcDbEntity
  8
91000_TIP
  6
Continuous
 62
     7
100
AcDbText
 10
73.44876640497284
 20
292.2817263287094
 30
0.0
 40
2.5
  1
All dimensions are in millimeters (mm).
 41
0.7513350295680265
 72
     5
 11
133.5555687704149
 21
292.2817263287094
 31
0.0
100
AcDbText
  0
LINE
  5
8CAE
330
20
100
AcDbEntity
  8
90000_FRAME
  6
Continuous
 62
     7
100
AcDbLine
 10
329.3954166223081
 20
298.7994897070328
 30
0.0
 11
329.3954166223081
 21
316.7994897070327
 31
0.0
  0
LINE
  5
8CAF
330
20
100
AcDbEntity
  8
90000_FRAME
  6
Continuous
 62
     7
100
AcDbLine
 10
69.39541662230897
 20
288.7994897070327
 30
0.0
 11
69.39541662230897
 21
488.7994897070324
 31
0.0
  0
LINE
  5
8CB0
330
20
100
AcDbEntity
  8
90000_FRAME
  6
Continuous
 62
     7
100
AcDbLine
 10
69.39541662230897
 20
488.7994897070324
 30
0.0
 11
339.3954166223088
 21
488.7994897070324
 31
0.0
  0
LINE
  5
8CB1
330
20
100
AcDbEntity
  8
90000_FRAME
  6
Continuous
 62
     7
100
AcDbLine
 10
69.39541662230897
 20
288.7994897070327
 30
0.0
 11
339.3954166223088
 21
288.7994897070327
 31
0.0
  0
LINE
  5
8CB2
330
20
100
AcDbEntity
  8
90000_FRAME
  6
Continuous
 62
     7
100
AcDbLine
 10
339.3954166223088
 20
288.7994897070327
 30
0.0
 11
339.3954166223088
 21
488.7994897070324
 31
0.0
  0
TEXT
  5
8CB3
330
20
100
AcDbEntity
  8
90000_FRAME
  6
Continuous
 62
     7
100
AcDbText
 10
257.7013411462589
 20
309.0494897070328
 30
0.0
 40
3.5
  1
3RU1926_00000215_000_ALL
 41
0.7373033857474685
 72
     5
 11
313.6135145654419
 21
309.0494897070328
 31
0.0
100
AcDbText
  0
CIRCLE
  5
8CB4
330
20
100
AcDbEntity
  8
91000_TIP
  6
Continuous
 62
     7
100
AcDbCircle
 10
185.710086389334
 20
307.6232272805033
 30
0.0
 40
2.499999948899997
  0
CIRCLE
  5
8CB5
330
20
100
AcDbEntity
  8
91000_TIP
  6
Continuous
 62
     7
100
AcDbCircle
 10
185.710086389334
 20
307.6232272805033
 30
0.0
 40
4.9999998979
  0
LINE
  5
8CB6
330
20
100
AcDbEntity
  8
91000_TIP
  6
CENTER
 62
     7
100
AcDbLine
 10
185.710086389334
 20
301.9017460741033
 30
0.0
 11
185.710086389334
 21
313.1851320741033
 31
0.0
  0
LINE
  5
8CB7
330
20
100
AcDbEntity
  8
91000_TIP
  6
Continuous
 62
     7
100
AcDbLine
 10
179.2100865221341
 20
312.6232271784033
 30
0.0
 11
179.2100865221341
 21
302.6232273826032
 31
0.0
  0
LINE
  5
8CB8
330
20
100
AcDbEntity
  8
91000_TIP
  6
Continuous
 62
     7
100
AcDbLine
 10
169.210086726334
 20
310.1232272294034
 30
0.0
 11
169.210086726334
 21
305.1232273316033
 31
0.0
  0
LINE
  5
8CB9
330
20
100
AcDbEntity
  8
91000_TIP
  6
Continuous
 62
     7
100
AcDbLine
 10
169.210086726334
 20
305.1232273316033
 30
0.0
 11
179.2100865221341
 21
302.6232273826032
 31
0.0
  0
LINE
  5
8CBA
330
20
100
AcDbEntity
  8
91000_TIP
  6
CENTER
 62
     7
100
AcDbLine
 10
167.930576254333
 20
307.6232272805033
 30
0.0
 11
191.532565518433
 21
307.6232272805033
 31
0.0
  0
LINE
  5
8CBB
330
20
100
AcDbEntity
  8
91000_TIP
  6
Continuous
 62
     7
100
AcDbLine
 10
169.210086726334
 20
310.1232272294034
 30
0.0
 11
179.2100865221341
 21
312.6232271784033
 31
0.0
  0
TEXT
  5
8CBC
330
20
100
AcDbEntity
  8
90000_FRAME
  6
Continuous
 62
     7
100
AcDbText
 10
287.5554166223082
 20
300.6994897070327
 30
0.0
 40
2.2
  1
Massstab / Scale: 1:1
 41
0.7732634338148463
 72
     5
 11
318.4601785271082
 21
300.6994897070327
 31
0.0
100
AcDbText
  0
TEXT
  5
8CBD
330
20
100
AcDbEntity
  8
90000_FRAME
  6
Continuous
 62
     7
100
AcDbText
 10
245.0554166223081
 20
300.6994897070327
 30
0.0
 40
2.2
  1
Format / Size: DIN A4
 41
0.7994987468660263
 72
     5
 11
278.474464241308
 21
300.6994897070327
 31
0.0
100
AcDbText
  0
LINE
  5
8CBE
330
20
100
AcDbEntity
  8
90000_FRAME
  6
Continuous
 62
     7
100
AcDbLine
 10
329.3954166223081
 20
298.7994897070328
 30
0.0
 11
329.3954166223081
 21
316.7994897070327
 31
0.0
  0
LINE
  5
8CBF
330
20
100
AcDbEntity
  8
90000_FRAME
  6
Continuous
 62
     7
100
AcDbLine
 10
286.8954166223081
 20
298.7994897070328
 30
0.0
 11
286.8954166223081
 21
304.7994897070328
 31
0.0
  0
LINE
  5
8CC0
330
20
100
AcDbEntity
  8
90000_FRAME
  6
Continuous
 62
     7
100
AcDbLine
 10
244.3954166223081
 20
298.7994897070328
 30
0.0
 11
244.3954166223081
 21
316.7994897070327
 31
0.0
  0
LINE
  5
8CC1
330
20
100
AcDbEntity
  8
90000_FRAME
  6
Continuous
 62
     7
100
AcDbLine
 10
194.395416622308
 20
316.7994897070327
 30
0.0
 11
329.3954166223081
 21
316.7994897070327
 31
0.0
  0
LINE
  5
8CC2
330
20
100
AcDbEntity
  8
90000_FRAME
  6
Continuous
 62
     7
100
AcDbLine
 10
244.3954166223081
 20
304.7994897070328
 30
0.0
 11
329.3954166223081
 21
304.7994897070328
 31
0.0
  0
LINE
  5
8CC3
330
20
100
AcDbEntity
  8
90000_FRAME
  6
Continuous
 62
     7
100
AcDbLine
 10
194.395416622308
 20
298.7994897070328
 30
0.0
 11
194.395416622308
 21
316.7994897070327
 31
0.0
  0
LINE
  5
8CC4
330
20
100
AcDbEntity
  8
90000_FRAME
  6
Continuous
 62
     7
100
AcDbLine
 10
194.395416622308
 20
298.7994897070328
 30
0.0
 11
329.3954166223081
 21
298.7994897070328
 31
0.0
  0
INSERT
  5
8CC5
330
20
100
AcDbEntity
  8
90000_FRAME
  6
Continuous
 62
     7
100
AcDbBlockReference
  2
SIEMENS_OUTLINE_BL0
 10
-80.60458337769194
 20
288.7994897070327
 30
0.0
  0
TEXT
  5
B957
330
20
100
AcDbEntity
  8
10000_FRONT
  6
DASHED
 62
     7
370
    13
100
AcDbText
 39
0.25
 10
99.49087808894788
 20
418.8273647399068
 30
0.0
 40
2.0
  1
H
 41
0.6600000000000003
100
AcDbText
1001
AUSTER_ANSICHT
1002
{
1000
Det03
1002
}
1001
AUSTER_FOLIE
1002
{
1000
NSB00340_S0
1002
}
  0
TEXT
  5
B958
330
20
100
AcDbEntity
  8
10000_FRONT
  6
DASHED
 62
     7
370
    13
100
AcDbText
 39
0.25
 10
106.4908780889478
 20
418.8273647399068
 30
0.0
 40
2.0
  1
A
 41
0.6600000000000003
100
AcDbText
1001
AUSTER_ANSICHT
1002
{
1000
Det03
1002
}
1001
AUSTER_FOLIE
1002
{
1000
NSB00340_S0
1002
}
  0
TEXT
  5
B959
330
20
100
AcDbEntity
  8
10000_FRONT
  6
DASHED
 62
     7
370
    13
100
AcDbText
 39
0.25
 10
90.03487808894783
 20
409.7523647399066
 30
0.0
 40
1.5
  1
STOP
 41
0.6600000000000003
100
AcDbText
1001
AUSTER_ANSICHT
1002
{
1000
Det03
1002
}
1001
AUSTER_FOLIE
1002
{
1000
NSB00340_S0
1002
}
  0
TEXT
  5
B95A
330
20
100
AcDbEntity
  8
10000_FRONT
  6
DASHED
 62
     7
370
    13
100
AcDbText
 39
0.25
 10
101.0348780889478
 20
409.7523647399066
 30
0.0
 40
1.5
  1
RESET
 41
0.6600000000000003
100
AcDbText
1001
AUSTER_ANSICHT
1002
{
1000
Det03
1002
}
1001
AUSTER_FOLIE
1002
{
1000
NSB00340_S0
1002
}
  0
TEXT
  5
B95B
330
20
100
AcDbEntity
  8
10000_FRONT
  6
DASHED
 62
     7
370
    13
100
AcDbText
 39
0.25
 10
99.48887808894784
 20
418.8273647399068
 30
0.0
 40
2.0
  1
H
 41
0.6600000000000003
100
AcDbText
1001
AUSTER_ANSICHT
1002
{
1000
Det03
1002
}
1001
AUSTER_FOLIE
1002
{
1000
NSB00340_S0
1002
}
  0
TEXT
  5
B95C
330
20
100
AcDbEntity
  8
10000_FRONT
  6
DASHED
 62
     7
370
    13
100
AcDbText
 39
0.25
 10
106.4888780889478
 20
418.8273647399068
 30
0.0
 40
2.0
  1
A
 41
0.6600000000000003
100
AcDbText
1001
AUSTER_ANSICHT
1002
{
1000
Det03
1002
}
1001
AUSTER_FOLIE
1002
{
1000
NSB00340_S0
1002
}
  0
TEXT
  5
B95D
330
20
100
AcDbEntity
  8
10000_FRONT
  6
DASHED
 62
     7
370
    13
100
AcDbText
 39
0.25
 10
90.03187808894784
 20
409.7523647399066
 30
0.0
 40
1.5
  1
STOP
 41
0.6600000000000003
100
AcDbText
1001
AUSTER_ANSICHT
1002
{
1000
Det03
1002
}
1001
AUSTER_FOLIE
1002
{
1000
NSB00340_S0
1002
}
  0
TEXT
  5
B95E
330
20
100
AcDbEntity
  8
10000_FRONT
  6
DASHED
 62
     7
370
    13
100
AcDbText
 39
0.25
 10
101.0318780889478
 20
409.7523647399066
 30
0.0
 40
1.5
  1
RESET
 41
0.6600000000000003
100
AcDbText
1001
AUSTER_ANSICHT
1002
{
1000
Det03
1002
}
1001
AUSTER_FOLIE
1002
{
1000
NSB00340_S0
1002
}
  0
TEXT
  5
B95F
330
20
100
AcDbEntity
  8
10000_FRONT
  6
DASHED
 62
     7
370
    13
100
AcDbText
 39
0.25
 10
99.49087808894788
 20
418.8273647399068
 30
0.0
 40
2.0
  1
H
 41
0.6600000000000003
100
AcDbText
1001
AUSTER_ANSICHT
1002
{
1000
Det03
1002
}
1001
AUSTER_FOLIE
1002
{
1000
NSB00340_S0
1002
}
  0
TEXT
  5
B960
330
20
100
AcDbEntity
  8
10000_FRONT
  6
DASHED
 62
     7
370
    13
100
AcDbText
 39
0.25
 10
106.4908780889478
 20
418.8273647399068
 30
0.0
 40
2.0
  1
A
 41
0.6600000000000003
100
AcDbText
1001
AUSTER_ANSICHT
1002
{
1000
Det03
1002
}
1001
AUSTER_FOLIE
1002
{
1000
NSB00340_S0
1002
}
  0
TEXT
  5
B961
330
20
100
AcDbEntity
  8
10000_FRONT
  6
DASHED
 62
     7
370
    13
100
AcDbText
 39
0.25
 10
90.03487808894783
 20
409.7523647399066
 30
0.0
 40
1.5
  1
STOP
 41
0.6600000000000003
100
AcDbText
1001
AUSTER_ANSICHT
1002
{
1000
Det03
1002
}
1001
AUSTER_FOLIE
1002
{
1000
NSB00340_S0
1002
}
  0
TEXT
  5
B962
330
20
100
AcDbEntity
  8
10000_FRONT
  6
DASHED
 62
     7
370
    13
100
AcDbText
 39
0.25
 10
101.0348780889478
 20
409.7523647399066
 30
0.0
 40
1.5
  1
RESET
 41
0.6600000000000003
100
AcDbText
1001
AUSTER_ANSICHT
1002
{
1000
Det03
1002
}
1001
AUSTER_FOLIE
1002
{
1000
NSB00340_S0
1002
}
  0
TEXT
  5
B963
330
20
100
AcDbEntity
  8
10000_FRONT
  6
DASHED
 62
     7
370
    13
100
AcDbText
 39
0.25
 10
124.3368780889478
 20
426.8173647399065
 30
0.0
 40
1.5
  1
Test
 41
0.6600000000000003
100
AcDbText
1001
AUSTER_ANSICHT
1002
{
1000
Det03
1002
}
1001
AUSTER_FOLIE
1002
{
1000
NSB00340_S0
1002
}
  0
TEXT
  5
B964
330
20
100
AcDbEntity
  8
10000_FRONT
  6
DASHED
 62
     7
370
    13
100
AcDbText
 39
0.25
 10
122.5068780889478
 20
423.8523647399067
 30
0.0
 40
1.5
  1
0
 41
0.6600000000000003
100
AcDbText
1001
AUSTER_ANSICHT
1002
{
1000
Det03
1002
}
1001
AUSTER_FOLIE
1002
{
1000
NSB00340_S0
1002
}
  0
TEXT
  5
B965
330
20
100
AcDbEntity
  8
10000_FRONT
  6
DASHED
 62
     7
370
    13
100
AcDbText
 39
0.25
 10
130.0068780889478
 20
423.8523647399067
 30
0.0
 40
1.5
  1
1
 41
0.6600000000000003
100
AcDbText
1001
AUSTER_ANSICHT
1002
{
1000
Det03
1002
}
1001
AUSTER_FOLIE
1002
{
1000
NSB00340_S0
1002
}
  0
TEXT
  5
B966
330
20
100
AcDbEntity
  8
10000_FRONT
  6
DASHED
 62
     7
370
    13
100
AcDbText
 39
0.25
 10
124.3348780889478
 20
426.8173647399065
 30
0.0
 40
1.5
  1
Test
 41
0.6600000000000003
100
AcDbText
1001
AUSTER_ANSICHT
1002
{
1000
Det03
1002
}
1001
AUSTER_FOLIE
1002
{
1000
NSB00340_S0
1002
}
  0
TEXT
  5
B967
330
20
100
AcDbEntity
  8
10000_FRONT
  6
DASHED
 62
     7
370
    13
100
AcDbText
 39
0.25
 10
122.5048780889478
 20
423.8523647399067
 30
0.0
 40
1.5
  1
0
 41
0.6600000000000003
100
AcDbText
1001
AUSTER_ANSICHT
1002
{
1000
Det03
1002
}
1001
AUSTER_FOLIE
1002
{
1000
NSB00340_S0
1002
}
  0
TEXT
  5
B968
330
20
100
AcDbEntity
  8
10000_FRONT
  6
DASHED
 62
     7
370
    13
100
AcDbText
 39
0.25
 10
130.0048780889478
 20
423.8523647399067
 30
0.0
 40
1.5
  1
1
 41
0.6600000000000003
100
AcDbText
1001
AUSTER_ANSICHT
1002
{
1000
Det03
1002
}
1001
AUSTER_FOLIE
1002
{
1000
NSB00340_S0
1002
}
  0
TEXT
  5
B969
330
20
100
AcDbEntity
  8
10000_FRONT
  6
DASHED
 62
     7
370
    13
100
AcDbText
 39
0.25
 10
124.3368780889478
 20
426.8173647399065
 30
0.0
 40
1.5
  1
Test
 41
0.6600000000000003
100
AcDbText
1001
AUSTER_ANSICHT
1002
{
1000
Det03
1002
}
1001
AUSTER_FOLIE
1002
{
1000
NSB00340_S0
1002
}
  0
TEXT
  5
B96A
330
20
100
AcDbEntity
  8
10000_FRONT
  6
DASHED
 62
     7
370
    13
100
AcDbText
 39
0.25
 10
122.5068780889478
 20
423.8523647399067
 30
0.0
 40
1.5
  1
0
 41
0.6600000000000003
100
AcDbText
1001
AUSTER_ANSICHT
1002
{
1000
Det03
1002
}
1001
AUSTER_FOLIE
1002
{
1000
NSB00340_S0
1002
}
  0
TEXT
  5
B96B
330
20
100
AcDbEntity
  8
10000_FRONT
  6
DASHED
 62
     7
370
    13
100
AcDbText
 39
0.25
 10
130.0068780889478
 20
423.8523647399067
 30
0.0
 40
1.5
  1
1
 41
0.6600000000000003
100
AcDbText
1001
AUSTER_ANSICHT
1002
{
1000
Det03
1002
}
1001
AUSTER_FOLIE
1002
{
1000
NSB00340_S0
1002
}
  0
TEXT
  5
B96D
330
20
100
AcDbEntity
  8
10000_FRONT
  6
DASHED
 62
     7
370
    13
100
AcDbText
 39
0.25
 10
89.88387808894783
 20
438.3203647399068
 30
0.0
 40
3.0
  1
SIEMENS
 41
0.6600000000000003
100
AcDbText
1001
AUSTER_ANSICHT
1002
{
1000
Det03
1002
}
1001
AUSTER_FOLIE
1002
{
1000
NSB00340_S0
1002
}
  0
ARC
  5
B97D
330
20
100
AcDbEntity
  8
10000_FRONT
  6
DASHED
 62
     7
370
    13
100
AcDbCircle
 39
0.25
 10
93.78187808894784
 20
402.1523647399068
 30
0.0
 40
2.85
100
AcDbArc
 50
167.7599999999991
 51
192.2400000000008
1001
AUSTER_ANSICHT
1002
{
1000
Det03
1002
}
1001
AUSTER_FOLIE
1002
{
1000
NSB00340_S0
1002
}
  0
ARC
  5
B97E
330
20
100
AcDbEntity
  8
10000_FRONT
  6
DASHED
 62
     7
370
    13
100
AcDbCircle
 39
0.25
 10
119.5818780889478
 20
402.1523647399068
 30
0.0
 40
2.85
100
AcDbArc
 50
167.7599999999991
 51
192.2400000000008
1001
AUSTER_ANSICHT
1002
{
1000
Det03
1002
}
1001
AUSTER_FOLIE
1002
{
1000
NSB00340_S0
1002
}
  0
ARC
  5
B97F
330
20
100
AcDbEntity
  8
10000_FRONT
  6
DASHED
 62
     7
370
    13
100
AcDbCircle
 39
0.25
 10
119.5818780889478
 20
402.1523647399068
 30
0.0
 40
2.85
100
AcDbArc
 50
347.7599999999991
 51
12.24000000000082
1001
AUSTER_ANSICHT
1002
{
1000
Det03
1002
}
1001
AUSTER_FOLIE
1002
{
1000
NSB00340_S0
1002
}
  0
ARC
  5
B980
330
20
100
AcDbEntity
  8
10000_FRONT
  6
DASHED
 62
     7
370
    13
100
AcDbCircle
 39
0.25
 10
119.5818780889478
 20
402.1523647399068
 30
0.0
 40
1.85
100
AcDbArc
 50
253.8370000000012
 51
286.1629999999989
1001
AUSTER_ANSICHT
1002
{
1000
Det03
1002
}
1001
AUSTER_FOLIE
1002
{
1000
NSB00340_S0
1002
}
  0
ARC
  5
B981
330
20
100
AcDbEntity
  8
10000_FRONT
  6
DASHED
 62
     7
370
    13
100
AcDbCircle
 39
0.25
 10
119.5818780889478
 20
402.1523647399068
 30
0.0
 40
1.85
100
AcDbArc
 50
73.8370000000012
 51
106.1629999999988
1001
AUSTER_ANSICHT
1002
{
1000
Det03
1002
}
1001
AUSTER_FOLIE
1002
{
1000
NSB00340_S0
1002
}
  0
CIRCLE
  5
B982
330
20
100
AcDbEntity
  8
10000_FRONT
  6
DASHED
 62
     7
370
    13
100
AcDbCircle
 39
0.25
 10
110.9818780889478
 20
402.1523647399068
 30
0.0
 40
3.1
1001
AUSTER_ANSICHT
1002
{
1000
Det03
1002
}
1001
AUSTER_FOLIE
1002
{
1000
NSB00340_S0
1002
}
  0
ARC
  5
B983
330
20
100
AcDbEntity
  8
10000_FRONT
  6
DASHED
 62
     7
370
    13
100
AcDbCircle
 39
0.25
 10
110.9818780889478
 20
402.1523647399068
 30
0.0
 40
2.85
100
AcDbArc
 50
347.7599999999991
 51
12.24000000000082
1001
AUSTER_ANSICHT
1002
{
1000
Det03
1002
}
1001
AUSTER_FOLIE
1002
{
1000
NSB00340_S0
1002
}
  0
ARC
  5
B984
330
20
100
AcDbEntity
  8
10000_FRONT
  6
DASHED
 62
     7
370
    13
100
AcDbCircle
 39
0.25
 10
110.9818780889478
 20
402.1523647399068
 30
0.0
 40
1.85
100
AcDbArc
 50
253.8370000000012
 51
286.1629999999989
1001
AUSTER_ANSICHT
1002
{
1000
Det03
1002
}
1001
AUSTER_FOLIE
1002
{
1000
NSB00340_S0
1002
}
  0
ARC
  5
B985
330
20
100
AcDbEntity
  8
10000_FRONT
  6
DASHED
 62
     7
370
    13
100
AcDbCircle
 39
0.25
 10
110.9818780889478
 20
402.1523647399068
 30
0.0
 40
1.85
100
AcDbArc
 50
73.8370000000012
 51
106.1629999999988
1001
AUSTER_ANSICHT
1002
{
1000
Det03
1002
}
1001
AUSTER_FOLIE
1002
{
1000
NSB00340_S0
1002
}
  0
ARC
  5
B986
330
20
100
AcDbEntity
  8
10000_FRONT
  6
DASHED
 62
     7
370
    13
100
AcDbCircle
 39
0.25
 10
110.9818780889478
 20
402.1523647399068
 30
0.0
 40
2.85
100
AcDbArc
 50
167.7599999999991
 51
192.2400000000008
1001
AUSTER_ANSICHT
1002
{
1000
Det03
1002
}
1001
AUSTER_FOLIE
1002
{
1000
NSB00340_S0
1002
}
  0
CIRCLE
  5
B987
330
20
100
AcDbEntity
  8
10000_FRONT
  6
DASHED
 62
     7
370
    13
100
AcDbCircle
 39
0.25
 10
102.3818780889478
 20
402.1523647399068
 30
0.0
 40
3.1
1001
AUSTER_ANSICHT
1002
{
1000
Det03
1002
}
1001
AUSTER_FOLIE
1002
{
1000
NSB00340_S0
1002
}
  0
ARC
  5
B988
330
20
100
AcDbEntity
  8
10000_FRONT
  6
DASHED
 62
     7
370
    13
100
AcDbCircle
 39
0.25
 10
102.3818780889478
 20
402.1523647399068
 30
0.0
 40
2.85
100
AcDbArc
 50
347.7599999999991
 51
12.24000000000082
1001
AUSTER_ANSICHT
1002
{
1000
Det03
1002
}
1001
AUSTER_FOLIE
1002
{
1000
NSB00340_S0
1002
}
  0
ARC
  5
B989
330
20
100
AcDbEntity
  8
10000_FRONT
  6
DASHED
 62
     7
370
    13
100
AcDbCircle
 39
0.25
 10
102.3818780889478
 20
402.1523647399068
 30
0.0
 40
1.85
100
AcDbArc
 50
253.8370000000012
 51
286.1629999999989
1001
AUSTER_ANSICHT
1002
{
1000
Det03
1002
}
1001
AUSTER_FOLIE
1002
{
1000
NSB00340_S0
1002
}
  0
ARC
  5
B98A
330
20
100
AcDbEntity
  8
10000_FRONT
  6
DASHED
 62
     7
370
    13
100
AcDbCircle
 39
0.25
 10
102.3818780889478
 20
402.1523647399068
 30
0.0
 40
1.85
100
AcDbArc
 50
73.8370000000012
 51
106.1629999999988
1001
AUSTER_ANSICHT
1002
{
1000
Det03
1002
}
1001
AUSTER_FOLIE
1002
{
1000
NSB00340_S0
1002
}
  0
ARC
  5
B98B
330
20
100
AcDbEntity
  8
10000_FRONT
  6
DASHED
 62
     7
370
    13
100
AcDbCircle
 39
0.25
 10
102.3818780889478
 20
402.1523647399068
 30
0.0
 40
2.85
100
AcDbArc
 50
167.7599999999991
 51
192.2400000000008
1001
AUSTER_ANSICHT
1002
{
1000
Det03
1002
}
1001
AUSTER_FOLIE
1002
{
1000
NSB00340_S0
1002
}
  0
ARC
  5
B98C
330
20
100
AcDbEntity
  8
10000_FRONT
  6
DASHED
 62
     7
370
    13
100
AcDbCircle
 39
0.25
 10
93.78187808894784
 20
402.1523647399068
 30
0.0
 40
2.85
100
AcDbArc
 50
347.7599999999991
 51
12.24000000000082
1001
AUSTER_ANSICHT
1002
{
1000
Det03
1002
}
1001
AUSTER_FOLIE
1002
{
1000
NSB00340_S0
1002
}
  0
ARC
  5
B98D
330
20
100
AcDbEntity
  8
10000_FRONT
  6
DASHED
 62
     7
370
    13
100
AcDbCircle
 39
0.25
 10
93.78187808894784
 20
402.1523647399068
 30
0.0
 40
1.85
100
AcDbArc
 50
253.8370000000012
 51
286.1629999999989
1001
AUSTER_ANSICHT
1002
{
1000
Det03
1002
}
1001
AUSTER_FOLIE
1002
{
1000
NSB00340_S0
1002
}
  0
ARC
  5
B98E
330
20
100
AcDbEntity
  8
10000_FRONT
  6
DASHED
 62
     7
370
    13
100
AcDbCircle
 39
0.25
 10
93.78187808894784
 20
402.1523647399068
 30
0.0
 40
1.85
100
AcDbArc
 50
73.8370000000012
 51
106.1629999999988
1001
AUSTER_ANSICHT
1002
{
1000
Det03
1002
}
1001
AUSTER_FOLIE
1002
{
1000
NSB00340_S0
1002
}
  0
CIRCLE
  5
B98F
330
20
100
AcDbEntity
  8
10000_FRONT
  6
DASHED
 62
     7
370
    13
100
AcDbCircle
 39
0.25
 10
93.78187808894784
 20
402.1523647399068
 30
0.0
 40
3.1
1001
AUSTER_ANSICHT
1002
{
1000
Det03
1002
}
1001
AUSTER_FOLIE
1002
{
1000
NSB00340_S0
1002
}
  0
CIRCLE
  5
B990
330
20
100
AcDbEntity
  8
10000_FRONT
  6
DASHED
 62
     7
370
    13
100
AcDbCircle
 39
0.25
 10
119.5818780889478
 20
402.1523647399068
 30
0.0
 40
3.1
1001
AUSTER_ANSICHT
1002
{
1000
Det03
1002
}
1001
AUSTER_FOLIE
1002
{
1000
NSB00340_S0
1002
}
  0
ARC
  5
B991
330
20
100
AcDbEntity
  8
11000_Left
  6
DASHED
 62
     7
370
    20
100
AcDbCircle
 39
0.25
 10
163.2664204275264
 20
435.7203647399066
 30
-1.0
 40
0.5
100
AcDbArc
 50
270.0
 51
0.0
1001
AUSTER_ANSICHT
1002
{
1000
Det03
1002
}
1001
AUSTER_FOLIE
1002
{
1000
NSB00340_S0
1002
}
  0
ARC
  5
B994
330
20
100
AcDbEntity
  8
11000_Left
  6
Continuous
 62
     7
370
    50
100
AcDbCircle
 39
0.7
 10
166.2664204275264
 20
460.7203647399066
 30
0.0
 40
1.0
100
AcDbArc
 50
0.0
 51
90.0
1001
AUSTER_ANSICHT
1002
{
1000
Det03
1002
}
1001
AUSTER_FOLIE
1002
{
1000
NSB00340_S0
1002
}
  0
ARC
  5
B995
330
20
100
AcDbEntity
  8
11000_Left
  6
Continuous
 62
     7
370
    20
100
AcDbCircle
 39
0.7
 10
172.5664204275264
 20
375.5203647399067
 30
0.0
 40
1.0
100
AcDbArc
 50
0.0
 51
40.79799999999955
1001
AUSTER_ANSICHT
1002
{
1000
Det03
1002
}
1001
AUSTER_FOLIE
1002
{
1000
NSB00340_S0
1002
}
  0
ARC
  5
B996
330
20
100
AcDbEntity
  8
11000_Left
  6
Continuous
 62
     7
370
    50
100
AcDbCircle
 39
0.7
 10
166.2664204275264
 20
368.7203647399069
 30
0.0
 40
1.0
100
AcDbArc
 50
270.0
 51
0.0
1001
AUSTER_ANSICHT
1002
{
1000
Det03
1002
}
1001
AUSTER_FOLIE
1002
{
1000
NSB00340_S0
1002
}
  0
ARC
  5
B997
330
20
100
AcDbEntity
  8
11000_Left
  6
Continuous
 62
     7
370
    50
100
AcDbCircle
 39
0.7
 10
224.1664204275264
 20
463.8203647399068
 30
0.0
 40
1.0
100
AcDbArc
 50
90.0
 51
180.0
1001
AUSTER_ANSICHT
1002
{
1000
Det03
1002
}
1001
AUSTER_FOLIE
1002
{
1000
NSB00340_S0
1002
}
  0
ARC
  5
B998
330
20
100
AcDbEntity
  8
11000_Left
  6
Continuous
 62
     7
370
    50
100
AcDbCircle
 39
0.7
 10
168.7664204275264
 20
448.8203647399068
 30
0.0
 40
1.5
100
AcDbArc
 50
180.0
 51
270.0
1001
AUSTER_ANSICHT
1002
{
1000
Det03
1002
}
1001
AUSTER_FOLIE
1002
{
1000
NSB00340_S0
1002
}
  0
ARC
  5
B999
330
20
100
AcDbEntity
  8
11000_Left
  6
Continuous
 62
     7
370
    20
100
AcDbCircle
 39
0.7
 10
164.0664204275264
 20
440.9203647399068
 30
0.0
 40
0.5
100
AcDbArc
 50
90.0
 51
180.0
1001
AUSTER_ANSICHT
1002
{
1000
Det03
1002
}
1001
AUSTER_FOLIE
1002
{
1000
NSB00340_S0
1002
}
  0
ARC
  5
B99A
330
20
100
AcDbEntity
  8
11000_Left
  6
Continuous
 62
     7
370
    50
100
AcDbCircle
 39
0.7
 10
241.9664204275264
 20
435.8203647399068
 30
0.0
 40
1.0
100
AcDbArc
 50
270.0
 51
0.0
1001
AUSTER_ANSICHT
1002
{
1000
Det03
1002
}
1001
AUSTER_FOLIE
1002
{
1000
NSB00340_S0
1002
}
  0
ARC
  5
B99B
330
20
100
AcDbEntity
  8
11000_Left
  6
Continuous
 62
     7
370
    50
100
AcDbCircle
 39
0.7
 10
214.6664204275264
 20
448.8203647399068
 30
0.0
 40
1.5
100
AcDbArc
 50
270.0
 51
0.0
1001
AUSTER_ANSICHT
1002
{
1000
Det03
1002
}
1001
AUSTER_FOLIE
1002
{
1000
NSB00340_S0
1002
}
  0
ARC
  5
B99C
330
20
100
AcDbEntity
  8
11000_Left
  6
Continuous
 62
     7
370
    50
100
AcDbCircle
 39
0.7
 10
72.00242042752636
 20
439.9553647399068
 30
0.0
 40
177.118
100
AcDbArc
 50
1.574000000000384
 51
7.907000000001218
1001
AUSTER_ANSICHT
1002
{
1000
Det03
1002
}
1001
AUSTER_FOLIE
1002
{
1000
NSB00340_S0
1002
}
  0
ARC
  5
B99D
330
20
100
AcDbEntity
  8
11000_Left
  6
Continuous
 62
     7
370
    50
100
AcDbCircle
 39
0.7
 10
248.5534204275264
 20
444.8203647399068
 30
0.0
 40
0.5
100
AcDbArc
 50
271.4909999999996
 51
0.0
1001
AUSTER_ANSICHT
1002
{
1000
Det03
1002
}
1001
AUSTER_FOLIE
1002
{
1000
NSB00340_S0
1002
}
  0
ARC
  5
B99E
330
20
100
AcDbEntity
  8
11000_Left
  6
Continuous
 62
     7
370
    50
100
AcDbCircle
 39
0.7
 10
246.9364204275264
 20
464.3203647399068
 30
0.0
 40
0.5
100
AcDbArc
 50
0.0
 51
97.98900000000029
1001
AUSTER_ANSICHT
1002
{
1000
Det03
1002
}
1001
AUSTER_FOLIE
1002
{
1000
NSB00340_S0
1002
}
  0
ARC
  5
B99F
330
20
100
AcDbEntity
  8
11000_Left
  6
Continuous
 62
     7
370
    50
100
AcDbCircle
 39
0.7
 10
221.8924204275264
 20
462.0183647399068
 30
0.0
 40
1.3
100
AcDbArc
 50
290.1239999999996
 51
349.5269999999997
1001
AUSTER_ANSICHT
1002
{
1000
Det03
1002
}
1001
AUSTER_FOLIE
1002
{
1000
NSB00340_S0
1002
}
  0
ARC
  5
B9A0
330
20
100
AcDbEntity
  8
11000_Left
  6
Continuous
 62
     7
370
    50
100
AcDbCircle
 39
0.7
 10
218.0734204275264
 20
458.1043647399068
 30
0.0
 40
1.942999999999999
100
AcDbArc
 50
110.1090000000015
 51
169.6860000000024
1001
AUSTER_ANSICHT
1002
{
1000
Det03
1002
}
1001
AUSTER_FOLIE
1002
{
1000
NSB00340_S0
1002
}
  0
ARC
  5
B9A1
330
20
100
AcDbEntity
  8
11000_Left
  6
DASHED
 62
     7
370
    20
100
AcDbCircle
 39
0.25
 10
228.7664204275264
 20
395.9203647399069
 30
0.0
 40
0.7
100
AcDbArc
 50
0.0
 51
90.0
1001
AUSTER_ANSICHT
1002
{
1000
Det03
1002
}
1001
AUSTER_FOLIE
1002
{
1000
NSB00340_S0
1002
}
  0
ARC
  5
B9A2
330
20
100
AcDbEntity
  8
11000_Left
  6
DASHED
 62
     7
370
    20
100
AcDbCircle
 39
0.25
 10
218.8664204275263
 20
397.5203647399068
 30
0.0
 40
0.9
100
AcDbArc
 50
180.0
 51
270.0
1001
AUSTER_ANSICHT
1002
{
1000
Det03
1002
}
1001
AUSTER_FOLIE
1002
{
1000
NSB00340_S0
1002
}
  0
ARC
  5
B9A3
330
20
100
AcDbEntity
  8
11000_Left
  6
DASHED
 62
     7
370
    20
100
AcDbCircle
 39
0.25
 10
217.2664204275264
 20
407.4203647399068
 30
0.0
 40
0.7
100
AcDbArc
 50
0.0
 51
90.0
1001
AUSTER_ANSICHT
1002
{
1000
Det03
1002
}
1001
AUSTER_FOLIE
1002
{
1000
NSB00340_S0
1002
}
  0
ARC
  5
B9A4
330
20
100
AcDbEntity
  8
11000_Left
  6
DASHED
 62
     7
370
    20
100
AcDbCircle
 39
0.25
 10
212.7664204275264
 20
409.0203647399067
 30
0.0
 40
0.9
100
AcDbArc
 50
180.0
 51
270.0
1001
AUSTER_ANSICHT
1002
{
1000
Det03
1002
}
1001
AUSTER_FOLIE
1002
{
1000
NSB00340_S0
1002
}
  0
ARC
  5
B9A5
330
20
100
AcDbEntity
  8
11000_Left
  6
DASHED
 62
     7
370
    20
100
AcDbCircle
 39
0.25
 10
251.5584204275264
 20
428.2703647399067
 30
0.0
 40
0.3
100
AcDbArc
 50
359.5450000000021
 51
90.0
1001
AUSTER_ANSICHT
1002
{
1000
Det03
1002
}
1001
AUSTER_FOLIE
1002
{
1000
NSB00340_S0
1002
}
  0
ARC
  5
B9A6
330
20
100
AcDbEntity
  8
11000_Left
  6
DASHED
 62
     7
370
    20
100
AcDbCircle
 39
0.25
 10
-0.1345795724736121
 20
430.2703647399066
 30
0.0
 40
252.0
100
AcDbArc
 50
357.4490000000019
 51
359.5450000000021
1001
AUSTER_ANSICHT
1002
{
1000
Det03
1002
}
1001
AUSTER_FOLIE
1002
{
1000
NSB00340_S0
1002
}
  0
ARC
  5
B9A7
330
20
100
AcDbEntity
  8
11000_Left
  6
DASHED
 62
     7
370
    20
100
AcDbCircle
 39
0.25
 10
251.3204204275264
 20
419.0653647399068
 30
0.0
 40
0.296
100
AcDbArc
 50
270.0
 51
357.4490000000019
1001
AUSTER_ANSICHT
1002
{
1000
Det03
1002
}
1001
AUSTER_FOLIE
1002
{
1000
NSB00340_S0
1002
}
  0
ARC
  5
B9A8
330
20
100
AcDbEntity
  8
11000_Left
  6
DASHED
 62
     7
370
    20
100
AcDbCircle
 39
0.25
 10
253.7344204275264
 20
417.2203647399069
 30
0.0
 40
0.3
100
AcDbArc
 50
15.54799999999907
 51
90.0
1001
AUSTER_ANSICHT
1002
{
1000
Det03
1002
}
1001
AUSTER_FOLIE
1002
{
1000
NSB00340_S0
1002
}
  0
ARC
  5
B9A9
330
20
100
AcDbEntity
  8
11000_Left
  6
DASHED
 62
     7
370
    20
100
AcDbCircle
 39
0.25
 10
244.3894204275264
 20
414.6203647399066
 30
0.0
 40
10.0
100
AcDbArc
 50
0.0
 51
15.54799999999907
1001
AUSTER_ANSICHT
1002
{
1000
Det03
1002
}
1001
AUSTER_FOLIE
1002
{
1000
NSB00340_S0
1002
}
  0
ARC
  5
B9AA
330
20
100
AcDbEntity
  8
11000_Left
  6
DASHED
 62
     7
370
    20
100
AcDbCircle
 39
0.25
 10
253.7344204275264
 20
412.0203647399065
 30
0.0
 40
0.3
100
AcDbArc
 50
270.0
 51
344.4520000000009
1001
AUSTER_ANSICHT
1002
{
1000
Det03
1002
}
1001
AUSTER_FOLIE
1002
{
1000
NSB00340_S0
1002
}
  0
ARC
  5
B9AB
330
20
100
AcDbEntity
  8
11000_Left
  6
DASHED
 62
     7
370
    20
100
AcDbCircle
 39
0.25
 10
244.3894204275264
 20
414.6203647399066
 30
0.0
 40
10.0
100
AcDbArc
 50
344.4520000000009
 51
0.0
1001
AUSTER_ANSICHT
1002
{
1000
Det03
1002
}
1001
AUSTER_FOLIE
1002
{
1000
NSB00340_S0
1002
}
  0
ARC
  5
B9AC
330
20
100
AcDbEntity
  8
11000_Left
  6
DASHED
 62
     7
370
    20
100
AcDbCircle
 39
0.25
 10
248.4564204275264
 20
443.5703647399068
 30
0.0
 40
0.7
100
AcDbArc
 50
4.324999999999917
 51
90.0
1001
AUSTER_ANSICHT
1002
{
1000
Det03
1002
}
1001
AUSTER_FOLIE
1002
{
1000
NSB00340_S0
1002
}
  0
ARC
  5
B9AD
330
20
100
AcDbEntity
  8
11000_Left
  6
DASHED
 62
     7
370
    20
100
AcDbCircle
 39
0.25
 10
205.8804204275264
 20
376.0203647399068
 30
0.0
 40
1.0
100
AcDbArc
 50
225.0000000000006
 51
270.0
1001
AUSTER_ANSICHT
1002
{
1000
Det03
1002
}
1001
AUSTER_FOLIE
1002
{
1000
NSB00340_S0
1002
}
  0
ARC
  5
B9AE
330
20
100
AcDbEntity
  8
11000_Left
  6
DASHED
 62
     7
370
    20
100
AcDbCircle
 39
0.25
 10
226.4664204275264
 20
390.9703647399069
 30
0.0
 40
0.8
100
AcDbArc
 50
90.0
 51
180.0
1001
AUSTER_ANSICHT
1002
{
1000
Det03
1002
}
1001
AUSTER_FOLIE
1002
{
1000
NSB00340_S0
1002
}
  0
ARC
  5
B9AF
330
20
100
AcDbEntity
  8
11000_Left
  6
DASHED
 62
     7
370
    20
100
AcDbCircle
 39
0.25
 10
227.1224204275264
 20
375.8203647399068
 30
0.0
 40
0.8
100
AcDbArc
 50
270.0
 51
352.5759999999999
1001
AUSTER_ANSICHT
1002
{
1000
Det03
1002
}
1001
AUSTER_FOLIE
1002
{
1000
NSB00340_S0
1002
}
  0
ARC
  5
B9B0
330
20
100
AcDbEntity
  8
11000_Left
  6
DASHED
 62
     7
370
    20
100
AcDbCircle
 39
0.25
 10
-19.98857957247362
 20
408.0203647399065
 30
0.0
 40
250.0
100
AcDbArc
 50
352.5759999999999
 51
356.2729999999989
1001
AUSTER_ANSICHT
1002
{
1000
Det03
1002
}
1001
AUSTER_FOLIE
1002
{
1000
NSB00340_S0
1002
}
  0
ARC
  5
B9B1
330
20
100
AcDbEntity
  8
11000_Left
  6
DASHED
 62
     7
370
    20
100
AcDbCircle
 39
0.25
 10
-0.1345795724736121
 20
424.7703647399068
 30
0.0
 40
250.0
100
AcDbArc
 50
352.6250000000019
 51
4.324999999999917
1001
AUSTER_ANSICHT
1002
{
1000
Det03
1002
}
1001
AUSTER_FOLIE
1002
{
1000
NSB00340_S0
1002
}
  0
ARC
  5
B9B2
330
20
100
AcDbEntity
  8
11000_Left
  6
DASHED
 62
     7
370
    20
100
AcDbCircle
 39
0.25
 10
246.6154204275264
 20
392.8843647399069
 30
0.0
 40
1.200999999999998
100
AcDbArc
 50
291.9460000000011
 51
350.2219999999975
1001
AUSTER_ANSICHT
1002
{
1000
Det03
1002
}
1001
AUSTER_FOLIE
1002
{
1000
NSB00340_S0
1002
}
  0
ARC
  5
B9B3
330
20
100
AcDbEntity
  8
11000_Left
  6
DASHED
 62
     7
370
    20
100
AcDbCircle
 39
0.25
 10
-0.1345795724736121
 20
430.2703647399066
 30
0.0
 40
252.0
100
AcDbArc
 50
357.4490000000019
 51
359.5450000000021
1001
AUSTER_ANSICHT
1002
{
1000
Det03
1002
}
1001
AUSTER_FOLIE
1002
{
1000
NSB00340_S0
1002
}
  0
ARC
  5
B9B4
330
20
100
AcDbEntity
  8
11000_Left
  6
DASHED
 62
     7
370
    20
100
AcDbCircle
 39
0.25
 10
251.5584204275264
 20
428.2703647399067
 30
0.0
 40
0.3
100
AcDbArc
 50
359.5450000000021
 51
90.0
1001
AUSTER_ANSICHT
1002
{
1000
Det03
1002
}
1001
AUSTER_FOLIE
1002
{
1000
NSB00340_S0
1002
}
  0
ARC
  5
B9B5
330
20
100
AcDbEntity
  8
11000_Left
  6
DASHED
 62
     7
370
    20
100
AcDbCircle
 39
0.25
 10
251.3204204275264
 20
419.0653647399068
 30
0.0
 40
0.296
100
AcDbArc
 50
270.0
 51
357.4490000000019
1001
AUSTER_ANSICHT
1002
{
1000
Det03
1002
}
1001
AUSTER_FOLIE
1002
{
1000
NSB00340_S0
1002
}
  0
CIRCLE
  5
B9B6
330
20
100
AcDbEntity
  8
10000_FRONT
  6
Continuous
 62
     7
370
    20
100
AcDbCircle
 39
0.25
 10
96.38187808894784
 20
454.0203647399065
 30
0.0
 40
3.1
1001
AUSTER_ANSICHT
1002
{
1000
Det03
1002
}
1001
AUSTER_FOLIE
1002
{
1000
NSB00340_S0
1002
}
  0
ARC
  5
B9B7
330
20
100
AcDbEntity
  8
10000_FRONT
  6
Continuous
 62
     7
370
    20
100
AcDbCircle
 39
0.25
 10
96.38187808894784
 20
454.0203647399065
 30
0.0
 40
2.85
100
AcDbArc
 50
347.7599999999991
 51
12.24000000000082
1001
AUSTER_ANSICHT
1002
{
1000
Det03
1002
}
1001
AUSTER_FOLIE
1002
{
1000
NSB00340_S0
1002
}
  0
ARC
  5
B9B8
330
20
100
AcDbEntity
  8
10000_FRONT
  6
Continuous
 62
     7
370
    20
100
AcDbCircle
 39
0.25
 10
96.38187808894784
 20
454.0203647399065
 30
0.0
 40
1.85
100
AcDbArc
 50
73.8370000000012
 51
106.1629999999988
1001
AUSTER_ANSICHT
1002
{
1000
Det03
1002
}
1001
AUSTER_FOLIE
1002
{
1000
NSB00340_S0
1002
}
  0
ARC
  5
B9B9
330
20
100
AcDbEntity
  8
10000_FRONT
  6
Continuous
 62
     7
370
    20
100
AcDbCircle
 39
0.25
 10
96.38187808894784
 20
454.0203647399065
 30
0.0
 40
1.85
100
AcDbArc
 50
253.8370000000012
 51
286.1629999999989
1001
AUSTER_ANSICHT
1002
{
1000
Det03
1002
}
1001
AUSTER_FOLIE
1002
{
1000
NSB00340_S0
1002
}
  0
ARC
  5
B9BA
330
20
100
AcDbEntity
  8
10000_FRONT
  6
Continuous
 62
     7
370
    20
100
AcDbCircle
 39
0.25
 10
96.38187808894784
 20
454.0203647399065
 30
0.0
 40
2.85
100
AcDbArc
 50
167.7599999999991
 51
192.2400000000008
1001
AUSTER_ANSICHT
1002
{
1000
Det03
1002
}
1001
AUSTER_FOLIE
1002
{
1000
NSB00340_S0
1002
}
  0
CIRCLE
  5
B9BB
330
20
100
AcDbEntity
  8
10000_FRONT
  6
Continuous
 62
     7
370
    20
100
AcDbCircle
 39
0.25
 10
110.7818780889478
 20
454.0203647399065
 30
0.0
 40
3.1
1001
AUSTER_ANSICHT
1002
{
1000
Det03
1002
}
1001
AUSTER_FOLIE
1002
{
1000
NSB00340_S0
1002
}
  0
ARC
  5
B9BC
330
20
100
AcDbEntity
  8
10000_FRONT
  6
Continuous
 62
     7
370
    20
100
AcDbCircle
 39
0.25
 10
110.7818780889478
 20
454.0203647399065
 30
0.0
 40
2.85
100
AcDbArc
 50
347.7599999999991
 51
12.24000000000082
1001
AUSTER_ANSICHT
1002
{
1000
Det03
1002
}
1001
AUSTER_FOLIE
1002
{
1000
NSB00340_S0
1002
}
  0
ARC
  5
B9BD
330
20
100
AcDbEntity
  8
10000_FRONT
  6
Continuous
 62
     7
370
    20
100
AcDbCircle
 39
0.25
 10
110.7818780889478
 20
454.0203647399065
 30
0.0
 40
1.85
100
AcDbArc
 50
73.8370000000012
 51
106.1629999999988
1001
AUSTER_ANSICHT
1002
{
1000
Det03
1002
}
1001
AUSTER_FOLIE
1002
{
1000
NSB00340_S0
1002
}
  0
ARC
  5
B9BE
330
20
100
AcDbEntity
  8
10000_FRONT
  6
Continuous
 62
     7
370
    20
100
AcDbCircle
 39
0.25
 10
110.7818780889478
 20
454.0203647399065
 30
0.0
 40
1.85
100
AcDbArc
 50
253.8370000000012
 51
286.1629999999989
1001
AUSTER_ANSICHT
1002
{
1000
Det03
1002
}
1001
AUSTER_FOLIE
1002
{
1000
NSB00340_S0
1002
}
  0
ARC
  5
B9BF
330
20
100
AcDbEntity
  8
10000_FRONT
  6
Continuous
 62
     7
370
    20
100
AcDbCircle
 39
0.25
 10
110.7818780889478
 20
454.0203647399065
 30
0.0
 40
2.85
100
AcDbArc
 50
167.7599999999991
 51
192.2400000000008
1001
AUSTER_ANSICHT
1002
{
1000
Det03
1002
}
1001
AUSTER_FOLIE
1002
{
1000
NSB00340_S0
1002
}
  0
CIRCLE
  5
B9C0
330
20
100
AcDbEntity
  8
10000_FRONT
  6
Continuous
 62
     7
370
    20
100
AcDbCircle
 39
0.25
 10
125.1818780889478
 20
454.0203647399065
 30
0.0
 40
3.1
1001
AUSTER_ANSICHT
1002
{
1000
Det03
1002
}
1001
AUSTER_FOLIE
1002
{
1000
NSB00340_S0
1002
}
  0
ARC
  5
B9C1
330
20
100
AcDbEntity
  8
10000_FRONT
  6
Continuous
 62
     7
370
    20
100
AcDbCircle
 39
0.25
 10
125.1818780889478
 20
454.0203647399065
 30
0.0
 40
2.85
100
AcDbArc
 50
347.7599999999991
 51
12.24000000000082
1001
AUSTER_ANSICHT
1002
{
1000
Det03
1002
}
1001
AUSTER_FOLIE
1002
{
1000
NSB00340_S0
1002
}
  0
ARC
  5
B9C2
330
20
100
AcDbEntity
  8
10000_FRONT
  6
Continuous
 62
     7
370
    20
100
AcDbCircle
 39
0.25
 10
125.1818780889478
 20
454.0203647399065
 30
0.0
 40
1.85
100
AcDbArc
 50
73.8370000000012
 51
106.1629999999988
1001
AUSTER_ANSICHT
1002
{
1000
Det03
1002
}
1001
AUSTER_FOLIE
1002
{
1000
NSB00340_S0
1002
}
  0
ARC
  5
B9C3
330
20
100
AcDbEntity
  8
10000_FRONT
  6
Continuous
 62
     7
370
    20
100
AcDbCircle
 39
0.25
 10
125.1818780889478
 20
454.0203647399065
 30
0.0
 40
1.85
100
AcDbArc
 50
253.8370000000012
 51
286.1629999999989
1001
AUSTER_ANSICHT
1002
{
1000
Det03
1002
}
1001
AUSTER_FOLIE
1002
{
1000
NSB00340_S0
1002
}
  0
ARC
  5
B9C4
330
20
100
AcDbEntity
  8
10000_FRONT
  6
Continuous
 62
     7
370
    20
100
AcDbCircle
 39
0.25
 10
125.1818780889478
 20
454.0203647399065
 30
0.0
 40
2.85
100
AcDbArc
 50
167.7599999999991
 51
192.2400000000008
1001
AUSTER_ANSICHT
1002
{
1000
Det03
1002
}
1001
AUSTER_FOLIE
1002
{
1000
NSB00340_S0
1002
}
  0
CIRCLE
  5
B9C5
330
20
100
AcDbEntity
  8
10000_FRONT
  6
DASHED
 62
     7
370
    13
100
AcDbCircle
 39
0.25
 10
96.38187808894784
 20
385.8703647399068
 30
0.0
 40
3.1
1001
AUSTER_ANSICHT
1002
{
1000
Det03
1002
}
1001
AUSTER_FOLIE
1002
{
1000
NSB00340_S0
1002
}
  0
ARC
  5
B9C6
330
20
100
AcDbEntity
  8
10000_FRONT
  6
DASHED
 62
     7
370
    13
100
AcDbCircle
 39
0.25
 10
96.38187808894784
 20
385.8703647399068
 30
0.0
 40
2.85
100
AcDbArc
 50
347.7599999999991
 51
12.24000000000082
1001
AUSTER_ANSICHT
1002
{
1000
Det03
1002
}
1001
AUSTER_FOLIE
1002
{
1000
NSB00340_S0
1002
}
  0
ARC
  5
B9C7
330
20
100
AcDbEntity
  8
10000_FRONT
  6
DASHED
 62
     7
370
    13
100
AcDbCircle
 39
0.25
 10
96.38187808894784
 20
385.8703647399068
 30
0.0
 40
1.85
100
AcDbArc
 50
253.8370000000012
 51
286.1629999999989
1001
AUSTER_ANSICHT
1002
{
1000
Det03
1002
}
1001
AUSTER_FOLIE
1002
{
1000
NSB00340_S0
1002
}
  0
ARC
  5
B9C8
330
20
100
AcDbEntity
  8
10000_FRONT
  6
DASHED
 62
     7
370
    13
100
AcDbCircle
 39
0.25
 10
96.38187808894784
 20
385.8703647399068
 30
0.0
 40
1.85
100
AcDbArc
 50
73.8370000000012
 51
106.1629999999988
1001
AUSTER_ANSICHT
1002
{
1000
Det03
1002
}
1001
AUSTER_FOLIE
1002
{
1000
NSB00340_S0
1002
}
  0
ARC
  5
B9C9
330
20
100
AcDbEntity
  8
10000_FRONT
  6
DASHED
 62
     7
370
    13
100
AcDbCircle
 39
0.25
 10
96.38187808894784
 20
385.8703647399068
 30
0.0
 40
2.85
100
AcDbArc
 50
167.7599999999991
 51
192.2400000000008
1001
AUSTER_ANSICHT
1002
{
1000
Det03
1002
}
1001
AUSTER_FOLIE
1002
{
1000
NSB00340_S0
1002
}
  0
CIRCLE
  5
B9CA
330
20
100
AcDbEntity
  8
10000_FRONT
  6
DASHED
 62
     7
370
    13
100
AcDbCircle
 39
0.25
 10
110.7818780889478
 20
385.8703647399068
 30
0.0
 40
3.1
1001
AUSTER_ANSICHT
1002
{
1000
Det03
1002
}
1001
AUSTER_FOLIE
1002
{
1000
NSB00340_S0
1002
}
  0
ARC
  5
B9CB
330
20
100
AcDbEntity
  8
10000_FRONT
  6
DASHED
 62
     7
370
    13
100
AcDbCircle
 39
0.25
 10
110.7818780889478
 20
385.8703647399068
 30
0.0
 40
2.85
100
AcDbArc
 50
347.7599999999991
 51
12.24000000000082
1001
AUSTER_ANSICHT
1002
{
1000
Det03
1002
}
1001
AUSTER_FOLIE
1002
{
1000
NSB00340_S0
1002
}
  0
ARC
  5
B9CC
330
20
100
AcDbEntity
  8
10000_FRONT
  6
DASHED
 62
     7
370
    13
100
AcDbCircle
 39
0.25
 10
110.7818780889478
 20
385.8703647399068
 30
0.0
 40
1.85
100
AcDbArc
 50
253.8370000000012
 51
286.1629999999989
1001
AUSTER_ANSICHT
1002
{
1000
Det03
1002
}
1001
AUSTER_FOLIE
1002
{
1000
NSB00340_S0
1002
}
  0
ARC
  5
B9CD
330
20
100
AcDbEntity
  8
10000_FRONT
  6
DASHED
 62
     7
370
    13
100
AcDbCircle
 39
0.25
 10
110.7818780889478
 20
385.8703647399068
 30
0.0
 40
1.85
100
AcDbArc
 50
73.8370000000012
 51
106.1629999999988
1001
AUSTER_ANSICHT
1002
{
1000
Det03
1002
}
1001
AUSTER_FOLIE
1002
{
1000
NSB00340_S0
1002
}
  0
ARC
  5
B9CE
330
20
100
AcDbEntity
  8
10000_FRONT
  6
DASHED
 62
     7
370
    13
100
AcDbCircle
 39
0.25
 10
110.7818780889478
 20
385.8703647399068
 30
0.0
 40
2.85
100
AcDbArc
 50
167.7599999999991
 51
192.2400000000008
1001
AUSTER_ANSICHT
1002
{
1000
Det03
1002
}
1001
AUSTER_FOLIE
1002
{
1000
NSB00340_S0
1002
}
  0
CIRCLE
  5
B9CF
330
20
100
AcDbEntity
  8
10000_FRONT
  6
DASHED
 62
     7
370
    13
100
AcDbCircle
 39
0.25
 10
125.1818780889478
 20
385.8703647399068
 30
0.0
 40
3.1
1001
AUSTER_ANSICHT
1002
{
1000
Det03
1002
}
1001
AUSTER_FOLIE
1002
{
1000
NSB00340_S0
1002
}
  0
ARC
  5
B9D0
330
20
100
AcDbEntity
  8
10000_FRONT
  6
DASHED
 62
     7
370
    13
100
AcDbCircle
 39
0.25
 10
125.1818780889478
 20
385.8703647399068
 30
0.0
 40
2.85
100
AcDbArc
 50
347.7599999999991
 51
12.24000000000082
1001
AUSTER_ANSICHT
1002
{
1000
Det03
1002
}
1001
AUSTER_FOLIE
1002
{
1000
NSB00340_S0
1002
}
  0
ARC
  5
B9D1
330
20
100
AcDbEntity
  8
10000_FRONT
  6
DASHED
 62
     7
370
    13
100
AcDbCircle
 39
0.25
 10
125.1818780889478
 20
385.8703647399068
 30
0.0
 40
1.85
100
AcDbArc
 50
253.8370000000012
 51
286.1629999999989
1001
AUSTER_ANSICHT
1002
{
1000
Det03
1002
}
1001
AUSTER_FOLIE
1002
{
1000
NSB00340_S0
1002
}
  0
ARC
  5
B9D2
330
20
100
AcDbEntity
  8
10000_FRONT
  6
DASHED
 62
     7
370
    13
100
AcDbCircle
 39
0.25
 10
125.1818780889478
 20
385.8703647399068
 30
0.0
 40
1.85
100
AcDbArc
 50
73.8370000000012
 51
106.1629999999988
1001
AUSTER_ANSICHT
1002
{
1000
Det03
1002
}
1001
AUSTER_FOLIE
1002
{
1000
NSB00340_S0
1002
}
  0
ARC
  5
B9D3
330
20
100
AcDbEntity
  8
10000_FRONT
  6
DASHED
 62
     7
370
    13
100
AcDbCircle
 39
0.25
 10
125.1818780889478
 20
385.8703647399068
 30
0.0
 40
2.85
100
AcDbArc
 50
167.7599999999991
 51
192.2400000000008
1001
AUSTER_ANSICHT
1002
{
1000
Det03
1002
}
1001
AUSTER_FOLIE
1002
{
1000
NSB00340_S0
1002
}
  0
CIRCLE
  5
B9D4
330
20
100
AcDbEntity
  8
10000_FRONT
  6
DASHED
 62
     7
370
    13
100
AcDbCircle
 39
0.25
 10
92.43187808894779
 20
414.7523647399067
 30
0.0
 40
2.9
1001
AUSTER_ANSICHT
1002
{
1000
Det03
1002
}
1001
AUSTER_FOLIE
1002
{
1000
NSB00340_S0
1002
}
  0
CIRCLE
  5
B9D5
330
20
100
AcDbEntity
  8
10000_FRONT
  6
DASHED
 62
     7
370
    13
100
AcDbCircle
 39
0.25
 10
103.8818780889478
 20
414.7523647399067
 30
0.0
 40
3.02
1001
AUSTER_ANSICHT
1002
{
1000
Det03
1002
}
1001
AUSTER_FOLIE
1002
{
1000
NSB00340_S0
1002
}
  0
ARC
  5
B9D6
330
20
100
AcDbEntity
  8
10000_FRONT
  6
DASHED
 62
     7
370
    13
100
AcDbCircle
 39
0.25
 10
103.8818780889478
 20
414.7523647399067
 30
0.0
 40
2.85
100
AcDbArc
 50
122.7599999999974
 51
147.2399999999976
1001
AUSTER_ANSICHT
1002
{
1000
Det03
1002
}
1001
AUSTER_FOLIE
1002
{
1000
NSB00340_S0
1002
}
  0
ARC
  5
B9D7
330
20
100
AcDbEntity
  8
10000_FRONT
  6
DASHED
 62
     7
370
    13
100
AcDbCircle
 39
0.25
 10
103.8818780889478
 20
414.7523647399067
 30
0.0
 40
1.85
100
AcDbArc
 50
28.8370000000002
 51
61.16300000000277
1001
AUSTER_ANSICHT
1002
{
1000
Det03
1002
}
1001
AUSTER_FOLIE
1002
{
1000
NSB00340_S0
1002
}
  0
ARC
  5
B9D8
330
20
100
AcDbEntity
  8
10000_FRONT
  6
DASHED
 62
     7
370
    13
100
AcDbCircle
 39
0.25
 10
103.8818780889478
 20
414.7523647399067
 30
0.0
 40
1.85
100
AcDbArc
 50
208.8370000000002
 51
241.1630000000013
1001
AUSTER_ANSICHT
1002
{
1000
Det03
1002
}
1001
AUSTER_FOLIE
1002
{
1000
NSB00340_S0
1002
}
  0
ARC
  5
B9D9
330
20
100
AcDbEntity
  8
10000_FRONT
  6
DASHED
 62
     7
370
    13
100
AcDbCircle
 39
0.25
 10
103.8818780889478
 20
414.7523647399067
 30
0.0
 40
2.85
100
AcDbArc
 50
302.7599999999992
 51
327.2399999999976
1001
AUSTER_ANSICHT
1002
{
1000
Det03
1002
}
1001
AUSTER_FOLIE
1002
{
1000
NSB00340_S0
1002
}
  0
ARC
  5
B9DA
330
20
100
AcDbEntity
  8
10000_FRONT
  6
DASHED
 62
     7
370
    13
100
AcDbCircle
 39
0.25
 10
132.1828780889478
 20
443.3213647399067
 30
0.0
 40
1.0
100
AcDbArc
 50
359.9930000000011
 51
89.99300000000031
1001
AUSTER_ANSICHT
1002
{
1000
Det03
1002
}
1001
AUSTER_FOLIE
1002
{
1000
NSB00340_S0
1002
}
  0
ARC
  5
B9DB
330
20
100
AcDbEntity
  8
10000_FRONT
  6
DASHED
 62
     7
370
    13
100
AcDbCircle
 39
0.25
 10
132.1828780889478
 20
392.8213647399069
 30
0.0
 40
1.000999999999999
100
AcDbArc
 50
270.0229999999996
 51
359.9709999999989
1001
AUSTER_ANSICHT
1002
{
1000
Det03
1002
}
1001
AUSTER_FOLIE
1002
{
1000
NSB00340_S0
1002
}
  0
ARC
  5
B9DC
330
20
100
AcDbEntity
  8
10000_FRONT
  6
DASHED
 62
     7
370
    13
100
AcDbCircle
 39
0.25
 10
132.1828780889478
 20
376.0713647399068
 30
0.0
 40
1.0
100
AcDbArc
 50
270.0100000000003
 51
359.9870000000001
1001
AUSTER_ANSICHT
1002
{
1000
Det03
1002
}
1001
AUSTER_FOLIE
1002
{
1000
NSB00340_S0
1002
}
  0
ARC
  5
B9DD
330
20
100
AcDbEntity
  8
10000_FRONT
  6
DASHED
 62
     7
370
    13
100
AcDbCircle
 39
0.25
 10
89.38287808894783
 20
443.3213647399067
 30
0.0
 40
1.0
100
AcDbArc
 50
90.00799999999982
 51
180.0069999999989
1001
AUSTER_ANSICHT
1002
{
1000
Det03
1002
}
1001
AUSTER_FOLIE
1002
{
1000
NSB00340_S0
1002
}
  0
ARC
  5
B9DE
330
20
100
AcDbEntity
  8
10000_FRONT
  6
DASHED
 62
     7
370
    13
100
AcDbCircle
 39
0.25
 10
89.38287808894783
 20
392.8203647399068
 30
0.0
 40
0.9990000000000001
100
AcDbArc
 50
179.9790000000023
 51
270.0309999999995
1001
AUSTER_ANSICHT
1002
{
1000
Det03
1002
}
1001
AUSTER_FOLIE
1002
{
1000
NSB00340_S0
1002
}
  0
ARC
  5
B9DF
330
20
100
AcDbEntity
  8
10000_FRONT
  6
DASHED
 62
     7
370
    13
100
AcDbCircle
 39
0.25
 10
89.38287808894783
 20
376.0703647399068
 30
0.0
 40
1.0
100
AcDbArc
 50
179.9910000000017
 51
270.0140000000005
1001
AUSTER_ANSICHT
1002
{
1000
Det03
1002
}
1001
AUSTER_FOLIE
1002
{
1000
NSB00340_S0
1002
}
  0
CIRCLE
  5
B9E0
330
20
100
AcDbEntity
  8
10000_FRONT
  6
DASHED
 62
     7
370
    13
100
AcDbCircle
 39
0.25
 10
126.7828780889478
 20
414.7523647399067
 30
0.0
 40
4.0
1001
AUSTER_ANSICHT
1002
{
1000
Det03
1002
}
1001
AUSTER_FOLIE
1002
{
1000
NSB00340_S0
1002
}
  0
ARC
  5
B9E1
330
20
100
AcDbEntity
  8
10000_FRONT
  6
DASHED
 62
     7
370
    13
100
AcDbCircle
 39
0.25
 10
126.7828780889478
 20
414.7523647399067
 30
0.0
 40
2.85
100
AcDbArc
 50
62.76000000000194
 51
87.23999999999955
1001
AUSTER_ANSICHT
1002
{
1000
Det03
1002
}
1001
AUSTER_FOLIE
1002
{
1000
NSB00340_S0
1002
}
  0
ARC
  5
B9E2
330
20
100
AcDbEntity
  8
10000_FRONT
  6
DASHED
 62
     7
370
    13
100
AcDbCircle
 39
0.25
 10
126.7828780889478
 20
414.7523647399067
 30
0.0
 40
1.85
100
AcDbArc
 50
328.8369999999978
 51
1.162999999997698
1001
AUSTER_ANSICHT
1002
{
1000
Det03
1002
}
1001
AUSTER_FOLIE
1002
{
1000
NSB00340_S0
1002
}
  0
ARC
  5
B9E3
330
20
100
AcDbEntity
  8
10000_FRONT
  6
DASHED
 62
     7
370
    13
100
AcDbCircle
 39
0.25
 10
126.7828780889478
 20
414.7523647399067
 30
0.0
 40
1.85
100
AcDbArc
 50
148.8369999999977
 51
181.1629999999976
1001
AUSTER_ANSICHT
1002
{
1000
Det03
1002
}
1001
AUSTER_FOLIE
1002
{
1000
NSB00340_S0
1002
}
  0
ARC
  5
B9E4
330
20
100
AcDbEntity
  8
10000_FRONT
  6
DASHED
 62
     7
370
    13
100
AcDbCircle
 39
0.25
 10
126.7828780889478
 20
414.7523647399067
 30
0.0
 40
2.85
100
AcDbArc
 50
242.7600000000005
 51
267.2399999999996
1001
AUSTER_ANSICHT
1002
{
1000
Det03
1002
}
1001
AUSTER_FOLIE
1002
{
1000
NSB00340_S0
1002
}
  0
CIRCLE
  5
B9E5
330
20
100
AcDbEntity
  8
30000_Drilling
  6
Continuous
 62
     7
370
    50
100
AcDbCircle
 39
0.25
 10
284.407515062238
 20
372.2203647399069
 30
0.0
 40
2.25
1001
AUSTER_ANSICHT
1002
{
1000
Det03
1002
}
1001
AUSTER_FOLIE
1002
{
1000
NSB00340_S0
1002
}
  0
ARC
  5
B9E6
330
20
100
AcDbEntity
  8
10000_FRONT
  6
Continuous
 62
     7
370
    50
100
AcDbCircle
 39
0.7
 10
131.6818780889478
 20
369.2203647399069
 30
0.0
 40
1.5
100
AcDbArc
 50
270.0
 51
0.0
1001
AUSTER_ANSICHT
1002
{
1000
Det03
1002
}
1001
AUSTER_FOLIE
1002
{
1000
NSB00340_S0
1002
}
  0
ARC
  5
B9E7
330
20
100
AcDbEntity
  8
10000_FRONT
  6
Continuous
 62
     7
370
    50
100
AcDbCircle
 39
0.7
 10
89.88187808894783
 20
369.2203647399069
 30
0.0
 40
1.5
100
AcDbArc
 50
180.0
 51
270.0
1001
AUSTER_ANSICHT
1002
{
1000
Det03
1002
}
1001
AUSTER_FOLIE
1002
{
1000
NSB00340_S0
1002
}
  0
ARC
  5
B9E8
330
20
100
AcDbEntity
  8
10000_FRONT
  6
Continuous
 62
     7
370
    50
100
AcDbCircle
 39
0.7
 10
89.38187808894783
 20
463.8203647399068
 30
0.0
 40
1.0
100
AcDbArc
 50
90.0
 51
180.0
1001
AUSTER_ANSICHT
1002
{
1000
Det03
1002
}
1001
AUSTER_FOLIE
1002
{
1000
NSB00340_S0
1002
}
  0
ARC
  5
B9E9
330
20
100
AcDbEntity
  8
11000_Left
  6
DASHED
 62
     7
370
    20
100
AcDbCircle
 39
0.25
 10
160.7664204275264
 20
430.0703647399068
 30
-1.0
 40
1.0
100
AcDbArc
 50
90.0
 51
180.0
1001
AUSTER_ANSICHT
1002
{
1000
Det03
1002
}
1001
AUSTER_FOLIE
1002
{
1000
NSB00340_S0
1002
}
  0
ARC
  5
B9EA
330
20
100
AcDbEntity
  8
11000_Left
  6
DASHED
 62
     7
370
    20
100
AcDbCircle
 39
0.25
 10
160.7664204275264
 20
411.0703647399068
 30
-1.0
 40
1.0
100
AcDbArc
 50
180.0
 51
270.0
1001
AUSTER_ANSICHT
1002
{
1000
Det03
1002
}
1001
AUSTER_FOLIE
1002
{
1000
NSB00340_S0
1002
}
  0
ARC
  5
B9EB
330
20
100
AcDbEntity
  8
11000_Left
  6
DASHED
 62
     7
370
    20
100
AcDbCircle
 39
0.25
 10
160.8664204275263
 20
434.9703647399068
 30
-1.0
 40
1.9
100
AcDbArc
 50
270.0
 51
0.0
1001
AUSTER_ANSICHT
1002
{
1000
Det03
1002
}
1001
AUSTER_FOLIE
1002
{
1000
NSB00340_S0
1002
}
  0
ARC
  5
B9EC
330
20
100
AcDbEntity
  8
11000_Left
  6
DASHED
 62
     7
370
    20
100
AcDbCircle
 39
0.25
 10
160.8664204275263
 20
406.1703647399069
 30
-1.0
 40
1.9
100
AcDbArc
 50
0.0
 51
90.0
1001
AUSTER_ANSICHT
1002
{
1000
Det03
1002
}
1001
AUSTER_FOLIE
1002
{
1000
NSB00340_S0
1002
}
  0
ARC
  5
B9ED
330
20
100
AcDbEntity
  8
11000_Left
  6
DASHED
 62
     7
370
    20
100
AcDbCircle
 39
0.25
 10
158.2664204275264
 20
409.0703647399068
 30
0.0
 40
1.0
100
AcDbArc
 50
180.0
 51
270.0
1001
AUSTER_ANSICHT
1002
{
1000
Det03
1002
}
1001
AUSTER_FOLIE
1002
{
1000
NSB00340_S0
1002
}
  0
ARC
  5
B9EE
330
20
100
AcDbEntity
  8
11000_Left
  6
DASHED
 62
     7
370
    20
100
AcDbCircle
 39
0.25
 10
158.2664204275264
 20
432.0703647399068
 30
0.0
 40
1.0
100
AcDbArc
 50
90.0
 51
180.0
1001
AUSTER_ANSICHT
1002
{
1000
Det03
1002
}
1001
AUSTER_FOLIE
1002
{
1000
NSB00340_S0
1002
}
  0
ARC
  5
B9EF
330
20
100
AcDbEntity
  8
10000_FRONT
  6
Continuous
 62
     7
370
    50
100
AcDbCircle
 39
0.7
 10
132.1818780889478
 20
463.8053647399068
 30
0.0
 40
1.0
100
AcDbArc
 50
0.0
 51
90.0
1001
AUSTER_ANSICHT
1002
{
1000
Det03
1002
}
1001
AUSTER_FOLIE
1002
{
1000
NSB00340_S0
1002
}
  0
CIRCLE
  5
B9F0
330
20
100
AcDbEntity
  8
30000_Drilling
  6
Continuous
 62
     7
370
    50
100
AcDbCircle
 39
0.25
 10
319.307515062238
 20
457.2203647399068
 30
0.0
 40
2.25
1001
AUSTER_ANSICHT
1002
{
1000
Det03
1002
}
1001
AUSTER_FOLIE
1002
{
1000
NSB00340_S0
1002
}
  0
ARC
  5
B9F1
330
20
100
AcDbEntity
  8
11000_Left
  6
DASHED
 62
     7
370
    20
100
AcDbCircle
 39
0.25
 10
163.0664204275264
 20
405.2203647399069
 30
0.0
 40
0.7
100
AcDbArc
 50
0.0
 51
90.0
1001
AUSTER_ANSICHT
1002
{
1000
Det03
1002
}
1001
AUSTER_FOLIE
1002
{
1000
NSB00340_S0
1002
}
  0
LINE
  5
B9F2
330
20
100
AcDbEntity
  8
11000_Left
  6
DASHED
 62
     7
370
    20
100
AcDbLine
 39
0.25
 10
235.4664204275264
 20
406.7703647399067
 30
0.0
 11
235.4664204275264
 21
391.7703647399068
 31
0.0
1001
AUSTER_ANSICHT
1002
{
1000
Det03
1002
}
1001
AUSTER_FOLIE
1002
{
1000
NSB00340_S0
1002
}
  0
LINE
  5
B9F3
330
20
100
AcDbEntity
  8
11000_Left
  6
DASHED
 62
     7
370
    20
100
AcDbLine
 39
0.25
 10
230.9664204275264
 20
391.7703647399068
 30
0.0
 11
230.9664204275264
 21
406.7703647399067
 31
0.0
1001
AUSTER_ANSICHT
1002
{
1000
Det03
1002
}
1001
AUSTER_FOLIE
1002
{
1000
NSB00340_S0
1002
}
  0
LINE
  5
B9F4
330
20
100
AcDbEntity
  8
11000_Left
  6
DASHED
 62
     7
370
    20
100
AcDbLine
 39
0.25
 10
230.9664204275264
 20
406.7703647399067
 30
0.0
 11
235.4664204275264
 21
406.7703647399067
 31
0.0
1001
AUSTER_ANSICHT
1002
{
1000
Det03
1002
}
1001
AUSTER_FOLIE
1002
{
1000
NSB00340_S0
1002
}
  0
LINE
  5
B9F5
330
20
100
AcDbEntity
  8
11000_Left
  6
DASHED
 62
     7
370
    20
100
AcDbLine
 39
0.25
 10
235.4664204275264
 20
406.7703647399067
 30
0.0
 11
235.4664204275264
 21
391.7703647399068
 31
0.0
1001
AUSTER_ANSICHT
1002
{
1000
Det03
1002
}
1001
AUSTER_FOLIE
1002
{
1000
NSB00340_S0
1002
}
  0
LINE
  5
B9F6
330
20
100
AcDbEntity
  8
11000_Left
  6
DASHED
 62
     7
370
    20
100
AcDbLine
 39
0.25
 10
230.9664204275264
 20
406.7703647399067
 30
0.0
 11
235.4664204275264
 21
406.7703647399067
 31
0.0
1001
AUSTER_ANSICHT
1002
{
1000
Det03
1002
}
1001
AUSTER_FOLIE
1002
{
1000
NSB00340_S0
1002
}
  0
LINE
  5
B9F7
330
20
100
AcDbEntity
  8
11000_Left
  6
DASHED
 62
     7
370
    20
100
AcDbLine
 39
0.25
 10
230.9664204275264
 20
391.7703647399068
 30
0.0
 11
230.9664204275264
 21
406.7703647399067
 31
0.0
1001
AUSTER_ANSICHT
1002
{
1000
Det03
1002
}
1001
AUSTER_FOLIE
1002
{
1000
NSB00340_S0
1002
}
  0
LINE
  5
B9F8
330
20
100
AcDbEntity
  8
10000_FRONT
  6
DASHED
 62
     7
370
    13
100
AcDbLine
 39
0.25
 10
120.0968780889478
 20
401.3683647399068
 30
0.0
 11
120.0968780889478
 21
401.5483647399068
 31
0.0
1001
AUSTER_ANSICHT
1002
{
1000
Det03
1002
}
1001
AUSTER_FOLIE
1002
{
1000
NSB00340_S0
1002
}
  0
LINE
  5
B9F9
330
20
100
AcDbEntity
  8
10000_FRONT
  6
DASHED
 62
     7
370
    13
100
AcDbLine
 39
0.25
 10
120.0968780889478
 20
402.9373647399068
 30
0.0
 11
120.0968780889478
 21
402.7573647399067
 31
0.0
1001
AUSTER_ANSICHT
1002
{
1000
Det03
1002
}
1001
AUSTER_FOLIE
1002
{
1000
NSB00340_S0
1002
}
  0
LINE
  5
B9FA
330
20
100
AcDbEntity
  8
10000_FRONT
  6
DASHED
 62
     7
370
    13
100
AcDbLine
 39
0.25
 10
119.0668780889478
 20
401.3683647399068
 30
0.0
 11
119.0668780889478
 21
400.3753647399068
 31
0.0
1001
AUSTER_ANSICHT
1002
{
1000
Det03
1002
}
1001
AUSTER_FOLIE
1002
{
1000
NSB00340_S0
1002
}
  0
LINE
  5
B9FB
330
20
100
AcDbEntity
  8
10000_FRONT
  6
DASHED
 62
     7
370
    13
100
AcDbLine
 39
0.25
 10
120.0968780889478
 20
400.3753647399068
 30
0.0
 11
120.0968780889478
 21
401.3683647399068
 31
0.0
1001
AUSTER_ANSICHT
1002
{
1000
Det03
1002
}
1001
AUSTER_FOLIE
1002
{
1000
NSB00340_S0
1002
}
  0
LINE
  5
B9FC
330
20
100
AcDbEntity
  8
10000_FRONT
  6
DASHED
 62
     7
370
    13
100
AcDbLine
 39
0.25
 10
120.0968780889478
 20
402.9373647399068
 30
0.0
 11
120.0968780889478
 21
403.9293647399068
 31
0.0
1001
AUSTER_ANSICHT
1002
{
1000
Det03
1002
}
1001
AUSTER_FOLIE
1002
{
1000
NSB00340_S0
1002
}
  0
LINE
  5
B9FD
330
20
100
AcDbEntity
  8
10000_FRONT
  6
DASHED
 62
     7
370
    13
100
AcDbLine
 39
0.25
 10
119.0668780889478
 20
403.9293647399068
 30
0.0
 11
119.0668780889478
 21
402.9373647399068
 31
0.0
1001
AUSTER_ANSICHT
1002
{
1000
Det03
1002
}
1001
AUSTER_FOLIE
1002
{
1000
NSB00340_S0
1002
}
  0
LINE
  5
B9FE
330
20
100
AcDbEntity
  8
10000_FRONT
  6
DASHED
 62
     7
370
    13
100
AcDbLine
 39
0.25
 10
122.3678780889478
 20
402.7573647399067
 30
0.0
 11
120.0968780889478
 21
402.7573647399067
 31
0.0
1001
AUSTER_ANSICHT
1002
{
1000
Det03
1002
}
1001
AUSTER_FOLIE
1002
{
1000
NSB00340_S0
1002
}
  0
LINE
  5
B9FF
330
20
100
AcDbEntity
  8
10000_FRONT
  6
DASHED
 62
     7
370
    13
100
AcDbLine
 39
0.25
 10
120.0968780889478
 20
401.5483647399068
 30
0.0
 11
122.3678780889478
 21
401.5483647399068
 31
0.0
1001
AUSTER_ANSICHT
1002
{
1000
Det03
1002
}
1001
AUSTER_FOLIE
1002
{
1000
NSB00340_S0
1002
}
  0
LINE
  5
BA00
330
20
100
AcDbEntity
  8
10000_FRONT
  6
DASHED
 62
     7
370
    13
100
AcDbLine
 39
0.25
 10
110.4668780889478
 20
401.3683647399068
 30
0.0
 11
110.4668780889478
 21
401.5483647399068
 31
0.0
1001
AUSTER_ANSICHT
1002
{
1000
Det03
1002
}
1001
AUSTER_FOLIE
1002
{
1000
NSB00340_S0
1002
}
  0
LINE
  5
BA01
330
20
100
AcDbEntity
  8
10000_FRONT
  6
DASHED
 62
     7
370
    13
100
AcDbLine
 39
0.25
 10
110.4668780889478
 20
402.9373647399068
 30
0.0
 11
110.4668780889478
 21
402.7573647399067
 31
0.0
1001
AUSTER_ANSICHT
1002
{
1000
Det03
1002
}
1001
AUSTER_FOLIE
1002
{
1000
NSB00340_S0
1002
}
  0
LINE
  5
BA02
330
20
100
AcDbEntity
  8
10000_FRONT
  6
DASHED
 62
     7
370
    13
100
AcDbLine
 39
0.25
 10
111.4968780889478
 20
401.3683647399068
 30
0.0
 11
111.4968780889478
 21
401.5483647399068
 31
0.0
1001
AUSTER_ANSICHT
1002
{
1000
Det03
1002
}
1001
AUSTER_FOLIE
1002
{
1000
NSB00340_S0
1002
}
  0
LINE
  5
BA03
330
20
100
AcDbEntity
  8
10000_FRONT
  6
DASHED
 62
     7
370
    13
100
AcDbLine
 39
0.25
 10
111.4968780889478
 20
402.9373647399068
 30
0.0
 11
111.4968780889478
 21
402.7573647399067
 31
0.0
1001
AUSTER_ANSICHT
1002
{
1000
Det03
1002
}
1001
AUSTER_FOLIE
1002
{
1000
NSB00340_S0
1002
}
  0
LINE
  5
BA04
330
20
100
AcDbEntity
  8
10000_FRONT
  6
DASHED
 62
     7
370
    13
100
AcDbLine
 39
0.25
 10
110.4668780889478
 20
401.3683647399068
 30
0.0
 11
110.4668780889478
 21
400.3753647399068
 31
0.0
1001
AUSTER_ANSICHT
1002
{
1000
Det03
1002
}
1001
AUSTER_FOLIE
1002
{
1000
NSB00340_S0
1002
}
  0
LINE
  5
BA05
330
20
100
AcDbEntity
  8
10000_FRONT
  6
DASHED
 62
     7
370
    13
100
AcDbLine
 39
0.25
 10
111.4968780889478
 20
400.3753647399068
 30
0.0
 11
111.4968780889478
 21
401.3683647399068
 31
0.0
1001
AUSTER_ANSICHT
1002
{
1000
Det03
1002
}
1001
AUSTER_FOLIE
1002
{
1000
NSB00340_S0
1002
}
  0
LINE
  5
BA06
330
20
100
AcDbEntity
  8
10000_FRONT
  6
DASHED
 62
     7
370
    13
100
AcDbLine
 39
0.25
 10
111.4968780889478
 20
402.9373647399068
 30
0.0
 11
111.4968780889478
 21
403.9293647399068
 31
0.0
1001
AUSTER_ANSICHT
1002
{
1000
Det03
1002
}
1001
AUSTER_FOLIE
1002
{
1000
NSB00340_S0
1002
}
  0
LINE
  5
BA07
330
20
100
AcDbEntity
  8
10000_FRONT
  6
DASHED
 62
     7
370
    13
100
AcDbLine
 39
0.25
 10
110.4668780889478
 20
403.9293647399068
 30
0.0
 11
110.4668780889478
 21
402.9373647399068
 31
0.0
1001
AUSTER_ANSICHT
1002
{
1000
Det03
1002
}
1001
AUSTER_FOLIE
1002
{
1000
NSB00340_S0
1002
}
  0
LINE
  5
BA08
330
20
100
AcDbEntity
  8
10000_FRONT
  6
DASHED
 62
     7
370
    13
100
AcDbLine
 39
0.25
 10
110.4668780889478
 20
402.7573647399067
 30
0.0
 11
108.1958780889478
 21
402.7573647399067
 31
0.0
1001
AUSTER_ANSICHT
1002
{
1000
Det03
1002
}
1001
AUSTER_FOLIE
1002
{
1000
NSB00340_S0
1002
}
  0
LINE
  5
BA09
330
20
100
AcDbEntity
  8
10000_FRONT
  6
DASHED
 62
     7
370
    13
100
AcDbLine
 39
0.25
 10
113.7678780889478
 20
402.7573647399067
 30
0.0
 11
111.4968780889478
 21
402.7573647399067
 31
0.0
1001
AUSTER_ANSICHT
1002
{
1000
Det03
1002
}
1001
AUSTER_FOLIE
1002
{
1000
NSB00340_S0
1002
}
  0
LINE
  5
BA0A
330
20
100
AcDbEntity
  8
10000_FRONT
  6
DASHED
 62
     7
370
    13
100
AcDbLine
 39
0.25
 10
111.4968780889478
 20
401.5483647399068
 30
0.0
 11
113.7678780889478
 21
401.5483647399068
 31
0.0
1001
AUSTER_ANSICHT
1002
{
1000
Det03
1002
}
1001
AUSTER_FOLIE
1002
{
1000
NSB00340_S0
1002
}
  0
LINE
  5
BA0B
330
20
100
AcDbEntity
  8
10000_FRONT
  6
DASHED
 62
     7
370
    13
100
AcDbLine
 39
0.25
 10
108.1958780889478
 20
401.5483647399068
 30
0.0
 11
110.4668780889478
 21
401.5483647399068
 31
0.0
1001
AUSTER_ANSICHT
1002
{
1000
Det03
1002
}
1001
AUSTER_FOLIE
1002
{
1000
NSB00340_S0
1002
}
  0
LINE
  5
BA0C
330
20
100
AcDbEntity
  8
10000_FRONT
  6
DASHED
 62
     7
370
    13
100
AcDbLine
 39
0.25
 10
101.8668780889478
 20
401.3683647399068
 30
0.0
 11
101.8668780889478
 21
401.5483647399068
 31
0.0
1001
AUSTER_ANSICHT
1002
{
1000
Det03
1002
}
1001
AUSTER_FOLIE
1002
{
1000
NSB00340_S0
1002
}
  0
LINE
  5
BA0D
330
20
100
AcDbEntity
  8
10000_FRONT
  6
DASHED
 62
     7
370
    13
100
AcDbLine
 39
0.25
 10
101.8668780889478
 20
402.9373647399068
 30
0.0
 11
101.8668780889478
 21
402.7573647399067
 31
0.0
1001
AUSTER_ANSICHT
1002
{
1000
Det03
1002
}
1001
AUSTER_FOLIE
1002
{
1000
NSB00340_S0
1002
}
  0
LINE
  5
BA0E
330
20
100
AcDbEntity
  8
10000_FRONT
  6
DASHED
 62
     7
370
    13
100
AcDbLine
 39
0.25
 10
102.8968780889478
 20
401.3683647399068
 30
0.0
 11
102.8968780889478
 21
401.5483647399068
 31
0.0
1001
AUSTER_ANSICHT
1002
{
1000
Det03
1002
}
1001
AUSTER_FOLIE
1002
{
1000
NSB00340_S0
1002
}
  0
LINE
  5
BA0F
330
20
100
AcDbEntity
  8
10000_FRONT
  6
DASHED
 62
     7
370
    13
100
AcDbLine
 39
0.25
 10
102.8968780889478
 20
402.9373647399068
 30
0.0
 11
102.8968780889478
 21
402.7573647399067
 31
0.0
1001
AUSTER_ANSICHT
1002
{
1000
Det03
1002
}
1001
AUSTER_FOLIE
1002
{
1000
NSB00340_S0
1002
}
  0
LINE
  5
BA10
330
20
100
AcDbEntity
  8
10000_FRONT
  6
DASHED
 62
     7
370
    13
100
AcDbLine
 39
0.25
 10
101.8668780889478
 20
401.3683647399068
 30
0.0
 11
101.8668780889478
 21
400.3753647399068
 31
0.0
1001
AUSTER_ANSICHT
1002
{
1000
Det03
1002
}
1001
AUSTER_FOLIE
1002
{
1000
NSB00340_S0
1002
}
  0
LINE
  5
BA11
330
20
100
AcDbEntity
  8
10000_FRONT
  6
DASHED
 62
     7
370
    13
100
AcDbLine
 39
0.25
 10
102.8968780889478
 20
400.3753647399068
 30
0.0
 11
102.8968780889478
 21
401.3683647399068
 31
0.0
1001
AUSTER_ANSICHT
1002
{
1000
Det03
1002
}
1001
AUSTER_FOLIE
1002
{
1000
NSB00340_S0
1002
}
  0
LINE
  5
BA12
330
20
100
AcDbEntity
  8
10000_FRONT
  6
DASHED
 62
     7
370
    13
100
AcDbLine
 39
0.25
 10
102.8968780889478
 20
402.9373647399068
 30
0.0
 11
102.8968780889478
 21
403.9293647399068
 31
0.0
1001
AUSTER_ANSICHT
1002
{
1000
Det03
1002
}
1001
AUSTER_FOLIE
1002
{
1000
NSB00340_S0
1002
}
  0
LINE
  5
BA13
330
20
100
AcDbEntity
  8
10000_FRONT
  6
DASHED
 62
     7
370
    13
100
AcDbLine
 39
0.25
 10
101.8668780889478
 20
403.9293647399068
 30
0.0
 11
101.8668780889478
 21
402.9373647399068
 31
0.0
1001
AUSTER_ANSICHT
1002
{
1000
Det03
1002
}
1001
AUSTER_FOLIE
1002
{
1000
NSB00340_S0
1002
}
  0
LINE
  5
BA14
330
20
100
AcDbEntity
  8
10000_FRONT
  6
DASHED
 62
     7
370
    13
100
AcDbLine
 39
0.25
 10
101.8668780889478
 20
402.7573647399067
 30
0.0
 11
99.59587808894788
 21
402.7573647399067
 31
0.0
1001
AUSTER_ANSICHT
1002
{
1000
Det03
1002
}
1001
AUSTER_FOLIE
1002
{
1000
NSB00340_S0
1002
}
  0
LINE
  5
BA15
330
20
100
AcDbEntity
  8
10000_FRONT
  6
DASHED
 62
     7
370
    13
100
AcDbLine
 39
0.25
 10
105.1678780889478
 20
402.7573647399067
 30
0.0
 11
102.8968780889478
 21
402.7573647399067
 31
0.0
1001
AUSTER_ANSICHT
1002
{
1000
Det03
1002
}
1001
AUSTER_FOLIE
1002
{
1000
NSB00340_S0
1002
}
  0
LINE
  5
BA16
330
20
100
AcDbEntity
  8
10000_FRONT
  6
DASHED
 62
     7
370
    13
100
AcDbLine
 39
0.25
 10
102.8968780889478
 20
401.5483647399068
 30
0.0
 11
105.1678780889478
 21
401.5483647399068
 31
0.0
1001
AUSTER_ANSICHT
1002
{
1000
Det03
1002
}
1001
AUSTER_FOLIE
1002
{
1000
NSB00340_S0
1002
}
  0
LINE
  5
BA17
330
20
100
AcDbEntity
  8
10000_FRONT
  6
DASHED
 62
     7
370
    13
100
AcDbLine
 39
0.25
 10
99.59587808894788
 20
401.5483647399068
 30
0.0
 11
101.8668780889478
 21
401.5483647399068
 31
0.0
1001
AUSTER_ANSICHT
1002
{
1000
Det03
1002
}
1001
AUSTER_FOLIE
1002
{
1000
NSB00340_S0
1002
}
  0
LINE
  5
BA18
330
20
100
AcDbEntity
  8
10000_FRONT
  6
DASHED
 62
     7
370
    13
100
AcDbLine
 39
0.25
 10
93.26687808894785
 20
401.3683647399068
 30
0.0
 11
93.26687808894785
 21
401.5483647399068
 31
0.0
1001
AUSTER_ANSICHT
1002
{
1000
Det03
1002
}
1001
AUSTER_FOLIE
1002
{
1000
NSB00340_S0
1002
}
  0
LINE
  5
BA19
330
20
100
AcDbEntity
  8
10000_FRONT
  6
DASHED
 62
     7
370
    13
100
AcDbLine
 39
0.25
 10
93.26687808894785
 20
402.9373647399068
 30
0.0
 11
93.26687808894785
 21
402.7573647399067
 31
0.0
1001
AUSTER_ANSICHT
1002
{
1000
Det03
1002
}
1001
AUSTER_FOLIE
1002
{
1000
NSB00340_S0
1002
}
  0
LINE
  5
BA1A
330
20
100
AcDbEntity
  8
10000_FRONT
  6
DASHED
 62
     7
370
    13
100
AcDbLine
 39
0.25
 10
94.29687808894785
 20
401.3683647399068
 30
0.0
 11
94.29687808894785
 21
401.5483647399068
 31
0.0
1001
AUSTER_ANSICHT
1002
{
1000
Det03
1002
}
1001
AUSTER_FOLIE
1002
{
1000
NSB00340_S0
1002
}
  0
LINE
  5
BA1B
330
20
100
AcDbEntity
  8
10000_FRONT
  6
DASHED
 62
     7
370
    13
100
AcDbLine
 39
0.25
 10
94.29687808894785
 20
402.9373647399068
 30
0.0
 11
94.29687808894785
 21
402.7573647399067
 31
0.0
1001
AUSTER_ANSICHT
1002
{
1000
Det03
1002
}
1001
AUSTER_FOLIE
1002
{
1000
NSB00340_S0
1002
}
  0
LINE
  5
BA1C
330
20
100
AcDbEntity
  8
10000_FRONT
  6
DASHED
 62
     7
370
    13
100
AcDbLine
 39
0.25
 10
94.29687808894785
 20
400.3753647399068
 30
0.0
 11
94.29687808894785
 21
401.3683647399068
 31
0.0
1001
AUSTER_ANSICHT
1002
{
1000
Det03
1002
}
1001
AUSTER_FOLIE
1002
{
1000
NSB00340_S0
1002
}
  0
LINE
  5
BA1D
330
20
100
AcDbEntity
  8
10000_FRONT
  6
DASHED
 62
     7
370
    13
100
AcDbLine
 39
0.25
 10
94.29687808894785
 20
402.9373647399068
 30
0.0
 11
94.29687808894785
 21
403.9293647399068
 31
0.0
1001
AUSTER_ANSICHT
1002
{
1000
Det03
1002
}
1001
AUSTER_FOLIE
1002
{
1000
NSB00340_S0
1002
}
  0
LINE
  5
BA1E
330
20
100
AcDbEntity
  8
10000_FRONT
  6
DASHED
 62
     7
370
    13
100
AcDbLine
 39
0.25
 10
96.56787808894785
 20
402.7573647399067
 30
0.0
 11
94.29687808894785
 21
402.7573647399067
 31
0.0
1001
AUSTER_ANSICHT
1002
{
1000
Det03
1002
}
1001
AUSTER_FOLIE
1002
{
1000
NSB00340_S0
1002
}
  0
LINE
  5
BA1F
330
20
100
AcDbEntity
  8
10000_FRONT
  6
DASHED
 62
     7
370
    13
100
AcDbLine
 39
0.25
 10
94.29687808894785
 20
401.5483647399068
 30
0.0
 11
96.56787808894785
 21
401.5483647399068
 31
0.0
1001
AUSTER_ANSICHT
1002
{
1000
Det03
1002
}
1001
AUSTER_FOLIE
1002
{
1000
NSB00340_S0
1002
}
  0
LINE
  5
BA20
330
20
100
AcDbEntity
  8
10000_FRONT
  6
DASHED
 62
     7
370
    13
100
AcDbLine
 39
0.25
 10
119.0668780889478
 20
401.3683647399068
 30
0.0
 11
119.0668780889478
 21
401.5483647399068
 31
0.0
1001
AUSTER_ANSICHT
1002
{
1000
Det03
1002
}
1001
AUSTER_FOLIE
1002
{
1000
NSB00340_S0
1002
}
  0
LINE
  5
BA21
330
20
100
AcDbEntity
  8
10000_FRONT
  6
DASHED
 62
     7
370
    13
100
AcDbLine
 39
0.25
 10
119.0668780889478
 20
402.9373647399068
 30
0.0
 11
119.0668780889478
 21
402.7573647399067
 31
0.0
1001
AUSTER_ANSICHT
1002
{
1000
Det03
1002
}
1001
AUSTER_FOLIE
1002
{
1000
NSB00340_S0
1002
}
  0
LINE
  5
BA22
330
20
100
AcDbEntity
  8
10000_FRONT
  6
DASHED
 62
     7
370
    13
100
AcDbLine
 39
0.25
 10
93.26687808894785
 20
401.3683647399068
 30
0.0
 11
93.26687808894785
 21
400.3753647399068
 31
0.0
1001
AUSTER_ANSICHT
1002
{
1000
Det03
1002
}
1001
AUSTER_FOLIE
1002
{
1000
NSB00340_S0
1002
}
  0
LINE
  5
BA23
330
20
100
AcDbEntity
  8
10000_FRONT
  6
DASHED
 62
     7
370
    13
100
AcDbLine
 39
0.25
 10
93.26687808894785
 20
403.9293647399068
 30
0.0
 11
93.26687808894785
 21
402.9373647399068
 31
0.0
1001
AUSTER_ANSICHT
1002
{
1000
Det03
1002
}
1001
AUSTER_FOLIE
1002
{
1000
NSB00340_S0
1002
}
  0
LINE
  5
BA24
330
20
100
AcDbEntity
  8
10000_FRONT
  6
DASHED
 62
     7
370
    13
100
AcDbLine
 39
0.25
 10
90.99587808894785
 20
401.5483647399068
 30
0.0
 11
93.26687808894785
 21
401.5483647399068
 31
0.0
1001
AUSTER_ANSICHT
1002
{
1000
Det03
1002
}
1001
AUSTER_FOLIE
1002
{
1000
NSB00340_S0
1002
}
  0
LINE
  5
BA25
330
20
100
AcDbEntity
  8
10000_FRONT
  6
DASHED
 62
     7
370
    13
100
AcDbLine
 39
0.25
 10
93.26687808894785
 20
402.7573647399067
 30
0.0
 11
90.99587808894785
 21
402.7573647399067
 31
0.0
1001
AUSTER_ANSICHT
1002
{
1000
Det03
1002
}
1001
AUSTER_FOLIE
1002
{
1000
NSB00340_S0
1002
}
  0
LINE
  5
BA26
330
20
100
AcDbEntity
  8
10000_FRONT
  6
DASHED
 62
     7
370
    13
100
AcDbLine
 39
0.25
 10
119.0668780889478
 20
402.7573647399067
 30
0.0
 11
116.7958780889478
 21
402.7573647399067
 31
0.0
1001
AUSTER_ANSICHT
1002
{
1000
Det03
1002
}
1001
AUSTER_FOLIE
1002
{
1000
NSB00340_S0
1002
}
  0
LINE
  5
BA27
330
20
100
AcDbEntity
  8
10000_FRONT
  6
DASHED
 62
     7
370
    13
100
AcDbLine
 39
0.25
 10
116.7958780889478
 20
401.5483647399068
 30
0.0
 11
119.0668780889478
 21
401.5483647399068
 31
0.0
1001
AUSTER_ANSICHT
1002
{
1000
Det03
1002
}
1001
AUSTER_FOLIE
1002
{
1000
NSB00340_S0
1002
}
  0
LINE
  5
BA28
330
20
100
AcDbEntity
  8
11000_Left
  6
Continuous
 62
     7
370
    50
100
AcDbLine
 39
0.7
 10
167.2664204275264
 20
376.3203647399068
 30
0.0
 11
167.2664204275264
 21
373.3203647399069
 31
0.0
1001
AUSTER_ANSICHT
1002
{
1000
Det03
1002
}
1001
AUSTER_FOLIE
1002
{
1000
NSB00340_S0
1002
}
  0
LINE
  5
BA29
330
20
100
AcDbEntity
  8
11000_Left
  6
Continuous
 62
     7
370
    20
100
AcDbLine
 39
0.7
 10
245.1664204275264
 20
444.3203647399068
 30
0.0
 11
245.1664204275264
 21
441.8203647399068
 31
0.0
1001
AUSTER_ANSICHT
1002
{
1000
Det03
1002
}
1001
AUSTER_FOLIE
1002
{
1000
NSB00340_S0
1002
}
  0
LINE
  5
BA2A
330
20
100
AcDbEntity
  8
11000_Left
  6
DASHED
 62
     7
370
    20
100
AcDbLine
 39
0.25
 10
192.8664204275263
 20
429.6203647399067
 30
0.0
 11
222.3654204275264
 21
429.6203647399067
 31
0.0
1001
AUSTER_ANSICHT
1002
{
1000
Det03
1002
}
1001
AUSTER_FOLIE
1002
{
1000
NSB00340_S0
1002
}
  0
LINE
  5
BA2B
330
20
100
AcDbEntity
  8
11000_Left
  6
Continuous
 62
     7
370
    20
100
AcDbLine
 39
0.7
 10
170.0664204275264
 20
429.6203647399067
 30
0.0
 11
192.8664204275263
 21
429.6203647399067
 31
0.0
1001
AUSTER_ANSICHT
1002
{
1000
Det03
1002
}
1001
AUSTER_FOLIE
1002
{
1000
NSB00340_S0
1002
}
  0
LINE
  5
BA2C
330
20
100
AcDbEntity
  8
11000_Left
  6
DASHED
 62
     7
370
    20
100
AcDbLine
 39
0.25
 10
163.7664204275264
 20
438.2203647399069
 30
-1.0
 11
164.7664204275264
 21
438.2203647399069
 31
-1.0
1001
AUSTER_ANSICHT
1002
{
1000
Det03
1002
}
1001
AUSTER_FOLIE
1002
{
1000
NSB00340_S0
1002
}
  0
LINE
  5
BA2D
330
20
100
AcDbEntity
  8
11000_Left
  6
DASHED
 62
     7
370
    20
100
AcDbLine
 39
0.25
 10
164.7664204275264
 20
433.0703647399068
 30
-1.0
 11
162.7664204275264
 21
431.0703647399068
 31
-1.0
1001
AUSTER_ANSICHT
1002
{
1000
Det03
1002
}
1001
AUSTER_FOLIE
1002
{
1000
NSB00340_S0
1002
}
  0
LINE
  5
BA43
330
20
100
AcDbEntity
  8
10000_FRONT
  6
Continuous
 62
     7
370
    20
100
AcDbLine
 39
0.25
 10
118.5818780889478
 20
375.0703647399068
 30
0.0
 11
118.5818780889478
 21
373.3203647399069
 31
0.0
1001
AUSTER_ANSICHT
1002
{
1000
Det03
1002
}
1001
AUSTER_FOLIE
1002
{
1000
NSB00340_S0
1002
}
  0
LINE
  5
BA44
330
20
100
AcDbEntity
  8
10000_FRONT
  6
Continuous
 62
     7
370
    20
100
AcDbLine
 39
0.25
 10
102.9818780889478
 20
375.0703647399068
 30
0.0
 11
102.9818780889478
 21
373.3203647399069
 31
0.0
1001
AUSTER_ANSICHT
1002
{
1000
Det03
1002
}
1001
AUSTER_FOLIE
1002
{
1000
NSB00340_S0
1002
}
  0
LINE
  5
BA47
330
20
100
AcDbEntity
  8
10000_FRONT
  6
DASHED
 62
     7
370
    13
100
AcDbLine
 39
0.25
 10
132.9828780889478
 20
407.3023647399066
 30
0.0
 11
119.1828780889478
 21
407.3023647399066
 31
0.0
1001
AUSTER_ANSICHT
1002
{
1000
Det03
1002
}
1001
AUSTER_FOLIE
1002
{
1000
NSB00340_S0
1002
}
  0
LINE
  5
BA48
330
20
100
AcDbEntity
  8
10000_FRONT
  6
DASHED
 62
     7
370
    13
100
AcDbLine
 39
0.25
 10
119.1828780889478
 20
428.6833647399068
 30
0.0
 11
132.9828780889478
 21
428.6833647399068
 31
0.0
1001
AUSTER_ANSICHT
1002
{
1000
Det03
1002
}
1001
AUSTER_FOLIE
1002
{
1000
NSB00340_S0
1002
}
  0
LINE
  5
BA49
330
20
100
AcDbEntity
  8
11000_Left
  6
DASHED
 62
     7
370
    20
100
AcDbLine
 39
0.25
 10
207.7664204275264
 20
392.0203647399068
 30
0.0
 11
213.7664204275264
 21
392.0203647399068
 31
0.0
1001
AUSTER_ANSICHT
1002
{
1000
Det03
1002
}
1001
AUSTER_FOLIE
1002
{
1000
NSB00340_S0
1002
}
  0
LINE
  5
BA4A
330
20
100
AcDbEntity
  8
11000_Left
  6
DASHED
 62
     7
370
    20
100
AcDbLine
 39
0.25
 10
213.7664204275264
 20
392.0203647399068
 30
0.0
 11
213.7664204275264
 21
375.0203647399068
 31
0.0
1001
AUSTER_ANSICHT
1002
{
1000
Det03
1002
}
1001
AUSTER_FOLIE
1002
{
1000
NSB00340_S0
1002
}
  0
LINE
  5
BA4B
330
20
100
AcDbEntity
  8
11000_Left
  6
DASHED
 62
     7
370
    20
100
AcDbLine
 39
0.25
 10
207.7664204275264
 20
375.0203647399068
 30
0.0
 11
207.7664204275264
 21
392.0203647399068
 31
0.0
1001
AUSTER_ANSICHT
1002
{
1000
Det03
1002
}
1001
AUSTER_FOLIE
1002
{
1000
NSB00340_S0
1002
}
  0
LINE
  5
BA5F
330
20
100
AcDbEntity
  8
11000_Left
  6
DASHED
 62
     7
370
    20
100
AcDbLine
 39
0.25
 10
232.8814204275264
 20
447.8203647399068
 30
0.0
 11
232.8814204275264
 21
464.8203647399068
 31
0.0
1001
AUSTER_ANSICHT
1002
{
1000
Det03
1002
}
1001
AUSTER_FOLIE
1002
{
1000
NSB00340_S0
1002
}
  0
LINE
  5
BA60
330
20
100
AcDbEntity
  8
11000_Left
  6
DASHED
 62
     7
370
    20
100
AcDbLine
 39
0.25
 10
226.3814204275264
 20
447.8203647399068
 30
0.0
 11
232.8814204275264
 21
447.8203647399068
 31
0.0
1001
AUSTER_ANSICHT
1002
{
1000
Det03
1002
}
1001
AUSTER_FOLIE
1002
{
1000
NSB00340_S0
1002
}
  0
LINE
  5
BA61
330
20
100
AcDbEntity
  8
11000_Left
  6
DASHED
 62
     7
370
    20
100
AcDbLine
 39
0.25
 10
226.3814204275264
 20
464.8203647399068
 30
0.0
 11
226.3814204275264
 21
447.8203647399068
 31
0.0
1001
AUSTER_ANSICHT
1002
{
1000
Det03
1002
}
1001
AUSTER_FOLIE
1002
{
1000
NSB00340_S0
1002
}
  0
LINE
  5
BA67
330
20
100
AcDbEntity
  8
11000_Left
  6
Continuous
 62
     7
370
    20
100
AcDbLine
 39
0.7
 10
163.5664204275264
 20
440.9203647399068
 30
0.0
 11
163.5664204275264
 21
437.1123647399066
 31
0.0
1001
AUSTER_ANSICHT
1002
{
1000
Det03
1002
}
1001
AUSTER_FOLIE
1002
{
1000
NSB00340_S0
1002
}
  0
LINE
  5
BA68
330
20
100
AcDbEntity
  8
11000_Left
  6
Continuous
 62
     7
370
    20
100
AcDbLine
 39
0.7
 10
161.5664204275264
 20
435.9203647399068
 30
0.0
 11
162.5664204275264
 21
435.9203647399068
 31
0.0
1001
AUSTER_ANSICHT
1002
{
1000
Det03
1002
}
1001
AUSTER_FOLIE
1002
{
1000
NSB00340_S0
1002
}
  0
LINE
  5
BA69
330
20
100
AcDbEntity
  8
11000_Left
  6
Continuous
 62
     7
370
    20
100
AcDbLine
 39
0.7
 10
162.5664204275264
 20
435.9203647399068
 30
0.0
 11
163.5664204275264
 21
437.1123647399066
 31
0.0
1001
AUSTER_ANSICHT
1002
{
1000
Det03
1002
}
1001
AUSTER_FOLIE
1002
{
1000
NSB00340_S0
1002
}
  0
LINE
  5
BA6A
330
20
100
AcDbEntity
  8
11000_Left
  6
Continuous
 62
     7
370
    20
100
AcDbLine
 39
0.7
 10
160.2664204275264
 20
441.4203647399069
 30
0.0
 11
161.5664204275264
 21
435.9203647399068
 31
0.0
1001
AUSTER_ANSICHT
1002
{
1000
Det03
1002
}
1001
AUSTER_FOLIE
1002
{
1000
NSB00340_S0
1002
}
  0
LINE
  5
BA6B
330
20
100
AcDbEntity
  8
11000_Left
  6
Continuous
 62
     7
370
    50
100
AcDbLine
 39
0.7
 10
159.7664204275264
 20
453.9703647399067
 30
0.0
 11
159.7664204275264
 21
460.4703647399069
 31
0.0
1001
AUSTER_ANSICHT
1002
{
1000
Det03
1002
}
1001
AUSTER_FOLIE
1002
{
1000
NSB00340_S0
1002
}
  0
LINE
  5
BA6C
330
20
100
AcDbEntity
  8
11000_Left
  6
Continuous
 62
     7
370
    50
100
AcDbLine
 39
0.7
 10
164.7664204275264
 20
400.9203647399068
 30
0.0
 11
160.2664204275264
 21
400.9203647399068
 31
0.0
1001
AUSTER_ANSICHT
1002
{
1000
Det03
1002
}
1001
AUSTER_FOLIE
1002
{
1000
NSB00340_S0
1002
}
  0
LINE
  5
BA6D
330
20
100
AcDbEntity
  8
11000_Left
  6
Continuous
 62
     7
370
    50
100
AcDbLine
 39
0.7
 10
160.2664204275264
 20
441.4203647399069
 30
0.0
 11
165.0664204275264
 21
441.4203647399069
 31
0.0
1001
AUSTER_ANSICHT
1002
{
1000
Det03
1002
}
1001
AUSTER_FOLIE
1002
{
1000
NSB00340_S0
1002
}
  0
LINE
  5
BA6E
330
20
100
AcDbEntity
  8
11000_Left
  6
Continuous
 62
     7
370
    50
100
AcDbLine
 39
0.7
 10
160.2664204275264
 20
461.7203647399068
 30
0.0
 11
160.2664204275264
 21
441.4203647399069
 31
0.0
1001
AUSTER_ANSICHT
1002
{
1000
Det03
1002
}
1001
AUSTER_FOLIE
1002
{
1000
NSB00340_S0
1002
}
  0
LINE
  5
BA6F
330
20
100
AcDbEntity
  8
11000_Left
  6
Continuous
 62
     7
370
    50
100
AcDbLine
 39
0.7
 10
160.2664204275264
 20
400.9203647399068
 30
0.0
 11
160.2664204275264
 21
367.7203647399069
 31
0.0
1001
AUSTER_ANSICHT
1002
{
1000
Det03
1002
}
1001
AUSTER_FOLIE
1002
{
1000
NSB00340_S0
1002
}
  0
LINE
  5
BA70
330
20
100
AcDbEntity
  8
11000_Left
  6
Continuous
 62
     7
370
    50
100
AcDbLine
 39
0.7
 10
170.0664204275264
 20
429.6203647399067
 30
0.0
 11
192.8664204275263
 21
429.6203647399067
 31
0.0
1001
AUSTER_ANSICHT
1002
{
1000
Det03
1002
}
1001
AUSTER_FOLIE
1002
{
1000
NSB00340_S0
1002
}
  0
LINE
  5
BA71
330
20
100
AcDbEntity
  8
11000_Left
  6
Continuous
 62
     7
370
    50
100
AcDbLine
 39
0.7
 10
192.8664204275263
 20
429.6203647399067
 30
0.0
 11
192.8664204275263
 21
430.9983647399068
 31
0.0
1001
AUSTER_ANSICHT
1002
{
1000
Det03
1002
}
1001
AUSTER_FOLIE
1002
{
1000
NSB00340_S0
1002
}
  0
LINE
  5
BA72
330
20
100
AcDbEntity
  8
11000_Left
  6
Continuous
 62
     7
370
    50
100
AcDbLine
 39
0.7
 10
192.8664204275263
 20
430.9983647399068
 30
0.0
 11
203.3664204275264
 21
434.8203647399068
 31
0.0
1001
AUSTER_ANSICHT
1002
{
1000
Det03
1002
}
1001
AUSTER_FOLIE
1002
{
1000
NSB00340_S0
1002
}
  0
LINE
  5
BA73
330
20
100
AcDbEntity
  8
11000_Left
  6
Continuous
 62
     7
370
    50
100
AcDbLine
 39
0.7
 10
242.9664204275264
 20
441.8203647399068
 30
0.0
 11
245.1664204275264
 21
441.8203647399068
 31
0.0
1001
AUSTER_ANSICHT
1002
{
1000
Det03
1002
}
1001
AUSTER_FOLIE
1002
{
1000
NSB00340_S0
1002
}
  0
LINE
  5
BA75
330
20
100
AcDbEntity
  8
11000_Left
  6
Continuous
 62
     7
370
    50
100
AcDbLine
 39
0.7
 10
170.0664204275264
 20
376.3203647399068
 30
0.0
 11
167.2664204275264
 21
376.3203647399068
 31
0.0
1001
AUSTER_ANSICHT
1002
{
1000
Det03
1002
}
1001
AUSTER_FOLIE
1002
{
1000
NSB00340_S0
1002
}
  0
LINE
  5
BA76
330
20
100
AcDbEntity
  8
11000_Left
  6
Continuous
 62
     7
370
    20
100
AcDbLine
 39
0.7
 10
167.2664204275264
 20
373.3203647399069
 30
0.0
 11
172.8664204275263
 21
373.3203647399069
 31
0.0
1001
AUSTER_ANSICHT
1002
{
1000
Det03
1002
}
1001
AUSTER_FOLIE
1002
{
1000
NSB00340_S0
1002
}
  0
LINE
  5
BA77
330
20
100
AcDbEntity
  8
11000_Left
  6
Continuous
 62
     7
370
    20
100
AcDbLine
 39
0.7
 10
172.8664204275263
 20
373.3203647399069
 30
0.0
 11
172.8664204275263
 21
374.8203647399068
 31
0.0
1001
AUSTER_ANSICHT
1002
{
1000
Det03
1002
}
1001
AUSTER_FOLIE
1002
{
1000
NSB00340_S0
1002
}
  0
LINE
  5
BA78
330
20
100
AcDbEntity
  8
11000_Left
  6
Continuous
 62
     7
370
    20
100
AcDbLine
 39
0.7
 10
172.8664204275263
 20
374.8203647399068
 30
0.0
 11
171.3664204275263
 21
376.3203647399068
 31
0.0
1001
AUSTER_ANSICHT
1002
{
1000
Det03
1002
}
1001
AUSTER_FOLIE
1002
{
1000
NSB00340_S0
1002
}
  0
LINE
  5
BA79
330
20
100
AcDbEntity
  8
11000_Left
  6
Continuous
 62
     7
370
    20
100
AcDbLine
 39
0.7
 10
171.3664204275263
 20
376.3203647399068
 30
0.0
 11
170.0664204275264
 21
376.3203647399068
 31
0.0
1001
AUSTER_ANSICHT
1002
{
1000
Det03
1002
}
1001
AUSTER_FOLIE
1002
{
1000
NSB00340_S0
1002
}
  0
LINE
  5
BA7A
330
20
100
AcDbEntity
  8
11000_Left
  6
Continuous
 62
     7
370
    20
100
AcDbLine
 39
0.7
 10
172.7684204275264
 20
373.3203647399069
 30
0.0
 11
173.5684204275263
 21
372.5203647399068
 31
0.0
1001
AUSTER_ANSICHT
1002
{
1000
Det03
1002
}
1001
AUSTER_FOLIE
1002
{
1000
NSB00340_S0
1002
}
  0
LINE
  5
BA7B
330
20
100
AcDbEntity
  8
11000_Left
  6
Continuous
 62
     7
370
    20
100
AcDbLine
 39
0.7
 10
173.5684204275263
 20
372.5203647399068
 30
0.0
 11
174.7664204275264
 21
372.5203647399068
 31
0.0
1001
AUSTER_ANSICHT
1002
{
1000
Det03
1002
}
1001
AUSTER_FOLIE
1002
{
1000
NSB00340_S0
1002
}
  0
LINE
  5
BA7C
330
20
100
AcDbEntity
  8
11000_Left
  6
Continuous
 62
     7
370
    20
100
AcDbLine
 39
0.7
 10
174.7664204275264
 20
372.5203647399068
 30
0.0
 11
174.7664204275264
 21
373.0203647399068
 31
0.0
1001
AUSTER_ANSICHT
1002
{
1000
Det03
1002
}
1001
AUSTER_FOLIE
1002
{
1000
NSB00340_S0
1002
}
  0
LINE
  5
BA7D
330
20
100
AcDbEntity
  8
11000_Left
  6
Continuous
 62
     7
370
    20
100
AcDbLine
 39
0.7
 10
174.7664204275264
 20
373.0203647399068
 30
0.0
 11
173.5664204275264
 21
374.2203647399069
 31
0.0
1001
AUSTER_ANSICHT
1002
{
1000
Det03
1002
}
1001
AUSTER_FOLIE
1002
{
1000
NSB00340_S0
1002
}
  0
LINE
  5
BA7E
330
20
100
AcDbEntity
  8
11000_Left
  6
Continuous
 62
     7
370
    20
100
AcDbLine
 39
0.7
 10
173.5664204275264
 20
374.2203647399069
 30
0.0
 11
173.5664204275264
 21
375.5203647399067
 31
0.0
1001
AUSTER_ANSICHT
1002
{
1000
Det03
1002
}
1001
AUSTER_FOLIE
1002
{
1000
NSB00340_S0
1002
}
  0
LINE
  5
BA7F
330
20
100
AcDbEntity
  8
11000_Left
  6
Continuous
 62
     7
370
    20
100
AcDbLine
 39
0.7
 10
173.3234204275264
 20
376.1733647399069
 30
0.0
 11
172.5064204275264
 21
377.1203647399068
 31
0.0
1001
AUSTER_ANSICHT
1002
{
1000
Det03
1002
}
1001
AUSTER_FOLIE
1002
{
1000
NSB00340_S0
1002
}
  0
LINE
  5
BA80
330
20
100
AcDbEntity
  8
11000_Left
  6
Continuous
 62
     7
370
    20
100
AcDbLine
 39
0.7
 10
171.8904204275264
 20
375.7963647399068
 30
0.0
 11
172.0064204275264
 21
377.1203647399068
 31
0.0
1001
AUSTER_ANSICHT
1002
{
1000
Det03
1002
}
1001
AUSTER_FOLIE
1002
{
1000
NSB00340_S0
1002
}
  0
LINE
  5
BA81
330
20
100
AcDbEntity
  8
11000_Left
  6
Continuous
 62
     7
370
    20
100
AcDbLine
 39
0.7
 10
172.5064204275264
 20
377.1203647399068
 30
0.0
 11
172.0064204275264
 21
377.1203647399068
 31
0.0
1001
AUSTER_ANSICHT
1002
{
1000
Det03
1002
}
1001
AUSTER_FOLIE
1002
{
1000
NSB00340_S0
1002
}
  0
LINE
  5
BA82
330
20
100
AcDbEntity
  8
11000_Left
  6
Continuous
 62
     7
370
    50
100
AcDbLine
 39
0.7
 10
166.2664204275264
 20
367.7203647399069
 30
0.0
 11
160.2664204275264
 21
367.7203647399069
 31
0.0
1001
AUSTER_ANSICHT
1002
{
1000
Det03
1002
}
1001
AUSTER_FOLIE
1002
{
1000
NSB00340_S0
1002
}
  0
LINE
  5
BA83
330
20
100
AcDbEntity
  8
11000_Left
  6
Continuous
 62
     7
370
    20
100
AcDbLine
 39
0.7
 10
162.4484204275264
 20
403.9203647399068
 30
0.0
 11
160.2664204275264
 21
400.9203647399068
 31
0.0
1001
AUSTER_ANSICHT
1002
{
1000
Det03
1002
}
1001
AUSTER_FOLIE
1002
{
1000
NSB00340_S0
1002
}
  0
LINE
  5
BA84
330
20
100
AcDbEntity
  8
11000_Left
  6
Continuous
 62
     7
370
    20
100
AcDbLine
 39
0.7
 10
163.4484204275264
 20
403.9203647399068
 30
0.0
 11
162.4484204275264
 21
403.9203647399068
 31
0.0
1001
AUSTER_ANSICHT
1002
{
1000
Det03
1002
}
1001
AUSTER_FOLIE
1002
{
1000
NSB00340_S0
1002
}
  0
LINE
  5
BA85
330
20
100
AcDbEntity
  8
11000_Left
  6
Continuous
 62
     7
370
    20
100
AcDbLine
 39
0.7
 10
163.7164204275263
 20
402.9203647399068
 30
0.0
 11
163.4484204275264
 21
403.9203647399068
 31
0.0
1001
AUSTER_ANSICHT
1002
{
1000
Det03
1002
}
1001
AUSTER_FOLIE
1002
{
1000
NSB00340_S0
1002
}
  0
LINE
  5
BA86
330
20
100
AcDbEntity
  8
11000_Left
  6
Continuous
 62
     7
370
    20
100
AcDbLine
 39
0.7
 10
164.7664204275264
 20
402.9203647399068
 30
0.0
 11
163.7164204275263
 21
402.9203647399068
 31
0.0
1001
AUSTER_ANSICHT
1002
{
1000
Det03
1002
}
1001
AUSTER_FOLIE
1002
{
1000
NSB00340_S0
1002
}
  0
LINE
  5
BA87
330
20
100
AcDbEntity
  8
11000_Left
  6
Continuous
 62
     7
370
    50
100
AcDbLine
 39
0.7
 10
164.7664204275264
 20
400.9203647399068
 30
0.0
 11
164.7664204275264
 21
435.9003647399068
 31
0.0
1001
AUSTER_ANSICHT
1002
{
1000
Det03
1002
}
1001
AUSTER_FOLIE
1002
{
1000
NSB00340_S0
1002
}
  0
LINE
  5
BA88
330
20
100
AcDbEntity
  8
11000_Left
  6
Continuous
 62
     7
370
    50
100
AcDbLine
 39
0.7
 10
164.7664204275264
 20
435.9003647399068
 30
0.0
 11
165.0664204275264
 21
436.4253647399068
 31
0.0
1001
AUSTER_ANSICHT
1002
{
1000
Det03
1002
}
1001
AUSTER_FOLIE
1002
{
1000
NSB00340_S0
1002
}
  0
LINE
  5
BA89
330
20
100
AcDbEntity
  8
11000_Left
  6
Continuous
 62
     7
370
    50
100
AcDbLine
 39
0.7
 10
165.0664204275264
 20
436.4253647399068
 30
0.0
 11
165.0664204275264
 21
441.4203647399069
 31
0.0
1001
AUSTER_ANSICHT
1002
{
1000
Det03
1002
}
1001
AUSTER_FOLIE
1002
{
1000
NSB00340_S0
1002
}
  0
LINE
  5
BA8A
330
20
100
AcDbEntity
  8
11000_Left
  6
Continuous
 62
     7
370
    50
100
AcDbLine
 39
0.7
 10
160.2664204275264
 20
461.7203647399068
 30
0.0
 11
166.2664204275264
 21
461.7203647399068
 31
0.0
1001
AUSTER_ANSICHT
1002
{
1000
Det03
1002
}
1001
AUSTER_FOLIE
1002
{
1000
NSB00340_S0
1002
}
  0
LINE
  5
BA8B
330
20
100
AcDbEntity
  8
11000_Left
  6
Continuous
 62
     7
370
    50
100
AcDbLine
 39
0.7
 10
168.7664204275264
 20
447.3203647399068
 30
0.0
 11
214.6664204275264
 21
447.3203647399068
 31
0.0
1001
AUSTER_ANSICHT
1002
{
1000
Det03
1002
}
1001
AUSTER_FOLIE
1002
{
1000
NSB00340_S0
1002
}
  0
LINE
  5
BA8C
330
20
100
AcDbEntity
  8
11000_Left
  6
Continuous
 62
     7
370
    50
100
AcDbLine
 39
0.7
 10
217.4054204275264
 20
459.9293647399068
 30
0.0
 11
222.3394204275264
 21
460.7983647399065
 31
0.0
1001
AUSTER_ANSICHT
1002
{
1000
Det03
1002
}
1001
AUSTER_FOLIE
1002
{
1000
NSB00340_S0
1002
}
  0
LINE
  5
BA8D
330
20
100
AcDbEntity
  8
11000_Left
  6
Continuous
 62
     7
370
    50
100
AcDbLine
 39
0.7
 10
216.1664204275264
 20
458.4513647399067
 30
0.0
 11
216.1664204275264
 21
448.8203647399068
 31
0.0
1001
AUSTER_ANSICHT
1002
{
1000
Det03
1002
}
1001
AUSTER_FOLIE
1002
{
1000
NSB00340_S0
1002
}
  0
LINE
  5
BA8E
330
20
100
AcDbEntity
  8
11000_Left
  6
Continuous
 62
     7
370
    50
100
AcDbLine
 39
0.7
 10
223.1664204275264
 20
461.7833647399065
 30
0.0
 11
223.1664204275264
 21
463.8203647399068
 31
0.0
1001
AUSTER_ANSICHT
1002
{
1000
Det03
1002
}
1001
AUSTER_FOLIE
1002
{
1000
NSB00340_S0
1002
}
  0
LINE
  5
BA90
330
20
100
AcDbEntity
  8
11000_Left
  6
Continuous
 62
     7
370
    50
100
AcDbLine
 39
0.7
 10
242.9664204275264
 20
435.8203647399068
 30
0.0
 11
242.9664204275264
 21
441.8203647399068
 31
0.0
1001
AUSTER_ANSICHT
1002
{
1000
Det03
1002
}
1001
AUSTER_FOLIE
1002
{
1000
NSB00340_S0
1002
}
  0
LINE
  5
BA91
330
20
100
AcDbEntity
  8
11000_Left
  6
Continuous
 62
     7
370
    50
100
AcDbLine
 39
0.7
 10
203.3664204275264
 20
434.8203647399068
 30
0.0
 11
241.9664204275264
 21
434.8203647399068
 31
0.0
1001
AUSTER_ANSICHT
1002
{
1000
Det03
1002
}
1001
AUSTER_FOLIE
1002
{
1000
NSB00340_S0
1002
}
  0
LINE
  5
BA92
330
20
100
AcDbEntity
  8
11000_Left
  6
Continuous
 62
     7
370
    50
100
AcDbLine
 39
0.7
 10
159.7664204275264
 20
453.9703647399067
 30
0.0
 11
160.2664204275264
 21
453.9703647399067
 31
0.0
1001
AUSTER_ANSICHT
1002
{
1000
Det03
1002
}
1001
AUSTER_FOLIE
1002
{
1000
NSB00340_S0
1002
}
  0
LINE
  5
BA93
330
20
100
AcDbEntity
  8
11000_Left
  6
Continuous
 62
     7
370
    50
100
AcDbLine
 39
0.7
 10
159.7664204275264
 20
460.4703647399069
 30
0.0
 11
160.2664204275264
 21
460.4703647399069
 31
0.0
1001
AUSTER_ANSICHT
1002
{
1000
Det03
1002
}
1001
AUSTER_FOLIE
1002
{
1000
NSB00340_S0
1002
}
  0
LINE
  5
BA94
330
20
100
AcDbEntity
  8
11000_Left
  6
Continuous
 62
     7
370
    50
100
AcDbLine
 39
0.7
 10
160.2664204275264
 20
368.9703647399069
 30
0.0
 11
159.7664204275264
 21
368.9703647399069
 31
0.0
1001
AUSTER_ANSICHT
1002
{
1000
Det03
1002
}
1001
AUSTER_FOLIE
1002
{
1000
NSB00340_S0
1002
}
  0
LINE
  5
BA95
330
20
100
AcDbEntity
  8
11000_Left
  6
Continuous
 62
     7
370
    50
100
AcDbLine
 39
0.7
 10
159.7664204275264
 20
375.4703647399069
 30
0.0
 11
160.2674204275264
 21
375.4703647399069
 31
0.0
1001
AUSTER_ANSICHT
1002
{
1000
Det03
1002
}
1001
AUSTER_FOLIE
1002
{
1000
NSB00340_S0
1002
}
  0
LINE
  5
BA96
330
20
100
AcDbEntity
  8
11000_Left
  6
Continuous
 62
     7
370
    50
100
AcDbLine
 39
0.7
 10
245.1664204275264
 20
441.8203647399068
 30
0.0
 11
245.1664204275264
 21
464.8203647399068
 31
0.0
1001
AUSTER_ANSICHT
1002
{
1000
Det03
1002
}
1001
AUSTER_FOLIE
1002
{
1000
NSB00340_S0
1002
}
  0
LINE
  5
BA97
330
20
100
AcDbEntity
  8
11000_Left
  6
Continuous
 62
     7
370
    50
100
AcDbLine
 39
0.7
 10
245.1664204275264
 20
444.3203647399068
 30
0.0
 11
248.5664204275264
 21
444.3203647399068
 31
0.0
1001
AUSTER_ANSICHT
1002
{
1000
Det03
1002
}
1001
AUSTER_FOLIE
1002
{
1000
NSB00340_S0
1002
}
  0
LINE
  5
BA98
330
20
100
AcDbEntity
  8
11000_Left
  6
Continuous
 62
     7
370
    50
100
AcDbLine
 39
0.7
 10
245.1664204275264
 20
464.8203647399068
 30
0.0
 11
246.8664204275263
 21
464.8203647399068
 31
0.0
1001
AUSTER_ANSICHT
1002
{
1000
Det03
1002
}
1001
AUSTER_FOLIE
1002
{
1000
NSB00340_S0
1002
}
  0
LINE
  5
BA99
330
20
100
AcDbEntity
  8
11000_Left
  6
Continuous
 62
     7
370
    50
100
AcDbLine
 39
0.7
 10
167.2664204275264
 20
373.3203647399069
 30
0.0
 11
167.2664204275264
 21
368.7203647399069
 31
0.0
1001
AUSTER_ANSICHT
1002
{
1000
Det03
1002
}
1001
AUSTER_FOLIE
1002
{
1000
NSB00340_S0
1002
}
  0
LINE
  5
BA9A
330
20
100
AcDbEntity
  8
11000_Left
  6
Continuous
 62
     7
370
    50
100
AcDbLine
 39
0.7
 10
159.7664204275264
 20
368.9703647399069
 30
0.0
 11
159.7664204275264
 21
375.4703647399069
 31
0.0
1001
AUSTER_ANSICHT
1002
{
1000
Det03
1002
}
1001
AUSTER_FOLIE
1002
{
1000
NSB00340_S0
1002
}
  0
LINE
  5
BA9B
330
20
100
AcDbEntity
  8
11000_Left
  6
Continuous
 62
     7
370
    50
100
AcDbLine
 39
0.7
 10
224.1664204275264
 20
464.8203647399068
 30
0.0
 11
245.1664204275264
 21
464.8203647399068
 31
0.0
1001
AUSTER_ANSICHT
1002
{
1000
Det03
1002
}
1001
AUSTER_FOLIE
1002
{
1000
NSB00340_S0
1002
}
  0
LINE
  5
BA9C
330
20
100
AcDbEntity
  8
11000_Left
  6
Continuous
 62
     7
370
    50
100
AcDbLine
 39
0.7
 10
167.2664204275264
 20
460.7203647399066
 30
0.0
 11
167.2664204275264
 21
448.8203647399068
 31
0.0
1001
AUSTER_ANSICHT
1002
{
1000
Det03
1002
}
1001
AUSTER_FOLIE
1002
{
1000
NSB00340_S0
1002
}
  0
LINE
  5
BA9D
330
20
100
AcDbEntity
  8
11000_Left
  6
DASHED
 62
     7
370
    20
100
AcDbLine
 39
0.25
 10
213.7664204275264
 20
392.0203647399068
 30
0.0
 11
213.7664204275264
 21
375.0203647399068
 31
0.0
1001
AUSTER_ANSICHT
1002
{
1000
Det03
1002
}
1001
AUSTER_FOLIE
1002
{
1000
NSB00340_S0
1002
}
  0
LINE
  5
BA9E
330
20
100
AcDbEntity
  8
11000_Left
  6
DASHED
 62
     7
370
    20
100
AcDbLine
 39
0.25
 10
207.7664204275264
 20
392.0203647399068
 30
0.0
 11
213.7664204275264
 21
392.0203647399068
 31
0.0
1001
AUSTER_ANSICHT
1002
{
1000
Det03
1002
}
1001
AUSTER_FOLIE
1002
{
1000
NSB00340_S0
1002
}
  0
LINE
  5
BA9F
330
20
100
AcDbEntity
  8
11000_Left
  6
DASHED
 62
     7
370
    20
100
AcDbLine
 39
0.25
 10
207.7664204275264
 20
375.0203647399068
 30
0.0
 11
207.7664204275264
 21
392.0203647399068
 31
0.0
1001
AUSTER_ANSICHT
1002
{
1000
Det03
1002
}
1001
AUSTER_FOLIE
1002
{
1000
NSB00340_S0
1002
}
  0
LINE
  5
BAA0
330
20
100
AcDbEntity
  8
11000_Left
  6
DASHED
 62
     7
370
    20
100
AcDbLine
 39
0.25
 10
222.3654204275264
 20
429.6203647399067
 30
0.0
 11
222.3664204275264
 21
434.8203647399068
 31
0.0
1001
AUSTER_ANSICHT
1002
{
1000
Det03
1002
}
1001
AUSTER_FOLIE
1002
{
1000
NSB00340_S0
1002
}
  0
LINE
  5
BAA1
330
20
100
AcDbEntity
  8
11000_Left
  6
Continuous
 62
     7
370
    20
100
AcDbLine
 39
0.7
 10
239.5664204275264
 20
432.6203647399068
 30
0.0
 11
245.1654204275264
 21
432.6203647399068
 31
0.0
1001
AUSTER_ANSICHT
1002
{
1000
Det03
1002
}
1001
AUSTER_FOLIE
1002
{
1000
NSB00340_S0
1002
}
  0
LINE
  5
BAA2
330
20
100
AcDbEntity
  8
11000_Left
  6
Continuous
 62
     7
370
    20
100
AcDbLine
 39
0.7
 10
237.2664204275264
 20
430.3203647399068
 30
0.0
 11
239.5664204275264
 21
432.6203647399068
 31
0.0
1001
AUSTER_ANSICHT
1002
{
1000
Det03
1002
}
1001
AUSTER_FOLIE
1002
{
1000
NSB00340_S0
1002
}
  0
LINE
  5
BAA3
330
20
100
AcDbEntity
  8
11000_Left
  6
Continuous
 62
     7
370
    20
100
AcDbLine
 39
0.7
 10
237.2674204275264
 20
429.6203647399067
 30
0.0
 11
237.2664204275264
 21
430.3203647399068
 31
0.0
1001
AUSTER_ANSICHT
1002
{
1000
Det03
1002
}
1001
AUSTER_FOLIE
1002
{
1000
NSB00340_S0
1002
}
  0
LINE
  5
BAA4
330
20
100
AcDbEntity
  8
11000_Left
  6
DASHED
 62
     7
370
    20
100
AcDbLine
 39
0.25
 10
237.2674204275264
 20
429.6203647399067
 30
0.0
 11
226.5664204275264
 21
429.6203647399067
 31
0.0
1001
AUSTER_ANSICHT
1002
{
1000
Det03
1002
}
1001
AUSTER_FOLIE
1002
{
1000
NSB00340_S0
1002
}
  0
LINE
  5
BAA5
330
20
100
AcDbEntity
  8
11000_Left
  6
DASHED
 62
     7
370
    20
100
AcDbLine
 39
0.25
 10
226.5664204275264
 20
434.8203647399068
 30
0.0
 11
226.5664204275264
 21
429.6203647399067
 31
0.0
1001
AUSTER_ANSICHT
1002
{
1000
Det03
1002
}
1001
AUSTER_FOLIE
1002
{
1000
NSB00340_S0
1002
}
  0
LINE
  5
BAA7
330
20
100
AcDbEntity
  8
11000_Left
  6
DASHED
 62
     7
370
    20
100
AcDbLine
 39
0.25
 10
229.4664204275264
 20
395.9203647399069
 30
0.0
 11
229.4664204275264
 21
391.7703647399068
 31
0.0
1001
AUSTER_ANSICHT
1002
{
1000
Det03
1002
}
1001
AUSTER_FOLIE
1002
{
1000
NSB00340_S0
1002
}
  0
LINE
  5
BAA8
330
20
100
AcDbEntity
  8
11000_Left
  6
DASHED
 62
     7
370
    20
100
AcDbLine
 39
0.25
 10
218.8664204275263
 20
396.6203647399069
 30
0.0
 11
228.7664204275264
 21
396.6203647399069
 31
0.0
1001
AUSTER_ANSICHT
1002
{
1000
Det03
1002
}
1001
AUSTER_FOLIE
1002
{
1000
NSB00340_S0
1002
}
  0
LINE
  5
BAA9
330
20
100
AcDbEntity
  8
11000_Left
  6
DASHED
 62
     7
370
    20
100
AcDbLine
 39
0.25
 10
217.9664204275264
 20
407.4203647399068
 30
0.0
 11
217.9664204275264
 21
397.5203647399068
 31
0.0
1001
AUSTER_ANSICHT
1002
{
1000
Det03
1002
}
1001
AUSTER_FOLIE
1002
{
1000
NSB00340_S0
1002
}
  0
LINE
  5
BAAA
330
20
100
AcDbEntity
  8
11000_Left
  6
DASHED
 62
     7
370
    20
100
AcDbLine
 39
0.25
 10
212.7664204275264
 20
408.1203647399068
 30
0.0
 11
217.2664204275264
 21
408.1203647399068
 31
0.0
1001
AUSTER_ANSICHT
1002
{
1000
Det03
1002
}
1001
AUSTER_FOLIE
1002
{
1000
NSB00340_S0
1002
}
  0
LINE
  5
BAAB
330
20
100
AcDbEntity
  8
11000_Left
  6
DASHED
 62
     7
370
    20
100
AcDbLine
 39
0.25
 10
211.8664204275264
 20
429.6203647399067
 30
0.0
 11
211.8664204275264
 21
409.0203647399067
 31
0.0
1001
AUSTER_ANSICHT
1002
{
1000
Det03
1002
}
1001
AUSTER_FOLIE
1002
{
1000
NSB00340_S0
1002
}
  0
LINE
  5
BAAC
330
20
100
AcDbEntity
  8
11000_Left
  6
DASHED
 62
     7
370
    20
100
AcDbLine
 39
0.25
 10
226.5664204275264
 20
429.6203647399067
 30
0.0
 11
222.3654204275264
 21
429.6203647399067
 31
0.0
1001
AUSTER_ANSICHT
1002
{
1000
Det03
1002
}
1001
AUSTER_FOLIE
1002
{
1000
NSB00340_S0
1002
}
  0
LINE
  5
BAAD
330
20
100
AcDbEntity
  8
11000_Left
  6
DASHED
 62
     7
370
    20
100
AcDbLine
 39
0.25
 10
245.3664204275264
 20
391.7703647399068
 30
0.0
 11
245.3664204275264
 21
432.6203647399068
 31
0.0
1001
AUSTER_ANSICHT
1002
{
1000
Det03
1002
}
1001
AUSTER_FOLIE
1002
{
1000
NSB00340_S0
1002
}
  0
LINE
  5
BAAE
330
20
100
AcDbEntity
  8
11000_Left
  6
DASHED
 62
     7
370
    20
100
AcDbLine
 39
0.25
 10
247.0644204275264
 20
391.7703647399068
 30
0.0
 11
229.4664204275264
 21
391.7703647399068
 31
0.0
1001
AUSTER_ANSICHT
1002
{
1000
Det03
1002
}
1001
AUSTER_FOLIE
1002
{
1000
NSB00340_S0
1002
}
  0
LINE
  5
BAAF
330
20
100
AcDbEntity
  8
11000_Left
  6
DASHED
 62
     7
370
    20
100
AcDbLine
 39
0.25
 10
236.9664204275264
 20
391.7703647399068
 30
0.0
 11
236.9664204275264
 21
392.5193647399069
 31
0.0
1001
AUSTER_ANSICHT
1002
{
1000
Det03
1002
}
1001
AUSTER_FOLIE
1002
{
1000
NSB00340_S0
1002
}
  0
LINE
  5
BAB0
330
20
100
AcDbEntity
  8
11000_Left
  6
DASHED
 62
     7
370
    20
100
AcDbLine
 39
0.25
 10
237.0534204275263
 20
392.5703647399068
 30
0.0
 11
238.2664204275264
 21
393.2703647399068
 31
0.0
1001
AUSTER_ANSICHT
1002
{
1000
Det03
1002
}
1001
AUSTER_FOLIE
1002
{
1000
NSB00340_S0
1002
}
  0
LINE
  5
BAB1
330
20
100
AcDbEntity
  8
11000_Left
  6
DASHED
 62
     7
370
    20
100
AcDbLine
 39
0.25
 10
236.9664204275264
 20
392.5193647399069
 30
0.0
 11
237.0534204275263
 21
392.5703647399068
 31
0.0
1001
AUSTER_ANSICHT
1002
{
1000
Det03
1002
}
1001
AUSTER_FOLIE
1002
{
1000
NSB00340_S0
1002
}
  0
LINE
  5
BAB2
330
20
100
AcDbEntity
  8
11000_Left
  6
DASHED
 62
     7
370
    20
100
AcDbLine
 39
0.25
 10
238.2664204275264
 20
393.2703647399068
 30
0.0
 11
238.8664204275264
 21
393.2703647399068
 31
0.0
1001
AUSTER_ANSICHT
1002
{
1000
Det03
1002
}
1001
AUSTER_FOLIE
1002
{
1000
NSB00340_S0
1002
}
  0
LINE
  5
BAB3
330
20
100
AcDbEntity
  8
11000_Left
  6
DASHED
 62
     7
370
    20
100
AcDbLine
 39
0.25
 10
238.8664204275264
 20
393.2703647399068
 30
0.0
 11
238.8664204275264
 21
392.5703647399068
 31
0.0
1001
AUSTER_ANSICHT
1002
{
1000
Det03
1002
}
1001
AUSTER_FOLIE
1002
{
1000
NSB00340_S0
1002
}
  0
LINE
  5
BAB4
330
20
100
AcDbEntity
  8
11000_Left
  6
DASHED
 62
     7
370
    20
100
AcDbLine
 39
0.25
 10
238.8664204275264
 20
392.5703647399068
 30
0.0
 11
238.8664204275264
 21
391.7703647399068
 31
0.0
1001
AUSTER_ANSICHT
1002
{
1000
Det03
1002
}
1001
AUSTER_FOLIE
1002
{
1000
NSB00340_S0
1002
}
  0
LINE
  5
BAB6
330
20
100
AcDbEntity
  8
11000_Left
  6
DASHED
 62
     7
370
    20
100
AcDbLine
 39
0.25
 10
249.8604204275264
 20
428.5703647399068
 30
0.0
 11
251.5584204275264
 21
428.5703647399068
 31
0.0
1001
AUSTER_ANSICHT
1002
{
1000
Det03
1002
}
1001
AUSTER_FOLIE
1002
{
1000
NSB00340_S0
1002
}
  0
LINE
  5
BAB7
330
20
100
AcDbEntity
  8
11000_Left
  6
DASHED
 62
     7
370
    20
100
AcDbLine
 39
0.25
 10
251.3204204275264
 20
418.7703647399065
 30
0.0
 11
249.7944204275264
 21
418.7703647399065
 31
0.0
1001
AUSTER_ANSICHT
1002
{
1000
Det03
1002
}
1001
AUSTER_FOLIE
1002
{
1000
NSB00340_S0
1002
}
  0
LINE
  5
BAB8
330
20
100
AcDbEntity
  8
11000_Left
  6
DASHED
 62
     7
370
    20
100
AcDbLine
 39
0.25
 10
253.7344204275264
 20
417.5203647399067
 30
0.0
 11
249.7604204275264
 21
417.5203647399067
 31
0.0
1001
AUSTER_ANSICHT
1002
{
1000
Det03
1002
}
1001
AUSTER_FOLIE
1002
{
1000
NSB00340_S0
1002
}
  0
LINE
  5
BAB9
330
20
100
AcDbEntity
  8
11000_Left
  6
DASHED
 62
     7
370
    20
100
AcDbLine
 39
0.25
 10
249.5254204275264
 20
411.7203647399068
 30
0.0
 11
253.7344204275264
 21
411.7203647399068
 31
0.0
1001
AUSTER_ANSICHT
1002
{
1000
Det03
1002
}
1001
AUSTER_FOLIE
1002
{
1000
NSB00340_S0
1002
}
  0
LINE
  5
BABA
330
20
100
AcDbEntity
  8
11000_Left
  6
Continuous
 62
     7
370
    20
100
AcDbLine
 39
0.7
 10
245.3664204275264
 20
444.2703647399067
 30
0.0
 11
248.4564204275264
 21
444.2703647399067
 31
0.0
1001
AUSTER_ANSICHT
1002
{
1000
Det03
1002
}
1001
AUSTER_FOLIE
1002
{
1000
NSB00340_S0
1002
}
  0
LINE
  5
BABC
330
20
100
AcDbEntity
  8
11000_Left
  6
DASHED
 62
     7
370
    20
100
AcDbLine
 39
0.25
 10
246.8664204275263
 20
419.3203647399068
 30
0.0
 11
248.8664204275264
 21
419.3203647399068
 31
0.0
1001
AUSTER_ANSICHT
1002
{
1000
Det03
1002
}
1001
AUSTER_FOLIE
1002
{
1000
NSB00340_S0
1002
}
  0
LINE
  5
BABD
330
20
100
AcDbEntity
  8
11000_Left
  6
DASHED
 62
     7
370
    20
100
AcDbLine
 39
0.25
 10
246.8664204275263
 20
417.3203647399068
 30
0.0
 11
246.8664204275263
 21
419.3203647399068
 31
0.0
1001
AUSTER_ANSICHT
1002
{
1000
Det03
1002
}
1001
AUSTER_FOLIE
1002
{
1000
NSB00340_S0
1002
}
  0
LINE
  5
BABE
330
20
100
AcDbEntity
  8
11000_Left
  6
DASHED
 62
     7
370
    20
100
AcDbLine
 39
0.25
 10
248.8664204275264
 20
417.3203647399068
 30
0.0
 11
246.8664204275263
 21
417.3203647399068
 31
0.0
1001
AUSTER_ANSICHT
1002
{
1000
Det03
1002
}
1001
AUSTER_FOLIE
1002
{
1000
NSB00340_S0
1002
}
  0
LINE
  5
BABF
330
20
100
AcDbEntity
  8
11000_Left
  6
DASHED
 62
     7
370
    20
100
AcDbLine
 39
0.25
 10
248.8664204275264
 20
419.3203647399068
 30
0.0
 11
248.8664204275264
 21
417.3203647399068
 31
0.0
1001
AUSTER_ANSICHT
1002
{
1000
Det03
1002
}
1001
AUSTER_FOLIE
1002
{
1000
NSB00340_S0
1002
}
  0
LINE
  5
BAC1
330
20
100
AcDbEntity
  8
11000_Left
  6
Continuous
 62
     7
370
    20
100
AcDbLine
 39
0.7
 10
245.3664204275264
 20
444.2703647399067
 30
0.0
 11
245.3664204275264
 21
432.6203647399068
 31
0.0
1001
AUSTER_ANSICHT
1002
{
1000
Det03
1002
}
1001
AUSTER_FOLIE
1002
{
1000
NSB00340_S0
1002
}
  0
LINE
  5
BAC2
330
20
100
AcDbEntity
  8
11000_Left
  6
Continuous
 62
     7
370
    20
100
AcDbLine
 39
0.7
 10
170.0664204275264
 20
375.7703647399068
 30
0.0
 11
171.8664204275263
 21
375.7703647399068
 31
0.0
1001
AUSTER_ANSICHT
1002
{
1000
Det03
1002
}
1001
AUSTER_FOLIE
1002
{
1000
NSB00340_S0
1002
}
  0
LINE
  5
BAC3
330
20
100
AcDbEntity
  8
11000_Left
  6
Continuous
 62
     7
370
    20
100
AcDbLine
 39
0.7
 10
171.8664204275263
 20
375.7703647399068
 30
0.0
 11
171.8664204275263
 21
376.7703647399068
 31
0.0
1001
AUSTER_ANSICHT
1002
{
1000
Det03
1002
}
1001
AUSTER_FOLIE
1002
{
1000
NSB00340_S0
1002
}
  0
LINE
  5
BAC4
330
20
100
AcDbEntity
  8
11000_Left
  6
Continuous
 62
     7
370
    20
100
AcDbLine
 39
0.7
 10
170.0664204275264
 20
375.7703647399068
 30
0.0
 11
170.0664204275263
 21
376.3203647399068
 31
0.0
1001
AUSTER_ANSICHT
1002
{
1000
Det03
1002
}
1001
AUSTER_FOLIE
1002
{
1000
NSB00340_S0
1002
}
  0
LINE
  5
BAC5
330
20
100
AcDbEntity
  8
11000_Left
  6
DASHED
 62
     7
370
    20
100
AcDbLine
 39
0.25
 10
205.1734204275263
 20
375.3133647399068
 30
0.0
 11
203.7164204275264
 21
376.7703647399068
 31
0.0
1001
AUSTER_ANSICHT
1002
{
1000
Det03
1002
}
1001
AUSTER_FOLIE
1002
{
1000
NSB00340_S0
1002
}
  0
LINE
  5
BAC6
330
20
100
AcDbEntity
  8
11000_Left
  6
DASHED
 62
     7
370
    20
100
AcDbLine
 39
0.25
 10
228.6664204275264
 20
391.7703647399068
 30
0.0
 11
226.4664204275264
 21
391.7703647399068
 31
0.0
1001
AUSTER_ANSICHT
1002
{
1000
Det03
1002
}
1001
AUSTER_FOLIE
1002
{
1000
NSB00340_S0
1002
}
  0
LINE
  5
BAC7
330
20
100
AcDbEntity
  8
11000_Left
  6
DASHED
 62
     7
370
    20
100
AcDbLine
 39
0.25
 10
229.4664204275264
 20
391.7703647399068
 30
0.0
 11
228.6664204275264
 21
391.7703647399068
 31
0.0
1001
AUSTER_ANSICHT
1002
{
1000
Det03
1002
}
1001
AUSTER_FOLIE
1002
{
1000
NSB00340_S0
1002
}
  0
LINE
  5
BAC8
330
20
100
AcDbEntity
  8
11000_Left
  6
DASHED
 62
     7
370
    20
100
AcDbLine
 39
0.25
 10
225.6664204275264
 20
375.0203647399068
 30
0.0
 11
225.6664204275264
 21
390.9703647399069
 31
0.0
1001
AUSTER_ANSICHT
1002
{
1000
Det03
1002
}
1001
AUSTER_FOLIE
1002
{
1000
NSB00340_S0
1002
}
  0
LINE
  5
BAC9
330
20
100
AcDbEntity
  8
11000_Left
  6
DASHED
 62
     7
370
    20
100
AcDbLine
 39
0.25
 10
227.1224204275264
 20
375.0203647399068
 30
0.0
 11
225.6664204275264
 21
375.0203647399068
 31
0.0
1001
AUSTER_ANSICHT
1002
{
1000
Det03
1002
}
1001
AUSTER_FOLIE
1002
{
1000
NSB00340_S0
1002
}
  0
LINE
  5
BACA
330
20
100
AcDbEntity
  8
11000_Left
  6
DASHED
 62
     7
370
    20
100
AcDbLine
 39
0.25
 10
203.7164204275264
 20
376.7703647399068
 30
0.0
 11
170.0664204275264
 21
376.7703647399068
 31
0.0
1001
AUSTER_ANSICHT
1002
{
1000
Det03
1002
}
1001
AUSTER_FOLIE
1002
{
1000
NSB00340_S0
1002
}
  0
LINE
  5
BACB
330
20
100
AcDbEntity
  8
11000_Left
  6
DASHED
 62
     7
370
    20
100
AcDbLine
 39
0.25
 10
225.6664204275264
 20
375.0203647399068
 30
0.0
 11
205.8804204275264
 21
375.0203647399068
 31
0.0
1001
AUSTER_ANSICHT
1002
{
1000
Det03
1002
}
1001
AUSTER_FOLIE
1002
{
1000
NSB00340_S0
1002
}
  0
LINE
  5
BACC
330
20
100
AcDbEntity
  8
11000_Left
  6
DASHED
 62
     7
370
    20
100
AcDbLine
 39
0.25
 10
249.8374204275264
 20
428.5693647399068
 30
0.0
 11
251.5584204275264
 21
428.5703647399068
 31
0.0
1001
AUSTER_ANSICHT
1002
{
1000
Det03
1002
}
1001
AUSTER_FOLIE
1002
{
1000
NSB00340_S0
1002
}
  0
LINE
  5
BACD
330
20
100
AcDbEntity
  8
11000_Left
  6
DASHED
 62
     7
370
    20
100
AcDbLine
 39
0.25
 10
251.3204204275264
 20
418.7703647399065
 30
0.0
 11
249.7944204275264
 21
418.7703647399065
 31
0.0
1001
AUSTER_ANSICHT
1002
{
1000
Det03
1002
}
1001
AUSTER_FOLIE
1002
{
1000
NSB00340_S0
1002
}
  0
LINE
  5
BACE
330
20
100
AcDbEntity
  8
10000_FRONT
  6
Continuous
 62
     7
370
    20
100
AcDbLine
 39
0.25
 10
95.86687808894785
 20
454.8043647399068
 30
0.0
 11
95.86687808894785
 21
454.6243647399069
 31
0.0
1001
AUSTER_ANSICHT
1002
{
1000
Det03
1002
}
1001
AUSTER_FOLIE
1002
{
1000
NSB00340_S0
1002
}
  0
LINE
  5
BACF
330
20
100
AcDbEntity
  8
10000_FRONT
  6
Continuous
 62
     7
370
    20
100
AcDbLine
 39
0.25
 10
95.86687808894785
 20
453.2353647399069
 30
0.0
 11
95.86687808894785
 21
453.4153647399066
 31
0.0
1001
AUSTER_ANSICHT
1002
{
1000
Det03
1002
}
1001
AUSTER_FOLIE
1002
{
1000
NSB00340_S0
1002
}
  0
LINE
  5
BAD0
330
20
100
AcDbEntity
  8
10000_FRONT
  6
Continuous
 62
     7
370
    20
100
AcDbLine
 39
0.25
 10
96.89687808894785
 20
454.8043647399068
 30
0.0
 11
96.89687808894785
 21
454.6243647399069
 31
0.0
1001
AUSTER_ANSICHT
1002
{
1000
Det03
1002
}
1001
AUSTER_FOLIE
1002
{
1000
NSB00340_S0
1002
}
  0
LINE
  5
BAD1
330
20
100
AcDbEntity
  8
10000_FRONT
  6
Continuous
 62
     7
370
    20
100
AcDbLine
 39
0.25
 10
96.89687808894785
 20
453.2353647399069
 30
0.0
 11
96.89687808894785
 21
453.4153647399066
 31
0.0
1001
AUSTER_ANSICHT
1002
{
1000
Det03
1002
}
1001
AUSTER_FOLIE
1002
{
1000
NSB00340_S0
1002
}
  0
LINE
  5
BAD2
330
20
100
AcDbEntity
  8
10000_FRONT
  6
Continuous
 62
     7
370
    20
100
AcDbLine
 39
0.25
 10
95.86687808894785
 20
454.8043647399068
 30
0.0
 11
95.86687808894785
 21
455.7973647399069
 31
0.0
1001
AUSTER_ANSICHT
1002
{
1000
Det03
1002
}
1001
AUSTER_FOLIE
1002
{
1000
NSB00340_S0
1002
}
  0
LINE
  5
BAD3
330
20
100
AcDbEntity
  8
10000_FRONT
  6
Continuous
 62
     7
370
    20
100
AcDbLine
 39
0.25
 10
96.89687808894785
 20
455.7973647399069
 30
0.0
 11
96.89687808894785
 21
454.8043647399068
 31
0.0
1001
AUSTER_ANSICHT
1002
{
1000
Det03
1002
}
1001
AUSTER_FOLIE
1002
{
1000
NSB00340_S0
1002
}
  0
LINE
  5
BAD4
330
20
100
AcDbEntity
  8
10000_FRONT
  6
Continuous
 62
     7
370
    20
100
AcDbLine
 39
0.25
 10
96.89687808894785
 20
453.2353647399069
 30
0.0
 11
96.89687808894785
 21
452.2433647399068
 31
0.0
1001
AUSTER_ANSICHT
1002
{
1000
Det03
1002
}
1001
AUSTER_FOLIE
1002
{
1000
NSB00340_S0
1002
}
  0
LINE
  5
BAD5
330
20
100
AcDbEntity
  8
10000_FRONT
  6
Continuous
 62
     7
370
    20
100
AcDbLine
 39
0.25
 10
95.86687808894785
 20
452.2433647399068
 30
0.0
 11
95.86687808894785
 21
453.2353647399069
 31
0.0
1001
AUSTER_ANSICHT
1002
{
1000
Det03
1002
}
1001
AUSTER_FOLIE
1002
{
1000
NSB00340_S0
1002
}
  0
LINE
  5
BAD6
330
20
100
AcDbEntity
  8
10000_FRONT
  6
Continuous
 62
     7
370
    20
100
AcDbLine
 39
0.25
 10
95.86687808894785
 20
453.4153647399066
 30
0.0
 11
93.59587808894785
 21
453.4153647399066
 31
0.0
1001
AUSTER_ANSICHT
1002
{
1000
Det03
1002
}
1001
AUSTER_FOLIE
1002
{
1000
NSB00340_S0
1002
}
  0
LINE
  5
BAD7
330
20
100
AcDbEntity
  8
10000_FRONT
  6
Continuous
 62
     7
370
    20
100
AcDbLine
 39
0.25
 10
99.16687808894785
 20
453.4153647399066
 30
0.0
 11
96.89687808894785
 21
453.4153647399066
 31
0.0
1001
AUSTER_ANSICHT
1002
{
1000
Det03
1002
}
1001
AUSTER_FOLIE
1002
{
1000
NSB00340_S0
1002
}
  0
LINE
  5
BAD8
330
20
100
AcDbEntity
  8
10000_FRONT
  6
Continuous
 62
     7
370
    20
100
AcDbLine
 39
0.25
 10
96.89687808894785
 20
454.6243647399069
 30
0.0
 11
99.16687808894785
 21
454.6243647399069
 31
0.0
1001
AUSTER_ANSICHT
1002
{
1000
Det03
1002
}
1001
AUSTER_FOLIE
1002
{
1000
NSB00340_S0
1002
}
  0
LINE
  5
BAD9
330
20
100
AcDbEntity
  8
10000_FRONT
  6
Continuous
 62
     7
370
    20
100
AcDbLine
 39
0.25
 10
93.59587808894785
 20
454.6243647399069
 30
0.0
 11
95.86687808894785
 21
454.6243647399069
 31
0.0
1001
AUSTER_ANSICHT
1002
{
1000
Det03
1002
}
1001
AUSTER_FOLIE
1002
{
1000
NSB00340_S0
1002
}
  0
LINE
  5
BADA
330
20
100
AcDbEntity
  8
10000_FRONT
  6
Continuous
 62
     7
370
    20
100
AcDbLine
 39
0.25
 10
110.2668780889478
 20
454.8043647399068
 30
0.0
 11
110.2668780889478
 21
454.6243647399069
 31
0.0
1001
AUSTER_ANSICHT
1002
{
1000
Det03
1002
}
1001
AUSTER_FOLIE
1002
{
1000
NSB00340_S0
1002
}
  0
LINE
  5
BADB
330
20
100
AcDbEntity
  8
10000_FRONT
  6
Continuous
 62
     7
370
    20
100
AcDbLine
 39
0.25
 10
110.2668780889478
 20
453.2353647399069
 30
0.0
 11
110.2668780889478
 21
453.4153647399066
 31
0.0
1001
AUSTER_ANSICHT
1002
{
1000
Det03
1002
}
1001
AUSTER_FOLIE
1002
{
1000
NSB00340_S0
1002
}
  0
LINE
  5
BADC
330
20
100
AcDbEntity
  8
10000_FRONT
  6
Continuous
 62
     7
370
    20
100
AcDbLine
 39
0.25
 10
111.2968780889478
 20
454.8043647399068
 30
0.0
 11
111.2968780889478
 21
454.6243647399069
 31
0.0
1001
AUSTER_ANSICHT
1002
{
1000
Det03
1002
}
1001
AUSTER_FOLIE
1002
{
1000
NSB00340_S0
1002
}
  0
LINE
  5
BADD
330
20
100
AcDbEntity
  8
10000_FRONT
  6
Continuous
 62
     7
370
    20
100
AcDbLine
 39
0.25
 10
111.2968780889478
 20
453.2353647399069
 30
0.0
 11
111.2968780889478
 21
453.4153647399066
 31
0.0
1001
AUSTER_ANSICHT
1002
{
1000
Det03
1002
}
1001
AUSTER_FOLIE
1002
{
1000
NSB00340_S0
1002
}
  0
LINE
  5
BADE
330
20
100
AcDbEntity
  8
10000_FRONT
  6
Continuous
 62
     7
370
    20
100
AcDbLine
 39
0.25
 10
110.2668780889478
 20
454.8043647399068
 30
0.0
 11
110.2668780889478
 21
455.7973647399069
 31
0.0
1001
AUSTER_ANSICHT
1002
{
1000
Det03
1002
}
1001
AUSTER_FOLIE
1002
{
1000
NSB00340_S0
1002
}
  0
LINE
  5
BADF
330
20
100
AcDbEntity
  8
10000_FRONT
  6
Continuous
 62
     7
370
    20
100
AcDbLine
 39
0.25
 10
111.2968780889478
 20
455.7973647399069
 30
0.0
 11
111.2968780889478
 21
454.8043647399068
 31
0.0
1001
AUSTER_ANSICHT
1002
{
1000
Det03
1002
}
1001
AUSTER_FOLIE
1002
{
1000
NSB00340_S0
1002
}
  0
LINE
  5
BAE0
330
20
100
AcDbEntity
  8
10000_FRONT
  6
Continuous
 62
     7
370
    20
100
AcDbLine
 39
0.25
 10
111.2968780889478
 20
453.2353647399069
 30
0.0
 11
111.2968780889478
 21
452.2433647399068
 31
0.0
1001
AUSTER_ANSICHT
1002
{
1000
Det03
1002
}
1001
AUSTER_FOLIE
1002
{
1000
NSB00340_S0
1002
}
  0
LINE
  5
BAE1
330
20
100
AcDbEntity
  8
10000_FRONT
  6
Continuous
 62
     7
370
    20
100
AcDbLine
 39
0.25
 10
110.2668780889478
 20
452.2433647399068
 30
0.0
 11
110.2668780889478
 21
453.2353647399069
 31
0.0
1001
AUSTER_ANSICHT
1002
{
1000
Det03
1002
}
1001
AUSTER_FOLIE
1002
{
1000
NSB00340_S0
1002
}
  0
LINE
  5
BAE2
330
20
100
AcDbEntity
  8
10000_FRONT
  6
Continuous
 62
     7
370
    20
100
AcDbLine
 39
0.25
 10
110.2668780889478
 20
453.4153647399066
 30
0.0
 11
107.9958780889478
 21
453.4153647399066
 31
0.0
1001
AUSTER_ANSICHT
1002
{
1000
Det03
1002
}
1001
AUSTER_FOLIE
1002
{
1000
NSB00340_S0
1002
}
  0
LINE
  5
BAE3
330
20
100
AcDbEntity
  8
10000_FRONT
  6
Continuous
 62
     7
370
    20
100
AcDbLine
 39
0.25
 10
113.5668780889478
 20
453.4153647399066
 30
0.0
 11
111.2968780889478
 21
453.4153647399066
 31
0.0
1001
AUSTER_ANSICHT
1002
{
1000
Det03
1002
}
1001
AUSTER_FOLIE
1002
{
1000
NSB00340_S0
1002
}
  0
LINE
  5
BAE4
330
20
100
AcDbEntity
  8
10000_FRONT
  6
Continuous
 62
     7
370
    20
100
AcDbLine
 39
0.25
 10
111.2968780889478
 20
454.6243647399069
 30
0.0
 11
113.5668780889478
 21
454.6243647399069
 31
0.0
1001
AUSTER_ANSICHT
1002
{
1000
Det03
1002
}
1001
AUSTER_FOLIE
1002
{
1000
NSB00340_S0
1002
}
  0
LINE
  5
BAE5
330
20
100
AcDbEntity
  8
10000_FRONT
  6
Continuous
 62
     7
370
    20
100
AcDbLine
 39
0.25
 10
107.9958780889478
 20
454.6243647399069
 30
0.0
 11
110.2668780889478
 21
454.6243647399069
 31
0.0
1001
AUSTER_ANSICHT
1002
{
1000
Det03
1002
}
1001
AUSTER_FOLIE
1002
{
1000
NSB00340_S0
1002
}
  0
LINE
  5
BAE6
330
20
100
AcDbEntity
  8
10000_FRONT
  6
Continuous
 62
     7
370
    20
100
AcDbLine
 39
0.25
 10
124.6668780889478
 20
454.8043647399068
 30
0.0
 11
124.6668780889478
 21
454.6243647399069
 31
0.0
1001
AUSTER_ANSICHT
1002
{
1000
Det03
1002
}
1001
AUSTER_FOLIE
1002
{
1000
NSB00340_S0
1002
}
  0
LINE
  5
BAE7
330
20
100
AcDbEntity
  8
10000_FRONT
  6
Continuous
 62
     7
370
    20
100
AcDbLine
 39
0.25
 10
124.6668780889478
 20
453.2353647399069
 30
0.0
 11
124.6668780889478
 21
453.4153647399066
 31
0.0
1001
AUSTER_ANSICHT
1002
{
1000
Det03
1002
}
1001
AUSTER_FOLIE
1002
{
1000
NSB00340_S0
1002
}
  0
LINE
  5
BAE8
330
20
100
AcDbEntity
  8
10000_FRONT
  6
Continuous
 62
     7
370
    20
100
AcDbLine
 39
0.25
 10
125.6968780889478
 20
454.8043647399068
 30
0.0
 11
125.6968780889478
 21
454.6243647399069
 31
0.0
1001
AUSTER_ANSICHT
1002
{
1000
Det03
1002
}
1001
AUSTER_FOLIE
1002
{
1000
NSB00340_S0
1002
}
  0
LINE
  5
BAE9
330
20
100
AcDbEntity
  8
10000_FRONT
  6
Continuous
 62
     7
370
    20
100
AcDbLine
 39
0.25
 10
125.6968780889478
 20
453.2353647399069
 30
0.0
 11
125.6968780889478
 21
453.4153647399066
 31
0.0
1001
AUSTER_ANSICHT
1002
{
1000
Det03
1002
}
1001
AUSTER_FOLIE
1002
{
1000
NSB00340_S0
1002
}
  0
LINE
  5
BAEA
330
20
100
AcDbEntity
  8
10000_FRONT
  6
Continuous
 62
     7
370
    20
100
AcDbLine
 39
0.25
 10
124.6668780889478
 20
454.8043647399068
 30
0.0
 11
124.6668780889478
 21
455.7973647399069
 31
0.0
1001
AUSTER_ANSICHT
1002
{
1000
Det03
1002
}
1001
AUSTER_FOLIE
1002
{
1000
NSB00340_S0
1002
}
  0
LINE
  5
BAEB
330
20
100
AcDbEntity
  8
10000_FRONT
  6
Continuous
 62
     7
370
    20
100
AcDbLine
 39
0.25
 10
125.6968780889478
 20
455.7973647399069
 30
0.0
 11
125.6968780889478
 21
454.8043647399068
 31
0.0
1001
AUSTER_ANSICHT
1002
{
1000
Det03
1002
}
1001
AUSTER_FOLIE
1002
{
1000
NSB00340_S0
1002
}
  0
LINE
  5
BAEC
330
20
100
AcDbEntity
  8
10000_FRONT
  6
Continuous
 62
     7
370
    20
100
AcDbLine
 39
0.25
 10
125.6968780889478
 20
453.2353647399069
 30
0.0
 11
125.6968780889478
 21
452.2433647399068
 31
0.0
1001
AUSTER_ANSICHT
1002
{
1000
Det03
1002
}
1001
AUSTER_FOLIE
1002
{
1000
NSB00340_S0
1002
}
  0
LINE
  5
BAED
330
20
100
AcDbEntity
  8
10000_FRONT
  6
Continuous
 62
     7
370
    20
100
AcDbLine
 39
0.25
 10
124.6668780889478
 20
452.2433647399068
 30
0.0
 11
124.6668780889478
 21
453.2353647399069
 31
0.0
1001
AUSTER_ANSICHT
1002
{
1000
Det03
1002
}
1001
AUSTER_FOLIE
1002
{
1000
NSB00340_S0
1002
}
  0
LINE
  5
BAEE
330
20
100
AcDbEntity
  8
10000_FRONT
  6
Continuous
 62
     7
370
    20
100
AcDbLine
 39
0.25
 10
124.6668780889478
 20
453.4153647399066
 30
0.0
 11
122.3958780889478
 21
453.4153647399066
 31
0.0
1001
AUSTER_ANSICHT
1002
{
1000
Det03
1002
}
1001
AUSTER_FOLIE
1002
{
1000
NSB00340_S0
1002
}
  0
LINE
  5
BAEF
330
20
100
AcDbEntity
  8
10000_FRONT
  6
Continuous
 62
     7
370
    20
100
AcDbLine
 39
0.25
 10
127.9668780889478
 20
453.4153647399066
 30
0.0
 11
125.6968780889478
 21
453.4153647399066
 31
0.0
1001
AUSTER_ANSICHT
1002
{
1000
Det03
1002
}
1001
AUSTER_FOLIE
1002
{
1000
NSB00340_S0
1002
}
  0
LINE
  5
BAF0
330
20
100
AcDbEntity
  8
10000_FRONT
  6
Continuous
 62
     7
370
    20
100
AcDbLine
 39
0.25
 10
125.6968780889478
 20
454.6243647399069
 30
0.0
 11
127.9668780889478
 21
454.6243647399069
 31
0.0
1001
AUSTER_ANSICHT
1002
{
1000
Det03
1002
}
1001
AUSTER_FOLIE
1002
{
1000
NSB00340_S0
1002
}
  0
LINE
  5
BAF1
330
20
100
AcDbEntity
  8
10000_FRONT
  6
Continuous
 62
     7
370
    20
100
AcDbLine
 39
0.25
 10
122.3958780889478
 20
454.6243647399069
 30
0.0
 11
124.6668780889478
 21
454.6243647399069
 31
0.0
1001
AUSTER_ANSICHT
1002
{
1000
Det03
1002
}
1001
AUSTER_FOLIE
1002
{
1000
NSB00340_S0
1002
}
  0
LINE
  5
BAF2
330
20
100
AcDbEntity
  8
10000_FRONT
  6
Continuous
 62
     7
370
    20
100
AcDbLine
 39
0.25
 10
123.2318780889478
 20
374.8203647399068
 30
0.0
 11
123.2318780889478
 21
375.0703647399068
 31
0.0
1001
AUSTER_ANSICHT
1002
{
1000
Det03
1002
}
1001
AUSTER_FOLIE
1002
{
1000
NSB00340_S0
1002
}
  0
LINE
  5
BAF3
330
20
100
AcDbEntity
  8
10000_FRONT
  6
Continuous
 62
     7
370
    20
100
AcDbLine
 39
0.25
 10
118.5818780889478
 20
373.3203647399069
 30
0.0
 11
118.5818780889478
 21
375.0703647399068
 31
0.0
1001
AUSTER_ANSICHT
1002
{
1000
Det03
1002
}
1001
AUSTER_FOLIE
1002
{
1000
NSB00340_S0
1002
}
  0
LINE
  5
BAF4
330
20
100
AcDbEntity
  8
10000_FRONT
  6
Continuous
 62
     7
370
    20
100
AcDbLine
 39
0.25
 10
102.9818780889478
 20
373.3203647399069
 30
0.0
 11
102.9818780889478
 21
375.0703647399068
 31
0.0
1001
AUSTER_ANSICHT
1002
{
1000
Det03
1002
}
1001
AUSTER_FOLIE
1002
{
1000
NSB00340_S0
1002
}
  0
LINE
  5
BAF5
330
20
100
AcDbEntity
  8
10000_FRONT
  6
Continuous
 62
     7
370
    20
100
AcDbLine
 39
0.25
 10
98.33187808894784
 20
374.8203647399068
 30
0.0
 11
98.33187808894784
 21
375.0703647399068
 31
0.0
1001
AUSTER_ANSICHT
1002
{
1000
Det03
1002
}
1001
AUSTER_FOLIE
1002
{
1000
NSB00340_S0
1002
}
  0
LINE
  5
BAF6
330
20
100
AcDbEntity
  8
10000_FRONT
  6
DASHED
 62
     7
370
    13
100
AcDbLine
 39
0.25
 10
95.86687808894785
 20
385.0863647399068
 30
0.0
 11
95.86687808894785
 21
385.2663647399067
 31
0.0
1001
AUSTER_ANSICHT
1002
{
1000
Det03
1002
}
1001
AUSTER_FOLIE
1002
{
1000
NSB00340_S0
1002
}
  0
LINE
  5
BAF7
330
20
100
AcDbEntity
  8
10000_FRONT
  6
DASHED
 62
     7
370
    13
100
AcDbLine
 39
0.25
 10
95.86687808894785
 20
386.6553647399069
 30
0.0
 11
95.86687808894785
 21
386.4753647399069
 31
0.0
1001
AUSTER_ANSICHT
1002
{
1000
Det03
1002
}
1001
AUSTER_FOLIE
1002
{
1000
NSB00340_S0
1002
}
  0
LINE
  5
BAF8
330
20
100
AcDbEntity
  8
10000_FRONT
  6
DASHED
 62
     7
370
    13
100
AcDbLine
 39
0.25
 10
96.89687808894785
 20
385.0863647399068
 30
0.0
 11
96.89687808894785
 21
385.2663647399067
 31
0.0
1001
AUSTER_ANSICHT
1002
{
1000
Det03
1002
}
1001
AUSTER_FOLIE
1002
{
1000
NSB00340_S0
1002
}
  0
LINE
  5
BAF9
330
20
100
AcDbEntity
  8
10000_FRONT
  6
DASHED
 62
     7
370
    13
100
AcDbLine
 39
0.25
 10
96.89687808894785
 20
386.6553647399069
 30
0.0
 11
96.89687808894785
 21
386.4753647399069
 31
0.0
1001
AUSTER_ANSICHT
1002
{
1000
Det03
1002
}
1001
AUSTER_FOLIE
1002
{
1000
NSB00340_S0
1002
}
  0
LINE
  5
BAFA
330
20
100
AcDbEntity
  8
10000_FRONT
  6
DASHED
 62
     7
370
    13
100
AcDbLine
 39
0.25
 10
95.86687808894785
 20
385.0863647399068
 30
0.0
 11
95.86687808894785
 21
384.0943647399068
 31
0.0
1001
AUSTER_ANSICHT
1002
{
1000
Det03
1002
}
1001
AUSTER_FOLIE
1002
{
1000
NSB00340_S0
1002
}
  0
LINE
  5
BAFB
330
20
100
AcDbEntity
  8
10000_FRONT
  6
DASHED
 62
     7
370
    13
100
AcDbLine
 39
0.25
 10
96.89687808894785
 20
384.0943647399068
 30
0.0
 11
96.89687808894785
 21
385.0863647399068
 31
0.0
1001
AUSTER_ANSICHT
1002
{
1000
Det03
1002
}
1001
AUSTER_FOLIE
1002
{
1000
NSB00340_S0
1002
}
  0
LINE
  5
BAFC
330
20
100
AcDbEntity
  8
10000_FRONT
  6
DASHED
 62
     7
370
    13
100
AcDbLine
 39
0.25
 10
96.89687808894785
 20
386.6553647399069
 30
0.0
 11
96.89687808894785
 21
387.6473647399067
 31
0.0
1001
AUSTER_ANSICHT
1002
{
1000
Det03
1002
}
1001
AUSTER_FOLIE
1002
{
1000
NSB00340_S0
1002
}
  0
LINE
  5
BAFD
330
20
100
AcDbEntity
  8
10000_FRONT
  6
DASHED
 62
     7
370
    13
100
AcDbLine
 39
0.25
 10
95.86687808894785
 20
387.6473647399067
 30
0.0
 11
95.86687808894785
 21
386.6553647399069
 31
0.0
1001
AUSTER_ANSICHT
1002
{
1000
Det03
1002
}
1001
AUSTER_FOLIE
1002
{
1000
NSB00340_S0
1002
}
  0
LINE
  5
BAFE
330
20
100
AcDbEntity
  8
10000_FRONT
  6
DASHED
 62
     7
370
    13
100
AcDbLine
 39
0.25
 10
95.86687808894785
 20
386.4753647399069
 30
0.0
 11
93.59587808894785
 21
386.4753647399069
 31
0.0
1001
AUSTER_ANSICHT
1002
{
1000
Det03
1002
}
1001
AUSTER_FOLIE
1002
{
1000
NSB00340_S0
1002
}
  0
LINE
  5
BAFF
330
20
100
AcDbEntity
  8
10000_FRONT
  6
DASHED
 62
     7
370
    13
100
AcDbLine
 39
0.25
 10
99.16687808894785
 20
386.4753647399069
 30
0.0
 11
96.89687808894785
 21
386.4753647399069
 31
0.0
1001
AUSTER_ANSICHT
1002
{
1000
Det03
1002
}
1001
AUSTER_FOLIE
1002
{
1000
NSB00340_S0
1002
}
  0
LINE
  5
BB00
330
20
100
AcDbEntity
  8
10000_FRONT
  6
DASHED
 62
     7
370
    13
100
AcDbLine
 39
0.25
 10
96.89687808894785
 20
385.2663647399067
 30
0.0
 11
99.16687808894785
 21
385.2663647399067
 31
0.0
1001
AUSTER_ANSICHT
1002
{
1000
Det03
1002
}
1001
AUSTER_FOLIE
1002
{
1000
NSB00340_S0
1002
}
  0
LINE
  5
BB01
330
20
100
AcDbEntity
  8
10000_FRONT
  6
DASHED
 62
     7
370
    13
100
AcDbLine
 39
0.25
 10
93.59587808894785
 20
385.2663647399067
 30
0.0
 11
95.86687808894785
 21
385.2663647399067
 31
0.0
1001
AUSTER_ANSICHT
1002
{
1000
Det03
1002
}
1001
AUSTER_FOLIE
1002
{
1000
NSB00340_S0
1002
}
  0
LINE
  5
BB02
330
20
100
AcDbEntity
  8
10000_FRONT
  6
DASHED
 62
     7
370
    13
100
AcDbLine
 39
0.25
 10
110.2668780889478
 20
385.0863647399068
 30
0.0
 11
110.2668780889478
 21
385.2663647399067
 31
0.0
1001
AUSTER_ANSICHT
1002
{
1000
Det03
1002
}
1001
AUSTER_FOLIE
1002
{
1000
NSB00340_S0
1002
}
  0
LINE
  5
BB03
330
20
100
AcDbEntity
  8
10000_FRONT
  6
DASHED
 62
     7
370
    13
100
AcDbLine
 39
0.25
 10
110.2668780889478
 20
386.6553647399069
 30
0.0
 11
110.2668780889478
 21
386.4753647399069
 31
0.0
1001
AUSTER_ANSICHT
1002
{
1000
Det03
1002
}
1001
AUSTER_FOLIE
1002
{
1000
NSB00340_S0
1002
}
  0
LINE
  5
BB04
330
20
100
AcDbEntity
  8
10000_FRONT
  6
DASHED
 62
     7
370
    13
100
AcDbLine
 39
0.25
 10
111.2968780889478
 20
385.0863647399068
 30
0.0
 11
111.2968780889478
 21
385.2663647399067
 31
0.0
1001
AUSTER_ANSICHT
1002
{
1000
Det03
1002
}
1001
AUSTER_FOLIE
1002
{
1000
NSB00340_S0
1002
}
  0
LINE
  5
BB05
330
20
100
AcDbEntity
  8
10000_FRONT
  6
DASHED
 62
     7
370
    13
100
AcDbLine
 39
0.25
 10
111.2968780889478
 20
386.6553647399069
 30
0.0
 11
111.2968780889478
 21
386.4753647399069
 31
0.0
1001
AUSTER_ANSICHT
1002
{
1000
Det03
1002
}
1001
AUSTER_FOLIE
1002
{
1000
NSB00340_S0
1002
}
  0
LINE
  5
BB06
330
20
100
AcDbEntity
  8
10000_FRONT
  6
DASHED
 62
     7
370
    13
100
AcDbLine
 39
0.25
 10
110.2668780889478
 20
385.0863647399068
 30
0.0
 11
110.2668780889478
 21
384.0943647399068
 31
0.0
1001
AUSTER_ANSICHT
1002
{
1000
Det03
1002
}
1001
AUSTER_FOLIE
1002
{
1000
NSB00340_S0
1002
}
  0
LINE
  5
BB07
330
20
100
AcDbEntity
  8
10000_FRONT
  6
DASHED
 62
     7
370
    13
100
AcDbLine
 39
0.25
 10
111.2968780889478
 20
384.0943647399068
 30
0.0
 11
111.2968780889478
 21
385.0863647399068
 31
0.0
1001
AUSTER_ANSICHT
1002
{
1000
Det03
1002
}
1001
AUSTER_FOLIE
1002
{
1000
NSB00340_S0
1002
}
  0
LINE
  5
BB08
330
20
100
AcDbEntity
  8
10000_FRONT
  6
DASHED
 62
     7
370
    13
100
AcDbLine
 39
0.25
 10
111.2968780889478
 20
386.6553647399069
 30
0.0
 11
111.2968780889478
 21
387.6473647399067
 31
0.0
1001
AUSTER_ANSICHT
1002
{
1000
Det03
1002
}
1001
AUSTER_FOLIE
1002
{
1000
NSB00340_S0
1002
}
  0
LINE
  5
BB09
330
20
100
AcDbEntity
  8
10000_FRONT
  6
DASHED
 62
     7
370
    13
100
AcDbLine
 39
0.25
 10
110.2668780889478
 20
387.6473647399067
 30
0.0
 11
110.2668780889478
 21
386.6553647399069
 31
0.0
1001
AUSTER_ANSICHT
1002
{
1000
Det03
1002
}
1001
AUSTER_FOLIE
1002
{
1000
NSB00340_S0
1002
}
  0
LINE
  5
BB0A
330
20
100
AcDbEntity
  8
10000_FRONT
  6
DASHED
 62
     7
370
    13
100
AcDbLine
 39
0.25
 10
110.2668780889478
 20
386.4753647399069
 30
0.0
 11
107.9958780889478
 21
386.4753647399069
 31
0.0
1001
AUSTER_ANSICHT
1002
{
1000
Det03
1002
}
1001
AUSTER_FOLIE
1002
{
1000
NSB00340_S0
1002
}
  0
LINE
  5
BB0B
330
20
100
AcDbEntity
  8
10000_FRONT
  6
DASHED
 62
     7
370
    13
100
AcDbLine
 39
0.25
 10
113.5668780889478
 20
386.4753647399069
 30
0.0
 11
111.2968780889478
 21
386.4753647399069
 31
0.0
1001
AUSTER_ANSICHT
1002
{
1000
Det03
1002
}
1001
AUSTER_FOLIE
1002
{
1000
NSB00340_S0
1002
}
  0
LINE
  5
BB0C
330
20
100
AcDbEntity
  8
10000_FRONT
  6
DASHED
 62
     7
370
    13
100
AcDbLine
 39
0.25
 10
111.2968780889478
 20
385.2663647399067
 30
0.0
 11
113.5668780889478
 21
385.2663647399067
 31
0.0
1001
AUSTER_ANSICHT
1002
{
1000
Det03
1002
}
1001
AUSTER_FOLIE
1002
{
1000
NSB00340_S0
1002
}
  0
LINE
  5
BB0D
330
20
100
AcDbEntity
  8
10000_FRONT
  6
DASHED
 62
     7
370
    13
100
AcDbLine
 39
0.25
 10
107.9958780889478
 20
385.2663647399067
 30
0.0
 11
110.2668780889478
 21
385.2663647399067
 31
0.0
1001
AUSTER_ANSICHT
1002
{
1000
Det03
1002
}
1001
AUSTER_FOLIE
1002
{
1000
NSB00340_S0
1002
}
  0
LINE
  5
BB0E
330
20
100
AcDbEntity
  8
10000_FRONT
  6
DASHED
 62
     7
370
    13
100
AcDbLine
 39
0.25
 10
124.6668780889478
 20
385.0863647399068
 30
0.0
 11
124.6668780889478
 21
385.2663647399067
 31
0.0
1001
AUSTER_ANSICHT
1002
{
1000
Det03
1002
}
1001
AUSTER_FOLIE
1002
{
1000
NSB00340_S0
1002
}
  0
LINE
  5
BB0F
330
20
100
AcDbEntity
  8
10000_FRONT
  6
DASHED
 62
     7
370
    13
100
AcDbLine
 39
0.25
 10
124.6668780889478
 20
386.6553647399069
 30
0.0
 11
124.6668780889478
 21
386.4753647399069
 31
0.0
1001
AUSTER_ANSICHT
1002
{
1000
Det03
1002
}
1001
AUSTER_FOLIE
1002
{
1000
NSB00340_S0
1002
}
  0
LINE
  5
BB10
330
20
100
AcDbEntity
  8
10000_FRONT
  6
DASHED
 62
     7
370
    13
100
AcDbLine
 39
0.25
 10
125.6968780889478
 20
385.0863647399068
 30
0.0
 11
125.6968780889478
 21
385.2663647399067
 31
0.0
1001
AUSTER_ANSICHT
1002
{
1000
Det03
1002
}
1001
AUSTER_FOLIE
1002
{
1000
NSB00340_S0
1002
}
  0
LINE
  5
BB11
330
20
100
AcDbEntity
  8
10000_FRONT
  6
DASHED
 62
     7
370
    13
100
AcDbLine
 39
0.25
 10
125.6968780889478
 20
386.6553647399069
 30
0.0
 11
125.6968780889478
 21
386.4753647399069
 31
0.0
1001
AUSTER_ANSICHT
1002
{
1000
Det03
1002
}
1001
AUSTER_FOLIE
1002
{
1000
NSB00340_S0
1002
}
  0
LINE
  5
BB12
330
20
100
AcDbEntity
  8
10000_FRONT
  6
DASHED
 62
     7
370
    13
100
AcDbLine
 39
0.25
 10
124.6668780889478
 20
385.0863647399068
 30
0.0
 11
124.6668780889478
 21
384.0943647399068
 31
0.0
1001
AUSTER_ANSICHT
1002
{
1000
Det03
1002
}
1001
AUSTER_FOLIE
1002
{
1000
NSB00340_S0
1002
}
  0
LINE
  5
BB13
330
20
100
AcDbEntity
  8
10000_FRONT
  6
DASHED
 62
     7
370
    13
100
AcDbLine
 39
0.25
 10
125.6968780889478
 20
384.0943647399068
 30
0.0
 11
125.6968780889478
 21
385.0863647399068
 31
0.0
1001
AUSTER_ANSICHT
1002
{
1000
Det03
1002
}
1001
AUSTER_FOLIE
1002
{
1000
NSB00340_S0
1002
}
  0
LINE
  5
BB14
330
20
100
AcDbEntity
  8
10000_FRONT
  6
DASHED
 62
     7
370
    13
100
AcDbLine
 39
0.25
 10
125.6968780889478
 20
386.6553647399069
 30
0.0
 11
125.6968780889478
 21
387.6473647399067
 31
0.0
1001
AUSTER_ANSICHT
1002
{
1000
Det03
1002
}
1001
AUSTER_FOLIE
1002
{
1000
NSB00340_S0
1002
}
  0
LINE
  5
BB15
330
20
100
AcDbEntity
  8
10000_FRONT
  6
DASHED
 62
     7
370
    13
100
AcDbLine
 39
0.25
 10
124.6668780889478
 20
387.6473647399067
 30
0.0
 11
124.6668780889478
 21
386.6553647399069
 31
0.0
1001
AUSTER_ANSICHT
1002
{
1000
Det03
1002
}
1001
AUSTER_FOLIE
1002
{
1000
NSB00340_S0
1002
}
  0
LINE
  5
BB16
330
20
100
AcDbEntity
  8
10000_FRONT
  6
DASHED
 62
     7
370
    13
100
AcDbLine
 39
0.25
 10
124.6668780889478
 20
386.4753647399069
 30
0.0
 11
122.3958780889478
 21
386.4753647399069
 31
0.0
1001
AUSTER_ANSICHT
1002
{
1000
Det03
1002
}
1001
AUSTER_FOLIE
1002
{
1000
NSB00340_S0
1002
}
  0
LINE
  5
BB17
330
20
100
AcDbEntity
  8
10000_FRONT
  6
DASHED
 62
     7
370
    13
100
AcDbLine
 39
0.25
 10
127.9668780889478
 20
386.4753647399069
 30
0.0
 11
125.6968780889478
 21
386.4753647399069
 31
0.0
1001
AUSTER_ANSICHT
1002
{
1000
Det03
1002
}
1001
AUSTER_FOLIE
1002
{
1000
NSB00340_S0
1002
}
  0
LINE
  5
BB18
330
20
100
AcDbEntity
  8
10000_FRONT
  6
DASHED
 62
     7
370
    13
100
AcDbLine
 39
0.25
 10
125.6968780889478
 20
385.2663647399067
 30
0.0
 11
127.9668780889478
 21
385.2663647399067
 31
0.0
1001
AUSTER_ANSICHT
1002
{
1000
Det03
1002
}
1001
AUSTER_FOLIE
1002
{
1000
NSB00340_S0
1002
}
  0
LINE
  5
BB19
330
20
100
AcDbEntity
  8
10000_FRONT
  6
DASHED
 62
     7
370
    13
100
AcDbLine
 39
0.25
 10
122.3958780889478
 20
385.2663647399067
 30
0.0
 11
124.6668780889478
 21
385.2663647399067
 31
0.0
1001
AUSTER_ANSICHT
1002
{
1000
Det03
1002
}
1001
AUSTER_FOLIE
1002
{
1000
NSB00340_S0
1002
}
  0
LINE
  5
BB1A
330
20
100
AcDbEntity
  8
10000_FRONT
  6
DASHED
 62
     7
370
    13
100
AcDbLine
 39
0.25
 10
91.23187808894785
 20
428.9503647399068
 30
0.0
 11
111.0318780889478
 21
428.9503647399068
 31
0.0
1001
AUSTER_ANSICHT
1002
{
1000
Det03
1002
}
1001
AUSTER_FOLIE
1002
{
1000
NSB00340_S0
1002
}
  0
LINE
  5
BB1B
330
20
100
AcDbEntity
  8
10000_FRONT
  6
DASHED
 62
     7
370
    13
100
AcDbLine
 39
0.25
 10
91.23187808894785
 20
435.7463647399065
 30
0.0
 11
91.23187808894785
 21
428.9503647399068
 31
0.0
1001
AUSTER_ANSICHT
1002
{
1000
Det03
1002
}
1001
AUSTER_FOLIE
1002
{
1000
NSB00340_S0
1002
}
  0
LINE
  5
BB1C
330
20
100
AcDbEntity
  8
10000_FRONT
  6
DASHED
 62
     7
370
    13
100
AcDbLine
 39
0.25
 10
111.0318780889478
 20
435.7463647399065
 30
0.0
 11
91.23187808894785
 21
435.7463647399065
 31
0.0
1001
AUSTER_ANSICHT
1002
{
1000
Det03
1002
}
1001
AUSTER_FOLIE
1002
{
1000
NSB00340_S0
1002
}
  0
LINE
  5
BB1D
330
20
100
AcDbEntity
  8
10000_FRONT
  6
DASHED
 62
     7
370
    13
100
AcDbLine
 39
0.25
 10
111.0318780889478
 20
428.9503647399068
 30
0.0
 11
111.0318780889478
 21
435.7463647399065
 31
0.0
1001
AUSTER_ANSICHT
1002
{
1000
Det03
1002
}
1001
AUSTER_FOLIE
1002
{
1000
NSB00340_S0
1002
}
  0
LINE
  5
BB1E
330
20
100
AcDbEntity
  8
10000_FRONT
  6
DASHED
 62
     7
370
    13
100
AcDbLine
 39
0.25
 10
90.51387808894785
 20
394.3443647399068
 30
0.0
 11
90.51387808894785
 21
392.8803647399068
 31
0.0
1001
AUSTER_ANSICHT
1002
{
1000
Det03
1002
}
1001
AUSTER_FOLIE
1002
{
1000
NSB00340_S0
1002
}
  0
LINE
  5
BB1F
330
20
100
AcDbEntity
  8
10000_FRONT
  6
DASHED
 62
     7
370
    13
100
AcDbLine
 39
0.25
 10
89.54987808894783
 20
394.3443647399068
 30
0.0
 11
90.51387808894785
 21
394.3443647399068
 31
0.0
1001
AUSTER_ANSICHT
1002
{
1000
Det03
1002
}
1001
AUSTER_FOLIE
1002
{
1000
NSB00340_S0
1002
}
  0
LINE
  5
BB20
330
20
100
AcDbEntity
  8
10000_FRONT
  6
DASHED
 62
     7
370
    13
100
AcDbLine
 39
0.25
 10
90.51387808894785
 20
392.8803647399068
 30
0.0
 11
89.54987808894783
 21
392.8803647399068
 31
0.0
1001
AUSTER_ANSICHT
1002
{
1000
Det03
1002
}
1001
AUSTER_FOLIE
1002
{
1000
NSB00340_S0
1002
}
  0
LINE
  5
BB22
330
20
100
AcDbEntity
  8
10000_FRONT
  6
DASHED
 62
     7
370
    13
100
AcDbLine
 39
0.25
 10
100.8818780889478
 20
417.5583647399068
 30
0.0
 11
100.8818780889478
 21
415.0653647399068
 31
0.0
1001
AUSTER_ANSICHT
1002
{
1000
Det03
1002
}
1001
AUSTER_FOLIE
1002
{
1000
NSB00340_S0
1002
}
  0
LINE
  5
BB23
330
20
100
AcDbEntity
  8
10000_FRONT
  6
DASHED
 62
     7
370
    13
100
AcDbLine
 39
0.25
 10
103.6198780889478
 20
417.7523647399066
 30
0.0
 11
101.0758780889478
 21
417.7523647399066
 31
0.0
1001
AUSTER_ANSICHT
1002
{
1000
Det03
1002
}
1001
AUSTER_FOLIE
1002
{
1000
NSB00340_S0
1002
}
  0
LINE
  5
BB24
330
20
100
AcDbEntity
  8
10000_FRONT
  6
DASHED
 62
     7
370
    13
100
AcDbLine
 39
0.25
 10
101.0758780889478
 20
417.7523647399066
 30
0.0
 11
100.8818780889478
 21
417.7523647399066
 31
0.0
1001
AUSTER_ANSICHT
1002
{
1000
Det03
1002
}
1001
AUSTER_FOLIE
1002
{
1000
NSB00340_S0
1002
}
  0
LINE
  5
BB25
330
20
100
AcDbEntity
  8
10000_FRONT
  6
DASHED
 62
     7
370
    13
100
AcDbLine
 39
0.25
 10
100.8818780889478
 20
417.7523647399066
 30
0.0
 11
100.8818780889478
 21
417.5583647399068
 31
0.0
1001
AUSTER_ANSICHT
1002
{
1000
Det03
1002
}
1001
AUSTER_FOLIE
1002
{
1000
NSB00340_S0
1002
}
  0
LINE
  5
BB27
330
20
100
AcDbEntity
  8
10000_FRONT
  6
DASHED
 62
     7
370
    13
100
AcDbLine
 39
0.25
 10
119.1828780889478
 20
428.6833647399068
 30
0.0
 11
119.1828780889478
 21
407.3023647399066
 31
0.0
1001
AUSTER_ANSICHT
1002
{
1000
Det03
1002
}
1001
AUSTER_FOLIE
1002
{
1000
NSB00340_S0
1002
}
  0
LINE
  5
BB29
330
20
100
AcDbEntity
  8
10000_FRONT
  6
DASHED
 62
     7
370
    13
100
AcDbLine
 39
0.25
 10
104.8008780889478
 20
414.9433647399068
 30
0.0
 11
104.6738780889478
 21
414.8153647399068
 31
0.0
1001
AUSTER_ANSICHT
1002
{
1000
Det03
1002
}
1001
AUSTER_FOLIE
1002
{
1000
NSB00340_S0
1002
}
  0
LINE
  5
BB2A
330
20
100
AcDbEntity
  8
10000_FRONT
  6
DASHED
 62
     7
370
    13
100
AcDbLine
 39
0.25
 10
103.6918780889478
 20
413.8333647399068
 30
0.0
 11
103.8188780889478
 21
413.9613647399068
 31
0.0
1001
AUSTER_ANSICHT
1002
{
1000
Det03
1002
}
1001
AUSTER_FOLIE
1002
{
1000
NSB00340_S0
1002
}
  0
LINE
  5
BB2B
330
20
100
AcDbEntity
  8
10000_FRONT
  6
DASHED
 62
     7
370
    13
100
AcDbLine
 39
0.25
 10
104.0728780889478
 20
415.6713647399068
 30
0.0
 11
103.9448780889478
 21
415.5443647399065
 31
0.0
1001
AUSTER_ANSICHT
1002
{
1000
Det03
1002
}
1001
AUSTER_FOLIE
1002
{
1000
NSB00340_S0
1002
}
  0
LINE
  5
BB2C
330
20
100
AcDbEntity
  8
10000_FRONT
  6
DASHED
 62
     7
370
    13
100
AcDbLine
 39
0.25
 10
102.9628780889478
 20
414.5623647399068
 30
0.0
 11
103.0908780889478
 21
414.6893647399068
 31
0.0
1001
AUSTER_ANSICHT
1002
{
1000
Det03
1002
}
1001
AUSTER_FOLIE
1002
{
1000
NSB00340_S0
1002
}
  0
LINE
  5
BB2D
330
20
100
AcDbEntity
  8
10000_FRONT
  6
DASHED
 62
     7
370
    13
100
AcDbLine
 39
0.25
 10
104.8008780889478
 20
414.9433647399068
 30
0.0
 11
105.5028780889478
 21
415.6453647399065
 31
0.0
1001
AUSTER_ANSICHT
1002
{
1000
Det03
1002
}
1001
AUSTER_FOLIE
1002
{
1000
NSB00340_S0
1002
}
  0
LINE
  5
BB2E
330
20
100
AcDbEntity
  8
10000_FRONT
  6
DASHED
 62
     7
370
    13
100
AcDbLine
 39
0.25
 10
104.7738780889478
 20
416.3733647399068
 30
0.0
 11
104.0728780889478
 21
415.6713647399068
 31
0.0
1001
AUSTER_ANSICHT
1002
{
1000
Det03
1002
}
1001
AUSTER_FOLIE
1002
{
1000
NSB00340_S0
1002
}
  0
LINE
  5
BB2F
330
20
100
AcDbEntity
  8
10000_FRONT
  6
DASHED
 62
     7
370
    13
100
AcDbLine
 39
0.25
 10
102.9628780889478
 20
414.5623647399068
 30
0.0
 11
102.2618780889478
 21
413.8603647399068
 31
0.0
1001
AUSTER_ANSICHT
1002
{
1000
Det03
1002
}
1001
AUSTER_FOLIE
1002
{
1000
NSB00340_S0
1002
}
  0
LINE
  5
BB30
330
20
100
AcDbEntity
  8
10000_FRONT
  6
DASHED
 62
     7
370
    13
100
AcDbLine
 39
0.25
 10
102.9898780889478
 20
413.1323647399065
 30
0.0
 11
103.6918780889478
 21
413.8333647399068
 31
0.0
1001
AUSTER_ANSICHT
1002
{
1000
Det03
1002
}
1001
AUSTER_FOLIE
1002
{
1000
NSB00340_S0
1002
}
  0
LINE
  5
BB31
330
20
100
AcDbEntity
  8
10000_FRONT
  6
DASHED
 62
     7
370
    13
100
AcDbLine
 39
0.25
 10
103.8188780889478
 20
413.9613647399068
 30
0.0
 11
105.4248780889478
 21
412.3553647399067
 31
0.0
1001
AUSTER_ANSICHT
1002
{
1000
Det03
1002
}
1001
AUSTER_FOLIE
1002
{
1000
NSB00340_S0
1002
}
  0
LINE
  5
BB32
330
20
100
AcDbEntity
  8
10000_FRONT
  6
DASHED
 62
     7
370
    13
100
AcDbLine
 39
0.25
 10
101.4848780889478
 20
416.2953647399068
 30
0.0
 11
103.0908780889478
 21
414.6893647399068
 31
0.0
1001
AUSTER_ANSICHT
1002
{
1000
Det03
1002
}
1001
AUSTER_FOLIE
1002
{
1000
NSB00340_S0
1002
}
  0
LINE
  5
BB33
330
20
100
AcDbEntity
  8
10000_FRONT
  6
DASHED
 62
     7
370
    13
100
AcDbLine
 39
0.25
 10
103.9448780889478
 20
415.5443647399065
 30
0.0
 11
102.3398780889478
 21
417.1493647399065
 31
0.0
1001
AUSTER_ANSICHT
1002
{
1000
Det03
1002
}
1001
AUSTER_FOLIE
1002
{
1000
NSB00340_S0
1002
}
  0
LINE
  5
BB34
330
20
100
AcDbEntity
  8
10000_FRONT
  6
DASHED
 62
     7
370
    13
100
AcDbLine
 39
0.25
 10
106.2788780889478
 20
413.2103647399068
 30
0.0
 11
104.6738780889478
 21
414.8153647399068
 31
0.0
1001
AUSTER_ANSICHT
1002
{
1000
Det03
1002
}
1001
AUSTER_FOLIE
1002
{
1000
NSB00340_S0
1002
}
  0
LINE
  5
BB36
330
20
100
AcDbEntity
  8
10000_FRONT
  6
DASHED
 62
     7
370
    13
100
AcDbLine
 39
0.25
 10
89.54987808894783
 20
392.8803647399068
 30
0.0
 11
89.54987808894783
 21
394.3443647399068
 31
0.0
1001
AUSTER_ANSICHT
1002
{
1000
Det03
1002
}
1001
AUSTER_FOLIE
1002
{
1000
NSB00340_S0
1002
}
  0
LINE
  5
BB38
330
20
100
AcDbEntity
  8
10000_FRONT
  6
DASHED
 62
     7
370
    13
100
AcDbLine
 39
0.25
 10
132.1828780889478
 20
391.8203647399068
 30
0.0
 11
89.38287808894783
 21
391.8213647399069
 31
0.0
1001
AUSTER_ANSICHT
1002
{
1000
Det03
1002
}
1001
AUSTER_FOLIE
1002
{
1000
NSB00340_S0
1002
}
  0
LINE
  5
BB3B
330
20
100
AcDbEntity
  8
10000_FRONT
  6
DASHED
 62
     7
370
    13
100
AcDbLine
 39
0.25
 10
132.1828780889478
 20
375.0703647399068
 30
0.0
 11
89.38287808894783
 21
375.0703647399068
 31
0.0
1001
AUSTER_ANSICHT
1002
{
1000
Det03
1002
}
1001
AUSTER_FOLIE
1002
{
1000
NSB00340_S0
1002
}
  0
LINE
  5
BB3C
330
20
100
AcDbEntity
  8
10000_FRONT
  6
DASHED
 62
     7
370
    13
100
AcDbLine
 39
0.25
 10
124.2828780889478
 20
423.5523647399068
 30
0.0
 11
124.2828780889478
 21
426.1523647399068
 31
0.0
1001
AUSTER_ANSICHT
1002
{
1000
Det03
1002
}
1001
AUSTER_FOLIE
1002
{
1000
NSB00340_S0
1002
}
  0
LINE
  5
BB3D
330
20
100
AcDbEntity
  8
10000_FRONT
  6
DASHED
 62
     7
370
    13
100
AcDbLine
 39
0.25
 10
129.2828780889478
 20
423.5523647399068
 30
0.0
 11
124.2828780889478
 21
423.5523647399068
 31
0.0
1001
AUSTER_ANSICHT
1002
{
1000
Det03
1002
}
1001
AUSTER_FOLIE
1002
{
1000
NSB00340_S0
1002
}
  0
LINE
  5
BB3E
330
20
100
AcDbEntity
  8
10000_FRONT
  6
DASHED
 62
     7
370
    13
100
AcDbLine
 39
0.25
 10
129.2828780889478
 20
426.1523647399068
 30
0.0
 11
129.2828780889478
 21
423.5523647399068
 31
0.0
1001
AUSTER_ANSICHT
1002
{
1000
Det03
1002
}
1001
AUSTER_FOLIE
1002
{
1000
NSB00340_S0
1002
}
  0
LINE
  5
BB3F
330
20
100
AcDbEntity
  8
10000_FRONT
  6
DASHED
 62
     7
370
    13
100
AcDbLine
 39
0.25
 10
124.2828780889478
 20
426.1523647399068
 30
0.0
 11
129.2828780889478
 21
426.1523647399068
 31
0.0
1001
AUSTER_ANSICHT
1002
{
1000
Det03
1002
}
1001
AUSTER_FOLIE
1002
{
1000
NSB00340_S0
1002
}
  0
LINE
  5
BB40
330
20
100
AcDbEntity
  8
10000_FRONT
  6
DASHED
 62
     7
370
    13
100
AcDbLine
 39
0.25
 10
128.0828780889478
 20
423.5523647399068
 30
0.0
 11
128.0828780889478
 21
426.1513647399066
 31
0.0
1001
AUSTER_ANSICHT
1002
{
1000
Det03
1002
}
1001
AUSTER_FOLIE
1002
{
1000
NSB00340_S0
1002
}
  0
LINE
  5
BB41
330
20
100
AcDbEntity
  8
10000_FRONT
  6
DASHED
 62
     7
370
    13
100
AcDbLine
 39
0.25
 10
127.4828780889478
 20
426.1513647399066
 30
0.0
 11
127.4828780889478
 21
423.5523647399068
 31
0.0
1001
AUSTER_ANSICHT
1002
{
1000
Det03
1002
}
1001
AUSTER_FOLIE
1002
{
1000
NSB00340_S0
1002
}
  0
LINE
  5
BB42
330
20
100
AcDbEntity
  8
10000_FRONT
  6
DASHED
 62
     7
370
    13
100
AcDbLine
 39
0.25
 10
127.4078780889478
 20
414.0523647399068
 30
0.0
 11
127.2338780889478
 21
414.0983647399068
 31
0.0
1001
AUSTER_ANSICHT
1002
{
1000
Det03
1002
}
1001
AUSTER_FOLIE
1002
{
1000
NSB00340_S0
1002
}
  0
LINE
  5
BB43
330
20
100
AcDbEntity
  8
10000_FRONT
  6
DASHED
 62
     7
370
    13
100
AcDbLine
 39
0.25
 10
125.8918780889478
 20
414.4583647399068
 30
0.0
 11
126.0658780889478
 21
414.4113647399068
 31
0.0
1001
AUSTER_ANSICHT
1002
{
1000
Det03
1002
}
1001
AUSTER_FOLIE
1002
{
1000
NSB00340_S0
1002
}
  0
LINE
  5
BB44
330
20
100
AcDbEntity
  8
10000_FRONT
  6
DASHED
 62
     7
370
    13
100
AcDbLine
 39
0.25
 10
127.6738780889478
 20
415.0473647399068
 30
0.0
 11
127.4998780889478
 21
415.0933647399068
 31
0.0
1001
AUSTER_ANSICHT
1002
{
1000
Det03
1002
}
1001
AUSTER_FOLIE
1002
{
1000
NSB00340_S0
1002
}
  0
LINE
  5
BB45
330
20
100
AcDbEntity
  8
10000_FRONT
  6
DASHED
 62
     7
370
    13
100
AcDbLine
 39
0.25
 10
126.1588780889479
 20
415.4533647399068
 30
0.0
 11
126.3328780889478
 21
415.4063647399066
 31
0.0
1001
AUSTER_ANSICHT
1002
{
1000
Det03
1002
}
1001
AUSTER_FOLIE
1002
{
1000
NSB00340_S0
1002
}
  0
LINE
  5
BB46
330
20
100
AcDbEntity
  8
10000_FRONT
  6
DASHED
 62
     7
370
    13
100
AcDbLine
 39
0.25
 10
127.4078780889478
 20
414.0523647399068
 30
0.0
 11
128.3658780889478
 21
413.7953647399069
 31
0.0
1001
AUSTER_ANSICHT
1002
{
1000
Det03
1002
}
1001
AUSTER_FOLIE
1002
{
1000
NSB00340_S0
1002
}
  0
LINE
  5
BB47
330
20
100
AcDbEntity
  8
10000_FRONT
  6
DASHED
 62
     7
370
    13
100
AcDbLine
 39
0.25
 10
128.6328780889478
 20
414.7903647399067
 30
0.0
 11
127.6738780889478
 21
415.0473647399068
 31
0.0
1001
AUSTER_ANSICHT
1002
{
1000
Det03
1002
}
1001
AUSTER_FOLIE
1002
{
1000
NSB00340_S0
1002
}
  0
LINE
  5
BB48
330
20
100
AcDbEntity
  8
10000_FRONT
  6
DASHED
 62
     7
370
    13
100
AcDbLine
 39
0.25
 10
126.1588780889479
 20
415.4533647399068
 30
0.0
 11
125.1998780889479
 21
415.7103647399067
 31
0.0
1001
AUSTER_ANSICHT
1002
{
1000
Det03
1002
}
1001
AUSTER_FOLIE
1002
{
1000
NSB00340_S0
1002
}
  0
LINE
  5
BB49
330
20
100
AcDbEntity
  8
10000_FRONT
  6
DASHED
 62
     7
370
    13
100
AcDbLine
 39
0.25
 10
124.9338780889478
 20
414.7153647399067
 30
0.0
 11
125.8918780889478
 21
414.4583647399068
 31
0.0
1001
AUSTER_ANSICHT
1002
{
1000
Det03
1002
}
1001
AUSTER_FOLIE
1002
{
1000
NSB00340_S0
1002
}
  0
LINE
  5
BB4A
330
20
100
AcDbEntity
  8
10000_FRONT
  6
DASHED
 62
     7
370
    13
100
AcDbLine
 39
0.25
 10
126.0658780889478
 20
414.4113647399068
 30
0.0
 11
125.4778780889478
 21
412.2183647399068
 31
0.0
1001
AUSTER_ANSICHT
1002
{
1000
Det03
1002
}
1001
AUSTER_FOLIE
1002
{
1000
NSB00340_S0
1002
}
  0
LINE
  5
BB4B
330
20
100
AcDbEntity
  8
10000_FRONT
  6
DASHED
 62
     7
370
    13
100
AcDbLine
 39
0.25
 10
126.9198780889478
 20
417.5993647399068
 30
0.0
 11
126.3328780889478
 21
415.4063647399066
 31
0.0
1001
AUSTER_ANSICHT
1002
{
1000
Det03
1002
}
1001
AUSTER_FOLIE
1002
{
1000
NSB00340_S0
1002
}
  0
LINE
  5
BB4C
330
20
100
AcDbEntity
  8
10000_FRONT
  6
DASHED
 62
     7
370
    13
100
AcDbLine
 39
0.25
 10
127.4998780889478
 20
415.0933647399068
 30
0.0
 11
128.0878780889478
 21
417.2873647399068
 31
0.0
1001
AUSTER_ANSICHT
1002
{
1000
Det03
1002
}
1001
AUSTER_FOLIE
1002
{
1000
NSB00340_S0
1002
}
  0
LINE
  5
BB4D
330
20
100
AcDbEntity
  8
10000_FRONT
  6
DASHED
 62
     7
370
    13
100
AcDbLine
 39
0.25
 10
126.6458780889478
 20
411.9053647399065
 30
0.0
 11
127.2338780889478
 21
414.0983647399068
 31
0.0
1001
AUSTER_ANSICHT
1002
{
1000
Det03
1002
}
1001
AUSTER_FOLIE
1002
{
1000
NSB00340_S0
1002
}
  0
LINE
  5
BB4E
330
20
100
AcDbEntity
  8
10000_FRONT
  6
Continuous
 62
     7
370
    20
100
AcDbLine
 39
0.25
 10
118.5818780889478
 20
373.3203647399069
 30
0.0
 11
118.5818780889478
 21
372.2203647399069
 31
0.0
1001
AUSTER_ANSICHT
1002
{
1000
Det03
1002
}
1001
AUSTER_FOLIE
1002
{
1000
NSB00340_S0
1002
}
  0
LINE
  5
BB4F
330
20
100
AcDbEntity
  8
10000_FRONT
  6
Continuous
 62
     7
370
    20
100
AcDbLine
 39
0.25
 10
102.9818780889478
 20
372.2203647399069
 30
0.0
 11
102.9818780889478
 21
373.3203647399069
 31
0.0
1001
AUSTER_ANSICHT
1002
{
1000
Det03
1002
}
1001
AUSTER_FOLIE
1002
{
1000
NSB00340_S0
1002
}
  0
LINE
  5
BB50
330
20
100
AcDbEntity
  8
10000_FRONT
  6
Continuous
 62
     7
370
    20
100
AcDbLine
 39
0.25
 10
118.5818780889478
 20
372.2203647399069
 30
0.0
 11
102.9818780889478
 21
372.2203647399069
 31
0.0
1001
AUSTER_ANSICHT
1002
{
1000
Det03
1002
}
1001
AUSTER_FOLIE
1002
{
1000
NSB00340_S0
1002
}
  0
LINE
  5
BB51
330
20
100
AcDbEntity
  8
10000_FRONT
  6
Continuous
 62
     7
370
    20
100
AcDbLine
 39
0.25
 10
98.33187808894784
 20
373.3203647399069
 30
0.0
 11
101.4818780889478
 21
373.3203647399069
 31
0.0
1001
AUSTER_ANSICHT
1002
{
1000
Det03
1002
}
1001
AUSTER_FOLIE
1002
{
1000
NSB00340_S0
1002
}
  0
LINE
  5
BB52
330
20
100
AcDbEntity
  8
10000_FRONT
  6
Continuous
 62
     7
370
    20
100
AcDbLine
 39
0.25
 10
98.33187808894784
 20
373.3203647399069
 30
0.0
 11
98.33187808894784
 21
374.8203647399068
 31
0.0
1001
AUSTER_ANSICHT
1002
{
1000
Det03
1002
}
1001
AUSTER_FOLIE
1002
{
1000
NSB00340_S0
1002
}
  0
LINE
  5
BB53
330
20
100
AcDbEntity
  8
10000_FRONT
  6
Continuous
 62
     7
370
    20
100
AcDbLine
 39
0.25
 10
102.9818780889478
 20
373.3203647399069
 30
0.0
 11
101.4818780889478
 21
373.3203647399069
 31
0.0
1001
AUSTER_ANSICHT
1002
{
1000
Det03
1002
}
1001
AUSTER_FOLIE
1002
{
1000
NSB00340_S0
1002
}
  0
LINE
  5
BB54
330
20
100
AcDbEntity
  8
10000_FRONT
  6
Continuous
 62
     7
370
    50
100
AcDbLine
 39
0.7
 10
131.6818780889478
 20
367.7203647399069
 30
0.0
 11
89.88187808894783
 21
367.7203647399069
 31
0.0
1001
AUSTER_ANSICHT
1002
{
1000
Det03
1002
}
1001
AUSTER_FOLIE
1002
{
1000
NSB00340_S0
1002
}
  0
LINE
  5
BB55
330
20
100
AcDbEntity
  8
10000_FRONT
  6
Continuous
 62
     7
370
    20
100
AcDbLine
 39
0.25
 10
123.2318780889478
 20
373.3203647399069
 30
0.0
 11
120.0818780889478
 21
373.3203647399069
 31
0.0
1001
AUSTER_ANSICHT
1002
{
1000
Det03
1002
}
1001
AUSTER_FOLIE
1002
{
1000
NSB00340_S0
1002
}
  0
LINE
  5
BB56
330
20
100
AcDbEntity
  8
10000_FRONT
  6
Continuous
 62
     7
370
    20
100
AcDbLine
 39
0.25
 10
123.2318780889478
 20
373.3203647399069
 30
0.0
 11
123.2318780889478
 21
374.8203647399068
 31
0.0
1001
AUSTER_ANSICHT
1002
{
1000
Det03
1002
}
1001
AUSTER_FOLIE
1002
{
1000
NSB00340_S0
1002
}
  0
LINE
  5
BB57
330
20
100
AcDbEntity
  8
10000_FRONT
  6
Continuous
 62
     7
370
    20
100
AcDbLine
 39
0.25
 10
118.5818780889478
 20
373.3203647399069
 30
0.0
 11
120.0818780889478
 21
373.3203647399069
 31
0.0
1001
AUSTER_ANSICHT
1002
{
1000
Det03
1002
}
1001
AUSTER_FOLIE
1002
{
1000
NSB00340_S0
1002
}
  0
LINE
  5
BB58
330
20
100
AcDbEntity
  8
10000_FRONT
  6
Continuous
 62
     7
370
    50
100
AcDbLine
 39
0.7
 10
88.38187808894783
 20
444.3203647399068
 30
0.0
 11
133.1818780889478
 21
444.3203647399068
 31
0.0
1001
AUSTER_ANSICHT
1002
{
1000
Det03
1002
}
1001
AUSTER_FOLIE
1002
{
1000
NSB00340_S0
1002
}
  0
LINE
  5
BB59
330
20
100
AcDbEntity
  8
10000_FRONT
  6
Continuous
 62
     7
370
    50
100
AcDbLine
 39
0.7
 10
89.38187808894783
 20
464.8203647399068
 30
0.0
 11
132.1818780889478
 21
464.8203647399068
 31
0.0
1001
AUSTER_ANSICHT
1002
{
1000
Det03
1002
}
1001
AUSTER_FOLIE
1002
{
1000
NSB00340_S0
1002
}
  0
LINE
  5
BB5A
330
20
100
AcDbEntity
  8
10000_FRONT
  6
Continuous
 62
     7
370
    50
100
AcDbLine
 39
0.7
 10
88.38187808894783
 20
463.8203647399068
 30
0.0
 11
88.38187808894783
 21
369.2203647399069
 31
0.0
1001
AUSTER_ANSICHT
1002
{
1000
Det03
1002
}
1001
AUSTER_FOLIE
1002
{
1000
NSB00340_S0
1002
}
  0
LINE
  5
BB5C
330
20
100
AcDbEntity
  8
11000_Left
  6
DASHED
 62
     7
370
    20
100
AcDbLine
 39
0.25
 10
163.7664204275264
 20
402.9203647399068
 30
-1.0
 11
163.7664204275264
 21
405.2203647399069
 31
-1.0
1001
AUSTER_ANSICHT
1002
{
1000
Det03
1002
}
1001
AUSTER_FOLIE
1002
{
1000
NSB00340_S0
1002
}
  0
LINE
  5
BB5E
330
20
100
AcDbEntity
  8
11000_Left
  6
DASHED
 62
     7
370
    20
100
AcDbLine
 39
0.25
 10
164.7664204275264
 20
408.0703647399068
 30
-1.0
 11
162.7664204275264
 21
410.0703647399068
 31
-1.0
1001
AUSTER_ANSICHT
1002
{
1000
Det03
1002
}
1001
AUSTER_FOLIE
1002
{
1000
NSB00340_S0
1002
}
  0
LINE
  5
BB5F
330
20
100
AcDbEntity
  8
11000_Left
  6
DASHED
 62
     7
370
    20
100
AcDbLine
 39
0.25
 10
164.7664204275264
 20
438.2203647399069
 30
-1.0
 11
164.7664204275264
 21
433.0703647399068
 31
-1.0
1001
AUSTER_ANSICHT
1002
{
1000
Det03
1002
}
1001
AUSTER_FOLIE
1002
{
1000
NSB00340_S0
1002
}
  0
LINE
  5
BB60
330
20
100
AcDbEntity
  8
11000_Left
  6
DASHED
 62
     7
370
    20
100
AcDbLine
 39
0.25
 10
163.7664204275264
 20
435.7203647399066
 30
-1.0
 11
163.7664204275264
 21
438.2203647399069
 31
-1.0
1001
AUSTER_ANSICHT
1002
{
1000
Det03
1002
}
1001
AUSTER_FOLIE
1002
{
1000
NSB00340_S0
1002
}
  0
LINE
  5
BB61
330
20
100
AcDbEntity
  8
11000_Left
  6
DASHED
 62
     7
370
    20
100
AcDbLine
 39
0.25
 10
162.7664204275264
 20
405.9203647399068
 30
-1.0
 11
163.0664204275264
 21
405.9203647399068
 31
-1.0
1001
AUSTER_ANSICHT
1002
{
1000
Det03
1002
}
1001
AUSTER_FOLIE
1002
{
1000
NSB00340_S0
1002
}
  0
LINE
  5
BB62
330
20
100
AcDbEntity
  8
11000_Left
  6
DASHED
 62
     7
370
    20
100
AcDbLine
 39
0.25
 10
159.7664204275264
 20
430.0703647399068
 30
-1.0
 11
159.7664204275264
 21
420.5703647399068
 31
-1.0
1001
AUSTER_ANSICHT
1002
{
1000
Det03
1002
}
1001
AUSTER_FOLIE
1002
{
1000
NSB00340_S0
1002
}
  0
LINE
  5
BB63
330
20
100
AcDbEntity
  8
11000_Left
  6
DASHED
 62
     7
370
    20
100
AcDbLine
 39
0.25
 10
159.7664204275264
 20
411.0703647399068
 30
-1.0
 11
159.7664204275264
 21
420.5703647399068
 31
-1.0
1001
AUSTER_ANSICHT
1002
{
1000
Det03
1002
}
1001
AUSTER_FOLIE
1002
{
1000
NSB00340_S0
1002
}
  0
LINE
  5
BB64
330
20
100
AcDbEntity
  8
11000_Left
  6
DASHED
 62
     7
370
    20
100
AcDbLine
 39
0.25
 10
162.7664204275264
 20
434.9703647399068
 30
-1.0
 11
162.7664204275264
 21
435.2203647399067
 31
-1.0
1001
AUSTER_ANSICHT
1002
{
1000
Det03
1002
}
1001
AUSTER_FOLIE
1002
{
1000
NSB00340_S0
1002
}
  0
LINE
  5
BB65
330
20
100
AcDbEntity
  8
11000_Left
  6
DASHED
 62
     7
370
    20
100
AcDbLine
 39
0.25
 10
163.2664204275264
 20
435.2203647399067
 30
-1.0
 11
162.7664204275264
 21
435.2203647399067
 31
-1.0
1001
AUSTER_ANSICHT
1002
{
1000
Det03
1002
}
1001
AUSTER_FOLIE
1002
{
1000
NSB00340_S0
1002
}
  0
LINE
  5
BB66
330
20
100
AcDbEntity
  8
11000_Left
  6
DASHED
 62
     7
370
    20
100
AcDbLine
 39
0.25
 10
162.7664204275264
 20
406.1703647399069
 30
-1.0
 11
162.7664204275264
 21
405.9203647399068
 31
-1.0
1001
AUSTER_ANSICHT
1002
{
1000
Det03
1002
}
1001
AUSTER_FOLIE
1002
{
1000
NSB00340_S0
1002
}
  0
LINE
  5
BB67
330
20
100
AcDbEntity
  8
11000_Left
  6
DASHED
 62
     7
370
    20
100
AcDbLine
 39
0.25
 10
160.7664204275264
 20
431.0703647399068
 30
-1.0
 11
162.7664204275264
 21
431.0703647399068
 31
-1.0
1001
AUSTER_ANSICHT
1002
{
1000
Det03
1002
}
1001
AUSTER_FOLIE
1002
{
1000
NSB00340_S0
1002
}
  0
LINE
  5
BB68
330
20
100
AcDbEntity
  8
11000_Left
  6
DASHED
 62
     7
370
    20
100
AcDbLine
 39
0.25
 10
160.7664204275264
 20
410.0703647399068
 30
-1.0
 11
162.7664204275264
 21
410.0703647399068
 31
-1.0
1001
AUSTER_ANSICHT
1002
{
1000
Det03
1002
}
1001
AUSTER_FOLIE
1002
{
1000
NSB00340_S0
1002
}
  0
LINE
  5
BB69
330
20
100
AcDbEntity
  8
11000_Left
  6
DASHED
 62
     7
370
    20
100
AcDbLine
 39
0.25
 10
160.8664204275263
 20
408.0703647399068
 30
0.0
 11
158.2664204275264
 21
408.0703647399068
 31
0.0
1001
AUSTER_ANSICHT
1002
{
1000
Det03
1002
}
1001
AUSTER_FOLIE
1002
{
1000
NSB00340_S0
1002
}
  0
LINE
  5
BB6A
330
20
100
AcDbEntity
  8
11000_Left
  6
DASHED
 62
     7
370
    20
100
AcDbLine
 39
0.25
 10
157.2664204275264
 20
432.0703647399068
 30
0.0
 11
157.2664204275264
 21
409.0703647399068
 31
0.0
1001
AUSTER_ANSICHT
1002
{
1000
Det03
1002
}
1001
AUSTER_FOLIE
1002
{
1000
NSB00340_S0
1002
}
  0
LINE
  5
BB6B
330
20
100
AcDbEntity
  8
11000_Left
  6
DASHED
 62
     7
370
    20
100
AcDbLine
 39
0.25
 10
160.8664204275263
 20
433.0703647399068
 30
0.0
 11
158.2664204275264
 21
433.0703647399068
 31
0.0
1001
AUSTER_ANSICHT
1002
{
1000
Det03
1002
}
1001
AUSTER_FOLIE
1002
{
1000
NSB00340_S0
1002
}
  0
LINE
  5
BB6C
330
20
100
AcDbEntity
  8
10000_FRONT
  6
DASHED
 62
     7
370
    13
100
AcDbLine
 39
0.25
 10
119.1828780889478
 20
407.3023647399066
 30
0.0
 11
133.1828780889478
 21
407.3023647399066
 31
0.0
1001
AUSTER_ANSICHT
1002
{
1000
Det03
1002
}
1001
AUSTER_FOLIE
1002
{
1000
NSB00340_S0
1002
}
  0
LINE
  5
BB6D
330
20
100
AcDbEntity
  8
10000_FRONT
  6
DASHED
 62
     7
370
    13
100
AcDbLine
 39
0.25
 10
119.1828780889478
 20
428.6833647399068
 30
0.0
 11
133.1828780889478
 21
428.6833647399068
 31
0.0
1001
AUSTER_ANSICHT
1002
{
1000
Det03
1002
}
1001
AUSTER_FOLIE
1002
{
1000
NSB00340_S0
1002
}
  0
LINE
  5
BB6E
330
20
100
AcDbEntity
  8
10000_FRONT
  6
Continuous
 62
     7
370
    50
100
AcDbLine
 39
0.7
 10
133.1818780889478
 20
463.8053647399068
 30
0.0
 11
133.1818780889478
 21
369.2203647399069
 31
0.0
1001
AUSTER_ANSICHT
1002
{
1000
Det03
1002
}
1001
AUSTER_FOLIE
1002
{
1000
NSB00340_S0
1002
}
  0
LINE
  5
BB70
330
20
100
AcDbEntity
  8
11000_Left
  6
Continuous
 62
     7
370
    50
100
AcDbLine
 39
0.7
 10
170.0664204275264
 20
376.3203647399068
 30
0.0
 11
170.0664204275264
 21
376.7703647399068
 31
0.0
1001
AUSTER_ANSICHT
1002
{
1000
Det03
1002
}
1001
AUSTER_FOLIE
1002
{
1000
NSB00340_S0
1002
}
  0
DIMENSION
  5
BB72
330
20
100
AcDbEntity
  8
10100_FRONT_DIM
  6
Continuous
 62
     7
370
    13
100
AcDbDimension
  2
*D1
 10
133.1818780889478
 20
357.6546780249298
 30
0.0
 11
110.7818780889478
 21
357.6546780249298
 31
0.0
 70
    32
 71
     5
 42
44.80000000000001
  3
H035
100
AcDbAlignedDimension
 13
88.38187808894781
 23
369.2203647399069
 33
0.0
 14
133.1818780889478
 24
369.2203647399069
 34
0.0
100
AcDbRotatedDimension
1001
ACAD
1000
DSTYLE
1002
{
1070
    40
1040
1.0
1070
    77
1070
     0
1070
   147
1040
1.5
1070
   272
1070
     0
1070
   279
1070
     1
1070
   288
1070
     1
1002
}
  0
DIMENSION
  5
BB7F
330
20
100
AcDbEntity
  8
10100_FRONT_DIM
  6
Continuous
 62
     7
370
    13
100
AcDbDimension
  2
*D2
 10
141.8651971305686
 20
367.7203647399069
 30
0.0
 11
141.8651971305685
 21
416.2703647399068
 31
0.0
 70
    32
 71
     5
 42
97.10000000000002
  3
H035
100
AcDbAlignedDimension
 13
132.1818780889478
 23
464.8203647399068
 33
0.0
 14
131.6818780889478
 24
367.7203647399069
 34
0.0
 50
90.0
100
AcDbRotatedDimension
1001
ACAD
1000
DSTYLE
1002
{
1070
    40
1040
1.0
1070
    77
1070
     0
1070
   147
1040
1.5
1070
   272
1070
     0
1070
   279
1070
     1
1070
   288
1070
     1
1002
}
  0
DIMENSION
  5
BB8C
330
20
100
AcDbEntity
  8
11100_LEFT_DIM
  6
Continuous
 62
     7
370
    13
100
AcDbDimension
  2
*D3
 10
207.7664204275264
 20
360.0830547983894
 30
0.0
 11
186.2664204275264
 21
360.0830547983894
 31
0.0
 70
    32
 71
     5
 42
43.0
  3
H035
100
AcDbAlignedDimension
 13
164.7664204275264
 23
400.9203647399068
 33
0.0
 14
207.7664204275264
 24
375.0203647399068
 34
0.0
100
AcDbRotatedDimension
1001
ACAD
1000
DSTYLE
1002
{
1070
    40
1040
1.0
1070
    77
1070
     0
1070
   147
1040
1.5
1070
   272
1070
     0
1070
   279
1070
     1
1070
   288
1070
     1
1002
}
  0
DIMENSION
  5
BBB5
330
20
100
AcDbEntity
  8
11100_LEFT_DIM
  6
Continuous
 62
     7
370
    13
100
AcDbDimension
  2
*D4
 10
164.7664204275264
 20
360.0830547983894
 30
0.0
 11
150.3594608666649
 21
360.0569027169056
 31
0.0
 70
   160
 71
     5
 42
5.0
  3
H035
100
AcDbAlignedDimension
 13
159.7664204275264
 23
368.9703647399069
 33
0.0
 14
164.7664204275264
 24
367.7203647399069
 34
0.0
100
AcDbRotatedDimension
1001
ACAD
1000
DSTYLE
1002
{
1070
    40
1040
1.0
1070
    77
1070
     0
1070
   147
1040
1.5
1070
   272
1070
     0
1070
   279
1070
     1
1070
   288
1070
     1
1002
}
  0
DIMENSION
  5
BBC4
330
20
100
AcDbEntity
  8
11100_LEFT_DIM
  6
Continuous
 62
     7
370
    13
100
AcDbDimension
  2
*D5
 10
230.9664204275264
 20
354.4907290877783
 30
0.0
 11
197.8664204275264
 21
354.4907290877783
 31
0.0
 70
    32
 71
     5
 42
66.2
  3
H035
100
AcDbAlignedDimension
 13
164.7664204275264
 23
367.7203647399069
 33
0.0
 14
230.9664204275264
 24
391.7703647399068
 34
0.0
100
AcDbRotatedDimension
1001
ACAD
1000
DSTYLE
1002
{
1070
    40
1040
1.0
1070
    77
1070
     0
1070
   147
1040
1.5
1070
   272
1070
     0
1070
   279
1070
     1
1070
   288
1070
     1
1002
}
  0
DIMENSION
  5
BBD1
330
20
100
AcDbEntity
  8
11100_LEFT_DIM
  6
Continuous
 62
     7
370
    13
100
AcDbDimension
  2
*D6
 10
254.3894204275264
 20
348.328863683472
 30
0.0
 11
209.5779204275264
 21
348.328863683472
 31
0.0
 70
    32
 71
     5
 42
89.62300000000002
  3
H035
100
AcDbAlignedDimension
 13
164.7664204275264
 23
367.7203647399069
 33
0.0
 14
254.3894204275264
 24
414.6203647399066
 34
0.0
100
AcDbRotatedDimension
1001
ACAD
1000
DSTYLE
1002
{
1070
    40
1040
1.0
1070
    77
1070
     0
1070
   147
1040
1.5
1070
   272
1070
     0
1070
   279
1070
     1
1070
   288
1070
     1
1002
}
  0
DIMENSION
  5
BC46
330
20
100
AcDbEntity
  8
30100_Drilling_DIM
100
AcDbDimension
  2
*D7
 10
284.407515062238
 20
465.0294072212175
 30
0.0
 11
301.857515062238
 21
467.2794072212175
 31
0.0
 70
    32
 71
     5
 42
34.89999999999998
  3
H035
100
AcDbAlignedDimension
 13
319.307515062238
 23
459.4703647399068
 33
0.0
 14
284.407515062238
 24
374.4703647399069
 34
0.0
100
AcDbRotatedDimension
1001
ACAD
1000
DSTYLE
1002
{
1070
    40
1040
1.0
1002
}
  0
DIMENSION
  5
BC53
330
20
100
AcDbEntity
  8
30100_Drilling_DIM
100
AcDbDimension
  2
*D8
 10
275.4902291868415
 20
372.2203647399069
 30
0.0
 11
273.2402291868414
 21
414.7203647399068
 31
0.0
 70
    32
 71
     5
 42
85.0
  3
H035
100
AcDbAlignedDimension
 13
317.057515062238
 23
457.2203647399068
 33
0.0
 14
282.157515062238
 24
372.2203647399069
 34
0.0
 50
90.0
100
AcDbRotatedDimension
1001
ACAD
1000
DSTYLE
1002
{
1070
    40
1040
1.0
1002
}
  0
DIMENSION
  5
BC60
330
20
100
AcDbEntity
  8
30100_Drilling_DIM
100
AcDbDimension
  2
*D9
 10
321.1454369001743
 20
458.5182643190872
 30
0.0
 11
307.6627962472678
 21
451.7515926506048
 31
0.0
 70
    35
 71
     5
 42
4.500000000000113
  3
H035
100
AcDbDiametricDimension
 15
317.4695932243017
 25
455.9224651607263
 35
0.0
 40
0.0
1001
ACAD
1000
DSTYLE
1002
{
1070
    40
1040
1.0
1070
   288
1070
     1
1002
}
  0
LINE
  5
BF43
330
20
100
AcDbEntity
  8
11000_Left
  6
Continuous
 62
     7
370
    50
100
AcDbLine
 39
0.7
 10
170.0664204275264
 20
429.6203647399067
 30
0.0
 11
170.0664204275264
 21
376.3133647399068
 31
0.0
1001
AUSTER_ANSICHT
1002
{
1000
Det03
1002
}
1001
AUSTER_FOLIE
1002
{
1000
NSB_TRAGER_S0
1002
}
  0
CIRCLE
  5
BF4F
330
20
100
AcDbEntity
  8
10000_FRONT
  6
Continuous
 62
     7
370
    50
100
AcDbCircle
 39
0.25
 10
93.27377086324707
 20
372.2203647399069
 30
0.0
 40
2.25
1001
AUSTER_ANSICHT
1002
{
1000
Det03
1002
}
1001
AUSTER_FOLIE
1002
{
1000
NSB00340_S0
1002
}
  0
ENDSEC
  0
SECTION
  2
OBJECTS
  0
DICTIONARY
  5
C
330
0
100
AcDbDictionary
281
     1
  3
ACAD_COLOR
350
1B
  3
ACAD_GROUP
350
D
  3
ACAD_LAYOUT
350
19
  3
ACAD_MATERIAL
350
1A
  3
ACAD_MLINESTYLE
350
16
  3
ACAD_PLOTSETTINGS
350
18
  3
ACAD_PLOTSTYLENAME
350
E
  3
ACDBHEADERROUNDTRIPXREC
350
BFDB
  3
AcDbVariableDictionary
350
687E
  3
DWGPROPS
350
BFDA
  0
DICTIONARY
  5
1B
102
{ACAD_REACTORS
330
C
102
}
330
C
100
AcDbDictionary
281
     1
  0
DICTIONARY
  5
D
102
{ACAD_REACTORS
330
C
102
}
330
C
100
AcDbDictionary
281
     1
  0
DICTIONARY
  5
19
102
{ACAD_REACTORS
330
C
102
}
330
C
100
AcDbDictionary
281
     1
  3
Layout1
350
1F
  3
Model
350
23
  0
DICTIONARY
  5
1A
102
{ACAD_REACTORS
330
C
102
}
330
C
100
AcDbDictionary
281
     1
  0
DICTIONARY
  5
16
102
{ACAD_REACTORS
330
C
102
}
330
C
100
AcDbDictionary
281
     1
  3
Standard
350
17
  0
DICTIONARY
  5
18
102
{ACAD_REACTORS
330
C
102
}
330
C
100
AcDbDictionary
281
     1
  0
ACDBDICTIONARYWDFLT
  5
E
102
{ACAD_REACTORS
330
C
102
}
330
C
100
AcDbDictionary
281
     1
  3
Normal
350
F
100
AcDbDictionaryWithDefault
340
F
  0
DICTIONARY
  5
BFDB
102
{ACAD_REACTORS
330
C
102
}
330
C
100
AcDbDictionary
281
     1
  3
COLORDICT
350
BFDD
  3
MATERIALDICT
350
BFDC
  0
DICTIONARY
  5
687E
102
{ACAD_REACTORS
330
C
102
}
330
C
100
AcDbDictionary
281
     1
  3
DIMASSOC
350
687F
  3
PROJECTNAME
350
6880
  0
XRECORD
  5
BFDA
102
{ACAD_REACTORS
330
C
102
}
330
C
100
AcDbXrecord
280
     1
  1
DWGPROPS COOKIE
  2

  3

  4

  6

  7

  8

  9

300
=
301
=
302
=
303
=
304
=
305
=
306
=
307
=
308
=
309
=
 40
2.223515601851851
 41
2452829.417613079
 42
2453424.695561158
  1

 90
        0
  0
LAYOUT
  5
1F
102
{ACAD_XDICTIONARY
360
BFDE
102
}
102
{ACAD_REACTORS
330
19
102
}
330
19
100
AcDbPlotSettings
  1

  2
HP LaserJet 5000 Series PS
  4

  6

 40
0.0
 41
0.0
 42
0.0
 43
0.0
 44
0.0
 45
0.0
 46
0.0
 47
0.0
 48
0.0
 49
0.0
140
0.0
141
0.0
142
1.0
143
1.0
 70
   688
 72
     0
 73
     0
 74
     5
  7
monochrome.ctb
 75
    16
147
1.0
148
0.0
149
0.0
100
AcDbLayout
  1
Layout1
 70
     1
 71
     1
 10
0.0
 20
0.0
 11
12.0
 21
9.0
 12
0.0
 22
0.0
 32
0.0
 14
1.000000000000000E+20
 24
1.000000000000000E+20
 34
1.000000000000000E+20
 15
-1.000000000000000E+20
 25
-1.000000000000000E+20
 35
-1.000000000000000E+20
146
0.0
 13
0.0
 23
0.0
 33
0.0
 16
1.0
 26
0.0
 36
0.0
 17
0.0
 27
1.0
 37
0.0
 76
     0
330
1C
  0
LAYOUT
  5
23
102
{ACAD_XDICTIONARY
360
BFE0
102
}
102
{ACAD_REACTORS
330
19
102
}
330
19
100
AcDbPlotSettings
  1

  2
\\AMBW779A\A_P00873 (Canon iR2200-3300 PCL6)
  4
A4
  6

 40
4.815416812896728
 41
4.815412044525146
 42
4.815414428710936
 43
4.8154296875
 44
209.9733276367186
 45
296.9259948730469
 46
0.0
 47
0.0
 48
0.0
 49
0.0
140
0.0
141
0.0
142
1.0
143
1.0
 70
 11952
 72
     1
 73
     1
 74
     1
  7
monochrome.ctb
 75
    16
147
1.0
148
-69.39331160554821
149
-288.7910230388692
100
AcDbLayout
  1
Model
 70
     1
 71
     0
 10
0.0
 20
0.0
 11
12.0
 21
9.0
 12
0.0
 22
0.0
 32
0.0
 14
0.0
 24
0.0
 34
0.0
 15
0.0
 25
0.0
 35
0.0
146
0.0
 13
0.0
 23
0.0
 33
0.0
 16
1.0
 26
0.0
 36
0.0
 17
0.0
 27
1.0
 37
0.0
 76
     0
330
20
  0
MLINESTYLE
  5
17
102
{ACAD_REACTORS
330
16
102
}
330
16
100
AcDbMlineStyle
  2
STANDARD
 70
     0
  3

 62
   256
 51
90.0
 52
90.0
 71
     2
 49
0.5
 62
   256
  6
BYLAYER
 49
-0.5
 62
   256
  6
BYLAYER
  0
ACDBPLACEHOLDER
  5
F
102
{ACAD_REACTORS
330
E
102
}
330
E
  0
XRECORD
  5
BFDD
102
{ACAD_REACTORS
330
BFDB
102
}
330
BFDB
100
AcDbXrecord
280
     1
340
1B
  0
XRECORD
  5
BFDC
102
{ACAD_REACTORS
330
BFDB
102
}
330
BFDB
100
AcDbXrecord
280
     1
340
1A
  0
DICTIONARYVAR
  5
687F
102
{ACAD_REACTORS
330
687E
102
}
330
687E
100
DictionaryVariables
280
     0
  1
1
  0
DICTIONARYVAR
  5
6880
102
{ACAD_REACTORS
330
687E
102
}
330
687E
100
DictionaryVariables
280
     0
  1

  0
DICTIONARY
  5
BFDE
330
1F
100
AcDbDictionary
280
     1
281
     1
  3
ACAD_XREC_ROUNDTRIP
360
BFDF
  0
DICTIONARY
  5
BFE0
330
23
100
AcDbDictionary
280
     1
281
     1
  3
ACAD_XREC_ROUNDTRIP
360
BFE1
  0
XRECORD
  5
BFDF
102
{ACAD_REACTORS
330
BFDE
102
}
330
BFDE
100
AcDbXrecord
280
     1
102
SHADEPLOT
 70
     0
102
SHADEPLOTRESLEVEL
 70
     2
102
SHADEPLOTCUSTOMDPI
 70
   300
  0
XRECORD
  5
BFE1
102
{ACAD_REACTORS
330
BFE0
102
}
330
BFE0
100
AcDbXrecord
280
     1
102
SHADEPLOT
 70
     1
102
SHADEPLOTRESLEVEL
 70
     2
102
SHADEPLOTCUSTOMDPI
 70
   300
  0
ENDSEC
  0
EOF
