  0
SECTION
  2
HEADER
  9
$ACADVER
  1
AC1015
  9
$ACADMAINTVER
 70
    20
  9
$DWGCODEPAGE
  3
ANSI_1252
  9
$INSBASE
 10
0.0
 20
0.0
 30
0.0
  9
$EXTMIN
 10
10.00000000000085
 20
0.0
 30
0.0
  9
$EXTMAX
 10
420.0000000000008
 20
270.0
 30
0.7
  9
$LIMMIN
 10
0.0
 20
0.0
  9
$LIMMAX
 10
420.0
 20
297.0
  9
$ORTHOMODE
 70
     1
  9
$REGENMODE
 70
     1
  9
$FILLMODE
 70
     1
  9
$QTEXTMODE
 70
     0
  9
$MIRRTEXT
 70
     0
  9
$LTSCALE
 40
23.1
  9
$ATTMODE
 70
     1
  9
$TEXTSIZE
 40
0.2
  9
$TRACEWID
 40
0.05
  9
$TEXTSTYLE
  7
Standard
  9
$CLAYER
  8
0
  9
$CELTYPE
  6
ByLayer
  9
$CECOLOR
 62
   256
  9
$CELTSCALE
 40
1.0
  9
$DISPSILH
 70
     0
  9
$DIMSCALE
 40
0.0
  9
$DIMASZ
 40
3.5
  9
$DIMEXO
 40
0.0
  9
$DIMDLI
 40
3.75
  9
$DIMRND
 40
0.0
  9
$DIMDLE
 40
0.0
  9
$DIMEXE
 40
2.0
  9
$DIMTP
 40
0.0
  9
$DIMTM
 40
0.0
  9
$DIMTXT
 40
3.5
  9
$DIMCEN
 40
2.5
  9
$DIMTSZ
 40
0.0
  9
$DIMTOL
 70
     0
  9
$DIMLIM
 70
     0
  9
$DIMTIH
 70
     0
  9
$DIMTOH
 70
     0
  9
$DIMSE1
 70
     0
  9
$DIMSE2
 70
     0
  9
$DIMTAD
 70
     1
  9
$DIMZIN
 70
     8
  9
$DIMBLK
  1

  9
$DIMASO
 70
     1
  9
$DIMSHO
 70
     1
  9
$DIMPOST
  1

  9
$DIMAPOST
  1

  9
$DIMALT
 70
     0
  9
$DIMALTD
 70
     4
  9
$DIMALTF
 40
0.039
  9
$DIMLFAC
 40
1.0
  9
$DIMTOFL
 70
     1
  9
$DIMTVP
 40
0.0
  9
$DIMTIX
 70
     0
  9
$DIMSOXD
 70
     0
  9
$DIMSAH
 70
     0
  9
$DIMBLK1
  1

  9
$DIMBLK2
  1

  9
$DIMSTYLE
  2
H035
  9
$DIMCLRD
 70
   256
  9
$DIMCLRE
 70
     7
  9
$DIMCLRT
 70
     7
  9
$DIMTFAC
 40
1.0
  9
$DIMGAP
 40
0.5
  9
$DIMJUST
 70
     0
  9
$DIMSD1
 70
     0
  9
$DIMSD2
 70
     0
  9
$DIMTOLJ
 70
     1
  9
$DIMTZIN
 70
     0
  9
$DIMALTZ
 70
     0
  9
$DIMALTTZ
 70
     0
  9
$DIMUPT
 70
     0
  9
$DIMDEC
 70
     0
  9
$DIMTDEC
 70
     2
  9
$DIMALTU
 70
     8
  9
$DIMALTTD
 70
     4
  9
$DIMTXSTY
  7
Standard
  9
$DIMAUNIT
 70
     0
  9
$DIMADEC
 70
     0
  9
$DIMALTRND
 40
0.0
  9
$DIMAZIN
 70
     0
  9
$DIMDSEP
 70
    46
  9
$DIMATFIT
 70
     3
  9
$DIMFRAC
 70
     0
  9
$DIMLDRBLK
  1

  9
$DIMLUNIT
 70
     2
  9
$DIMLWD
 70
    -2
  9
$DIMLWE
 70
    -2
  9
$DIMTMOVE
 70
     0
  9
$LUNITS
 70
     2
  9
$LUPREC
 70
     4
  9
$SKETCHINC
 40
0.1
  9
$FILLETRAD
 40
0.5
  9
$AUNITS
 70
     0
  9
$AUPREC
 70
     0
  9
$MENU
  1
.
  9
$ELEVATION
 40
0.0
  9
$PELEVATION
 40
0.0
  9
$THICKNESS
 40
0.0
  9
$LIMCHECK
 70
     0
  9
$CHAMFERA
 40
0.0
  9
$CHAMFERB
 40
0.0
  9
$CHAMFERC
 40
0.0
  9
$CHAMFERD
 40
0.0
  9
$SKPOLY
 70
     0
  9
$TDCREATE
 40
2452829.417613079
  9
$TDUCREATE
 40
2452829.375946412
  9
$TDUPDATE
 40
2453425.330774398
  9
$TDUUPDATE
 40
2453425.289107732
  9
$TDINDWG
 40
2.3842281366
  9
$TDUSRTIMER
 40
2.3842225231
  9
$USRTIMER
 70
     1
  9
$ANGBASE
 50
0.0
  9
$ANGDIR
 70
     0
  9
$PDMODE
 70
     0
  9
$PDSIZE
 40
0.0
  9
$PLINEWID
 40
0.0
  9
$SPLFRAME
 70
     0
  9
$SPLINETYPE
 70
     6
  9
$SPLINESEGS
 70
     8
  9
$HANDSEED
  5
BD3C
  9
$SURFTAB1
 70
     6
  9
$SURFTAB2
 70
     6
  9
$SURFTYPE
 70
     6
  9
$SURFU
 70
     6
  9
$SURFV
 70
     6
  9
$UCSBASE
  2

  9
$UCSNAME
  2

  9
$UCSORG
 10
0.0
 20
0.0
 30
0.0
  9
$UCSXDIR
 10
1.0
 20
0.0
 30
0.0
  9
$UCSYDIR
 10
0.0
 20
1.0
 30
0.0
  9
$UCSORTHOREF
  2

  9
$UCSORTHOVIEW
 70
     0
  9
$UCSORGTOP
 10
0.0
 20
0.0
 30
0.0
  9
$UCSORGBOTTOM
 10
0.0
 20
0.0
 30
0.0
  9
$UCSORGLEFT
 10
0.0
 20
0.0
 30
0.0
  9
$UCSORGRIGHT
 10
0.0
 20
0.0
 30
0.0
  9
$UCSORGFRONT
 10
0.0
 20
0.0
 30
0.0
  9
$UCSORGBACK
 10
0.0
 20
0.0
 30
0.0
  9
$PUCSBASE
  2

  9
$PUCSNAME
  2

  9
$PUCSORG
 10
0.0
 20
0.0
 30
0.0
  9
$PUCSXDIR
 10
1.0
 20
0.0
 30
0.0
  9
$PUCSYDIR
 10
0.0
 20
1.0
 30
0.0
  9
$PUCSORTHOREF
  2

  9
$PUCSORTHOVIEW
 70
     0
  9
$PUCSORGTOP
 10
0.0
 20
0.0
 30
0.0
  9
$PUCSORGBOTTOM
 10
0.0
 20
0.0
 30
0.0
  9
$PUCSORGLEFT
 10
0.0
 20
0.0
 30
0.0
  9
$PUCSORGRIGHT
 10
0.0
 20
0.0
 30
0.0
  9
$PUCSORGFRONT
 10
0.0
 20
0.0
 30
0.0
  9
$PUCSORGBACK
 10
0.0
 20
0.0
 30
0.0
  9
$USERI1
 70
     0
  9
$USERI2
 70
     0
  9
$USERI3
 70
     0
  9
$USERI4
 70
     0
  9
$USERI5
 70
     0
  9
$USERR1
 40
0.0
  9
$USERR2
 40
0.0
  9
$USERR3
 40
0.0
  9
$USERR4
 40
0.0
  9
$USERR5
 40
0.0
  9
$WORLDVIEW
 70
     1
  9
$SHADEDGE
 70
     3
  9
$SHADEDIF
 70
    70
  9
$TILEMODE
 70
     1
  9
$MAXACTVP
 70
    64
  9
$PINSBASE
 10
0.0
 20
0.0
 30
0.0
  9
$PLIMCHECK
 70
     0
  9
$PEXTMIN
 10
1.000000000000000E+20
 20
1.000000000000000E+20
 30
1.000000000000000E+20
  9
$PEXTMAX
 10
-1.000000000000000E+20
 20
-1.000000000000000E+20
 30
-1.000000000000000E+20
  9
$PLIMMIN
 10
0.0
 20
0.0
  9
$PLIMMAX
 10
12.0
 20
9.0
  9
$UNITMODE
 70
     0
  9
$VISRETAIN
 70
     1
  9
$PLINEGEN
 70
     0
  9
$PSLTSCALE
 70
     1
  9
$TREEDEPTH
 70
  3020
  9
$CMLSTYLE
  2
Standard
  9
$CMLJUST
 70
     0
  9
$CMLSCALE
 40
1.0
  9
$PROXYGRAPHICS
 70
     1
  9
$MEASUREMENT
 70
     0
  9
$CELWEIGHT
370
    -1
  9
$ENDCAPS
280
     0
  9
$JOINSTYLE
280
     0
  9
$LWDISPLAY
290
     0
  9
$INSUNITS
 70
     0
  9
$HYPERLINKBASE
  1

  9
$STYLESHEET
  1
MONOCHROME.CTB
  9
$XEDIT
290
     1
  9
$CEPSNTYPE
380
     0
  9
$PSTYLEMODE
290
     1
  9
$FINGERPRINTGUID
  2
{D88032C4-1185-41D3-97DD-7638FCF99E3F}
  9
$VERSIONGUID
  2
{FD711BD3-3C2D-4501-BC1F-A6B86D0D2DCC}
  9
$EXTNAMES
290
     1
  9
$PSVPSCALE
 40
0.0
  9
$OLESTARTUP
290
     0
  0
ENDSEC
  0
SECTION
  2
CLASSES
  0
CLASS
  1
ACDBDICTIONARYWDFLT
  2
AcDbDictionaryWithDefault
  3
ObjectDBX Classes
 90
        0
280
     0
281
     0
  0
CLASS
  1
DICTIONARYVAR
  2
AcDbDictionaryVar
  3
ObjectDBX Classes
 90
        0
280
     0
281
     0
  0
CLASS
  1
ACDBPLACEHOLDER
  2
AcDbPlaceHolder
  3
ObjectDBX Classes
 90
        0
280
     0
281
     0
  0
CLASS
  1
LAYOUT
  2
AcDbLayout
  3
ObjectDBX Classes
 90
        0
280
     0
281
     0
  0
ENDSEC
  0
SECTION
  2
TABLES
  0
TABLE
  2
VPORT
  5
8
330
0
100
AcDbSymbolTable
 70
     2
  0
VPORT
  5
BD33
330
8
100
AcDbSymbolTableRecord
100
AcDbViewportTableRecord
  2
*Active
 70
     0
 10
0.0
 20
0.0
 11
1.0
 21
1.0
 12
214.9986394144064
 22
138.3647750395351
 13
0.0
 23
0.0
 14
1.0
 24
1.0
 15
0.0
 25
0.0
 16
0.0
 26
0.0
 36
1.0
 17
0.0
 27
0.0
 37
0.0
 40
278.8913990448832
 41
1.571994715984147
 42
50.0
 43
0.0
 44
0.0
 50
0.0
 51
0.0
 71
     0
 72
   100
 73
     1
 74
     1
 75
     0
 76
     0
 77
     0
 78
     0
281
     0
 65
     1
110
0.0
120
0.0
130
0.0
111
1.0
121
0.0
131
0.0
112
0.0
122
1.0
132
0.0
 79
     0
146
0.0
  0
ENDTAB
  0
TABLE
  2
LTYPE
  5
5
330
0
100
AcDbSymbolTable
 70
     3
  0
LTYPE
  5
13
330
5
100
AcDbSymbolTableRecord
100
AcDbLinetypeTableRecord
  2
ByBlock
 70
     0
  3

 72
    65
 73
     0
 40
0.0
  0
LTYPE
  5
14
330
5
100
AcDbSymbolTableRecord
100
AcDbLinetypeTableRecord
  2
ByLayer
 70
     0
  3

 72
    65
 73
     0
 40
0.0
  0
LTYPE
  5
15
330
5
100
AcDbSymbolTableRecord
100
AcDbLinetypeTableRecord
  2
CONTINUOUS
 70
     0
  3
Solid line
 72
    65
 73
     0
 40
0.0
  0
LTYPE
  5
26
330
5
100
AcDbSymbolTableRecord
100
AcDbLinetypeTableRecord
  2
CENTER
 70
     0
  3
____ _ ____ _ ____ _ ____ _ ____ _ ____ _ ____
 72
    65
 73
     4
 40
0.6
 49
0.375
 74
     0
 49
-0.075
 74
     0
 49
0.075
 74
     0
 49
-0.075
 74
     0
  0
LTYPE
  5
4F7A
330
5
100
AcDbSymbolTableRecord
100
AcDbLinetypeTableRecord
  2
DASHED
 70
     0
  3
_ _ _ _ _ _ _ _ _ _ _ _ _ _ _ _ _ _ _ _ _ _ _ _
 72
    65
 73
     2
 40
0.375
 49
0.25
 74
     0
 49
-0.125
 74
     0
  0
ENDTAB
  0
TABLE
  2
LAYER
  5
2
330
0
100
AcDbSymbolTable
 70
    10
  0
LAYER
  5
10
330
2
100
AcDbSymbolTableRecord
100
AcDbLayerTableRecord
  2
0
 70
     0
 62
     7
  6
CONTINUOUS
370
    -3
390
F
  0
LAYER
  5
1D8
330
2
100
AcDbSymbolTableRecord
100
AcDbLayerTableRecord
  2
Defpoints
 70
     0
 62
     7
  6
CONTINUOUS
290
     0
370
    -3
390
F
  0
LAYER
  5
1D9
330
2
100
AcDbSymbolTableRecord
100
AcDbLayerTableRecord
  2
91000_TIP
 70
     0
 62
     7
  6
CONTINUOUS
370
    -3
390
F
  0
LAYER
  5
1DA
330
2
100
AcDbSymbolTableRecord
100
AcDbLayerTableRecord
  2
11000_Left
 70
     0
 62
     7
  6
CONTINUOUS
370
    -3
390
F
  0
LAYER
  5
1DB
330
2
100
AcDbSymbolTableRecord
100
AcDbLayerTableRecord
  2
10000_FRONT
 70
     0
 62
     7
  6
CONTINUOUS
370
    -3
390
F
  0
LAYER
  5
1DC
330
2
100
AcDbSymbolTableRecord
100
AcDbLayerTableRecord
  2
10100_FRONT_DIM
 70
     0
 62
     7
  6
CONTINUOUS
370
    -3
390
F
  0
LAYER
  5
1DD
330
2
100
AcDbSymbolTableRecord
100
AcDbLayerTableRecord
  2
90000_FRAME
 70
     0
 62
     7
  6
CONTINUOUS
370
    -3
390
F
  0
LAYER
  5
1DE
330
2
100
AcDbSymbolTableRecord
100
AcDbLayerTableRecord
  2
11100_LEFT_DIM
 70
     0
 62
     7
  6
CONTINUOUS
370
    -3
390
F
  0
LAYER
  5
ADDF
330
2
100
AcDbSymbolTableRecord
100
AcDbLayerTableRecord
  2
30000_Drilling
 70
     0
 62
     7
  6
CONTINUOUS
370
    -3
390
F
  0
LAYER
  5
ADE0
330
2
100
AcDbSymbolTableRecord
100
AcDbLayerTableRecord
  2
30100_Drilling_DIM
 70
     0
 62
     7
  6
CONTINUOUS
370
    -3
390
F
  0
ENDTAB
  0
TABLE
  2
STYLE
  5
3
330
0
100
AcDbSymbolTable
 70
     1
  0
STYLE
  5
11
330
3
100
AcDbSymbolTableRecord
100
AcDbTextStyleTableRecord
  2
Standard
 70
     0
 40
0.0
 41
1.0
 50
0.0
 71
     0
 42
0.2
  3
txt
  4

  0
ENDTAB
  0
TABLE
  2
VIEW
  5
6
330
0
100
AcDbSymbolTable
 70
     0
  0
ENDTAB
  0
TABLE
  2
UCS
  5
7
330
0
100
AcDbSymbolTable
 70
     0
  0
ENDTAB
  0
TABLE
  2
APPID
  5
9
330
0
100
AcDbSymbolTable
 70
     3
  0
APPID
  5
12
330
9
100
AcDbSymbolTableRecord
100
AcDbRegAppTableRecord
  2
ACAD
 70
     0
  0
APPID
  5
1E8
330
9
100
AcDbSymbolTableRecord
100
AcDbRegAppTableRecord
  2
AUSTER_ANSICHT
 70
     0
  0
APPID
  5
1E9
330
9
100
AcDbSymbolTableRecord
100
AcDbRegAppTableRecord
  2
AUSTER_FOLIE
 70
     0
  0
ENDTAB
  0
TABLE
  2
DIMSTYLE
  5
A
330
0
100
AcDbSymbolTable
 70
     3
100
AcDbDimStyleTable
 71
     3
340
1E7
340
3A1A
340
BA
  0
DIMSTYLE
105
BA
330
A
100
AcDbSymbolTableRecord
100
AcDbDimStyleTableRecord
  2
Standard
 70
     0
340
11
  0
DIMSTYLE
105
1E7
102
{ACAD_REACTORS
330
BABD
330
BAB0
330
BAA3
330
BA96
330
BB45
330
BB38
330
BB29
330
BB1A
102
}
330
A
100
AcDbSymbolTableRecord
100
AcDbDimStyleTableRecord
  2
DSTYLE1
 70
     0
 41
3.0
 42
0.0
 44
1.0
 73
     0
 74
     0
 77
     1
 78
     3
140
2.5
143
0.039370079
147
1.0
271
     3
272
     3
274
     0
279
     2
340
11
  0
DIMSTYLE
105
3A1A
102
{ACAD_REACTORS
330
BA3C
330
BA3B
330
BA3A
102
}
330
A
100
AcDbSymbolTableRecord
100
AcDbDimStyleTableRecord
  2
H035
 70
     0
 40
0.0
 41
3.5
 42
0.0
 43
3.75
 44
2.0
 73
     0
 74
     0
 77
     1
 78
     8
140
3.5
141
2.5
143
0.039
147
0.5
171
     4
172
     1
176
   256
177
     7
178
     7
271
     0
272
     2
273
     8
274
     4
340
11
  0
ENDTAB
  0
TABLE
  2
BLOCK_RECORD
  5
1
330
0
100
AcDbSymbolTable
 70
    12
  0
BLOCK_RECORD
  5
20
330
1
100
AcDbSymbolTableRecord
100
AcDbBlockTableRecord
  2
*Model_Space
340
23
  0
BLOCK_RECORD
  5
1C
330
1
100
AcDbSymbolTableRecord
100
AcDbBlockTableRecord
  2
*Paper_Space
340
1F
  0
BLOCK_RECORD
  5
3A
330
1
100
AcDbSymbolTableRecord
100
AcDbBlockTableRecord
  2
SIEMENS_OUTLINE_BL0
340
0
102
{BLKREFS
331
AA
102
}
  0
BLOCK_RECORD
  5
BA3D
330
1
100
AcDbSymbolTableRecord
100
AcDbBlockTableRecord
  2
*D1
340
0
  0
BLOCK_RECORD
  5
BA49
330
1
100
AcDbSymbolTableRecord
100
AcDbBlockTableRecord
  2
*D2
340
0
  0
BLOCK_RECORD
  5
BA55
330
1
100
AcDbSymbolTableRecord
100
AcDbBlockTableRecord
  2
*D3
340
0
  0
BLOCK_RECORD
  5
BA97
330
1
100
AcDbSymbolTableRecord
100
AcDbBlockTableRecord
  2
*D4
340
0
  0
BLOCK_RECORD
  5
BAA4
330
1
100
AcDbSymbolTableRecord
100
AcDbBlockTableRecord
  2
*D5
340
0
  0
BLOCK_RECORD
  5
BAB1
330
1
100
AcDbSymbolTableRecord
100
AcDbBlockTableRecord
  2
*D6
340
0
  0
BLOCK_RECORD
  5
BABE
330
1
100
AcDbSymbolTableRecord
100
AcDbBlockTableRecord
  2
*D7
340
0
  0
BLOCK_RECORD
  5
BB1B
330
1
100
AcDbSymbolTableRecord
100
AcDbBlockTableRecord
  2
*D8
340
0
  0
BLOCK_RECORD
  5
BB2A
330
1
100
AcDbSymbolTableRecord
100
AcDbBlockTableRecord
  2
*D9
340
0
  0
BLOCK_RECORD
  5
BB39
330
1
100
AcDbSymbolTableRecord
100
AcDbBlockTableRecord
  2
*D10
340
0
  0
BLOCK_RECORD
  5
BB46
330
1
100
AcDbSymbolTableRecord
100
AcDbBlockTableRecord
  2
*D11
340
0
  0
ENDTAB
  0
ENDSEC
  0
SECTION
  2
BLOCKS
  0
BLOCK
  5
21
330
20
100
AcDbEntity
  8
0
100
AcDbBlockBegin
  2
*Model_Space
 70
     0
 10
0.0
 20
0.0
 30
0.0
  3
*Model_Space
  1

  0
ENDBLK
  5
22
330
20
100
AcDbEntity
  8
0
100
AcDbBlockEnd
  0
BLOCK
  5
1D
330
1C
100
AcDbEntity
 67
     1
  8
0
100
AcDbBlockBegin
  2
*Paper_Space
 70
     0
 10
0.0
 20
0.0
 30
0.0
  3
*Paper_Space
  1

  0
ENDBLK
  5
1E
330
1C
100
AcDbEntity
 67
     1
  8
0
100
AcDbBlockEnd
  0
BLOCK
  5
3B
330
3A
100
AcDbEntity
  8
0
  6
Continuous
 62
     7
100
AcDbBlockBegin
  2
SIEMENS_OUTLINE_BL0
 70
     0
 10
0.0
 20
0.0
 30
0.0
  3
SIEMENS_OUTLINE_BL0
  1

  0
LINE
  5
3C
330
3A
100
AcDbEntity
  8
0
  6
Continuous
 62
     7
100
AcDbLine
 10
289.1235341257
 20
21.4969115175
 30
0.0
 11
289.1235341257
 21
16.7436424342
 31
0.0
  0
LINE
  5
3D
330
3A
100
AcDbEntity
  8
0
  6
Continuous
 62
     7
100
AcDbLine
 10
290.5495148507
 20
21.4969115175
 30
0.0
 11
290.5495148507
 21
16.7436424342
 31
0.0
  0
LINE
  5
3E
330
3A
100
AcDbEntity
  8
0
  6
Continuous
 62
     7
100
AcDbLine
 10
289.1235341257
 20
16.7436424342
 30
0.0
 11
290.5495148507
 21
16.7436424342
 31
0.0
  0
LINE
  5
3F
330
3A
100
AcDbEntity
  8
0
  6
Continuous
 62
     7
100
AcDbLine
 10
289.1235341257
 20
21.4969115175
 30
0.0
 11
290.5495148507
 21
21.4969115175
 31
0.0
  0
LINE
  5
40
330
3A
100
AcDbEntity
  8
0
  6
Continuous
 62
     7
100
AcDbLine
 10
291.6427667399
 20
21.4969115175
 30
0.0
 11
291.6427667399
 21
16.7436424342
 31
0.0
  0
LINE
  5
41
330
3A
100
AcDbEntity
  8
0
  6
Continuous
 62
     7
100
AcDbLine
 10
291.6427667399
 20
16.7436424342
 30
0.0
 11
295.2077185523
 21
16.7436424342
 31
0.0
  0
LINE
  5
42
330
3A
100
AcDbEntity
  8
0
  6
Continuous
 62
     7
100
AcDbLine
 10
295.2077185523
 20
17.64676356
 30
0.0
 11
293.021214774
 21
17.64676356
 31
0.0
  0
LINE
  5
43
330
3A
100
AcDbEntity
  8
0
  6
Continuous
 62
     7
100
AcDbLine
 10
295.2077185523
 20
17.64676356
 30
0.0
 11
295.2077185523
 21
16.7436424342
 31
0.0
  0
LINE
  5
44
330
3A
100
AcDbEntity
  8
0
  6
Continuous
 62
     7
100
AcDbLine
 10
295.1601858615
 20
21.4969115175
 30
0.0
 11
291.6427667399
 21
21.4969115175
 31
0.0
  0
LINE
  5
45
330
3A
100
AcDbEntity
  8
0
  6
Continuous
 62
     7
100
AcDbLine
 10
295.1601858615
 20
20.6175567371
 30
0.0
 11
293.021214774
 21
20.6175567371
 31
0.0
  0
LINE
  5
46
330
3A
100
AcDbEntity
  8
0
  6
Continuous
 62
     7
100
AcDbLine
 10
295.1601858615
 20
21.4969115175
 30
0.0
 11
295.1601858615
 21
20.6175567371
 31
0.0
  0
LINE
  5
47
330
3A
100
AcDbEntity
  8
0
  6
Continuous
 62
     7
100
AcDbLine
 10
294.8749897165
 20
18.7637817946
 30
0.0
 11
293.021214774
 21
18.7637817946
 31
0.0
  0
LINE
  5
48
330
3A
100
AcDbEntity
  8
0
  6
Continuous
 62
     7
100
AcDbLine
 10
294.8749897165
 20
19.5480711933
 30
0.0
 11
294.8749897165
 21
18.7637817946
 31
0.0
  0
LINE
  5
49
330
3A
100
AcDbEntity
  8
0
  6
Continuous
 62
     7
100
AcDbLine
 10
294.8749897165
 20
19.5480711933
 30
0.0
 11
293.021214774
 21
19.5480711933
 31
0.0
  0
LINE
  5
4A
330
3A
100
AcDbEntity
  8
0
  6
Continuous
 62
     7
100
AcDbLine
 10
293.021214774
 20
20.6175567371
 30
0.0
 11
293.021214774
 21
19.5480711933
 31
0.0
  0
LINE
  5
4B
330
3A
100
AcDbEntity
  8
0
  6
Continuous
 62
     7
100
AcDbLine
 10
293.021214774
 20
18.7637817946
 30
0.0
 11
293.021214774
 21
17.64676356
 31
0.0
  0
LINE
  5
4C
330
3A
100
AcDbEntity
  8
0
  6
Continuous
 62
     7
100
AcDbLine
 10
296.0157742965
 20
16.7436424342
 30
0.0
 11
296.0157742965
 21
21.4969115175
 31
0.0
  0
LINE
  5
4D
330
3A
100
AcDbEntity
  8
0
  6
Continuous
 62
     7
100
AcDbLine
 10
296.0157742965
 20
16.7436424342
 30
0.0
 11
296.9664281131
 21
16.7436424342
 31
0.0
  0
LINE
  5
4E
330
3A
100
AcDbEntity
  8
0
  6
Continuous
 62
     7
100
AcDbLine
 10
301.8622952689
 20
21.4969115175
 30
0.0
 11
301.8622952689
 21
16.7436424342
 31
0.0
  0
LINE
  5
4F
330
3A
100
AcDbEntity
  8
0
  6
Continuous
 62
     7
100
AcDbLine
 10
301.8622952689
 20
16.7436424342
 30
0.0
 11
300.4838472348
 21
16.7436424342
 31
0.0
  0
LINE
  5
50
330
3A
100
AcDbEntity
  8
0
  6
Continuous
 62
     7
100
AcDbLine
 10
298.2973434565
 20
16.6961097434
 30
0.0
 11
299.1529318914
 21
16.6961097434
 31
0.0
  0
LINE
  5
51
330
3A
100
AcDbEntity
  8
0
  6
Continuous
 62
     7
100
AcDbLine
 10
298.2973434565
 20
16.6961097434
 30
0.0
 11
296.9664281131
 21
19.7857346475
 31
0.0
  0
LINE
  5
52
330
3A
100
AcDbEntity
  8
0
  6
Continuous
 62
     7
100
AcDbLine
 10
296.9664281131
 20
16.7436424342
 30
0.0
 11
296.9664281131
 21
19.7857346475
 31
0.0
  0
LINE
  5
53
330
3A
100
AcDbEntity
  8
0
  6
Continuous
 62
     7
100
AcDbLine
 10
300.4838472348
 20
19.8332673383
 30
0.0
 11
299.1529318914
 21
16.6961097434
 31
0.0
  0
LINE
  5
54
330
3A
100
AcDbEntity
  8
0
  6
Continuous
 62
     7
100
AcDbLine
 10
297.7269511665
 20
21.4969115175
 30
0.0
 11
296.0157742965
 21
21.4969115175
 31
0.0
  0
LINE
  5
55
330
3A
100
AcDbEntity
  8
0
  6
Continuous
 62
     7
100
AcDbLine
 10
301.8622952689
 20
21.4969115175
 30
0.0
 11
300.1511183989
 21
21.4969115175
 31
0.0
  0
LINE
  5
56
330
3A
100
AcDbEntity
  8
0
  6
Continuous
 62
     7
100
AcDbLine
 10
297.7269511665
 20
21.4969115175
 30
0.0
 11
298.9628011281
 21
18.5974173767
 31
0.0
  0
LINE
  5
57
330
3A
100
AcDbEntity
  8
0
  6
Continuous
 62
     7
100
AcDbLine
 10
300.1511183989
 20
21.4969115175
 30
0.0
 11
298.9628011281
 21
18.5974173767
 31
0.0
  0
LINE
  5
58
330
3A
100
AcDbEntity
  8
0
  6
Continuous
 62
     7
100
AcDbLine
 10
300.4838472348
 20
19.8332673383
 30
0.0
 11
300.4838472348
 21
16.7436424342
 31
0.0
  0
LINE
  5
59
330
3A
100
AcDbEntity
  8
0
  6
Continuous
 62
     7
100
AcDbLine
 10
302.9555471581
 20
21.4969115175
 30
0.0
 11
302.9555471581
 21
16.7436424342
 31
0.0
  0
LINE
  5
5A
330
3A
100
AcDbEntity
  8
0
  6
Continuous
 62
     7
100
AcDbLine
 10
302.9555471581
 20
16.7436424342
 30
0.0
 11
306.5204989705
 21
16.7436424342
 31
0.0
  0
LINE
  5
5B
330
3A
100
AcDbEntity
  8
0
  6
Continuous
 62
     7
100
AcDbLine
 10
306.5204989705
 20
17.64676356
 30
0.0
 11
304.3339951922
 21
17.64676356
 31
0.0
  0
LINE
  5
5C
330
3A
100
AcDbEntity
  8
0
  6
Continuous
 62
     7
100
AcDbLine
 10
306.5204989705
 20
17.64676356
 30
0.0
 11
306.5204989705
 21
16.7436424342
 31
0.0
  0
LINE
  5
5D
330
3A
100
AcDbEntity
  8
0
  6
Continuous
 62
     7
100
AcDbLine
 10
306.4729662797
 20
21.4969115175
 30
0.0
 11
302.9555471581
 21
21.4969115175
 31
0.0
  0
LINE
  5
5E
330
3A
100
AcDbEntity
  8
0
  6
Continuous
 62
     7
100
AcDbLine
 10
306.4729662797
 20
20.6175567371
 30
0.0
 11
304.3339951922
 21
20.6175567371
 31
0.0
  0
LINE
  5
5F
330
3A
100
AcDbEntity
  8
0
  6
Continuous
 62
     7
100
AcDbLine
 10
306.4729662797
 20
21.4969115175
 30
0.0
 11
306.4729662797
 21
20.6175567371
 31
0.0
  0
LINE
  5
60
330
3A
100
AcDbEntity
  8
0
  6
Continuous
 62
     7
100
AcDbLine
 10
306.1877701347
 20
18.7637817946
 30
0.0
 11
304.3339951922
 21
18.7637817946
 31
0.0
  0
LINE
  5
61
330
3A
100
AcDbEntity
  8
0
  6
Continuous
 62
     7
100
AcDbLine
 10
306.1877701347
 20
19.5480711933
 30
0.0
 11
306.1877701347
 21
18.7637817946
 31
0.0
  0
LINE
  5
62
330
3A
100
AcDbEntity
  8
0
  6
Continuous
 62
     7
100
AcDbLine
 10
306.1877701347
 20
19.5480711933
 30
0.0
 11
304.3339951922
 21
19.5480711933
 31
0.0
  0
LINE
  5
63
330
3A
100
AcDbEntity
  8
0
  6
Continuous
 62
     7
100
AcDbLine
 10
304.3339951922
 20
20.6175567371
 30
0.0
 11
304.3339951922
 21
19.5480711933
 31
0.0
  0
LINE
  5
64
330
3A
100
AcDbEntity
  8
0
  6
Continuous
 62
     7
100
AcDbLine
 10
304.3339951922
 20
18.7637817946
 30
0.0
 11
304.3339951922
 21
17.64676356
 31
0.0
  0
LINE
  5
65
330
3A
100
AcDbEntity
  8
0
  6
Continuous
 62
     7
100
AcDbLine
 10
307.3047883693
 20
16.7436424342
 30
0.0
 11
307.3047883693
 21
21.4969115175
 31
0.0
  0
LINE
  5
66
330
3A
100
AcDbEntity
  8
0
  6
Continuous
 62
     7
100
AcDbLine
 10
311.4876651625
 20
21.4969115175
 30
0.0
 11
311.4876651625
 21
16.7436424342
 31
0.0
  0
LINE
  5
67
330
3A
100
AcDbEntity
  8
0
  6
Continuous
 62
     7
100
AcDbLine
 10
307.3047883693
 20
16.7436424342
 30
0.0
 11
308.2554421859
 21
16.7436424342
 31
0.0
  0
LINE
  5
68
330
3A
100
AcDbEntity
  8
0
  6
Continuous
 62
     7
100
AcDbLine
 10
311.4876651625
 20
21.4969115175
 30
0.0
 11
310.5370113459
 21
21.4969115175
 31
0.0
  0
LINE
  5
69
330
3A
100
AcDbEntity
  8
0
  6
Continuous
 62
     7
100
AcDbLine
 10
308.8496008213
 20
21.4969115175
 30
0.0
 11
307.3047883693
 21
21.4969115175
 31
0.0
  0
LINE
  5
6A
330
3A
100
AcDbEntity
  8
0
  6
Continuous
 62
     7
100
AcDbLine
 10
311.4876651625
 20
16.7436424342
 30
0.0
 11
309.9666190559
 21
16.7436424342
 31
0.0
  0
LINE
  5
6B
330
3A
100
AcDbEntity
  8
0
  6
Continuous
 62
     7
100
AcDbLine
 10
309.9666190559
 20
16.7436424342
 30
0.0
 11
308.2554421859
 21
19.7857346475
 31
0.0
  0
LINE
  5
6C
330
3A
100
AcDbEntity
  8
0
  6
Continuous
 62
     7
100
AcDbLine
 10
308.8496008213
 20
21.4969115175
 30
0.0
 11
310.5370113459
 21
18.5498846858
 31
0.0
  0
LINE
  5
6D
330
3A
100
AcDbEntity
  8
0
  6
Continuous
 62
     7
100
AcDbLine
 10
310.5370113459
 20
21.4969115175
 30
0.0
 11
310.5370113459
 21
18.5498846858
 31
0.0
  0
LINE
  5
6E
330
3A
100
AcDbEntity
  8
0
  6
Continuous
 62
     7
100
AcDbLine
 10
308.2554421859
 20
16.7436424342
 30
0.0
 11
308.2554421859
 21
19.7857346475
 31
0.0
  0
LINE
  5
6F
330
3A
100
AcDbEntity
  8
0
  6
Continuous
 62
     7
100
AcDbLine
 10
312.2957209067
 20
16.8387078159
 30
0.0
 11
312.2957209067
 21
17.7893616325
 31
0.0
  0
LINE
  5
70
330
3A
100
AcDbEntity
  8
0
  6
Continuous
 62
     7
100
AcDbLine
 10
315.623009265
 20
20.49872501
 30
0.0
 11
315.623009265
 21
21.4493788266
 31
0.0
  0
ARC
  5
71
330
3A
100
AcDbEntity
  8
0
  6
Continuous
 62
     7
100
AcDbCircle
 10
314.0003620317
 20
18.7008009792
 30
0.0
 40
1.111619360599997
100
AcDbArc
 50
277.7099956934
 51
295.6884927746
  0
ARC
  5
72
330
3A
100
AcDbEntity
  8
0
  6
Continuous
 62
     7
100
AcDbCircle
 10
314.2846720145
 20
17.9759752156
 30
0.0
 40
0.3401689265
100
AcDbArc
 50
305.503221255
 51
72.46528985229999
  0
ARC
  5
73
330
3A
100
AcDbEntity
  8
0
  6
Continuous
 62
     7
100
AcDbCircle
 10
313.7186782063
 20
21.3776821252
 30
0.0
 40
4.756794641099999
100
AcDbArc
 50
252.5939200548001
 51
280.9816604256
  0
ARC
  5
74
330
3A
100
AcDbEntity
  8
0
  6
Continuous
 62
     7
100
AcDbCircle
 10
314.1735135694
 20
18.7596683887
 30
0.0
 40
2.100726595299998
100
AcDbArc
 50
282.405835852
 51
311.8644433928
  0
ARC
  5
75
330
3A
100
AcDbEntity
  8
0
  6
Continuous
 62
     7
100
AcDbCircle
 10
313.8999492223
 20
20.3680101102
 30
0.0
 40
0.3029626476
100
AcDbArc
 50
154.4400348282
 51
221.8201698801
  0
ARC
  5
76
330
3A
100
AcDbEntity
  8
0
  6
Continuous
 62
     7
100
AcDbCircle
 10
313.9791703737
 20
20.2887889588
 30
0.0
 40
0.4103089737
100
AcDbArc
 50
102.8287828681
 51
149.2259639003
  0
ARC
  5
77
330
3A
100
AcDbEntity
  8
0
  6
Continuous
 62
     7
100
AcDbCircle
 10
314.3961972093
 20
18.546453629
 30
0.0
 40
2.201836557
100
AcDbArc
 50
84.0400061857
 51
103.3427657870999
  0
ARC
  5
78
330
3A
100
AcDbEntity
  8
0
  6
Continuous
 62
     7
100
AcDbCircle
 10
314.0552333846
 20
16.1290897051
 30
0.0
 40
4.642373736499997
100
AcDbArc
 50
70.2625858546
 51
82.95241863799999
  0
ARC
  5
79
330
3A
100
AcDbEntity
  8
0
  6
Continuous
 62
     7
100
AcDbCircle
 10
313.5412151824001
 20
20.8007125947
 30
0.0
 40
3.258755990899997
100
AcDbArc
 50
247.5300206145
 51
280.7579522143
  0
ARC
  5
7A
330
3A
100
AcDbEntity
  8
0
  6
Continuous
 62
     7
100
AcDbCircle
 10
307.1562487104
 20
2.5491926343
 30
0.0
 40
17.3316084133
100
AcDbArc
 50
65.34146746500001
 51
67.39977707359999
  0
ARC
  5
7B
330
3A
100
AcDbEntity
  8
0
  6
Continuous
 62
     7
100
AcDbCircle
 10
317.9521111158
 20
28.3416189974
 30
0.0
 40
10.6291642039
100
AcDbArc
 50
242.8620101252001
 51
247.1042029186
  0
ARC
  5
7C
330
3A
100
AcDbEntity
  8
0
  6
Continuous
 62
     7
100
AcDbCircle
 10
314.0972098893
 20
20.8076875004
 30
0.0
 40
2.166291629199998
100
AcDbArc
 50
227.3119280794
 51
242.7040315235
  0
ARC
  5
7D
330
3A
100
AcDbEntity
  8
0
  6
Continuous
 62
     7
100
AcDbCircle
 10
313.4931790796
 20
20.1020098596
 30
0.0
 40
1.238521734
100
AcDbArc
 50
194.7952194236
 51
225.7176549047
  0
ARC
  5
7E
330
3A
100
AcDbEntity
  8
0
  6
Continuous
 62
     7
100
AcDbCircle
 10
313.5553372138
 20
20.1422298287
 30
0.0
 40
1.309092072899999
100
AcDbArc
 50
164.1974860461
 51
195.8025139539
  0
ARC
  5
7F
330
3A
100
AcDbEntity
  8
0
  6
Continuous
 62
     7
100
AcDbCircle
 10
314.1123609345001
 20
19.2539626688
 30
0.0
 40
2.366924815299999
100
AcDbArc
 50
86.22180229280001
 51
120.4272602309
  0
ARC
  5
80
330
3A
100
AcDbEntity
  8
0
  6
Continuous
 62
     7
100
AcDbCircle
 10
313.8435041519
 20
12.5577948477
 30
0.0
 40
9.0679051661
100
AcDbArc
 50
78.68270492259998
 51
87.3147599624
  0
ARC
  5
81
330
3A
100
AcDbEntity
  8
0
  6
Continuous
 62
     7
100
AcDbCircle
 10
313.3874349735
 20
20.2497375912
 30
0.0
 40
1.119747444
100
AcDbArc
 50
142.813917903
 51
167.1522951417
  0
ARC
  5
82
330
3A
100
AcDbEntity
  8
0
  6
Continuous
 62
     7
100
AcDbCircle
 10
313.7327443151
 20
19.9431558946
 30
0.0
 40
1.580546684499998
100
AcDbArc
 50
121.2140948535
 51
141.5254768286
  0
ARC
  5
83
330
3A
100
AcDbEntity
  8
0
  6
Continuous
 62
     7
100
AcDbCircle
 10
314.3099186807
 20
20.7542132232
 30
0.0
 40
0.8661276051999998
100
AcDbArc
 50
222.7760387596
 51
239.0362434679
  0
ARC
  5
84
330
3A
100
AcDbEntity
  8
0
  6
Continuous
 62
     7
100
AcDbCircle
 10
311.8032091024
 20
13.4239410246
 30
0.0
 40
6.858773576299999
100
AcDbArc
 50
59.90202725600001
 51
68.2036481279
  0
ARC
  5
85
330
3A
100
AcDbEntity
  8
0
  6
Continuous
 62
     7
100
AcDbCircle
 10
315.2117035963
 20
22.3498275319
 30
0.0
 40
2.698741017099999
100
AcDbArc
 50
240.0481997804
 51
251.3779673736999
  0
ARC
  5
86
330
3A
100
AcDbEntity
  8
0
  6
Continuous
 62
     7
100
AcDbCircle
 10
314.5462464295
 20
18.1929289165
 30
0.0
 40
1.4334474881
100
AcDbArc
 50
315.8904553224
 51
333.5229264373
  0
ARC
  5
87
330
3A
100
AcDbEntity
  8
0
  6
Continuous
 62
     7
100
AcDbCircle
 10
314.5508846732
 20
18.1395217664
 30
0.0
 40
1.406228711899998
100
AcDbArc
 50
335.3867972702
 51
24.3915119402
  0
ARC
  5
88
330
3A
100
AcDbEntity
  8
0
  6
Continuous
 62
     7
100
AcDbCircle
 10
314.4786797697
 20
18.0616650746
 30
0.0
 40
1.504702514799999
100
AcDbArc
 50
25.95629166050001
 51
59.4834829668
  0
LINE
  5
89
330
3A
100
AcDbEntity
  8
0
  6
Continuous
 62
     7
100
AcDbLine
 10
284.7029938783
 20
16.8387078159
 30
0.0
 11
284.7029938783
 21
17.7893616325
 31
0.0
  0
LINE
  5
8A
330
3A
100
AcDbEntity
  8
0
  6
Continuous
 62
     7
100
AcDbLine
 10
288.0302822366
 20
20.49872501
 30
0.0
 11
288.0302822366
 21
21.4493788266
 31
0.0
  0
ARC
  5
8B
330
3A
100
AcDbEntity
  8
0
  6
Continuous
 62
     7
100
AcDbCircle
 10
286.4076350033
 20
18.7008009792
 30
0.0
 40
1.111619360599997
100
AcDbArc
 50
277.7099956934
 51
295.6884927746
  0
ARC
  5
8C
330
3A
100
AcDbEntity
  8
0
  6
Continuous
 62
     7
100
AcDbCircle
 10
286.691944986
 20
17.9759752156
 30
0.0
 40
0.3401689265
100
AcDbArc
 50
305.5032212556
 51
72.4652898515
  0
ARC
  5
8D
330
3A
100
AcDbEntity
  8
0
  6
Continuous
 62
     7
100
AcDbCircle
 10
286.1259511779
 20
21.3776821252
 30
0.0
 40
4.756794641099999
100
AcDbArc
 50
252.5939200545
 51
280.9816604253
  0
ARC
  5
8E
330
3A
100
AcDbEntity
  8
0
  6
Continuous
 62
     7
100
AcDbCircle
 10
286.580786541
 20
18.7596683887
 30
0.0
 40
2.100726595299998
100
AcDbArc
 50
282.4058358513
 51
311.8644433923
  0
ARC
  5
8F
330
3A
100
AcDbEntity
  8
0
  6
Continuous
 62
     7
100
AcDbCircle
 10
286.3072221939
 20
20.3680101102
 30
0.0
 40
0.3029626476
100
AcDbArc
 50
154.4400348282
 51
221.8201698801
  0
ARC
  5
90
330
3A
100
AcDbEntity
  8
0
  6
Continuous
 62
     7
100
AcDbCircle
 10
286.3864433453
 20
20.2887889588
 30
0.0
 40
0.4103089737
100
AcDbArc
 50
102.8287828727
 51
149.2259639027
  0
ARC
  5
91
330
3A
100
AcDbEntity
  8
0
  6
Continuous
 62
     7
100
AcDbCircle
 10
286.8034701809
 20
18.546453629
 30
0.0
 40
2.201836557
100
AcDbArc
 50
84.0400061859
 51
103.3427657872
  0
ARC
  5
92
330
3A
100
AcDbEntity
  8
0
  6
Continuous
 62
     7
100
AcDbCircle
 10
286.4625063562
 20
16.1290897051
 30
0.0
 40
4.642373736499997
100
AcDbArc
 50
70.2625858546
 51
82.9524186379
  0
ARC
  5
93
330
3A
100
AcDbEntity
  8
0
  6
Continuous
 62
     7
100
AcDbCircle
 10
285.948488154
 20
20.8007125947
 30
0.0
 40
3.258755990899997
100
AcDbArc
 50
247.5300206148
 51
280.7579522145
  0
ARC
  5
94
330
3A
100
AcDbEntity
  8
0
  6
Continuous
 62
     7
100
AcDbCircle
 10
279.563521682
 20
2.5491926343
 30
0.0
 40
17.3316084133
100
AcDbArc
 50
65.34146746500001
 51
67.39977707359999
  0
ARC
  5
95
330
3A
100
AcDbEntity
  8
0
  6
Continuous
 62
     7
100
AcDbCircle
 10
290.3593840874
 20
28.3416189974
 30
0.0
 40
10.6291642039
100
AcDbArc
 50
242.8620101252001
 51
247.1042029185
  0
ARC
  5
96
330
3A
100
AcDbEntity
  8
0
  6
Continuous
 62
     7
100
AcDbCircle
 10
286.5044828608
 20
20.8076875004
 30
0.0
 40
2.166291629199998
100
AcDbArc
 50
227.3119280794
 51
242.7040315235
  0
ARC
  5
97
330
3A
100
AcDbEntity
  8
0
  6
Continuous
 62
     7
100
AcDbCircle
 10
285.9004520512
 20
20.1020098596
 30
0.0
 40
1.238521734
100
AcDbArc
 50
194.7952194234
 51
225.7176549042
  0
ARC
  5
98
330
3A
100
AcDbEntity
  8
0
  6
Continuous
 62
     7
100
AcDbCircle
 10
286.519633906
 20
19.2539626688
 30
0.0
 40
2.366924815299999
100
AcDbArc
 50
86.22180229280001
 51
120.4272602309
  0
ARC
  5
99
330
3A
100
AcDbEntity
  8
0
  6
Continuous
 62
     7
100
AcDbCircle
 10
286.2507771235
 20
12.5577948477
 30
0.0
 40
9.0679051661
100
AcDbArc
 50
78.68270492259998
 51
87.3147599624
  0
ARC
  5
9A
330
3A
100
AcDbEntity
  8
0
  6
Continuous
 62
     7
100
AcDbCircle
 10
286.1400172867
 20
19.9431558946
 30
0.0
 40
1.580546684599998
100
AcDbArc
 50
121.2140948541
 51
141.525476829
  0
ARC
  5
9B
330
3A
100
AcDbEntity
  8
0
  6
Continuous
 62
     7
100
AcDbCircle
 10
286.7171916523
 20
20.7542132232
 30
0.0
 40
0.8661276051999998
100
AcDbArc
 50
222.7760387596
 51
239.0362434679
  0
ARC
  5
9C
330
3A
100
AcDbEntity
  8
0
  6
Continuous
 62
     7
100
AcDbCircle
 10
284.210482074
 20
13.4239410246
 30
0.0
 40
6.858773576299999
100
AcDbArc
 50
59.90202725620001
 51
68.20364812820002
  0
ARC
  5
9D
330
3A
100
AcDbEntity
  8
0
  6
Continuous
 62
     7
100
AcDbCircle
 10
287.6189765678
 20
22.3498275319
 30
0.0
 40
2.698741017099999
100
AcDbArc
 50
240.0481997804
 51
251.3779673734
  0
ARC
  5
9E
330
3A
100
AcDbEntity
  8
0
  6
Continuous
 62
     7
100
AcDbCircle
 10
286.953519401
 20
18.1929289165
 30
0.0
 40
1.4334474881
100
AcDbArc
 50
315.8904553226
 51
333.5229264375
  0
ARC
  5
9F
330
3A
100
AcDbEntity
  8
0
  6
Continuous
 62
     7
100
AcDbCircle
 10
286.9581576447
 20
18.1395217664
 30
0.0
 40
1.406228711899998
100
AcDbArc
 50
335.3867972703
 51
24.3915119403
  0
ARC
  5
A0
330
3A
100
AcDbEntity
  8
0
  6
Continuous
 62
     7
100
AcDbCircle
 10
286.8859527412
 20
18.0616650746
 30
0.0
 40
1.504702514699999
100
AcDbArc
 50
25.9562916611
 51
59.4834829676
  0
LINE
  5
A1
330
3A
100
AcDbEntity
  8
0
  6
Continuous
 62
     7
100
AcDbLine
 10
284.8948224676
 20
20.9161059766
 30
0.0
 11
285.1688882922
 21
21.1901790542
 31
0.0
  0
ARC
  5
A2
330
3A
100
AcDbEntity
  8
0
  6
Continuous
 62
     7
100
AcDbCircle
 10
285.9626101853
 20
20.1422298287
 30
0.0
 40
1.309092072899999
100
AcDbArc
 50
164.1974860461
 51
195.8025139539
  0
ARC
  5
A3
330
3A
100
AcDbEntity
  8
0
  6
Continuous
 62
     7
100
AcDbCircle
 10
285.7947079451
 20
20.2497375912
 30
0.0
 40
1.119747444
100
AcDbArc
 50
142.813917903
 51
167.1522951417
  0
ENDBLK
  5
A4
330
3A
100
AcDbEntity
  8
0
100
AcDbBlockEnd
  0
BLOCK
  5
BA47
330
BA3D
100
AcDbEntity
  8
0
100
AcDbBlockBegin
  2
*D1
 70
     1
 10
0.0
 20
0.0
 30
0.0
  3
*D1
  1

  0
LINE
  5
BCEE
330
BA3D
100
AcDbEntity
  8
30100_Drilling_DIM
 62
     7
370
    -2
100
AcDbLine
 10
399.3509616035971
 20
244.7482462647648
 30
0.0
 11
399.3509616035971
 21
253.9949703923071
 31
0.0
  0
LINE
  5
BCEF
330
BA3D
100
AcDbEntity
  8
30100_Drilling_DIM
 62
     7
370
    -2
100
AcDbLine
 10
369.351001603597
 20
89.85724626476489
 30
0.0
 11
369.351001603597
 21
253.9949703923071
 31
0.0
  0
LINE
  5
BCF0
330
BA3D
100
AcDbEntity
  8
30100_Drilling_DIM
370
    -2
100
AcDbLine
 10
395.850961603597
 20
251.9949703923071
 30
0.0
 11
372.851001603597
 21
251.9949703923071
 31
0.0
  0
SOLID
  5
BCF1
330
BA3D
100
AcDbEntity
  8
30100_Drilling_DIM
100
AcDbTrace
 10
395.850961603597
 20
252.5783037256404
 30
0.0
 11
395.850961603597
 21
251.4116370589738
 31
0.0
 12
399.3509616035971
 22
251.9949703923071
 32
0.0
 13
399.3509616035971
 23
251.9949703923071
 33
0.0
  0
SOLID
  5
BCF2
330
BA3D
100
AcDbEntity
  8
30100_Drilling_DIM
100
AcDbTrace
 10
372.851001603597
 20
252.5783037256404
 30
0.0
 11
372.851001603597
 21
251.4116370589738
 31
0.0
 12
369.351001603597
 22
251.9949703923071
 32
0.0
 13
369.351001603597
 23
251.9949703923071
 33
0.0
  0
MTEXT
  5
BCF3
330
BA3D
100
AcDbEntity
  8
30100_Drilling_DIM
 62
     7
370
    13
100
AcDbMText
 10
384.350981603597
 20
254.2449703923071
 30
0.0
 40
3.5
 41
0.0
 71
     5
 72
     1
  1
\A1;30
 73
     1
 44
1.0
1001
ACAD
1000
MTEXTBEGIN
1070
    73
1070
     1
1070
    44
1040
1.0
1070
    74
1070
     0
1000
MTEXTEND
  0
POINT
  5
BCF4
330
BA3D
100
AcDbEntity
  8
Defpoints
 62
     0
100
AcDbPoint
 10
399.3509616035971
 20
244.7482462647648
 30
0.0
  0
POINT
  5
BCF5
330
BA3D
100
AcDbEntity
  8
Defpoints
 62
     0
100
AcDbPoint
 10
369.351001603597
 20
89.85724626476489
 30
0.0
  0
POINT
  5
BCF6
330
BA3D
100
AcDbEntity
  8
Defpoints
 62
     0
100
AcDbPoint
 10
369.351001603597
 20
251.9949703923071
 30
0.0
  0
ENDBLK
  5
BA48
330
BA3D
100
AcDbEntity
  8
0
100
AcDbBlockEnd
  0
BLOCK
  5
BA53
330
BA49
100
AcDbEntity
  8
0
100
AcDbBlockBegin
  2
*D2
 70
     1
 10
0.0
 20
0.0
 30
0.0
  3
*D2
  1

  0
LINE
  5
BCF7
330
BA49
100
AcDbEntity
  8
30100_Drilling_DIM
 62
     7
370
    -2
100
AcDbLine
 10
396.959961603597
 20
242.357246264765
 30
0.0
 11
357.4895539942659
 21
242.357246264765
 31
0.0
  0
LINE
  5
BCF8
330
BA49
100
AcDbEntity
  8
30100_Drilling_DIM
 62
     7
370
    -2
100
AcDbLine
 10
366.851001603597
 20
87.35724626476489
 30
0.0
 11
357.4895539942659
 21
87.35724626476489
 31
0.0
  0
LINE
  5
BCF9
330
BA49
100
AcDbEntity
  8
30100_Drilling_DIM
370
    -2
100
AcDbLine
 10
359.4895539942659
 20
238.857246264765
 30
0.0
 11
359.4895539942659
 21
90.85724626476492
 31
0.0
  0
SOLID
  5
BCFA
330
BA49
100
AcDbEntity
  8
30100_Drilling_DIM
100
AcDbTrace
 10
358.9062206609326
 20
238.857246264765
 30
0.0
 11
360.0728873275993
 21
238.857246264765
 31
0.0
 12
359.4895539942659
 22
242.357246264765
 32
0.0
 13
359.4895539942659
 23
242.357246264765
 33
0.0
  0
SOLID
  5
BCFB
330
BA49
100
AcDbEntity
  8
30100_Drilling_DIM
100
AcDbTrace
 10
358.9062206609325
 20
90.85724626476492
 30
0.0
 11
360.0728873275992
 21
90.85724626476492
 31
0.0
 12
359.4895539942659
 22
87.35724626476489
 32
0.0
 13
359.4895539942659
 23
87.35724626476489
 33
0.0
  0
MTEXT
  5
BCFC
330
BA49
100
AcDbEntity
  8
30100_Drilling_DIM
 62
     7
370
    13
100
AcDbMText
 10
357.2395539942659
 20
164.857246264765
 30
0.0
 40
3.5
 41
0.0
 71
     5
 72
     1
  1
\A1;155
 11
0.0000000000000001
 21
1.0
 31
0.0
 73
     1
 44
1.0
1001
ACAD
1000
MTEXTBEGIN
1070
    73
1070
     1
1070
    44
1040
1.0
1070
    74
1070
     0
1000
MTEXTEND
  0
POINT
  5
BCFD
330
BA49
100
AcDbEntity
  8
Defpoints
 62
     0
100
AcDbPoint
 10
396.959961603597
 20
242.357246264765
 30
0.0
  0
POINT
  5
BCFE
330
BA49
100
AcDbEntity
  8
Defpoints
 62
     0
100
AcDbPoint
 10
366.851001603597
 20
87.35724626476489
 30
0.0
  0
POINT
  5
BCFF
330
BA49
100
AcDbEntity
  8
Defpoints
 62
     0
100
AcDbPoint
 10
359.4895539942659
 20
87.35724626476489
 30
0.0
  0
ENDBLK
  5
BA54
330
BA49
100
AcDbEntity
  8
0
100
AcDbBlockEnd
  0
BLOCK
  5
BA5E
330
BA55
100
AcDbEntity
  8
0
100
AcDbBlockBegin
  2
*D3
 70
     1
 10
0.0
 20
0.0
 30
0.0
  3
*D3
  1

  0
LINE
  5
BD00
330
BA55
100
AcDbEntity
  8
30100_Drilling_DIM
370
    -2
100
AcDbLine
 10
386.1979521879457
 20
232.8584392121442
 30
0.0
 11
394.5751488243802
 21
238.9082618783294
 31
0.0
  0
LINE
  5
BD01
330
BA55
100
AcDbEntity
  8
30100_Drilling_DIM
370
    -2
100
AcDbLine
 10
404.1267743828128
 20
245.8062306511997
 30
0.0
 11
406.9642119532181
 21
247.8553641349076
 31
0.0
  0
MTEXT
  5
BD02
330
BA55
100
AcDbEntity
  8
30100_Drilling_DIM
 62
     7
370
    13
100
AcDbMText
 10
387.6505316242909
 20
236.6828508129291
 30
0.0
 40
3.5
 41
0.0
 71
     5
 72
     1
  1
\A1;\U+22055
 11
0.8106964486872112
 21
0.5854667096308242
 31
0.0
 73
     1
 44
1.0
1001
ACAD
1000
MTEXTBEGIN
1070
    73
1070
     1
1070
    44
1040
1.0
1070
    74
1070
     0
1000
MTEXTEND
  0
LINE
  5
BD03
330
BA55
100
AcDbEntity
  8
30100_Drilling_DIM
370
    -2
100
AcDbLine
 10
401.2893368124077
 20
243.7570971674919
 30
0.0
 11
397.4125863947855
 21
240.9573953620372
 31
0.0
  0
SOLID
  5
BD04
330
BA55
100
AcDbEntity
  8
30100_Drilling_DIM
100
AcDbTrace
 10
403.7852521355281
 20
246.2791369129339
 30
0.0
 11
404.4682966300975
 21
245.3333243894655
 31
0.0
 12
401.2893368124077
 22
243.7570971674919
 32
0.0
 13
401.2893368124077
 23
243.7570971674919
 33
0.0
  0
SOLID
  5
BD05
330
BA55
100
AcDbEntity
  8
30100_Drilling_DIM
100
AcDbTrace
 10
394.2336265770957
 20
239.3811681400636
 30
0.0
 11
394.9166710716649
 21
238.4353556165951
 31
0.0
 12
397.4125863947855
 22
240.9573953620372
 32
0.0
 13
397.4125863947855
 23
240.9573953620372
 33
0.0
  0
POINT
  5
BD06
330
BA55
100
AcDbEntity
  8
Defpoints
 62
     0
100
AcDbPoint
 10
397.4125863947855
 20
240.9573953620372
 30
0.0
  0
POINT
  5
BD07
330
BA55
100
AcDbEntity
  8
Defpoints
 62
     0
100
AcDbPoint
 10
401.2893368124077
 20
243.7570971674919
 30
0.0
  0
ENDBLK
  5
BA5F
330
BA55
100
AcDbEntity
  8
0
100
AcDbBlockEnd
  0
BLOCK
  5
BAA1
330
BA97
100
AcDbEntity
  8
0
100
AcDbBlockBegin
  2
*D4
 70
     1
 10
0.0
 20
0.0
 30
0.0
  3
*D4
  1

  0
LINE
  5
BCE4
330
BA97
100
AcDbEntity
  8
10100_FRONT_DIM
  6
Continuous
 62
     0
370
    -2
100
AcDbLine
 10
27.00994669746108
 20
82.85724626476492
 30
0.0
 11
27.00994669746108
 21
70.67656875720898
 31
0.0
  0
LINE
  5
BCE5
330
BA97
100
AcDbEntity
  8
10100_FRONT_DIM
  6
Continuous
 62
     0
370
    -2
100
AcDbLine
 10
97.00990669746108
 20
82.85724626476492
 30
0.0
 11
97.00990669746108
 21
70.67656875720898
 31
0.0
  0
LINE
  5
BCE6
330
BA97
100
AcDbEntity
  8
10100_FRONT_DIM
  6
Continuous
 62
     0
370
    -2
100
AcDbLine
 10
30.00994669746108
 20
71.676568757209
 30
0.0
 11
57.25992669746108
 21
71.676568757209
 31
0.0
  0
LINE
  5
BCE7
330
BA97
100
AcDbEntity
  8
10100_FRONT_DIM
  6
Continuous
 62
     0
370
    -2
100
AcDbLine
 10
94.00990669746107
 20
71.676568757209
 30
0.0
 11
66.75992669746108
 21
71.676568757209
 31
0.0
  0
SOLID
  5
BCE8
330
BA97
100
AcDbEntity
  8
10100_FRONT_DIM
  6
Continuous
 62
     0
100
AcDbTrace
 10
30.00994669746108
 20
72.176568757209
 30
0.0
 11
30.00994669746108
 21
71.176568757209
 31
0.0
 12
27.00994669746108
 22
71.676568757209
 32
0.0
 13
27.00994669746108
 23
71.676568757209
 33
0.0
  0
SOLID
  5
BCE9
330
BA97
100
AcDbEntity
  8
10100_FRONT_DIM
  6
Continuous
 62
     0
100
AcDbTrace
 10
94.00990669746107
 20
72.176568757209
 30
0.0
 11
94.00990669746107
 21
71.176568757209
 31
0.0
 12
97.00990669746108
 22
71.676568757209
 32
0.0
 13
97.00990669746108
 23
71.676568757209
 33
0.0
  0
MTEXT
  5
BCEA
330
BA97
100
AcDbEntity
  8
10100_FRONT_DIM
  6
Continuous
 62
     0
370
    13
100
AcDbMText
 10
62.00992669746108
 20
71.676568757209
 30
0.0
 40
5.0
 41
0.0
 71
     5
 72
     1
  1
\A1;70
 73
     1
 44
1.0
1001
ACAD
1000
MTEXTBEGIN
1070
    73
1070
     1
1070
    44
1040
1.0
1070
    74
1070
     0
1000
MTEXTEND
  0
POINT
  5
BCEB
330
BA97
100
AcDbEntity
  8
Defpoints
  6
Continuous
 62
     0
100
AcDbPoint
 10
27.00994669746108
 20
83.85724626476491
 30
0.0
  0
POINT
  5
BCEC
330
BA97
100
AcDbEntity
  8
Defpoints
  6
Continuous
 62
     0
100
AcDbPoint
 10
97.00990669746108
 20
83.85724626476491
 30
0.0
  0
POINT
  5
BCED
330
BA97
100
AcDbEntity
  8
Defpoints
  6
Continuous
 62
     0
100
AcDbPoint
 10
97.00990669746108
 20
71.676568757209
 30
0.0
  0
ENDBLK
  5
BAA2
330
BA97
100
AcDbEntity
  8
0
100
AcDbBlockEnd
  0
BLOCK
  5
BAAE
330
BAA4
100
AcDbEntity
  8
0
100
AcDbBlockBegin
  2
*D5
 70
     1
 10
0.0
 20
0.0
 30
0.0
  3
*D5
  1

  0
LINE
  5
BCDA
330
BAA4
100
AcDbEntity
  8
10100_FRONT_DIM
  6
Continuous
 62
     0
370
    -2
100
AcDbLine
 10
98.00990669746107
 20
187.357246264765
 30
0.0
 11
108.3774547138695
 21
187.357246264765
 31
0.0
  0
LINE
  5
BCDB
330
BAA4
100
AcDbEntity
  8
10100_FRONT_DIM
  6
Continuous
 62
     0
370
    -2
100
AcDbLine
 10
98.01000669746107
 20
142.3572462647649
 30
0.0
 11
108.3774547138695
 21
142.3572462647649
 31
0.0
  0
LINE
  5
BCDC
330
BAA4
100
AcDbEntity
  8
10100_FRONT_DIM
  6
Continuous
 62
     0
370
    -2
100
AcDbLine
 10
107.3774547138695
 20
184.3572462647649
 30
0.0
 11
107.3774547138695
 21
170.0239129314316
 31
0.0
  0
LINE
  5
BCDD
330
BAA4
100
AcDbEntity
  8
10100_FRONT_DIM
  6
Continuous
 62
     0
370
    -2
100
AcDbLine
 10
107.3774547138695
 20
145.3572462647649
 30
0.0
 11
107.3774547138695
 21
159.6905795980983
 31
0.0
  0
SOLID
  5
BCDE
330
BAA4
100
AcDbEntity
  8
10100_FRONT_DIM
  6
Continuous
 62
     0
100
AcDbTrace
 10
106.8774547138695
 20
184.3572462647649
 30
0.0
 11
107.8774547138695
 21
184.3572462647649
 31
0.0
 12
107.3774547138695
 22
187.357246264765
 32
0.0
 13
107.3774547138695
 23
187.357246264765
 33
0.0
  0
SOLID
  5
BCDF
330
BAA4
100
AcDbEntity
  8
10100_FRONT_DIM
  6
Continuous
 62
     0
100
AcDbTrace
 10
106.8774547138695
 20
145.3572462647649
 30
0.0
 11
107.8774547138695
 21
145.3572462647649
 31
0.0
 12
107.3774547138695
 22
142.3572462647649
 32
0.0
 13
107.3774547138695
 23
142.3572462647649
 33
0.0
  0
MTEXT
  5
BCE0
330
BAA4
100
AcDbEntity
  8
10100_FRONT_DIM
  6
Continuous
 62
     0
370
    13
100
AcDbMText
 10
107.3774547138695
 20
164.8572462647649
 30
0.0
 40
5.0
 41
0.0
 71
     5
 72
     1
  1
\A1;45
 11
0.0000000000000001
 21
1.0
 31
0.0
 73
     1
 44
1.0
1001
ACAD
1000
MTEXTBEGIN
1070
    73
1070
     1
1070
    44
1040
1.0
1070
    74
1070
     0
1000
MTEXTEND
  0
POINT
  5
BCE1
330
BAA4
100
AcDbEntity
  8
Defpoints
  6
Continuous
 62
     0
100
AcDbPoint
 10
97.00990669746108
 20
187.357246264765
 30
0.0
  0
POINT
  5
BCE2
330
BAA4
100
AcDbEntity
  8
Defpoints
  6
Continuous
 62
     0
100
AcDbPoint
 10
97.01000669746107
 20
142.3572462647649
 30
0.0
  0
POINT
  5
BCE3
330
BAA4
100
AcDbEntity
  8
Defpoints
  6
Continuous
 62
     0
100
AcDbPoint
 10
107.3774547138695
 20
142.3572462647649
 30
0.0
  0
ENDBLK
  5
BAAF
330
BAA4
100
AcDbEntity
  8
0
100
AcDbBlockEnd
  0
BLOCK
  5
BABB
330
BAB1
100
AcDbEntity
  8
0
100
AcDbBlockBegin
  2
*D6
 70
     1
 10
0.0
 20
0.0
 30
0.0
  3
*D6
  1

  0
LINE
  5
BCD0
330
BAB1
100
AcDbEntity
  8
10100_FRONT_DIM
  6
Continuous
 62
     0
370
    -2
100
AcDbLine
 10
88.61000669746108
 20
229.2572462647649
 30
0.0
 11
116.7054359721392
 21
229.2572462647649
 31
0.0
  0
LINE
  5
BCD1
330
BAB1
100
AcDbEntity
  8
10100_FRONT_DIM
  6
Continuous
 62
     0
370
    -2
100
AcDbLine
 10
88.61000669746108
 20
100.4572462647649
 30
0.0
 11
116.7054359721392
 21
100.4572462647649
 31
0.0
  0
LINE
  5
BCD2
330
BAB1
100
AcDbEntity
  8
10100_FRONT_DIM
  6
Continuous
 62
     0
370
    -2
100
AcDbLine
 10
115.7054359721392
 20
226.2572462647649
 30
0.0
 11
115.7054359721392
 21
171.6905795980983
 31
0.0
  0
LINE
  5
BCD3
330
BAB1
100
AcDbEntity
  8
10100_FRONT_DIM
  6
Continuous
 62
     0
370
    -2
100
AcDbLine
 10
115.7054359721392
 20
103.4572462647649
 30
0.0
 11
115.7054359721392
 21
158.0239129314316
 31
0.0
  0
SOLID
  5
BCD4
330
BAB1
100
AcDbEntity
  8
10100_FRONT_DIM
  6
Continuous
 62
     0
100
AcDbTrace
 10
115.2054359721392
 20
226.2572462647649
 30
0.0
 11
116.2054359721392
 21
226.2572462647649
 31
0.0
 12
115.7054359721392
 22
229.2572462647649
 32
0.0
 13
115.7054359721392
 23
229.2572462647649
 33
0.0
  0
SOLID
  5
BCD5
330
BAB1
100
AcDbEntity
  8
10100_FRONT_DIM
  6
Continuous
 62
     0
100
AcDbTrace
 10
115.2054359721392
 20
103.4572462647649
 30
0.0
 11
116.2054359721392
 21
103.4572462647649
 31
0.0
 12
115.7054359721392
 22
100.4572462647649
 32
0.0
 13
115.7054359721392
 23
100.4572462647649
 33
0.0
  0
MTEXT
  5
BCD6
330
BAB1
100
AcDbEntity
  8
10100_FRONT_DIM
  6
Continuous
 62
     0
370
    13
100
AcDbMText
 10
115.7054359721392
 20
164.8572462647649
 30
0.0
 40
5.0
 41
0.0
 71
     5
 72
     1
  1
\A1;129
 11
0.0000000000000001
 21
1.0
 31
0.0
 73
     1
 44
1.0
1001
ACAD
1000
MTEXTBEGIN
1070
    73
1070
     1
1070
    44
1040
1.0
1070
    74
1070
     0
1000
MTEXTEND
  0
POINT
  5
BCD7
330
BAB1
100
AcDbEntity
  8
Defpoints
  6
Continuous
 62
     0
100
AcDbPoint
 10
87.61000669746108
 20
229.2572462647649
 30
0.0
  0
POINT
  5
BCD8
330
BAB1
100
AcDbEntity
  8
Defpoints
  6
Continuous
 62
     0
100
AcDbPoint
 10
87.61000669746108
 20
100.4572462647649
 30
0.0
  0
POINT
  5
BCD9
330
BAB1
100
AcDbEntity
  8
Defpoints
  6
Continuous
 62
     0
100
AcDbPoint
 10
115.7054359721392
 20
100.4572462647649
 30
0.0
  0
ENDBLK
  5
BABC
330
BAB1
100
AcDbEntity
  8
0
100
AcDbBlockEnd
  0
BLOCK
  5
BAC8
330
BABE
100
AcDbEntity
  8
0
100
AcDbBlockBegin
  2
*D7
 70
     1
 10
0.0
 20
0.0
 30
0.0
  3
*D7
  1

  0
LINE
  5
BCC6
330
BABE
100
AcDbEntity
  8
10100_FRONT_DIM
  6
Continuous
 62
     0
370
    -2
100
AcDbLine
 10
96.50990669746107
 20
247.357246264765
 30
0.0
 11
125.44981787545
 21
247.357246264765
 31
0.0
  0
LINE
  5
BCC7
330
BABE
100
AcDbEntity
  8
10100_FRONT_DIM
  6
Continuous
 62
     0
370
    -2
100
AcDbLine
 10
96.50990669746107
 20
82.35724626476489
 30
0.0
 11
125.4498178754499
 21
82.35724626476489
 31
0.0
  0
LINE
  5
BCC8
330
BABE
100
AcDbEntity
  8
10100_FRONT_DIM
  6
Continuous
 62
     0
370
    -2
100
AcDbLine
 10
124.44981787545
 20
244.357246264765
 30
0.0
 11
124.44981787545
 21
171.6905795980983
 31
0.0
  0
LINE
  5
BCC9
330
BABE
100
AcDbEntity
  8
10100_FRONT_DIM
  6
Continuous
 62
     0
370
    -2
100
AcDbLine
 10
124.4498178754499
 20
85.35724626476492
 30
0.0
 11
124.44981787545
 21
158.0239129314316
 31
0.0
  0
SOLID
  5
BCCA
330
BABE
100
AcDbEntity
  8
10100_FRONT_DIM
  6
Continuous
 62
     0
100
AcDbTrace
 10
123.94981787545
 20
244.357246264765
 30
0.0
 11
124.94981787545
 21
244.357246264765
 31
0.0
 12
124.44981787545
 22
247.357246264765
 32
0.0
 13
124.44981787545
 23
247.357246264765
 33
0.0
  0
SOLID
  5
BCCB
330
BABE
100
AcDbEntity
  8
10100_FRONT_DIM
  6
Continuous
 62
     0
100
AcDbTrace
 10
123.94981787545
 20
85.35724626476492
 30
0.0
 11
124.94981787545
 21
85.35724626476492
 31
0.0
 12
124.4498178754499
 22
82.35724626476489
 32
0.0
 13
124.4498178754499
 23
82.35724626476489
 33
0.0
  0
MTEXT
  5
BCCC
330
BABE
100
AcDbEntity
  8
10100_FRONT_DIM
  6
Continuous
 62
     0
370
    13
100
AcDbMText
 10
124.4498178754499
 20
164.8572462647649
 30
0.0
 40
5.0
 41
0.0
 71
     5
 72
     1
  1
\A1;165
 11
0.0000000000000001
 21
1.0
 31
0.0
 73
     1
 44
1.0
1001
ACAD
1000
MTEXTBEGIN
1070
    73
1070
     1
1070
    44
1040
1.0
1070
    74
1070
     0
1000
MTEXTEND
  0
POINT
  5
BCCD
330
BABE
100
AcDbEntity
  8
Defpoints
  6
Continuous
 62
     0
100
AcDbPoint
 10
95.50990669746107
 20
247.357246264765
 30
0.0
  0
POINT
  5
BCCE
330
BABE
100
AcDbEntity
  8
Defpoints
  6
Continuous
 62
     0
100
AcDbPoint
 10
95.50990669746107
 20
82.35724626476491
 30
0.0
  0
POINT
  5
BCCF
330
BABE
100
AcDbEntity
  8
Defpoints
  6
Continuous
 62
     0
100
AcDbPoint
 10
124.4498178754499
 20
82.35724626476489
 30
0.0
  0
ENDBLK
  5
BAC9
330
BABE
100
AcDbEntity
  8
0
100
AcDbBlockEnd
  0
BLOCK
  5
BB27
330
BB1B
100
AcDbEntity
  8
0
100
AcDbBlockBegin
  2
*D8
 70
     1
 10
0.0
 20
0.0
 30
0.0
  3
*D8
  1

  0
LINE
  5
BCBB
330
BB1B
100
AcDbEntity
  8
11100_LEFT_DIM
  6
Continuous
 62
     0
370
    -2
100
AcDbLine
 10
167.7456005093562
 20
145.6572462647649
 30
0.0
 11
167.7456005093562
 21
71.45407835677724
 31
0.0
  0
LINE
  5
BCBC
330
BB1B
100
AcDbEntity
  8
11100_LEFT_DIM
  6
Continuous
 62
     0
370
    -2
100
AcDbLine
 10
162.7456005093562
 20
81.35724626476491
 30
0.0
 11
162.7456005093562
 21
71.45407835677724
 31
0.0
  0
LINE
  5
BCBD
330
BB1B
100
AcDbEntity
  8
11100_LEFT_DIM
  6
Continuous
 62
     0
370
    -2
100
AcDbLine
 10
170.7456005093562
 20
72.45407835677724
 30
0.0
 11
173.7456005093562
 21
72.45407835677724
 31
0.0
  0
LINE
  5
BCBE
330
BB1B
100
AcDbEntity
  8
11100_LEFT_DIM
  6
Continuous
 62
     0
370
    -2
100
AcDbLine
 10
159.7456005093562
 20
72.45407835677724
 30
0.0
 11
156.7456005093562
 21
72.45407835677724
 31
0.0
  0
LINE
  5
BCBF
330
BB1B
100
AcDbEntity
  8
11100_LEFT_DIM
  6
Continuous
 62
     0
370
    -2
100
AcDbLine
 10
167.7456005093562
 20
72.45407835677724
 30
0.0
 11
162.7456005093562
 21
72.45407835677724
 31
0.0
  0
SOLID
  5
BCC0
330
BB1B
100
AcDbEntity
  8
11100_LEFT_DIM
  6
Continuous
 62
     0
100
AcDbTrace
 10
170.7456005093562
 20
72.95407835677725
 30
0.0
 11
170.7456005093562
 21
71.95407835677724
 31
0.0
 12
167.7456005093562
 22
72.45407835677724
 32
0.0
 13
167.7456005093562
 23
72.45407835677724
 33
0.0
  0
SOLID
  5
BCC1
330
BB1B
100
AcDbEntity
  8
11100_LEFT_DIM
  6
Continuous
 62
     0
100
AcDbTrace
 10
159.7456005093562
 20
72.95407835677725
 30
0.0
 11
159.7456005093562
 21
71.95407835677724
 31
0.0
 12
162.7456005093562
 22
72.45407835677724
 32
0.0
 13
162.7456005093562
 23
72.45407835677724
 33
0.0
  0
MTEXT
  5
BCC2
330
BB1B
100
AcDbEntity
  8
11100_LEFT_DIM
  6
Continuous
 62
     0
370
    13
100
AcDbMText
 10
154.0789338426895
 20
72.45407835677724
 30
0.0
 40
5.0
 41
0.0
 71
     5
 72
     1
  1
\A1;5
 73
     1
 44
1.0
1001
ACAD
1000
MTEXTBEGIN
1070
    73
1070
     1
1070
    44
1040
1.0
1070
    74
1070
     0
1000
MTEXTEND
  0
POINT
  5
BCC3
330
BB1B
100
AcDbEntity
  8
Defpoints
  6
Continuous
 62
     0
100
AcDbPoint
 10
167.7456005093562
 20
146.6572462647649
 30
0.0
  0
POINT
  5
BCC4
330
BB1B
100
AcDbEntity
  8
Defpoints
  6
Continuous
 62
     0
100
AcDbPoint
 10
162.7456005093562
 20
82.35724626476491
 30
0.0
  0
POINT
  5
BCC5
330
BB1B
100
AcDbEntity
  8
Defpoints
  6
Continuous
 62
     0
100
AcDbPoint
 10
162.7456005093562
 20
72.45407835677724
 30
0.0
  0
ENDBLK
  5
BB28
330
BB1B
100
AcDbEntity
  8
0
100
AcDbBlockEnd
  0
BLOCK
  5
BB36
330
BB2A
100
AcDbEntity
  8
0
100
AcDbBlockBegin
  2
*D9
 70
     1
 10
0.0
 20
0.0
 30
0.0
  3
*D9
  1

  0
LINE
  5
BD1C
330
BB2A
100
AcDbEntity
  8
11100_LEFT_DIM
  6
Continuous
 62
     0
370
    -2
100
AcDbLine
 10
170.7456005093562
 20
81.75724626476494
 30
0.0
 11
170.7456005093562
 21
62.41126291839418
 31
0.0
  0
LINE
  5
BD1D
330
BB2A
100
AcDbEntity
  8
11100_LEFT_DIM
  6
Continuous
 62
     0
370
    -2
100
AcDbLine
 10
162.7456005093562
 20
81.35724626476491
 30
0.0
 11
162.7456005093562
 21
62.41126291839418
 31
0.0
  0
LINE
  5
BD1E
330
BB2A
100
AcDbEntity
  8
11100_LEFT_DIM
  6
Continuous
 62
     0
370
    -2
100
AcDbLine
 10
167.7456005093562
 20
63.41126291839419
 30
0.0
 11
165.7456005093562
 21
63.41126291839419
 31
0.0
  0
LINE
  5
BD1F
330
BB2A
100
AcDbEntity
  8
11100_LEFT_DIM
  6
Continuous
 62
     0
370
    -2
100
AcDbLine
 10
162.7456005093562
 20
63.41126291839419
 30
0.0
 11
159.7456005093562
 21
63.41126291839419
 31
0.0
  0
SOLID
  5
BD20
330
BB2A
100
AcDbEntity
  8
11100_LEFT_DIM
  6
Continuous
 62
     0
100
AcDbTrace
 10
167.7456005093562
 20
63.91126291839419
 30
0.0
 11
167.7456005093562
 21
62.91126291839418
 31
0.0
 12
170.7456005093562
 22
63.41126291839419
 32
0.0
 13
170.7456005093562
 23
63.41126291839419
 33
0.0
  0
SOLID
  5
BD21
330
BB2A
100
AcDbEntity
  8
11100_LEFT_DIM
  6
Continuous
 62
     0
100
AcDbTrace
 10
165.7456005093562
 20
63.91126291839419
 30
0.0
 11
165.7456005093562
 21
62.91126291839418
 31
0.0
 12
162.7456005093562
 22
63.41126291839419
 32
0.0
 13
162.7456005093562
 23
63.41126291839419
 33
0.0
  0
MTEXT
  5
BD22
330
BB2A
100
AcDbEntity
  8
11100_LEFT_DIM
  6
Continuous
 62
     0
370
    13
100
AcDbMText
 10
157.0789338426895
 20
63.41126291839419
 30
0.0
 40
5.0
 41
0.0
 71
     5
 72
     1
  1
\A1;8
 73
     1
 44
1.0
1001
ACAD
1000
MTEXTBEGIN
1070
    73
1070
     1
1070
    44
1040
1.0
1070
    74
1070
     0
1000
MTEXTEND
  0
POINT
  5
BD23
330
BB2A
100
AcDbEntity
  8
Defpoints
  6
Continuous
 62
     0
100
AcDbPoint
 10
170.7456005093562
 20
82.75724626476494
 30
0.0
  0
POINT
  5
BD24
330
BB2A
100
AcDbEntity
  8
Defpoints
  6
Continuous
 62
     0
100
AcDbPoint
 10
162.7456005093562
 20
82.35724626476491
 30
0.0
  0
POINT
  5
BD25
330
BB2A
100
AcDbEntity
  8
Defpoints
  6
Continuous
 62
     0
100
AcDbPoint
 10
162.7456005093562
 20
63.41126291839419
 30
0.0
  0
ENDBLK
  5
BB37
330
BB2A
100
AcDbEntity
  8
0
100
AcDbBlockEnd
  0
BLOCK
  5
BB43
330
BB39
100
AcDbEntity
  8
0
100
AcDbBlockBegin
  2
*D10
 70
     1
 10
0.0
 20
0.0
 30
0.0
  3
*D10
  1

  0
LINE
  5
BCA5
330
BB39
100
AcDbEntity
  8
11100_LEFT_DIM
  6
Continuous
 62
     0
370
    -2
100
AcDbLine
 10
167.7456005093562
 20
81.35724626476491
 30
0.0
 11
167.7456005093562
 21
55.95210867173761
 31
0.0
  0
LINE
  5
BCA6
330
BB39
100
AcDbEntity
  8
11100_LEFT_DIM
  6
Continuous
 62
     0
370
    -2
100
AcDbLine
 10
249.9956005093562
 20
85.25724626476494
 30
0.0
 11
249.9956005093562
 21
55.95210867173761
 31
0.0
  0
LINE
  5
BCA7
330
BB39
100
AcDbEntity
  8
11100_LEFT_DIM
  6
Continuous
 62
     0
370
    -2
100
AcDbLine
 10
170.7456005093562
 20
56.95210867173761
 30
0.0
 11
203.7039338426896
 21
56.95210867173761
 31
0.0
  0
LINE
  5
BCA8
330
BB39
100
AcDbEntity
  8
11100_LEFT_DIM
  6
Continuous
 62
     0
370
    -2
100
AcDbLine
 10
246.9956005093562
 20
56.95210867173761
 30
0.0
 11
214.0372671760229
 21
56.95210867173761
 31
0.0
  0
SOLID
  5
BCA9
330
BB39
100
AcDbEntity
  8
11100_LEFT_DIM
  6
Continuous
 62
     0
100
AcDbTrace
 10
170.7456005093562
 20
57.45210867173761
 30
0.0
 11
170.7456005093562
 21
56.45210867173761
 31
0.0
 12
167.7456005093562
 22
56.95210867173761
 32
0.0
 13
167.7456005093562
 23
56.95210867173761
 33
0.0
  0
SOLID
  5
BCAA
330
BB39
100
AcDbEntity
  8
11100_LEFT_DIM
  6
Continuous
 62
     0
100
AcDbTrace
 10
246.9956005093562
 20
57.45210867173761
 30
0.0
 11
246.9956005093562
 21
56.45210867173761
 31
0.0
 12
249.9956005093562
 22
56.95210867173761
 32
0.0
 13
249.9956005093562
 23
56.95210867173761
 33
0.0
  0
MTEXT
  5
BCAB
330
BB39
100
AcDbEntity
  8
11100_LEFT_DIM
  6
Continuous
 62
     0
370
    13
100
AcDbMText
 10
208.8706005093562
 20
56.95210867173761
 30
0.0
 40
5.0
 41
0.0
 71
     5
 72
     1
  1
\A1;82
 73
     1
 44
1.0
1001
ACAD
1000
MTEXTBEGIN
1070
    73
1070
     1
1070
    44
1040
1.0
1070
    74
1070
     0
1000
MTEXTEND
  0
POINT
  5
BCAC
330
BB39
100
AcDbEntity
  8
Defpoints
  6
Continuous
 62
     0
100
AcDbPoint
 10
167.7456005093562
 20
82.35724626476491
 30
0.0
  0
POINT
  5
BCAD
330
BB39
100
AcDbEntity
  8
Defpoints
  6
Continuous
 62
     0
100
AcDbPoint
 10
249.9956005093562
 20
86.25724626476495
 30
0.0
  0
POINT
  5
BCAE
330
BB39
100
AcDbEntity
  8
Defpoints
  6
Continuous
 62
     0
100
AcDbPoint
 10
249.9956005093562
 20
56.95210867173761
 30
0.0
  0
ENDBLK
  5
BB44
330
BB39
100
AcDbEntity
  8
0
100
AcDbBlockEnd
  0
BLOCK
  5
BB50
330
BB46
100
AcDbEntity
  8
0
100
AcDbBlockBegin
  2
*D11
 70
     1
 10
0.0
 20
0.0
 30
0.0
  3
*D11
  1

  0
LINE
  5
BC9B
330
BB46
100
AcDbEntity
  8
11100_LEFT_DIM
  6
Continuous
 62
     0
370
    -2
100
AcDbLine
 10
167.7456005093562
 20
81.35724626476491
 30
0.0
 11
167.7456005093562
 21
48.14702233027663
 31
0.0
  0
LINE
  5
BC9C
330
BB46
100
AcDbEntity
  8
11100_LEFT_DIM
  6
Continuous
 62
     0
370
    -2
100
AcDbLine
 10
336.6110005093562
 20
150.3982462647649
 30
0.0
 11
336.6110005093562
 21
48.14702233027663
 31
0.0
  0
LINE
  5
BC9D
330
BB46
100
AcDbEntity
  8
11100_LEFT_DIM
  6
Continuous
 62
     0
370
    -2
100
AcDbLine
 10
170.7456005093562
 20
49.14702233027663
 30
0.0
 11
245.3449671760229
 21
49.14702233027663
 31
0.0
  0
LINE
  5
BC9E
330
BB46
100
AcDbEntity
  8
11100_LEFT_DIM
  6
Continuous
 62
     0
370
    -2
100
AcDbLine
 10
333.6110005093563
 20
49.14702233027663
 30
0.0
 11
259.0116338426895
 21
49.14702233027663
 31
0.0
  0
SOLID
  5
BC9F
330
BB46
100
AcDbEntity
  8
11100_LEFT_DIM
  6
Continuous
 62
     0
100
AcDbTrace
 10
170.7456005093562
 20
49.64702233027662
 30
0.0
 11
170.7456005093562
 21
48.64702233027664
 31
0.0
 12
167.7456005093562
 22
49.14702233027663
 32
0.0
 13
167.7456005093562
 23
49.14702233027663
 33
0.0
  0
SOLID
  5
BCA0
330
BB46
100
AcDbEntity
  8
11100_LEFT_DIM
  6
Continuous
 62
     0
100
AcDbTrace
 10
333.6110005093563
 20
49.64702233027662
 30
0.0
 11
333.6110005093563
 21
48.64702233027664
 31
0.0
 12
336.6110005093562
 22
49.14702233027663
 32
0.0
 13
336.6110005093562
 23
49.14702233027663
 33
0.0
  0
MTEXT
  5
BCA1
330
BB46
100
AcDbEntity
  8
11100_LEFT_DIM
  6
Continuous
 62
     0
370
    13
100
AcDbMText
 10
252.1783005093563
 20
49.14702233027663
 30
0.0
 40
5.0
 41
0.0
 71
     5
 72
     1
  1
\A1;169
 73
     1
 44
1.0
1001
ACAD
1000
MTEXTBEGIN
1070
    73
1070
     1
1070
    44
1040
1.0
1070
    74
1070
     0
1000
MTEXTEND
  0
POINT
  5
BCA2
330
BB46
100
AcDbEntity
  8
Defpoints
  6
Continuous
 62
     0
100
AcDbPoint
 10
167.7456005093562
 20
82.35724626476491
 30
0.0
  0
POINT
  5
BCA3
330
BB46
100
AcDbEntity
  8
Defpoints
  6
Continuous
 62
     0
100
AcDbPoint
 10
336.6110005093562
 20
151.3982462647649
 30
0.0
  0
POINT
  5
BCA4
330
BB46
100
AcDbEntity
  8
Defpoints
  6
Continuous
 62
     0
100
AcDbPoint
 10
336.6110005093562
 20
49.14702233027663
 30
0.0
  0
ENDBLK
  5
BB51
330
BB46
100
AcDbEntity
  8
0
100
AcDbBlockEnd
  0
ENDSEC
  0
SECTION
  2
ENTITIES
  0
INSERT
  5
AA
330
20
100
AcDbEntity
  8
90000_FRAME
  6
Continuous
 62
     7
100
AcDbBlockReference
  2
SIEMENS_OUTLINE_BL0
 10
0.0
 20
0.0
 30
0.0
  0
LINE
  5
AB
330
20
100
AcDbEntity
  8
90000_FRAME
  6
Continuous
 62
     7
100
AcDbLine
 10
275.0
 20
10.0
 30
0.0
 11
410.0
 21
10.0
 31
0.0
  0
LINE
  5
AC
330
20
100
AcDbEntity
  8
90000_FRAME
  6
Continuous
 62
     7
100
AcDbLine
 10
275.0
 20
10.0
 30
0.0
 11
275.0
 21
28.0
 31
0.0
  0
LINE
  5
AD
330
20
100
AcDbEntity
  8
90000_FRAME
  6
Continuous
 62
     7
100
AcDbLine
 10
325.0
 20
16.0
 30
0.0
 11
410.0
 21
16.0
 31
0.0
  0
LINE
  5
AE
330
20
100
AcDbEntity
  8
90000_FRAME
  6
Continuous
 62
     7
100
AcDbLine
 10
275.0
 20
28.0
 30
0.0
 11
410.0
 21
28.0
 31
0.0
  0
LINE
  5
AF
330
20
100
AcDbEntity
  8
90000_FRAME
  6
Continuous
 62
     7
100
AcDbLine
 10
325.0
 20
10.0
 30
0.0
 11
325.0
 21
28.0
 31
0.0
  0
LINE
  5
B0
330
20
100
AcDbEntity
  8
90000_FRAME
  6
Continuous
 62
     7
100
AcDbLine
 10
367.5
 20
10.0
 30
0.0
 11
367.5
 21
16.0
 31
0.0
  0
LINE
  5
B1
330
20
100
AcDbEntity
  8
90000_FRAME
  6
Continuous
 62
     7
100
AcDbLine
 10
410.0
 20
10.0
 30
0.0
 11
410.0
 21
28.0
 31
0.0
  0
TEXT
  5
B2
330
20
100
AcDbEntity
  8
90000_FRAME
  6
Continuous
 62
     7
100
AcDbText
 10
325.66
 20
11.9
 30
0.0
 40
2.2
  1
Format / Size: DIN A3
 41
0.7994987468660281
 72
     5
 11
359.079047619
 21
11.9
 31
0.0
100
AcDbText
  0
TEXT
  5
B3
330
20
100
AcDbEntity
  8
90000_FRAME
  6
Continuous
 62
     7
100
AcDbText
 10
368.16
 20
11.9
 30
0.0
 40
2.2
  1
Massstab / Scale: 1:1
 41
0.7732634338148471
 72
     5
 11
399.0647619048001
 21
11.9
 31
0.0
100
AcDbText
  0
LINE
  5
20F5
330
20
100
AcDbEntity
  8
91000_TIP
  6
Continuous
 62
     7
100
AcDbLine
 10
249.8146701040259
 20
21.32373752237061
 30
0.0
 11
259.814669899826
 21
23.82373747137058
 31
0.0
  0
LINE
  5
20F6
330
20
100
AcDbEntity
  8
91000_TIP
  6
CENTER
 62
     7
100
AcDbLine
 10
248.5351596320249
 20
18.82373757347062
 30
0.0
 11
272.1371488961249
 21
18.82373757347062
 31
0.0
  0
LINE
  5
20F7
330
20
100
AcDbEntity
  8
91000_TIP
  6
Continuous
 62
     7
100
AcDbLine
 10
249.8146701040259
 20
16.32373762457058
 30
0.0
 11
259.814669899826
 21
13.8237376755705
 31
0.0
  0
LINE
  5
20F8
330
20
100
AcDbEntity
  8
91000_TIP
  6
Continuous
 62
     7
100
AcDbLine
 10
249.8146701040259
 20
21.32373752237061
 30
0.0
 11
249.8146701040259
 21
16.32373762457058
 31
0.0
  0
LINE
  5
20F9
330
20
100
AcDbEntity
  8
91000_TIP
  6
Continuous
 62
     7
100
AcDbLine
 10
259.814669899826
 20
23.82373747137058
 30
0.0
 11
259.814669899826
 21
13.8237376755705
 31
0.0
  0
LINE
  5
20FA
330
20
100
AcDbEntity
  8
91000_TIP
  6
CENTER
 62
     7
100
AcDbLine
 10
266.3146697670259
 20
13.10225636707057
 30
0.0
 11
266.3146697670259
 21
24.38564236707057
 31
0.0
  0
CIRCLE
  5
20FB
330
20
100
AcDbEntity
  8
91000_TIP
  6
Continuous
 62
     7
100
AcDbCircle
 10
266.3146697670259
 20
18.82373757347062
 30
0.0
 40
4.9999998979
  0
CIRCLE
  5
20FC
330
20
100
AcDbEntity
  8
91000_TIP
  6
Continuous
 62
     7
100
AcDbCircle
 10
266.3146697670259
 20
18.82373757347062
 30
0.0
 40
2.499999948899997
  0
TEXT
  5
2196
330
20
100
AcDbEntity
  8
90000_FRAME
  6
Continuous
 62
     7
100
AcDbText
 10
338.3059245239508
 20
20.25
 30
0.0
 40
3.5
  1
3RV104__00000195_000_ALL
 41
0.7316751156272591
 72
     5
 11
394.2180979431339
 21
20.25
 31
0.0
100
AcDbText
  0
LINE
  5
633F
330
20
100
AcDbEntity
  8
90000_FRAME
  6
Continuous
 62
     7
100
AcDbLine
 10
420.0000000000008
 20
0.0
 30
0.0
 11
420.0000000000008
 21
270.0
 31
0.0
  0
LINE
  5
6340
330
20
100
AcDbEntity
  8
90000_FRAME
  6
Continuous
 62
     7
100
AcDbLine
 10
10.00000000000085
 20
0.0
 30
0.0
 11
420.0000000000008
 21
0.0
 31
0.0
  0
LINE
  5
6343
330
20
100
AcDbEntity
  8
90000_FRAME
  6
Continuous
 62
     7
100
AcDbLine
 10
410.0
 20
10.0
 30
0.0
 11
410.0
 21
28.0
 31
0.0
  0
TEXT
  5
634B
330
20
100
AcDbEntity
  8
91000_TIP
  6
Continuous
 62
     7
100
AcDbText
 10
14.05334978266475
 20
3.482236621676662
 30
0.0
 40
2.5
  1
All dimensions are in millimeters (mm).
 41
0.7513350295680246
 72
     5
 11
74.16015214810676
 21
3.482236621676662
 31
0.0
100
AcDbText
  0
TEXT
  5
634C
330
20
100
AcDbEntity
  8
91000_TIP
  6
Continuous
 62
     7
100
AcDbText
 10
14.05334978266475
 20
8.732236621676605
 30
0.0
 40
2.5
  1
Alle Bemassungswerte sind in Millimeter (mm) angegeben.
 41
0.6056311217924569
 72
     5
 11
87.73846960074704
 21
8.732236621676605
 31
0.0
100
AcDbText
  0
LINE
  5
7BAE
330
20
100
AcDbEntity
  8
90000_FRAME
  6
Continuous
 62
     7
100
AcDbLine
 10
10.00000000000085
 20
0.0
 30
0.0
 11
10.00000000000085
 21
270.0
 31
0.0
  0
LINE
  5
7BAF
330
20
100
AcDbEntity
  8
90000_FRAME
  6
Continuous
 62
     7
100
AcDbLine
 10
10.00000000000085
 20
270.0
 30
0.0
 11
420.0000000000008
 21
270.0
 31
0.0
  0
POINT
  5
B526
330
20
100
AcDbEntity
  8
11000_Left
 62
     7
370
    50
100
AcDbPoint
 10
162.7456005093562
 20
82.35724626476491
 30
0.0
 39
0.7
1001
AUSTER_FOLIE
1002
{
1000
NSB00029_LS04
1002
}
1001
AUSTER_ANSICHT
1002
{
1000
Det03
1002
}
  0
POINT
  5
B527
330
20
100
AcDbEntity
  8
11000_Left
 62
     7
370
    50
100
AcDbPoint
 10
169.7456005093562
 20
126.5572462647649
 30
0.0
 39
0.7
1001
AUSTER_FOLIE
1002
{
1000
NSB00029_LS04
1002
}
1001
AUSTER_ANSICHT
1002
{
1000
Det03
1002
}
  0
POINT
  5
B530
330
20
100
AcDbEntity
  8
11000_Left
 62
     7
370
    50
100
AcDbPoint
 10
162.7456005093562
 20
82.35724626476491
 30
0.0
 39
0.7
1001
AUSTER_FOLIE
1002
{
1000
NSB00029_LS04
1002
}
1001
AUSTER_ANSICHT
1002
{
1000
Det03
1002
}
  0
POINT
  5
B54A
330
20
100
AcDbEntity
  8
10000_FRONT
 62
     7
370
    50
100
AcDbPoint
 10
28.50994669746109
 20
82.35724626476491
 30
0.0
 39
0.7
1001
AUSTER_FOLIE
1002
{
1000
NSB00029_LS04
1002
}
1001
AUSTER_ANSICHT
1002
{
1000
Det03
1002
}
  0
POINT
  5
B54B
330
20
100
AcDbEntity
  8
10000_FRONT
 62
     7
370
    50
100
AcDbPoint
 10
28.50994669746109
 20
247.357246264765
 30
0.0
 39
0.7
1001
AUSTER_FOLIE
1002
{
1000
NSB00029_LS04
1002
}
1001
AUSTER_ANSICHT
1002
{
1000
Det03
1002
}
  0
POINT
  5
B552
330
20
100
AcDbEntity
  8
10000_FRONT
 62
     7
370
    50
100
AcDbPoint
 10
97.00970669746107
 20
83.85754626476488
 30
0.0
 39
0.7
1001
AUSTER_FOLIE
1002
{
1000
NSB00029_LS04
1002
}
1001
AUSTER_ANSICHT
1002
{
1000
Det03
1002
}
  0
POINT
  5
B553
330
20
100
AcDbEntity
  8
10000_FRONT
 62
     7
370
    50
100
AcDbPoint
 10
27.00970669746107
 20
83.85754626476488
 30
0.0
 39
0.7
1001
AUSTER_FOLIE
1002
{
1000
NSB00029_LS04
1002
}
1001
AUSTER_ANSICHT
1002
{
1000
Det03
1002
}
  0
POINT
  5
B55B
330
20
100
AcDbEntity
  8
11000_Left
 62
     7
370
    50
100
AcDbPoint
 10
167.7459005093562
 20
146.6575462647649
 30
0.0
 39
0.7
1001
AUSTER_FOLIE
1002
{
1000
NSB00029_LS04
1002
}
1001
AUSTER_ANSICHT
1002
{
1000
Det03
1002
}
  0
POINT
  5
B563
330
20
100
AcDbEntity
  8
11000_Left
 62
     7
370
    50
100
AcDbPoint
 10
325.1176005093562
 20
156.8572462647649
 30
0.0
 39
0.7
1001
AUSTER_FOLIE
1002
{
1000
NSB00029_LS04
1002
}
1001
AUSTER_ANSICHT
1002
{
1000
Det03
1002
}
  0
POINT
  5
B56A
330
20
100
AcDbEntity
  8
11000_Left
 62
     7
370
    50
100
AcDbPoint
 10
320.2459005093562
 20
142.3572462647649
 30
0.0
 39
0.7
1001
AUSTER_FOLIE
1002
{
1000
NSB00029_LS04
1002
}
1001
AUSTER_ANSICHT
1002
{
1000
Det03
1002
}
  0
POINT
  5
B56B
330
20
100
AcDbEntity
  8
11000_Left
 62
     7
370
    50
100
AcDbPoint
 10
167.7459005093562
 20
146.6575462647649
 30
0.0
 39
0.7
1001
AUSTER_FOLIE
1002
{
1000
NSB00029_LS04
1002
}
1001
AUSTER_ANSICHT
1002
{
1000
Det03
1002
}
  0
POINT
  5
B572
330
20
100
AcDbEntity
  8
11000_Left
 62
     7
370
    50
100
AcDbPoint
 10
299.9769005093562
 20
107.0572462647649
 30
0.0
 39
0.7
1001
AUSTER_FOLIE
1002
{
1000
NSB00029_LS04
1002
}
1001
AUSTER_ANSICHT
1002
{
1000
Det03
1002
}
  0
POINT
  5
B573
330
20
100
AcDbEntity
  8
11000_Left
 62
     7
370
    50
100
AcDbPoint
 10
167.7459005093562
 20
146.6575462647649
 30
0.0
 39
0.7
1001
AUSTER_FOLIE
1002
{
1000
NSB00029_LS04
1002
}
1001
AUSTER_ANSICHT
1002
{
1000
Det03
1002
}
  0
POINT
  5
B57B
330
20
100
AcDbEntity
  8
11000_Left
 62
     7
370
    50
100
AcDbPoint
 10
167.7472005093562
 20
182.2571462647649
 30
0.0
 39
0.7
1001
AUSTER_FOLIE
1002
{
1000
NSB00029_LS04
1002
}
1001
AUSTER_ANSICHT
1002
{
1000
Det03
1002
}
  0
CIRCLE
  5
B594
330
20
100
AcDbEntity
  8
30000_Drilling
 62
     7
370
    50
100
AcDbCircle
 39
0.7
 10
399.3509616035971
 20
242.357246264765
 30
0.0
 40
2.500000000000025
1001
AUSTER_FOLIE
1002
{
1000
NSB00029_LS04
1002
}
1001
AUSTER_ANSICHT
1002
{
1000
Det03
1002
}
  0
CIRCLE
  5
B595
330
20
100
AcDbEntity
  8
30000_Drilling
 62
     7
370
    50
100
AcDbCircle
 39
0.7
 10
369.351001603597
 20
87.35724626476489
 30
0.0
 40
2.500000000000025
1001
AUSTER_FOLIE
1002
{
1000
NSB00029_LS04
1002
}
1001
AUSTER_ANSICHT
1002
{
1000
Det03
1002
}
  0
LINE
  5
B596
330
20
100
AcDbEntity
  8
10000_FRONT
 62
     7
370
    50
100
AcDbLine
 39
0.7
 10
97.00990669746108
 20
245.857246264765
 30
0.0
 11
97.00990669746108
 21
83.85724626476491
 31
0.0
1001
AUSTER_ANSICHT
1002
{
1000
Det03
1002
}
1001
AUSTER_FOLIE
1002
{
1000
NSB00029_LS04
1002
}
  0
LINE
  5
B597
330
20
100
AcDbEntity
  8
10000_FRONT
 62
     7
370
    50
100
AcDbLine
 39
0.7
 10
27.00994669746109
 20
245.857246264765
 30
0.0
 11
27.00994669746109
 21
83.85724626476491
 31
0.0
1001
AUSTER_ANSICHT
1002
{
1000
Det03
1002
}
1001
AUSTER_FOLIE
1002
{
1000
NSB00029_LS04
1002
}
  0
LINE
  5
B59F
330
20
100
AcDbEntity
  8
11000_Left
 62
     7
370
    50
100
AcDbLine
 39
0.7
 10
166.7472005093562
 20
147.2571462647649
 30
0.0
 11
167.7472005093562
 21
147.2571462647649
 31
0.0
1001
AUSTER_ANSICHT
1002
{
1000
Det03
1002
}
1001
AUSTER_FOLIE
1002
{
1000
NSB00029_LS04
1002
}
  0
LINE
  5
B5A0
330
20
100
AcDbEntity
  8
11000_Left
 62
     7
370
    50
100
AcDbLine
 39
0.7
 10
169.7456005093562
 20
140.3572462647649
 30
0.0
 11
169.7456005093562
 21
126.5572462647649
 31
0.0
1001
AUSTER_ANSICHT
1002
{
1000
Det03
1002
}
1001
AUSTER_FOLIE
1002
{
1000
NSB00029_LS04
1002
}
  0
LINE
  5
B5A1
330
20
100
AcDbEntity
  8
11000_Left
 62
     7
370
    50
100
AcDbLine
 39
0.7
 10
165.6456005093562
 20
126.5572462647649
 30
0.0
 11
162.7456005093562
 21
125.5572462647649
 31
0.0
1001
AUSTER_ANSICHT
1002
{
1000
Det03
1002
}
1001
AUSTER_FOLIE
1002
{
1000
NSB00029_LS04
1002
}
  0
LINE
  5
B5A2
330
20
100
AcDbEntity
  8
11000_Left
 62
     7
370
    50
100
AcDbLine
 39
0.7
 10
162.7456005093562
 20
145.6572462647649
 30
0.0
 11
166.2456005093562
 21
146.6572462647649
 31
0.0
1001
AUSTER_ANSICHT
1002
{
1000
Det03
1002
}
1001
AUSTER_FOLIE
1002
{
1000
NSB00029_LS04
1002
}
  0
LINE
  5
B5AD
330
20
100
AcDbEntity
  8
10000_FRONT
 62
     7
370
    20
100
AcDbLine
 39
0.35
 10
46.30123669746109
 20
165.8572462647649
 30
0.0
 11
48.88566669746109
 21
165.8572462647649
 31
0.0
1001
AUSTER_ANSICHT
1002
{
1000
Det03
1002
}
1001
AUSTER_FOLIE
1002
{
1000
NSB00029_LS04
1002
}
  0
LINE
  5
B5AE
330
20
100
AcDbEntity
  8
10000_FRONT
 62
     7
370
    20
100
AcDbLine
 39
0.35
 10
46.30123669746109
 20
163.8572462647649
 30
0.0
 11
48.88566669746109
 21
163.8572462647649
 31
0.0
1001
AUSTER_ANSICHT
1002
{
1000
Det03
1002
}
1001
AUSTER_FOLIE
1002
{
1000
NSB00029_LS04
1002
}
  0
LINE
  5
B5AF
330
20
100
AcDbEntity
  8
10000_FRONT
 62
     7
370
    20
100
AcDbLine
 39
0.35
 10
48.88566669746109
 20
163.8572462647649
 30
0.0
 11
51.30123669746109
 21
163.8572462647649
 31
0.0
1001
AUSTER_ANSICHT
1002
{
1000
Det03
1002
}
1001
AUSTER_FOLIE
1002
{
1000
NSB00029_LS04
1002
}
  0
LINE
  5
B5B0
330
20
100
AcDbEntity
  8
10000_FRONT
 62
     7
370
    20
100
AcDbLine
 39
0.35
 10
51.30123669746109
 20
163.8572462647649
 30
0.0
 11
51.30123669746109
 21
165.8572462647649
 31
0.0
1001
AUSTER_ANSICHT
1002
{
1000
Det03
1002
}
1001
AUSTER_FOLIE
1002
{
1000
NSB00029_LS04
1002
}
  0
LINE
  5
B5B1
330
20
100
AcDbEntity
  8
10000_FRONT
 62
     7
370
    20
100
AcDbLine
 39
0.35
 10
51.30123669746109
 20
165.8572462647649
 30
0.0
 11
48.88566669746109
 21
165.8572462647649
 31
0.0
1001
AUSTER_ANSICHT
1002
{
1000
Det03
1002
}
1001
AUSTER_FOLIE
1002
{
1000
NSB00029_LS04
1002
}
  0
LINE
  5
B5B2
330
20
100
AcDbEntity
  8
11000_Left
 62
     7
370
    50
100
AcDbLine
 39
0.7
 10
325.5759005093562
 20
165.7986462647649
 30
0.0
 11
325.5759005093562
 21
163.9158462647649
 31
0.0
1001
AUSTER_ANSICHT
1002
{
1000
Det03
1002
}
1001
AUSTER_FOLIE
1002
{
1000
NSB00029_LS04
1002
}
  0
LINE
  5
B5B4
330
20
100
AcDbEntity
  8
11000_Left
 62
     7
370
    50
100
AcDbLine
 39
0.7
 10
327.3759005093562
 20
179.3982462647649
 30
0.0
 11
327.3759005093562
 21
178.1341462647649
 31
0.0
1001
AUSTER_ANSICHT
1002
{
1000
Det03
1002
}
1001
AUSTER_FOLIE
1002
{
1000
NSB00029_LS04
1002
}
  0
LINE
  5
B5B5
330
20
100
AcDbEntity
  8
11000_Left
 62
     7
370
    50
100
AcDbLine
 39
0.7
 10
334.7759005093562
 20
179.3982462647649
 30
0.0
 11
334.7759005093562
 21
178.3982462647649
 31
0.0
1001
AUSTER_ANSICHT
1002
{
1000
Det03
1002
}
1001
AUSTER_FOLIE
1002
{
1000
NSB00029_LS04
1002
}
  0
LINE
  5
B5B6
330
20
100
AcDbEntity
  8
11000_Left
 62
     7
370
    20
100
AcDbLine
 39
0.45
 10
327.3759005093562
 20
178.1341462647649
 30
0.0
 11
327.3759005093562
 21
175.2343462647649
 31
0.0
1001
AUSTER_ANSICHT
1002
{
1000
Det03
1002
}
1001
AUSTER_FOLIE
1002
{
1000
NSB00029_LS04
1002
}
  0
LINE
  5
B5B7
330
20
100
AcDbEntity
  8
11000_Left
 62
     7
370
    20
100
AcDbLine
 39
0.45
 10
334.7759005093562
 20
178.3982462647649
 30
0.0
 11
334.7759005093562
 21
175.2343462647649
 31
0.0
1001
AUSTER_ANSICHT
1002
{
1000
Det03
1002
}
1001
AUSTER_FOLIE
1002
{
1000
NSB00029_LS04
1002
}
  0
LINE
  5
B5B8
330
20
100
AcDbEntity
  8
11000_Left
 62
     7
370
    50
100
AcDbLine
 39
0.7
 10
325.5759005093562
 20
178.1341462647649
 30
0.0
 11
325.5667005093562
 21
172.8572462647649
 31
0.0
1001
AUSTER_ANSICHT
1002
{
1000
Det03
1002
}
1001
AUSTER_FOLIE
1002
{
1000
NSB00029_LS04
1002
}
  0
LINE
  5
B5B9
330
20
100
AcDbEntity
  8
11000_Left
 62
     7
370
    50
100
AcDbLine
 39
0.7
 10
325.5667005093562
 20
172.8572462647649
 30
0.0
 11
325.5759005093562
 21
172.5580462647649
 31
0.0
1001
AUSTER_ANSICHT
1002
{
1000
Det03
1002
}
1001
AUSTER_FOLIE
1002
{
1000
NSB00029_LS04
1002
}
  0
LINE
  5
B5BA
330
20
100
AcDbEntity
  8
11000_Left
 62
     7
370
    50
100
AcDbLine
 39
0.7
 10
325.5667005093562
 20
156.8572462647649
 30
0.0
 11
325.5759005093562
 21
151.3982462647649
 31
0.0
1001
AUSTER_ANSICHT
1002
{
1000
Det03
1002
}
1001
AUSTER_FOLIE
1002
{
1000
NSB00029_LS04
1002
}
  0
LINE
  5
B5BB
330
20
100
AcDbEntity
  8
11000_Left
 62
     7
370
    50
100
AcDbLine
 39
0.7
 10
325.5759005093562
 20
157.3932462647649
 30
0.0
 11
325.5667005093562
 21
156.8572462647649
 31
0.0
1001
AUSTER_ANSICHT
1002
{
1000
Det03
1002
}
1001
AUSTER_FOLIE
1002
{
1000
NSB00029_LS04
1002
}
  0
LINE
  5
B5BC
330
20
100
AcDbEntity
  8
11000_Left
 62
     7
370
    20
100
AcDbLine
 39
0.45
 10
224.4456005093562
 20
107.0572462647649
 30
0.0
 11
299.9768005093562
 21
107.0572462647649
 31
0.0
1001
AUSTER_ANSICHT
1002
{
1000
Det03
1002
}
1001
AUSTER_FOLIE
1002
{
1000
NSB00029_LS04
1002
}
  0
LINE
  5
B5BD
330
20
100
AcDbEntity
  8
11000_Left
 62
     7
370
    50
100
AcDbLine
 39
0.7
 10
299.9768005093562
 20
107.0572462647649
 30
0.0
 11
316.6119005093562
 21
107.0572462647649
 31
0.0
1001
AUSTER_ANSICHT
1002
{
1000
Det03
1002
}
1001
AUSTER_FOLIE
1002
{
1000
NSB00029_LS04
1002
}
  0
LINE
  5
B5BE
330
20
100
AcDbEntity
  8
11000_Left
 62
     7
370
    20
100
AcDbLine
 39
0.45
 10
224.4456005093562
 20
222.6572462647649
 30
0.0
 11
299.9768005093562
 21
222.6572462647649
 31
0.0
1001
AUSTER_ANSICHT
1002
{
1000
Det03
1002
}
1001
AUSTER_FOLIE
1002
{
1000
NSB00029_LS04
1002
}
  0
LINE
  5
B5BF
330
20
100
AcDbEntity
  8
11000_Left
 62
     7
370
    50
100
AcDbLine
 39
0.7
 10
299.9768005093562
 20
222.6572462647649
 30
0.0
 11
316.6119005093562
 21
222.6572462647649
 31
0.0
1001
AUSTER_ANSICHT
1002
{
1000
Det03
1002
}
1001
AUSTER_FOLIE
1002
{
1000
NSB00029_LS04
1002
}
  0
LINE
  5
B5C0
330
20
100
AcDbEntity
  8
11000_Left
 62
     7
370
    50
100
AcDbLine
 39
0.7
 10
169.7456005093562
 20
127.4571462647649
 30
0.0
 11
167.0456005093562
 21
127.4571462647649
 31
0.0
1001
AUSTER_ANSICHT
1002
{
1000
Det03
1002
}
1001
AUSTER_FOLIE
1002
{
1000
NSB00029_LS04
1002
}
  0
LINE
  5
B5C1
330
20
100
AcDbEntity
  8
11000_Left
 62
     7
370
    50
100
AcDbLine
 39
0.7
 10
162.7456005093562
 20
125.5572462647649
 30
0.0
 11
163.1783005093562
 21
125.7064462647649
 31
0.0
1001
AUSTER_ANSICHT
1002
{
1000
Det03
1002
}
1001
AUSTER_FOLIE
1002
{
1000
NSB00029_LS04
1002
}
  0
LINE
  5
B5C2
330
20
100
AcDbEntity
  8
11000_Left
 62
     7
370
    50
100
AcDbLine
 39
0.7
 10
162.7456005093562
 20
145.6572462647649
 30
0.0
 11
163.0282005093562
 21
145.7379462647649
 31
0.0
1001
AUSTER_ANSICHT
1002
{
1000
Det03
1002
}
1001
AUSTER_FOLIE
1002
{
1000
NSB00029_LS04
1002
}
  0
LINE
  5
B5C3
330
20
100
AcDbEntity
  8
10000_FRONT
 62
     7
370
    20
100
AcDbLine
 39
0.35
 10
88.66320669746107
 20
219.0559462647649
 30
0.0
 11
89.57400669746107
 21
219.0952462647649
 31
0.0
1001
AUSTER_ANSICHT
1002
{
1000
Det03
1002
}
1001
AUSTER_FOLIE
1002
{
1000
NSB00029_LS04
1002
}
  0
LINE
  5
B5C4
330
20
100
AcDbEntity
  8
10000_FRONT
 62
     7
370
    20
100
AcDbLine
 39
0.35
 10
89.57400669746107
 20
219.0952462647649
 30
0.0
 11
89.61750669746107
 21
220.0016462647649
 31
0.0
1001
AUSTER_ANSICHT
1002
{
1000
Det03
1002
}
1001
AUSTER_FOLIE
1002
{
1000
NSB00029_LS04
1002
}
  0
LINE
  5
B5C5
330
20
100
AcDbEntity
  8
10000_FRONT
 62
     7
370
    20
100
AcDbLine
 39
0.35
 10
89.61750669746107
 20
220.0016462647649
 30
0.0
 11
90.40280669746108
 21
219.998146264765
 31
0.0
1001
AUSTER_ANSICHT
1002
{
1000
Det03
1002
}
1001
AUSTER_FOLIE
1002
{
1000
NSB00029_LS04
1002
}
  0
LINE
  5
B5C6
330
20
100
AcDbEntity
  8
10000_FRONT
 62
     7
370
    20
100
AcDbLine
 39
0.35
 10
90.40280669746108
 20
219.998146264765
 30
0.0
 11
90.44590669746105
 21
219.0912462647649
 31
0.0
1001
AUSTER_ANSICHT
1002
{
1000
Det03
1002
}
1001
AUSTER_FOLIE
1002
{
1000
NSB00029_LS04
1002
}
  0
LINE
  5
B5C7
330
20
100
AcDbEntity
  8
10000_FRONT
 62
     7
370
    20
100
AcDbLine
 39
0.35
 10
90.44590669746105
 20
219.0912462647649
 30
0.0
 11
91.34860669746107
 21
219.0439462647649
 31
0.0
1001
AUSTER_ANSICHT
1002
{
1000
Det03
1002
}
1001
AUSTER_FOLIE
1002
{
1000
NSB00029_LS04
1002
}
  0
LINE
  5
B5C8
330
20
100
AcDbEntity
  8
10000_FRONT
 62
     7
370
    20
100
AcDbLine
 39
0.35
 10
91.34860669746107
 20
219.0439462647649
 30
0.0
 11
91.34860669746107
 21
218.2705462647649
 31
0.0
1001
AUSTER_ANSICHT
1002
{
1000
Det03
1002
}
1001
AUSTER_FOLIE
1002
{
1000
NSB00029_LS04
1002
}
  0
LINE
  5
B5C9
330
20
100
AcDbEntity
  8
10000_FRONT
 62
     7
370
    20
100
AcDbLine
 39
0.35
 10
91.34860669746107
 20
218.2705462647649
 30
0.0
 11
90.44590669746105
 21
218.2232462647649
 31
0.0
1001
AUSTER_ANSICHT
1002
{
1000
Det03
1002
}
1001
AUSTER_FOLIE
1002
{
1000
NSB00029_LS04
1002
}
  0
LINE
  5
B5CA
330
20
100
AcDbEntity
  8
10000_FRONT
 62
     7
370
    20
100
AcDbLine
 39
0.35
 10
90.44590669746105
 20
218.2232462647649
 30
0.0
 11
90.40280669746108
 21
217.3163462647649
 31
0.0
1001
AUSTER_ANSICHT
1002
{
1000
Det03
1002
}
1001
AUSTER_FOLIE
1002
{
1000
NSB00029_LS04
1002
}
  0
LINE
  5
B5CB
330
20
100
AcDbEntity
  8
10000_FRONT
 62
     7
370
    20
100
AcDbLine
 39
0.35
 10
90.40280669746108
 20
217.3163462647649
 30
0.0
 11
89.61750669746107
 21
217.3127462647649
 31
0.0
1001
AUSTER_ANSICHT
1002
{
1000
Det03
1002
}
1001
AUSTER_FOLIE
1002
{
1000
NSB00029_LS04
1002
}
  0
LINE
  5
B5CC
330
20
100
AcDbEntity
  8
10000_FRONT
 62
     7
370
    20
100
AcDbLine
 39
0.35
 10
89.61750669746107
 20
217.3127462647649
 30
0.0
 11
89.57400669746107
 21
218.2192462647649
 31
0.0
1001
AUSTER_ANSICHT
1002
{
1000
Det03
1002
}
1001
AUSTER_FOLIE
1002
{
1000
NSB00029_LS04
1002
}
  0
LINE
  5
B5CD
330
20
100
AcDbEntity
  8
10000_FRONT
 62
     7
370
    20
100
AcDbLine
 39
0.35
 10
89.57400669746107
 20
218.2192462647649
 30
0.0
 11
88.66320669746107
 21
218.2585462647649
 31
0.0
1001
AUSTER_ANSICHT
1002
{
1000
Det03
1002
}
1001
AUSTER_FOLIE
1002
{
1000
NSB00029_LS04
1002
}
  0
LINE
  5
B5CE
330
20
100
AcDbEntity
  8
10000_FRONT
 62
     7
370
    20
100
AcDbLine
 39
0.35
 10
88.66320669746107
 20
218.2585462647649
 30
0.0
 11
88.66320669746107
 21
219.0559462647649
 31
0.0
1001
AUSTER_ANSICHT
1002
{
1000
Det03
1002
}
1001
AUSTER_FOLIE
1002
{
1000
NSB00029_LS04
1002
}
  0
LINE
  5
B5CF
330
20
100
AcDbEntity
  8
10000_FRONT
 62
     7
370
    20
100
AcDbLine
 39
0.35
 10
32.67128669746109
 20
219.0439462647649
 30
0.0
 11
33.57396669746106
 21
219.0912462647649
 31
0.0
1001
AUSTER_ANSICHT
1002
{
1000
Det03
1002
}
1001
AUSTER_FOLIE
1002
{
1000
NSB00029_LS04
1002
}
  0
LINE
  5
B5D0
330
20
100
AcDbEntity
  8
10000_FRONT
 62
     7
370
    20
100
AcDbLine
 39
0.35
 10
33.57396669746106
 20
219.0912462647649
 30
0.0
 11
33.61703669746106
 21
219.998146264765
 31
0.0
1001
AUSTER_ANSICHT
1002
{
1000
Det03
1002
}
1001
AUSTER_FOLIE
1002
{
1000
NSB00029_LS04
1002
}
  0
LINE
  5
B5D1
330
20
100
AcDbEntity
  8
10000_FRONT
 62
     7
370
    20
100
AcDbLine
 39
0.35
 10
33.61703669746106
 20
219.998146264765
 30
0.0
 11
34.40242669746107
 21
220.0016462647649
 31
0.0
1001
AUSTER_ANSICHT
1002
{
1000
Det03
1002
}
1001
AUSTER_FOLIE
1002
{
1000
NSB00029_LS04
1002
}
  0
LINE
  5
B5D2
330
20
100
AcDbEntity
  8
10000_FRONT
 62
     7
370
    20
100
AcDbLine
 39
0.35
 10
34.40242669746107
 20
220.0016462647649
 30
0.0
 11
34.44593669746109
 21
219.0952462647649
 31
0.0
1001
AUSTER_ANSICHT
1002
{
1000
Det03
1002
}
1001
AUSTER_FOLIE
1002
{
1000
NSB00029_LS04
1002
}
  0
LINE
  5
B5D3
330
20
100
AcDbEntity
  8
10000_FRONT
 62
     7
370
    20
100
AcDbLine
 39
0.35
 10
34.44593669746109
 20
219.0952462647649
 30
0.0
 11
35.3566866974611
 21
219.0559462647649
 31
0.0
1001
AUSTER_ANSICHT
1002
{
1000
Det03
1002
}
1001
AUSTER_FOLIE
1002
{
1000
NSB00029_LS04
1002
}
  0
LINE
  5
B5D4
330
20
100
AcDbEntity
  8
10000_FRONT
 62
     7
370
    20
100
AcDbLine
 39
0.35
 10
35.3566866974611
 20
219.0559462647649
 30
0.0
 11
35.3566866974611
 21
218.2585462647649
 31
0.0
1001
AUSTER_ANSICHT
1002
{
1000
Det03
1002
}
1001
AUSTER_FOLIE
1002
{
1000
NSB00029_LS04
1002
}
  0
LINE
  5
B5D5
330
20
100
AcDbEntity
  8
10000_FRONT
 62
     7
370
    20
100
AcDbLine
 39
0.35
 10
35.3566866974611
 20
218.2585462647649
 30
0.0
 11
34.44593669746109
 21
218.2192462647649
 31
0.0
1001
AUSTER_ANSICHT
1002
{
1000
Det03
1002
}
1001
AUSTER_FOLIE
1002
{
1000
NSB00029_LS04
1002
}
  0
LINE
  5
B5D6
330
20
100
AcDbEntity
  8
10000_FRONT
 62
     7
370
    20
100
AcDbLine
 39
0.35
 10
34.44593669746109
 20
218.2192462647649
 30
0.0
 11
34.40242669746107
 21
217.3127462647649
 31
0.0
1001
AUSTER_ANSICHT
1002
{
1000
Det03
1002
}
1001
AUSTER_FOLIE
1002
{
1000
NSB00029_LS04
1002
}
  0
LINE
  5
B5D7
330
20
100
AcDbEntity
  8
10000_FRONT
 62
     7
370
    20
100
AcDbLine
 39
0.35
 10
34.40242669746107
 20
217.3127462647649
 30
0.0
 11
33.61703669746106
 21
217.3163462647649
 31
0.0
1001
AUSTER_ANSICHT
1002
{
1000
Det03
1002
}
1001
AUSTER_FOLIE
1002
{
1000
NSB00029_LS04
1002
}
  0
LINE
  5
B5D8
330
20
100
AcDbEntity
  8
10000_FRONT
 62
     7
370
    20
100
AcDbLine
 39
0.35
 10
33.61703669746106
 20
217.3163462647649
 30
0.0
 11
33.57396669746106
 21
218.2232462647649
 31
0.0
1001
AUSTER_ANSICHT
1002
{
1000
Det03
1002
}
1001
AUSTER_FOLIE
1002
{
1000
NSB00029_LS04
1002
}
  0
LINE
  5
B5D9
330
20
100
AcDbEntity
  8
10000_FRONT
 62
     7
370
    20
100
AcDbLine
 39
0.35
 10
33.57396669746106
 20
218.2232462647649
 30
0.0
 11
32.67128669746109
 21
218.2705462647649
 31
0.0
1001
AUSTER_ANSICHT
1002
{
1000
Det03
1002
}
1001
AUSTER_FOLIE
1002
{
1000
NSB00029_LS04
1002
}
  0
LINE
  5
B5DA
330
20
100
AcDbEntity
  8
10000_FRONT
 62
     7
370
    20
100
AcDbLine
 39
0.35
 10
32.67128669746109
 20
218.2705462647649
 30
0.0
 11
32.67128669746109
 21
219.0439462647649
 31
0.0
1001
AUSTER_ANSICHT
1002
{
1000
Det03
1002
}
1001
AUSTER_FOLIE
1002
{
1000
NSB00029_LS04
1002
}
  0
LINE
  5
B5DB
330
20
100
AcDbEntity
  8
10000_FRONT
 62
     7
370
    20
100
AcDbLine
 39
0.35
 10
49.42128669746107
 20
111.4439462647649
 30
0.0
 11
50.32396669746105
 21
111.4912462647649
 31
0.0
1001
AUSTER_ANSICHT
1002
{
1000
Det03
1002
}
1001
AUSTER_FOLIE
1002
{
1000
NSB00029_LS04
1002
}
  0
LINE
  5
B5DC
330
20
100
AcDbEntity
  8
10000_FRONT
 62
     7
370
    20
100
AcDbLine
 39
0.35
 10
50.32396669746105
 20
111.4912462647649
 30
0.0
 11
50.36703669746112
 21
112.3981462647649
 31
0.0
1001
AUSTER_ANSICHT
1002
{
1000
Det03
1002
}
1001
AUSTER_FOLIE
1002
{
1000
NSB00029_LS04
1002
}
  0
LINE
  5
B5DD
330
20
100
AcDbEntity
  8
10000_FRONT
 62
     7
370
    20
100
AcDbLine
 39
0.35
 10
50.36703669746112
 20
112.3981462647649
 30
0.0
 11
51.15242669746105
 21
112.4017462647649
 31
0.0
1001
AUSTER_ANSICHT
1002
{
1000
Det03
1002
}
1001
AUSTER_FOLIE
1002
{
1000
NSB00029_LS04
1002
}
  0
LINE
  5
B5DE
330
20
100
AcDbEntity
  8
10000_FRONT
 62
     7
370
    20
100
AcDbLine
 39
0.35
 10
51.15242669746105
 20
112.4017462647649
 30
0.0
 11
51.19593669746109
 21
111.4952462647649
 31
0.0
1001
AUSTER_ANSICHT
1002
{
1000
Det03
1002
}
1001
AUSTER_FOLIE
1002
{
1000
NSB00029_LS04
1002
}
  0
LINE
  5
B5DF
330
20
100
AcDbEntity
  8
10000_FRONT
 62
     7
370
    20
100
AcDbLine
 39
0.35
 10
51.19593669746109
 20
111.4952462647649
 30
0.0
 11
52.1066866974611
 21
111.4559462647649
 31
0.0
1001
AUSTER_ANSICHT
1002
{
1000
Det03
1002
}
1001
AUSTER_FOLIE
1002
{
1000
NSB00029_LS04
1002
}
  0
LINE
  5
B5E0
330
20
100
AcDbEntity
  8
10000_FRONT
 62
     7
370
    20
100
AcDbLine
 39
0.35
 10
52.1066866974611
 20
111.4559462647649
 30
0.0
 11
52.1066866974611
 21
110.6585462647649
 31
0.0
1001
AUSTER_ANSICHT
1002
{
1000
Det03
1002
}
1001
AUSTER_FOLIE
1002
{
1000
NSB00029_LS04
1002
}
  0
LINE
  5
B5E1
330
20
100
AcDbEntity
  8
10000_FRONT
 62
     7
370
    20
100
AcDbLine
 39
0.35
 10
52.1066866974611
 20
110.6585462647649
 30
0.0
 11
51.19593669746109
 21
110.6192462647649
 31
0.0
1001
AUSTER_ANSICHT
1002
{
1000
Det03
1002
}
1001
AUSTER_FOLIE
1002
{
1000
NSB00029_LS04
1002
}
  0
LINE
  5
B5E2
330
20
100
AcDbEntity
  8
10000_FRONT
 62
     7
370
    20
100
AcDbLine
 39
0.35
 10
51.19593669746109
 20
110.6192462647649
 30
0.0
 11
51.15242669746105
 21
109.7128462647649
 31
0.0
1001
AUSTER_ANSICHT
1002
{
1000
Det03
1002
}
1001
AUSTER_FOLIE
1002
{
1000
NSB00029_LS04
1002
}
  0
LINE
  5
B5E3
330
20
100
AcDbEntity
  8
10000_FRONT
 62
     7
370
    20
100
AcDbLine
 39
0.35
 10
51.15242669746105
 20
109.7128462647649
 30
0.0
 11
50.36703669746112
 21
109.7163462647649
 31
0.0
1001
AUSTER_ANSICHT
1002
{
1000
Det03
1002
}
1001
AUSTER_FOLIE
1002
{
1000
NSB00029_LS04
1002
}
  0
LINE
  5
B5E4
330
20
100
AcDbEntity
  8
10000_FRONT
 62
     7
370
    20
100
AcDbLine
 39
0.35
 10
50.36703669746112
 20
109.7163462647649
 30
0.0
 11
50.32396669746105
 21
110.6232462647649
 31
0.0
1001
AUSTER_ANSICHT
1002
{
1000
Det03
1002
}
1001
AUSTER_FOLIE
1002
{
1000
NSB00029_LS04
1002
}
  0
LINE
  5
B5E5
330
20
100
AcDbEntity
  8
10000_FRONT
 62
     7
370
    20
100
AcDbLine
 39
0.35
 10
50.32396669746105
 20
110.6232462647649
 30
0.0
 11
49.42128669746107
 21
110.6705462647649
 31
0.0
1001
AUSTER_ANSICHT
1002
{
1000
Det03
1002
}
1001
AUSTER_FOLIE
1002
{
1000
NSB00029_LS04
1002
}
  0
LINE
  5
B5E6
330
20
100
AcDbEntity
  8
10000_FRONT
 62
     7
370
    20
100
AcDbLine
 39
0.35
 10
49.42128669746107
 20
110.6705462647649
 30
0.0
 11
49.42128669746107
 21
111.4439462647649
 31
0.0
1001
AUSTER_ANSICHT
1002
{
1000
Det03
1002
}
1001
AUSTER_FOLIE
1002
{
1000
NSB00029_LS04
1002
}
  0
LINE
  5
B5E7
330
20
100
AcDbEntity
  8
10000_FRONT
 62
     7
370
    20
100
AcDbLine
 39
0.35
 10
71.91320669746108
 20
111.4559462647649
 30
0.0
 11
72.82395669746108
 21
111.4952462647649
 31
0.0
1001
AUSTER_ANSICHT
1002
{
1000
Det03
1002
}
1001
AUSTER_FOLIE
1002
{
1000
NSB00029_LS04
1002
}
  0
LINE
  5
B5E8
330
20
100
AcDbEntity
  8
10000_FRONT
 62
     7
370
    20
100
AcDbLine
 39
0.35
 10
72.82395669746108
 20
111.4952462647649
 30
0.0
 11
72.86746669746104
 21
112.4017462647649
 31
0.0
1001
AUSTER_ANSICHT
1002
{
1000
Det03
1002
}
1001
AUSTER_FOLIE
1002
{
1000
NSB00029_LS04
1002
}
  0
LINE
  5
B5E9
330
20
100
AcDbEntity
  8
10000_FRONT
 62
     7
370
    20
100
AcDbLine
 39
0.35
 10
72.86746669746104
 20
112.4017462647649
 30
0.0
 11
73.65285669746106
 21
112.3981462647649
 31
0.0
1001
AUSTER_ANSICHT
1002
{
1000
Det03
1002
}
1001
AUSTER_FOLIE
1002
{
1000
NSB00029_LS04
1002
}
  0
LINE
  5
B5EA
330
20
100
AcDbEntity
  8
10000_FRONT
 62
     7
370
    20
100
AcDbLine
 39
0.35
 10
73.65285669746106
 20
112.3981462647649
 30
0.0
 11
73.69592669746106
 21
111.4912462647649
 31
0.0
1001
AUSTER_ANSICHT
1002
{
1000
Det03
1002
}
1001
AUSTER_FOLIE
1002
{
1000
NSB00029_LS04
1002
}
  0
LINE
  5
B5EB
330
20
100
AcDbEntity
  8
10000_FRONT
 62
     7
370
    20
100
AcDbLine
 39
0.35
 10
73.69592669746106
 20
111.4912462647649
 30
0.0
 11
74.5986066974611
 21
111.4439462647649
 31
0.0
1001
AUSTER_ANSICHT
1002
{
1000
Det03
1002
}
1001
AUSTER_FOLIE
1002
{
1000
NSB00029_LS04
1002
}
  0
LINE
  5
B5EC
330
20
100
AcDbEntity
  8
10000_FRONT
 62
     7
370
    20
100
AcDbLine
 39
0.35
 10
74.5986066974611
 20
111.4439462647649
 30
0.0
 11
74.5986066974611
 21
110.6705462647649
 31
0.0
1001
AUSTER_ANSICHT
1002
{
1000
Det03
1002
}
1001
AUSTER_FOLIE
1002
{
1000
NSB00029_LS04
1002
}
  0
LINE
  5
B5ED
330
20
100
AcDbEntity
  8
10000_FRONT
 62
     7
370
    20
100
AcDbLine
 39
0.35
 10
74.5986066974611
 20
110.6705462647649
 30
0.0
 11
73.69592669746106
 21
110.6232462647649
 31
0.0
1001
AUSTER_ANSICHT
1002
{
1000
Det03
1002
}
1001
AUSTER_FOLIE
1002
{
1000
NSB00029_LS04
1002
}
  0
LINE
  5
B5EE
330
20
100
AcDbEntity
  8
10000_FRONT
 62
     7
370
    20
100
AcDbLine
 39
0.35
 10
73.69592669746106
 20
110.6232462647649
 30
0.0
 11
73.65285669746106
 21
109.7163462647649
 31
0.0
1001
AUSTER_ANSICHT
1002
{
1000
Det03
1002
}
1001
AUSTER_FOLIE
1002
{
1000
NSB00029_LS04
1002
}
  0
LINE
  5
B5EF
330
20
100
AcDbEntity
  8
10000_FRONT
 62
     7
370
    20
100
AcDbLine
 39
0.35
 10
73.65285669746106
 20
109.7163462647649
 30
0.0
 11
72.86746669746104
 21
109.7128462647649
 31
0.0
1001
AUSTER_ANSICHT
1002
{
1000
Det03
1002
}
1001
AUSTER_FOLIE
1002
{
1000
NSB00029_LS04
1002
}
  0
LINE
  5
B5F0
330
20
100
AcDbEntity
  8
10000_FRONT
 62
     7
370
    20
100
AcDbLine
 39
0.35
 10
72.86746669746104
 20
109.7128462647649
 30
0.0
 11
72.82395669746108
 21
110.6192462647649
 31
0.0
1001
AUSTER_ANSICHT
1002
{
1000
Det03
1002
}
1001
AUSTER_FOLIE
1002
{
1000
NSB00029_LS04
1002
}
  0
LINE
  5
B5F1
330
20
100
AcDbEntity
  8
10000_FRONT
 62
     7
370
    20
100
AcDbLine
 39
0.35
 10
72.82395669746108
 20
110.6192462647649
 30
0.0
 11
71.91320669746108
 21
110.6585462647649
 31
0.0
1001
AUSTER_ANSICHT
1002
{
1000
Det03
1002
}
1001
AUSTER_FOLIE
1002
{
1000
NSB00029_LS04
1002
}
  0
LINE
  5
B5F2
330
20
100
AcDbEntity
  8
10000_FRONT
 62
     7
370
    20
100
AcDbLine
 39
0.35
 10
71.91320669746108
 20
110.6585462647649
 30
0.0
 11
71.91320669746108
 21
111.4559462647649
 31
0.0
1001
AUSTER_ANSICHT
1002
{
1000
Det03
1002
}
1001
AUSTER_FOLIE
1002
{
1000
NSB00029_LS04
1002
}
  0
LINE
  5
B5F3
330
20
100
AcDbEntity
  8
10000_FRONT
 62
     7
370
    20
100
AcDbLine
 39
0.35
 10
52.10994669746106
 20
83.95724626476493
 30
0.0
 11
54.00994669746109
 21
83.95624626476495
 31
0.0
1001
AUSTER_ANSICHT
1002
{
1000
Det03
1002
}
1001
AUSTER_FOLIE
1002
{
1000
NSB00029_LS04
1002
}
  0
LINE
  5
B5F4
330
20
100
AcDbEntity
  8
10000_FRONT
 62
     7
370
    20
100
AcDbLine
 39
0.35
 10
70.00994669746109
 20
83.95624626476495
 30
0.0
 11
71.90994669746107
 21
83.95724626476493
 31
0.0
1001
AUSTER_ANSICHT
1002
{
1000
Det03
1002
}
1001
AUSTER_FOLIE
1002
{
1000
NSB00029_LS04
1002
}
  0
LINE
  5
B5F5
330
20
100
AcDbEntity
  8
10000_FRONT
 62
     7
370
    50
100
AcDbLine
 39
0.7
 10
54.00994669746109
 20
83.95624626476495
 30
0.0
 11
70.00994669746109
 21
83.95624626476495
 31
0.0
1001
AUSTER_ANSICHT
1002
{
1000
Det03
1002
}
1001
AUSTER_FOLIE
1002
{
1000
NSB00029_LS04
1002
}
  0
LINE
  5
B5F6
330
20
100
AcDbEntity
  8
11000_Left
 62
     7
370
    50
100
AcDbLine
 39
0.7
 10
317.4042005093562
 20
221.9671462647649
 30
0.0
 11
317.5017005093561
 21
221.3469462647649
 31
0.0
1001
AUSTER_ANSICHT
1002
{
1000
Det03
1002
}
1001
AUSTER_FOLIE
1002
{
1000
NSB00029_LS04
1002
}
  0
LINE
  5
B5FE
330
20
100
AcDbEntity
  8
10000_FRONT
 62
     7
370
    20
100
AcDbLine
 39
0.35
 10
41.90994669746106
 20
153.0160462647649
 30
0.0
 11
82.10990669746108
 21
153.0160462647649
 31
0.0
1001
AUSTER_ANSICHT
1002
{
1000
Det03
1002
}
1001
AUSTER_FOLIE
1002
{
1000
NSB00029_LS04
1002
}
  0
LINE
  5
B5FF
330
20
100
AcDbEntity
  8
10000_FRONT
 62
     7
370
    20
100
AcDbLine
 39
0.35
 10
85.44090669746106
 20
145.8389462647649
 30
0.0
 11
38.5789766974611
 21
145.8389462647649
 31
0.0
1001
AUSTER_ANSICHT
1002
{
1000
Det03
1002
}
1001
AUSTER_FOLIE
1002
{
1000
NSB00029_LS04
1002
}
  0
LINE
  5
B600
330
20
100
AcDbEntity
  8
10000_FRONT
 62
     7
370
    20
100
AcDbLine
 39
0.35
 10
27.00994669746109
 20
106.9565462647649
 30
0.0
 11
97.01040669746106
 21
106.9565462647649
 31
0.0
1001
AUSTER_ANSICHT
1002
{
1000
Det03
1002
}
1001
AUSTER_FOLIE
1002
{
1000
NSB00029_LS04
1002
}
  0
LINE
  5
B601
330
20
100
AcDbEntity
  8
11000_Left
 62
     7
370
    50
100
AcDbLine
 39
0.7
 10
249.9956005093562
 20
243.4572462647649
 30
0.0
 11
267.1956005093562
 21
243.4572462647649
 31
0.0
1001
AUSTER_ANSICHT
1002
{
1000
Det03
1002
}
1001
AUSTER_FOLIE
1002
{
1000
NSB00029_LS04
1002
}
  0
LINE
  5
B602
330
20
100
AcDbEntity
  8
10000_FRONT
 62
     7
370
    20
100
AcDbLine
 39
0.35
 10
27.00993669746106
 20
187.357246264765
 30
0.0
 11
97.00990669746108
 21
187.357246264765
 31
0.0
1001
AUSTER_ANSICHT
1002
{
1000
Det03
1002
}
1001
AUSTER_FOLIE
1002
{
1000
NSB00029_LS04
1002
}
  0
LINE
  5
B603
330
20
100
AcDbEntity
  8
10000_FRONT
 62
     7
370
    20
100
AcDbLine
 39
0.35
 10
32.40994669746108
 20
181.0072462647649
 30
0.0
 11
32.40994669746108
 21
182.0072462647649
 31
0.0
1001
AUSTER_ANSICHT
1002
{
1000
Det03
1002
}
1001
AUSTER_FOLIE
1002
{
1000
NSB00029_LS04
1002
}
  0
LINE
  5
B604
330
20
100
AcDbEntity
  8
10000_FRONT
 62
     7
370
    20
100
AcDbLine
 39
0.35
 10
32.40994669746108
 20
181.0072462647649
 30
0.0
 11
35.40994669746107
 21
181.0072462647649
 31
0.0
1001
AUSTER_ANSICHT
1002
{
1000
Det03
1002
}
1001
AUSTER_FOLIE
1002
{
1000
NSB00029_LS04
1002
}
  0
LINE
  5
B605
330
20
100
AcDbEntity
  8
10000_FRONT
 62
     7
370
    20
100
AcDbLine
 39
0.35
 10
32.40994669746108
 20
182.0072462647649
 30
0.0
 11
35.40994669746107
 21
182.0072462647649
 31
0.0
1001
AUSTER_ANSICHT
1002
{
1000
Det03
1002
}
1001
AUSTER_FOLIE
1002
{
1000
NSB00029_LS04
1002
}
  0
LINE
  5
B606
330
20
100
AcDbEntity
  8
10000_FRONT
 62
     7
370
    20
100
AcDbLine
 39
0.35
 10
35.40994669746107
 20
182.0072462647649
 30
0.0
 11
35.40994669746107
 21
181.0072462647649
 31
0.0
1001
AUSTER_ANSICHT
1002
{
1000
Det03
1002
}
1001
AUSTER_FOLIE
1002
{
1000
NSB00029_LS04
1002
}
  0
LINE
  5
B607
330
20
100
AcDbEntity
  8
10000_FRONT
 62
     7
370
    20
100
AcDbLine
 39
0.35
 10
46.6099066974611
 20
181.0072462647649
 30
0.0
 11
46.6099066974611
 21
182.0072462647649
 31
0.0
1001
AUSTER_ANSICHT
1002
{
1000
Det03
1002
}
1001
AUSTER_FOLIE
1002
{
1000
NSB00029_LS04
1002
}
  0
LINE
  5
B608
330
20
100
AcDbEntity
  8
10000_FRONT
 62
     7
370
    20
100
AcDbLine
 39
0.35
 10
46.6099066974611
 20
181.0072462647649
 30
0.0
 11
43.6099066974611
 21
181.0072462647649
 31
0.0
1001
AUSTER_ANSICHT
1002
{
1000
Det03
1002
}
1001
AUSTER_FOLIE
1002
{
1000
NSB00029_LS04
1002
}
  0
LINE
  5
B609
330
20
100
AcDbEntity
  8
10000_FRONT
 62
     7
370
    20
100
AcDbLine
 39
0.35
 10
46.6099066974611
 20
182.0072462647649
 30
0.0
 11
43.6099066974611
 21
182.0072462647649
 31
0.0
1001
AUSTER_ANSICHT
1002
{
1000
Det03
1002
}
1001
AUSTER_FOLIE
1002
{
1000
NSB00029_LS04
1002
}
  0
LINE
  5
B60A
330
20
100
AcDbEntity
  8
10000_FRONT
 62
     7
370
    20
100
AcDbLine
 39
0.35
 10
43.6099066974611
 20
182.0072462647649
 30
0.0
 11
43.6099066974611
 21
181.0072462647649
 31
0.0
1001
AUSTER_ANSICHT
1002
{
1000
Det03
1002
}
1001
AUSTER_FOLIE
1002
{
1000
NSB00029_LS04
1002
}
  0
LINE
  5
B60B
330
20
100
AcDbEntity
  8
10000_FRONT
 62
     7
370
    20
100
AcDbLine
 39
0.35
 10
30.41088669746108
 20
158.6571462647649
 30
0.0
 11
35.61048669746107
 21
158.6580462647649
 31
0.0
1001
AUSTER_ANSICHT
1002
{
1000
Det03
1002
}
1001
AUSTER_FOLIE
1002
{
1000
NSB00029_LS04
1002
}
  0
LINE
  5
B60C
330
20
100
AcDbEntity
  8
10000_FRONT
 62
     7
370
    20
100
AcDbLine
 39
0.35
 10
35.61048669746107
 20
158.6580462647649
 30
0.0
 11
35.61048669746107
 21
155.4558462647649
 31
0.0
1001
AUSTER_ANSICHT
1002
{
1000
Det03
1002
}
1001
AUSTER_FOLIE
1002
{
1000
NSB00029_LS04
1002
}
  0
LINE
  5
B60D
330
20
100
AcDbEntity
  8
10000_FRONT
 62
     7
370
    20
100
AcDbLine
 39
0.35
 10
35.61048669746107
 20
155.4558462647649
 30
0.0
 11
30.40964669746109
 21
155.4558462647649
 31
0.0
1001
AUSTER_ANSICHT
1002
{
1000
Det03
1002
}
1001
AUSTER_FOLIE
1002
{
1000
NSB00029_LS04
1002
}
  0
LINE
  5
B60E
330
20
100
AcDbEntity
  8
10000_FRONT
 62
     7
370
    20
100
AcDbLine
 39
0.35
 10
30.40964669746109
 20
155.4558462647649
 30
0.0
 11
30.41088669746108
 21
158.6571462647649
 31
0.0
1001
AUSTER_ANSICHT
1002
{
1000
Det03
1002
}
1001
AUSTER_FOLIE
1002
{
1000
NSB00029_LS04
1002
}
  0
LINE
  5
B60F
330
20
100
AcDbEntity
  8
10000_FRONT
 62
     7
370
    20
100
AcDbLine
 39
0.35
 10
27.00994669746109
 20
142.3572462647649
 30
0.0
 11
97.01000669746113
 21
142.3572462647649
 31
0.0
1001
AUSTER_ANSICHT
1002
{
1000
Det03
1002
}
1001
AUSTER_FOLIE
1002
{
1000
NSB00029_LS04
1002
}
  0
LINE
  5
B610
330
20
100
AcDbEntity
  8
10000_FRONT
 62
     7
370
    20
100
AcDbLine
 39
0.35
 10
41.90994669746106
 20
151.8597462647649
 30
0.0
 11
41.90994669746106
 21
153.0160462647649
 31
0.0
1001
AUSTER_ANSICHT
1002
{
1000
Det03
1002
}
1001
AUSTER_FOLIE
1002
{
1000
NSB00029_LS04
1002
}
  0
LINE
  5
B611
330
20
100
AcDbEntity
  8
10000_FRONT
 62
     7
370
    20
100
AcDbLine
 39
0.35
 10
82.10990669746108
 20
153.0160462647649
 30
0.0
 11
82.10990669746108
 21
151.8592462647649
 31
0.0
1001
AUSTER_ANSICHT
1002
{
1000
Det03
1002
}
1001
AUSTER_FOLIE
1002
{
1000
NSB00029_LS04
1002
}
  0
LINE
  5
B612
330
20
100
AcDbEntity
  8
10000_FRONT
 62
     7
370
    20
100
AcDbLine
 39
0.35
 10
62.00994669746108
 20
153.0160462647649
 30
0.0
 11
62.00994669746108
 21
145.8389462647649
 31
0.0
1001
AUSTER_ANSICHT
1002
{
1000
Det03
1002
}
1001
AUSTER_FOLIE
1002
{
1000
NSB00029_LS04
1002
}
  0
LINE
  5
B613
330
20
100
AcDbEntity
  8
10000_FRONT
 62
     7
370
    20
100
AcDbLine
 39
0.35
 10
41.90994669746106
 20
151.8597462647649
 30
0.0
 11
41.90994669746106
 21
145.8389462647649
 31
0.0
1001
AUSTER_ANSICHT
1002
{
1000
Det03
1002
}
1001
AUSTER_FOLIE
1002
{
1000
NSB00029_LS04
1002
}
  0
LINE
  5
B614
330
20
100
AcDbEntity
  8
10000_FRONT
 62
     7
370
    20
100
AcDbLine
 39
0.35
 10
82.10990669746108
 20
151.8592462647649
 30
0.0
 11
82.10990669746108
 21
145.8389462647649
 31
0.0
1001
AUSTER_ANSICHT
1002
{
1000
Det03
1002
}
1001
AUSTER_FOLIE
1002
{
1000
NSB00029_LS04
1002
}
  0
LINE
  5
B615
330
20
100
AcDbEntity
  8
10000_FRONT
 62
     7
370
    20
100
AcDbLine
 39
0.35
 10
27.00994669746109
 20
239.857246264765
 30
0.0
 11
97.00990669746108
 21
239.857246264765
 31
0.0
1001
AUSTER_ANSICHT
1002
{
1000
Det03
1002
}
1001
AUSTER_FOLIE
1002
{
1000
NSB00029_LS04
1002
}
  0
LINE
  5
B616
330
20
100
AcDbEntity
  8
10000_FRONT
 62
     7
370
    20
100
AcDbLine
 39
0.35
 10
97.00990669746108
 20
89.85724626476489
 30
0.0
 11
27.00994669746109
 21
89.85724626476489
 31
0.0
1001
AUSTER_ANSICHT
1002
{
1000
Det03
1002
}
1001
AUSTER_FOLIE
1002
{
1000
NSB00029_LS04
1002
}
  0
LINE
  5
B617
330
20
100
AcDbEntity
  8
10000_FRONT
 62
     7
370
    20
100
AcDbLine
 39
0.35
 10
29.75994669746109
 20
239.857246264765
 30
0.0
 11
29.75994669746109
 21
243.4572462647649
 31
0.0
1001
AUSTER_ANSICHT
1002
{
1000
Det03
1002
}
1001
AUSTER_FOLIE
1002
{
1000
NSB00029_LS04
1002
}
  0
LINE
  5
B618
330
20
100
AcDbEntity
  8
10000_FRONT
 62
     7
370
    20
100
AcDbLine
 39
0.35
 10
94.25990669746107
 20
89.85724626476489
 30
0.0
 11
94.25990669746107
 21
86.25724626476495
 31
0.0
1001
AUSTER_ANSICHT
1002
{
1000
Det03
1002
}
1001
AUSTER_FOLIE
1002
{
1000
NSB00029_LS04
1002
}
  0
LINE
  5
B619
330
20
100
AcDbEntity
  8
10000_FRONT
 62
     7
370
    20
100
AcDbLine
 39
0.35
 10
29.75994669746109
 20
243.4572462647649
 30
0.0
 11
46.3099466974611
 21
243.4572462647649
 31
0.0
1001
AUSTER_ANSICHT
1002
{
1000
Det03
1002
}
1001
AUSTER_FOLIE
1002
{
1000
NSB00029_LS04
1002
}
  0
LINE
  5
B61A
330
20
100
AcDbEntity
  8
10000_FRONT
 62
     7
370
    20
100
AcDbLine
 39
0.35
 10
94.25990669746107
 20
86.25724626476495
 30
0.0
 11
77.70990669746106
 21
86.25724626476495
 31
0.0
1001
AUSTER_ANSICHT
1002
{
1000
Det03
1002
}
1001
AUSTER_FOLIE
1002
{
1000
NSB00029_LS04
1002
}
  0
LINE
  5
B61B
330
20
100
AcDbEntity
  8
10000_FRONT
 62
     7
370
    20
100
AcDbLine
 39
0.35
 10
46.3099466974611
 20
243.4572462647649
 30
0.0
 11
46.30979669746108
 21
239.857246264765
 31
0.0
1001
AUSTER_ANSICHT
1002
{
1000
Det03
1002
}
1001
AUSTER_FOLIE
1002
{
1000
NSB00029_LS04
1002
}
  0
LINE
  5
B61C
330
20
100
AcDbEntity
  8
10000_FRONT
 62
     7
370
    20
100
AcDbLine
 39
0.35
 10
77.70990669746106
 20
86.25724626476495
 30
0.0
 11
77.71010669746106
 21
89.85724626476489
 31
0.0
1001
AUSTER_ANSICHT
1002
{
1000
Det03
1002
}
1001
AUSTER_FOLIE
1002
{
1000
NSB00029_LS04
1002
}
  0
LINE
  5
B61D
330
20
100
AcDbEntity
  8
10000_FRONT
 62
     7
370
    20
100
AcDbLine
 39
0.35
 10
68.8099466974611
 20
243.4572462647649
 30
0.0
 11
68.80979669746108
 21
239.857246264765
 31
0.0
1001
AUSTER_ANSICHT
1002
{
1000
Det03
1002
}
1001
AUSTER_FOLIE
1002
{
1000
NSB00029_LS04
1002
}
  0
LINE
  5
B61E
330
20
100
AcDbEntity
  8
10000_FRONT
 62
     7
370
    20
100
AcDbLine
 39
0.35
 10
55.20995669746104
 20
86.25724626476495
 30
0.0
 11
55.21010669746107
 21
89.85724626476489
 31
0.0
1001
AUSTER_ANSICHT
1002
{
1000
Det03
1002
}
1001
AUSTER_FOLIE
1002
{
1000
NSB00029_LS04
1002
}
  0
LINE
  5
B61F
330
20
100
AcDbEntity
  8
10000_FRONT
 62
     7
370
    20
100
AcDbLine
 39
0.35
 10
55.20994669746108
 20
239.857246264765
 30
0.0
 11
55.20994669746108
 21
243.4572462647649
 31
0.0
1001
AUSTER_ANSICHT
1002
{
1000
Det03
1002
}
1001
AUSTER_FOLIE
1002
{
1000
NSB00029_LS04
1002
}
  0
LINE
  5
B620
330
20
100
AcDbEntity
  8
10000_FRONT
 62
     7
370
    20
100
AcDbLine
 39
0.35
 10
68.80995669746107
 20
89.85724626476489
 30
0.0
 11
68.80995669746107
 21
86.25724626476495
 31
0.0
1001
AUSTER_ANSICHT
1002
{
1000
Det03
1002
}
1001
AUSTER_FOLIE
1002
{
1000
NSB00029_LS04
1002
}
  0
LINE
  5
B621
330
20
100
AcDbEntity
  8
10000_FRONT
 62
     7
370
    20
100
AcDbLine
 39
0.35
 10
55.20994669746108
 20
243.4572462647649
 30
0.0
 11
68.8099466974611
 21
243.4572462647649
 31
0.0
1001
AUSTER_ANSICHT
1002
{
1000
Det03
1002
}
1001
AUSTER_FOLIE
1002
{
1000
NSB00029_LS04
1002
}
  0
LINE
  5
B622
330
20
100
AcDbEntity
  8
10000_FRONT
 62
     7
370
    20
100
AcDbLine
 39
0.35
 10
68.80995669746107
 20
86.25724626476495
 30
0.0
 11
55.20995669746104
 21
86.25724626476495
 31
0.0
1001
AUSTER_ANSICHT
1002
{
1000
Det03
1002
}
1001
AUSTER_FOLIE
1002
{
1000
NSB00029_LS04
1002
}
  0
LINE
  5
B623
330
20
100
AcDbEntity
  8
10000_FRONT
 62
     7
370
    20
100
AcDbLine
 39
0.35
 10
94.25990669746107
 20
243.4572462647649
 30
0.0
 11
94.25990669746107
 21
239.857246264765
 31
0.0
1001
AUSTER_ANSICHT
1002
{
1000
Det03
1002
}
1001
AUSTER_FOLIE
1002
{
1000
NSB00029_LS04
1002
}
  0
LINE
  5
B624
330
20
100
AcDbEntity
  8
10000_FRONT
 62
     7
370
    20
100
AcDbLine
 39
0.35
 10
29.75995669746107
 20
86.25724626476495
 30
0.0
 11
29.75994669746109
 21
89.85724626476489
 31
0.0
1001
AUSTER_ANSICHT
1002
{
1000
Det03
1002
}
1001
AUSTER_FOLIE
1002
{
1000
NSB00029_LS04
1002
}
  0
LINE
  5
B625
330
20
100
AcDbEntity
  8
10000_FRONT
 62
     7
370
    20
100
AcDbLine
 39
0.35
 10
77.70990669746106
 20
243.4572462647649
 30
0.0
 11
94.25990669746107
 21
243.4572462647649
 31
0.0
1001
AUSTER_ANSICHT
1002
{
1000
Det03
1002
}
1001
AUSTER_FOLIE
1002
{
1000
NSB00029_LS04
1002
}
  0
LINE
  5
B626
330
20
100
AcDbEntity
  8
10000_FRONT
 62
     7
370
    20
100
AcDbLine
 39
0.35
 10
46.30995669746106
 20
86.25724626476495
 30
0.0
 11
29.75995669746107
 21
86.25724626476495
 31
0.0
1001
AUSTER_ANSICHT
1002
{
1000
Det03
1002
}
1001
AUSTER_FOLIE
1002
{
1000
NSB00029_LS04
1002
}
  0
LINE
  5
B627
330
20
100
AcDbEntity
  8
10000_FRONT
 62
     7
370
    20
100
AcDbLine
 39
0.35
 10
77.70990669746106
 20
239.857246264765
 30
0.0
 11
77.70990669746106
 21
243.4572462647649
 31
0.0
1001
AUSTER_ANSICHT
1002
{
1000
Det03
1002
}
1001
AUSTER_FOLIE
1002
{
1000
NSB00029_LS04
1002
}
  0
LINE
  5
B628
330
20
100
AcDbEntity
  8
10000_FRONT
 62
     7
370
    20
100
AcDbLine
 39
0.35
 10
46.30995669746106
 20
89.85724626476489
 30
0.0
 11
46.30995669746106
 21
86.25724626476495
 31
0.0
1001
AUSTER_ANSICHT
1002
{
1000
Det03
1002
}
1001
AUSTER_FOLIE
1002
{
1000
NSB00029_LS04
1002
}
  0
LINE
  5
B629
330
20
100
AcDbEntity
  8
10000_FRONT
 62
     7
370
    20
100
AcDbLine
 39
0.35
 10
46.97200669746108
 20
111.0572462647649
 30
0.0
 11
46.97200669746108
 21
106.9565462647649
 31
0.0
1001
AUSTER_ANSICHT
1002
{
1000
Det03
1002
}
1001
AUSTER_FOLIE
1002
{
1000
NSB00029_LS04
1002
}
  0
LINE
  5
B62A
330
20
100
AcDbEntity
  8
10000_FRONT
 62
     7
370
    20
100
AcDbLine
 39
0.35
 10
54.54789669746104
 20
106.9565462647649
 30
0.0
 11
54.54789669746104
 21
111.0572462647649
 31
0.0
1001
AUSTER_ANSICHT
1002
{
1000
Det03
1002
}
1001
AUSTER_FOLIE
1002
{
1000
NSB00029_LS04
1002
}
  0
LINE
  5
B62B
330
20
100
AcDbEntity
  8
10000_FRONT
 62
     7
370
    20
100
AcDbLine
 39
0.35
 10
77.04790669746109
 20
111.0572462647649
 30
0.0
 11
77.04790669746109
 21
106.9565462647649
 31
0.0
1001
AUSTER_ANSICHT
1002
{
1000
Det03
1002
}
1001
AUSTER_FOLIE
1002
{
1000
NSB00029_LS04
1002
}
  0
LINE
  5
B62C
330
20
100
AcDbEntity
  8
10000_FRONT
 62
     7
370
    20
100
AcDbLine
 39
0.35
 10
69.47199669746106
 20
106.9565462647649
 30
0.0
 11
69.47199669746106
 21
111.0572462647649
 31
0.0
1001
AUSTER_ANSICHT
1002
{
1000
Det03
1002
}
1001
AUSTER_FOLIE
1002
{
1000
NSB00029_LS04
1002
}
  0
LINE
  5
B62D
330
20
100
AcDbEntity
  8
10000_FRONT
 62
     7
370
    20
100
AcDbLine
 39
0.35
 10
38.90992669746106
 20
176.8572462647649
 30
0.0
 11
38.90992669746106
 21
179.6072462647649
 31
0.0
1001
AUSTER_ANSICHT
1002
{
1000
Det03
1002
}
1001
AUSTER_FOLIE
1002
{
1000
NSB00029_LS04
1002
}
  0
LINE
  5
B62E
330
20
100
AcDbEntity
  8
10000_FRONT
 62
     7
370
    20
100
AcDbLine
 39
0.35
 10
38.90992669746106
 20
173.1072462647649
 30
0.0
 11
38.90992669746106
 21
175.8572462647649
 31
0.0
1001
AUSTER_ANSICHT
1002
{
1000
Det03
1002
}
1001
AUSTER_FOLIE
1002
{
1000
NSB00029_LS04
1002
}
  0
LINE
  5
B62F
330
20
100
AcDbEntity
  8
10000_FRONT
 62
     7
370
    20
100
AcDbLine
 39
0.35
 10
36.25992669746108
 20
176.8572462647649
 30
0.0
 11
38.90992669746106
 21
176.8572462647649
 31
0.0
1001
AUSTER_ANSICHT
1002
{
1000
Det03
1002
}
1001
AUSTER_FOLIE
1002
{
1000
NSB00029_LS04
1002
}
  0
LINE
  5
B630
330
20
100
AcDbEntity
  8
10000_FRONT
 62
     7
370
    20
100
AcDbLine
 39
0.35
 10
38.90992669746106
 20
175.8572462647649
 30
0.0
 11
36.25992669746108
 21
175.8572462647649
 31
0.0
1001
AUSTER_ANSICHT
1002
{
1000
Det03
1002
}
1001
AUSTER_FOLIE
1002
{
1000
NSB00029_LS04
1002
}
  0
LINE
  5
B631
330
20
100
AcDbEntity
  8
10000_FRONT
 62
     7
370
    20
100
AcDbLine
 39
0.35
 10
36.25992669746108
 20
175.8572462647649
 30
0.0
 11
36.25992669746108
 21
176.8572462647649
 31
0.0
1001
AUSTER_ANSICHT
1002
{
1000
Det03
1002
}
1001
AUSTER_FOLIE
1002
{
1000
NSB00029_LS04
1002
}
  0
LINE
  5
B632
330
20
100
AcDbEntity
  8
10000_FRONT
 62
     7
370
    20
100
AcDbLine
 39
0.35
 10
38.90992669746106
 20
179.6072462647649
 30
0.0
 11
40.1099266974611
 21
179.6072462647649
 31
0.0
1001
AUSTER_ANSICHT
1002
{
1000
Det03
1002
}
1001
AUSTER_FOLIE
1002
{
1000
NSB00029_LS04
1002
}
  0
LINE
  5
B633
330
20
100
AcDbEntity
  8
10000_FRONT
 62
     7
370
    20
100
AcDbLine
 39
0.35
 10
40.1099266974611
 20
173.1072462647649
 30
0.0
 11
38.90992669746106
 21
173.1072462647649
 31
0.0
1001
AUSTER_ANSICHT
1002
{
1000
Det03
1002
}
1001
AUSTER_FOLIE
1002
{
1000
NSB00029_LS04
1002
}
  0
LINE
  5
B634
330
20
100
AcDbEntity
  8
10000_FRONT
 62
     7
370
    20
100
AcDbLine
 39
0.35
 10
41.44641669746106
 20
175.8572462647649
 30
0.0
 11
40.1099266974611
 21
175.8572462647649
 31
0.0
1001
AUSTER_ANSICHT
1002
{
1000
Det03
1002
}
1001
AUSTER_FOLIE
1002
{
1000
NSB00029_LS04
1002
}
  0
LINE
  5
B635
330
20
100
AcDbEntity
  8
10000_FRONT
 62
     7
370
    20
100
AcDbLine
 39
0.35
 10
40.1099266974611
 20
176.8572462647649
 30
0.0
 11
41.44641669746106
 21
176.8572462647649
 31
0.0
1001
AUSTER_ANSICHT
1002
{
1000
Det03
1002
}
1001
AUSTER_FOLIE
1002
{
1000
NSB00029_LS04
1002
}
  0
LINE
  5
B636
330
20
100
AcDbEntity
  8
10000_FRONT
 62
     7
370
    20
100
AcDbLine
 39
0.35
 10
40.1099266974611
 20
175.8572462647649
 30
0.0
 11
40.1099266974611
 21
173.1072462647649
 31
0.0
1001
AUSTER_ANSICHT
1002
{
1000
Det03
1002
}
1001
AUSTER_FOLIE
1002
{
1000
NSB00029_LS04
1002
}
  0
LINE
  5
B637
330
20
100
AcDbEntity
  8
10000_FRONT
 62
     7
370
    20
100
AcDbLine
 39
0.35
 10
40.1099266974611
 20
179.6072462647649
 30
0.0
 11
40.1099266974611
 21
176.8572462647649
 31
0.0
1001
AUSTER_ANSICHT
1002
{
1000
Det03
1002
}
1001
AUSTER_FOLIE
1002
{
1000
NSB00029_LS04
1002
}
  0
LINE
  5
B638
330
20
100
AcDbEntity
  8
10000_FRONT
 62
     7
370
    20
100
AcDbLine
 39
0.35
 10
37.25992669746108
 20
229.2572462647649
 30
0.0
 11
38.38492669746108
 21
231.2058462647649
 31
0.0
1001
AUSTER_ANSICHT
1002
{
1000
Det03
1002
}
1001
AUSTER_FOLIE
1002
{
1000
NSB00029_LS04
1002
}
  0
LINE
  5
B639
330
20
100
AcDbEntity
  8
10000_FRONT
 62
     7
370
    20
100
AcDbLine
 39
0.35
 10
38.38492669746108
 20
231.2058462647649
 30
0.0
 11
40.63492669746107
 21
231.2058462647649
 31
0.0
1001
AUSTER_ANSICHT
1002
{
1000
Det03
1002
}
1001
AUSTER_FOLIE
1002
{
1000
NSB00029_LS04
1002
}
  0
LINE
  5
B63A
330
20
100
AcDbEntity
  8
10000_FRONT
 62
     7
370
    20
100
AcDbLine
 39
0.35
 10
40.63492669746107
 20
231.2058462647649
 30
0.0
 11
41.75992669746107
 21
229.2572462647649
 31
0.0
1001
AUSTER_ANSICHT
1002
{
1000
Det03
1002
}
1001
AUSTER_FOLIE
1002
{
1000
NSB00029_LS04
1002
}
  0
LINE
  5
B63B
330
20
100
AcDbEntity
  8
10000_FRONT
 62
     7
370
    20
100
AcDbLine
 39
0.35
 10
59.75994669746109
 20
229.2572462647649
 30
0.0
 11
60.88494669746109
 21
231.2058462647649
 31
0.0
1001
AUSTER_ANSICHT
1002
{
1000
Det03
1002
}
1001
AUSTER_FOLIE
1002
{
1000
NSB00029_LS04
1002
}
  0
LINE
  5
B63C
330
20
100
AcDbEntity
  8
10000_FRONT
 62
     7
370
    20
100
AcDbLine
 39
0.35
 10
60.88494669746109
 20
231.2058462647649
 30
0.0
 11
63.13494669746109
 21
231.2058462647649
 31
0.0
1001
AUSTER_ANSICHT
1002
{
1000
Det03
1002
}
1001
AUSTER_FOLIE
1002
{
1000
NSB00029_LS04
1002
}
  0
LINE
  5
B63D
330
20
100
AcDbEntity
  8
10000_FRONT
 62
     7
370
    20
100
AcDbLine
 39
0.35
 10
63.13494669746109
 20
231.2058462647649
 30
0.0
 11
64.25994669746109
 21
229.2572462647649
 31
0.0
1001
AUSTER_ANSICHT
1002
{
1000
Det03
1002
}
1001
AUSTER_FOLIE
1002
{
1000
NSB00029_LS04
1002
}
  0
LINE
  5
B63E
330
20
100
AcDbEntity
  8
10000_FRONT
 62
     7
370
    20
100
AcDbLine
 39
0.35
 10
82.26000669746111
 20
229.2572462647649
 30
0.0
 11
83.38500669746109
 21
231.2058462647649
 31
0.0
1001
AUSTER_ANSICHT
1002
{
1000
Det03
1002
}
1001
AUSTER_FOLIE
1002
{
1000
NSB00029_LS04
1002
}
  0
LINE
  5
B63F
330
20
100
AcDbEntity
  8
10000_FRONT
 62
     7
370
    20
100
AcDbLine
 39
0.35
 10
83.38500669746109
 20
231.2058462647649
 30
0.0
 11
85.6350066974611
 21
231.2058462647649
 31
0.0
1001
AUSTER_ANSICHT
1002
{
1000
Det03
1002
}
1001
AUSTER_FOLIE
1002
{
1000
NSB00029_LS04
1002
}
  0
LINE
  5
B640
330
20
100
AcDbEntity
  8
10000_FRONT
 62
     7
370
    20
100
AcDbLine
 39
0.35
 10
85.6350066974611
 20
231.2058462647649
 30
0.0
 11
86.76000669746111
 21
229.2572462647649
 31
0.0
1001
AUSTER_ANSICHT
1002
{
1000
Det03
1002
}
1001
AUSTER_FOLIE
1002
{
1000
NSB00029_LS04
1002
}
  0
LINE
  5
B641
330
20
100
AcDbEntity
  8
10000_FRONT
 62
     7
370
    20
100
AcDbLine
 39
0.35
 10
37.25992669746108
 20
100.4572462647649
 30
0.0
 11
38.38492669746108
 21
98.50864626476493
 31
0.0
1001
AUSTER_ANSICHT
1002
{
1000
Det03
1002
}
1001
AUSTER_FOLIE
1002
{
1000
NSB00029_LS04
1002
}
  0
LINE
  5
B642
330
20
100
AcDbEntity
  8
10000_FRONT
 62
     7
370
    20
100
AcDbLine
 39
0.35
 10
38.38492669746108
 20
98.50864626476493
 30
0.0
 11
40.63492669746107
 21
98.50864626476493
 31
0.0
1001
AUSTER_ANSICHT
1002
{
1000
Det03
1002
}
1001
AUSTER_FOLIE
1002
{
1000
NSB00029_LS04
1002
}
  0
LINE
  5
B643
330
20
100
AcDbEntity
  8
10000_FRONT
 62
     7
370
    20
100
AcDbLine
 39
0.35
 10
40.63492669746107
 20
98.50864626476493
 30
0.0
 11
41.75992669746107
 21
100.4572462647649
 31
0.0
1001
AUSTER_ANSICHT
1002
{
1000
Det03
1002
}
1001
AUSTER_FOLIE
1002
{
1000
NSB00029_LS04
1002
}
  0
LINE
  5
B644
330
20
100
AcDbEntity
  8
10000_FRONT
 62
     7
370
    20
100
AcDbLine
 39
0.35
 10
41.75992669746107
 20
100.4572462647649
 30
0.0
 11
40.63492669746107
 21
102.4058462647649
 31
0.0
1001
AUSTER_ANSICHT
1002
{
1000
Det03
1002
}
1001
AUSTER_FOLIE
1002
{
1000
NSB00029_LS04
1002
}
  0
LINE
  5
B645
330
20
100
AcDbEntity
  8
10000_FRONT
 62
     7
370
    20
100
AcDbLine
 39
0.35
 10
40.63492669746107
 20
102.4058462647649
 30
0.0
 11
38.38492669746108
 21
102.4058462647649
 31
0.0
1001
AUSTER_ANSICHT
1002
{
1000
Det03
1002
}
1001
AUSTER_FOLIE
1002
{
1000
NSB00029_LS04
1002
}
  0
LINE
  5
B646
330
20
100
AcDbEntity
  8
10000_FRONT
 62
     7
370
    20
100
AcDbLine
 39
0.35
 10
38.38492669746108
 20
102.4058462647649
 30
0.0
 11
37.25992669746108
 21
100.4572462647649
 31
0.0
1001
AUSTER_ANSICHT
1002
{
1000
Det03
1002
}
1001
AUSTER_FOLIE
1002
{
1000
NSB00029_LS04
1002
}
  0
LINE
  5
B647
330
20
100
AcDbEntity
  8
10000_FRONT
 62
     7
370
    20
100
AcDbLine
 39
0.35
 10
59.75994669746109
 20
100.4572462647649
 30
0.0
 11
60.88494669746109
 21
98.50864626476493
 31
0.0
1001
AUSTER_ANSICHT
1002
{
1000
Det03
1002
}
1001
AUSTER_FOLIE
1002
{
1000
NSB00029_LS04
1002
}
  0
LINE
  5
B648
330
20
100
AcDbEntity
  8
10000_FRONT
 62
     7
370
    20
100
AcDbLine
 39
0.35
 10
60.88494669746109
 20
98.50864626476493
 30
0.0
 11
63.13494669746109
 21
98.50864626476493
 31
0.0
1001
AUSTER_ANSICHT
1002
{
1000
Det03
1002
}
1001
AUSTER_FOLIE
1002
{
1000
NSB00029_LS04
1002
}
  0
LINE
  5
B649
330
20
100
AcDbEntity
  8
10000_FRONT
 62
     7
370
    20
100
AcDbLine
 39
0.35
 10
63.13494669746109
 20
98.50864626476493
 30
0.0
 11
64.25994669746109
 21
100.4572462647649
 31
0.0
1001
AUSTER_ANSICHT
1002
{
1000
Det03
1002
}
1001
AUSTER_FOLIE
1002
{
1000
NSB00029_LS04
1002
}
  0
LINE
  5
B64A
330
20
100
AcDbEntity
  8
10000_FRONT
 62
     7
370
    20
100
AcDbLine
 39
0.35
 10
64.25994669746109
 20
100.4572462647649
 30
0.0
 11
63.13494669746109
 21
102.4058462647649
 31
0.0
1001
AUSTER_ANSICHT
1002
{
1000
Det03
1002
}
1001
AUSTER_FOLIE
1002
{
1000
NSB00029_LS04
1002
}
  0
LINE
  5
B64B
330
20
100
AcDbEntity
  8
10000_FRONT
 62
     7
370
    20
100
AcDbLine
 39
0.35
 10
63.13494669746109
 20
102.4058462647649
 30
0.0
 11
60.88494669746109
 21
102.4058462647649
 31
0.0
1001
AUSTER_ANSICHT
1002
{
1000
Det03
1002
}
1001
AUSTER_FOLIE
1002
{
1000
NSB00029_LS04
1002
}
  0
LINE
  5
B64C
330
20
100
AcDbEntity
  8
10000_FRONT
 62
     7
370
    20
100
AcDbLine
 39
0.35
 10
60.88494669746109
 20
102.4058462647649
 30
0.0
 11
59.75994669746109
 21
100.4572462647649
 31
0.0
1001
AUSTER_ANSICHT
1002
{
1000
Det03
1002
}
1001
AUSTER_FOLIE
1002
{
1000
NSB00029_LS04
1002
}
  0
LINE
  5
B64D
330
20
100
AcDbEntity
  8
10000_FRONT
 62
     7
370
    20
100
AcDbLine
 39
0.35
 10
82.26000669746111
 20
100.4572462647649
 30
0.0
 11
83.38500669746109
 21
98.50864626476493
 31
0.0
1001
AUSTER_ANSICHT
1002
{
1000
Det03
1002
}
1001
AUSTER_FOLIE
1002
{
1000
NSB00029_LS04
1002
}
  0
LINE
  5
B64E
330
20
100
AcDbEntity
  8
10000_FRONT
 62
     7
370
    20
100
AcDbLine
 39
0.35
 10
83.38500669746109
 20
98.50864626476493
 30
0.0
 11
85.6350066974611
 21
98.50864626476493
 31
0.0
1001
AUSTER_ANSICHT
1002
{
1000
Det03
1002
}
1001
AUSTER_FOLIE
1002
{
1000
NSB00029_LS04
1002
}
  0
LINE
  5
B64F
330
20
100
AcDbEntity
  8
10000_FRONT
 62
     7
370
    20
100
AcDbLine
 39
0.35
 10
85.6350066974611
 20
98.50864626476493
 30
0.0
 11
86.76000669746111
 21
100.4572462647649
 31
0.0
1001
AUSTER_ANSICHT
1002
{
1000
Det03
1002
}
1001
AUSTER_FOLIE
1002
{
1000
NSB00029_LS04
1002
}
  0
LINE
  5
B650
330
20
100
AcDbEntity
  8
10000_FRONT
 62
     7
370
    20
100
AcDbLine
 39
0.35
 10
86.76000669746111
 20
100.4572462647649
 30
0.0
 11
85.6350066974611
 21
102.4058462647649
 31
0.0
1001
AUSTER_ANSICHT
1002
{
1000
Det03
1002
}
1001
AUSTER_FOLIE
1002
{
1000
NSB00029_LS04
1002
}
  0
LINE
  5
B651
330
20
100
AcDbEntity
  8
10000_FRONT
 62
     7
370
    20
100
AcDbLine
 39
0.35
 10
85.6350066974611
 20
102.4058462647649
 30
0.0
 11
83.38500669746109
 21
102.4058462647649
 31
0.0
1001
AUSTER_ANSICHT
1002
{
1000
Det03
1002
}
1001
AUSTER_FOLIE
1002
{
1000
NSB00029_LS04
1002
}
  0
LINE
  5
B652
330
20
100
AcDbEntity
  8
10000_FRONT
 62
     7
370
    20
100
AcDbLine
 39
0.35
 10
83.38500669746109
 20
102.4058462647649
 30
0.0
 11
82.26000669746111
 21
100.4572462647649
 31
0.0
1001
AUSTER_ANSICHT
1002
{
1000
Det03
1002
}
1001
AUSTER_FOLIE
1002
{
1000
NSB00029_LS04
1002
}
  0
LINE
  5
B653
330
20
100
AcDbEntity
  8
10000_FRONT
 62
     7
370
    20
100
AcDbLine
 39
0.35
 10
38.5789766974611
 20
145.8389462647649
 30
0.0
 11
38.5789766974611
 21
151.8597462647649
 31
0.0
1001
AUSTER_ANSICHT
1002
{
1000
Det03
1002
}
1001
AUSTER_FOLIE
1002
{
1000
NSB00029_LS04
1002
}
  0
LINE
  5
B654
330
20
100
AcDbEntity
  8
10000_FRONT
 62
     7
370
    20
100
AcDbLine
 39
0.35
 10
38.5789766974611
 20
151.8597462647649
 30
0.0
 11
41.90994669746106
 21
151.8597462647649
 31
0.0
1001
AUSTER_ANSICHT
1002
{
1000
Det03
1002
}
1001
AUSTER_FOLIE
1002
{
1000
NSB00029_LS04
1002
}
  0
LINE
  5
B655
330
20
100
AcDbEntity
  8
10000_FRONT
 62
     7
370
    20
100
AcDbLine
 39
0.35
 10
82.10990669746108
 20
151.8592462647649
 30
0.0
 11
85.44090669746106
 21
151.8592462647649
 31
0.0
1001
AUSTER_ANSICHT
1002
{
1000
Det03
1002
}
1001
AUSTER_FOLIE
1002
{
1000
NSB00029_LS04
1002
}
  0
LINE
  5
B656
330
20
100
AcDbEntity
  8
10000_FRONT
 62
     7
370
    20
100
AcDbLine
 39
0.35
 10
85.44090669746106
 20
151.8592462647649
 30
0.0
 11
85.44090669746106
 21
145.8389462647649
 31
0.0
1001
AUSTER_ANSICHT
1002
{
1000
Det03
1002
}
1001
AUSTER_FOLIE
1002
{
1000
NSB00029_LS04
1002
}
  0
LINE
  5
B657
330
20
100
AcDbEntity
  8
11000_Left
 62
     7
370
    50
100
AcDbLine
 39
0.7
 10
170.7456005093562
 20
246.9572462647649
 30
0.0
 11
170.7456005093562
 21
239.857246264765
 31
0.0
1001
AUSTER_ANSICHT
1002
{
1000
Det03
1002
}
1001
AUSTER_FOLIE
1002
{
1000
NSB00029_LS04
1002
}
  0
LINE
  5
B658
330
20
100
AcDbEntity
  8
11000_Left
 62
     7
370
    50
100
AcDbLine
 39
0.7
 10
170.7456005093562
 20
89.85724626476489
 30
0.0
 11
170.7456005093562
 21
82.75724626476494
 31
0.0
1001
AUSTER_ANSICHT
1002
{
1000
Det03
1002
}
1001
AUSTER_FOLIE
1002
{
1000
NSB00029_LS04
1002
}
  0
LINE
  5
B659
330
20
100
AcDbEntity
  8
11000_Left
 62
     7
370
    50
100
AcDbLine
 39
0.7
 10
249.9956005093562
 20
239.857246264765
 30
0.0
 11
249.9956005093562
 21
243.4572462647649
 31
0.0
1001
AUSTER_ANSICHT
1002
{
1000
Det03
1002
}
1001
AUSTER_FOLIE
1002
{
1000
NSB00029_LS04
1002
}
  0
LINE
  5
B65A
330
20
100
AcDbEntity
  8
11000_Left
 62
     7
370
    50
100
AcDbLine
 39
0.7
 10
267.1956005093562
 20
243.4572462647649
 30
0.0
 11
267.1956005093562
 21
239.857246264765
 31
0.0
1001
AUSTER_ANSICHT
1002
{
1000
Det03
1002
}
1001
AUSTER_FOLIE
1002
{
1000
NSB00029_LS04
1002
}
  0
LINE
  5
B65B
330
20
100
AcDbEntity
  8
11000_Left
 62
     7
370
    50
100
AcDbLine
 39
0.7
 10
249.9956005093562
 20
89.85724626476489
 30
0.0
 11
249.9956005093562
 21
86.25724626476495
 31
0.0
1001
AUSTER_ANSICHT
1002
{
1000
Det03
1002
}
1001
AUSTER_FOLIE
1002
{
1000
NSB00029_LS04
1002
}
  0
LINE
  5
B65C
330
20
100
AcDbEntity
  8
11000_Left
 62
     7
370
    50
100
AcDbLine
 39
0.7
 10
249.9956005093562
 20
86.25724626476495
 30
0.0
 11
267.1956005093562
 21
86.25724626476495
 31
0.0
1001
AUSTER_ANSICHT
1002
{
1000
Det03
1002
}
1001
AUSTER_FOLIE
1002
{
1000
NSB00029_LS04
1002
}
  0
LINE
  5
B65D
330
20
100
AcDbEntity
  8
11000_Left
 62
     7
370
    50
100
AcDbLine
 39
0.7
 10
267.1956005093562
 20
86.25724626476495
 30
0.0
 11
267.1956005093562
 21
89.85724626476489
 31
0.0
1001
AUSTER_ANSICHT
1002
{
1000
Det03
1002
}
1001
AUSTER_FOLIE
1002
{
1000
NSB00029_LS04
1002
}
  0
LINE
  5
B65E
330
20
100
AcDbEntity
  8
11000_Left
 62
     7
370
    20
100
AcDbLine
 39
0.45
 10
224.4456005093562
 20
239.857246264765
 30
0.0
 11
224.4456005093562
 21
222.6572462647649
 31
0.0
1001
AUSTER_ANSICHT
1002
{
1000
Det03
1002
}
1001
AUSTER_FOLIE
1002
{
1000
NSB00029_LS04
1002
}
  0
LINE
  5
B65F
330
20
100
AcDbEntity
  8
11000_Left
 62
     7
370
    50
100
AcDbLine
 39
0.7
 10
297.8099005093562
 20
239.857246264765
 30
0.0
 11
299.9768005093562
 21
222.6572462647649
 31
0.0
1001
AUSTER_ANSICHT
1002
{
1000
Det03
1002
}
1001
AUSTER_FOLIE
1002
{
1000
NSB00029_LS04
1002
}
  0
LINE
  5
B660
330
20
100
AcDbEntity
  8
11000_Left
 62
     7
370
    20
100
AcDbLine
 39
0.45
 10
225.9145005093562
 20
210.107246264765
 30
0.0
 11
228.9456005093562
 21
211.857246264765
 31
0.0
1001
AUSTER_ANSICHT
1002
{
1000
Det03
1002
}
1001
AUSTER_FOLIE
1002
{
1000
NSB00029_LS04
1002
}
  0
LINE
  5
B661
330
20
100
AcDbEntity
  8
11000_Left
 62
     7
370
    20
100
AcDbLine
 39
0.45
 10
228.9456005093562
 20
211.857246264765
 30
0.0
 11
231.9767005093563
 21
210.107246264765
 31
0.0
1001
AUSTER_ANSICHT
1002
{
1000
Det03
1002
}
1001
AUSTER_FOLIE
1002
{
1000
NSB00029_LS04
1002
}
  0
LINE
  5
B662
330
20
100
AcDbEntity
  8
11000_Left
 62
     7
370
    20
100
AcDbLine
 39
0.45
 10
231.9767005093563
 20
210.107246264765
 30
0.0
 11
231.9767005093563
 21
206.607246264765
 31
0.0
1001
AUSTER_ANSICHT
1002
{
1000
Det03
1002
}
1001
AUSTER_FOLIE
1002
{
1000
NSB00029_LS04
1002
}
  0
LINE
  5
B663
330
20
100
AcDbEntity
  8
11000_Left
 62
     7
370
    20
100
AcDbLine
 39
0.45
 10
231.9767005093563
 20
206.607246264765
 30
0.0
 11
228.9456005093562
 21
204.857246264765
 31
0.0
1001
AUSTER_ANSICHT
1002
{
1000
Det03
1002
}
1001
AUSTER_FOLIE
1002
{
1000
NSB00029_LS04
1002
}
  0
LINE
  5
B664
330
20
100
AcDbEntity
  8
11000_Left
 62
     7
370
    20
100
AcDbLine
 39
0.45
 10
228.9456005093562
 20
204.857246264765
 30
0.0
 11
225.9145005093562
 21
206.607246264765
 31
0.0
1001
AUSTER_ANSICHT
1002
{
1000
Det03
1002
}
1001
AUSTER_FOLIE
1002
{
1000
NSB00029_LS04
1002
}
  0
LINE
  5
B665
330
20
100
AcDbEntity
  8
11000_Left
 62
     7
370
    20
100
AcDbLine
 39
0.45
 10
225.9145005093562
 20
206.607246264765
 30
0.0
 11
225.9145005093562
 21
210.107246264765
 31
0.0
1001
AUSTER_ANSICHT
1002
{
1000
Det03
1002
}
1001
AUSTER_FOLIE
1002
{
1000
NSB00029_LS04
1002
}
  0
LINE
  5
B666
330
20
100
AcDbEntity
  8
11000_Left
 62
     7
370
    20
100
AcDbLine
 39
0.45
 10
228.9456005093562
 20
213.857246264765
 30
0.0
 11
228.9456005093562
 21
222.6572462647649
 31
0.0
1001
AUSTER_ANSICHT
1002
{
1000
Det03
1002
}
1001
AUSTER_FOLIE
1002
{
1000
NSB00029_LS04
1002
}
  0
LINE
  5
B667
330
20
100
AcDbEntity
  8
11000_Left
 62
     7
370
    20
100
AcDbLine
 39
0.45
 10
224.4456005093562
 20
89.85724626476489
 30
0.0
 11
224.4456005093562
 21
107.0572462647649
 31
0.0
1001
AUSTER_ANSICHT
1002
{
1000
Det03
1002
}
1001
AUSTER_FOLIE
1002
{
1000
NSB00029_LS04
1002
}
  0
LINE
  5
B668
330
20
100
AcDbEntity
  8
11000_Left
 62
     7
370
    50
100
AcDbLine
 39
0.7
 10
297.8099005093562
 20
89.85724626476489
 30
0.0
 11
299.9768005093562
 21
107.0572462647649
 31
0.0
1001
AUSTER_ANSICHT
1002
{
1000
Det03
1002
}
1001
AUSTER_FOLIE
1002
{
1000
NSB00029_LS04
1002
}
  0
LINE
  5
B669
330
20
100
AcDbEntity
  8
11000_Left
 62
     7
370
    50
100
AcDbLine
 39
0.7
 10
224.4456005093562
 20
239.857246264765
 30
0.0
 11
297.8099005093562
 21
239.857246264765
 31
0.0
1001
AUSTER_ANSICHT
1002
{
1000
Det03
1002
}
1001
AUSTER_FOLIE
1002
{
1000
NSB00029_LS04
1002
}
  0
LINE
  5
B66A
330
20
100
AcDbEntity
  8
11000_Left
 62
     7
370
    50
100
AcDbLine
 39
0.7
 10
224.4456005093562
 20
89.85724626476489
 30
0.0
 11
297.8099005093562
 21
89.85724626476489
 31
0.0
1001
AUSTER_ANSICHT
1002
{
1000
Det03
1002
}
1001
AUSTER_FOLIE
1002
{
1000
NSB00029_LS04
1002
}
  0
LINE
  5
B66B
330
20
100
AcDbEntity
  8
11000_Left
 62
     7
370
    20
100
AcDbLine
 39
0.45
 10
228.9456005093562
 20
202.857246264765
 30
0.0
 11
228.9456005093562
 21
107.0572462647649
 31
0.0
1001
AUSTER_ANSICHT
1002
{
1000
Det03
1002
}
1001
AUSTER_FOLIE
1002
{
1000
NSB00029_LS04
1002
}
  0
LINE
  5
B66C
330
20
100
AcDbEntity
  8
11000_Left
 62
     7
370
    20
100
AcDbLine
 39
0.45
 10
327.3759005093562
 20
175.2343462647649
 30
0.0
 11
334.7759005093562
 21
175.2343462647649
 31
0.0
1001
AUSTER_ANSICHT
1002
{
1000
Det03
1002
}
1001
AUSTER_FOLIE
1002
{
1000
NSB00029_LS04
1002
}
  0
LINE
  5
B66D
330
20
100
AcDbEntity
  8
11000_Left
 62
     7
370
    50
100
AcDbLine
 39
0.7
 10
336.6108005093563
 20
178.3982462647649
 30
0.0
 11
334.7759005093562
 21
178.3982462647649
 31
0.0
1001
AUSTER_ANSICHT
1002
{
1000
Det03
1002
}
1001
AUSTER_FOLIE
1002
{
1000
NSB00029_LS04
1002
}
  0
LINE
  5
B66E
330
20
100
AcDbEntity
  8
11000_Left
 62
     7
370
    50
100
AcDbLine
 39
0.7
 10
325.5759005093562
 20
178.1341462647649
 30
0.0
 11
327.3759005093562
 21
178.1341462647649
 31
0.0
1001
AUSTER_ANSICHT
1002
{
1000
Det03
1002
}
1001
AUSTER_FOLIE
1002
{
1000
NSB00029_LS04
1002
}
  0
LINE
  5
B66F
330
20
100
AcDbEntity
  8
11000_Left
 62
     7
370
    50
100
AcDbLine
 39
0.7
 10
325.5759005093562
 20
151.3982462647649
 30
0.0
 11
336.6110005093562
 21
151.3982462647649
 31
0.0
1001
AUSTER_ANSICHT
1002
{
1000
Det03
1002
}
1001
AUSTER_FOLIE
1002
{
1000
NSB00029_LS04
1002
}
  0
LINE
  5
B670
330
20
100
AcDbEntity
  8
11000_Left
 62
     7
370
    20
100
AcDbLine
 39
0.45
 10
326.5759005093562
 20
172.5580462647649
 30
0.0
 11
325.5759005093562
 21
172.5580462647649
 31
0.0
1001
AUSTER_ANSICHT
1002
{
1000
Det03
1002
}
1001
AUSTER_FOLIE
1002
{
1000
NSB00029_LS04
1002
}
  0
LINE
  5
B671
330
20
100
AcDbEntity
  8
11000_Left
 62
     7
370
    20
100
AcDbLine
 39
0.45
 10
325.5759005093562
 20
157.3932462647649
 30
0.0
 11
326.5759005093562
 21
157.3932462647649
 31
0.0
1001
AUSTER_ANSICHT
1002
{
1000
Det03
1002
}
1001
AUSTER_FOLIE
1002
{
1000
NSB00029_LS04
1002
}
  0
LINE
  5
B672
330
20
100
AcDbEntity
  8
11000_Left
 62
     7
370
    50
100
AcDbLine
 39
0.7
 10
334.7759005093562
 20
179.3982462647649
 30
0.0
 11
327.3759005093562
 21
179.3982462647649
 31
0.0
1001
AUSTER_ANSICHT
1002
{
1000
Det03
1002
}
1001
AUSTER_FOLIE
1002
{
1000
NSB00029_LS04
1002
}
  0
LINE
  5
B673
330
20
100
AcDbEntity
  8
11000_Left
 62
     7
370
    50
100
AcDbLine
 39
0.7
 10
325.5759005093562
 20
172.5580462647649
 30
0.0
 11
325.5759005093562
 21
163.9158462647649
 31
0.0
1001
AUSTER_ANSICHT
1002
{
1000
Det03
1002
}
1001
AUSTER_FOLIE
1002
{
1000
NSB00029_LS04
1002
}
  0
LINE
  5
B674
330
20
100
AcDbEntity
  8
11000_Left
 62
     7
370
    50
100
AcDbLine
 39
0.7
 10
325.5759005093562
 20
163.9158462647649
 30
0.0
 11
325.5759005093562
 21
157.3932462647649
 31
0.0
1001
AUSTER_ANSICHT
1002
{
1000
Det03
1002
}
1001
AUSTER_FOLIE
1002
{
1000
NSB00029_LS04
1002
}
  0
LINE
  5
B675
330
20
100
AcDbEntity
  8
10000_FRONT
 62
     7
370
    50
100
AcDbLine
 39
0.7
 10
49.90994669746108
 20
82.35724626476491
 30
0.0
 11
28.50994669746109
 21
82.35724626476491
 31
0.0
1001
AUSTER_ANSICHT
1002
{
1000
Det03
1002
}
1001
AUSTER_FOLIE
1002
{
1000
NSB00029_LS04
1002
}
  0
LINE
  5
B676
330
20
100
AcDbEntity
  8
10000_FRONT
 62
     7
370
    50
100
AcDbLine
 39
0.7
 10
54.00994669746109
 20
82.35724626476491
 30
0.0
 11
52.00994669746108
 21
82.35724626476491
 31
0.0
1001
AUSTER_ANSICHT
1002
{
1000
Det03
1002
}
1001
AUSTER_FOLIE
1002
{
1000
NSB00029_LS04
1002
}
  0
LINE
  5
B677
330
20
100
AcDbEntity
  8
10000_FRONT
 62
     7
370
    50
100
AcDbLine
 39
0.7
 10
52.00994669746108
 20
82.35724626476491
 30
0.0
 11
49.90994669746108
 21
82.35724626476491
 31
0.0
1001
AUSTER_ANSICHT
1002
{
1000
Det03
1002
}
1001
AUSTER_FOLIE
1002
{
1000
NSB00029_LS04
1002
}
  0
LINE
  5
B678
330
20
100
AcDbEntity
  8
10000_FRONT
 62
     7
370
    50
100
AcDbLine
 39
0.7
 10
54.00994669746109
 20
82.35724626476491
 30
0.0
 11
54.00994669746109
 21
83.95624626476495
 31
0.0
1001
AUSTER_ANSICHT
1002
{
1000
Det03
1002
}
1001
AUSTER_FOLIE
1002
{
1000
NSB00029_LS04
1002
}
  0
LINE
  5
B679
330
20
100
AcDbEntity
  8
10000_FRONT
 62
     7
370
    50
100
AcDbLine
 39
0.7
 10
95.50990669746107
 20
82.35724626476491
 30
0.0
 11
74.10994669746106
 21
82.35724626476491
 31
0.0
1001
AUSTER_ANSICHT
1002
{
1000
Det03
1002
}
1001
AUSTER_FOLIE
1002
{
1000
NSB00029_LS04
1002
}
  0
LINE
  5
B67A
330
20
100
AcDbEntity
  8
10000_FRONT
 62
     7
370
    50
100
AcDbLine
 39
0.7
 10
74.10994669746106
 20
82.35724626476491
 30
0.0
 11
72.00994669746108
 21
82.35724626476491
 31
0.0
1001
AUSTER_ANSICHT
1002
{
1000
Det03
1002
}
1001
AUSTER_FOLIE
1002
{
1000
NSB00029_LS04
1002
}
  0
LINE
  5
B67B
330
20
100
AcDbEntity
  8
10000_FRONT
 62
     7
370
    50
100
AcDbLine
 39
0.7
 10
72.00994669746108
 20
82.35724626476491
 30
0.0
 11
70.00994669746109
 21
82.35724626476491
 31
0.0
1001
AUSTER_ANSICHT
1002
{
1000
Det03
1002
}
1001
AUSTER_FOLIE
1002
{
1000
NSB00029_LS04
1002
}
  0
LINE
  5
B67C
330
20
100
AcDbEntity
  8
10000_FRONT
 62
     7
370
    50
100
AcDbLine
 39
0.7
 10
70.00994669746109
 20
83.95624626476495
 30
0.0
 11
70.00994669746109
 21
82.35724626476491
 31
0.0
1001
AUSTER_ANSICHT
1002
{
1000
Det03
1002
}
1001
AUSTER_FOLIE
1002
{
1000
NSB00029_LS04
1002
}
  0
LINE
  5
B67D
330
20
100
AcDbEntity
  8
10000_FRONT
 62
     7
370
    50
100
AcDbLine
 39
0.7
 10
28.50994669746109
 20
247.357246264765
 30
0.0
 11
95.50990669746107
 21
247.357246264765
 31
0.0
1001
AUSTER_ANSICHT
1002
{
1000
Det03
1002
}
1001
AUSTER_FOLIE
1002
{
1000
NSB00029_LS04
1002
}
  0
LINE
  5
B67E
330
20
100
AcDbEntity
  8
10000_FRONT
 62
     7
370
    20
100
AcDbLine
 39
0.35
 10
71.90994669746107
 20
83.95724626476493
 30
0.0
 11
71.90994669746107
 21
89.85554626476494
 31
0.0
1001
AUSTER_ANSICHT
1002
{
1000
Det03
1002
}
1001
AUSTER_FOLIE
1002
{
1000
NSB00029_LS04
1002
}
  0
LINE
  5
B67F
330
20
100
AcDbEntity
  8
10000_FRONT
 62
     7
370
    20
100
AcDbLine
 39
0.35
 10
52.10994669746106
 20
89.85554626476494
 30
0.0
 11
52.10994669746106
 21
83.95724626476493
 31
0.0
1001
AUSTER_ANSICHT
1002
{
1000
Det03
1002
}
1001
AUSTER_FOLIE
1002
{
1000
NSB00029_LS04
1002
}
  0
LINE
  5
B680
330
20
100
AcDbEntity
  8
10000_FRONT
 62
     7
370
    20
100
AcDbLine
 39
0.35
 10
75.50994669746109
 20
163.4907462647649
 30
0.0
 11
75.50994669746109
 21
166.2237462647649
 31
0.0
1001
AUSTER_ANSICHT
1002
{
1000
Det03
1002
}
1001
AUSTER_FOLIE
1002
{
1000
NSB00029_LS04
1002
}
  0
LINE
  5
B681
330
20
100
AcDbEntity
  8
11000_Left
 62
     7
370
    50
100
AcDbLine
 39
0.7
 10
170.7456005093562
 20
239.857246264765
 30
0.0
 11
224.4456005093562
 21
239.857246264765
 31
0.0
1001
AUSTER_ANSICHT
1002
{
1000
Det03
1002
}
1001
AUSTER_FOLIE
1002
{
1000
NSB00029_LS04
1002
}
  0
LINE
  5
B682
330
20
100
AcDbEntity
  8
11000_Left
 62
     7
370
    50
100
AcDbLine
 39
0.7
 10
162.7456005093562
 20
245.857246264765
 30
0.0
 11
162.7456005093562
 21
247.357246264765
 31
0.0
1001
AUSTER_ANSICHT
1002
{
1000
Det03
1002
}
1001
AUSTER_FOLIE
1002
{
1000
NSB00029_LS04
1002
}
  0
LINE
  5
B683
330
20
100
AcDbEntity
  8
11000_Left
 62
     7
370
    50
100
AcDbLine
 39
0.7
 10
162.7456005093562
 20
245.857246264765
 30
0.0
 11
162.7456005093562
 21
199.857246264765
 31
0.0
1001
AUSTER_ANSICHT
1002
{
1000
Det03
1002
}
1001
AUSTER_FOLIE
1002
{
1000
NSB00029_LS04
1002
}
  0
LINE
  5
B684
330
20
100
AcDbEntity
  8
11000_Left
 62
     7
370
    50
100
AcDbLine
 39
0.7
 10
162.7456005093562
 20
199.857246264765
 30
0.0
 11
166.1048005093562
 21
199.857246264765
 31
0.0
1001
AUSTER_ANSICHT
1002
{
1000
Det03
1002
}
1001
AUSTER_FOLIE
1002
{
1000
NSB00029_LS04
1002
}
  0
LINE
  5
B685
330
20
100
AcDbEntity
  8
11000_Left
 62
     7
370
    50
100
AcDbLine
 39
0.7
 10
166.1048005093562
 20
199.857246264765
 30
0.0
 11
166.5456005093562
 21
202.357246264765
 31
0.0
1001
AUSTER_ANSICHT
1002
{
1000
Det03
1002
}
1001
AUSTER_FOLIE
1002
{
1000
NSB00029_LS04
1002
}
  0
LINE
  5
B686
330
20
100
AcDbEntity
  8
11000_Left
 62
     7
370
    50
100
AcDbLine
 39
0.7
 10
166.5456005093562
 20
202.357246264765
 30
0.0
 11
169.7456005093562
 21
202.357246264765
 31
0.0
1001
AUSTER_ANSICHT
1002
{
1000
Det03
1002
}
1001
AUSTER_FOLIE
1002
{
1000
NSB00029_LS04
1002
}
  0
LINE
  5
B687
330
20
100
AcDbEntity
  8
11000_Left
 62
     7
370
    50
100
AcDbLine
 39
0.7
 10
169.7456005093562
 20
202.357246264765
 30
0.0
 11
169.7456005093562
 21
189.9572462647649
 31
0.0
1001
AUSTER_ANSICHT
1002
{
1000
Det03
1002
}
1001
AUSTER_FOLIE
1002
{
1000
NSB00029_LS04
1002
}
  0
LINE
  5
B688
330
20
100
AcDbEntity
  8
11000_Left
 62
     7
370
    50
100
AcDbLine
 39
0.7
 10
165.7456005093562
 20
185.9572462647649
 30
0.0
 11
162.7456005093562
 21
185.9572462647649
 31
0.0
1001
AUSTER_ANSICHT
1002
{
1000
Det03
1002
}
1001
AUSTER_FOLIE
1002
{
1000
NSB00029_LS04
1002
}
  0
LINE
  5
B689
330
20
100
AcDbEntity
  8
11000_Left
 62
     7
370
    50
100
AcDbLine
 39
0.7
 10
162.7456005093562
 20
185.9572462647649
 30
0.0
 11
162.7456005093562
 21
180.5572462647649
 31
0.0
1001
AUSTER_ANSICHT
1002
{
1000
Det03
1002
}
1001
AUSTER_FOLIE
1002
{
1000
NSB00029_LS04
1002
}
  0
LINE
  5
B68A
330
20
100
AcDbEntity
  8
11000_Left
 62
     7
370
    50
100
AcDbLine
 39
0.7
 10
162.7456005093562
 20
180.5572462647649
 30
0.0
 11
165.2491005093562
 21
180.5572462647649
 31
0.0
1001
AUSTER_ANSICHT
1002
{
1000
Det03
1002
}
1001
AUSTER_FOLIE
1002
{
1000
NSB00029_LS04
1002
}
  0
LINE
  5
B68B
330
20
100
AcDbEntity
  8
11000_Left
 62
     7
370
    50
100
AcDbLine
 39
0.7
 10
165.2491005093562
 20
180.5572462647649
 30
0.0
 11
166.4408005093562
 21
181.5572462647649
 31
0.0
1001
AUSTER_ANSICHT
1002
{
1000
Det03
1002
}
1001
AUSTER_FOLIE
1002
{
1000
NSB00029_LS04
1002
}
  0
LINE
  5
B68C
330
20
100
AcDbEntity
  8
11000_Left
 62
     7
370
    50
100
AcDbLine
 39
0.7
 10
166.4408005093562
 20
181.5572462647649
 30
0.0
 11
166.6956005093562
 21
182.2572462647649
 31
0.0
1001
AUSTER_ANSICHT
1002
{
1000
Det03
1002
}
1001
AUSTER_FOLIE
1002
{
1000
NSB00029_LS04
1002
}
  0
LINE
  5
B68D
330
20
100
AcDbEntity
  8
11000_Left
  6
DASHED
 62
     7
370
    13
100
AcDbLine
 39
0.7
 10
166.6956005093562
 20
182.2572462647649
 30
0.0
 11
167.7456005093562
 21
182.2572462647649
 31
0.0
1001
AUSTER_ANSICHT
1002
{
1000
Det03
1002
}
1001
AUSTER_FOLIE
1002
{
1000
NSB00029_LS04
1002
}
  0
LINE
  5
B68E
330
20
100
AcDbEntity
  8
11000_Left
 62
     7
370
    50
100
AcDbLine
 39
0.7
 10
167.7456005093562
 20
182.2572462647649
 30
0.0
 11
167.7456005093562
 21
146.6572462647649
 31
0.0
1001
AUSTER_ANSICHT
1002
{
1000
Det03
1002
}
1001
AUSTER_FOLIE
1002
{
1000
NSB00029_LS04
1002
}
  0
LINE
  5
B68F
330
20
100
AcDbEntity
  8
11000_Left
 62
     7
370
    50
100
AcDbLine
 39
0.7
 10
167.7456005093562
 20
146.6572462647649
 30
0.0
 11
166.2456005093562
 21
146.6572462647649
 31
0.0
1001
AUSTER_ANSICHT
1002
{
1000
Det03
1002
}
1001
AUSTER_FOLIE
1002
{
1000
NSB00029_LS04
1002
}
  0
LINE
  5
B690
330
20
100
AcDbEntity
  8
11000_Left
 62
     7
370
    50
100
AcDbLine
 39
0.7
 10
162.7456005093562
 20
144.3572462647649
 30
0.0
 11
165.7456005093562
 21
144.3572462647649
 31
0.0
1001
AUSTER_ANSICHT
1002
{
1000
Det03
1002
}
1001
AUSTER_FOLIE
1002
{
1000
NSB00029_LS04
1002
}
  0
LINE
  5
B691
330
20
100
AcDbEntity
  8
11000_Left
 62
     7
370
    50
100
AcDbLine
 39
0.7
 10
169.7456005093562
 20
126.5572462647649
 30
0.0
 11
165.6456005093562
 21
126.5572462647649
 31
0.0
1001
AUSTER_ANSICHT
1002
{
1000
Det03
1002
}
1001
AUSTER_FOLIE
1002
{
1000
NSB00029_LS04
1002
}
  0
LINE
  5
B692
330
20
100
AcDbEntity
  8
11000_Left
 62
     7
370
    50
100
AcDbLine
 39
0.7
 10
162.7456005093562
 20
125.5572462647649
 30
0.0
 11
162.7456005093562
 21
83.85724626476491
 31
0.0
1001
AUSTER_ANSICHT
1002
{
1000
Det03
1002
}
1001
AUSTER_FOLIE
1002
{
1000
NSB00029_LS04
1002
}
  0
LINE
  5
B693
330
20
100
AcDbEntity
  8
11000_Left
 62
     7
370
    50
100
AcDbLine
 39
0.7
 10
162.7456005093562
 20
82.35724626476491
 30
0.0
 11
162.7456005093562
 21
83.85724626476491
 31
0.0
1001
AUSTER_ANSICHT
1002
{
1000
Det03
1002
}
1001
AUSTER_FOLIE
1002
{
1000
NSB00029_LS04
1002
}
  0
LINE
  5
B694
330
20
100
AcDbEntity
  8
11000_Left
 62
     7
370
    50
100
AcDbLine
 39
0.7
 10
170.3456005093562
 20
82.35724626476491
 30
0.0
 11
162.7456005093562
 21
82.35724626476491
 31
0.0
1001
AUSTER_ANSICHT
1002
{
1000
Det03
1002
}
1001
AUSTER_FOLIE
1002
{
1000
NSB00029_LS04
1002
}
  0
LINE
  5
B695
330
20
100
AcDbEntity
  8
11000_Left
 62
     7
370
    50
100
AcDbLine
 39
0.7
 10
224.4456005093562
 20
89.85724626476489
 30
0.0
 11
170.7456005093562
 21
89.85724626476489
 31
0.0
1001
AUSTER_ANSICHT
1002
{
1000
Det03
1002
}
1001
AUSTER_FOLIE
1002
{
1000
NSB00029_LS04
1002
}
  0
LINE
  5
B696
330
20
100
AcDbEntity
  8
11000_Left
 62
     7
370
    50
100
AcDbLine
 39
0.7
 10
162.7456005093562
 20
247.357246264765
 30
0.0
 11
170.3456005093562
 21
247.357246264765
 31
0.0
1001
AUSTER_ANSICHT
1002
{
1000
Det03
1002
}
1001
AUSTER_FOLIE
1002
{
1000
NSB00029_LS04
1002
}
  0
LINE
  5
B697
330
20
100
AcDbEntity
  8
11000_Left
 62
     7
370
    50
100
AcDbLine
 39
0.7
 10
325.1177005093562
 20
172.8572462647649
 30
0.0
 11
325.5667005093562
 21
172.8572462647649
 31
0.0
1001
AUSTER_ANSICHT
1002
{
1000
Det03
1002
}
1001
AUSTER_FOLIE
1002
{
1000
NSB00029_LS04
1002
}
  0
LINE
  5
B698
330
20
100
AcDbEntity
  8
11000_Left
 62
     7
370
    50
100
AcDbLine
 39
0.7
 10
325.1176005093562
 20
156.8572462647649
 30
0.0
 11
325.5667005093562
 21
156.8572462647649
 31
0.0
1001
AUSTER_ANSICHT
1002
{
1000
Det03
1002
}
1001
AUSTER_FOLIE
1002
{
1000
NSB00029_LS04
1002
}
  0
LINE
  5
B699
330
20
100
AcDbEntity
  8
11000_Left
 62
     7
370
    50
100
AcDbLine
 39
0.7
 10
320.2456005093562
 20
187.357246264765
 30
0.0
 11
323.4990005093562
 21
187.357246264765
 31
0.0
1001
AUSTER_ANSICHT
1002
{
1000
Det03
1002
}
1001
AUSTER_FOLIE
1002
{
1000
NSB00029_LS04
1002
}
  0
LINE
  5
B69A
330
20
100
AcDbEntity
  8
11000_Left
 62
     7
370
    50
100
AcDbLine
 39
0.7
 10
325.2436005093562
 20
163.8572462647649
 30
0.0
 11
325.2246005093562
 21
163.8572462647649
 31
0.0
1001
AUSTER_ANSICHT
1002
{
1000
Det03
1002
}
1001
AUSTER_FOLIE
1002
{
1000
NSB00029_LS04
1002
}
  0
LINE
  5
B69B
330
20
100
AcDbEntity
  8
11000_Left
 62
     7
370
    50
100
AcDbLine
 39
0.7
 10
325.2436005093562
 20
163.8572462647649
 30
0.0
 11
325.2588005093562
 21
163.8599462647649
 31
0.0
1001
AUSTER_ANSICHT
1002
{
1000
Det03
1002
}
1001
AUSTER_FOLIE
1002
{
1000
NSB00029_LS04
1002
}
  0
LINE
  5
B69C
330
20
100
AcDbEntity
  8
11000_Left
 62
     7
370
    50
100
AcDbLine
 39
0.7
 10
323.4990005093562
 20
142.3572462647649
 30
0.0
 11
320.2456005093562
 21
142.3572462647649
 31
0.0
1001
AUSTER_ANSICHT
1002
{
1000
Det03
1002
}
1001
AUSTER_FOLIE
1002
{
1000
NSB00029_LS04
1002
}
  0
LINE
  5
B69D
330
20
100
AcDbEntity
  8
11000_Left
 62
     7
370
    50
100
AcDbLine
 39
0.7
 10
166.6456005093562
 20
149.0571462647649
 30
0.0
 11
166.0456005093562
 21
149.0571462647649
 31
0.0
1001
AUSTER_ANSICHT
1002
{
1000
Det03
1002
}
1001
AUSTER_FOLIE
1002
{
1000
NSB00029_LS04
1002
}
  0
LINE
  5
B69E
330
20
100
AcDbEntity
  8
11000_Left
 62
     7
370
    50
100
AcDbLine
 39
0.7
 10
166.6456005093562
 20
147.4571462647649
 30
0.0
 11
166.6456005093562
 21
149.0571462647649
 31
0.0
1001
AUSTER_ANSICHT
1002
{
1000
Det03
1002
}
1001
AUSTER_FOLIE
1002
{
1000
NSB00029_LS04
1002
}
  0
LINE
  5
B69F
330
20
100
AcDbEntity
  8
11000_Left
 62
     7
370
    50
100
AcDbLine
 39
0.7
 10
167.7460005093562
 20
147.2571462647649
 30
0.0
 11
166.8456005093562
 21
147.2571462647649
 31
0.0
1001
AUSTER_ANSICHT
1002
{
1000
Det03
1002
}
1001
AUSTER_FOLIE
1002
{
1000
NSB00029_LS04
1002
}
  0
LINE
  5
B6A0
330
20
100
AcDbEntity
  8
11000_Left
 62
     7
370
    50
100
AcDbLine
 39
0.7
 10
166.6456005093562
 20
129.1571462647649
 30
0.0
 11
166.2456005093562
 21
129.1571462647649
 31
0.0
1001
AUSTER_ANSICHT
1002
{
1000
Det03
1002
}
1001
AUSTER_FOLIE
1002
{
1000
NSB00029_LS04
1002
}
  0
LINE
  5
B6A1
330
20
100
AcDbEntity
  8
11000_Left
 62
     7
370
    50
100
AcDbLine
 39
0.7
 10
166.6456005093562
 20
127.8571462647649
 30
0.0
 11
166.6456005093562
 21
129.1571462647649
 31
0.0
1001
AUSTER_ANSICHT
1002
{
1000
Det03
1002
}
1001
AUSTER_FOLIE
1002
{
1000
NSB00029_LS04
1002
}
  0
LINE
  5
B6A2
330
20
100
AcDbEntity
  8
11000_Left
 62
     7
370
    50
100
AcDbLine
 39
0.7
 10
166.2456005093562
 20
129.1571462647649
 30
0.0
 11
163.1783005093562
 21
125.7064462647649
 31
0.0
1001
AUSTER_ANSICHT
1002
{
1000
Det03
1002
}
1001
AUSTER_FOLIE
1002
{
1000
NSB00029_LS04
1002
}
  0
LINE
  5
B6A3
330
20
100
AcDbEntity
  8
11000_Left
 62
     7
370
    50
100
AcDbLine
 39
0.7
 10
162.7456005093562
 20
145.6572462647649
 30
0.0
 11
162.7456005093562
 21
144.3572462647649
 31
0.0
1001
AUSTER_ANSICHT
1002
{
1000
Det03
1002
}
1001
AUSTER_FOLIE
1002
{
1000
NSB00029_LS04
1002
}
  0
LINE
  5
B6A4
330
20
100
AcDbEntity
  8
11000_Left
 62
     7
370
    50
100
AcDbLine
 39
0.7
 10
166.0456005093562
 20
149.0571462647649
 30
0.0
 11
163.0282005093562
 21
145.7379462647649
 31
0.0
1001
AUSTER_ANSICHT
1002
{
1000
Det03
1002
}
1001
AUSTER_FOLIE
1002
{
1000
NSB00029_LS04
1002
}
  0
LINE
  5
B6A5
330
20
100
AcDbEntity
  8
11000_Left
  6
DASHED
 62
     7
370
    13
100
AcDbLine
 39
0.25
 10
152.7472005093562
 20
164.7571462647649
 30
0.0
 11
152.7472005093562
 21
174.257146264765
 31
0.0
1001
AUSTER_ANSICHT
1002
{
1000
Det03
1002
}
1001
AUSTER_FOLIE
1002
{
1000
NSB00029_LS04
1002
}
  0
LINE
  5
B6A6
330
20
100
AcDbEntity
  8
11000_Left
  6
DASHED
 62
     7
370
    13
100
AcDbLine
 39
0.25
 10
155.2472005093562
 20
164.7571462647649
 30
0.0
 11
155.2472005093562
 21
173.0571462647649
 31
0.0
1001
AUSTER_ANSICHT
1002
{
1000
Det03
1002
}
1001
AUSTER_FOLIE
1002
{
1000
NSB00029_LS04
1002
}
  0
LINE
  5
B6A7
330
20
100
AcDbEntity
  8
11000_Left
  6
DASHED
 62
     7
370
    13
100
AcDbLine
 39
0.25
 10
152.7472005093562
 20
164.7571462647649
 30
0.0
 11
152.7472005093562
 21
155.2571462647649
 31
0.0
1001
AUSTER_ANSICHT
1002
{
1000
Det03
1002
}
1001
AUSTER_FOLIE
1002
{
1000
NSB00029_LS04
1002
}
  0
LINE
  5
B6A8
330
20
100
AcDbEntity
  8
11000_Left
  6
DASHED
 62
     7
370
    13
100
AcDbLine
 39
0.25
 10
155.2472005093562
 20
164.7571462647649
 30
0.0
 11
155.2472005093562
 21
156.4571462647649
 31
0.0
1001
AUSTER_ANSICHT
1002
{
1000
Det03
1002
}
1001
AUSTER_FOLIE
1002
{
1000
NSB00029_LS04
1002
}
  0
LINE
  5
B6A9
330
20
100
AcDbEntity
  8
11000_Left
  6
DASHED
 62
     7
370
    13
100
AcDbLine
 39
0.25
 10
142.7472005093562
 20
142.7571462647649
 30
0.0
 11
142.7472005093562
 21
186.757146264765
 31
0.0
1001
AUSTER_ANSICHT
1002
{
1000
Det03
1002
}
1001
AUSTER_FOLIE
1002
{
1000
NSB00029_LS04
1002
}
  0
LINE
  5
B6AA
330
20
100
AcDbEntity
  8
11000_Left
  6
DASHED
 62
     7
370
    13
100
AcDbLine
 39
0.25
 10
145.7472005093562
 20
145.7571462647649
 30
0.0
 11
145.7472005093562
 21
183.757146264765
 31
0.0
1001
AUSTER_ANSICHT
1002
{
1000
Det03
1002
}
1001
AUSTER_FOLIE
1002
{
1000
NSB00029_LS04
1002
}
  0
LINE
  5
B6AB
330
20
100
AcDbEntity
  8
11000_Left
  6
DASHED
 62
     7
370
    13
100
AcDbLine
 39
0.25
 10
145.7472005093562
 20
189.7571462647649
 30
0.0
 11
163.7472005093562
 21
189.7571462647649
 31
0.0
1001
AUSTER_ANSICHT
1002
{
1000
Det03
1002
}
1001
AUSTER_FOLIE
1002
{
1000
NSB00029_LS04
1002
}
  0
LINE
  5
B6AC
330
20
100
AcDbEntity
  8
11000_Left
  6
DASHED
 62
     7
370
    13
100
AcDbLine
 39
0.25
 10
163.7472005093562
 20
186.757146264765
 30
0.0
 11
148.7472005093562
 21
186.757146264765
 31
0.0
1001
AUSTER_ANSICHT
1002
{
1000
Det03
1002
}
1001
AUSTER_FOLIE
1002
{
1000
NSB00029_LS04
1002
}
  0
LINE
  5
B6AD
330
20
100
AcDbEntity
  8
11000_Left
  6
DASHED
 62
     7
370
    13
100
AcDbLine
 39
0.25
 10
166.7472005093562
 20
202.3571462647649
 30
0.0
 11
166.7472005093562
 21
192.7571462647649
 31
0.0
1001
AUSTER_ANSICHT
1002
{
1000
Det03
1002
}
1001
AUSTER_FOLIE
1002
{
1000
NSB00029_LS04
1002
}
  0
LINE
  5
B6AE
330
20
100
AcDbEntity
  8
11000_Left
  6
DASHED
 62
     7
370
    13
100
AcDbLine
 39
0.25
 10
156.4472005093562
 20
174.257146264765
 30
0.0
 11
165.7472005093562
 21
174.257146264765
 31
0.0
1001
AUSTER_ANSICHT
1002
{
1000
Det03
1002
}
1001
AUSTER_FOLIE
1002
{
1000
NSB00029_LS04
1002
}
  0
LINE
  5
B6AF
330
20
100
AcDbEntity
  8
11000_Left
  6
DASHED
 62
     7
370
    13
100
AcDbLine
 39
0.25
 10
156.4472005093562
 20
155.2571462647649
 30
0.0
 11
165.7472005093562
 21
155.2571462647649
 31
0.0
1001
AUSTER_ANSICHT
1002
{
1000
Det03
1002
}
1001
AUSTER_FOLIE
1002
{
1000
NSB00029_LS04
1002
}
  0
LINE
  5
B6B0
330
20
100
AcDbEntity
  8
11000_Left
  6
DASHED
 62
     7
370
    13
100
AcDbLine
 39
0.25
 10
164.4339005093562
 20
176.757146264765
 30
0.0
 11
155.2472005093562
 21
176.757146264765
 31
0.0
1001
AUSTER_ANSICHT
1002
{
1000
Det03
1002
}
1001
AUSTER_FOLIE
1002
{
1000
NSB00029_LS04
1002
}
  0
LINE
  5
B6B1
330
20
100
AcDbEntity
  8
11000_Left
  6
DASHED
 62
     7
370
    13
100
AcDbLine
 39
0.25
 10
164.4339005093562
 20
152.7571462647649
 30
0.0
 11
155.2472005093562
 21
152.7571462647649
 31
0.0
1001
AUSTER_ANSICHT
1002
{
1000
Det03
1002
}
1001
AUSTER_FOLIE
1002
{
1000
NSB00029_LS04
1002
}
  0
LINE
  5
B6B2
330
20
100
AcDbEntity
  8
11000_Left
  6
DASHED
 62
     7
370
    13
100
AcDbLine
 39
0.25
 10
163.7472005093562
 20
142.7571462647649
 30
0.0
 11
148.7472005093562
 21
142.7571462647649
 31
0.0
1001
AUSTER_ANSICHT
1002
{
1000
Det03
1002
}
1001
AUSTER_FOLIE
1002
{
1000
NSB00029_LS04
1002
}
  0
LINE
  5
B6B3
330
20
100
AcDbEntity
  8
11000_Left
  6
DASHED
 62
     7
370
    13
100
AcDbLine
 39
0.25
 10
163.7472005093562
 20
139.7571462647649
 30
0.0
 11
145.7472005093562
 21
139.7571462647649
 31
0.0
1001
AUSTER_ANSICHT
1002
{
1000
Det03
1002
}
1001
AUSTER_FOLIE
1002
{
1000
NSB00029_LS04
1002
}
  0
LINE
  5
B6B4
330
20
100
AcDbEntity
  8
11000_Left
  6
DASHED
 62
     7
370
    13
100
AcDbLine
 39
0.25
 10
166.7472005093562
 20
182.2571462647649
 30
0.0
 11
165.6339005093562
 21
177.968646264765
 31
0.0
1001
AUSTER_ANSICHT
1002
{
1000
Det03
1002
}
1001
AUSTER_FOLIE
1002
{
1000
NSB00029_LS04
1002
}
  0
LINE
  5
B6B5
330
20
100
AcDbEntity
  8
11000_Left
  6
DASHED
 62
     7
370
    13
100
AcDbLine
 39
0.25
 10
166.7472005093562
 20
147.2571462647649
 30
0.0
 11
165.6339005093562
 21
151.5457462647649
 31
0.0
1001
AUSTER_ANSICHT
1002
{
1000
Det03
1002
}
1001
AUSTER_FOLIE
1002
{
1000
NSB00029_LS04
1002
}
  0
LINE
  5
B6B6
330
20
100
AcDbEntity
  8
11000_Left
  6
DASHED
 62
     7
370
    13
100
AcDbLine
 39
0.7
 10
167.7472005093562
 20
182.2571462647649
 30
0.0
 11
167.7472005093562
 21
176.2571462647649
 31
0.0
1001
AUSTER_ANSICHT
1002
{
1000
Det03
1002
}
1001
AUSTER_FOLIE
1002
{
1000
NSB00029_LS04
1002
}
  0
LINE
  5
B6B7
330
20
100
AcDbEntity
  8
11000_Left
  6
DASHED
 62
     7
370
    13
100
AcDbLine
 39
0.25
 10
167.7472005093562
 20
147.2571462647649
 30
0.0
 11
167.7472005093562
 21
153.2571462647649
 31
0.0
1001
AUSTER_ANSICHT
1002
{
1000
Det03
1002
}
1001
AUSTER_FOLIE
1002
{
1000
NSB00029_LS04
1002
}
  0
LINE
  5
B6B8
330
20
100
AcDbEntity
  8
11000_Left
  6
DASHED
 62
     7
370
    13
100
AcDbLine
 39
0.25
 10
166.7472005093562
 20
136.7571462647649
 30
0.0
 11
166.7472005093562
 21
127.9571462647649
 31
0.0
1001
AUSTER_ANSICHT
1002
{
1000
Det03
1002
}
1001
AUSTER_FOLIE
1002
{
1000
NSB00029_LS04
1002
}
  0
LINE
  5
B6B9
330
20
100
AcDbEntity
  8
10000_FRONT
 62
     7
370
    20
100
AcDbLine
 39
0.35
 10
39.5099466974611
 20
223.4203462647649
 30
0.0
 11
84.30980669746109
 21
223.4203462647649
 31
0.0
1001
AUSTER_ANSICHT
1002
{
1000
Det03
1002
}
1001
AUSTER_FOLIE
1002
{
1000
NSB00029_LS04
1002
}
  0
LINE
  5
B6BA
330
20
100
AcDbEntity
  8
10000_FRONT
 62
     7
370
    20
100
AcDbLine
 39
0.35
 10
39.5099466974611
 20
223.4203462647649
 30
0.0
 11
39.5099466974611
 21
222.6572462647649
 31
0.0
1001
AUSTER_ANSICHT
1002
{
1000
Det03
1002
}
1001
AUSTER_FOLIE
1002
{
1000
NSB00029_LS04
1002
}
  0
LINE
  5
B6BB
330
20
100
AcDbEntity
  8
10000_FRONT
 62
     7
370
    20
100
AcDbLine
 39
0.35
 10
84.30980669746109
 20
223.4203462647649
 30
0.0
 11
84.30980669746109
 21
222.6572462647649
 31
0.0
1001
AUSTER_ANSICHT
1002
{
1000
Det03
1002
}
1001
AUSTER_FOLIE
1002
{
1000
NSB00029_LS04
1002
}
  0
LINE
  5
B6BC
330
20
100
AcDbEntity
  8
10000_FRONT
 62
     7
370
    20
100
AcDbLine
 39
0.35
 10
27.00994669746109
 20
222.6572462647649
 30
0.0
 11
39.5099466974611
 21
222.6572462647649
 31
0.0
1001
AUSTER_ANSICHT
1002
{
1000
Det03
1002
}
1001
AUSTER_FOLIE
1002
{
1000
NSB00029_LS04
1002
}
  0
LINE
  5
B6BD
330
20
100
AcDbEntity
  8
10000_FRONT
 62
     7
370
    20
100
AcDbLine
 39
0.35
 10
84.30980669746109
 20
222.6572462647649
 30
0.0
 11
97.00990669746108
 21
222.6572462647649
 31
0.0
1001
AUSTER_ANSICHT
1002
{
1000
Det03
1002
}
1001
AUSTER_FOLIE
1002
{
1000
NSB00029_LS04
1002
}
  0
LINE
  5
B6BE
330
20
100
AcDbEntity
  8
10000_FRONT
 62
     7
370
    20
100
AcDbLine
 39
0.35
 10
84.30980669746109
 20
222.6572462647649
 30
0.0
 11
84.30980669746109
 21
212.6501462647649
 31
0.0
1001
AUSTER_ANSICHT
1002
{
1000
Det03
1002
}
1001
AUSTER_FOLIE
1002
{
1000
NSB00029_LS04
1002
}
  0
LINE
  5
B6BF
330
20
100
AcDbEntity
  8
10000_FRONT
 62
     7
370
    20
100
AcDbLine
 39
0.35
 10
84.30980669746109
 20
212.6501462647649
 30
0.0
 11
39.5099466974611
 21
212.6501462647649
 31
0.0
1001
AUSTER_ANSICHT
1002
{
1000
Det03
1002
}
1001
AUSTER_FOLIE
1002
{
1000
NSB00029_LS04
1002
}
  0
LINE
  5
B6C0
330
20
100
AcDbEntity
  8
10000_FRONT
 62
     7
370
    20
100
AcDbLine
 39
0.35
 10
39.5099466974611
 20
212.6501462647649
 30
0.0
 11
39.5099466974611
 21
222.6572462647649
 31
0.0
1001
AUSTER_ANSICHT
1002
{
1000
Det03
1002
}
1001
AUSTER_FOLIE
1002
{
1000
NSB00029_LS04
1002
}
  0
LINE
  5
B6C1
330
20
100
AcDbEntity
  8
10000_FRONT
 62
     7
370
    20
100
AcDbLine
 39
0.35
 10
30.2220066974611
 20
222.6572462647649
 30
0.0
 11
30.2220066974611
 21
218.6572462647649
 31
0.0
1001
AUSTER_ANSICHT
1002
{
1000
Det03
1002
}
1001
AUSTER_FOLIE
1002
{
1000
NSB00029_LS04
1002
}
  0
LINE
  5
B6C2
330
20
100
AcDbEntity
  8
10000_FRONT
 62
     7
370
    20
100
AcDbLine
 39
0.35
 10
37.79789669746107
 20
222.6572462647649
 30
0.0
 11
37.79789669746107
 21
218.6572462647649
 31
0.0
1001
AUSTER_ANSICHT
1002
{
1000
Det03
1002
}
1001
AUSTER_FOLIE
1002
{
1000
NSB00029_LS04
1002
}
  0
LINE
  5
B6C3
330
20
100
AcDbEntity
  8
10000_FRONT
 62
     7
370
    20
100
AcDbLine
 39
0.35
 10
93.79790669746107
 20
222.6572462647649
 30
0.0
 11
93.79790669746107
 21
218.6572462647649
 31
0.0
1001
AUSTER_ANSICHT
1002
{
1000
Det03
1002
}
1001
AUSTER_FOLIE
1002
{
1000
NSB00029_LS04
1002
}
  0
LINE
  5
B6C4
330
20
100
AcDbEntity
  8
10000_FRONT
 62
     7
370
    20
100
AcDbLine
 39
0.35
 10
86.22200669746108
 20
222.6572462647649
 30
0.0
 11
86.22200669746108
 21
218.6572462647649
 31
0.0
1001
AUSTER_ANSICHT
1002
{
1000
Det03
1002
}
1001
AUSTER_FOLIE
1002
{
1000
NSB00029_LS04
1002
}
  0
LINE
  5
B6C5
330
20
100
AcDbEntity
  8
10000_FRONT
 62
     7
370
    20
100
AcDbLine
 39
0.35
 10
41.75992669746107
 20
229.2572462647649
 30
0.0
 11
40.63492669746107
 21
227.3086462647649
 31
0.0
1001
AUSTER_ANSICHT
1002
{
1000
Det03
1002
}
1001
AUSTER_FOLIE
1002
{
1000
NSB00029_LS04
1002
}
  0
LINE
  5
B6C6
330
20
100
AcDbEntity
  8
10000_FRONT
 62
     7
370
    20
100
AcDbLine
 39
0.35
 10
40.63492669746107
 20
227.3086462647649
 30
0.0
 11
38.38492669746108
 21
227.3086462647649
 31
0.0
1001
AUSTER_ANSICHT
1002
{
1000
Det03
1002
}
1001
AUSTER_FOLIE
1002
{
1000
NSB00029_LS04
1002
}
  0
LINE
  5
B6C7
330
20
100
AcDbEntity
  8
10000_FRONT
 62
     7
370
    20
100
AcDbLine
 39
0.35
 10
38.38492669746108
 20
227.3086462647649
 30
0.0
 11
37.25992669746108
 21
229.2572462647649
 31
0.0
1001
AUSTER_ANSICHT
1002
{
1000
Det03
1002
}
1001
AUSTER_FOLIE
1002
{
1000
NSB00029_LS04
1002
}
  0
LINE
  5
B6C8
330
20
100
AcDbEntity
  8
10000_FRONT
 62
     7
370
    20
100
AcDbLine
 39
0.35
 10
64.25994669746109
 20
229.2572462647649
 30
0.0
 11
63.13494669746109
 21
227.3086462647649
 31
0.0
1001
AUSTER_ANSICHT
1002
{
1000
Det03
1002
}
1001
AUSTER_FOLIE
1002
{
1000
NSB00029_LS04
1002
}
  0
LINE
  5
B6C9
330
20
100
AcDbEntity
  8
10000_FRONT
 62
     7
370
    20
100
AcDbLine
 39
0.35
 10
63.13494669746109
 20
227.3086462647649
 30
0.0
 11
60.88494669746109
 21
227.3086462647649
 31
0.0
1001
AUSTER_ANSICHT
1002
{
1000
Det03
1002
}
1001
AUSTER_FOLIE
1002
{
1000
NSB00029_LS04
1002
}
  0
LINE
  5
B6CA
330
20
100
AcDbEntity
  8
10000_FRONT
 62
     7
370
    20
100
AcDbLine
 39
0.35
 10
60.88494669746109
 20
227.3086462647649
 30
0.0
 11
59.75994669746109
 21
229.2572462647649
 31
0.0
1001
AUSTER_ANSICHT
1002
{
1000
Det03
1002
}
1001
AUSTER_FOLIE
1002
{
1000
NSB00029_LS04
1002
}
  0
LINE
  5
B6CB
330
20
100
AcDbEntity
  8
10000_FRONT
 62
     7
370
    20
100
AcDbLine
 39
0.35
 10
86.76000669746111
 20
229.2572462647649
 30
0.0
 11
85.6350066974611
 21
227.3086462647649
 31
0.0
1001
AUSTER_ANSICHT
1002
{
1000
Det03
1002
}
1001
AUSTER_FOLIE
1002
{
1000
NSB00029_LS04
1002
}
  0
LINE
  5
B6CC
330
20
100
AcDbEntity
  8
10000_FRONT
 62
     7
370
    20
100
AcDbLine
 39
0.35
 10
85.6350066974611
 20
227.3086462647649
 30
0.0
 11
83.38500669746109
 21
227.3086462647649
 31
0.0
1001
AUSTER_ANSICHT
1002
{
1000
Det03
1002
}
1001
AUSTER_FOLIE
1002
{
1000
NSB00029_LS04
1002
}
  0
LINE
  5
B6CD
330
20
100
AcDbEntity
  8
10000_FRONT
 62
     7
370
    20
100
AcDbLine
 39
0.35
 10
83.38500669746109
 20
227.3086462647649
 30
0.0
 11
82.26000669746111
 21
229.2572462647649
 31
0.0
1001
AUSTER_ANSICHT
1002
{
1000
Det03
1002
}
1001
AUSTER_FOLIE
1002
{
1000
NSB00029_LS04
1002
}
  0
ARC
  5
B952
330
20
100
AcDbEntity
  8
11000_Left
 62
     7
370
    50
100
AcDbCircle
 39
0.7
 10
136.9085005093562
 20
164.8972462647649
 30
0.0
 40
200.1582
100
AcDbArc
 50
356.1329999999992
 51
3.867600000000265
1001
AUSTER_ANSICHT
1002
{
1000
Det03
1002
}
1001
AUSTER_FOLIE
1002
{
1000
NSB00029_LS04
1002
}
  0
ARC
  5
B953
330
20
100
AcDbEntity
  8
10000_FRONT
 62
     7
370
    20
100
AcDbCircle
 39
0.35
 10
50.00994669746109
 20
164.8572462647649
 30
0.0
 40
1.504661
100
AcDbArc
 50
101.8205999999995
 51
258.1794000000004
1001
AUSTER_ANSICHT
1002
{
1000
Det03
1002
}
1001
AUSTER_FOLIE
1002
{
1000
NSB00029_LS04
1002
}
  0
ARC
  5
B954
330
20
100
AcDbEntity
  8
11000_Left
  6
DASHED
 62
     7
370
    13
100
AcDbCircle
 39
0.25
 10
148.7472005093562
 20
145.7571462647649
 30
0.0
 40
3.0
100
AcDbArc
 50
180.0
 51
270.0
1001
AUSTER_ANSICHT
1002
{
1000
Det03
1002
}
1001
AUSTER_FOLIE
1002
{
1000
NSB00029_LS04
1002
}
  0
ARC
  5
B955
330
20
100
AcDbEntity
  8
10000_FRONT
 62
     7
370
    20
100
AcDbCircle
 39
0.35
 10
64.72149669746108
 20
96.11694626476491
 30
0.0
 40
71.80159999999998
100
AcDbArc
 50
98.30506999999961
 51
102.0745999999995
1001
AUSTER_ANSICHT
1002
{
1000
Det03
1002
}
1001
AUSTER_FOLIE
1002
{
1000
NSB00029_LS04
1002
}
  0
ARC
  5
B956
330
20
100
AcDbEntity
  8
10000_FRONT
 62
     7
370
    20
100
AcDbCircle
 39
0.35
 10
63.95752669746104
 20
100.9192462647649
 30
0.0
 40
66.93934
100
AcDbArc
 50
80.53850999999959
 51
98.25175000000037
1001
AUSTER_ANSICHT
1002
{
1000
Det03
1002
}
1001
AUSTER_FOLIE
1002
{
1000
NSB00029_LS04
1002
}
  0
ARC
  5
B957
330
20
100
AcDbEntity
  8
10000_FRONT
 62
     7
370
    20
100
AcDbCircle
 39
0.35
 10
65.77206669746107
 20
239.4390462647649
 30
0.0
 40
77.73385999999998
100
AcDbArc
 50
258.0688999999999
 51
261.5505999999996
1001
AUSTER_ANSICHT
1002
{
1000
Det03
1002
}
1001
AUSTER_FOLIE
1002
{
1000
NSB00029_LS04
1002
}
  0
ARC
  5
B958
330
20
100
AcDbEntity
  8
10000_FRONT
 62
     7
370
    20
100
AcDbCircle
 39
0.35
 10
63.95735669746108
 20
228.8001462647649
 30
0.0
 40
66.94418
100
AcDbArc
 50
261.7489999999996
 51
279.4608999999995
1001
AUSTER_ANSICHT
1002
{
1000
Det03
1002
}
1001
AUSTER_FOLIE
1002
{
1000
NSB00029_LS04
1002
}
  0
ARC
  5
B959
330
20
100
AcDbEntity
  8
10000_FRONT
 62
     7
370
    20
100
AcDbCircle
 39
0.35
 10
74.78577669746106
 20
166.2237462647649
 30
0.0
 40
0.7241675
100
AcDbArc
 50
0.0
 51
76.37357999999984
1001
AUSTER_ANSICHT
1002
{
1000
Det03
1002
}
1001
AUSTER_FOLIE
1002
{
1000
NSB00029_LS04
1002
}
  0
ARC
  5
B95A
330
20
100
AcDbEntity
  8
11000_Left
  6
DASHED
 62
     7
370
    13
100
AcDbCircle
 39
0.25
 10
155.2472005093562
 20
174.257146264765
 30
0.0
 40
2.5
100
AcDbArc
 50
90.0
 51
180.0
1001
AUSTER_ANSICHT
1002
{
1000
Det03
1002
}
1001
AUSTER_FOLIE
1002
{
1000
NSB00029_LS04
1002
}
  0
ARC
  5
B95B
330
20
100
AcDbEntity
  8
11000_Left
  6
DASHED
 62
     7
370
    13
100
AcDbCircle
 39
0.25
 10
156.4472005093562
 20
173.0571462647649
 30
0.0
 40
1.199999999999999
100
AcDbArc
 50
90.0
 51
180.0
1001
AUSTER_ANSICHT
1002
{
1000
Det03
1002
}
1001
AUSTER_FOLIE
1002
{
1000
NSB00029_LS04
1002
}
  0
ARC
  5
B95C
330
20
100
AcDbEntity
  8
11000_Left
  6
DASHED
 62
     7
370
    13
100
AcDbCircle
 39
0.25
 10
145.7472005093562
 20
142.7571462647649
 30
0.0
 40
3.0
100
AcDbArc
 50
180.0
 51
270.0
1001
AUSTER_ANSICHT
1002
{
1000
Det03
1002
}
1001
AUSTER_FOLIE
1002
{
1000
NSB00029_LS04
1002
}
  0
ARC
  5
B95D
330
20
100
AcDbEntity
  8
11000_Left
  6
DASHED
 62
     7
370
    13
100
AcDbCircle
 39
0.25
 10
145.7472005093562
 20
186.757146264765
 30
0.0
 40
3.0
100
AcDbArc
 50
90.0
 51
180.0
1001
AUSTER_ANSICHT
1002
{
1000
Det03
1002
}
1001
AUSTER_FOLIE
1002
{
1000
NSB00029_LS04
1002
}
  0
ARC
  5
B95E
330
20
100
AcDbEntity
  8
11000_Left
  6
DASHED
 62
     7
370
    13
100
AcDbCircle
 39
0.25
 10
148.7472005093562
 20
183.757146264765
 30
0.0
 40
3.0
100
AcDbArc
 50
90.0
 51
180.0
1001
AUSTER_ANSICHT
1002
{
1000
Det03
1002
}
1001
AUSTER_FOLIE
1002
{
1000
NSB00029_LS04
1002
}
  0
ARC
  5
B95F
330
20
100
AcDbEntity
  8
11000_Left
  6
DASHED
 62
     7
370
    13
100
AcDbCircle
 39
0.25
 10
163.7472005093562
 20
192.7571462647649
 30
0.0
 40
3.0
100
AcDbArc
 50
270.0
 51
0.0
1001
AUSTER_ANSICHT
1002
{
1000
Det03
1002
}
1001
AUSTER_FOLIE
1002
{
1000
NSB00029_LS04
1002
}
  0
ARC
  5
B960
330
20
100
AcDbEntity
  8
11000_Left
  6
DASHED
 62
     7
370
    13
100
AcDbCircle
 39
0.25
 10
164.4339005093562
 20
177.968646264765
 30
0.0
 40
1.211467999999998
100
AcDbArc
 50
270.0
 51
0.0
1001
AUSTER_ANSICHT
1002
{
1000
Det03
1002
}
1001
AUSTER_FOLIE
1002
{
1000
NSB00029_LS04
1002
}
  0
ARC
  5
B961
330
20
100
AcDbEntity
  8
10000_FRONT
 62
     7
370
    20
100
AcDbCircle
 39
0.35
 10
44.00994669746109
 20
164.8572462647649
 30
0.0
 40
2.5
100
AcDbArc
 50
23.57818000000015
 51
336.4218000000014
1001
AUSTER_ANSICHT
1002
{
1000
Det03
1002
}
1001
AUSTER_FOLIE
1002
{
1000
NSB00029_LS04
1002
}
  0
ARC
  5
B962
330
20
100
AcDbEntity
  8
10000_FRONT
 62
     7
370
    20
100
AcDbCircle
 39
0.35
 10
74.78577669746106
 20
163.4907462647649
 30
0.0
 40
0.7241675
100
AcDbArc
 50
283.6264000000003
 51
0.0
1001
AUSTER_ANSICHT
1002
{
1000
Det03
1002
}
1001
AUSTER_FOLIE
1002
{
1000
NSB00029_LS04
1002
}
  0
CIRCLE
  5
B963
330
20
100
AcDbEntity
  8
10000_FRONT
 62
     7
370
    20
100
AcDbCircle
 39
0.35
 10
39.50992669746108
 20
176.3572462647649
 30
0.0
 40
4.142401
1001
AUSTER_ANSICHT
1002
{
1000
Det03
1002
}
1001
AUSTER_FOLIE
1002
{
1000
NSB00029_LS04
1002
}
  0
CIRCLE
  5
B965
330
20
100
AcDbEntity
  8
11000_Left
 62
     7
370
    20
100
AcDbCircle
 39
0.45
 10
228.9456005093562
 20
208.357246264765
 30
0.0
 40
5.5
1001
AUSTER_ANSICHT
1002
{
1000
Det03
1002
}
1001
AUSTER_FOLIE
1002
{
1000
NSB00029_LS04
1002
}
  0
ARC
  5
B966
330
20
100
AcDbEntity
  8
10000_FRONT
 62
     7
370
    20
100
AcDbCircle
 39
0.35
 10
77.00990669746108
 20
242.357246264765
 30
0.0
 40
2.5
100
AcDbArc
 50
26.10386999999974
 51
90.0
1001
AUSTER_ANSICHT
1002
{
1000
Det03
1002
}
1001
AUSTER_FOLIE
1002
{
1000
NSB00029_LS04
1002
}
  0
ARC
  5
B967
330
20
100
AcDbEntity
  8
10000_FRONT
 62
     7
370
    20
100
AcDbCircle
 39
0.35
 10
47.00994669746108
 20
87.35724626476489
 30
0.0
 40
2.5
100
AcDbArc
 50
206.1038999999994
 51
270.0
1001
AUSTER_ANSICHT
1002
{
1000
Det03
1002
}
1001
AUSTER_FOLIE
1002
{
1000
NSB00029_LS04
1002
}
  0
ARC
  5
B968
330
20
100
AcDbEntity
  8
10000_FRONT
 62
     7
370
    20
100
AcDbCircle
 39
0.35
 10
77.00990669746108
 20
242.357246264765
 30
0.0
 40
2.5
100
AcDbArc
 50
90.0
 51
264.8595000000002
1001
AUSTER_ANSICHT
1002
{
1000
Det03
1002
}
1001
AUSTER_FOLIE
1002
{
1000
NSB00029_LS04
1002
}
  0
ARC
  5
B969
330
20
100
AcDbEntity
  8
10000_FRONT
 62
     7
370
    20
100
AcDbCircle
 39
0.35
 10
47.00994669746108
 20
87.35724626476489
 30
0.0
 40
2.5
100
AcDbArc
 50
270.0
 51
84.85950000000027
1001
AUSTER_ANSICHT
1002
{
1000
Det03
1002
}
1001
AUSTER_FOLIE
1002
{
1000
NSB00029_LS04
1002
}
  0
ARC
  5
B96A
330
20
100
AcDbEntity
  8
10000_FRONT
 62
     7
370
    20
100
AcDbCircle
 39
0.35
 10
50.75994669746108
 20
111.0572462647649
 30
0.0
 40
3.787946999999998
100
AcDbArc
 50
0.0
 51
180.0
1001
AUSTER_ANSICHT
1002
{
1000
Det03
1002
}
1001
AUSTER_FOLIE
1002
{
1000
NSB00029_LS04
1002
}
  0
CIRCLE
  5
B96B
330
20
100
AcDbEntity
  8
10000_FRONT
 62
     7
370
    20
100
AcDbCircle
 39
0.35
 10
50.75994669746108
 20
111.0572462647649
 30
0.0
 40
2.799999999999998
1001
AUSTER_ANSICHT
1002
{
1000
Det03
1002
}
1001
AUSTER_FOLIE
1002
{
1000
NSB00029_LS04
1002
}
  0
ARC
  5
B96C
330
20
100
AcDbEntity
  8
10000_FRONT
 62
     7
370
    20
100
AcDbCircle
 39
0.35
 10
73.25994669746108
 20
111.0572462647649
 30
0.0
 40
3.787946999999998
100
AcDbArc
 50
0.0
 51
180.0
1001
AUSTER_ANSICHT
1002
{
1000
Det03
1002
}
1001
AUSTER_FOLIE
1002
{
1000
NSB00029_LS04
1002
}
  0
CIRCLE
  5
B96D
330
20
100
AcDbEntity
  8
10000_FRONT
 62
     7
370
    20
100
AcDbCircle
 39
0.35
 10
73.25994669746108
 20
111.0572462647649
 30
0.0
 40
2.799999999999998
1001
AUSTER_ANSICHT
1002
{
1000
Det03
1002
}
1001
AUSTER_FOLIE
1002
{
1000
NSB00029_LS04
1002
}
  0
ARC
  5
B96E
330
20
100
AcDbEntity
  8
10000_FRONT
 62
     7
370
    20
100
AcDbCircle
 39
0.35
 10
39.50991669746111
 20
176.3572462647649
 30
0.0
 40
2.000011999999999
100
AcDbArc
 50
345.5226000000014
 51
14.47739999999866
1001
AUSTER_ANSICHT
1002
{
1000
Det03
1002
}
1001
AUSTER_FOLIE
1002
{
1000
NSB00029_LS04
1002
}
  0
CIRCLE
  5
B96F
330
20
100
AcDbEntity
  8
10000_FRONT
 62
     7
370
    20
100
AcDbCircle
 39
0.35
 10
39.50992669746108
 20
229.2572462647649
 30
0.0
 40
3.1
1001
AUSTER_ANSICHT
1002
{
1000
Det03
1002
}
1001
AUSTER_FOLIE
1002
{
1000
NSB00029_LS04
1002
}
  0
CIRCLE
  5
B970
330
20
100
AcDbEntity
  8
10000_FRONT
 62
     7
370
    20
100
AcDbCircle
 39
0.35
 10
62.00994669746108
 20
229.2572462647649
 30
0.0
 40
3.1
1001
AUSTER_ANSICHT
1002
{
1000
Det03
1002
}
1001
AUSTER_FOLIE
1002
{
1000
NSB00029_LS04
1002
}
  0
CIRCLE
  5
B971
330
20
100
AcDbEntity
  8
10000_FRONT
 62
     7
370
    20
100
AcDbCircle
 39
0.35
 10
84.51000669746111
 20
229.2572462647649
 30
0.0
 40
3.1
1001
AUSTER_ANSICHT
1002
{
1000
Det03
1002
}
1001
AUSTER_FOLIE
1002
{
1000
NSB00029_LS04
1002
}
  0
CIRCLE
  5
B972
330
20
100
AcDbEntity
  8
10000_FRONT
 62
     7
370
    20
100
AcDbCircle
 39
0.35
 10
39.50992669746108
 20
100.4572462647649
 30
0.0
 40
3.1
1001
AUSTER_ANSICHT
1002
{
1000
Det03
1002
}
1001
AUSTER_FOLIE
1002
{
1000
NSB00029_LS04
1002
}
  0
CIRCLE
  5
B973
330
20
100
AcDbEntity
  8
10000_FRONT
 62
     7
370
    20
100
AcDbCircle
 39
0.35
 10
62.00994669746108
 20
100.4572462647649
 30
0.0
 40
3.1
1001
AUSTER_ANSICHT
1002
{
1000
Det03
1002
}
1001
AUSTER_FOLIE
1002
{
1000
NSB00029_LS04
1002
}
  0
CIRCLE
  5
B974
330
20
100
AcDbEntity
  8
10000_FRONT
 62
     7
370
    20
100
AcDbCircle
 39
0.35
 10
84.51000669746111
 20
100.4572462647649
 30
0.0
 40
3.1
1001
AUSTER_ANSICHT
1002
{
1000
Det03
1002
}
1001
AUSTER_FOLIE
1002
{
1000
NSB00029_LS04
1002
}
  0
ARC
  5
B975
330
20
100
AcDbEntity
  8
11000_Left
 62
     7
370
    50
100
AcDbCircle
 39
0.7
 10
316.6119005093562
 20
221.8572462647649
 30
0.0
 40
0.8
100
AcDbArc
 50
14.77067000000039
 51
90.0
1001
AUSTER_ANSICHT
1002
{
1000
Det03
1002
}
1001
AUSTER_FOLIE
1002
{
1000
NSB00029_LS04
1002
}
  0
ARC
  5
B976
330
20
100
AcDbEntity
  8
11000_Left
 62
     7
370
    50
100
AcDbCircle
 39
0.7
 10
316.6119005093562
 20
107.8572462647649
 30
0.0
 40
0.8
100
AcDbArc
 50
270.0
 51
345.229299999999
1001
AUSTER_ANSICHT
1002
{
1000
Det03
1002
}
1001
AUSTER_FOLIE
1002
{
1000
NSB00029_LS04
1002
}
  0
ARC
  5
B977
330
20
100
AcDbEntity
  8
11000_Left
 62
     7
370
    50
100
AcDbCircle
 39
0.7
 10
20.33203050935623
 20
180.1572462647649
 30
0.0
 40
300.0
100
AcDbArc
 50
1.375232000000686
 51
8.029471000000054
1001
AUSTER_ANSICHT
1002
{
1000
Det03
1002
}
1001
AUSTER_FOLIE
1002
{
1000
NSB00029_LS04
1002
}
  0
ARC
  5
B978
330
20
100
AcDbEntity
  8
11000_Left
 62
     7
370
    50
100
AcDbCircle
 39
0.7
 10
20.33203050935623
 20
149.5572462647649
 30
0.0
 40
300.0
100
AcDbArc
 50
351.9705000000016
 51
358.6247999999987
1001
AUSTER_ANSICHT
1002
{
1000
Det03
1002
}
1001
AUSTER_FOLIE
1002
{
1000
NSB00029_LS04
1002
}
  0
ARC
  5
B979
330
20
100
AcDbEntity
  8
10000_FRONT
 62
     7
370
    50
100
AcDbCircle
 39
0.7
 10
28.50994669746109
 20
83.85724626476491
 30
0.0
 40
1.5
100
AcDbArc
 50
180.0
 51
270.0
1001
AUSTER_ANSICHT
1002
{
1000
Det03
1002
}
1001
AUSTER_FOLIE
1002
{
1000
NSB00029_LS04
1002
}
  0
ARC
  5
B97A
330
20
100
AcDbEntity
  8
10000_FRONT
 62
     7
370
    50
100
AcDbCircle
 39
0.7
 10
95.50990669746107
 20
83.85724626476491
 30
0.0
 40
1.5
100
AcDbArc
 50
270.0
 51
0.0
1001
AUSTER_ANSICHT
1002
{
1000
Det03
1002
}
1001
AUSTER_FOLIE
1002
{
1000
NSB00029_LS04
1002
}
  0
ARC
  5
B97B
330
20
100
AcDbEntity
  8
10000_FRONT
 62
     7
370
    50
100
AcDbCircle
 39
0.7
 10
95.50990669746107
 20
245.857246264765
 30
0.0
 40
1.5
100
AcDbArc
 50
0.0
 51
90.0
1001
AUSTER_ANSICHT
1002
{
1000
Det03
1002
}
1001
AUSTER_FOLIE
1002
{
1000
NSB00029_LS04
1002
}
  0
ARC
  5
B97C
330
20
100
AcDbEntity
  8
10000_FRONT
 62
     7
370
    50
100
AcDbCircle
 39
0.7
 10
28.50994669746109
 20
245.857246264765
 30
0.0
 40
1.5
100
AcDbArc
 50
90.0
 51
180.0
1001
AUSTER_ANSICHT
1002
{
1000
Det03
1002
}
1001
AUSTER_FOLIE
1002
{
1000
NSB00029_LS04
1002
}
  0
ARC
  5
B97D
330
20
100
AcDbEntity
  8
10000_FRONT
 62
     7
370
    20
100
AcDbCircle
 39
0.35
 10
62.00994669746108
 20
164.8572462647649
 30
0.0
 40
8.0
100
AcDbArc
 50
20.25979000000015
 51
163.2295999999989
1001
AUSTER_ANSICHT
1002
{
1000
Det03
1002
}
1001
AUSTER_FOLIE
1002
{
1000
NSB00029_LS04
1002
}
  0
ARC
  5
B97E
330
20
100
AcDbEntity
  8
10000_FRONT
 62
     7
370
    20
100
AcDbCircle
 39
0.35
 10
62.00994669746108
 20
164.8572462647649
 30
0.0
 40
8.0
100
AcDbArc
 50
196.7705999999984
 51
339.7404999999985
1001
AUSTER_ANSICHT
1002
{
1000
Det03
1002
}
1001
AUSTER_FOLIE
1002
{
1000
NSB00029_LS04
1002
}
  0
ARC
  5
B97F
330
20
100
AcDbEntity
  8
11000_Left
 62
     7
370
    50
100
AcDbCircle
 39
0.7
 10
165.7456005093562
 20
189.9572462647649
 30
0.0
 40
4.0
100
AcDbArc
 50
270.0
 51
0.0
1001
AUSTER_ANSICHT
1002
{
1000
Det03
1002
}
1001
AUSTER_FOLIE
1002
{
1000
NSB00029_LS04
1002
}
  0
ARC
  5
B980
330
20
100
AcDbEntity
  8
11000_Left
 62
     7
370
    50
100
AcDbCircle
 39
0.7
 10
165.7456005093562
 20
140.3572462647649
 30
0.0
 40
4.0
100
AcDbArc
 50
0.0
 51
90.0
1001
AUSTER_ANSICHT
1002
{
1000
Det03
1002
}
1001
AUSTER_FOLIE
1002
{
1000
NSB00029_LS04
1002
}
  0
ARC
  5
B982
330
20
100
AcDbEntity
  8
11000_Left
 62
     7
370
    50
100
AcDbCircle
 39
0.7
 10
170.3456005093562
 20
82.75724626476494
 30
0.0
 40
0.4
100
AcDbArc
 50
270.0
 51
0.0
1001
AUSTER_ANSICHT
1002
{
1000
Det03
1002
}
1001
AUSTER_FOLIE
1002
{
1000
NSB00029_LS04
1002
}
  0
ARC
  5
B983
330
20
100
AcDbEntity
  8
11000_Left
 62
     7
370
    50
100
AcDbCircle
 39
0.7
 10
170.3456005093562
 20
246.9572462647649
 30
0.0
 40
0.4
100
AcDbArc
 50
0.0
 51
90.0
1001
AUSTER_ANSICHT
1002
{
1000
Det03
1002
}
1001
AUSTER_FOLIE
1002
{
1000
NSB00029_LS04
1002
}
  0
ARC
  5
B984
330
20
100
AcDbEntity
  8
11000_Left
 62
     7
370
    50
100
AcDbCircle
 39
0.7
 10
323.4990005093562
 20
143.1572462647649
 30
0.0
 40
0.8
100
AcDbArc
 50
270.0
 51
355.0044000000001
1001
AUSTER_ANSICHT
1002
{
1000
Det03
1002
}
1001
AUSTER_FOLIE
1002
{
1000
NSB00029_LS04
1002
}
  0
ARC
  5
B985
330
20
100
AcDbEntity
  8
11000_Left
 62
     7
370
    50
100
AcDbCircle
 39
0.7
 10
75.24560050935622
 20
164.8572462647649
 30
0.0
 40
250.0
100
AcDbArc
 50
355.0044000000001
 51
4.995599999999811
1001
AUSTER_ANSICHT
1002
{
1000
Det03
1002
}
1001
AUSTER_FOLIE
1002
{
1000
NSB00029_LS04
1002
}
  0
ARC
  5
B986
330
20
100
AcDbEntity
  8
11000_Left
 62
     7
370
    50
100
AcDbCircle
 39
0.7
 10
166.8456005093562
 20
147.4571462647649
 30
0.0
 40
0.2
100
AcDbArc
 50
180.0
 51
270.0
1001
AUSTER_ANSICHT
1002
{
1000
Det03
1002
}
1001
AUSTER_FOLIE
1002
{
1000
NSB00029_LS04
1002
}
  0
ARC
  5
B987
330
20
100
AcDbEntity
  8
11000_Left
 62
     7
370
    50
100
AcDbCircle
 39
0.7
 10
167.0456005093562
 20
127.8571462647649
 30
0.0
 40
0.4
100
AcDbArc
 50
180.0
 51
270.0
1001
AUSTER_ANSICHT
1002
{
1000
Det03
1002
}
1001
AUSTER_FOLIE
1002
{
1000
NSB00029_LS04
1002
}
  0
ARC
  5
B988
330
20
100
AcDbEntity
  8
11000_Left
  6
DASHED
 62
     7
370
    13
100
AcDbCircle
 39
0.25
 10
155.2472005093562
 20
155.2571462647649
 30
0.0
 40
2.5
100
AcDbArc
 50
180.0
 51
270.0
1001
AUSTER_ANSICHT
1002
{
1000
Det03
1002
}
1001
AUSTER_FOLIE
1002
{
1000
NSB00029_LS04
1002
}
  0
ARC
  5
B989
330
20
100
AcDbEntity
  8
11000_Left
  6
DASHED
 62
     7
370
    13
100
AcDbCircle
 39
0.25
 10
156.4472005093562
 20
156.4571462647649
 30
0.0
 40
1.199999999999999
100
AcDbArc
 50
180.0
 51
270.0
1001
AUSTER_ANSICHT
1002
{
1000
Det03
1002
}
1001
AUSTER_FOLIE
1002
{
1000
NSB00029_LS04
1002
}
  0
ARC
  5
B98A
330
20
100
AcDbEntity
  8
11000_Left
  6
DASHED
 62
     7
370
    13
100
AcDbCircle
 39
0.25
 10
165.7472005093562
 20
176.2571462647649
 30
0.0
 40
2.0
100
AcDbArc
 50
270.0
 51
0.0
1001
AUSTER_ANSICHT
1002
{
1000
Det03
1002
}
1001
AUSTER_FOLIE
1002
{
1000
NSB00029_LS04
1002
}
  0
ARC
  5
B98B
330
20
100
AcDbEntity
  8
11000_Left
  6
DASHED
 62
     7
370
    13
100
AcDbCircle
 39
0.25
 10
163.7472005093562
 20
136.7571462647649
 30
0.0
 40
3.0
100
AcDbArc
 50
0.0
 51
90.0
1001
AUSTER_ANSICHT
1002
{
1000
Det03
1002
}
1001
AUSTER_FOLIE
1002
{
1000
NSB00029_LS04
1002
}
  0
ARC
  5
B98C
330
20
100
AcDbEntity
  8
11000_Left
  6
DASHED
 62
     7
370
    13
100
AcDbCircle
 39
0.25
 10
165.7472005093562
 20
153.2571462647649
 30
0.0
 40
2.0
100
AcDbArc
 50
0.0
 51
90.0
1001
AUSTER_ANSICHT
1002
{
1000
Det03
1002
}
1001
AUSTER_FOLIE
1002
{
1000
NSB00029_LS04
1002
}
  0
ARC
  5
B98D
330
20
100
AcDbEntity
  8
11000_Left
  6
DASHED
 62
     7
370
    13
100
AcDbCircle
 39
0.25
 10
164.4339005093562
 20
151.5457462647649
 30
0.0
 40
1.211467999999998
100
AcDbArc
 50
0.0
 51
90.0
1001
AUSTER_ANSICHT
1002
{
1000
Det03
1002
}
1001
AUSTER_FOLIE
1002
{
1000
NSB00029_LS04
1002
}
  0
ARC
  5
B98E
330
20
100
AcDbEntity
  8
11000_Left
  6
DASHED
 62
     7
370
    13
100
AcDbCircle
 39
0.25
 10
163.7472005093562
 20
192.7571462647649
 30
0.0
 40
6.0
100
AcDbArc
 50
270.0
 51
0.0
1001
AUSTER_ANSICHT
1002
{
1000
Det03
1002
}
1001
AUSTER_FOLIE
1002
{
1000
NSB00029_LS04
1002
}
  0
ARC
  5
B98F
330
20
100
AcDbEntity
  8
11000_Left
  6
DASHED
 62
     7
370
    13
100
AcDbCircle
 39
0.25
 10
163.7472005093562
 20
136.7571462647649
 30
0.0
 40
6.0
100
AcDbArc
 50
0.0
 51
90.0
1001
AUSTER_ANSICHT
1002
{
1000
Det03
1002
}
1001
AUSTER_FOLIE
1002
{
1000
NSB00029_LS04
1002
}
  0
CIRCLE
  5
B990
330
20
100
AcDbEntity
  8
10000_FRONT
 62
     7
370
    20
100
AcDbCircle
 39
0.35
 10
34.00994669746109
 20
218.6572462647649
 30
0.0
 40
2.799999999999998
1001
AUSTER_ANSICHT
1002
{
1000
Det03
1002
}
1001
AUSTER_FOLIE
1002
{
1000
NSB00029_LS04
1002
}
  0
ARC
  5
B991
330
20
100
AcDbEntity
  8
10000_FRONT
 62
     7
370
    20
100
AcDbCircle
 39
0.35
 10
34.00994669746109
 20
218.6572462647649
 30
0.0
 40
3.787946999999998
100
AcDbArc
 50
180.0
 51
0.0
1001
AUSTER_ANSICHT
1002
{
1000
Det03
1002
}
1001
AUSTER_FOLIE
1002
{
1000
NSB00029_LS04
1002
}
  0
ARC
  5
B992
330
20
100
AcDbEntity
  8
10000_FRONT
 62
     7
370
    20
100
AcDbCircle
 39
0.35
 10
90.00990669746107
 20
218.6572462647649
 30
0.0
 40
3.787946999999998
100
AcDbArc
 50
180.0
 51
0.0
1001
AUSTER_ANSICHT
1002
{
1000
Det03
1002
}
1001
AUSTER_FOLIE
1002
{
1000
NSB00029_LS04
1002
}
  0
CIRCLE
  5
B993
330
20
100
AcDbEntity
  8
10000_FRONT
 62
     7
370
    20
100
AcDbCircle
 39
0.35
 10
90.00990669746107
 20
218.6572462647649
 30
0.0
 40
2.799999999999998
1001
AUSTER_ANSICHT
1002
{
1000
Det03
1002
}
1001
AUSTER_FOLIE
1002
{
1000
NSB00029_LS04
1002
}
  0
ARC
  5
BA35
330
20
100
AcDbEntity
  8
11000_Left
 62
     7
370
    20
100
AcDbCircle
 39
0.45
 10
293.5600005093562
 20
164.9756462647649
 30
0.0
 40
33.87539
100
AcDbArc
 50
347.0658000000014
 51
12.93419999999861
1001
AUSTER_ANSICHT
1002
{
1000
Det03
1002
}
1001
AUSTER_FOLIE
1002
{
1000
NSB00029_LS04
1002
}
  0
ARC
  5
BA36
330
20
100
AcDbEntity
  8
11000_Left
 62
     7
370
    50
100
AcDbCircle
 39
0.7
 10
323.4990005093562
 20
186.5572462647649
 30
0.0
 40
0.8
100
AcDbArc
 50
4.995566000000925
 51
90.0
1001
AUSTER_ANSICHT
1002
{
1000
Det03
1002
}
1001
AUSTER_FOLIE
1002
{
1000
NSB00029_LS04
1002
}
  0
TEXT
  5
BA38
330
20
100
AcDbEntity
  8
10000_FRONT
 62
     7
370
    20
100
AcDbText
 39
0.35
 10
32.40994669746108
 20
183.0072462647649
 30
0.0
 40
3.0
  1
SIEMENS
 41
0.6600000000000002
100
AcDbText
1001
AUSTER_ANSICHT
1002
{
1000
Det03
1002
}
1001
AUSTER_FOLIE
1002
{
1000
NSB00029_LS04
1002
}
  0
DIMENSION
  5
BA3A
330
20
100
AcDbEntity
  8
30100_Drilling_DIM
 62
     7
370
    13
100
AcDbDimension
  2
*D3
 10
401.2893368124077
 20
243.7570971674919
 30
0.0
 11
387.6505316242909
 21
236.6828508129291
 31
0.0
 70
    35
 71
     5
 42
4.781999999999981
  3
H035
100
AcDbDiametricDimension
 15
397.4125863947855
 25
240.9573953620372
 35
0.0
 40
0.0
1001
ACAD
1000
DSTYLE
1002
{
1070
    40
1040
1.0
1070
   288
1070
     1
1002
}
  0
DIMENSION
  5
BA3B
330
20
100
AcDbEntity
  8
30100_Drilling_DIM
 62
     7
370
    13
100
AcDbDimension
  2
*D2
 10
359.4895539942659
 20
87.35724626476489
 30
0.0
 11
357.2395539942659
 21
164.857246264765
 31
0.0
 70
    32
 71
     5
 42
155.0
  3
H035
100
AcDbAlignedDimension
 13
396.959961603597
 23
242.357246264765
 33
0.0
 14
366.851001603597
 24
87.35724626476489
 34
0.0
 50
90.0
100
AcDbRotatedDimension
1001
ACAD
1000
DSTYLE
1002
{
1070
    40
1040
1.0
1002
}
  0
DIMENSION
  5
BA3C
330
20
100
AcDbEntity
  8
30100_Drilling_DIM
 62
     7
370
    13
100
AcDbDimension
  2
*D1
 10
369.351001603597
 20
251.9949703923071
 30
0.0
 11
384.350981603597
 21
254.2449703923071
 31
0.0
 70
    32
 71
     5
 42
29.99995999999999
  3
H035
100
AcDbAlignedDimension
 13
399.3509616035971
 23
244.7482462647648
 33
0.0
 14
369.351001603597
 24
89.85724626476489
 34
0.0
100
AcDbRotatedDimension
1001
ACAD
1000
DSTYLE
1002
{
1070
    40
1040
1.0
1002
}
  0
DIMENSION
  5
BA96
330
20
100
AcDbEntity
  8
10100_FRONT_DIM
  6
Continuous
 62
     7
370
    13
100
AcDbDimension
  2
*D4
 10
97.00990669746108
 20
71.676568757209
 30
0.0
 11
62.00992669746108
 21
71.676568757209
 31
0.0
 70
    32
 71
     5
 42
69.99995999999999
  3
DSTYLE1
100
AcDbAlignedDimension
 13
27.00994669746108
 23
83.85724626476491
 33
0.0
 14
97.00990669746108
 24
83.85724626476491
 34
0.0
100
AcDbRotatedDimension
1001
ACAD
1000
DSTYLE
1002
{
1070
    41
1040
3.0
1070
    42
1040
1.0
1070
    43
1040
1.0
1070
    47
1040
0.005
1070
    48
1040
-0.005
1070
    77
1070
     0
1070
    78
1070
     0
1070
   140
1040
5.0
1070
   143
1040
25.4
1070
   171
1070
     0
1070
   172
1070
     1
1070
   271
1070
     0
1070
   272
1070
     1
1070
   277
1070
     6
1070
   279
1070
     0
1002
}
  0
DIMENSION
  5
BAA3
330
20
100
AcDbEntity
  8
10100_FRONT_DIM
  6
Continuous
 62
     7
370
    13
100
AcDbDimension
  2
*D5
 10
107.3774547138695
 20
142.3572462647649
 30
0.0
 11
107.3774547138695
 21
164.8572462647649
 31
0.0
 70
    32
 71
     5
 42
45.00000000000006
  3
DSTYLE1
100
AcDbAlignedDimension
 13
97.00990669746108
 23
187.357246264765
 33
0.0
 14
97.01000669746107
 24
142.3572462647649
 34
0.0
 50
90.0
100
AcDbRotatedDimension
1001
ACAD
1000
DSTYLE
1002
{
1070
    41
1040
3.0
1070
    42
1040
1.0
1070
    43
1040
1.0
1070
    47
1040
0.005
1070
    48
1040
-0.005
1070
    77
1070
     0
1070
    78
1070
     0
1070
   140
1040
5.0
1070
   143
1040
25.4
1070
   171
1070
     0
1070
   172
1070
     1
1070
   271
1070
     0
1070
   272
1070
     1
1070
   277
1070
     6
1070
   279
1070
     0
1002
}
  0
DIMENSION
  5
BAB0
330
20
100
AcDbEntity
  8
10100_FRONT_DIM
  6
Continuous
 62
     7
370
    13
100
AcDbDimension
  2
*D6
 10
115.7054359721392
 20
100.4572462647649
 30
0.0
 11
115.7054359721392
 21
164.8572462647649
 31
0.0
 70
    32
 71
     5
 42
128.8
  3
DSTYLE1
100
AcDbAlignedDimension
 13
87.61000669746108
 23
229.2572462647649
 33
0.0
 14
87.61000669746108
 24
100.4572462647649
 34
0.0
 50
90.0
100
AcDbRotatedDimension
1001
ACAD
1000
DSTYLE
1002
{
1070
    41
1040
3.0
1070
    42
1040
1.0
1070
    43
1040
1.0
1070
    47
1040
0.005
1070
    48
1040
-0.005
1070
    77
1070
     0
1070
    78
1070
     0
1070
   140
1040
5.0
1070
   143
1040
25.4
1070
   171
1070
     0
1070
   172
1070
     1
1070
   271
1070
     0
1070
   272
1070
     1
1070
   277
1070
     6
1070
   279
1070
     0
1002
}
  0
DIMENSION
  5
BABD
330
20
100
AcDbEntity
  8
10100_FRONT_DIM
  6
Continuous
 62
     7
370
    13
100
AcDbDimension
  2
*D7
 10
124.4498178754499
 20
82.35724626476489
 30
0.0
 11
124.4498178754499
 21
164.8572462647649
 31
0.0
 70
    32
 71
     5
 42
165.0
  3
DSTYLE1
100
AcDbAlignedDimension
 13
95.50990669746107
 23
247.357246264765
 33
0.0
 14
95.50990669746107
 24
82.35724626476491
 34
0.0
 50
90.0
100
AcDbRotatedDimension
1001
ACAD
1000
DSTYLE
1002
{
1070
    41
1040
3.0
1070
    42
1040
1.0
1070
    43
1040
1.0
1070
    47
1040
0.005
1070
    48
1040
-0.005
1070
    77
1070
     0
1070
    78
1070
     0
1070
   140
1040
5.0
1070
   143
1040
25.4
1070
   171
1070
     0
1070
   172
1070
     1
1070
   271
1070
     0
1070
   272
1070
     1
1070
   277
1070
     6
1070
   279
1070
     0
1002
}
  0
DIMENSION
  5
BB1A
330
20
100
AcDbEntity
  8
11100_LEFT_DIM
  6
Continuous
 62
     7
370
    13
100
AcDbDimension
  2
*D8
 10
162.7456005093562
 20
72.45407835677724
 30
0.0
 11
154.0789338426895
 21
72.45407835677724
 31
0.0
 70
    32
 71
     5
 42
5.0
  3
DSTYLE1
100
AcDbAlignedDimension
 13
167.7456005093562
 23
146.6572462647649
 33
0.0
 14
162.7456005093562
 24
82.35724626476491
 34
0.0
100
AcDbRotatedDimension
1001
ACAD
1000
DSTYLE
1002
{
1070
    41
1040
3.0
1070
    42
1040
1.0
1070
    43
1040
1.0
1070
    47
1040
0.005
1070
    48
1040
-0.005
1070
    77
1070
     0
1070
    78
1070
     0
1070
   140
1040
5.0
1070
   143
1040
25.4
1070
   171
1070
     0
1070
   172
1070
     1
1070
   271
1070
     0
1070
   272
1070
     1
1070
   277
1070
     6
1070
   279
1070
     0
1002
}
  0
DIMENSION
  5
BB29
330
20
100
AcDbEntity
  8
11100_LEFT_DIM
  6
Continuous
 62
     7
370
    13
100
AcDbDimension
  2
*D9
 10
162.7456005093562
 20
63.41126291839419
 30
0.0
 11
157.0789338426895
 21
63.41126291839419
 31
0.0
 70
   160
 71
     5
 42
8.0
  3
DSTYLE1
100
AcDbAlignedDimension
 13
170.7456005093562
 23
82.75724626476494
 33
0.0
 14
162.7456005093562
 24
82.35724626476491
 34
0.0
100
AcDbRotatedDimension
1001
ACAD
1000
DSTYLE
1002
{
1070
    41
1040
3.0
1070
    42
1040
1.0
1070
    43
1040
1.0
1070
    47
1040
0.005
1070
    48
1040
-0.005
1070
    77
1070
     0
1070
    78
1070
     0
1070
   140
1040
5.0
1070
   143
1040
25.4
1070
   171
1070
     0
1070
   172
1070
     1
1070
   271
1070
     0
1070
   272
1070
     1
1070
   277
1070
     6
1070
   279
1070
     0
1002
}
  0
DIMENSION
  5
BB38
330
20
100
AcDbEntity
  8
11100_LEFT_DIM
  6
Continuous
 62
     7
370
    13
100
AcDbDimension
  2
*D10
 10
249.9956005093562
 20
56.95210867173761
 30
0.0
 11
208.8706005093562
 21
56.95210867173761
 31
0.0
 70
    32
 71
     5
 42
82.24999999999999
  3
DSTYLE1
100
AcDbAlignedDimension
 13
167.7456005093562
 23
82.35724626476491
 33
0.0
 14
249.9956005093562
 24
86.25724626476495
 34
0.0
100
AcDbRotatedDimension
1001
ACAD
1000
DSTYLE
1002
{
1070
    41
1040
3.0
1070
    42
1040
1.0
1070
    43
1040
1.0
1070
    47
1040
0.005
1070
    48
1040
-0.005
1070
    77
1070
     0
1070
    78
1070
     0
1070
   140
1040
5.0
1070
   143
1040
25.4
1070
   171
1070
     0
1070
   172
1070
     1
1070
   271
1070
     0
1070
   272
1070
     1
1070
   277
1070
     6
1070
   279
1070
     0
1002
}
  0
DIMENSION
  5
BB45
330
20
100
AcDbEntity
  8
11100_LEFT_DIM
  6
Continuous
 62
     7
370
    13
100
AcDbDimension
  2
*D11
 10
336.6110005093562
 20
49.14702233027663
 30
0.0
 11
252.1783005093563
 21
49.14702233027663
 31
0.0
 70
    32
 71
     5
 42
168.8654
  3
DSTYLE1
100
AcDbAlignedDimension
 13
167.7456005093562
 23
82.35724626476491
 33
0.0
 14
336.6110005093562
 24
151.3982462647649
 34
0.0
100
AcDbRotatedDimension
1001
ACAD
1000
DSTYLE
1002
{
1070
    41
1040
3.0
1070
    42
1040
1.0
1070
    43
1040
1.0
1070
    47
1040
0.005
1070
    48
1040
-0.005
1070
    77
1070
     0
1070
    78
1070
     0
1070
   140
1040
5.0
1070
   143
1040
25.4
1070
   171
1070
     0
1070
   172
1070
     1
1070
   271
1070
     0
1070
   272
1070
     1
1070
   277
1070
     6
1070
   279
1070
     0
1002
}
  0
ENDSEC
  0
SECTION
  2
OBJECTS
  0
DICTIONARY
  5
C
330
0
100
AcDbDictionary
281
     1
  3
ACAD_COLOR
350
1B
  3
ACAD_GROUP
350
D
  3
ACAD_LAYOUT
350
19
  3
ACAD_MATERIAL
350
1A
  3
ACAD_MLINESTYLE
350
16
  3
ACAD_PLOTSETTINGS
350
18
  3
ACAD_PLOTSTYLENAME
350
E
  3
ACDBHEADERROUNDTRIPXREC
350
BD35
  3
AcDbVariableDictionary
350
687E
  3
DWGPROPS
350
BD34
  0
DICTIONARY
  5
1B
102
{ACAD_REACTORS
330
C
102
}
330
C
100
AcDbDictionary
281
     1
  0
DICTIONARY
  5
D
102
{ACAD_REACTORS
330
C
102
}
330
C
100
AcDbDictionary
281
     1
  0
DICTIONARY
  5
19
102
{ACAD_REACTORS
330
C
102
}
330
C
100
AcDbDictionary
281
     1
  3
Layout1
350
1F
  3
Model
350
23
  0
DICTIONARY
  5
1A
102
{ACAD_REACTORS
330
C
102
}
330
C
100
AcDbDictionary
281
     1
  0
DICTIONARY
  5
16
102
{ACAD_REACTORS
330
C
102
}
330
C
100
AcDbDictionary
281
     1
  3
Standard
350
17
  0
DICTIONARY
  5
18
102
{ACAD_REACTORS
330
C
102
}
330
C
100
AcDbDictionary
281
     1
  0
ACDBDICTIONARYWDFLT
  5
E
102
{ACAD_REACTORS
330
C
102
}
330
C
100
AcDbDictionary
281
     1
  3
Normal
350
F
100
AcDbDictionaryWithDefault
340
F
  0
DICTIONARY
  5
BD35
102
{ACAD_REACTORS
330
C
102
}
330
C
100
AcDbDictionary
281
     1
  3
COLORDICT
350
BD37
  3
MATERIALDICT
350
BD36
  0
DICTIONARY
  5
687E
102
{ACAD_REACTORS
330
C
102
}
330
C
100
AcDbDictionary
281
     1
  3
DIMASSOC
350
687F
  3
PROJECTNAME
350
6880
  0
XRECORD
  5
BD34
102
{ACAD_REACTORS
330
C
102
}
330
C
100
AcDbXrecord
280
     1
  1
DWGPROPS COOKIE
  2

  3

  4

  6

  7

  8

  9

300
=
301
=
302
=
303
=
304
=
305
=
306
=
307
=
308
=
309
=
 40
2.384228136574074
 41
2452829.417613079
 42
2453425.330774398
  1

 90
        0
  0
LAYOUT
  5
1F
102
{ACAD_XDICTIONARY
360
BD38
102
}
102
{ACAD_REACTORS
330
19
102
}
330
19
100
AcDbPlotSettings
  1

  2
HP LaserJet 5000 Series PS
  4

  6

 40
0.0
 41
0.0
 42
0.0
 43
0.0
 44
0.0
 45
0.0
 46
0.0
 47
0.0
 48
0.0
 49
0.0
140
0.0
141
0.0
142
1.0
143
1.0
 70
   688
 72
     0
 73
     0
 74
     5
  7
monochrome.ctb
 75
    16
147
1.0
148
0.0
149
0.0
100
AcDbLayout
  1
Layout1
 70
     1
 71
     1
 10
0.0
 20
0.0
 11
12.0
 21
9.0
 12
0.0
 22
0.0
 32
0.0
 14
1.000000000000000E+20
 24
1.000000000000000E+20
 34
1.000000000000000E+20
 15
-1.000000000000000E+20
 25
-1.000000000000000E+20
 35
-1.000000000000000E+20
146
0.0
 13
0.0
 23
0.0
 33
0.0
 16
1.0
 26
0.0
 36
0.0
 17
0.0
 27
1.0
 37
0.0
 76
     0
330
1C
  0
LAYOUT
  5
23
102
{ACAD_XDICTIONARY
360
BD3A
102
}
102
{ACAD_REACTORS
330
19
102
}
330
19
100
AcDbPlotSettings
  1

  2
\\AMBW779A\A_P00873 (Canon iR2200-3300 PCL6)
  4
A3
  6

 40
4.815416812896728
 41
4.815412044525146
 42
4.815399169921875
 43
4.8154296875
 44
296.9259948730469
 45
419.9466552734373
 46
0.0
 47
0.0
 48
0.0
 49
0.0
140
0.0
141
0.0
142
1.0
143
1.0
 70
 11952
 72
     1
 73
     1
 74
     1
  7
monochrome.ctb
 75
    16
147
1.0
148
-9.985479777349835
149
0.0135924000137493
100
AcDbLayout
  1
Model
 70
     1
 71
     0
 10
0.0
 20
0.0
 11
12.0
 21
9.0
 12
0.0
 22
0.0
 32
0.0
 14
0.0
 24
0.0
 34
0.0
 15
0.0
 25
0.0
 35
0.0
146
0.0
 13
0.0
 23
0.0
 33
0.0
 16
1.0
 26
0.0
 36
0.0
 17
0.0
 27
1.0
 37
0.0
 76
     0
330
20
  0
MLINESTYLE
  5
17
102
{ACAD_REACTORS
330
16
102
}
330
16
100
AcDbMlineStyle
  2
STANDARD
 70
     0
  3

 62
   256
 51
90.0
 52
90.0
 71
     2
 49
0.5
 62
   256
  6
BYLAYER
 49
-0.5
 62
   256
  6
BYLAYER
  0
ACDBPLACEHOLDER
  5
F
102
{ACAD_REACTORS
330
E
102
}
330
E
  0
XRECORD
  5
BD37
102
{ACAD_REACTORS
330
BD35
102
}
330
BD35
100
AcDbXrecord
280
     1
340
1B
  0
XRECORD
  5
BD36
102
{ACAD_REACTORS
330
BD35
102
}
330
BD35
100
AcDbXrecord
280
     1
340
1A
  0
DICTIONARYVAR
  5
687F
102
{ACAD_REACTORS
330
687E
102
}
330
687E
100
DictionaryVariables
280
     0
  1
1
  0
DICTIONARYVAR
  5
6880
102
{ACAD_REACTORS
330
687E
102
}
330
687E
100
DictionaryVariables
280
     0
  1

  0
DICTIONARY
  5
BD38
330
1F
100
AcDbDictionary
280
     1
281
     1
  3
ACAD_XREC_ROUNDTRIP
360
BD39
  0
DICTIONARY
  5
BD3A
330
23
100
AcDbDictionary
280
     1
281
     1
  3
ACAD_XREC_ROUNDTRIP
360
BD3B
  0
XRECORD
  5
BD39
102
{ACAD_REACTORS
330
BD38
102
}
330
BD38
100
AcDbXrecord
280
     1
102
SHADEPLOT
 70
     0
102
SHADEPLOTRESLEVEL
 70
     2
102
SHADEPLOTCUSTOMDPI
 70
   300
  0
XRECORD
  5
BD3B
102
{ACAD_REACTORS
330
BD3A
102
}
330
BD3A
100
AcDbXrecord
280
     1
102
SHADEPLOT
 70
     1
102
SHADEPLOTRESLEVEL
 70
     2
102
SHADEPLOTCUSTOMDPI
 70
   300
  0
ENDSEC
  0
EOF
