  0
SECTION
  2
HEADER
  9
$ACADVER
  1
AC1014
  9
$ACADMAINTVER
 70
     9
  9
$DWGCODEPAGE
  3
ANSI_1252
  9
$INSBASE
 10
0.0
 20
0.0
 30
0.0
  9
$EXTMIN
 10
1.000000E+20
 20
1.000000E+20
 30
1.000000E+20
  9
$EXTMAX
 10
-1.000000E+20
 20
-1.000000E+20
 30
-1.000000E+20
  9
$LIMMIN
 10
0.0
 20
0.0
  9
$LIMMAX
 10
420.0
 20
297.0
  9
$ORTHOMODE
 70
     0
  9
$REGENMODE
 70
     1
  9
$FILLMODE
 70
     1
  9
$QTEXTMODE
 70
     0
  9
$MIRRTEXT
 70
     1
  9
$DRAGMODE
 70
     2
  9
$LTSCALE
 40
1.0
  9
$OSMODE
 70
    37
  9
$ATTMODE
 70
     1
  9
$TEXTSIZE
 40
2.5
  9
$TRACEWID
 40
1.0
  9
$TEXTSTYLE
  7
STANDARD
  9
$CLAYER
  8
0
  9
$CELTYPE
  6
BYLAYER
  9
$CECOLOR
 62
   256
  9
$CELTSCALE
 40
1.0
  9
$DELOBJ
 70
     1
  9
$DISPSILH
 70
     0
  9
$DIMSCALE
 40
1.0
  9
$DIMASZ
 40
2.5
  9
$DIMEXO
 40
0.625
  9
$DIMDLI
 40
3.75
  9
$DIMRND
 40
0.0
  9
$DIMDLE
 40
0.0
  9
$DIMEXE
 40
1.25
  9
$DIMTP
 40
0.0
  9
$DIMTM
 40
0.0
  9
$DIMTXT
 40
2.5
  9
$DIMCEN
 40
2.5
  9
$DIMTSZ
 40
0.0
  9
$DIMTOL
 70
     0
  9
$DIMLIM
 70
     0
  9
$DIMTIH
 70
     0
  9
$DIMTOH
 70
     0
  9
$DIMSE1
 70
     0
  9
$DIMSE2
 70
     0
  9
$DIMTAD
 70
     1
  9
$DIMZIN
 70
     8
  9
$DIMBLK
  1

  9
$DIMASO
 70
     1
  9
$DIMSHO
 70
     1
  9
$DIMPOST
  1

  9
$DIMAPOST
  1

  9
$DIMALT
 70
     0
  9
$DIMALTD
 70
     3
  9
$DIMALTF
 40
0.03937
  9
$DIMLFAC
 40
1.0
  9
$DIMTOFL
 70
     1
  9
$DIMTVP
 40
0.0
  9
$DIMTIX
 70
     0
  9
$DIMSOXD
 70
     0
  9
$DIMSAH
 70
     0
  9
$DIMBLK1
  1

  9
$DIMBLK2
  1

  9
$DIMSTYLE
  2
ISO-25
  9
$DIMCLRD
 70
     0
  9
$DIMCLRE
 70
     0
  9
$DIMCLRT
 70
     0
  9
$DIMTFAC
 40
1.0
  9
$DIMGAP
 40
0.625
  9
$DIMJUST
 70
     0
  9
$DIMSD1
 70
     0
  9
$DIMSD2
 70
     0
  9
$DIMTOLJ
 70
     0
  9
$DIMTZIN
 70
     8
  9
$DIMALTZ
 70
     0
  9
$DIMALTTZ
 70
     0
  9
$DIMFIT
 70
     3
  9
$DIMUPT
 70
     0
  9
$DIMUNIT
 70
     2
  9
$DIMDEC
 70
     2
  9
$DIMTDEC
 70
     2
  9
$DIMALTU
 70
     2
  9
$DIMALTTD
 70
     3
  9
$DIMTXSTY
  7
STANDARD
  9
$DIMAUNIT
 70
     0
  9
$LUNITS
 70
     2
  9
$LUPREC
 70
     4
  9
$SKETCHINC
 40
1.0
  9
$FILLETRAD
 40
10.0
  9
$AUNITS
 70
     0
  9
$AUPREC
 70
     0
  9
$MENU
  1
.
  9
$ELEVATION
 40
0.0
  9
$PELEVATION
 40
0.0
  9
$THICKNESS
 40
0.0
  9
$LIMCHECK
 70
     0
  9
$CHAMFERA
 40
10.0
  9
$CHAMFERB
 40
10.0
  9
$CHAMFERC
 40
20.0
  9
$CHAMFERD
 40
0.0
  9
$SKPOLY
 70
     0
  9
$TDCREATE
 40
2455741.658150324
  9
$TDUPDATE
 40
2455741.658150336
  9
$TDINDWG
 40
0.0000000116
  9
$TDUSRTIMER
 40
0.0000000116
  9
$USRTIMER
 70
     1
  9
$ANGBASE
 50
0.0
  9
$ANGDIR
 70
     0
  9
$PDMODE
 70
     0
  9
$PDSIZE
 40
0.0
  9
$PLINEWID
 40
0.0
  9
$COORDS
 70
     1
  9
$SPLFRAME
 70
     0
  9
$SPLINETYPE
 70
     6
  9
$SPLINESEGS
 70
     8
  9
$ATTDIA
 70
     0
  9
$ATTREQ
 70
     1
  9
$HANDLING
 70
     1
  9
$HANDSEED
  5
42B
  9
$SURFTAB1
 70
     6
  9
$SURFTAB2
 70
     6
  9
$SURFTYPE
 70
     6
  9
$SURFU
 70
     6
  9
$SURFV
 70
     6
  9
$UCSNAME
  2

  9
$UCSORG
 10
0.0
 20
0.0
 30
0.0
  9
$UCSXDIR
 10
1.0
 20
0.0
 30
0.0
  9
$UCSYDIR
 10
0.0
 20
1.0
 30
0.0
  9
$PUCSNAME
  2

  9
$PUCSORG
 10
0.0
 20
0.0
 30
0.0
  9
$PUCSXDIR
 10
1.0
 20
0.0
 30
0.0
  9
$PUCSYDIR
 10
0.0
 20
1.0
 30
0.0
  9
$USERI1
 70
     0
  9
$USERI2
 70
     0
  9
$USERI3
 70
     0
  9
$USERI4
 70
     0
  9
$USERI5
 70
     0
  9
$USERR1
 40
0.0
  9
$USERR2
 40
0.0
  9
$USERR3
 40
0.0
  9
$USERR4
 40
0.0
  9
$USERR5
 40
0.0
  9
$WORLDVIEW
 70
     1
  9
$SHADEDGE
 70
     3
  9
$SHADEDIF
 70
    70
  9
$TILEMODE
 70
     1
  9
$MAXACTVP
 70
    64
  9
$PINSBASE
 10
0.0
 20
0.0
 30
0.0
  9
$PLIMCHECK
 70
     0
  9
$PEXTMIN
 10
1.000000E+20
 20
1.000000E+20
 30
1.000000E+20
  9
$PEXTMAX
 10
-1.000000E+20
 20
-1.000000E+20
 30
-1.000000E+20
  9
$PLIMMIN
 10
0.0
 20
0.0
  9
$PLIMMAX
 10
420.0
 20
297.0
  9
$UNITMODE
 70
     0
  9
$VISRETAIN
 70
     1
  9
$PLINEGEN
 70
     0
  9
$PSLTSCALE
 70
     1
  9
$TREEDEPTH
 70
  3020
  9
$PICKSTYLE
 70
     1
  9
$CMLSTYLE
  2
STANDARD
  9
$CMLJUST
 70
     0
  9
$CMLSCALE
 40
20.0
  9
$PROXYGRAPHICS
 70
     1
  9
$MEASUREMENT
 70
     1
  0
ENDSEC
  0
SECTION
  2
CLASSES
  0
CLASS
  1
ACDBDICTIONARYWDFLT
  2
AcDbDictionaryWithDefault
  3
ObjectDBX Classes
 90
        0
280
     0
281
     0
  0
CLASS
  1
VISUALSTYLE
  2
AcDbVisualStyle
  3
ObjectDBX Classes
 90
     4095
280
     0
281
     0
  0
CLASS
  1
DICTIONARYVAR
  2
AcDbDictionaryVar
  3
ObjectDBX Classes
 90
        0
280
     0
281
     0
  0
CLASS
  1
XRECORD
  2
AcDbXrecord
  3
AutoCAD 2000
 90
        0
280
     0
281
     0
  0
CLASS
  1
LWPOLYLINE
  2
AcDbPolyline
  3
AutoCAD 2000
 90
        0
280
     0
281
     1
  0
CLASS
  1
HATCH
  2
AcDbHatch
  3
AutoCAD 2000
 90
        0
280
     0
281
     1
  0
CLASS
  1
ACDBPLACEHOLDER
  2
AcDbPlaceHolder
  3
ObjectDBX Classes
 90
        0
280
     0
281
     0
  0
CLASS
  1
LAYOUT
  2
AcDbLayout
  3
ObjectDBX Classes
 90
        0
280
     0
281
     0
  0
ENDSEC
  0
SECTION
  2
TABLES
  0
TABLE
  2
VPORT
  5
8
330
0
100
AcDbSymbolTable
 70
     1
  0
VPORT
  5
29
330
8
100
AcDbSymbolTableRecord
100
AcDbViewportTableRecord
  2
*ACTIVE
 70
     0
 10
0.0
 20
0.0
 11
1.0
 21
1.0
 12
344.186916
 22
148.5
 13
0.0
 23
0.0
 14
10.0
 24
10.0
 15
10.0
 25
10.0
 16
0.0
 26
0.0
 36
1.0
 17
0.0
 27
0.0
 37
0.0
 40
297.0
 41
1.972973
 42
50.0
 43
0.0
 44
0.0
 50
0.0
 51
0.0
 71
     0
 72
   100
 73
     1
 74
     3
 75
     0
 76
     0
 77
     0
 78
     0
  0
ENDTAB
  0
TABLE
  2
LTYPE
  5
5
330
0
100
AcDbSymbolTable
 70
     1
  0
LTYPE
  5
14
330
5
100
AcDbSymbolTableRecord
100
AcDbLinetypeTableRecord
  2
BYBLOCK
 70
     0
  3

 72
    65
 73
     0
 40
0.0
  0
LTYPE
  5
15
330
5
100
AcDbSymbolTableRecord
100
AcDbLinetypeTableRecord
  2
BYLAYER
 70
     0
  3

 72
    65
 73
     0
 40
0.0
  0
LTYPE
  5
16
330
5
100
AcDbSymbolTableRecord
100
AcDbLinetypeTableRecord
  2
CONTINUOUS
 70
     0
  3
Solid line
 72
    65
 73
     0
 40
0.0
  0
ENDTAB
  0
TABLE
  2
LAYER
  5
2
330
0
100
AcDbSymbolTable
 70
     6
  0
LAYER
  5
10
330
2
100
AcDbSymbolTableRecord
100
AcDbLayerTableRecord
  2
0
 70
     0
 62
     7
  6
CONTINUOUS
  0
LAYER
  5
3B
330
2
100
AcDbSymbolTableRecord
100
AcDbLayerTableRecord
  2
DIM
 70
     0
 62
     7
  6
CONTINUOUS
  0
LAYER
  5
3C
330
2
100
AcDbSymbolTableRecord
100
AcDbLayerTableRecord
  2
DRAW
 70
     0
 62
     7
  6
CONTINUOUS
  0
LAYER
  5
3D
330
2
100
AcDbSymbolTableRecord
100
AcDbLayerTableRecord
  2
CARTOUCHE
 70
     0
 62
     7
  6
CONTINUOUS
  0
LAYER
  5
3E
330
2
100
AcDbSymbolTableRecord
100
AcDbLayerTableRecord
  2
DRAW-TEXT
 70
     0
 62
     7
  6
CONTINUOUS
  0
LAYER
  5
3F
330
2
100
AcDbSymbolTableRecord
100
AcDbLayerTableRecord
  2
DEFPOINTS
 70
     0
 62
     7
  6
CONTINUOUS
  0
ENDTAB
  0
TABLE
  2
STYLE
  5
3
330
0
100
AcDbSymbolTable
 70
    17
  0
STYLE
  5
11
330
3
100
AcDbSymbolTableRecord
100
AcDbTextStyleTableRecord
  2
STANDARD
 70
     0
 40
0.0
 41
1.0
 50
0.0
 71
     0
 42
2.5
  3
txt
  4

1001
ACAD
1000
txt
1071
        0
  0
STYLE
  5
40
330
3
100
AcDbSymbolTableRecord
100
AcDbTextStyleTableRecord
  2
DEFAULT
 70
     0
 40
0.0
 41
1.0
 50
0.0
 71
     0
 42
0.2
  3

  4

1001
ACAD
1000
txt
1071
        0
  0
STYLE
  5
41
330
3
100
AcDbSymbolTableRecord
100
AcDbTextStyleTableRecord
  2
FINDER
 70
     0
 40
0.0
 41
1.0
 50
0.0
 71
     0
 42
0.2
  3

  4

1001
ACAD
1000
Arial
1071
        0
  0
STYLE
  5
42
330
3
100
AcDbSymbolTableRecord
100
AcDbTextStyleTableRecord
  2
ISO_FINDER
 70
     0
 40
0.0
 41
1.0
 50
0.0
 71
     0
 42
0.2
  3

  4

1001
ACAD
1000
Arial
1071
        0
  0
STYLE
  5
43
330
3
100
AcDbSymbolTableRecord
100
AcDbTextStyleTableRecord
  2
TSTYLE1
 70
     0
 40
0.0
 41
1.0
 50
0.0
 71
     0
 42
0.2
  3

  4

1001
ACAD
1000
Arial
1071
        0
  0
STYLE
  5
44
330
3
100
AcDbSymbolTableRecord
100
AcDbTextStyleTableRecord
  2
TSTYLE2
 70
     0
 40
0.0
 41
1.0
 50
0.0
 71
     0
 42
0.2
  3

  4

1001
ACAD
1000
Arial
1071
        0
  0
STYLE
  5
45
330
3
100
AcDbSymbolTableRecord
100
AcDbTextStyleTableRecord
  2
TSTYLE3
 70
     0
 40
0.0
 41
1.0
 50
0.0
 71
     0
 42
0.2
  3

  4

1001
ACAD
1000
Arial
1071
        0
  0
STYLE
  5
46
330
3
100
AcDbSymbolTableRecord
100
AcDbTextStyleTableRecord
  2
TSTYLE4
 70
     0
 40
0.0
 41
1.0
 50
0.0
 71
     0
 42
0.2
  3

  4

1001
ACAD
1000
Arial
1071
        0
  0
STYLE
  5
47
330
3
100
AcDbSymbolTableRecord
100
AcDbTextStyleTableRecord
  2
TSTYLE5
 70
     0
 40
0.0
 41
1.0
 50
0.0
 71
     0
 42
0.2
  3

  4

1001
ACAD
1000
Arial
1071
        0
  0
STYLE
  5
48
330
3
100
AcDbSymbolTableRecord
100
AcDbTextStyleTableRecord
  2
TSTYLE11
 70
     0
 40
0.0
 41
1.0
 50
0.0
 71
     0
 42
0.2
  3

  4

1001
ACAD
1000
Arial
1071
        0
  0
STYLE
  5
49
330
3
100
AcDbSymbolTableRecord
100
AcDbTextStyleTableRecord
  2
TSTYLE23
 70
     0
 40
0.0
 41
1.0
 50
0.0
 71
     0
 42
0.2
  3

  4

1001
ACAD
1000
Arial
1071
        0
  0
STYLE
  5
4A
330
3
100
AcDbSymbolTableRecord
100
AcDbTextStyleTableRecord
  2
TSTYLE22
 70
     0
 40
0.0
 41
1.0
 50
0.0
 71
     0
 42
0.2
  3

  4

1001
ACAD
1000
Arial
1071
        0
  0
STYLE
  5
4B
330
3
100
AcDbSymbolTableRecord
100
AcDbTextStyleTableRecord
  2
ISO
 70
     0
 40
0.0
 41
1.0
 50
0.0
 71
     0
 42
0.2
  3

  4

1001
ACAD
1000
ISOCP
1071
        0
  0
STYLE
  5
4C
330
3
100
AcDbSymbolTableRecord
100
AcDbTextStyleTableRecord
  2
HELVETICAR
 70
     0
 40
0.0
 41
1.0
 50
0.0
 71
     0
 42
0.2
  3

  4

1001
ACAD
1000
Swis721 Cn BT
1071
        0
  0
STYLE
  5
4D
330
3
100
AcDbSymbolTableRecord
100
AcDbTextStyleTableRecord
  2
ROMANS
 70
     0
 40
0.0
 41
1.0
 50
0.0
 71
     0
 42
0.2
  3

  4

1001
ACAD
1000
romans
1071
        0
  0
STYLE
  5
4E
330
3
100
AcDbSymbolTableRecord
100
AcDbTextStyleTableRecord
  2
STD
 70
     0
 40
0.0
 41
1.0
 50
0.0
 71
     0
 42
0.2
  3

  4

1001
ACAD
1000
txt
1071
        0
  0
STYLE
  5
4F
330
3
100
AcDbSymbolTableRecord
100
AcDbTextStyleTableRecord
  2
STYLE1
 70
     0
 40
0.0
 41
1.0
 50
0.0
 71
     0
 42
0.2
  3

  4

1001
ACAD
1000
Arial Black
1071
        0
  0
ENDTAB
  0
TABLE
  2
VIEW
  5
6
330
0
100
AcDbSymbolTable
 70
     0
  0
ENDTAB
  0
TABLE
  2
UCS
  5
7
330
0
100
AcDbSymbolTable
 70
     0
  0
ENDTAB
  0
TABLE
  2
APPID
  5
9
330
0
100
AcDbSymbolTable
 70
     1
  0
APPID
  5
12
330
9
100
AcDbSymbolTableRecord
100
AcDbRegAppTableRecord
  2
ACAD
 70
     0
  0
ENDTAB
  0
TABLE
  2
DIMSTYLE
  5
A
330
0
100
AcDbSymbolTable
 70
    12
  0
DIMSTYLE
105
27
330
A
100
AcDbSymbolTableRecord
100
AcDbDimStyleTableRecord
  2
ISO-25
 70
     0
  3

  4

  5

  6

  7

 40
1.0
 41
2.5
 42
0.625
 43
3.75
 44
1.25
 45
0.0
 46
0.0
 47
0.0
 48
0.0
140
2.5
141
2.5
142
0.0
143
0.03937
144
1.0
145
0.0
146
1.0
147
0.625
 71
     0
 72
     0
 73
     0
 74
     0
 75
     0
 76
     0
 77
     1
 78
     8
170
     0
171
     3
172
     1
173
     0
174
     0
175
     0
176
     0
177
     0
178
     0
270
     2
271
     2
272
     2
273
     2
274
     3
340
11
275
     0
280
     0
281
     0
282
     0
283
     0
284
     8
285
     0
286
     0
287
     3
288
     0
  0
DIMSTYLE
105
50
330
A
100
AcDbSymbolTableRecord
100
AcDbDimStyleTableRecord
  2
DEFAULT
 70
     0
  3
<>
  4

  5
CLOSED
  6

  7

 40
1.0
 41
4.375
 42
1.05
 43
0.38
 44
2.1
 45
0.0
 46
0.0
 47
0.0
 48
0.0
140
3.5
141
0.09
142
0.0
143
25.4
144
1.0
145
0.0
146
0.4
147
1.75
 71
     0
 72
     0
 73
     0
 74
     0
 75
     0
 76
     0
 77
     1
 78
     8
170
     0
171
     2
172
     0
173
     0
174
     0
175
     0
176
     0
177
     0
178
     2
270
     2
271
     2
272
     3
273
     2
274
     2
340
40
275
     0
280
     0
281
     0
282
     0
283
     1
284
     8
285
     0
286
     0
287
     3
288
     0
  0
DIMSTYLE
105
58
330
A
100
AcDbSymbolTableRecord
100
AcDbDimStyleTableRecord
  2
DEFAULTDIMENSIONSTYLE
 70
     0
  3
<>
  4

  5

  6

  7

 40
1.0
 41
2.5
 42
0.875
 43
0.38
 44
1.75
 45
0.0
 46
0.0
 47
0.0
 48
0.0
140
3.5
141
0.09
142
0.0
143
25.4
144
1.0
145
0.0
146
1.0
147
1.75
 71
     0
 72
     0
 73
     0
 74
     0
 75
     0
 76
     0
 77
     1
 78
     8
170
     0
171
     2
172
     0
173
     0
174
     0
175
     0
176
     0
177
     0
178
     2
270
     2
271
     2
272
     2
273
     2
274
     2
340
11
275
     0
280
     0
281
     0
282
     0
283
     1
284
     8
285
     0
286
     0
287
     3
288
     0
  0
DIMSTYLE
105
59
330
A
100
AcDbSymbolTableRecord
100
AcDbDimStyleTableRecord
  2
FINDER
 70
     0
  3
<>
  4

  5

  6

  7

 40
1.0
 41
2.5
 42
3.888889
 43
0.38
 44
2.430556
 45
0.0
 46
0.0
 47
0.0
 48
0.0
140
3.5
141
0.09
142
0.0
143
25.4
144
1.0
145
0.0
146
1.0
147
2.430556
 71
     0
 72
     0
 73
     0
 74
     0
 75
     0
 76
     0
 77
     1
 78
     8
170
     0
171
     2
172
     0
173
     0
174
     0
175
     0
176
     0
177
     0
178
     2
270
     2
271
     2
272
     2
273
     2
274
     2
340
41
275
     0
280
     0
281
     0
282
     0
283
     1
284
     8
285
     0
286
     0
287
     3
288
     0
  0
DIMSTYLE
105
5A
102
{ACAD_REACTORS
330
399
330
3A6
330
3B3
330
3C0
330
3CD
330
3DA
330
3E7
102
}
330
A
100
AcDbSymbolTableRecord
100
AcDbDimStyleTableRecord
  2
ISO_FINDER
 70
     0
  3
<>
  4

  5
CLOSED
  6

  7

 40
1.0
 41
1.0
 42
1.05
 43
0.38
 44
1.75
 45
0.0
 46
0.0
 47
0.0
 48
0.0
140
3.5
141
0.09
142
0.0
143
25.4
144
1.0
145
0.0
146
0.6
147
3.5
 71
     0
 72
     0
 73
     0
 74
     0
 75
     0
 76
     0
 77
     1
 78
     8
170
     0
171
     2
172
     0
173
     0
174
     0
175
     0
176
     0
177
     0
178
     2
270
     2
271
     2
272
     3
273
     2
274
     2
340
42
275
     0
280
     0
281
     0
282
     0
283
     1
284
     8
285
     0
286
     0
287
     3
288
     0
  0
DIMSTYLE
105
5B
330
A
100
AcDbSymbolTableRecord
100
AcDbDimStyleTableRecord
  2
DSTYLE1
 70
     0
  3
<>
  4

  5

  6

  7

 40
1.0
 41
1.35
 42
0.35
 43
0.38
 44
1.166667
 45
0.0
 46
0.0
 47
0.0
 48
0.0
140
3.5
141
0.09
142
0.0
143
25.4
144
1.0
145
0.0
146
0.6
147
2.45
 71
     0
 72
     0
 73
     0
 74
     0
 75
     0
 76
     0
 77
     1
 78
     8
170
     0
171
     2
172
     0
173
     0
174
     0
175
     0
176
     0
177
     0
178
     2
270
     2
271
     2
272
     4
273
     2
274
     2
340
49
275
     0
280
     0
281
     0
282
     0
283
     1
284
     0
285
     0
286
     0
287
     3
288
     0
  0
DIMSTYLE
105
5C
330
A
100
AcDbSymbolTableRecord
100
AcDbDimStyleTableRecord
  2
DSTYLE2
 70
     0
  3
<>
  4

  5

  6

  7

 40
1.0
 41
1.35
 42
0.35
 43
0.38
 44
1.166667
 45
0.0
 46
0.0
 47
0.0
 48
0.0
140
3.5
141
0.09
142
0.0
143
25.4
144
1.0
145
0.0
146
0.6
147
2.45
 71
     0
 72
     0
 73
     0
 74
     0
 75
     0
 76
     0
 77
     1
 78
     8
170
     0
171
     2
172
     0
173
     0
174
     0
175
     0
176
     0
177
     0
178
     2
270
     2
271
     2
272
     4
273
     2
274
     2
340
49
275
     0
280
     0
281
     0
282
     0
283
     1
284
     0
285
     0
286
     0
287
     3
288
     0
  0
DIMSTYLE
105
5D
330
A
100
AcDbSymbolTableRecord
100
AcDbDimStyleTableRecord
  2
DSTYLE3
 70
     0
  3
<>
  4

  5

  6

  7

 40
1.0
 41
1.35
 42
0.233333
 43
0.38
 44
1.166667
 45
0.0
 46
0.0
 47
0.0
 48
0.0
140
3.5
141
0.09
142
0.0
143
25.4
144
1.0
145
0.0
146
0.6
147
2.45
 71
     0
 72
     0
 73
     0
 74
     0
 75
     0
 76
     0
 77
     1
 78
     8
170
     0
171
     2
172
     0
173
     0
174
     0
175
     0
176
     0
177
     0
178
     2
270
     2
271
     2
272
     4
273
     2
274
     2
340
49
275
     0
280
     0
281
     0
282
     0
283
     1
284
     0
285
     0
286
     0
287
     3
288
     0
  0
DIMSTYLE
105
5E
330
A
100
AcDbSymbolTableRecord
100
AcDbDimStyleTableRecord
  2
DSTYLE4
 70
     0
  3
<>
  4

  5

  6

  7

 40
1.0
 41
1.35
 42
0.233333
 43
0.38
 44
1.166667
 45
0.0
 46
0.0
 47
0.0
 48
0.0
140
3.5
141
0.09
142
0.0
143
25.4
144
1.0
145
0.0
146
0.6
147
2.45
 71
     0
 72
     0
 73
     0
 74
     0
 75
     0
 76
     0
 77
     1
 78
     8
170
     0
171
     2
172
     0
173
     0
174
     0
175
     0
176
     0
177
     0
178
     2
270
     2
271
     2
272
     4
273
     2
274
     2
340
49
275
     0
280
     0
281
     0
282
     0
283
     1
284
     0
285
     0
286
     0
287
     3
288
     0
  0
DIMSTYLE
105
5F
330
A
100
AcDbSymbolTableRecord
100
AcDbDimStyleTableRecord
  2
DSTYLE5
 70
     0
  3
<>
  4

  5

  6

  7

 40
1.0
 41
1.35
 42
0.000147
 43
0.38
 44
1.166667
 45
0.0
 46
0.0
 47
0.0
 48
0.0
140
3.5
141
0.09
142
0.0
143
25.4
144
1.0
145
0.0
146
0.6
147
2.45
 71
     0
 72
     0
 73
     0
 74
     0
 75
     0
 76
     0
 77
     1
 78
     8
170
     0
171
     2
172
     0
173
     0
174
     0
175
     0
176
     0
177
     0
178
     2
270
     2
271
     2
272
     4
273
     2
274
     2
340
49
275
     0
280
     0
281
     0
282
     0
283
     1
284
     0
285
     0
286
     0
287
     3
288
     0
  0
DIMSTYLE
105
60
330
A
100
AcDbSymbolTableRecord
100
AcDbDimStyleTableRecord
  2
ST0
 70
     0
  3
<>
  4

  5

  6

  7

 40
1.0
 41
1.4
 42
0.6125
 43
0.38
 44
0.6125
 45
0.0
 46
0.0
 47
0.0
 48
0.0
140
3.5
141
0.09
142
0.0
143
25.4
144
1.0
145
0.0
146
0.5
147
1.458333
 71
     0
 72
     0
 73
     0
 74
     0
 75
     0
 76
     0
 77
     1
 78
     8
170
     0
171
     2
172
     0
173
     0
174
     0
175
     0
176
     0
177
     0
178
     2
270
     2
271
     1
272
     2
273
     2
274
     2
340
4B
275
     0
280
     0
281
     0
282
     0
283
     1
284
     0
285
     0
286
     0
287
     3
288
     0
  0
DIMSTYLE
105
61
330
A
100
AcDbSymbolTableRecord
100
AcDbDimStyleTableRecord
  2
PUNTI
 70
     0
  3
<>
  4

  5
DOT
  6

  7

 40
1.0
 41
1.05
 42
0.6125
 43
0.38
 44
0.30625
 45
0.0
 46
0.0
 47
0.0
 48
0.0
140
3.5
141
0.09
142
0.0
143
25.4
144
1.0
145
0.0
146
0.5
147
0.8575
 71
     0
 72
     0
 73
     0
 74
     0
 75
     0
 76
     0
 77
     1
 78
     8
170
     0
171
     2
172
     0
173
     0
174
     0
175
     0
176
     0
177
     0
178
     2
270
     2
271
     4
272
     4
273
     2
274
     2
340
4B
275
     0
280
     0
281
     0
282
     0
283
     1
284
     0
285
     0
286
     0
287
     3
288
     0
  0
ENDTAB
  0
TABLE
  2
BLOCK_RECORD
  5
1
330
0
100
AcDbSymbolTable
 70
    11
  0
BLOCK_RECORD
  5
1F
330
1
100
AcDbSymbolTableRecord
100
AcDbBlockTableRecord
  2
*MODEL_SPACE
  0
BLOCK_RECORD
  5
1B
330
1
100
AcDbSymbolTableRecord
100
AcDbBlockTableRecord
  2
*PAPER_SPACE
  0
BLOCK_RECORD
  5
51
330
1
100
AcDbSymbolTableRecord
100
AcDbBlockTableRecord
  2
_CLOSED
  0
BLOCK_RECORD
  5
62
330
1
100
AcDbSymbolTableRecord
100
AcDbBlockTableRecord
  2
_DOT
  0
BLOCK_RECORD
  5
39A
330
1
100
AcDbSymbolTableRecord
100
AcDbBlockTableRecord
  2
*D3
  0
BLOCK_RECORD
  5
3A7
330
1
100
AcDbSymbolTableRecord
100
AcDbBlockTableRecord
  2
*D4
  0
BLOCK_RECORD
  5
3B4
330
1
100
AcDbSymbolTableRecord
100
AcDbBlockTableRecord
  2
*D5
  0
BLOCK_RECORD
  5
3C1
330
1
100
AcDbSymbolTableRecord
100
AcDbBlockTableRecord
  2
*D6
  0
BLOCK_RECORD
  5
3CE
330
1
100
AcDbSymbolTableRecord
100
AcDbBlockTableRecord
  2
*D7
  0
BLOCK_RECORD
  5
3DB
330
1
100
AcDbSymbolTableRecord
100
AcDbBlockTableRecord
  2
*D8
  0
BLOCK_RECORD
  5
3E8
330
1
100
AcDbSymbolTableRecord
100
AcDbBlockTableRecord
  2
*D9
  0
BLOCK_RECORD
  5
3F4
330
1
100
AcDbSymbolTableRecord
100
AcDbBlockTableRecord
  2
LW_POLYLINE_1
  0
ENDTAB
  0
ENDSEC
  0
SECTION
  2
BLOCKS
  0
BLOCK
  5
20
330
1F
100
AcDbEntity
  8
0
100
AcDbBlockBegin
  2
*MODEL_SPACE
 70
     0
 71
     0
 10
0.0
 20
0.0
 30
0.0
  3
*MODEL_SPACE
  1

  0
ENDBLK
  5
21
330
1F
100
AcDbEntity
  8
0
100
AcDbBlockEnd
  0
BLOCK
  5
1C
330
1B
100
AcDbEntity
 67
     1
  8
0
100
AcDbBlockBegin
  2
*PAPER_SPACE
 70
     0
 71
     0
 10
0.0
 20
0.0
 30
0.0
  3
*PAPER_SPACE
  1

  0
ENDBLK
  5
1D
330
1B
100
AcDbEntity
 67
     1
  8
0
100
AcDbBlockEnd
  0
BLOCK
  5
52
330
51
100
AcDbEntity
  8
0
100
AcDbBlockBegin
  2
_CLOSED
 70
     0
 71
     0
 10
0.0
 20
0.0
 30
0.0
  3
_CLOSED
  1

  0
LINE
  5
54
330
51
100
AcDbEntity
  8
0
  6
BYBLOCK
 62
     0
100
AcDbLine
 10
-1.0
 20
0.166667
 30
0.0
 11
0.0
 21
0.0
 31
0.0
  0
LINE
  5
55
330
51
100
AcDbEntity
  8
0
  6
BYBLOCK
 62
     0
100
AcDbLine
 10
0.0
 20
0.0
 30
0.0
 11
-1.0
 21
-0.166667
 31
0.0
  0
LINE
  5
56
330
51
100
AcDbEntity
  8
0
  6
BYBLOCK
 62
     0
100
AcDbLine
 10
-1.0
 20
0.166667
 30
0.0
 11
-1.0
 21
-0.166667
 31
0.0
  0
LINE
  5
57
330
51
100
AcDbEntity
  8
0
  6
BYBLOCK
 62
     0
100
AcDbLine
 10
0.0
 20
0.0
 30
0.0
 11
-1.0
 21
0.0
 31
0.0
  0
ENDBLK
  5
53
330
51
100
AcDbEntity
  8
0
100
AcDbBlockEnd
  0
BLOCK
  5
63
330
62
100
AcDbEntity
  8
0
100
AcDbBlockBegin
  2
_DOT
 70
     0
 71
     0
 10
0.0
 20
0.0
 30
0.0
  3
_DOT
  1

  0
POLYLINE
  5
65
330
62
100
AcDbEntity
  8
0
  6
BYBLOCK
 62
     0
100
AcDb2dPolyline
 66
     1
 10
0.0
 20
0.0
 30
0.0
 70
     1
 40
0.5
 41
0.5
  0
VERTEX
  5
68
330
65
100
AcDbEntity
  8
0
  6
BYBLOCK
 62
     0
100
AcDbVertex
100
AcDb2dVertex
 10
-0.25
 20
0.0
 30
0.0
 42
1.0
  0
VERTEX
  5
69
330
65
100
AcDbEntity
  8
0
  6
BYBLOCK
 62
     0
100
AcDbVertex
100
AcDb2dVertex
 10
0.25
 20
0.0
 30
0.0
 42
1.0
  0
SEQEND
  5
67
330
65
100
AcDbEntity
  8
0
  6
BYBLOCK
 62
     0
  0
LINE
  5
66
330
62
100
AcDbEntity
  8
0
  6
BYBLOCK
 62
     0
100
AcDbLine
 10
-0.5
 20
0.0
 30
0.0
 11
-1.0
 21
0.0
 31
0.0
  0
ENDBLK
  5
64
330
62
100
AcDbEntity
  8
0
100
AcDbBlockEnd
  0
BLOCK
  5
3A4
330
39A
100
AcDbEntity
  8
0
100
AcDbBlockBegin
  2
*D3
 70
     1
 71
     0
 10
0.0
 20
0.0
 30
0.0
  3
*D3
  1

  0
LINE
  5
39B
330
39A
100
AcDbEntity
  8
DIM
  6
CONTINUOUS
 62
     3
100
AcDbLine
 10
108.981697
 20
186.991706
 30
0.0
 11
108.981697
 21
208.194759
 31
0.0
  0
LINE
  5
39C
330
39A
100
AcDbEntity
  8
DIM
  6
CONTINUOUS
 62
     3
100
AcDbLine
 10
169.781697
 20
178.491706
 30
0.0
 11
169.781697
 21
208.194759
 31
0.0
  0
LINE
  5
39D
330
39A
100
AcDbEntity
  8
DIM
  6
CONTINUOUS
 62
     3
100
AcDbLine
 10
110.181697
 20
205.764359
 30
0.0
 11
168.581697
 21
205.764359
 31
0.0
  0
INSERT
  5
39E
330
39A
100
AcDbEntity
  8
DIM
 62
     3
100
AcDbBlockReference
  2
_CLOSED
 10
108.981697
 20
205.764359
 30
0.0
 41
1.2
 42
1.2
 43
1.2
 50
180.0
  0
INSERT
  5
39F
330
39A
100
AcDbEntity
  8
DIM
 62
     3
100
AcDbBlockReference
  2
_CLOSED
 10
169.781697
 20
205.764359
 30
0.0
 41
1.2
 42
1.2
 43
1.2
  0
MTEXT
  5
3A0
330
39A
100
AcDbEntity
  8
DIM
 62
     2
100
AcDbMText
 10
139.381697
 20
209.981509
 30
0.0
 40
3.5
 41
0.0
 71
     5
 72
     1
  1
\A1;60.8
  7
ISO_FINDER
  0
POINT
  5
3A1
330
39A
100
AcDbEntity
  8
DEFPOINTS
 62
     0
100
AcDbPoint
 10
108.981697
 20
185.880606
 30
0.0
  0
POINT
  5
3A2
330
39A
100
AcDbEntity
  8
DEFPOINTS
 62
     0
100
AcDbPoint
 10
169.781697
 20
177.380606
 30
0.0
  0
POINT
  5
3A3
330
39A
100
AcDbEntity
  8
DEFPOINTS
 62
     0
100
AcDbPoint
 10
169.781697
 20
205.764359
 30
0.0
  0
ENDBLK
  5
3A5
330
39A
100
AcDbEntity
  8
0
100
AcDbBlockEnd
  0
BLOCK
  5
3B1
330
3A7
100
AcDbEntity
  8
0
100
AcDbBlockBegin
  2
*D4
 70
     1
 71
     0
 10
0.0
 20
0.0
 30
0.0
  3
*D4
  1

  0
LINE
  5
3A8
330
3A7
100
AcDbEntity
  8
DIM
  6
CONTINUOUS
 62
     3
100
AcDbLine
 10
169.892797
 20
178.380606
 30
0.0
 11
181.711665
 21
178.380606
 31
0.0
  0
LINE
  5
3A9
330
3A7
100
AcDbEntity
  8
DIM
  6
CONTINUOUS
 62
     3
100
AcDbLine
 10
169.892797
 20
133.380606
 30
0.0
 11
181.711665
 21
133.380606
 31
0.0
  0
LINE
  5
3AA
330
3A7
100
AcDbEntity
  8
DIM
  6
CONTINUOUS
 62
     3
100
AcDbLine
 10
179.281265
 20
177.180606
 30
0.0
 11
179.281265
 21
134.580606
 31
0.0
  0
INSERT
  5
3AB
330
3A7
100
AcDbEntity
  8
DIM
 62
     3
100
AcDbBlockReference
  2
_CLOSED
 10
179.281265
 20
178.380606
 30
0.0
 41
1.2
 42
1.2
 43
1.2
 50
90.0
  0
INSERT
  5
3AC
330
3A7
100
AcDbEntity
  8
DIM
 62
     3
100
AcDbBlockReference
  2
_CLOSED
 10
179.281265
 20
133.380606
 30
0.0
 41
1.2
 42
1.2
 43
1.2
 50
270.0
  0
MTEXT
  5
3AD
330
3A7
100
AcDbEntity
  8
DIM
 62
     2
100
AcDbMText
 10
175.071115
 20
155.880615
 30
0.0
 40
3.5
 41
0.0
 71
     5
 72
     1
  1
\A1;45
  7
ISO_FINDER
 11
0.0
 21
1.0
 31
0.0
  0
POINT
  5
3AE
330
3A7
100
AcDbEntity
  8
DEFPOINTS
 62
     0
100
AcDbPoint
 10
168.781697
 20
178.380606
 30
0.0
  0
POINT
  5
3AF
330
3A7
100
AcDbEntity
  8
DEFPOINTS
 62
     0
100
AcDbPoint
 10
168.781697
 20
133.380606
 30
0.0
  0
POINT
  5
3B0
330
3A7
100
AcDbEntity
  8
DEFPOINTS
 62
     0
100
AcDbPoint
 10
179.281265
 20
133.380606
 30
0.0
  0
ENDBLK
  5
3B2
330
3A7
100
AcDbEntity
  8
0
100
AcDbBlockEnd
  0
BLOCK
  5
3BE
330
3B4
100
AcDbEntity
  8
0
100
AcDbBlockBegin
  2
*D5
 70
     1
 71
     0
 10
0.0
 20
0.0
 30
0.0
  3
*D5
  1

  0
LINE
  5
3B5
330
3B4
100
AcDbEntity
  8
DIM
  6
CONTINUOUS
 62
     3
100
AcDbLine
 10
137.892797
 20
113.880606
 30
0.0
 11
191.235912
 21
113.880606
 31
0.0
  0
LINE
  5
3B6
330
3B4
100
AcDbEntity
  8
DIM
  6
CONTINUOUS
 62
     3
100
AcDbLine
 10
137.892797
 20
197.880606
 30
0.0
 11
191.235912
 21
197.880606
 31
0.0
  0
LINE
  5
3B7
330
3B4
100
AcDbEntity
  8
DIM
  6
CONTINUOUS
 62
     3
100
AcDbLine
 10
188.805511
 20
115.080606
 30
0.0
 11
188.805511
 21
196.680606
 31
0.0
  0
INSERT
  5
3B8
330
3B4
100
AcDbEntity
  8
DIM
 62
     3
100
AcDbBlockReference
  2
_CLOSED
 10
188.805511
 20
113.880606
 30
0.0
 41
1.2
 42
1.2
 43
1.2
 50
270.0
  0
INSERT
  5
3B9
330
3B4
100
AcDbEntity
  8
DIM
 62
     3
100
AcDbBlockReference
  2
_CLOSED
 10
188.805511
 20
197.880606
 30
0.0
 41
1.2
 42
1.2
 43
1.2
 50
90.0
  0
MTEXT
  5
3BA
330
3B4
100
AcDbEntity
  8
DIM
 62
     2
100
AcDbMText
 10
184.588361
 20
155.880615
 30
0.0
 40
3.5
 41
0.0
 71
     5
 72
     1
  1
\A1;84
  7
ISO_FINDER
 11
0.0
 21
1.0
 31
0.0
  0
POINT
  5
3BB
330
3B4
100
AcDbEntity
  8
DEFPOINTS
 62
     0
100
AcDbPoint
 10
136.781697
 20
113.880606
 30
0.0
  0
POINT
  5
3BC
330
3B4
100
AcDbEntity
  8
DEFPOINTS
 62
     0
100
AcDbPoint
 10
136.781697
 20
197.880606
 30
0.0
  0
POINT
  5
3BD
330
3B4
100
AcDbEntity
  8
DEFPOINTS
 62
     0
100
AcDbPoint
 10
188.805511
 20
197.880606
 30
0.0
  0
ENDBLK
  5
3BF
330
3B4
100
AcDbEntity
  8
0
100
AcDbBlockEnd
  0
BLOCK
  5
3CB
330
3C1
100
AcDbEntity
  8
0
100
AcDbBlockBegin
  2
*D6
 70
     1
 71
     0
 10
0.0
 20
0.0
 30
0.0
  3
*D6
  1

  0
LINE
  5
3C2
330
3C1
100
AcDbEntity
  8
DIM
  6
CONTINUOUS
 62
     3
100
AcDbLine
 10
89.868783
 20
196.991706
 30
0.0
 11
89.868783
 21
208.194759
 31
0.0
  0
LINE
  5
3C3
330
3C1
100
AcDbEntity
  8
DIM
  6
CONTINUOUS
 62
     3
100
AcDbLine
 10
19.868783
 20
196.991706
 30
0.0
 11
19.868783
 21
208.194759
 31
0.0
  0
LINE
  5
3C4
330
3C1
100
AcDbEntity
  8
DIM
  6
CONTINUOUS
 62
     3
100
AcDbLine
 10
88.668783
 20
205.764359
 30
0.0
 11
21.068783
 21
205.764359
 31
0.0
  0
INSERT
  5
3C5
330
3C1
100
AcDbEntity
  8
DIM
 62
     3
100
AcDbBlockReference
  2
_CLOSED
 10
89.868783
 20
205.764359
 30
0.0
 41
1.2
 42
1.2
 43
1.2
  0
INSERT
  5
3C6
330
3C1
100
AcDbEntity
  8
DIM
 62
     3
100
AcDbBlockReference
  2
_CLOSED
 10
19.868783
 20
205.764359
 30
0.0
 41
1.2
 42
1.2
 43
1.2
 50
180.0
  0
MTEXT
  5
3C7
330
3C1
100
AcDbEntity
  8
DIM
 62
     2
100
AcDbMText
 10
54.868782
 20
209.981509
 30
0.0
 40
3.5
 41
0.0
 71
     5
 72
     1
  1
\A1;70
  7
ISO_FINDER
  0
POINT
  5
3C8
330
3C1
100
AcDbEntity
  8
DEFPOINTS
 62
     0
100
AcDbPoint
 10
89.868783
 20
195.880606
 30
0.0
  0
POINT
  5
3C9
330
3C1
100
AcDbEntity
  8
DEFPOINTS
 62
     0
100
AcDbPoint
 10
19.868783
 20
195.880606
 30
0.0
  0
POINT
  5
3CA
330
3C1
100
AcDbEntity
  8
DEFPOINTS
 62
     0
100
AcDbPoint
 10
19.868783
 20
205.764359
 30
0.0
  0
ENDBLK
  5
3CC
330
3C1
100
AcDbEntity
  8
0
100
AcDbBlockEnd
  0
BLOCK
  5
3D8
330
3CE
100
AcDbEntity
  8
0
100
AcDbBlockBegin
  2
*D7
 70
     1
 71
     0
 10
0.0
 20
0.0
 30
0.0
  3
*D7
  1

  0
LINE
  5
3CF
330
3CE
100
AcDbEntity
  8
DIM
  6
CONTINUOUS
 62
     3
100
AcDbLine
 10
19.157683
 20
197.880606
 30
0.0
 11
9.922474
 21
197.880606
 31
0.0
  0
LINE
  5
3D0
330
3CE
100
AcDbEntity
  8
DIM
  6
CONTINUOUS
 62
     3
100
AcDbLine
 10
71.248364
 20
109.030618
 30
0.0
 11
9.922474
 21
109.030618
 31
0.0
  0
LINE
  5
3D1
330
3CE
100
AcDbEntity
  8
DIM
  6
CONTINUOUS
 62
     3
100
AcDbLine
 10
12.352874
 20
196.680606
 30
0.0
 11
12.352874
 21
110.230618
 31
0.0
  0
INSERT
  5
3D2
330
3CE
100
AcDbEntity
  8
DIM
 62
     3
100
AcDbBlockReference
  2
_CLOSED
 10
12.352874
 20
197.880606
 30
0.0
 41
1.2
 42
1.2
 43
1.2
 50
90.0
  0
INSERT
  5
3D3
330
3CE
100
AcDbEntity
  8
DIM
 62
     3
100
AcDbBlockReference
  2
_CLOSED
 10
12.352874
 20
109.030618
 30
0.0
 41
1.2
 42
1.2
 43
1.2
 50
270.0
  0
MTEXT
  5
3D4
330
3CE
100
AcDbEntity
  8
DIM
 62
     2
100
AcDbMText
 10
8.135724
 20
153.455612
 30
0.0
 40
3.5
 41
0.0
 71
     5
 72
     1
  1
\A1;88.8
  7
ISO_FINDER
 11
5.997829221294808E-17
 21
1.0
 31
0.0
  0
POINT
  5
3D5
330
3CE
100
AcDbEntity
  8
DEFPOINTS
 62
     0
100
AcDbPoint
 10
20.268783
 20
197.880606
 30
0.0
  0
POINT
  5
3D6
330
3CE
100
AcDbEntity
  8
DEFPOINTS
 62
     0
100
AcDbPoint
 10
72.359464
 20
109.030618
 30
0.0
  0
POINT
  5
3D7
330
3CE
100
AcDbEntity
  8
DEFPOINTS
 62
     0
100
AcDbPoint
 10
12.352874
 20
109.030618
 30
0.0
  0
ENDBLK
  5
3D9
330
3CE
100
AcDbEntity
  8
0
100
AcDbBlockEnd
  0
BLOCK
  5
3E5
330
3DB
100
AcDbEntity
  8
0
100
AcDbBlockBegin
  2
*D8
 70
     1
 71
     0
 10
0.0
 20
0.0
 30
0.0
  3
*D8
  1

  0
LINE
  5
3DC
330
3DB
100
AcDbEntity
  8
DIM
  6
CONTINUOUS
 62
     3
100
AcDbLine
 10
110.970596
 20
139.58062
 30
0.0
 11
99.972874
 21
139.58062
 31
0.0
  0
LINE
  5
3DD
330
3DB
100
AcDbEntity
  8
DIM
  6
CONTINUOUS
 62
     3
100
AcDbLine
 10
108.370595
 20
109.030605
 30
0.0
 11
99.972874
 21
109.030605
 31
0.0
  0
LINE
  5
3DE
330
3DB
100
AcDbEntity
  8
DIM
  6
CONTINUOUS
 62
     3
100
AcDbLine
 10
102.403275
 20
138.38062
 30
0.0
 11
102.403275
 21
110.230605
 31
0.0
  0
INSERT
  5
3DF
330
3DB
100
AcDbEntity
  8
DIM
 62
     3
100
AcDbBlockReference
  2
_CLOSED
 10
102.403275
 20
139.58062
 30
0.0
 41
1.2
 42
1.2
 43
1.2
 50
90.0
  0
INSERT
  5
3E0
330
3DB
100
AcDbEntity
  8
DIM
 62
     3
100
AcDbBlockReference
  2
_CLOSED
 10
102.403275
 20
109.030605
 30
0.0
 41
1.2
 42
1.2
 43
1.2
 50
270.0
  0
MTEXT
  5
3E1
330
3DB
100
AcDbEntity
  8
DIM
 62
     2
100
AcDbMText
 10
98.186124
 20
124.305612
 30
0.0
 40
3.5
 41
0.0
 71
     5
 72
     1
  1
\A1;30.5
  7
ISO_FINDER
 11
0.0
 21
1.0
 31
0.0
  0
POINT
  5
3E2
330
3DB
100
AcDbEntity
  8
DEFPOINTS
 62
     0
100
AcDbPoint
 10
112.081696
 20
139.58062
 30
0.0
  0
POINT
  5
3E3
330
3DB
100
AcDbEntity
  8
DEFPOINTS
 62
     0
100
AcDbPoint
 10
109.481695
 20
109.030605
 30
0.0
  0
POINT
  5
3E4
330
3DB
100
AcDbEntity
  8
DEFPOINTS
 62
     0
100
AcDbPoint
 10
102.403275
 20
109.030605
 30
0.0
  0
ENDBLK
  5
3E6
330
3DB
100
AcDbEntity
  8
0
100
AcDbBlockEnd
  0
BLOCK
  5
3F2
330
3E8
100
AcDbEntity
  8
0
100
AcDbBlockBegin
  2
*D9
 70
     1
 71
     0
 10
0.0
 20
0.0
 30
0.0
  3
*D9
  1

  0
LINE
  5
3E9
330
3E8
100
AcDbEntity
  8
DIM
  6
CONTINUOUS
 62
     3
100
AcDbLine
 10
110.970596
 20
139.58062
 30
0.0
 11
99.972874
 21
139.58062
 31
0.0
  0
LINE
  5
3EA
330
3E8
100
AcDbEntity
  8
DIM
  6
CONTINUOUS
 62
     3
100
AcDbLine
 10
110.870597
 20
173.380606
 30
0.0
 11
99.972874
 21
173.380606
 31
0.0
  0
LINE
  5
3EB
330
3E8
100
AcDbEntity
  8
DIM
  6
CONTINUOUS
 62
     3
100
AcDbLine
 10
102.403275
 20
140.78062
 30
0.0
 11
102.403275
 21
172.180606
 31
0.0
  0
INSERT
  5
3EC
330
3E8
100
AcDbEntity
  8
DIM
 62
     3
100
AcDbBlockReference
  2
_CLOSED
 10
102.403275
 20
139.58062
 30
0.0
 41
1.2
 42
1.2
 43
1.2
 50
270.0
  0
INSERT
  5
3ED
330
3E8
100
AcDbEntity
  8
DIM
 62
     3
100
AcDbBlockReference
  2
_CLOSED
 10
102.403275
 20
173.380606
 30
0.0
 41
1.2
 42
1.2
 43
1.2
 50
90.0
  0
MTEXT
  5
3EE
330
3E8
100
AcDbEntity
  8
DIM
 62
     2
100
AcDbMText
 10
98.186124
 20
156.480613
 30
0.0
 40
3.5
 41
0.0
 71
     5
 72
     1
  1
\A1;33.8
  7
ISO_FINDER
 11
0.0
 21
1.0
 31
0.0
  0
POINT
  5
3EF
330
3E8
100
AcDbEntity
  8
DEFPOINTS
 62
     0
100
AcDbPoint
 10
112.081696
 20
139.58062
 30
0.0
  0
POINT
  5
3F0
330
3E8
100
AcDbEntity
  8
DEFPOINTS
 62
     0
100
AcDbPoint
 10
111.981697
 20
173.380606
 30
0.0
  0
POINT
  5
3F1
330
3E8
100
AcDbEntity
  8
DEFPOINTS
 62
     0
100
AcDbPoint
 10
102.403275
 20
173.380606
 30
0.0
  0
ENDBLK
  5
3F3
330
3E8
100
AcDbEntity
  8
0
100
AcDbBlockEnd
  0
BLOCK
  5
3FA
330
3F4
100
AcDbEntity
  8
0
100
AcDbBlockBegin
  2
LW_POLYLINE_1
 70
     0
 71
     0
 10
200.000031
 20
287.000183
 30
0.0
  3
LW_POLYLINE_1
  1

  0
LINE
  5
3F5
330
3F4
100
AcDbEntity
  8
CARTOUCHE
  6
CONTINUOUS
 62
     0
100
AcDbLine
 10
200.000031
 20
287.000183
 30
0.0
 11
200.000031
 21
0.000183
 31
0.0
  0
LINE
  5
3F6
330
3F4
100
AcDbEntity
  8
CARTOUCHE
  6
CONTINUOUS
 62
     0
100
AcDbLine
 10
200.000031
 20
0.000183
 30
0.0
 11
-0.000006
 21
0.0
 31
0.0
  0
LINE
  5
3F7
330
3F4
100
AcDbEntity
  8
CARTOUCHE
  6
CONTINUOUS
 62
     0
100
AcDbLine
 10
-0.000006
 20
0.0
 30
0.0
 11
-0.000006
 21
287.0
 31
0.0
  0
LINE
  5
3F8
330
3F4
100
AcDbEntity
  8
CARTOUCHE
  6
CONTINUOUS
 62
     0
100
AcDbLine
 10
-0.000006
 20
287.0
 30
0.0
 11
199.999768
 21
287.000183
 31
0.0
  0
LINE
  5
3F9
330
3F4
100
AcDbEntity
  8
CARTOUCHE
  6
CONTINUOUS
 62
     0
100
AcDbLine
 10
199.999768
 20
287.000183
 30
0.0
 11
200.000031
 21
287.000183
 31
0.0
  0
ENDBLK
  5
3FB
330
3F4
100
AcDbEntity
  8
0
100
AcDbBlockEnd
  0
ENDSEC
  0
SECTION
  2
ENTITIES
  0
HATCH
  5
6A
330
1F
100
AcDbEntity
  8
CARTOUCHE
  6
CONTINUOUS
 62
     4
100
AcDbHatch
 10
0.0
 20
0.0
 30
0.0
210
0.0
220
0.0
230
1.0
  2
ANSI_31
 70
     0
 71
     0
 91
        1
 92
        1
 93
       16
 72
     1
 10
15.67905299999995
 20
19.93181348242183
 11
16.08752300000003
 21
19.93181348242183
 72
     1
 10
16.08752300000003
 20
19.93181348242183
 11
16.08752300000003
 21
20.83496348242187
 72
     1
 10
16.08752300000003
 20
20.83496348242187
 11
14.58025899999996
 21
20.83496348242187
 72
     2
 10
14.58025899999996
 20
19.92937048242186
 40
0.9056390000000064
 50
89.99998127603085
 51
180.0000198478416
 73
     1
 72
     1
 10
13.674623
 20
19.92937048242186
 11
13.674623
 21
19.50836348242183
 72
     1
 10
13.674623
 20
19.50836348242183
 11
13.13732300000004
 21
19.50836348242183
 72
     1
 10
13.13732300000004
 20
19.50836348242183
 11
13.13732300000004
 21
18.41081348242187
 72
     1
 10
13.13732300000004
 20
18.41081348242187
 11
13.674623
 21
18.41081348242187
 72
     1
 10
13.674623
 20
18.41081348242187
 11
13.674623
 21
15.63206348242187
 72
     1
 10
13.674623
 20
15.63206348242187
 11
15.47012299999994
 21
15.63206348242187
 72
     1
 10
15.47012299999994
 20
15.63206348242187
 11
15.47012299999994
 21
18.41081348242187
 72
     1
 10
15.47012299999994
 20
18.41081348242187
 11
16.08752300000003
 21
18.41081348242187
 72
     1
 10
16.08752300000003
 20
18.41081348242187
 11
16.08752300000003
 21
19.50836348242183
 72
     1
 10
16.08752300000003
 20
19.50836348242183
 11
15.41297299999997
 21
19.50836348242183
 72
     1
 10
15.41297299999997
 20
19.50836348242183
 11
15.46107900000004
 21
19.76859148242187
 72
     2
 10
15.70598800000004
 20
19.66868548242185
 40
0.2645029999999183
 50
202.192182543627
 51
264.1553335516533
 73
     0
 97
        0
 75
     0
 76
     2
 52
0.0
 41
0.062992
 77
     0
 78
     1
 53
44.99999999988837
 43
0.0
 44
0.0
 45
-3.592095212307267
 46
3.592095212321264
 79
     0
 98
        0
  0
HATCH
  5
6B
330
1F
100
AcDbEntity
  8
CARTOUCHE
  6
CONTINUOUS
 62
     4
100
AcDbHatch
 10
0.0
 20
0.0
 30
0.0
210
0.0
220
0.0
230
1.0
  2
ANSI_31
 70
     0
 71
     0
 91
        1
 92
        1
 93
        4
 72
     1
 10
659.2770281757812
 20
320.1824366269531
 11
659.2770281757812
 21
319.2905366269531
 72
     1
 10
659.2770281757812
 20
319.2905366269531
 11
661.0950281757813
 21
319.2905366269531
 72
     1
 10
661.0950281757813
 20
319.2905366269531
 11
661.0950281757813
 21
320.1824366269531
 72
     1
 10
661.0950281757813
 20
320.1824366269531
 11
659.2770281757812
 21
320.1824366269531
 97
        0
 75
     0
 76
     2
 52
0.0
 41
0.062992
 77
     0
 78
     1
 53
44.99999999988837
 43
0.0
 44
0.0
 45
-3.592095212307267
 46
3.592095212321264
 79
     0
 98
        0
  0
LINE
  5
6C
330
1F
100
AcDbEntity
  8
CARTOUCHE
  6
CONTINUOUS
 62
     7
100
AcDbLine
 10
200.000037
 20
5.000793
 30
0.0
 11
0.0
 21
5.001068
 31
0.0
  0
LINE
  5
6D
330
1F
100
AcDbEntity
  8
CARTOUCHE
  6
CONTINUOUS
 62
     7
100
AcDbLine
 10
45.000001
 20
31.845393
 30
0.0
 11
45.000001
 21
0.000041
 31
0.0
  0
TEXT
  5
6E
330
1F
100
AcDbEntity
  8
CARTOUCHE
  6
CONTINUOUS
 62
     7
100
AcDbText
 10
114.72242
 20
27.435966
 30
0.0
 40
1.8
  1
PRODUCT TYPE
 50
359.999908
 41
0.57
  7
FINDER
100
AcDbText
  0
TEXT
  5
6F
330
1F
100
AcDbEntity
  8
CARTOUCHE
  6
CONTINUOUS
 62
     2
100
AcDbText
 10
14.493931
 20
1.600975
 30
0.0
 40
1.8
  1
MOD. UT 902
 50
359.999908
 41
0.74
  7
FINDER
100
AcDbText
  0
LINE
  5
70
330
1F
100
AcDbEntity
  8
CARTOUCHE
  6
CONTINUOUS
 62
     7
100
AcDbLine
 10
200.000008
 20
15.002808
 30
0.0
 11
44.999973
 21
15.003045
 31
0.0
  0
TEXT
  5
71
330
1F
100
AcDbEntity
  8
CARTOUCHE
  6
CONTINUOUS
 62
     7
100
AcDbText
 10
68.494064
 20
11.624306
 30
0.0
 40
1.8
  1
REV.
 50
359.999908
 41
0.65
  7
FINDER
100
AcDbText
  0
TEXT
  5
72
330
1F
100
AcDbEntity
  8
CARTOUCHE
  6
CONTINUOUS
 62
     1
100
AcDbText
 10
70.188141
 20
6.776279
 30
0.0
 40
2.1
  1
0
 50
359.999908
  7
FINDER
100
AcDbText
  0
LINE
  5
73
330
1F
100
AcDbEntity
  8
CARTOUCHE
  6
CONTINUOUS
 62
     7
100
AcDbLine
 10
96.666651
 20
15.002966
 30
0.0
 11
96.666651
 21
5.001024
 31
0.0
  0
LINE
  5
74
330
1F
100
AcDbEntity
  8
CARTOUCHE
  6
CONTINUOUS
 62
     4
100
AcDbLine
 10
7.362923
 20
22.655485
 30
0.0
 11
7.362923
 21
16.810194
 31
0.0
  0
LINE
  5
75
330
1F
100
AcDbEntity
  8
CARTOUCHE
  6
CONTINUOUS
 62
     4
100
AcDbLine
 10
7.362923
 20
16.810194
 30
0.0
 11
5.887823
 21
18.410844
 31
0.0
  0
LINE
  5
76
330
1F
100
AcDbEntity
  8
CARTOUCHE
  6
CONTINUOUS
 62
     4
100
AcDbLine
 10
5.887823
 20
18.410844
 30
0.0
 11
6.116423
 21
18.410844
 31
0.0
  0
LINE
  5
77
330
1F
100
AcDbEntity
  8
CARTOUCHE
  6
CONTINUOUS
 62
     4
100
AcDbLine
 10
6.413873
 20
18.766514
 30
0.0
 11
6.413873
 21
22.652621
 31
0.0
  0
LINE
  5
78
330
1F
100
AcDbEntity
  8
CARTOUCHE
  6
CONTINUOUS
 62
     4
100
AcDbLine
 10
5.464823
 20
22.399506
 30
0.0
 11
5.464823
 21
19.428744
 31
0.0
  0
LINE
  5
79
330
1F
100
AcDbEntity
  8
CARTOUCHE
  6
CONTINUOUS
 62
     4
100
AcDbLine
 10
5.464823
 20
19.428744
 30
0.0
 11
3.174776
 21
19.428744
 31
0.0
  0
LINE
  5
7A
330
1F
100
AcDbEntity
  8
CARTOUCHE
  6
CONTINUOUS
 62
     4
100
AcDbLine
 10
3.176313
 20
18.410844
 30
0.0
 11
4.378523
 21
18.410844
 31
0.0
  0
LINE
  5
7B
330
1F
100
AcDbEntity
  8
CARTOUCHE
  6
CONTINUOUS
 62
     4
100
AcDbLine
 10
4.378523
 20
18.410844
 30
0.0
 11
7.173699
 21
15.668328
 31
0.0
  0
LINE
  5
7C
330
1F
100
AcDbEntity
  8
CARTOUCHE
  6
CONTINUOUS
 62
     4
100
AcDbLine
 10
8.323223
 20
16.169844
 30
0.0
 11
8.323223
 21
19.508394
 31
0.0
  0
LINE
  5
7D
330
1F
100
AcDbEntity
  8
CARTOUCHE
  6
CONTINUOUS
 62
     4
100
AcDbLine
 10
8.323223
 20
19.508394
 30
0.0
 11
9.455423
 21
19.508394
 31
0.0
  0
LINE
  5
7E
330
1F
100
AcDbEntity
  8
CARTOUCHE
  6
CONTINUOUS
 62
     4
100
AcDbLine
 10
9.353656
 20
20.503344
 30
0.0
 11
8.323223
 21
20.503344
 31
0.0
  0
LINE
  5
7F
330
1F
100
AcDbEntity
  8
CARTOUCHE
  6
CONTINUOUS
 62
     4
100
AcDbLine
 10
8.323223
 20
20.503344
 30
0.0
 11
8.323223
 21
22.404134
 31
0.0
  0
LINE
  5
80
330
1F
100
AcDbEntity
  8
CARTOUCHE
  6
CONTINUOUS
 62
     4
100
AcDbLine
 10
23.108423
 20
17.479034
 30
0.0
 11
23.108423
 21
15.632094
 31
0.0
  0
LINE
  5
81
330
1F
100
AcDbEntity
  8
CARTOUCHE
  6
CONTINUOUS
 62
     4
100
AcDbLine
 10
23.108423
 20
15.632094
 30
0.0
 11
24.892223
 21
15.632094
 31
0.0
  0
LINE
  5
82
330
1F
100
AcDbEntity
  8
CARTOUCHE
  6
CONTINUOUS
 62
     4
100
AcDbLine
 10
24.892223
 20
15.632094
 30
0.0
 11
24.892223
 21
18.324553
 31
0.0
  0
LINE
  5
83
330
1F
100
AcDbEntity
  8
CARTOUCHE
  6
CONTINUOUS
 62
     4
100
AcDbLine
 10
21.289973
 20
19.074144
 30
0.0
 11
21.289973
 21
19.508394
 31
0.0
  0
LINE
  5
84
330
1F
100
AcDbEntity
  8
CARTOUCHE
  6
CONTINUOUS
 62
     4
100
AcDbLine
 10
21.289973
 20
19.508394
 30
0.0
 11
19.494923
 21
19.508394
 31
0.0
  0
LINE
  5
85
330
1F
100
AcDbEntity
  8
CARTOUCHE
  6
CONTINUOUS
 62
     4
100
AcDbLine
 10
19.494923
 20
19.508394
 30
0.0
 11
19.494923
 21
15.632094
 31
0.0
  0
LINE
  5
86
330
1F
100
AcDbEntity
  8
CARTOUCHE
  6
CONTINUOUS
 62
     4
100
AcDbLine
 10
19.494923
 20
15.632094
 30
0.0
 11
21.289973
 21
15.632094
 31
0.0
  0
LINE
  5
87
330
1F
100
AcDbEntity
  8
CARTOUCHE
  6
CONTINUOUS
 62
     4
100
AcDbLine
 10
21.289973
 20
15.632094
 30
0.0
 11
21.289973
 21
17.433499
 31
0.0
  0
LINE
  5
88
330
1F
100
AcDbEntity
  8
CARTOUCHE
  6
CONTINUOUS
 62
     4
100
AcDbLine
 10
30.986573
 20
20.823744
 30
0.0
 11
30.986573
 21
15.620844
 31
0.0
  0
LINE
  5
89
330
1F
100
AcDbEntity
  8
CARTOUCHE
  6
CONTINUOUS
 62
     4
100
AcDbLine
 10
30.986573
 20
15.620844
 30
0.0
 11
29.191523
 21
15.620844
 31
0.0
  0
LINE
  5
8A
330
1F
100
AcDbEntity
  8
CARTOUCHE
  6
CONTINUOUS
 62
     4
100
AcDbLine
 10
29.191523
 20
19.319904
 30
0.0
 11
29.191523
 21
20.823744
 31
0.0
  0
LINE
  5
8B
330
1F
100
AcDbEntity
  8
CARTOUCHE
  6
CONTINUOUS
 62
     4
100
AcDbLine
 10
29.191523
 20
20.823744
 30
0.0
 11
30.986573
 21
20.823744
 31
0.0
  0
LINE
  5
8C
330
1F
100
AcDbEntity
  8
CARTOUCHE
  6
CONTINUOUS
 62
     4
100
AcDbLine
 10
37.732973
 20
19.508394
 30
0.0
 11
39.459623
 21
19.508394
 31
0.0
  0
LINE
  5
8D
330
1F
100
AcDbEntity
  8
CARTOUCHE
  6
CONTINUOUS
 62
     4
100
AcDbLine
 10
39.459623
 20
19.508394
 30
0.0
 11
39.459623
 21
19.165494
 31
0.0
  0
LINE
  5
8E
330
1F
100
AcDbEntity
  8
CARTOUCHE
  6
CONTINUOUS
 62
     4
100
AcDbLine
 10
42.283823
 20
17.587794
 30
0.0
 11
40.454573
 21
17.587794
 31
0.0
  0
LINE
  5
8F
330
1F
100
AcDbEntity
  8
CARTOUCHE
  6
CONTINUOUS
 62
     4
100
AcDbLine
 10
40.454573
 20
17.587794
 30
0.0
 11
40.454573
 21
17.827644
 31
0.0
  0
LINE
  5
90
330
1F
100
AcDbEntity
  8
CARTOUCHE
  6
CONTINUOUS
 62
     4
100
AcDbLine
 10
39.459623
 20
17.782194
 30
0.0
 11
39.459623
 21
15.632094
 31
0.0
  0
LINE
  5
91
330
1F
100
AcDbEntity
  8
CARTOUCHE
  6
CONTINUOUS
 62
     4
100
AcDbLine
 10
39.459623
 20
15.632094
 30
0.0
 11
37.732973
 21
15.632094
 31
0.0
  0
LINE
  5
92
330
1F
100
AcDbEntity
  8
CARTOUCHE
  6
CONTINUOUS
 62
     4
100
AcDbLine
 10
37.732973
 20
15.632094
 30
0.0
 11
37.732973
 21
19.508394
 31
0.0
  0
LINE
  5
93
330
1F
100
AcDbEntity
  8
CARTOUCHE
  6
CONTINUOUS
 62
     4
100
AcDbLine
 10
34.154123
 20
17.244444
 30
0.0
 11
34.051073
 21
17.244444
 31
0.0
  0
LINE
  5
94
330
1F
100
AcDbEntity
  8
CARTOUCHE
  6
CONTINUOUS
 62
     4
100
AcDbLine
 10
34.051073
 20
17.244444
 30
0.0
 11
33.364823
 21
17.244444
 31
0.0
  0
LINE
  5
95
330
1F
100
AcDbEntity
  8
CARTOUCHE
  6
CONTINUOUS
 62
     4
100
AcDbLine
 10
35.343023
 20
16.855644
 30
0.0
 11
37.103873
 21
16.855644
 31
0.0
  0
LINE
  5
96
330
1F
100
AcDbEntity
  8
CARTOUCHE
  6
CONTINUOUS
 62
     4
100
AcDbLine
 10
37.206923
 20
17.256144
 30
0.0
 11
34.154123
 21
17.244444
 31
0.0
  0
LINE
  5
97
330
1F
100
AcDbEntity
  8
CARTOUCHE
  6
CONTINUOUS
 62
     4
100
AcDbLine
 10
34.154123
 20
18.079194
 30
0.0
 11
35.343023
 21
18.079194
 31
0.0
  0
LINE
  5
98
330
1F
100
AcDbEntity
  8
CARTOUCHE
  6
CONTINUOUS
 62
     4
100
AcDbLine
 10
33.364823
 20
18.079194
 30
0.0
 11
34.154123
 21
18.079194
 31
0.0
  0
LINE
  5
99
330
1F
100
AcDbEntity
  8
CARTOUCHE
  6
CONTINUOUS
 62
     4
100
AcDbLine
 10
16.087523
 20
19.931844
 30
0.0
 11
16.087523
 21
20.834994
 31
0.0
  0
LINE
  5
9A
330
1F
100
AcDbEntity
  8
CARTOUCHE
  6
CONTINUOUS
 62
     4
100
AcDbLine
 10
16.087523
 20
20.834994
 30
0.0
 11
14.589473
 21
20.834994
 31
0.0
  0
LINE
  5
9B
330
1F
100
AcDbEntity
  8
CARTOUCHE
  6
CONTINUOUS
 62
     4
100
AcDbLine
 10
13.674623
 20
19.931844
 30
0.0
 11
13.674623
 21
19.508394
 31
0.0
  0
LINE
  5
9C
330
1F
100
AcDbEntity
  8
CARTOUCHE
  6
CONTINUOUS
 62
     4
100
AcDbLine
 10
13.674623
 20
19.508394
 30
0.0
 11
13.137323
 21
19.508394
 31
0.0
  0
LINE
  5
9D
330
1F
100
AcDbEntity
  8
CARTOUCHE
  6
CONTINUOUS
 62
     4
100
AcDbLine
 10
13.137323
 20
19.508394
 30
0.0
 11
13.137323
 21
18.410844
 31
0.0
  0
LINE
  5
9E
330
1F
100
AcDbEntity
  8
CARTOUCHE
  6
CONTINUOUS
 62
     4
100
AcDbLine
 10
13.137323
 20
18.410844
 30
0.0
 11
13.674623
 21
18.410844
 31
0.0
  0
LINE
  5
9F
330
1F
100
AcDbEntity
  8
CARTOUCHE
  6
CONTINUOUS
 62
     4
100
AcDbLine
 10
13.674623
 20
18.410844
 30
0.0
 11
13.674623
 21
15.632094
 31
0.0
  0
LINE
  5
A0
330
1F
100
AcDbEntity
  8
CARTOUCHE
  6
CONTINUOUS
 62
     4
100
AcDbLine
 10
13.674623
 20
15.632094
 30
0.0
 11
15.470123
 21
15.632094
 31
0.0
  0
LINE
  5
A1
330
1F
100
AcDbEntity
  8
CARTOUCHE
  6
CONTINUOUS
 62
     4
100
AcDbLine
 10
15.470123
 20
15.632094
 30
0.0
 11
15.470123
 21
18.410844
 31
0.0
  0
LINE
  5
A2
330
1F
100
AcDbEntity
  8
CARTOUCHE
  6
CONTINUOUS
 62
     4
100
AcDbLine
 10
15.470123
 20
18.410844
 30
0.0
 11
16.087523
 21
18.410844
 31
0.0
  0
LINE
  5
A3
330
1F
100
AcDbEntity
  8
CARTOUCHE
  6
CONTINUOUS
 62
     4
100
AcDbLine
 10
16.087523
 20
18.410844
 30
0.0
 11
16.087523
 21
19.508394
 31
0.0
  0
LINE
  5
A4
330
1F
100
AcDbEntity
  8
CARTOUCHE
  6
CONTINUOUS
 62
     4
100
AcDbLine
 10
16.087523
 20
19.508394
 30
0.0
 11
15.412973
 21
19.508394
 31
0.0
  0
LINE
  5
A5
330
1F
100
AcDbEntity
  8
CARTOUCHE
  6
CONTINUOUS
 62
     4
100
AcDbLine
 10
15.412973
 20
19.508394
 30
0.0
 11
15.461079
 21
19.768622
 31
0.0
  0
LINE
  5
A6
330
1F
100
AcDbEntity
  8
CARTOUCHE
  6
CONTINUOUS
 62
     4
100
AcDbLine
 10
15.679053
 20
19.931844
 30
0.0
 11
16.087523
 21
19.931844
 31
0.0
  0
LINE
  5
A7
330
1F
100
AcDbEntity
  8
CARTOUCHE
  6
CONTINUOUS
 62
     4
100
AcDbLine
 10
16.807973
 20
15.632094
 30
0.0
 11
16.807973
 21
19.508394
 31
0.0
  0
LINE
  5
A8
330
1F
100
AcDbEntity
  8
CARTOUCHE
  6
CONTINUOUS
 62
     4
100
AcDbLine
 10
16.807973
 20
19.508394
 30
0.0
 11
18.625973
 21
19.508394
 31
0.0
  0
LINE
  5
A9
330
1F
100
AcDbEntity
  8
CARTOUCHE
  6
CONTINUOUS
 62
     4
100
AcDbLine
 10
18.625973
 20
19.508394
 30
0.0
 11
18.625973
 21
15.632094
 31
0.0
  0
LINE
  5
AA
330
1F
100
AcDbEntity
  8
CARTOUCHE
  6
CONTINUOUS
 62
     4
100
AcDbLine
 10
18.625973
 20
15.632094
 30
0.0
 11
16.807973
 21
15.632094
 31
0.0
  0
LINE
  5
AB
330
1F
100
AcDbEntity
  8
CARTOUCHE
  6
CONTINUOUS
 62
     4
100
AcDbLine
 10
16.807973
 20
19.943094
 30
0.0
 11
16.807973
 21
20.834994
 31
0.0
  0
LINE
  5
AC
330
1F
100
AcDbEntity
  8
CARTOUCHE
  6
CONTINUOUS
 62
     4
100
AcDbLine
 10
16.807973
 20
20.834994
 30
0.0
 11
18.625973
 21
20.834994
 31
0.0
  0
LINE
  5
AD
330
1F
100
AcDbEntity
  8
CARTOUCHE
  6
CONTINUOUS
 62
     4
100
AcDbLine
 10
18.625973
 20
20.834994
 30
0.0
 11
18.625973
 21
19.943094
 31
0.0
  0
LINE
  5
AE
330
1F
100
AcDbEntity
  8
CARTOUCHE
  6
CONTINUOUS
 62
     4
100
AcDbLine
 10
18.625973
 20
19.943094
 30
0.0
 11
16.807973
 21
19.943094
 31
0.0
  0
ARC
  5
AF
330
1F
100
AcDbEntity
  8
CARTOUCHE
  6
CONTINUOUS
 62
     4
100
AcDbCircle
 10
14.580259
 20
19.929401
 30
0.0
 40
0.905639
100
AcDbArc
 50
90.0
 51
180.0
  0
ARC
  5
B0
330
1F
100
AcDbEntity
  8
CARTOUCHE
  6
CONTINUOUS
 62
     4
100
AcDbCircle
 10
15.705988
 20
19.668716
 30
0.0
 40
0.264503
100
AcDbArc
 50
95.844673
 51
157.807812
  0
ARC
  5
B1
330
1F
100
AcDbEntity
  8
CARTOUCHE
  6
CONTINUOUS
 62
     4
100
AcDbCircle
 10
23.675028
 20
18.264873
 30
0.0
 40
1.218658
100
AcDbArc
 50
2.806997
 51
66.545781
  0
ARC
  5
B2
330
1F
100
AcDbEntity
  8
CARTOUCHE
  6
CONTINUOUS
 62
     4
100
AcDbCircle
 10
23.067403
 20
16.045261
 30
0.0
 40
3.511892
100
AcDbArc
 50
71.872392
 51
120.405557
  0
ARC
  5
B3
330
1F
100
AcDbEntity
  8
CARTOUCHE
  6
CONTINUOUS
 62
     4
100
AcDbCircle
 10
22.457324
 20
17.479034
 30
0.0
 40
0.651124
100
AcDbArc
 50
0.0
 51
97.150683
  0
ARC
  5
B4
330
1F
100
AcDbEntity
  8
CARTOUCHE
  6
CONTINUOUS
 62
     4
100
AcDbCircle
 10
22.44381
 20
16.820079
 30
0.0
 40
1.306761
100
AcDbArc
 50
92.962513
 51
152.003324
  0
CIRCLE
  5
B5
330
1F
100
AcDbEntity
  8
CARTOUCHE
  6
CONTINUOUS
 62
     4
100
AcDbCircle
 10
6.899646
 20
18.925422
 30
0.0
 40
4.756723
  0
ARC
  5
B6
330
1F
100
AcDbEntity
  8
CARTOUCHE
  6
CONTINUOUS
 62
     4
100
AcDbCircle
 10
6.899651
 20
18.925417
 30
0.0
 40
3.758727
100
AcDbArc
 50
112.441032
 51
172.30447
  0
ARC
  5
B7
330
1F
100
AcDbEntity
  8
CARTOUCHE
  6
CONTINUOUS
 62
     4
100
AcDbCircle
 10
6.899651
 20
18.925417
 30
0.0
 40
3.758727
100
AcDbArc
 50
82.920154
 51
97.425676
  0
ARC
  5
B8
330
1F
100
AcDbEntity
  8
CARTOUCHE
  6
CONTINUOUS
 62
     4
100
AcDbCircle
 10
6.899651
 20
18.925417
 30
0.0
 40
3.758727
100
AcDbArc
 50
187.868554
 51
67.744476
  0
SPLINE
  5
B9
330
1F
100
AcDbEntity
  8
CARTOUCHE
  6
CONTINUOUS
 62
     4
100
AcDbSpline
210
0.0
220
0.0
230
1.0
 70
     8
 71
     3
 72
    36
 73
    32
 74
     0
 42
0.0
 43
0.0
 40
0.0
 40
0.0
 40
0.0
 40
0.0
 40
0.1780767830136681
 40
0.3550421473332519
 40
0.5343453484092107
 40
0.7146565399102437
 40
1.070969665796742
 40
1.425797276482804
 40
1.782601621641158
 40
2.138604507529012
 40
2.494665694350761
 40
2.851054992366518
 40
3.206893612592711
 40
3.563376496270243
 40
3.919394399374822
 40
4.275489906300407
 40
4.631810709934304
 40
4.987969559364683
 40
5.34408211860129
 40
5.700399378588028
 40
6.056403899471826
 40
6.412686420078558
 40
6.768554714070927
 40
7.124994803535126
 40
7.480919478161396
 40
7.837065786048822
 40
8.193227339653797
 40
8.54915435091597
 40
8.90592851958123
 40
9.261828936493906
 40
9.970559377486843
 40
9.970559377486843
 40
9.970559377486843
 40
9.970559377486843
 10
29.19152297621247
 20
19.3199041971318
 30
0.0
 10
29.1470811456694
 20
19.35925398737596
 30
0.0
 10
29.05217101571805
 20
19.4317355662181
 30
0.0
 10
28.88702486192653
 20
19.50226756380449
 30
0.0
 10
28.71305131556232
 20
19.54495666942723
 30
0.0
 10
28.47834845644468
 20
19.58798269645786
 30
0.0
 10
28.18518117017913
 20
19.63800719542321
 30
0.0
 10
27.82899646784813
 20
19.6593691414496
 30
0.0
 10
27.47326672482029
 20
19.64621384628078
 30
0.0
 10
27.11757491729929
 20
19.61242874303617
 30
0.0
 10
26.77299200399079
 20
19.51557094953319
 30
0.0
 10
26.44749864205448
 20
19.36660662833783
 30
0.0
 10
26.15775694326908
 20
19.15567807341922
 30
0.0
 10
25.90609476451141
 20
18.90204678516807
 30
0.0
 10
25.69450118247778
 20
18.613468363682
 30
0.0
 10
25.53862581202111
 20
18.29089603326816
 30
0.0
 10
25.44277681566371
 20
17.94623295105323
 30
0.0
 10
25.4051588730083
 20
17.58968055220073
 30
0.0
 10
25.44352328414163
 20
17.23351806607327
 30
0.0
 10
25.5330884282904
 20
16.88748872605868
 30
0.0
 10
25.68157849234228
 20
16.56148488761745
 30
0.0
 10
25.88917684075068
 20
16.26919453242289
 30
0.0
 10
26.1522127749239
 20
16.02575896079475
 30
0.0
 10
26.45092519319712
 20
15.82973462570551
 30
0.0
 10
26.77615878588608
 20
15.68002644669816
 30
0.0
 10
27.12459823011875
 20
15.59680869955606
 30
0.0
 10
27.48036210823477
 20
15.56921438733918
 30
0.0
 10
27.83671943981153
 20
15.56880338564122
 30
0.0
 10
28.19288691357406
 20
15.58096011441621
 30
0.0
 10
28.6641908177113
 20
15.63797081704082
 30
0.0
 10
28.99993188968324
 20
15.78862697439315
 30
0.0
 10
29.19152297621247
 20
15.92684360711667
 30
0.0
  0
SPLINE
  5
BA
330
1F
100
AcDbEntity
  8
CARTOUCHE
  6
CONTINUOUS
 62
     4
100
AcDbSpline
210
0.0
220
0.0
230
1.0
 70
     8
 71
     3
 72
    32
 73
    28
 74
     0
 42
0.0
 43
0.0
 40
0.0
 40
0.0
 40
0.0
 40
0.0
 40
0.1932877580521157
 40
0.3866798787325882
 40
0.5800722507134989
 40
0.772333729456475
 40
0.9658523902015594
 40
1.159368918637214
 40
1.351212480188305
 40
1.544294116240269
 40
1.738458877748041
 40
1.931765051105018
 40
2.315248221342022
 40
2.698534908932237
 40
2.891497325006418
 40
3.086240061673468
 40
3.27934698460621
 40
3.47149554917474
 40
3.665362297658928
 40
3.858867169137039
 40
4.051425425593018
 40
4.244517993884934
 40
4.629048396203631
 40
4.822527042047698
 40
5.015999172173861
 40
5.208857197714148
 40
5.402321103694232
 40
5.402321103694232
 40
5.402321103694232
 40
5.402321103694232
 10
29.19152297621247
 20
17.75924360711668
 30
0.0
 10
29.18288243399775
 20
17.8230908437966
 30
0.0
 10
29.14698925229231
 20
17.94923099492491
 30
0.0
 10
29.03863033600135
 20
18.11295896718003
 30
0.0
 10
28.88808593421186
 20
18.23750555169801
 30
0.0
 10
28.71390236835975
 20
18.32349619385565
 30
0.0
 10
28.52952277004852
 20
18.38166686509658
 30
0.0
 10
28.34290479514243
 20
18.43125946356719
 30
0.0
 10
28.15005836734326
 20
18.45345660720097
 30
0.0
 10
27.9567652835641
 20
18.43192422737054
 30
0.0
 10
27.77055996307331
 20
18.37588631632259
 30
0.0
 10
27.54005543090193
 20
18.25927888814989
 30
0.0
 10
27.30431979796026
 20
18.02895633252871
 30
0.0
 10
27.19918224735056
 20
17.70410852264934
 30
0.0
 10
27.2556090006949
 20
17.44863354719076
 30
0.0
 10
27.34552826919219
 20
17.27538536050071
 30
0.0
 10
27.47312092641039
 20
17.12730558305737
 30
0.0
 10
27.63483015622103
 20
17.01829625364088
 30
0.0
 10
27.81425994030428
 20
16.94472673420569
 30
0.0
 10
28.00144289742559
 20
16.89441464262615
 30
0.0
 10
28.19428201703386
 20
16.87304307862474
 30
0.0
 10
28.45148699611309
 20
16.88934789940681
 30
0.0
 10
28.70119669040025
 20
16.97262918726353
 30
0.0
 10
28.91655264301392
 20
17.114560902169
 30
0.0
 10
29.05836036639801
 20
17.24858543450058
 30
0.0
 10
29.15639747778994
 20
17.41858950885382
 30
0.0
 10
29.18558227182314
 20
17.54607985365801
 30
0.0
 10
29.19152297621247
 20
17.61029360711667
 30
0.0
  0
LINE
  5
BB
330
1F
100
AcDbEntity
  8
CARTOUCHE
  6
CONTINUOUS
 62
     4
100
AcDbLine
 10
29.191523
 20
17.610294
 30
0.0
 11
29.191523
 21
17.759244
 31
0.0
  0
LINE
  5
BC
330
1F
100
AcDbEntity
  8
CARTOUCHE
  6
CONTINUOUS
 62
     4
100
AcDbLine
 10
29.191523
 20
15.620844
 30
0.0
 11
29.191523
 21
15.926844
 31
0.0
  0
SPLINE
  5
BD
330
1F
100
AcDbEntity
  8
CARTOUCHE
  6
CONTINUOUS
 62
     4
100
AcDbSpline
210
0.0
220
0.0
230
1.0
 70
     8
 71
     3
 72
    46
 73
    42
 74
     0
 42
0.0
 43
0.0
 40
0.0
 40
0.0
 40
0.0
 40
0.0
 40
0.2811760796502946
 40
0.5640898973250563
 40
0.8489971748537003
 40
1.131205009177211
 40
1.693847543907712
 40
2.256883126992217
 40
2.539006962714906
 40
2.820697028678528
 40
3.102988717666822
 40
3.385255369055035
 40
3.948537474972731
 40
4.512595302147443
 40
5.076291358232317
 40
5.639939427570669
 40
6.203885740903807
 40
6.766738495431309
 40
7.329351108981916
 40
7.892323841237688
 40
8.45514866590555
 40
8.737355288896866
 40
9.018966908742904
 40
9.581781624582574
 40
9.86403908982524
 40
10.14660944492419
 40
10.42765695915669
 40
10.7104453671154
 40
11.27439772862129
 40
11.83782241902082
 40
12.40155022911231
 40
12.96488140450844
 40
13.53013698036286
 40
13.81230410617875
 40
14.09372936703951
 40
14.37575719238146
 40
14.65757020519361
 40
14.93943603583764
 40
15.22120144973326
 40
15.50299703910228
 40
15.78483944550847
 40
15.78483944550847
 40
15.78483944550847
 40
15.78483944550847
 10
37.20692297621247
 20
17.25614360711672
 30
0.0
 10
37.23203420692107
 20
17.34644238439291
 30
0.0
 10
37.26336484409046
 20
17.53399353514693
 30
0.0
 10
37.24149612352574
 20
17.81801411254953
 30
0.0
 10
37.17836723535868
 20
18.09483488905608
 30
0.0
 10
37.05825107130295
 20
18.45212671536388
 30
0.0
 10
36.82306595169769
 20
18.86725058477686
 30
0.0
 10
36.46781589545185
 20
19.18453429852833
 30
0.0
 10
36.14761072222359
 20
19.38196329151135
 30
0.0
 10
35.88897462899058
 20
19.49665832798303
 30
0.0
 10
35.61969295726612
 20
19.58173403519249
 30
0.0
 10
35.2543140411176
 20
19.67112584450371
 30
0.0
 10
34.78716946498412
 20
19.73491758839328
 30
0.0
 10
34.22286115907593
 20
19.74314626209986
 30
0.0
 10
33.65911994648309
 20
19.70776759135033
 30
0.0
 10
33.10430878015268
 20
19.60055504764404
 30
0.0
 10
32.56703323781767
 20
19.41975332166317
 30
0.0
 10
32.09128315197597
 20
19.10132458254379
 30
0.0
 10
31.74193800490184
 20
18.64941378404786
 30
0.0
 10
31.52262068232574
 20
18.12465110892419
 30
0.0
 10
31.46286140999609
 20
17.65237452681703
 30
0.0
 10
31.49897098284839
 20
17.27677370178464
 30
0.0
 10
31.60138451349223
 20
16.91447857233738
 30
0.0
 10
31.76185376327498
 20
16.56953956862208
 30
0.0
 10
31.99184431742594
 20
16.27135451108104
 30
0.0
 10
32.18412083772114
 20
16.06372980713054
 30
0.0
 10
32.41499014005785
 20
15.8981099703803
 30
0.0
 10
32.7523317509042
 20
15.73108000815063
 30
0.0
 10
33.19505414301852
 20
15.56630096045468
 30
0.0
 10
33.75227372266897
 20
15.46845437614093
 30
0.0
 10
34.31516350933748
 20
15.42686252978587
 30
0.0
 10
34.8797846612523
 20
15.45310416565457
 30
0.0
 10
35.34636121692427
 20
15.51793254831694
 30
0.0
 10
35.71316921960886
 20
15.60361847371957
 30
0.0
 10
35.98020693492333
 20
15.69575649055219
 30
0.0
 10
36.23634011737818
 20
15.8133707081824
 30
0.0
 10
36.48756104735048
 20
15.94257867459994
 30
0.0
 10
36.71131096251793
 20
16.11779577915576
 30
0.0
 10
36.89210320202199
 20
16.33577430529642
 30
0.0
 10
37.03705328185708
 20
16.57968837892793
 30
0.0
 10
37.08874532982247
 20
16.76292208205906
 30
0.0
 10
37.10387297621253
 20
16.8556436071167
 30
0.0
  0
SPLINE
  5
BE
330
1F
100
AcDbEntity
  8
CARTOUCHE
  6
CONTINUOUS
 62
     4
100
AcDbSpline
210
0.0
220
0.0
230
1.0
 70
     8
 71
     3
 72
    15
 73
    11
 74
     0
 42
0.0
 43
0.0
 40
0.0
 40
0.0
 40
0.0
 40
0.0
 40
0.3371530624456519
 40
0.6743134103473634
 40
1.011742195803972
 40
1.348774234605689
 40
1.687275239821948
 40
1.856093664733062
 40
2.024672439731733
 40
2.36171424272068
 40
2.36171424272068
 40
2.36171424272068
 40
2.36171424272068
 10
33.36482297621251
 20
17.2444436071167
 30
0.0
 10
33.3858778215025
 20
17.13404914825572
 30
0.0
 10
33.47908858652352
 20
16.91720193038532
 30
0.0
 10
33.75430938453144
 20
16.706449264183
 30
0.0
 10
34.06998675418981
 20
16.58180999970012
 30
0.0
 10
34.40539517918739
 20
16.52556263807151
 30
0.0
 10
34.68949469675783
 20
16.54062536220022
 30
0.0
 10
34.90812694138117
 20
16.59887374482219
 30
0.0
 10
35.11328271453908
 20
16.69222545658818
 30
0.0
 10
35.25572769673465
 20
16.78492272807649
 30
0.0
 10
35.34302297621252
 20
16.8556436071167
 30
0.0
  0
SPLINE
  5
BF
330
1F
100
AcDbEntity
  8
CARTOUCHE
  6
CONTINUOUS
 62
     4
100
AcDbSpline
210
0.0
220
0.0
230
1.0
 70
     8
 71
     3
 72
    21
 73
    17
 74
     0
 42
0.0
 43
0.0
 40
0.0
 40
0.0
 40
0.0
 40
0.0
 40
0.1868562426648683
 40
0.3735753311188897
 40
0.561385244331366
 40
0.7484499710535985
 40
0.9355894656463413
 40
1.123113048870195
 40
1.311429068188788
 40
1.500242837337345
 40
1.686444243009907
 40
1.873057665252352
 40
2.059520356870873
 40
2.246467921108978
 40
2.434628805645711
 40
2.621194974095634
 40
2.621194974095634
 40
2.621194974095634
 40
2.621194974095634
 10
35.34302297621252
 20
18.07919360711669
 30
0.0
 10
35.33827402300517
 20
18.14129771542037
 30
0.0
 10
35.31098590801867
 20
18.26532167893516
 30
0.0
 10
35.21176932408082
 20
18.4274393651603
 30
0.0
 10
35.07410472232061
 20
18.55667707405826
 30
0.0
 10
34.91380074337155
 20
18.65566347451574
 30
0.0
 10
34.73873424931833
 20
18.72452207485077
 30
0.0
 10
34.55489940604025
 20
18.76544162614523
 30
0.0
 10
34.36639704794266
 20
18.77885835001855
 30
0.0
 10
34.17902209853401
 20
18.76782273359755
 30
0.0
 10
33.99274798283
 20
18.72746022546608
 30
0.0
 10
33.83748785500461
 20
18.62068130925582
 30
0.0
 10
33.66640581764318
 20
18.54392880021908
 30
0.0
 10
33.52524874688265
 20
18.41621721231662
 30
0.0
 10
33.42100493506643
 20
18.25892401888792
 30
0.0
 10
33.37822029988172
 20
18.13992209272329
 30
0.0
 10
33.36482297621251
 20
18.07919360711669
 30
0.0
  0
SPLINE
  5
C0
330
1F
100
AcDbEntity
  8
CARTOUCHE
  6
CONTINUOUS
 62
     4
100
AcDbSpline
210
0.0
220
0.0
230
1.0
 70
     8
 71
     3
 72
    14
 73
    10
 74
     0
 42
0.0
 43
0.0
 40
0.0
 40
0.0
 40
0.0
 40
0.0
 40
0.2162148910594536
 40
0.4333935378504982
 40
0.6499506618299267
 40
0.8697440506435969
 40
1.087238867261143
 40
1.304828920110255
 40
1.52231799513657
 40
1.52231799513657
 40
1.52231799513657
 40
1.52231799513657
 10
40.45457297621249
 20
17.82764360711668
 30
0.0
 10
40.4585708245022
 20
17.89960427075187
 30
0.0
 10
40.42640871477511
 20
18.04880797988182
 30
0.0
 10
40.27439512155047
 20
18.2158057830136
 30
0.0
 10
40.06187418874424
 20
18.29256657103895
 30
0.0
 10
39.83996012736452
 20
18.27349259239089
 30
0.0
 10
39.63539374842924
 20
18.17927908713461
 30
0.0
 10
39.50069166663809
 20
17.99888001181956
 30
0.0
 10
39.46300588566658
 20
17.8546109938169
 30
0.0
 10
39.45962297621247
 20
17.78219360711672
 30
0.0
  0
SPLINE
  5
C1
330
1F
100
AcDbEntity
  8
CARTOUCHE
  6
CONTINUOUS
 62
     4
100
AcDbSpline
210
0.0
220
0.0
230
1.0
 70
     8
 71
     3
 72
    20
 73
    16
 74
     0
 42
0.0
 43
0.0
 40
0.0
 40
0.0
 40
0.0
 40
0.0
 40
0.3099173987996669
 40
0.6201169005603266
 40
0.9308839291328165
 40
1.240783325707781
 40
1.55095939565128
 40
1.86184239372724
 40
2.170990040564945
 40
2.482795387658576
 40
2.792567816778102
 40
3.102413185111548
 40
3.413424630920254
 40
3.723772126664227
 40
4.34241605336301
 40
4.34241605336301
 40
4.34241605336301
 40
4.34241605336301
 10
42.28382297621249
 20
17.58779360711669
 30
0.0
 10
42.29785819041342
 20
17.69014154795241
 30
0.0
 10
42.31442439810405
 20
17.89677002490993
 30
0.0
 10
42.30093033884827
 20
18.20747684710313
 30
0.0
 10
42.25565509292562
 20
18.51474506996465
 30
0.0
 10
42.17620497908092
 20
18.81641720416798
 30
0.0
 10
42.02732884775901
 20
19.09240930675498
 30
0.0
 10
41.81020925681196
 20
19.32073989851239
 30
0.0
 10
41.53096645435983
 20
19.46673633765892
 30
0.0
 10
41.2307622884091
 20
19.54812226604333
 30
0.0
 10
40.92302870824335
 20
19.59724701034367
 30
0.0
 10
40.61155045095131
 20
19.58971136447537
 30
0.0
 10
40.30365712496848
 20
19.54593387513314
 30
0.0
 10
39.90384924168495
 20
19.43649512043618
 30
0.0
 10
39.62714716375797
 20
19.28574386806645
 30
0.0
 10
39.45962297621247
 20
19.16549360711668
 30
0.0
  0
ARC
  5
C2
330
1F
100
AcDbEntity
  8
CARTOUCHE
  6
CONTINUOUS
 62
     4
100
AcDbCircle
 10
5.950954
 20
18.851493
 30
0.0
 40
0.470607
100
AcDbArc
 50
290.581791
 51
349.597912
  0
SPLINE
  5
C3
330
1F
100
AcDbEntity
  8
CARTOUCHE
  6
CONTINUOUS
 62
     4
100
AcDbSpline
210
0.0
220
0.0
230
1.0
 70
     8
 71
     3
 72
    14
 73
    10
 74
     0
 42
0.0
 43
0.0
 40
0.0
 40
0.0
 40
0.0
 40
0.0
 40
0.218061519141428
 40
0.4363611552766655
 40
0.6537290224029619
 40
0.8729556978994847
 40
1.089089148588595
 40
1.305404600578318
 40
1.523281343816881
 40
1.523281343816881
 40
1.523281343816881
 40
1.523281343816881
 10
8.323222976212492
 20
16.16984360711673
 30
0.0
 10
8.318288214417635
 20
16.09732413902976
 30
0.0
 10
8.284441201709
 20
15.95301240567483
 30
0.0
 10
8.169483084717058
 20
15.76307331566506
 30
0.0
 10
7.996385400748409
 20
15.62406236269835
 30
0.0
 10
7.795574627707992
 20
15.53567944687769
 30
0.0
 10
7.57604694575457
 20
15.50360567386355
 30
0.0
 10
7.361945471922013
 20
15.55796082330824
 30
0.0
 10
7.233255854035747
 20
15.62676542598343
 30
0.0
 10
7.173698979108963
 20
15.66832807359032
 30
0.0
  0
ARC
  5
C4
330
1F
100
AcDbEntity
  8
CARTOUCHE
  6
CONTINUOUS
 62
     4
100
AcDbCircle
 10
9.404539
 20
20.005869
 30
0.0
 40
0.500071
100
AcDbArc
 50
275.840125
 51
95.840125
  0
HATCH
  5
C5
330
1F
100
AcDbEntity
  8
CARTOUCHE
  6
CONTINUOUS
 62
     4
100
AcDbHatch
 10
0.0
 20
0.0
 30
0.0
210
0.0
220
0.0
230
1.0
  2
ANSI_31
 70
     0
 71
     0
 91
        4
 92
        1
 93
        3
 72
     1
 10
5.464823000000024
 20
22.39950599999997
 11
5.464823000000024
 21
19.42874399999999
 72
     1
 10
5.464823000000024
 20
19.42874399999999
 11
3.174775999999952
 21
19.42874399999999
 72
     2
 10
6.899650999999952
 20
18.92541699999997
 40
3.758727000000005
 50
187.6955481858978
 51
247.5589807620792
 73
     0
 97
        0
 92
        0
 93
        6
 72
     1
 10
6.413872999999967
 20
22.65262100000001
 11
6.413872999999967
 21
18.76651400000003
 72
     2
 10
5.950954000000016
 20
18.85149300000001
 40
0.4706070000000082
 50
10.40206637069416
 51
69.41820895943546
 73
     0
 72
     1
 10
6.116423000000054
 20
18.410844
 11
5.887823000000026
 21
18.410844
 72
     1
 10
5.887823000000026
 20
18.410844
 11
7.362923000000023
 21
16.81019400000002
 72
     1
 10
7.362923000000023
 20
16.81019400000002
 11
7.362923000000023
 21
22.655485
 72
     2
 10
6.899650999999941
 20
18.92541699999985
 40
3.758727000000134
 50
82.92017098471825
 51
97.4256861882653
 73
     1
 97
        0
 92
        0
 93
       40
 72
     1
 10
9.353656
 20
20.50334399999997
 11
8.323222999999984
 21
20.50334399999997
 72
     1
 10
8.323222999999984
 20
20.50334399999997
 11
8.323222999999984
 21
22.404134
 72
     2
 10
6.899650999999949
 20
18.92541699999998
 40
3.758726999999999
 50
292.2555505518877
 51
532.1314361600666
 73
     0
 72
     1
 10
3.17631300000005
 20
18.410844
 11
4.378522999999973
 21
18.410844
 72
     1
 10
4.378522999999973
 20
18.410844
 11
7.173698999999942
 21
15.66832799999997
 72
     1
 10
7.173698999999942
 20
15.66832799999997
 11
7.228616999999986
 21
15.63285300000001
 72
     1
 10
7.228616999999986
 20
15.63285300000001
 11
7.286013000000025
 21
15.60136299999999
 72
     1
 10
7.286013000000025
 20
15.60136299999999
 11
7.36599799999999
 21
15.565901
 72
     1
 10
7.36599799999999
 20
15.565901
 11
7.407007000000021
 21
15.55122899999998
 72
     1
 10
7.407007000000021
 20
15.55122899999998
 11
7.448736000000054
 21
15.53879699999999
 72
     1
 10
7.448736000000054
 20
15.53879699999999
 11
7.491052999999965
 21
15.528907
 72
     1
 10
7.491052999999965
 20
15.528907
 11
7.533828999999969
 21
15.52186
 72
     1
 10
7.533828999999969
 20
15.52186
 11
7.576934000000051
 21
15.51796000000002
 72
     1
 10
7.576934000000051
 20
15.51796000000002
 11
7.620190999999977
 21
15.51741600000003
 72
     1
 10
7.620190999999977
 20
15.51741600000003
 11
7.663455999999996
 21
15.52006999999998
 72
     1
 10
7.663455999999996
 20
15.52006999999998
 11
7.706539000000021
 21
15.52567799999997
 72
     1
 10
7.706539000000021
 20
15.52567799999997
 11
7.749248999999963
 21
15.53399400000001
 72
     1
 10
7.749248999999963
 20
15.53399400000001
 11
7.791397999999958
 21
15.54477500000002
 72
     1
 10
7.791397999999958
 20
15.54477500000002
 11
7.833399999999983
 21
15.55801000000002
 72
     1
 10
7.833399999999983
 20
15.55801000000002
 11
7.874554999999987
 21
15.57347900000002
 72
     1
 10
7.874554999999987
 20
15.57347900000002
 11
7.914787000000047
 21
15.59112900000002
 72
     1
 10
7.914787000000047
 20
15.59112900000002
 11
7.992186999999944
 21
15.63277499999998
 72
     1
 10
7.992186999999944
 20
15.63277499999998
 11
8.028870999999981
 21
15.65646700000002
 72
     1
 10
8.028870999999981
 20
15.65646700000002
 11
8.064194000000043
 21
15.682164
 72
     1
 10
8.064194000000043
 20
15.682164
 11
8.097920000000045
 21
15.70987400000001
 72
     1
 10
8.097920000000045
 20
15.70987400000001
 11
8.129815000000008
 21
15.73960499999998
 72
     1
 10
8.129815000000008
 20
15.73960499999998
 11
8.15964299999996
 21
15.771365
 72
     1
 10
8.15964299999996
 20
15.771365
 11
8.18731200000002
 21
15.80527799999999
 72
     1
 10
8.18731200000002
 20
15.80527799999999
 11
8.212608000000046
 21
15.84104500000001
 72
     1
 10
8.212608000000046
 20
15.84104500000001
 11
8.235480000000052
 21
15.878466
 72
     1
 10
8.235480000000052
 20
15.878466
 11
8.255877000000055
 21
15.91734000000002
 72
     1
 10
8.255877000000055
 20
15.91734000000002
 11
8.27374999999995
 21
15.95746800000001
 72
     1
 10
8.27374999999995
 20
15.95746800000001
 11
8.289029000000028
 21
15.998605
 72
     1
 10
8.289029000000028
 20
15.998605
 11
8.30167700000004
 21
16.04060199999998
 72
     1
 10
8.30167700000004
 20
16.04060199999998
 11
8.311632000000031
 21
16.08326799999998
 72
     1
 10
8.311632000000031
 20
16.08326799999998
 11
8.318835000000036
 21
16.12641200000002
 72
     1
 10
8.318835000000036
 20
16.12641200000002
 11
8.323222999999984
 21
16.16984400000001
 72
     1
 10
8.323222999999984
 20
16.16984400000001
 11
8.323222999999984
 21
19.50839400000001
 72
     1
 10
8.323222999999984
 20
19.50839400000001
 11
9.455422999999996
 21
19.50839400000001
 72
     2
 10
9.404538999999996
 20
20.00586900000002
 40
0.500071000000002
 50
275.8401026338638
 51
455.840122481706
 73
     1
 97
        0
 92
        0
 93
        1
 72
     2
 10
6.899645999999962
 20
18.925422003831
 40
4.756723
 50
359.9999999538551
 51
719.9999823537613
 73
     1
 97
        0
 75
     0
 76
     2
 52
0.0
 41
0.062992
 77
     0
 78
     1
 53
44.99999999988837
 43
0.0
 44
0.0
 45
-3.592095212307267
 46
3.592095212321264
 79
     0
 98
        0
  0
HATCH
  5
C6
330
1F
100
AcDbEntity
  8
CARTOUCHE
  6
CONTINUOUS
 62
     4
100
AcDbHatch
 10
0.0
 20
0.0
 30
0.0
210
0.0
220
0.0
230
1.0
  2
ANSI_31
 70
     0
 71
     0
 91
        1
 92
        1
 93
       16
 72
     1
 10
15.67905299999995
 20
19.93184400000001
 11
16.08752300000003
 21
19.93184400000001
 72
     1
 10
16.08752300000003
 20
19.93184400000001
 11
16.08752300000003
 21
20.83499399999999
 72
     1
 10
16.08752300000003
 20
20.83499399999999
 11
14.58025899999996
 21
20.83499399999999
 72
     2
 10
14.58025899999995
 20
19.929401
 40
0.9056389999999958
 50
89.99998127603119
 51
180.0000198478432
 73
     1
 72
     1
 10
13.674623
 20
19.92940099999998
 11
13.674623
 21
19.50839400000001
 72
     1
 10
13.674623
 20
19.50839400000001
 11
13.13732300000004
 21
19.50839400000001
 72
     1
 10
13.13732300000004
 20
19.50839400000001
 11
13.13732300000004
 21
18.410844
 72
     1
 10
13.13732300000004
 20
18.410844
 11
13.674623
 21
18.410844
 72
     1
 10
13.674623
 20
18.410844
 11
13.674623
 21
15.632094
 72
     1
 10
13.674623
 20
15.632094
 11
15.47012300000006
 21
15.632094
 72
     1
 10
15.47012300000006
 20
15.632094
 11
15.47012300000006
 21
18.410844
 72
     1
 10
15.47012300000006
 20
18.410844
 11
16.08752300000003
 21
18.410844
 72
     1
 10
16.08752300000003
 20
18.410844
 11
16.08752300000003
 21
19.50839400000001
 72
     1
 10
16.08752300000003
 20
19.50839400000001
 11
15.41297299999997
 21
19.50839400000001
 72
     1
 10
15.41297299999997
 20
19.50839400000001
 11
15.46107900000004
 21
19.76862199999999
 72
     2
 10
15.70598800000005
 20
19.668716
 40
0.2645030000000168
 50
202.1921825436233
 51
264.1553335516165
 73
     0
 97
        0
 75
     0
 76
     2
 52
0.0
 41
0.062992
 77
     0
 78
     1
 53
44.99999999988837
 43
0.0
 44
0.0
 45
-3.592095212307267
 46
3.592095212321264
 79
     0
 98
        0
  0
HATCH
  5
C7
330
1F
100
AcDbEntity
  8
CARTOUCHE
  6
CONTINUOUS
 62
     4
100
AcDbHatch
 10
0.0
 20
0.0
 30
0.0
210
0.0
220
0.0
230
1.0
  2
ANSI_31
 70
     0
 71
     0
 91
        1
 92
        1
 93
        4
 72
     1
 10
16.80797299999995
 20
20.83499399999999
 11
16.80797299999995
 21
19.94309399999997
 72
     1
 10
16.80797299999995
 20
19.94309399999997
 11
18.62597300000004
 21
19.94309399999997
 72
     1
 10
18.62597300000004
 20
19.94309399999997
 11
18.62597300000004
 21
20.83499399999999
 72
     1
 10
18.62597300000004
 20
20.83499399999999
 11
16.80797299999995
 21
20.83499399999999
 97
        0
 75
     0
 76
     2
 52
0.0
 41
0.062992
 77
     0
 78
     1
 53
44.99999999988837
 43
0.0
 44
0.0
 45
-3.592095212307267
 46
3.592095212321264
 79
     0
 98
        0
  0
HATCH
  5
C8
330
1F
100
AcDbEntity
  8
CARTOUCHE
  6
CONTINUOUS
 62
     4
100
AcDbHatch
 10
0.0
 20
0.0
 30
0.0
210
0.0
220
0.0
230
1.0
  2
ANSI_31
 70
     0
 71
     0
 91
        1
 92
        1
 93
        4
 72
     1
 10
16.80797299999995
 20
19.50839400000001
 11
16.80797299999995
 21
15.632094
 72
     1
 10
16.80797299999995
 20
15.632094
 11
18.62597300000004
 21
15.632094
 72
     1
 10
18.62597300000004
 20
15.632094
 11
18.62597300000004
 21
19.50839400000001
 72
     1
 10
18.62597300000004
 20
19.50839400000001
 11
16.80797299999995
 21
19.50839400000001
 97
        0
 75
     0
 76
     2
 52
0.0
 41
0.062992
 77
     0
 78
     1
 53
44.99999999988837
 43
0.0
 44
0.0
 45
-3.592095212307267
 46
3.592095212321264
 79
     0
 98
        0
  0
HATCH
  5
C9
330
1F
100
AcDbEntity
  8
CARTOUCHE
  6
CONTINUOUS
 62
     4
100
AcDbHatch
 10
0.0
 20
0.0
 30
0.0
210
0.0
220
0.0
230
1.0
  2
ANSI_31
 70
     0
 71
     0
 91
        1
 92
        1
 93
       12
 72
     2
 10
22.45732399999997
 20
17.47903400000001
 40
0.6511239999999975
 50
262.8493335533972
 51
360.0000000000003
 73
     0
 72
     1
 10
23.10842300000002
 20
17.47903400000001
 11
23.10842300000002
 21
15.632094
 72
     1
 10
23.10842300000002
 20
15.632094
 11
24.89222300000006
 21
15.632094
 72
     1
 10
24.89222300000006
 20
15.632094
 11
24.89222300000006
 21
18.32455299999998
 72
     2
 10
23.67502799999998
 20
18.26487300000003
 40
1.21865800000001
 50
2.806977534125369
 51
66.54578204501243
 73
     1
 72
     2
 10
23.06740300000001
 20
16.04526099999996
 40
3.511892000000026
 50
71.87239877900578
 51
120.4055336606954
 73
     1
 72
     1
 10
21.28997300000003
 20
19.07414399999999
 11
21.28997300000003
 21
19.50839400000001
 72
     1
 10
21.28997300000003
 20
19.50839400000001
 11
19.49492299999997
 21
19.50839400000001
 72
     1
 10
19.49492299999997
 20
19.50839400000001
 11
19.49492299999997
 21
15.632094
 72
     1
 10
19.49492299999997
 20
15.632094
 11
21.28997300000003
 21
15.632094
 72
     1
 10
21.28997300000003
 20
15.632094
 11
21.28997300000003
 21
17.43349899999998
 72
     2
 10
22.44380999999998
 20
16.82007900000005
 40
1.306760999999984
 50
207.9967033745316
 51
267.0374831484652
 73
     0
 97
        0
 75
     0
 76
     2
 52
0.0
 41
0.062992
 77
     0
 78
     1
 53
44.99999999988837
 43
0.0
 44
0.0
 45
-3.592095212307267
 46
3.592095212321264
 79
     0
 98
        0
  0
HATCH
  5
CA
330
1F
100
AcDbEntity
  8
CARTOUCHE
  6
CONTINUOUS
 62
     4
100
AcDbHatch
 10
0.0
 20
0.0
 30
0.0
210
0.0
220
0.0
230
1.0
  2
ANSI_31
 70
     0
 71
     0
 91
        2
 92
        1
 93
       68
 72
     1
 10
29.19152299999996
 20
19.31990400000001
 11
29.13663900000006
 21
19.36546499999997
 72
     1
 10
29.13663900000006
 20
19.36546499999997
 11
29.09335299999998
 21
19.396952
 72
     1
 10
29.09335299999998
 20
19.396952
 11
29.04814599999997
 21
19.42551800000001
 72
     1
 10
29.04814599999997
 20
19.42551800000001
 11
28.98531500000001
 21
19.45824299999998
 72
     1
 10
28.98531500000001
 20
19.45824299999998
 11
28.93641500000001
 21
19.47918299999998
 72
     1
 10
28.93641500000001
 20
19.47918299999998
 11
28.88641400000006
 21
19.49734899999999
 72
     1
 10
28.88641400000006
 20
19.49734899999999
 11
28.80036900000005
 21
19.52267000000001
 72
     1
 10
28.80036900000005
 20
19.52267000000001
 11
28.71305600000005
 21
19.543137
 72
     1
 10
28.71305600000005
 20
19.543137
 11
28.53598499999998
 21
19.57716399999998
 72
     1
 10
28.53598499999998
 20
19.57716399999998
 11
28.18386099999998
 21
19.631643
 72
     1
 10
28.18386099999998
 20
19.631643
 11
27.82971399999997
 21
19.65361100000001
 72
     1
 10
27.82971399999997
 20
19.65361100000001
 11
27.47307499999999
 21
19.64275900000001
 72
     1
 10
27.47307499999999
 20
19.64275900000001
 11
27.29553499999997
 21
19.627567
 72
     1
 10
27.29553499999997
 20
19.627567
 11
27.11942199999999
 21
19.601922
 72
     1
 10
27.11942199999999
 20
19.601922
 11
26.98039300000005
 21
19.570874
 72
     1
 10
26.98039300000005
 20
19.570874
 11
26.77626899999996
 21
19.50691899999998
 72
     1
 10
26.77626899999996
 20
19.50691899999998
 11
26.64385700000003
 21
19.453442
 72
     1
 10
26.64385700000003
 20
19.453442
 11
26.54719899999998
 21
19.40747800000003
 72
     1
 10
26.54719899999998
 20
19.40747800000003
 11
26.45331799999997
 21
19.3562
 72
     1
 10
26.45331799999997
 20
19.3562
 11
26.33327599999996
 21
19.27954099999999
 72
     1
 10
26.33327599999996
 20
19.27954099999999
 11
26.16425100000004
 21
19.14868799999999
 72
     1
 10
26.16425100000004
 20
19.14868799999999
 11
26.05893800000001
 21
19.05235800000003
 72
     1
 10
26.05893800000001
 20
19.05235800000003
 11
25.91268300000002
 21
18.89611400000001
 72
     1
 10
25.91268300000002
 20
18.89611400000001
 11
25.82344499999999
 21
18.78493100000003
 72
     1
 10
25.82344499999999
 20
18.78493100000003
 11
25.70379300000002
 21
18.60781900000001
 72
     1
 10
25.70379300000002
 20
18.60781900000001
 11
25.634816
 21
18.48302000000001
 72
     1
 10
25.634816
 20
18.48302000000001
 11
25.58909600000004
 21
18.38630999999998
 72
     1
 10
25.58909600000004
 20
18.38630999999998
 11
25.54866100000004
 21
18.28729199999998
 72
     1
 10
25.54866100000004
 20
18.28729199999998
 11
25.50307699999996
 21
18.15213199999999
 72
     1
 10
25.50307699999996
 20
18.15213199999999
 11
25.45247300000005
 21
17.94419900000003
 72
     1
 10
25.45247300000005
 20
17.94419900000003
 11
25.43063199999995
 21
17.80315000000002
 72
     1
 10
25.43063199999995
 20
17.80315000000002
 11
25.42104700000004
 21
17.69658800000002
 72
     1
 10
25.42104700000004
 20
17.69658800000002
 11
25.41782000000001
 21
17.58972999999997
 72
     1
 10
25.41782000000001
 20
17.58972999999997
 11
25.42378299999996
 21
17.44735500000002
 72
     1
 10
25.42378299999996
 20
17.44735500000002
 11
25.45204699999999
 21
17.23526600000002
 72
     1
 10
25.45204699999999
 20
17.23526600000002
 11
25.48182299999996
 21
17.09568300000001
 72
     1
 10
25.48182299999996
 20
17.09568300000001
 11
25.54294100000004
 21
16.890737
 72
     1
 10
25.54294100000004
 20
16.890737
 11
25.59524499999998
 21
16.75814400000002
 72
     1
 10
25.59524499999998
 20
16.75814400000002
 11
25.64066300000002
 21
16.66132599999997
 72
     1
 10
25.64066300000002
 20
16.66132599999997
 11
25.69139600000005
 21
16.56716299999999
 72
     1
 10
25.69139600000005
 20
16.56716299999999
 11
25.76734099999999
 21
16.446302
 72
     1
 10
25.76734099999999
 20
16.446302
 11
25.83037100000001
 21
16.35977800000001
 72
     1
 10
25.83037100000001
 20
16.35977800000001
 11
25.89849000000004
 21
16.27724999999998
 72
     1
 10
25.89849000000004
 20
16.27724999999998
 11
25.99676699999998
 21
16.17408
 72
     1
 10
25.99676699999998
 20
16.17408
 11
26.15802499999995
 21
16.03376700000001
 72
     1
 10
26.15802499999995
 20
16.03376700000001
 11
26.27323200000001
 21
15.94957699999998
 72
     1
 10
26.27323200000001
 20
15.94957699999998
 11
26.45548299999996
 21
15.837379
 72
     1
 10
26.45548299999996
 20
15.837379
 11
26.58228499999996
 21
15.77219600000001
 72
     1
 10
26.58228499999996
 20
15.77219600000001
 11
26.68003799999997
 21
15.72894300000002
 72
     1
 10
26.68003799999997
 20
15.72894300000002
 11
26.77997000000005
 21
15.691125
 72
     1
 10
26.77997000000005
 20
15.691125
 11
26.91640600000005
 21
15.64973700000002
 72
     1
 10
26.91640600000005
 20
15.64973700000002
 11
27.12581399999999
 21
15.60608200000001
 72
     1
 10
27.12581399999999
 20
15.60608200000001
 11
27.30267700000002
 21
15.58473400000003
 72
     1
 10
27.30267700000002
 20
15.58473400000003
 11
27.480504
 21
15.57374099999998
 72
     1
 10
27.480504
 20
15.57374099999998
 11
27.83641999999998
 21
15.57089400000001
 72
     1
 10
27.83641999999998
 20
15.57089400000001
 11
28.19286999999997
 21
15.58610199999998
 72
     1
 10
28.19286999999997
 20
15.58610199999998
 11
28.33459700000003
 21
15.60000000000002
 72
     1
 10
28.33459700000003
 20
15.60000000000002
 11
28.54527099999996
 21
15.63588399999998
 72
     1
 10
28.54527099999996
 20
15.63588399999998
 11
28.68285300000002
 21
15.67301600000002
 72
     1
 10
28.68285300000002
 20
15.67301600000002
 11
28.81743300000005
 21
15.72115400000001
 72
     1
 10
28.81743300000005
 20
15.72115400000001
 11
28.94784800000002
 21
15.77982200000002
 72
     1
 10
28.94784800000002
 20
15.77982200000002
 11
29.07293300000003
 21
15.848544
 72
     1
 10
29.07293300000003
 20
15.848544
 11
29.19152299999996
 21
15.92684400000002
 72
     1
 10
29.19152299999996
 20
15.92684400000002
 11
29.19152299999996
 21
15.62084399999998
 72
     1
 10
29.19152299999996
 20
15.62084399999998
 11
30.98657300000002
 21
15.62084399999998
 72
     1
 10
30.98657300000002
 20
15.62084399999998
 11
30.98657300000002
 21
20.82374399999998
 72
     1
 10
30.98657300000002
 20
20.82374399999998
 11
29.19152299999996
 21
20.82374399999998
 72
     1
 10
29.19152299999996
 20
20.82374399999998
 11
29.19152299999996
 21
19.31990400000001
 97
        0
 92
        0
 93
       86
 72
     1
 10
29.19152299999996
 20
17.75924400000002
 11
29.18522399999995
 21
17.79742900000002
 72
     1
 10
29.18522399999995
 20
17.79742900000002
 11
29.17670399999997
 21
17.83525800000001
 72
     1
 10
29.17670399999997
 20
17.83525800000001
 11
29.16597200000001
 21
17.87256500000001
 72
     1
 10
29.16597200000001
 20
17.87256500000001
 11
29.15304100000003
 21
17.90918399999998
 72
     1
 10
29.15304100000003
 20
17.90918399999998
 11
29.13791900000001
 21
17.94495000000001
 72
     1
 10
29.13791900000001
 20
17.94495000000001
 11
29.12062200000003
 21
17.97972399999998
 72
     1
 10
29.12062200000003
 20
17.97972399999998
 11
29.10124099999996
 21
18.01337000000001
 72
     1
 10
29.10124099999996
 20
18.01337000000001
 11
29.07987100000003
 21
18.04578099999998
 72
     1
 10
29.07987100000003
 20
18.04578099999998
 11
29.05660999999998
 21
18.07684799999998
 72
     1
 10
29.05660999999998
 20
18.07684799999998
 11
29.03155400000003
 21
18.10646400000002
 72
     1
 10
29.03155400000003
 20
18.10646400000002
 11
29.00480800000003
 21
18.13454000000002
 72
     1
 10
29.00480800000003
 20
18.13454000000002
 11
28.97651299999995
 21
18.16105900000002
 72
     1
 10
28.97651299999995
 20
18.16105900000002
 11
28.93149700000004
 21
18.19792000000001
 72
     1
 10
28.93149700000004
 20
18.19792000000001
 11
28.88383899999997
 21
18.23128800000001
 72
     1
 10
28.88383899999997
 20
18.23128800000001
 11
28.817408
 21
18.27025400000002
 72
     1
 10
28.817408
 20
18.27025400000002
 11
28.71259999999995
 21
18.31870500000002
 72
     1
 10
28.71259999999995
 20
18.31870500000002
 11
28.52912600000002
 21
18.38024000000001
 72
     1
 10
28.52912600000002
 20
18.38024000000001
 11
28.34129499999995
 21
18.426807
 72
     1
 10
28.34129499999995
 20
18.426807
 11
28.26536699999997
 21
18.43871999999999
 72
     1
 10
28.26536699999997
 20
18.43871999999999
 11
28.20799199999999
 21
18.44418400000001
 72
     1
 10
28.20799199999999
 20
18.44418400000001
 11
28.15043300000002
 21
18.44618500000001
 72
     1
 10
28.15043300000002
 20
18.44618500000001
 11
28.07320600000003
 21
18.44294100000002
 72
     1
 10
28.07320600000003
 20
18.44294100000002
 11
28.01556000000005
 21
18.43626899999998
 72
     1
 10
28.01556000000005
 20
18.43626899999998
 11
27.95838300000003
 21
18.42625199999998
 72
     1
 10
27.95838300000003
 20
18.42625199999998
 11
27.882791
 21
18.40795000000003
 72
     1
 10
27.882791
 20
18.40795000000003
 11
27.82709299999999
 21
18.39068900000001
 72
     1
 10
27.82709299999999
 20
18.39068900000001
 11
27.77240099999995
 21
18.37047899999999
 72
     1
 10
27.77240099999995
 20
18.37047899999999
 11
27.70162300000004
 21
18.33916399999998
 72
     1
 10
27.70162300000004
 20
18.33916399999998
 11
27.65017599999999
 21
18.31224500000002
 72
     1
 10
27.65017599999999
 20
18.31224500000002
 11
27.60037799999998
 21
18.28230000000002
 72
     1
 10
27.60037799999998
 20
18.28230000000002
 11
27.53744099999994
 21
18.23797999999999
 72
     1
 10
27.53744099999994
 20
18.23797999999999
 11
27.47837200000004
 21
18.18841300000003
 72
     1
 10
27.47837200000004
 20
18.18841300000003
 11
27.42376899999999
 21
18.13377600000001
 72
     1
 10
27.42376899999999
 20
18.13377600000001
 11
27.37423000000001
 21
18.07424700000001
 72
     1
 10
27.37423000000001
 20
18.07424700000001
 11
27.33035300000006
 21
18.01000299999998
 72
     1
 10
27.33035300000006
 20
18.01000299999998
 11
27.29281800000001
 21
17.941394
 72
     1
 10
27.29281800000001
 20
17.941394
 11
27.26252099999999
 21
17.86924599999998
 72
     1
 10
27.26252099999999
 20
17.86924599999998
 11
27.25039600000002
 21
17.832155
 72
     1
 10
27.25039600000002
 20
17.832155
 11
27.24044900000001
 21
17.79455200000001
 72
     1
 10
27.24044900000001
 20
17.79455200000001
 11
27.23280499999998
 21
17.75656099999998
 72
     1
 10
27.23280499999998
 20
17.75656099999998
 11
27.22758599999997
 21
17.71830599999998
 72
     1
 10
27.22758599999997
 20
17.71830599999998
 11
27.224917
 21
17.679912
 72
     1
 10
27.224917
 20
17.679912
 11
27.224919
 21
17.641503
 72
     1
 10
27.224919
 20
17.641503
 11
27.22769300000004
 21
17.60293999999999
 72
     1
 10
27.22769300000004
 20
17.60293999999999
 11
27.23311100000001
 21
17.564618
 72
     1
 10
27.23311100000001
 20
17.564618
 11
27.24098100000003
 21
17.52666699999997
 72
     1
 10
27.24098100000003
 20
17.52666699999997
 11
27.25111400000003
 21
17.489217
 72
     1
 10
27.25111400000003
 20
17.489217
 11
27.26331800000003
 21
17.45240000000001
 72
     1
 10
27.26331800000003
 20
17.45240000000001
 11
27.29364499999997
 21
17.380425
 72
     1
 10
27.29364499999997
 20
17.380425
 11
27.32104800000002
 21
17.32870600000001
 72
     1
 10
27.32104800000002
 20
17.32870600000001
 11
27.35215400000004
 21
17.27909999999997
 72
     1
 10
27.35215400000004
 20
17.27909999999997
 11
27.39858600000002
 21
17.21711299999998
 72
     1
 10
27.39858600000002
 20
17.21711299999998
 11
27.43723499999999
 21
17.17377199999999
 72
     1
 10
27.43723499999999
 20
17.17377199999999
 11
27.47906599999999
 21
17.133554
 72
     1
 10
27.47906599999999
 20
17.133554
 11
27.53918599999997
 21
17.085487
 72
     1
 10
27.53918599999997
 20
17.085487
 11
27.58721200000002
 21
17.05335500000001
 72
     1
 10
27.58721200000002
 20
17.05335500000001
 11
27.63725699999998
 21
17.02448099999998
 72
     1
 10
27.63725699999998
 20
17.02448099999998
 11
27.70704799999999
 21
16.99051900000001
 72
     1
 10
27.70704799999999
 20
16.99051900000001
 11
27.81564800000001
 21
16.94858099999999
 72
     1
 10
27.81564800000001
 20
16.94858099999999
 11
27.88966300000004
 21
16.92569900000001
 72
     1
 10
27.88966300000004
 20
16.92569900000001
 11
28.00273800000002
 21
16.89916799999997
 72
     1
 10
28.00273800000002
 20
16.89916799999997
 11
28.07891399999994
 21
16.88724500000001
 72
     1
 10
28.07891399999994
 20
16.88724500000001
 11
28.19419900000003
 21
16.878646
 72
     1
 10
28.19419900000003
 20
16.878646
 11
28.27146300000004
 21
16.87950899999998
 72
     1
 10
28.27146300000004
 20
16.87950899999998
 11
28.38690199999996
 21
16.89089999999999
 72
     1
 10
28.38690199999996
 20
16.89089999999999
 11
28.46279000000004
 21
16.90512699999999
 72
     1
 10
28.46279000000004
 20
16.90512699999999
 11
28.53763100000003
 21
16.924554
 72
     1
 10
28.53763100000003
 20
16.924554
 11
28.61100199999998
 21
16.94904700000001
 72
     1
 10
28.61100199999998
 20
16.94904700000001
 11
28.68247699999995
 21
16.97847300000001
 72
     1
 10
28.68247699999995
 20
16.97847300000001
 11
28.75163399999997
 21
17.012698
 72
     1
 10
28.75163399999997
 20
17.012698
 11
28.81849899999997
 21
17.05184600000001
 72
     1
 10
28.81849899999997
 20
17.05184600000001
 11
28.91321000000005
 21
17.11912599999999
 72
     1
 10
28.91321000000005
 20
17.11912599999999
 11
28.97214599999995
 21
17.16959900000001
 72
     1
 10
28.97214599999995
 20
17.16959900000001
 11
29.01332500000001
 21
17.21066400000001
 72
     1
 10
29.01332500000001
 20
17.21066400000001
 11
29.051197
 21
17.25474100000002
 72
     1
 10
29.051197
 20
17.25474100000002
 11
29.07423700000004
 21
17.28578199999998
 72
     1
 10
29.07423700000004
 20
17.28578199999998
 11
29.09545000000003
 21
17.31814100000003
 72
     1
 10
29.09545000000003
 20
17.31814100000003
 11
29.11475199999995
 21
17.35170099999999
 72
     1
 10
29.11475199999995
 20
17.35170099999999
 11
29.13206000000002
 21
17.38634400000001
 72
     1
 10
29.13206000000002
 20
17.38634400000001
 11
29.147289
 21
17.42195400000003
 72
     1
 10
29.147289
 20
17.42195400000003
 11
29.16041099999995
 21
17.45852500000001
 72
     1
 10
29.16041099999995
 20
17.45852500000001
 11
29.17137700000001
 21
17.49579699999998
 72
     1
 10
29.17137700000001
 20
17.49579699999998
 11
29.180205
 21
17.53361899999999
 72
     1
 10
29.180205
 20
17.53361899999999
 11
29.186914
 21
17.57183500000002
 72
     1
 10
29.186914
 20
17.57183500000002
 11
29.19152299999996
 21
17.61029400000001
 72
     1
 10
29.19152299999996
 20
17.61029400000001
 11
29.19152299999996
 21
17.75924400000002
 97
        0
 75
     0
 76
     2
 52
0.0
 41
0.062992
 77
     0
 78
     1
 53
44.99999999988837
 43
0.0
 44
0.0
 45
-3.592095212307267
 46
3.592095212321264
 79
     0
 98
        0
  0
HATCH
  5
CB
330
1F
100
AcDbEntity
  8
CARTOUCHE
  6
CONTINUOUS
 62
     4
100
AcDbHatch
 10
0.0
 20
0.0
 30
0.0
210
0.0
220
0.0
230
1.0
  2
ANSI_31
 70
     0
 71
     0
 91
        2
 92
        1
 93
      122
 72
     1
 10
34.05107299999997
 20
17.24444399999999
 11
34.15412300000003
 21
17.24444399999999
 72
     1
 10
34.15412300000003
 20
17.24444399999999
 11
37.20692299999996
 21
17.25614400000001
 72
     1
 10
37.20692299999996
 20
17.25614400000001
 11
37.23237800000004
 21
17.36584699999997
 72
     1
 10
37.23237800000004
 20
17.36584699999997
 11
37.245048
 21
17.44946199999998
 72
     1
 10
37.245048
 20
17.44946199999998
 11
37.25187400000004
 21
17.533703
 72
     1
 10
37.25187400000004
 20
17.533703
 11
37.25173500000005
 21
17.64696900000001
 72
     1
 10
37.25173500000005
 20
17.64696900000001
 11
37.23470999999995
 21
17.81609600000002
 72
     1
 10
37.23470999999995
 20
17.81609600000002
 11
37.20846500000005
 21
17.95621299999999
 72
     1
 10
37.20846500000005
 20
17.95621299999999
 11
37.17357900000002
 21
18.09436799999997
 72
     1
 10
37.17357900000002
 20
18.09436799999997
 11
37.13179500000001
 21
18.22914600000001
 72
     1
 10
37.13179500000001
 20
18.22914600000001
 11
37.08234200000004
 21
18.36142100000001
 72
     1
 10
37.08234200000004
 20
18.36142100000001
 11
37.03686200000004
 21
18.46471600000001
 72
     1
 10
37.03686200000004
 20
18.46471600000001
 11
36.985861
 21
18.56553500000001
 72
     1
 10
36.985861
 20
18.56553500000001
 11
36.92927999999995
 21
18.66332299999999
 72
     1
 10
36.92927999999995
 20
18.66332299999999
 11
36.86706100000004
 21
18.75752699999998
 72
     1
 10
36.86706100000004
 20
18.75752699999998
 11
36.79914499999995
 21
18.84759500000001
 72
     1
 10
36.79914499999995
 20
18.84759500000001
 11
36.72552399999995
 21
18.93313000000001
 72
     1
 10
36.72552399999995
 20
18.93313000000001
 11
36.64671899999996
 21
19.014004
 72
     1
 10
36.64671899999996
 20
19.014004
 11
36.563309
 21
19.09025500000001
 72
     1
 10
36.563309
 20
19.09025500000001
 11
36.384996
 21
19.22902599999998
 72
     1
 10
36.384996
 20
19.22902599999998
 11
36.26698599999997
 21
19.30660499999999
 72
     1
 10
36.26698599999997
 20
19.30660499999999
 11
36.14445000000001
 21
19.376442
 72
     1
 10
36.14445000000001
 20
19.376442
 11
36.01771899999994
 21
19.43798600000002
 72
     1
 10
36.01771899999994
 20
19.43798600000002
 11
35.88739599999997
 21
19.491649
 72
     1
 10
35.88739599999997
 20
19.491649
 11
35.61887200000001
 21
19.578734
 72
     1
 10
35.61887200000001
 20
19.578734
 11
35.344652
 21
19.64564899999999
 72
     1
 10
35.344652
 20
19.64564899999999
 11
35.06700499999999
 21
19.69362999999998
 72
     1
 10
35.06700499999999
 20
19.69362999999998
 11
34.78677800000003
 21
19.72351500000002
 72
     1
 10
34.78677800000003
 20
19.72351500000002
 11
34.22285499999998
 21
19.73587400000002
 72
     1
 10
34.22285499999998
 20
19.73587400000002
 11
33.66058599999997
 21
19.69579499999998
 72
     1
 10
33.66058599999997
 20
19.69579499999998
 11
33.38229999999999
 21
19.651139
 72
     1
 10
33.38229999999999
 20
19.651139
 11
33.10728300000005
 21
19.5883
 72
     1
 10
33.10728300000005
 20
19.5883
 11
32.89059299999997
 21
19.52408000000003
 72
     1
 10
32.89059299999997
 20
19.52408000000003
 11
32.73158599999999
 21
19.46569699999998
 72
     1
 10
32.73158599999999
 20
19.46569699999998
 11
32.57691
 21
19.39662499999997
 72
     1
 10
32.57691
 20
19.39662499999997
 11
32.47700599999996
 21
19.34397899999999
 72
     1
 10
32.47700599999996
 20
19.34397899999999
 11
32.38006700000005
 21
19.28586300000001
 72
     1
 10
32.38006700000005
 20
19.28586300000001
 11
32.28661299999999
 21
19.222306
 72
     1
 10
32.28661299999999
 20
19.222306
 11
32.19716500000004
 21
19.15334000000001
 72
     1
 10
32.19716500000004
 20
19.15334000000001
 11
32.11224300000003
 21
19.07899500000002
 72
     1
 10
32.11224300000003
 20
19.07899500000002
 11
32.03232000000003
 21
18.999414
 72
     1
 10
32.03232000000003
 20
18.999414
 11
31.95746899999995
 21
18.91497400000003
 72
     1
 10
31.95746899999995
 20
18.91497400000003
 11
31.88772300000005
 21
18.82616400000001
 72
     1
 10
31.88772300000005
 20
18.82616400000001
 11
31.82311300000003
 21
18.73346900000001
 72
     1
 10
31.82311300000003
 20
18.73346900000001
 11
31.76366900000005
 21
18.63737500000002
 72
     1
 10
31.76366900000005
 20
18.63737500000002
 11
31.66049099999998
 21
18.43648899999999
 72
     1
 10
31.66049099999998
 20
18.43648899999999
 11
31.61706100000004
 21
18.33229899999998
 72
     1
 10
31.61706100000004
 20
18.33229899999998
 11
31.57925699999998
 21
18.22594300000003
 72
     1
 10
31.57925699999998
 20
18.22594300000003
 11
31.54722200000003
 21
18.11767400000002
 72
     1
 10
31.54722200000003
 20
18.11767400000002
 11
31.52110400000004
 21
18.00779
 72
     1
 10
31.52110400000004
 20
18.00779
 11
31.50105099999996
 21
17.896613
 72
     1
 10
31.50105099999996
 20
17.896613
 11
31.48722299999997
 21
17.78451200000001
 72
     1
 10
31.48722299999997
 20
17.78451200000001
 11
31.47977800000001
 21
17.67185599999999
 72
     1
 10
31.47977800000001
 20
17.67185599999999
 11
31.47887600000001
 21
17.55901399999999
 72
     1
 10
31.47887600000001
 20
17.55901399999999
 11
31.48475800000006
 21
17.44607200000002
 72
     1
 10
31.48475800000006
 20
17.44607200000002
 11
31.50730299999998
 21
17.27824299999997
 72
     1
 10
31.50730299999998
 20
17.27824299999997
 11
31.53184199999998
 21
17.168363
 72
     1
 10
31.53184199999998
 20
17.168363
 11
31.58066099999996
 21
17.00635399999999
 72
     1
 10
31.58066099999996
 20
17.00635399999999
 11
31.66317600000002
 21
16.79605099999998
 72
     1
 10
31.66317600000002
 20
16.79605099999998
 11
31.73810200000003
 21
16.64424300000002
 72
     1
 10
31.73810200000003
 20
16.64424300000002
 11
31.82487600000002
 21
16.49928499999999
 72
     1
 10
31.82487600000002
 20
16.49928499999999
 11
31.906565
 21
16.38422000000003
 72
     1
 10
31.906565
 20
16.38422000000003
 11
31.99507500000004
 21
16.274114
 72
     1
 10
31.99507500000004
 20
16.274114
 11
32.069976
 21
16.189232
 72
     1
 10
32.069976
 20
16.189232
 11
32.19090600000004
 21
16.07040799999999
 72
     1
 10
32.19090600000004
 20
16.07040799999999
 11
32.27814000000001
 21
15.99937299999999
 72
     1
 10
32.27814000000001
 20
15.99937299999999
 11
32.41820700000005
 21
15.90511500000002
 72
     1
 10
32.41820700000005
 20
15.90511500000002
 11
32.54199200000005
 21
15.83675699999998
 72
     1
 10
32.54199200000005
 20
15.83675699999998
 11
32.66963099999998
 21
15.77567299999998
 72
     1
 10
32.66963099999998
 20
15.77567299999998
 11
32.87800800000002
 21
15.68845699999997
 72
     1
 10
32.87800800000002
 20
15.68845699999997
 11
33.19960600000002
 21
15.58288099999999
 72
     1
 10
33.19960600000002
 20
15.58288099999999
 11
33.41901499999994
 21
15.53133800000001
 72
     1
 10
33.41901499999994
 20
15.53133800000001
 11
33.753153
 21
15.47783800000002
 72
     1
 10
33.753153
 20
15.47783800000002
 11
34.03387999999995
 21
15.450243
 72
     1
 10
34.03387999999995
 20
15.450243
 11
34.31548199999997
 21
15.43816199999998
 72
     1
 10
34.31548199999997
 20
15.43816199999998
 11
34.87832400000002
 21
15.461635
 72
     1
 10
34.87832400000002
 20
15.461635
 11
35.15919199999996
 21
15.49446799999998
 72
     1
 10
35.15919199999996
 20
15.49446799999998
 11
35.43780400000003
 21
15.54223500000001
 72
     1
 10
35.43780400000003
 20
15.54223500000001
 11
35.71211800000003
 21
15.60834399999999
 72
     1
 10
35.71211800000003
 20
15.60834399999999
 11
35.97822199999996
 21
15.69993399999998
 72
     1
 10
35.97822199999996
 20
15.69993399999998
 11
36.23556399999995
 21
15.81532399999998
 72
     1
 10
36.23556399999995
 20
15.81532399999998
 11
36.36129900000003
 21
15.879186
 72
     1
 10
36.36129900000003
 20
15.879186
 11
36.48298
 21
15.950245
 72
     1
 10
36.48298
 20
15.950245
 11
36.57561799999996
 21
16.01478200000003
 72
     1
 10
36.57561799999996
 20
16.01478200000003
 11
36.64162099999999
 21
16.06789500000002
 72
     1
 10
36.64162099999999
 20
16.06789500000002
 11
36.70417599999996
 21
16.12494700000002
 72
     1
 10
36.70417599999996
 20
16.12494700000002
 11
36.78170999999998
 21
16.20681500000001
 72
     1
 10
36.78170999999998
 20
16.20681500000001
 11
36.88612499999999
 21
16.34008899999998
 72
     1
 10
36.88612499999999
 20
16.34008899999998
 11
36.94806800000003
 21
16.43459300000001
 72
     1
 10
36.94806800000003
 20
16.43459300000001
 11
36.98954600000002
 21
16.50838599999997
 72
     1
 10
36.98954600000002
 20
16.50838599999997
 11
37.02580999999998
 21
16.58482800000002
 72
     1
 10
37.02580999999998
 20
16.58482800000002
 11
37.06495300000006
 21
16.69080600000001
 72
     1
 10
37.06495300000006
 20
16.69080600000001
 11
37.08735000000001
 21
16.77260000000001
 72
     1
 10
37.08735000000001
 20
16.77260000000001
 11
37.10387300000002
 21
16.85564399999998
 72
     1
 10
37.10387300000002
 20
16.85564399999998
 11
35.34302300000002
 21
16.85564399999998
 72
     1
 10
35.34302300000002
 20
16.85564399999998
 11
35.23476000000005
 21
16.77513900000002
 72
     1
 10
35.23476000000005
 20
16.77513900000002
 11
35.14934200000005
 21
16.72065500000002
 72
     1
 10
35.14934200000005
 20
16.72065500000002
 11
35.06077600000003
 21
16.67143299999998
 72
     1
 10
35.06077600000003
 20
16.67143299999998
 11
34.98475800000006
 21
16.634773
 72
     1
 10
34.98475800000006
 20
16.634773
 11
34.90657599999997
 21
16.60330699999997
 72
     1
 10
34.90657599999997
 20
16.60330699999997
 11
34.84227699999997
 21
16.58263499999998
 72
     1
 10
34.84227699999997
 20
16.58263499999998
 11
34.743651
 21
16.55908799999997
 72
     1
 10
34.743651
 20
16.55908799999997
 11
34.60933699999998
 21
16.54053599999997
 72
     1
 10
34.60933699999998
 20
16.54053599999997
 11
34.50763900000004
 21
16.53565600000002
 72
     1
 10
34.50763900000004
 20
16.53565600000002
 11
34.40580899999998
 21
16.537981
 72
     1
 10
34.40580899999998
 20
16.537981
 11
34.27139199999999
 21
16.55149599999999
 72
     1
 10
34.27139199999999
 20
16.55149599999999
 11
34.17168100000004
 21
16.569188
 72
     1
 10
34.17168100000004
 20
16.569188
 11
34.07332900000006
 21
16.593186
 72
     1
 10
34.07332900000006
 20
16.593186
 11
33.944884
 21
16.63503700000001
 72
     1
 10
33.944884
 20
16.63503700000001
 11
33.85139500000002
 21
16.67430100000001
 72
     1
 10
33.85139500000002
 20
16.67430100000001
 11
33.76098100000002
 21
16.72084599999999
 72
     1
 10
33.76098100000002
 20
16.72084599999999
 11
33.70284000000004
 21
16.75614000000002
 72
     1
 10
33.70284000000004
 20
16.75614000000002
 11
33.64707699999997
 21
16.79510399999998
 72
     1
 10
33.64707699999997
 20
16.79510399999998
 11
33.59445000000005
 21
16.83796699999999
 72
     1
 10
33.59445000000005
 20
16.83796699999999
 11
33.54571899999996
 21
16.88495599999999
 72
     1
 10
33.54571899999996
 20
16.88495599999999
 11
33.50164199999995
 21
16.93630000000002
 72
     1
 10
33.50164199999995
 20
16.93630000000002
 11
33.46287700000005
 21
16.99205000000001
 72
     1
 10
33.46287700000005
 20
16.99205000000001
 11
33.42966899999999
 21
17.05156199999999
 72
     1
 10
33.42966899999999
 20
17.05156199999999
 11
33.40216099999998
 21
17.114013
 72
     1
 10
33.40216099999998
 20
17.114013
 11
33.38049799999999
 21
17.17858100000001
 72
     1
 10
33.38049799999999
 20
17.17858100000001
 11
33.364823
 21
17.24444399999999
 72
     1
 10
33.364823
 20
17.24444399999999
 11
34.05107299999997
 21
17.24444399999999
 97
        0
 92
        0
 93
       43
 72
     1
 10
33.364823
 20
18.07919400000003
 11
34.15412300000003
 21
18.07919400000003
 72
     1
 10
34.15412300000003
 20
18.07919400000003
 11
35.34302300000002
 21
18.07919400000003
 72
     1
 10
35.34302300000002
 20
18.07919400000003
 11
35.33909900000003
 21
18.11641600000002
 72
     1
 10
35.33909900000003
 20
18.11641600000002
 11
35.33300199999996
 21
18.15343100000001
 72
     1
 10
35.33300199999996
 20
18.15343100000001
 11
35.32469200000003
 21
18.19004899999999
 72
     1
 10
35.32469200000003
 20
18.19004899999999
 11
35.31413199999997
 21
18.22607800000003
 72
     1
 10
35.31413199999997
 20
18.22607800000003
 11
35.30128500000001
 21
18.26132899999999
 72
     1
 10
35.30128500000001
 20
18.26132899999999
 11
35.28615600000001
 21
18.29560600000002
 72
     1
 10
35.28615600000001
 20
18.29560600000002
 11
35.26886400000001
 21
18.328846
 72
     1
 10
35.26886400000001
 20
18.328846
 11
35.24956699999996
 21
18.36098199999998
 72
     1
 10
35.24956699999996
 20
18.36098199999998
 11
35.22842500000002
 21
18.39194400000002
 72
     1
 10
35.22842500000002
 20
18.39194400000002
 11
35.20559500000002
 21
18.42166400000002
 72
     1
 10
35.20559500000002
 20
18.42166400000002
 11
35.15515800000003
 21
18.47753399999999
 72
     1
 10
35.15515800000003
 20
18.47753399999999
 11
35.11388799999997
 21
18.51605899999998
 72
     1
 10
35.11388799999997
 20
18.51605899999998
 11
35.07014900000001
 21
18.55176799999998
 72
     1
 10
35.07014900000001
 20
18.55176799999998
 11
35.00889700000005
 21
18.59493600000002
 72
     1
 10
35.00889700000005
 20
18.59493600000002
 11
34.96089400000005
 21
18.624144
 72
     1
 10
34.96089400000005
 20
18.624144
 11
34.91135099999997
 21
18.650643
 72
     1
 10
34.91135099999997
 20
18.650643
 11
34.84321299999999
 21
18.681802
 72
     1
 10
34.84321299999999
 20
18.681802
 11
34.73746300000005
 21
18.71981099999999
 72
     1
 10
34.73746300000005
 20
18.71981099999999
 11
34.66503399999999
 21
18.73954600000002
 72
     1
 10
34.66503399999999
 20
18.73954600000002
 11
34.55447500000002
 21
18.760807
 72
     1
 10
34.55447500000002
 20
18.760807
 11
34.47958200000005
 21
18.76953400000002
 72
     1
 10
34.47958200000005
 20
18.76953400000002
 11
34.36667799999998
 21
18.77476999999999
 72
     1
 10
34.36667799999998
 20
18.77476999999999
 11
34.29122900000004
 21
18.77322600000002
 72
     1
 10
34.29122900000004
 20
18.77322600000002
 11
34.17824399999995
 21
18.76280200000002
 72
     1
 10
34.17824399999995
 20
18.76280200000002
 11
34.10438799999997
 21
18.74982399999999
 72
     1
 10
34.10438799999997
 20
18.74982399999999
 11
34.068085
 21
18.74084699999997
 72
     1
 10
34.068085
 20
18.74084699999997
 11
34.03251399999999
 21
18.72981099999998
 72
     1
 10
34.03251399999999
 20
18.72981099999998
 11
33.99791200000004
 21
18.71641799999998
 72
     1
 10
33.99791200000004
 20
18.71641799999998
 11
33.96434399999998
 21
18.70050800000001
 72
     1
 10
33.96434399999998
 20
18.70050800000001
 11
33.83484299999998
 21
18.62568099999999
 72
     1
 10
33.83484299999998
 20
18.62568099999999
 11
33.67159400000003
 21
18.53558099999998
 72
     1
 10
33.67159400000003
 20
18.53558099999998
 11
33.64097600000002
 21
18.51416
 72
     1
 10
33.64097600000002
 20
18.51416
 11
33.611625
 21
18.49088
 72
     1
 10
33.611625
 20
18.49088
 11
33.58359099999996
 21
18.46591100000001
 72
     1
 10
33.58359099999996
 20
18.46591100000001
 11
33.53168100000005
 21
18.41158999999999
 72
     1
 10
33.53168100000005
 20
18.41158999999999
 11
33.48534099999995
 21
18.35202500000003
 72
     1
 10
33.48534099999995
 20
18.35202500000003
 11
33.45462099999997
 21
18.304551
 72
     1
 10
33.45462099999997
 20
18.304551
 11
33.427457
 21
18.254932
 72
     1
 10
33.427457
 20
18.254932
 11
33.3972
 21
18.18647299999998
 72
     1
 10
33.3972
 20
18.18647299999998
 11
33.37897999999996
 21
18.13339500000001
 72
     1
 10
33.37897999999996
 20
18.13339500000001
 11
33.364823
 21
18.07919400000003
 97
        0
 75
     0
 76
     2
 52
0.0
 41
0.062992
 77
     0
 78
     1
 53
44.99999999988837
 43
0.0
 44
0.0
 45
-3.592095212307267
 46
3.592095212321264
 79
     0
 98
        0
  0
HATCH
  5
CC
330
1F
100
AcDbEntity
  8
CARTOUCHE
  6
CONTINUOUS
 62
     4
100
AcDbHatch
 10
0.0
 20
0.0
 30
0.0
210
0.0
220
0.0
230
1.0
  2
ANSI_31
 70
     0
 71
     0
 91
        1
 92
        1
 93
       78
 72
     1
 10
37.73297300000002
 20
19.50839400000001
 11
37.73297300000002
 21
15.632094
 72
     1
 10
37.73297300000002
 20
15.632094
 11
39.45962299999997
 21
15.632094
 72
     1
 10
39.45962299999997
 20
15.632094
 11
39.45962299999997
 21
17.782194
 72
     1
 10
39.45962299999997
 20
17.782194
 11
39.46348799999998
 21
17.82556299999999
 72
     1
 10
39.46348799999998
 20
17.82556299999999
 11
39.47094600000003
 21
17.86858599999999
 72
     1
 10
39.47094600000003
 20
17.86858599999999
 11
39.48187900000005
 21
17.91099100000002
 72
     1
 10
39.48187900000005
 20
17.91099100000002
 11
39.496172
 21
17.95250399999998
 72
     1
 10
39.496172
 20
17.95250399999998
 11
39.51370699999995
 21
17.99285099999997
 72
     1
 10
39.51370699999995
 20
17.99285099999997
 11
39.53438600000004
 21
18.03175499999998
 72
     1
 10
39.53438600000004
 20
18.03175499999998
 11
39.55812200000003
 21
18.06881399999997
 72
     1
 10
39.55812200000003
 20
18.06881399999997
 11
39.58484099999998
 21
18.10362400000002
 72
     1
 10
39.58484099999998
 20
18.10362400000002
 11
39.61447299999998
 21
18.13578000000001
 72
     1
 10
39.61447299999998
 20
18.13578000000001
 11
39.64694299999996
 21
18.16487799999999
 72
     1
 10
39.64694299999996
 20
18.16487799999999
 11
39.68210899999997
 21
18.19058699999999
 72
     1
 10
39.68210899999997
 20
18.19058699999999
 11
39.71962599999995
 21
18.21293300000002
 72
     1
 10
39.71962599999995
 20
18.21293300000002
 11
39.75908300000003
 21
18.232012
 72
     1
 10
39.75908300000003
 20
18.232012
 11
39.80006700000001
 21
18.24792000000002
 72
     1
 10
39.80006700000001
 20
18.24792000000002
 11
39.84216600000002
 21
18.26075500000002
 72
     1
 10
39.84216600000002
 20
18.26075500000002
 11
39.88545499999998
 21
18.27065499999998
 72
     1
 10
39.88545499999998
 20
18.27065499999998
 11
39.92924100000005
 21
18.27734399999997
 72
     1
 10
39.92924100000005
 20
18.27734399999997
 11
39.97330699999998
 21
18.28064899999998
 72
     1
 10
39.97330699999998
 20
18.28064899999998
 11
40.01743299999998
 21
18.28040099999998
 72
     1
 10
40.01743299999998
 20
18.28040099999998
 11
40.06139900000005
 21
18.27642800000001
 72
     1
 10
40.06139900000005
 20
18.27642800000001
 11
40.10431900000003
 21
18.26873599999999
 72
     1
 10
40.10431900000003
 20
18.26873599999999
 11
40.14647100000002
 21
18.257294
 72
     1
 10
40.14647100000002
 20
18.257294
 11
40.187456
 21
18.24213600000002
 72
     1
 10
40.187456
 20
18.24213600000002
 11
40.22687299999996
 21
18.22329300000001
 72
     1
 10
40.22687299999996
 20
18.22329300000001
 11
40.264321
 21
18.20079700000002
 72
     1
 10
40.264321
 20
18.20079700000002
 11
40.29950399999996
 21
18.17464200000001
 72
     1
 10
40.29950399999996
 20
18.17464200000001
 11
40.33194700000001
 21
18.14511900000002
 72
     1
 10
40.33194700000001
 20
18.14511900000002
 11
40.36129100000005
 21
18.11249900000001
 72
     1
 10
40.36129100000005
 20
18.11249900000001
 11
40.38718100000006
 21
18.07705399999998
 72
     1
 10
40.38718100000006
 20
18.07705399999998
 11
40.40925700000003
 21
18.03905600000002
 72
     1
 10
40.40925700000003
 20
18.03905600000002
 11
40.42712900000004
 21
17.999011
 72
     1
 10
40.42712900000004
 20
17.999011
 11
40.44073200000003
 21
17.95727699999998
 72
     1
 10
40.44073200000003
 20
17.95727699999998
 11
40.44992999999999
 21
17.914423
 72
     1
 10
40.44992999999999
 20
17.914423
 11
40.45458899999994
 21
17.87102199999998
 72
     1
 10
40.45458899999994
 20
17.87102199999998
 11
40.45517399999994
 21
17.84929399999999
 72
     1
 10
40.45517399999994
 20
17.84929399999999
 11
40.45457299999998
 21
17.82764400000002
 72
     1
 10
40.45457299999998
 20
17.82764400000002
 11
40.45457299999998
 21
17.58779399999997
 72
     1
 10
40.45457299999998
 20
17.58779399999997
 11
42.28382299999998
 21
17.58779399999997
 72
     1
 10
42.28382299999998
 20
17.58779399999997
 11
42.30047999999999
 21
17.74190099999998
 72
     1
 10
42.30047999999999
 20
17.74190099999998
 11
42.30803400000002
 21
17.89676400000002
 72
     1
 10
42.30803400000002
 20
17.89676400000002
 11
42.30622300000005
 21
18.05192099999999
 72
     1
 10
42.30622300000005
 20
18.05192099999999
 11
42.29564800000003
 21
18.20671600000003
 72
     1
 10
42.29564800000003
 20
18.20671600000003
 11
42.27690800000005
 21
18.360972
 72
     1
 10
42.27690800000005
 20
18.360972
 11
42.24990000000003
 21
18.51409699999999
 72
     1
 10
42.24990000000003
 20
18.51409699999999
 11
42.22187399999996
 21
18.63507199999998
 72
     1
 10
42.22187399999996
 20
18.63507199999998
 11
42.19592
 21
18.724445
 72
     1
 10
42.19592
 20
18.724445
 11
42.16467999999998
 21
18.812049
 72
     1
 10
42.16467999999998
 20
18.812049
 11
42.11349900000005
 21
18.92525000000001
 72
     1
 10
42.11349900000005
 20
18.92525000000001
 11
42.06786699999998
 21
19.00661500000001
 72
     1
 10
42.06786699999998
 20
19.00661500000001
 11
42.01605700000005
 21
19.08429999999998
 72
     1
 10
42.01605700000005
 20
19.08429999999998
 11
41.97801800000002
 21
19.133848
 72
     1
 10
41.97801800000002
 20
19.133848
 11
41.93728699999997
 21
19.18120800000003
 72
     1
 10
41.93728699999997
 20
19.18120800000003
 11
41.89391699999999
 21
19.22609699999998
 72
     1
 10
41.89391699999999
 20
19.22609699999998
 11
41.84796300000005
 21
19.26823000000002
 72
     1
 10
41.84796300000005
 20
19.26823000000002
 11
41.79947600000003
 21
19.30732599999999
 72
     1
 10
41.79947600000003
 20
19.30732599999999
 11
41.74884699999996
 21
19.34298100000001
 72
     1
 10
41.74884699999996
 20
19.34298100000001
 11
41.69608700000003
 21
19.375497
 72
     1
 10
41.69608700000003
 20
19.375497
 11
41.61365699999999
 21
19.41870299999999
 72
     1
 10
41.61365699999999
 20
19.41870299999999
 11
41.52824199999998
 21
19.45566400000001
 72
     1
 10
41.52824199999998
 20
19.45566400000001
 11
41.41028500000004
 21
19.496534
 72
     1
 10
41.41028500000004
 20
19.496534
 11
41.22888
 21
19.54287199999999
 72
     1
 10
41.22888
 20
19.54287199999999
 11
41.10697100000004
 21
19.56607500000001
 72
     1
 10
41.10697100000004
 20
19.56607500000001
 11
40.92238599999996
 21
19.58782100000002
 72
     1
 10
40.92238599999996
 20
19.58782100000002
 11
40.79850399999998
 21
19.59181599999999
 72
     1
 10
40.79850399999998
 20
19.59181599999999
 11
40.61256800000001
 21
19.58370300000001
 72
     1
 10
40.61256800000001
 20
19.58370300000001
 11
40.45792600000004
 21
19.56627400000002
 72
     1
 10
40.45792600000004
 20
19.56627400000002
 11
40.30471599999998
 21
19.53948200000002
 72
     1
 10
40.30471599999998
 20
19.53948200000002
 11
40.18380500000001
 21
19.51113500000002
 72
     1
 10
40.18380500000001
 20
19.51113500000002
 11
40.00579900000002
 21
19.45603
 72
     1
 10
40.00579900000002
 20
19.45603
 11
39.89043400000003
 21
19.41051800000002
 72
     1
 10
39.89043400000003
 20
19.41051800000002
 11
39.77781700000003
 21
19.35819800000002
 72
     1
 10
39.77781700000003
 20
19.35819800000002
 11
39.66826400000002
 21
19.29957999999999
 72
     1
 10
39.66826400000002
 20
19.29957999999999
 11
39.45962299999997
 21
19.16549400000002
 72
     1
 10
39.45962299999997
 20
19.16549400000002
 11
39.45962299999997
 21
19.50839400000001
 72
     1
 10
39.45962299999997
 20
19.50839400000001
 11
37.73297300000002
 21
19.50839400000001
 97
        0
 75
     0
 76
     2
 52
0.0
 41
0.062992
 77
     0
 78
     1
 53
44.99999999988837
 43
0.0
 44
0.0
 45
-3.592095212307267
 46
3.592095212321264
 79
     0
 98
        0
  0
LINE
  5
CD
330
1F
100
AcDbEntity
  8
CARTOUCHE
  6
CONTINUOUS
 62
     7
100
AcDbLine
 10
200.000037
 20
31.845156
 30
0.0
 11
0.0
 21
31.845462
 31
0.0
  0
LINE
  5
CE
330
1F
100
AcDbEntity
  8
CARTOUCHE
  6
CONTINUOUS
 62
     7
100
AcDbLine
 10
148.33333
 20
15.002887
 30
0.0
 11
148.33333
 21
5.000945
 31
0.0
  0
TEXT
  5
CF
330
1F
100
AcDbEntity
  8
CARTOUCHE
  6
CONTINUOUS
 62
     2
100
AcDbText
 10
11.190943
 20
9.308782
 30
0.0
 40
1.8
  1
www.findernet.com
 50
359.999908
 41
0.73
  7
FINDER
100
AcDbText
  0
TEXT
  5
D0
330
1F
100
AcDbEntity
  8
CARTOUCHE
  6
CONTINUOUS
 62
     7
100
AcDbText
 10
119.919563
 20
11.624226
 30
0.0
 40
1.8
  1
DATE
 50
359.999908
 41
0.61
  7
FINDER
100
AcDbText
  0
TEXT
  5
D1
330
1F
100
AcDbEntity
  8
CARTOUCHE
  6
CONTINUOUS
 62
     1
100
AcDbText
 10
118.146904
 20
6.776208
 30
0.0
 40
2.1
  1
16/06/11
 50
359.999908
 41
0.65
  7
FINDER
100
AcDbText
  0
TEXT
  5
D2
330
1F
100
AcDbEntity
  8
CARTOUCHE
  6
CONTINUOUS
 62
     7
100
AcDbText
 10
170.877045
 20
11.624147
 30
0.0
 40
1.8
  1
SCALE
 50
359.999908
 41
0.6
  7
FINDER
100
AcDbText
  0
TEXT
  5
D3
330
1F
100
AcDbEntity
  8
CARTOUCHE
  6
CONTINUOUS
 62
     1
100
AcDbText
 10
172.623032
 20
6.776122
 30
0.0
 40
2.1
  1
1:1
 50
359.999908
 41
1.24
  7
FINDER
100
AcDbText
  0
TEXT
  5
D4
330
1F
100
AcDbEntity
  8
CARTOUCHE
  6
CONTINUOUS
 62
     1
100
AcDbText
 10
116.142029
 20
17.592018
 30
0.0
 40
3.0
  1
78.50-60
 50
359.999908
 41
0.61
  7
FINDER
100
AcDbText
  0
LINE
  5
D5
330
1F
100
AcDbEntity
  8
0
  6
CONTINUOUS
 62
     6
100
AcDbLine
 10
167.781697
 20
178.180606
 30
0.0
 11
167.781697
 21
178.380606
 31
0.0
  0
LINE
  5
D6
330
1F
100
AcDbEntity
  8
0
  6
CONTINUOUS
 62
     6
100
AcDbLine
 10
167.781697
 20
176.380606
 30
0.0
 11
167.781697
 21
178.180606
 31
0.0
  0
LINE
  5
D7
330
1F
100
AcDbEntity
  8
0
  6
CONTINUOUS
 62
     6
100
AcDbLine
 10
167.781697
 20
133.580606
 30
0.0
 11
167.781697
 21
135.380606
 31
0.0
  0
LINE
  5
D8
330
1F
100
AcDbEntity
  8
0
  6
CONTINUOUS
 62
     6
100
AcDbLine
 10
167.781697
 20
133.580606
 30
0.0
 11
167.781697
 21
133.380606
 31
0.0
  0
LINE
  5
D9
330
1F
100
AcDbEntity
  8
0
  6
CONTINUOUS
 62
     4
100
AcDbLine
 10
168.781697
 20
178.380606
 30
0.0
 11
167.781697
 21
178.380606
 31
0.0
  0
LINE
  5
DA
330
1F
100
AcDbEntity
  8
0
  6
CONTINUOUS
 62
     4
100
AcDbLine
 10
167.781697
 20
133.380606
 30
0.0
 11
168.781697
 21
133.380606
 31
0.0
  0
ARC
  5
DB
330
1F
100
AcDbEntity
  8
0
  6
CONTINUOUS
 62
     4
100
AcDbCircle
 10
-168.781697
 20
177.380606
 30
0.0
 40
1.0
210
0.0
220
0.0
230
-1.0
100
AcDbArc
 50
90.0
 51
180.0
  0
ARC
  5
DC
330
1F
100
AcDbEntity
  8
0
  6
CONTINUOUS
 62
     4
100
AcDbCircle
 10
168.781697
 20
134.380606
 30
0.0
 40
1.000000000000002
100
AcDbArc
 50
270.0
 51
0.0
  0
LINE
  5
DD
330
1F
100
AcDbEntity
  8
0
  6
CONTINUOUS
 62
     4
100
AcDbLine
 10
169.781697
 20
134.380606
 30
0.0
 11
169.781697
 21
177.380606
 31
0.0
  0
LINE
  5
DE
330
1F
100
AcDbEntity
  8
0
  6
CONTINUOUS
 62
     5
100
AcDbLine
 10
115.281485
 20
188.468076
 30
0.0
 11
116.781485
 21
188.599309
 31
0.0
  0
LINE
  5
DF
330
1F
100
AcDbEntity
  8
0
  6
CONTINUOUS
 62
     5
100
AcDbLine
 10
114.281697
 20
188.380606
 30
0.0
 11
115.281485
 21
188.468076
 31
0.0
  0
LINE
  5
E0
330
1F
100
AcDbEntity
  8
0
  6
CONTINUOUS
 62
     5
100
AcDbLine
 10
115.281485
 20
193.293136
 30
0.0
 11
116.781485
 21
193.161903
 31
0.0
  0
LINE
  5
E1
330
1F
100
AcDbEntity
  8
0
  6
CONTINUOUS
 62
     5
100
AcDbLine
 10
115.281485
 20
188.468076
 30
0.0
 11
115.281485
 21
193.293136
 31
0.0
  0
LINE
  5
E2
330
1F
100
AcDbEntity
  8
0
  6
CONTINUOUS
 62
     5
100
AcDbLine
 10
115.281485
 20
193.293136
 30
0.0
 11
114.281697
 21
193.380606
 31
0.0
  0
LINE
  5
E3
330
1F
100
AcDbEntity
  8
0
  6
CONTINUOUS
 62
     5
100
AcDbLine
 10
115.281485
 20
123.293136
 30
0.0
 11
116.781485
 21
123.161903
 31
0.0
  0
LINE
  5
E4
330
1F
100
AcDbEntity
  8
0
  6
CONTINUOUS
 62
     5
100
AcDbLine
 10
115.281485
 20
123.293136
 30
0.0
 11
114.281697
 21
123.380606
 31
0.0
  0
LINE
  5
E5
330
1F
100
AcDbEntity
  8
0
  6
CONTINUOUS
 62
     5
100
AcDbLine
 10
115.281485
 20
118.468076
 30
0.0
 11
116.781485
 21
118.599309
 31
0.0
  0
LINE
  5
E6
330
1F
100
AcDbEntity
  8
0
  6
CONTINUOUS
 62
     5
100
AcDbLine
 10
115.281485
 20
118.468076
 30
0.0
 11
115.281485
 21
123.293136
 31
0.0
  0
LINE
  5
E7
330
1F
100
AcDbEntity
  8
0
  6
CONTINUOUS
 62
     5
100
AcDbLine
 10
114.281697
 20
118.380606
 30
0.0
 11
115.281485
 21
118.468076
 31
0.0
  0
LINE
  5
E8
330
1F
100
AcDbEntity
  8
0
  6
CONTINUOUS
 62
     5
100
AcDbLine
 10
111.181696
 20
137.880606
 30
0.0
 11
111.181696
 21
138.655582
 31
0.0
  0
LINE
  5
E9
330
1F
100
AcDbEntity
  8
0
  6
CONTINUOUS
 62
     5
100
AcDbLine
 10
113.281696
 20
138.655582
 30
0.0
 11
111.181696
 21
138.655582
 31
0.0
  0
LINE
  5
EA
330
1F
100
AcDbEntity
  8
0
  6
CONTINUOUS
 62
     4
100
AcDbLine
 10
113.281695
 20
109.030605
 30
0.0
 11
113.281695
 21
109.455359
 31
0.0
  0
LINE
  5
EB
330
1F
100
AcDbEntity
  8
0
  6
CONTINUOUS
 62
     4
100
AcDbLine
 10
113.281695
 20
109.455359
 30
0.0
 11
113.281695
 21
110.530605
 31
0.0
  0
LINE
  5
EC
330
1F
100
AcDbEntity
  8
0
  6
CONTINUOUS
 62
     4
100
AcDbLine
 10
113.281696
 20
110.530605
 30
0.0
 11
113.281696
 21
111.330605
 31
0.0
  0
LINE
  5
ED
330
1F
100
AcDbEntity
  8
0
  6
CONTINUOUS
 62
     4
100
AcDbLine
 10
109.481695
 20
109.030605
 30
0.0
 11
109.481695
 21
109.455359
 31
0.0
  0
LINE
  5
EE
330
1F
100
AcDbEntity
  8
0
  6
CONTINUOUS
 62
     4
100
AcDbLine
 10
109.481695
 20
109.455359
 30
0.0
 11
109.481695
 21
110.530605
 31
0.0
  0
LINE
  5
EF
330
1F
100
AcDbEntity
  8
0
  6
CONTINUOUS
 62
     5
100
AcDbLine
 10
113.281696
 20
110.530605
 30
0.0
 11
109.481696
 21
110.530605
 31
0.0
  0
LINE
  5
F0
330
1F
100
AcDbEntity
  8
0
  6
CONTINUOUS
 62
     4
100
AcDbLine
 10
109.481696
 20
110.530605
 30
0.0
 11
109.481696
 21
111.330605
 31
0.0
  0
LINE
  5
F1
330
1F
100
AcDbEntity
  8
0
  6
CONTINUOUS
 62
     4
100
AcDbLine
 10
109.481696
 20
111.330605
 30
0.0
 11
109.481696
 21
113.880606
 31
0.0
  0
LINE
  5
F2
330
1F
100
AcDbEntity
  8
0
  6
CONTINUOUS
 62
     4
100
AcDbLine
 10
113.281696
 20
113.880606
 30
0.0
 11
113.281696
 21
111.330605
 31
0.0
  0
LINE
  5
F3
330
1F
100
AcDbEntity
  8
0
  6
CONTINUOUS
 62
     4
100
AcDbLine
 10
111.679772
 20
141.08062
 30
0.0
 11
112.081696
 21
139.58062
 31
0.0
  0
LINE
  5
F4
330
1F
100
AcDbEntity
  8
0
  6
CONTINUOUS
 62
     4
100
AcDbLine
 10
113.281696
 20
139.58062
 30
0.0
 11
112.081696
 21
139.58062
 31
0.0
  0
LINE
  5
F5
330
1F
100
AcDbEntity
  8
0
  6
CONTINUOUS
 62
     4
100
AcDbLine
 10
109.481696
 20
137.880619
 30
0.0
 11
111.679772
 21
141.08062
 31
0.0
  0
LINE
  5
F6
330
1F
100
AcDbEntity
  8
0
  6
CONTINUOUS
 62
     4
100
AcDbLine
 10
113.281695
 20
109.030605
 30
0.0
 11
109.481695
 21
109.030605
 31
0.0
  0
LINE
  5
F7
330
1F
100
AcDbEntity
  8
0
  6
CONTINUOUS
 62
     6
100
AcDbLine
 10
167.781697
 20
176.380606
 30
0.0
 11
167.781697
 21
135.380606
 31
0.0
  0
LINE
  5
F8
330
1F
100
AcDbEntity
  8
0
  6
CONTINUOUS
 62
     5
100
AcDbLine
 10
110.981697
 20
178.380606
 30
0.0
 11
110.981697
 21
184.880606
 31
0.0
  0
LINE
  5
F9
330
1F
100
AcDbEntity
  8
0
  6
CONTINUOUS
 62
     5
100
AcDbLine
 10
110.981697
 20
126.880606
 30
0.0
 11
110.981697
 21
133.380606
 31
0.0
  0
LINE
  5
FA
330
1F
100
AcDbEntity
  8
0
  6
CONTINUOUS
 62
     5
100
AcDbLine
 10
112.77582
 20
195.880606
 30
0.0
 11
111.188877
 21
186.880606
 31
0.0
  0
LINE
  5
FB
330
1F
100
AcDbEntity
  8
0
  6
CONTINUOUS
 62
     5
100
AcDbLine
 10
110.981697
 20
115.880606
 30
0.0
 11
110.981697
 21
124.880606
 31
0.0
  0
LINE
  5
FC
330
1F
100
AcDbEntity
  8
0
  6
CONTINUOUS
 62
     5
100
AcDbLine
 10
115.281697
 20
176.380606
 30
0.0
 11
115.281697
 21
135.380606
 31
0.0
  0
CIRCLE
  5
FD
330
1F
100
AcDbEntity
  8
0
  6
CONTINUOUS
 62
     5
100
AcDbCircle
 10
119.406129
 20
191.671895
 30
0.0
 40
2.283226896594907
  0
ARC
  5
FE
330
1F
100
AcDbEntity
  8
0
  6
CONTINUOUS
 62
     5
100
AcDbCircle
 10
-119.406132
 20
191.671892
 30
0.0
 40
1.804188967952905
210
0.0
220
0.0
230
-1.0
100
AcDbArc
 50
7.69553
 51
67.558968
  0
LINE
  5
FF
330
1F
100
AcDbEntity
  8
0
  6
CONTINUOUS
 62
     5
100
AcDbLine
 10
118.717414
 20
193.339455
 30
0.0
 11
118.717414
 21
191.913489
 31
0.0
  0
LINE
  5
100
330
1F
100
AcDbEntity
  8
0
  6
CONTINUOUS
 62
     5
100
AcDbLine
 10
118.717414
 20
191.913489
 30
0.0
 11
117.618192
 21
191.913489
 31
0.0
  0
SPLINE
  5
101
330
1F
100
AcDbEntity
  8
0
  6
CONTINUOUS
 62
     5
100
AcDbSpline
210
0.0
220
0.0
230
1.0
 70
     8
 71
     3
 72
    12
 73
     8
 74
     0
 42
0.0
 43
0.0
 40
0.0
 40
0.0
 40
0.0
 40
0.0
 40
0.3637905269759911
 40
0.9684673001366666
 40
1.640575178382409
 40
2.495589798140456
 40
3.36356733241194
 40
3.36356733241194
 40
3.36356733241194
 40
3.36356733241194
 10
119.5376748430137
 20
190.1084899201663
 30
0.0
 10
119.5592663770647
 20
190.0934219482127
 30
0.0
 10
119.6207383970067
 20
190.0585502202053
 30
0.0
 10
119.7371393549629
 20
190.0241794272962
 30
0.0
 10
119.8919317662372
 20
190.0587326446126
 30
0.0
 10
120.0394441001791
 20
190.161497906127
 30
0.0
 10
120.0852035925341
 20
190.286867181789
 30
0.0
 10
120.0894463616235
 20
190.3492173762592
 30
0.0
  0
LINE
  5
102
330
1F
100
AcDbEntity
  8
0
  6
CONTINUOUS
 62
     5
100
AcDbLine
 10
120.089446
 20
190.349217
 30
0.0
 11
120.089446
 21
191.951721
 31
0.0
  0
LINE
  5
103
330
1F
100
AcDbEntity
  8
0
  6
CONTINUOUS
 62
     5
100
AcDbLine
 10
120.089446
 20
191.951721
 30
0.0
 11
120.632902
 21
191.951721
 31
0.0
  0
ARC
  5
104
330
1F
100
AcDbEntity
  8
0
  6
CONTINUOUS
 62
     5
100
AcDbCircle
 10
120.608478
 20
192.190509
 30
0.0
 40
0.2400338493353892
100
AcDbArc
 50
275.840125
 51
95.840125
  0
LINE
  5
105
330
1F
100
AcDbEntity
  8
0
  6
CONTINUOUS
 62
     5
100
AcDbLine
 10
120.584054
 20
192.429297
 30
0.0
 11
120.089446
 21
192.429297
 31
0.0
  0
LINE
  5
106
330
1F
100
AcDbEntity
  8
0
  6
CONTINUOUS
 62
     5
100
AcDbLine
 10
120.089446
 20
192.429297
 30
0.0
 11
120.089446
 21
193.341677
 31
0.0
  0
ARC
  5
107
330
1F
100
AcDbEntity
  8
0
  6
CONTINUOUS
 62
     5
100
AcDbCircle
 10
-119.406132
 20
191.671892
 30
0.0
 40
1.804188967953117
210
0.0
220
0.0
230
-1.0
100
AcDbArc
 50
112.255524
 51
352.131446
  0
LINE
  5
108
330
1F
100
AcDbEntity
  8
0
  6
CONTINUOUS
 62
     5
100
AcDbLine
 10
117.61893
 20
191.424897
 30
0.0
 11
118.19599
 21
191.424897
 31
0.0
  0
LINE
  5
109
330
1F
100
AcDbEntity
  8
0
  6
CONTINUOUS
 62
     5
100
AcDbLine
 10
118.19599
 20
191.424897
 30
0.0
 11
119.537675
 21
190.10849
 31
0.0
  0
ARC
  5
10A
330
1F
100
AcDbEntity
  8
0
  6
CONTINUOUS
 62
     5
100
AcDbCircle
 10
-119.406132
 20
191.671892
 30
0.0
 40
1.804188967943377
210
0.0
220
0.0
230
-1.0
100
AcDbArc
 50
82.574324
 51
97.079846
  0
LINE
  5
10B
330
1F
100
AcDbEntity
  8
0
  6
CONTINUOUS
 62
     5
100
AcDbLine
 10
119.628502
 20
193.462325
 30
0.0
 11
119.628502
 21
190.656585
 31
0.0
  0
LINE
  5
10C
330
1F
100
AcDbEntity
  8
0
  6
CONTINUOUS
 62
     5
100
AcDbLine
 10
119.628502
 20
190.656585
 30
0.0
 11
118.920454
 21
191.424897
 31
0.0
  0
LINE
  5
10D
330
1F
100
AcDbEntity
  8
0
  6
CONTINUOUS
 62
     5
100
AcDbLine
 10
118.920454
 20
191.424897
 30
0.0
 11
119.030182
 21
191.424897
 31
0.0
  0
ARC
  5
10E
330
1F
100
AcDbEntity
  8
0
  6
CONTINUOUS
 62
     5
100
AcDbCircle
 10
118.950824
 20
191.636329
 30
0.0
 40
0.2258343473810076
100
AcDbArc
 50
290.573117
 51
349.614785
  0
LINE
  5
10F
330
1F
100
AcDbEntity
  8
0
  6
CONTINUOUS
 62
     5
100
AcDbLine
 10
119.172958
 20
191.595619
 30
0.0
 11
119.172958
 21
193.46095
 31
0.0
  0
SPLINE
  5
110
330
1F
100
AcDbEntity
  8
0
  6
CONTINUOUS
 62
     5
100
AcDbSpline
210
0.0
220
0.0
230
1.0
 70
     8
 71
     3
 72
    41
 73
    37
 74
     0
 42
0.0
 43
0.0
 40
0.0
 40
0.0
 40
0.0
 40
0.0
 40
0.3630440744592747
 40
1.791700086240979
 40
2.820865281921449
 40
3.849931363375884
 40
4.856790340591665
 40
5.83759868068671
 40
6.970581469611588
 40
8.29123736726245
 40
9.767247191077999
 40
11.3455465923324
 40
12.80086580130341
 40
14.00866255572859
 40
15.04597687646266
 40
15.94689418676366
 40
16.84554205995983
 40
17.75377991426894
 40
18.72405101040651
 40
19.59393433591632
 40
20.2929722326603
 40
21.13632971514732
 40
21.79231523328016
 40
22.79782107612743
 40
23.68135899268789
 40
25.22006762332594
 40
26.40656246107282
 40
27.65394131290573
 40
29.43754020279101
 40
31.10758122025136
 40
31.88123876723194
 40
32.57478040260793
 40
33.22571281077332
 40
33.82134105053366
 40
34.4354371342209
 40
35.07059774383078
 40
35.07059774383078
 40
35.07059774383078
 40
35.07059774383078
 10
133.9536223616234
 20
190.8706413762592
 30
0.0
 10
133.9606256616227
 20
190.8958249060578
 30
0.0
 10
133.98866435477
 20
191.0223457383494
 30
0.0
 10
133.9580321794906
 20
191.2301224145192
 30
0.0
 10
133.8736117605049
 20
191.4665566714378
 30
0.0
 10
133.7536421278592
 20
191.6552232142698
 30
0.0
 10
133.5915415349766
 20
191.802514223505
 30
0.0
 10
133.3984565426465
 20
191.9203654176632
 30
0.0
 10
133.1625183063881
 20
191.9991640402968
 30
0.0
 10
132.8841734895311
 20
192.0541054446451
 30
0.0
 10
132.5685395291707
 20
192.0668683437319
 30
0.0
 10
132.2435385894693
 20
192.0490159631423
 30
0.0
 10
131.9435425636377
 20
191.9862764575638
 30
0.0
 10
131.6928430617561
 20
191.8903064632631
 30
0.0
 10
131.5069403971161
 20
191.7562112561978
 30
0.0
 10
131.3741247869623
 20
191.5989292060502
 30
0.0
 10
131.2805633058065
 20
191.4266018878667
 30
0.0
 10
131.217809739298
 20
191.2354771233746
 30
0.0
 10
131.1966820357982
 20
191.037113362025
 30
0.0
 10
131.2170272911146
 20
190.8536770107652
 30
0.0
 10
131.2731780979964
 20
190.6887850138679
 30
0.0
 10
131.3407404829718
 20
190.5446243417986
 30
0.0
 10
131.4473937155306
 20
190.3988695418394
 30
0.0
 10
131.5744555059323
 20
190.2634487935433
 30
0.0
 10
131.7932723599137
 20
190.1448627290869
 30
0.0
 10
132.0387599708872
 20
190.055449322342
 30
0.0
 10
132.322015117403
 20
190.0098012523043
 30
0.0
 10
132.6256221244489
 20
189.9898966143411
 30
0.0
 10
132.9637601567006
 20
190.0167761850097
 30
0.0
 10
133.2647314973592
 20
190.0776976213509
 30
0.0
 10
133.4713784215317
 20
190.1699513551137
 30
0.0
 10
133.6077345430351
 20
190.2389979841774
 30
0.0
 10
133.7181443632837
 20
190.3266574328203
 30
0.0
 10
133.8034652678477
 20
190.430680943096
 30
0.0
 10
133.8718826752294
 20
190.5455544739601
 30
0.0
 10
133.8967945556983
 20
190.6332665748494
 30
0.0
 10
133.9041583616233
 20
190.6784013762591
 30
0.0
  0
LINE
  5
111
330
1F
100
AcDbEntity
  8
0
  6
CONTINUOUS
 62
     5
100
AcDbLine
 10
133.904158
 20
190.678401
 30
0.0
 11
133.05895
 21
190.678401
 31
0.0
  0
SPLINE
  5
112
330
1F
100
AcDbEntity
  8
0
  6
CONTINUOUS
 62
     5
100
AcDbSpline
210
0.0
220
0.0
230
1.0
 70
     8
 71
     3
 72
    14
 73
    10
 74
     0
 42
0.0
 43
0.0
 40
0.0
 40
0.0
 40
0.0
 40
0.0
 40
0.5849692299600031
 40
1.118602999506121
 40
2.096488473373078
 40
2.890934821467145
 40
3.734969180957322
 40
4.493595571218039
 40
5.244342532583844
 40
5.244342532583844
 40
5.244342532583844
 40
5.244342532583844
 10
133.0589503616234
 20
190.6784013762591
 30
0.0
 10
133.0262242984945
 20
190.6518888779218
 30
0.0
 10
132.9592027865147
 20
190.6066874156335
 30
0.0
 10
132.8232790799307
 20
190.5391614260992
 30
0.0
 10
132.6545411547131
 20
190.5161371456892
 30
0.0
 10
132.4666601484332
 20
190.5410259762701
 30
0.0
 10
132.3033937718649
 20
190.6017091717853
 30
0.0
 10
132.1646928423191
 20
190.7070833137899
 30
0.0
 10
132.1195411627205
 20
190.8119286799067
 30
0.0
 10
132.1094143616234
 20
190.865025376259
 30
0.0
  0
LINE
  5
113
330
1F
100
AcDbEntity
  8
0
  6
CONTINUOUS
 62
     5
100
AcDbLine
 10
132.109414
 20
190.865025
 30
0.0
 11
132.438814
 21
190.865025
 31
0.0
  0
LINE
  5
114
330
1F
100
AcDbEntity
  8
0
  6
CONTINUOUS
 62
     5
100
AcDbLine
 10
132.438814
 20
190.865025
 30
0.0
 11
132.488278
 21
190.865025
 31
0.0
  0
LINE
  5
115
330
1F
100
AcDbEntity
  8
0
  6
CONTINUOUS
 62
     5
100
AcDbLine
 10
132.488278
 20
190.865025
 30
0.0
 11
133.953622
 21
190.870641
 31
0.0
  0
SPLINE
  5
116
330
1F
100
AcDbEntity
  8
0
  6
CONTINUOUS
 62
     5
100
AcDbSpline
210
0.0
220
0.0
230
1.0
 70
     8
 71
     3
 72
    16
 73
    12
 74
     0
 42
0.0
 43
0.0
 40
0.0
 40
0.0
 40
0.0
 40
0.0
 40
0.5474303608679332
 40
1.248433213929174
 40
1.669148378856708
 40
2.089863543784241
 40
2.533741905500601
 40
3.889403367665844
 40
4.652346353740162
 40
5.302653973255724
 40
5.802071634136879
 40
5.802071634136879
 40
5.802071634136879
 40
5.802071634136879
 10
132.1094143616234
 20
191.2657053762591
 30
0.0
 10
132.1179055365617
 20
191.3041948692172
 30
0.0
 10
132.152082528364
 20
191.3888561538328
 30
0.0
 10
132.2367166293902
 20
191.4811289072497
 30
0.0
 10
132.3383808463079
 20
191.5268001901749
 30
0.0
 10
132.4157991433561
 20
191.5796762062718
 30
0.0
 10
132.5753266925465
 20
191.6097400665991
 30
0.0
 10
132.7660015190031
 20
191.590877651331
 30
0.0
 10
132.9431194418701
 20
191.4924292164741
 30
0.0
 10
133.0352723610496
 20
191.3841946502656
 30
0.0
 10
133.0562087374163
 20
191.3015587778929
 30
0.0
 10
133.0589503616234
 20
191.2657053762591
 30
0.0
  0
LINE
  5
117
330
1F
100
AcDbEntity
  8
0
  6
CONTINUOUS
 62
     5
100
AcDbLine
 10
133.05895
 20
191.265705
 30
0.0
 11
132.488278
 21
191.265705
 31
0.0
  0
LINE
  5
118
330
1F
100
AcDbEntity
  8
0
  6
CONTINUOUS
 62
     5
100
AcDbLine
 10
132.488278
 20
191.265705
 30
0.0
 11
132.109414
 21
191.265705
 31
0.0
  0
SPLINE
  5
119
330
1F
100
AcDbEntity
  8
0
  6
CONTINUOUS
 62
     5
100
AcDbSpline
210
0.0
220
0.0
230
1.0
 70
     8
 71
     3
 72
    31
 73
    27
 74
     0
 42
0.0
 43
0.0
 40
0.0
 40
0.0
 40
0.0
 40
0.0
 40
0.4099510339074079
 40
1.446824218052893
 40
2.704343203993066
 40
3.847343203993066
 40
4.767900643808748
 40
5.668462690532898
 40
6.555363474160922
 40
7.475459664784491
 40
8.376376975085499
 40
9.253185392015896
 40
10.161423246325
 40
11.08109710155848
 40
12.00176479405126
 40
12.87837017847461
 40
13.7422526936351
 40
14.60793277311018
 40
15.47665885191753
 40
16.34054136707802
 40
17.21714675150136
 40
18.13682060673484
 40
19.30582060673484
 40
20.53241304108294
 40
21.52898767451488
 40
22.1535931499952
 40
22.1535931499952
 40
22.1535931499952
 40
22.1535931499952
 10
130.1062303616234
 20
191.8612464594663
 30
0.0
 10
130.084131475966
 20
191.8808133068402
 30
0.0
 10
129.999891523956
 20
191.9445264364928
 30
0.0
 10
129.8038070922278
 20
191.9837701154353
 30
0.0
 10
129.5609743617989
 20
192.0248566969474
 30
0.0
 10
129.3206826963894
 20
192.0210748236181
 30
0.0
 10
129.1075392351286
 20
192.0026231370547
 30
0.0
 10
128.9193812993899
 20
191.9466974249445
 30
0.0
 10
128.7442302288075
 20
191.8579966424116
 30
0.0
 10
128.5940681246514
 20
191.7314946893631
 30
0.0
 10
128.4666205375527
 20
191.5837991534958
 30
0.0
 10
128.3703053615859
 20
191.4144569929391
 30
0.0
 10
128.3105832372828
 20
191.2278732775854
 30
0.0
 10
128.2867448695058
 20
191.0297077464642
 30
0.0
 10
128.3110707248802
 20
190.8341419289161
 30
0.0
 10
128.3654862767504
 20
190.6494931525921
 30
0.0
 10
128.4542179916084
 20
190.4825848433599
 30
0.0
 10
128.5758339738861
 20
190.3383251708709
 30
0.0
 10
128.7258031059255
 20
190.2247766944614
 30
0.0
 10
128.8913765969182
 20
190.1341627445019
 30
0.0
 10
129.0763451958817
 20
190.0787351803486
 30
0.0
 10
129.289792640443
 20
190.0589887809134
 30
0.0
 10
129.5282428020782
 20
190.0616058497875
 30
0.0
 10
129.7735672919039
 20
190.0768009384693
 30
0.0
 10
129.9696065408841
 20
190.1453812444078
 30
0.0
 10
130.0697588510011
 20
190.2062662911252
 30
0.0
 10
130.1062303616234
 20
190.2325773762592
 30
0.0
  0
LINE
  5
11A
330
1F
100
AcDbEntity
  8
0
  6
CONTINUOUS
 62
     5
100
AcDbLine
 10
130.10623
 20
190.232577
 30
0.0
 11
130.10623
 21
190.085697
 31
0.0
  0
LINE
  5
11B
330
1F
100
AcDbEntity
  8
0
  6
CONTINUOUS
 62
     5
100
AcDbLine
 10
130.10623
 20
190.085697
 30
0.0
 11
130.967854
 21
190.085697
 31
0.0
  0
LINE
  5
11C
330
1F
100
AcDbEntity
  8
0
  6
CONTINUOUS
 62
     5
100
AcDbLine
 10
130.967854
 20
190.085697
 30
0.0
 11
130.967854
 21
192.583089
 31
0.0
  0
LINE
  5
11D
330
1F
100
AcDbEntity
  8
0
  6
CONTINUOUS
 62
     5
100
AcDbLine
 10
130.967854
 20
192.583089
 30
0.0
 11
130.10623
 21
192.583089
 31
0.0
  0
LINE
  5
11E
330
1F
100
AcDbEntity
  8
0
  6
CONTINUOUS
 62
     5
100
AcDbLine
 10
130.10623
 20
192.583089
 30
0.0
 11
130.10623
 21
191.861246
 31
0.0
  0
LINE
  5
11F
330
1F
100
AcDbEntity
  8
0
  6
CONTINUOUS
 62
     5
100
AcDbLine
 10
130.10623
 20
191.112129
 30
0.0
 11
130.10623
 21
191.040633
 31
0.0
  0
SPLINE
  5
120
330
1F
100
AcDbEntity
  8
0
  6
CONTINUOUS
 62
     5
100
AcDbSpline
210
0.0
220
0.0
230
1.0
 70
     8
 71
     3
 72
    23
 73
    19
 74
     0
 42
0.0
 43
0.0
 40
0.0
 40
0.0
 40
0.0
 40
0.0
 40
0.6669640170203994
 40
1.367241105036289
 40
2.140113668917293
 40
2.988671268612208
 40
3.841507712486409
 40
4.61392016707269
 40
5.335952022325626
 40
6.020499317988973
 40
6.729216468903221
 40
7.451248324156158
 40
8.23595017836577
 40
9.084507778060683
 40
9.795872057201187
 40
10.65924169220739
 40
11.32417627545601
 40
11.97574438394506
 40
11.97574438394506
 40
11.97574438394506
 40
11.97574438394506
 10
130.1062303616234
 20
191.0406333762591
 30
0.0
 10
130.1018065752569
 20
190.9928161632686
 30
0.0
 10
130.0714235644812
 20
190.894467016364
 30
0.0
 10
129.9581047206821
 20
190.7840025070358
 30
0.0
 10
129.8080097424306
 20
190.7059824456353
 30
0.0
 10
129.6277399199309
 20
190.6787390994884
 30
0.0
 10
129.4510265577833
 20
190.7136433292152
 30
0.0
 10
129.2946220377307
 20
190.787082980548
 30
0.0
 10
129.1930368922015
 20
190.9124910825111
 30
0.0
 10
129.1472299604739
 20
191.0641443439823
 30
0.0
 10
129.1916169576818
 20
191.217394170829
 30
0.0
 10
129.2961945825741
 20
191.3426346234934
 30
0.0
 10
129.4483391898721
 20
191.4246821975897
 30
0.0
 10
129.6197952927623
 20
191.4530218530144
 30
0.0
 10
129.7908434032104
 20
191.4121391420014
 30
0.0
 10
129.9454641791737
 20
191.3602205741605
 30
0.0
 10
130.0658990960508
 20
191.2515003911568
 30
0.0
 10
130.0999389193219
 20
191.1586184964677
 30
0.0
 10
130.1062303616234
 20
191.1121293762591
 30
0.0
  0
LINE
  5
121
330
1F
100
AcDbEntity
  8
0
  6
CONTINUOUS
 62
     5
100
AcDbLine
 10
127.186354
 20
190.977629
 30
0.0
 11
127.186342
 21
190.091097
 31
0.0
  0
LINE
  5
122
330
1F
100
AcDbEntity
  8
0
  6
CONTINUOUS
 62
     5
100
AcDbLine
 10
127.186342
 20
190.091097
 30
0.0
 11
128.042566
 21
190.091097
 31
0.0
  0
LINE
  5
123
330
1F
100
AcDbEntity
  8
0
  6
CONTINUOUS
 62
     5
100
AcDbLine
 10
128.042566
 20
190.091097
 30
0.0
 11
128.042566
 21
191.383478
 31
0.0
  0
ARC
  5
124
330
1F
100
AcDbEntity
  8
0
  6
CONTINUOUS
 62
     5
100
AcDbCircle
 10
127.458313
 20
191.354832
 30
0.0
 40
0.5849556750929359
100
AcDbArc
 50
2.806997
 51
66.545781
  0
ARC
  5
125
330
1F
100
AcDbEntity
  8
0
  6
CONTINUOUS
 62
     5
100
AcDbCircle
 10
127.166653
 20
190.289418
 30
0.0
 40
1.685708095062562
100
AcDbArc
 50
71.872392
 51
120.405557
  0
LINE
  5
126
330
1F
100
AcDbEntity
  8
0
  6
CONTINUOUS
 62
     5
100
AcDbLine
 10
126.313486
 20
191.743281
 30
0.0
 11
126.313486
 21
191.951721
 31
0.0
  0
LINE
  5
127
330
1F
100
AcDbEntity
  8
0
  6
CONTINUOUS
 62
     5
100
AcDbLine
 10
126.313486
 20
191.951721
 30
0.0
 11
125.451862
 21
191.951721
 31
0.0
  0
LINE
  5
128
330
1F
100
AcDbEntity
  8
0
  6
CONTINUOUS
 62
     5
100
AcDbLine
 10
125.451862
 20
191.951721
 30
0.0
 11
125.451862
 21
190.091097
 31
0.0
  0
LINE
  5
129
330
1F
100
AcDbEntity
  8
0
  6
CONTINUOUS
 62
     5
100
AcDbLine
 10
125.451862
 20
190.091097
 30
0.0
 11
126.313486
 21
190.091097
 31
0.0
  0
LINE
  5
12A
330
1F
100
AcDbEntity
  8
0
  6
CONTINUOUS
 62
     5
100
AcDbLine
 10
126.313486
 20
190.091097
 30
0.0
 11
126.313486
 21
190.955772
 31
0.0
  0
ARC
  5
12B
330
1F
100
AcDbEntity
  8
0
  6
CONTINUOUS
 62
     5
100
AcDbCircle
 10
-126.867328
 20
190.661331
 30
0.0
 40
0.6272451125251699
210
0.0
220
0.0
230
-1.0
100
AcDbArc
 50
27.996676
 51
87.037487
  0
ARC
  5
12C
330
1F
100
AcDbEntity
  8
0
  6
CONTINUOUS
 62
     5
100
AcDbCircle
 10
-126.873815
 20
190.977629
 30
0.0
 40
0.3125393542344179
210
0.0
220
0.0
230
-1.0
100
AcDbArc
 50
82.849317
 51
180.0
  0
LINE
  5
12D
330
1F
100
AcDbEntity
  8
0
  6
CONTINUOUS
 62
     5
100
AcDbLine
 10
125.034766
 20
191.951721
 30
0.0
 11
124.162126
 21
191.951721
 31
0.0
  0
LINE
  5
12E
330
1F
100
AcDbEntity
  8
0
  6
CONTINUOUS
 62
     5
100
AcDbLine
 10
124.162126
 20
191.951721
 30
0.0
 11
124.162126
 21
190.091097
 31
0.0
  0
LINE
  5
12F
330
1F
100
AcDbEntity
  8
0
  6
CONTINUOUS
 62
     5
100
AcDbLine
 10
124.162126
 20
190.091097
 30
0.0
 11
125.034766
 21
190.091097
 31
0.0
  0
LINE
  5
130
330
1F
100
AcDbEntity
  8
0
  6
CONTINUOUS
 62
     5
100
AcDbLine
 10
125.034766
 20
190.091097
 30
0.0
 11
125.034766
 21
191.951721
 31
0.0
  0
LINE
  5
131
330
1F
100
AcDbEntity
  8
0
  6
CONTINUOUS
 62
     5
100
AcDbLine
 10
125.034766
 20
192.588489
 30
0.0
 11
124.162126
 21
192.588489
 31
0.0
  0
LINE
  5
132
330
1F
100
AcDbEntity
  8
0
  6
CONTINUOUS
 62
     5
100
AcDbLine
 10
124.162126
 20
192.588489
 30
0.0
 11
124.162126
 21
192.160377
 31
0.0
  0
LINE
  5
133
330
1F
100
AcDbEntity
  8
0
  6
CONTINUOUS
 62
     5
100
AcDbLine
 10
124.162126
 20
192.160377
 30
0.0
 11
125.034766
 21
192.160377
 31
0.0
  0
LINE
  5
134
330
1F
100
AcDbEntity
  8
0
  6
CONTINUOUS
 62
     5
100
AcDbLine
 10
125.034766
 20
192.160377
 30
0.0
 11
125.034766
 21
192.588489
 31
0.0
  0
LINE
  5
135
330
1F
100
AcDbEntity
  8
0
  6
CONTINUOUS
 62
     5
100
AcDbLine
 10
122.400214
 20
191.424897
 30
0.0
 11
122.658118
 21
191.424897
 31
0.0
  0
LINE
  5
136
330
1F
100
AcDbEntity
  8
0
  6
CONTINUOUS
 62
     5
100
AcDbLine
 10
122.658118
 20
191.424897
 30
0.0
 11
122.658118
 21
190.091097
 31
0.0
  0
LINE
  5
137
330
1F
100
AcDbEntity
  8
0
  6
CONTINUOUS
 62
     5
100
AcDbLine
 10
122.658118
 20
190.091097
 30
0.0
 11
123.519958
 21
190.091097
 31
0.0
  0
LINE
  5
138
330
1F
100
AcDbEntity
  8
0
  6
CONTINUOUS
 62
     5
100
AcDbLine
 10
123.519958
 20
190.091097
 30
0.0
 11
123.519958
 21
191.424897
 31
0.0
  0
LINE
  5
139
330
1F
100
AcDbEntity
  8
0
  6
CONTINUOUS
 62
     5
100
AcDbLine
 10
123.519958
 20
191.424897
 30
0.0
 11
123.81631
 21
191.424897
 31
0.0
  0
LINE
  5
13A
330
1F
100
AcDbEntity
  8
0
  6
CONTINUOUS
 62
     5
100
AcDbLine
 10
123.81631
 20
191.424897
 30
0.0
 11
123.81631
 21
191.951721
 31
0.0
  0
LINE
  5
13B
330
1F
100
AcDbEntity
  8
0
  6
CONTINUOUS
 62
     5
100
AcDbLine
 10
123.81631
 20
191.951721
 30
0.0
 11
123.492526
 21
191.951721
 31
0.0
  0
LINE
  5
13C
330
1F
100
AcDbEntity
  8
0
  6
CONTINUOUS
 62
     5
100
AcDbLine
 10
123.492526
 20
191.951721
 30
0.0
 11
123.515617
 21
192.076631
 31
0.0
  0
ARC
  5
13D
330
1F
100
AcDbEntity
  8
0
  6
CONTINUOUS
 62
     5
100
AcDbCircle
 10
-123.633174
 20
192.028676
 30
0.0
 40
0.126961261058678
210
0.0
220
0.0
230
-1.0
100
AcDbArc
 50
22.192188
 51
84.155327
  0
LINE
  5
13E
330
1F
100
AcDbEntity
  8
0
  6
CONTINUOUS
 62
     5
100
AcDbLine
 10
123.620245
 20
192.154977
 30
0.0
 11
123.81631
 21
192.154977
 31
0.0
  0
LINE
  5
13F
330
1F
100
AcDbEntity
  8
0
  6
CONTINUOUS
 62
     5
100
AcDbLine
 10
123.81631
 20
192.154977
 30
0.0
 11
123.81631
 21
192.588489
 31
0.0
  0
LINE
  5
140
330
1F
100
AcDbEntity
  8
0
  6
CONTINUOUS
 62
     5
100
AcDbLine
 10
123.81631
 20
192.588489
 30
0.0
 11
123.097246
 21
192.588489
 31
0.0
  0
ARC
  5
141
330
1F
100
AcDbEntity
  8
0
  6
CONTINUOUS
 62
     5
100
AcDbCircle
 10
123.092824
 20
192.153805
 30
0.0
 40
0.4347067697203381
100
AcDbArc
 50
89.417049
 51
180.0
  0
LINE
  5
142
330
1F
100
AcDbEntity
  8
0
  6
CONTINUOUS
 62
     5
100
AcDbLine
 10
122.658117
 20
192.153805
 30
0.0
 11
122.658118
 21
191.951721
 31
0.0
  0
LINE
  5
143
330
1F
100
AcDbEntity
  8
0
  6
CONTINUOUS
 62
     5
100
AcDbLine
 10
122.658118
 20
191.951721
 30
0.0
 11
122.400214
 21
191.951721
 31
0.0
  0
LINE
  5
144
330
1F
100
AcDbEntity
  8
0
  6
CONTINUOUS
 62
     5
100
AcDbLine
 10
122.400214
 20
191.951721
 30
0.0
 11
122.400214
 21
191.424897
 31
0.0
  0
LINE
  5
145
330
1F
100
AcDbEntity
  8
0
  6
CONTINUOUS
 62
     5
100
AcDbLine
 10
135.034918
 20
191.787129
 30
0.0
 11
135.034918
 21
191.951721
 31
0.0
  0
LINE
  5
146
330
1F
100
AcDbEntity
  8
0
  6
CONTINUOUS
 62
     5
100
AcDbLine
 10
135.034918
 20
191.951721
 30
0.0
 11
134.206126
 21
191.951721
 31
0.0
  0
LINE
  5
147
330
1F
100
AcDbEntity
  8
0
  6
CONTINUOUS
 62
     5
100
AcDbLine
 10
134.206126
 20
191.951721
 30
0.0
 11
134.206126
 21
190.091097
 31
0.0
  0
LINE
  5
148
330
1F
100
AcDbEntity
  8
0
  6
CONTINUOUS
 62
     5
100
AcDbLine
 10
134.206126
 20
190.091097
 30
0.0
 11
135.034918
 21
190.091097
 31
0.0
  0
LINE
  5
149
330
1F
100
AcDbEntity
  8
0
  6
CONTINUOUS
 62
     5
100
AcDbLine
 10
135.034918
 20
190.091097
 30
0.0
 11
135.034918
 21
191.123145
 31
0.0
  0
SPLINE
  5
14A
330
1F
100
AcDbEntity
  8
0
  6
CONTINUOUS
 62
     5
100
AcDbSpline
210
0.0
220
0.0
230
1.0
 70
     8
 71
     3
 72
    14
 73
    10
 74
     0
 42
0.0
 43
0.0
 40
0.0
 40
0.0
 40
0.0
 40
0.0
 40
0.4984505993576489
 40
0.9864936302473448
 40
1.590581372218658
 40
2.176804026165091
 40
2.634709038149013
 40
3.022672953996877
 40
3.382307490714356
 40
3.382307490714356
 40
3.382307490714356
 40
3.382307490714356
 10
135.0349183616233
 20
191.1231453762591
 30
0.0
 10
135.0365930299297
 20
191.1589947254591
 30
0.0
 10
135.0554625988731
 20
191.2297310193466
 30
0.0
 10
135.1281293394056
 20
191.3234479920867
 30
0.0
 10
135.2463821893828
 20
191.368026664349
 30
0.0
 10
135.3696804043691
 20
191.3608181748476
 30
0.0
 10
135.4587055963466
 20
191.3012295481625
 30
0.0
 10
135.5062211521283
 20
191.2258683276625
 30
0.0
 10
135.5139306969797
 20
191.1708151951017
 30
0.0
 10
135.5124943616233
 20
191.1449613762592
 30
0.0
  0
LINE
  5
14B
330
1F
100
AcDbEntity
  8
0
  6
CONTINUOUS
 62
     5
100
AcDbLine
 10
135.512494
 20
191.144961
 30
0.0
 11
135.512494
 21
191.029833
 31
0.0
  0
LINE
  5
14C
330
1F
100
AcDbEntity
  8
0
  6
CONTINUOUS
 62
     5
100
AcDbLine
 10
135.512494
 20
191.029833
 30
0.0
 11
136.390534
 21
191.029833
 31
0.0
  0
SPLINE
  5
14D
330
1F
100
AcDbEntity
  8
0
  6
CONTINUOUS
 62
     5
100
AcDbSpline
210
0.0
220
0.0
230
1.0
 70
     8
 71
     3
 72
    18
 73
    14
 74
     0
 42
0.0
 43
0.0
 40
0.0
 40
0.0
 40
0.0
 40
0.0
 40
0.5862226539464359
 40
1.937079048978856
 40
2.725655614697113
 40
3.510357468906729
 40
4.33775157089199
 40
5.29538250188785
 40
6.222921719387574
 40
7.036306007408925
 40
8.367711655586822
 40
9.276897005226814
 40
9.643276589810892
 40
9.643276589810892
 40
9.643276589810892
 40
9.643276589810892
 10
136.3905343616234
 20
191.029833376259
 30
0.0
 10
136.3962687807903
 20
191.0716500514596
 30
0.0
 10
136.4086420143174
 20
191.2108424120556
 30
0.0
 10
136.3921371959241
 20
191.4079149722612
 30
0.0
 10
136.3428421399858
 20
191.6137157123588
 30
0.0
 10
136.2592093676722
 20
191.767691189562
 30
0.0
 10
136.1204248561307
 20
191.8971513189919
 30
0.0
 10
135.9325900053244
 20
191.9620260313092
 30
0.0
 10
135.7406444323076
 20
191.9965637366528
 30
0.0
 10
135.5185419317093
 20
191.9870480914191
 30
0.0
 10
135.3012514486056
 20
191.9391441673785
 30
0.0
 10
135.1328867711824
 20
191.8533322659531
 30
0.0
 10
135.0563483425087
 20
191.8025119955176
 30
0.0
 10
135.0349183616233
 20
191.787129376259
 30
0.0
  0
LINE
  5
14E
330
1F
100
AcDbEntity
  8
0
  6
CONTINUOUS
 62
     5
100
AcDbLine
 10
129.281725
 20
117.894484
 30
0.0
 11
129.281725
 21
118.649902
 31
0.0
  0
ARC
  5
14F
330
1F
100
AcDbEntity
  8
0
  6
CONTINUOUS
 62
     5
100
AcDbCircle
 10
-129.031725
 20
120.381953
 30
0.0
 40
1.75
210
0.0
220
0.0
230
-1.0
100
AcDbArc
 50
261.786787
 51
347.626375
  0
LINE
  5
150
330
1F
100
AcDbEntity
  8
0
  6
CONTINUOUS
 62
     5
100
AcDbLine
 10
127.322375
 20
120.006953
 30
0.0
 11
128.781725
 21
120.006953
 31
0.0
  0
LINE
  5
151
330
1F
100
AcDbEntity
  8
0
  6
CONTINUOUS
 62
     5
100
AcDbLine
 10
128.781725
 20
120.006953
 30
0.0
 11
128.781725
 21
120.756953
 31
0.0
  0
LINE
  5
152
330
1F
100
AcDbEntity
  8
0
  6
CONTINUOUS
 62
     5
100
AcDbLine
 10
128.781725
 20
120.756953
 30
0.0
 11
127.322375
 21
120.756953
 31
0.0
  0
ARC
  5
153
330
1F
100
AcDbEntity
  8
0
  6
CONTINUOUS
 62
     5
100
AcDbCircle
 10
-129.031725
 20
120.381953
 30
0.0
 40
1.749999999999999
210
0.0
220
0.0
230
-1.0
100
AcDbArc
 50
12.373619
 51
98.213211
  0
LINE
  5
154
330
1F
100
AcDbEntity
  8
0
  6
CONTINUOUS
 62
     5
100
AcDbLine
 10
129.281725
 20
122.114004
 30
0.0
 11
129.281725
 21
122.869421
 31
0.0
  0
ARC
  5
155
330
1F
100
AcDbEntity
  8
0
  6
CONTINUOUS
 62
     5
100
AcDbCircle
 10
129.031725
 20
120.381953
 30
0.0
 40
2.500000000000003
100
AcDbArc
 50
84.26083
 51
275.73917
  0
ARC
  5
156
330
1F
100
AcDbEntity
  8
0
  6
CONTINUOUS
 62
     5
100
AcDbCircle
 10
-124.781725
 20
120.381953
 30
0.0
 40
1.74999999999999
210
0.0
220
0.0
230
-1.0
100
AcDbArc
 50
261.786789
 51
98.213211
  0
LINE
  5
157
330
1F
100
AcDbEntity
  8
0
  6
CONTINUOUS
 62
     5
100
AcDbLine
 10
125.031725
 20
122.114004
 30
0.0
 11
125.031724
 21
122.869421
 31
0.0
  0
ARC
  5
158
330
1F
100
AcDbEntity
  8
0
  6
CONTINUOUS
 62
     5
100
AcDbCircle
 10
124.781725
 20
120.381953
 30
0.0
 40
2.5
100
AcDbArc
 50
84.260838
 51
275.73917
  0
LINE
  5
159
330
1F
100
AcDbEntity
  8
0
  6
CONTINUOUS
 62
     5
100
AcDbLine
 10
125.031725
 20
117.894484
 30
0.0
 11
125.031725
 21
118.649902
 31
0.0
  0
LINE
  5
15A
330
1F
100
AcDbEntity
  8
0
  6
CONTINUOUS
 62
     4
100
AcDbLine
 10
156.781697
 20
126.880606
 30
0.0
 11
156.781697
 21
126.380606
 31
0.0
  0
LINE
  5
15B
330
1F
100
AcDbEntity
  8
0
  6
CONTINUOUS
 62
     4
100
AcDbLine
 10
156.781697
 20
184.880606
 30
0.0
 11
156.781697
 21
185.380606
 31
0.0
  0
LINE
  5
15C
330
1F
100
AcDbEntity
  8
0
  6
CONTINUOUS
 62
     4
100
AcDbLine
 10
138.281697
 20
196.380606
 30
0.0
 11
138.281697
 21
195.880606
 31
0.0
  0
LINE
  5
15D
330
1F
100
AcDbEntity
  8
0
  6
CONTINUOUS
 62
     5
100
AcDbLine
 10
167.781697
 20
135.380606
 30
0.0
 11
115.281697
 21
135.380606
 31
0.0
  0
LINE
  5
15E
330
1F
100
AcDbEntity
  8
0
  6
CONTINUOUS
 62
     5
100
AcDbLine
 10
167.781697
 20
176.380606
 30
0.0
 11
115.281697
 21
176.380606
 31
0.0
  0
LINE
  5
15F
330
1F
100
AcDbEntity
  8
0
  6
CONTINUOUS
 62
     6
100
AcDbLine
 10
114.281697
 20
179.130606
 30
0.0
 11
116.781485
 21
179.130606
 31
0.0
  0
LINE
  5
160
330
1F
100
AcDbEntity
  8
0
  6
CONTINUOUS
 62
     6
100
AcDbLine
 10
116.781485
 20
179.130606
 30
0.0
 11
116.781485
 21
184.130606
 31
0.0
  0
LINE
  5
161
330
1F
100
AcDbEntity
  8
0
  6
CONTINUOUS
 62
     6
100
AcDbLine
 10
116.781485
 20
184.130606
 30
0.0
 11
114.281697
 21
184.130606
 31
0.0
  0
LINE
  5
162
330
1F
100
AcDbEntity
  8
0
  6
CONTINUOUS
 62
     6
100
AcDbLine
 10
114.281697
 20
179.130606
 30
0.0
 11
114.281697
 21
184.130606
 31
0.0
  0
LINE
  5
163
330
1F
100
AcDbEntity
  8
0
  6
CONTINUOUS
 62
     6
100
AcDbLine
 10
114.281697
 20
132.630606
 30
0.0
 11
114.281697
 21
127.630606
 31
0.0
  0
LINE
  5
164
330
1F
100
AcDbEntity
  8
0
  6
CONTINUOUS
 62
     6
100
AcDbLine
 10
114.281697
 20
127.630606
 30
0.0
 11
116.781485
 21
127.630606
 31
0.0
  0
LINE
  5
165
330
1F
100
AcDbEntity
  8
0
  6
CONTINUOUS
 62
     6
100
AcDbLine
 10
116.781485
 20
127.630606
 30
0.0
 11
116.781485
 21
132.630606
 31
0.0
  0
LINE
  5
166
330
1F
100
AcDbEntity
  8
0
  6
CONTINUOUS
 62
     6
100
AcDbLine
 10
114.281697
 20
132.630606
 30
0.0
 11
116.781485
 21
132.630606
 31
0.0
  0
LINE
  5
167
330
1F
100
AcDbEntity
  8
0
  6
CONTINUOUS
 62
     6
100
AcDbLine
 10
114.281697
 20
123.380606
 30
0.0
 11
114.281697
 21
118.380606
 31
0.0
  0
LINE
  5
168
330
1F
100
AcDbEntity
  8
0
  6
CONTINUOUS
 62
     6
100
AcDbLine
 10
114.281697
 20
118.380606
 30
0.0
 11
116.781485
 21
118.380606
 31
0.0
  0
LINE
  5
169
330
1F
100
AcDbEntity
  8
0
  6
CONTINUOUS
 62
     6
100
AcDbLine
 10
116.781485
 20
118.380606
 30
0.0
 11
116.781485
 21
123.380606
 31
0.0
  0
LINE
  5
16A
330
1F
100
AcDbEntity
  8
0
  6
CONTINUOUS
 62
     6
100
AcDbLine
 10
114.281697
 20
123.380606
 30
0.0
 11
116.781485
 21
123.380606
 31
0.0
  0
LINE
  5
16B
330
1F
100
AcDbEntity
  8
0
  6
CONTINUOUS
 62
     6
100
AcDbLine
 10
114.281697
 20
188.380606
 30
0.0
 11
114.281697
 21
193.380606
 31
0.0
  0
LINE
  5
16C
330
1F
100
AcDbEntity
  8
0
  6
CONTINUOUS
 62
     6
100
AcDbLine
 10
114.281697
 20
193.380606
 30
0.0
 11
116.781485
 21
193.380606
 31
0.0
  0
LINE
  5
16D
330
1F
100
AcDbEntity
  8
0
  6
CONTINUOUS
 62
     6
100
AcDbLine
 10
116.781485
 20
193.380606
 30
0.0
 11
116.781485
 21
188.380606
 31
0.0
  0
LINE
  5
16E
330
1F
100
AcDbEntity
  8
0
  6
CONTINUOUS
 62
     6
100
AcDbLine
 10
114.281697
 20
188.380606
 30
0.0
 11
116.781485
 21
188.380606
 31
0.0
  0
LINE
  5
16F
330
1F
100
AcDbEntity
  8
0
  6
CONTINUOUS
 62
     6
100
AcDbLine
 10
118.781697
 20
158.380606
 30
0.0
 11
118.781697
 21
153.380606
 31
0.0
  0
LINE
  5
170
330
1F
100
AcDbEntity
  8
0
  6
CONTINUOUS
 62
     6
100
AcDbLine
 10
118.781697
 20
153.380606
 30
0.0
 11
117.281697
 21
153.380606
 31
0.0
  0
LINE
  5
171
330
1F
100
AcDbEntity
  8
0
  6
CONTINUOUS
 62
     6
100
AcDbLine
 10
117.281697
 20
153.380606
 30
0.0
 11
117.281697
 21
158.380606
 31
0.0
  0
LINE
  5
172
330
1F
100
AcDbEntity
  8
0
  6
CONTINUOUS
 62
     6
100
AcDbLine
 10
118.781697
 20
158.380606
 30
0.0
 11
117.281697
 21
158.380606
 31
0.0
  0
LINE
  5
173
330
1F
100
AcDbEntity
  8
0
  6
CONTINUOUS
 62
     4
100
AcDbLine
 10
138.281697
 20
115.880606
 30
0.0
 11
138.281697
 21
115.380606
 31
0.0
  0
ARC
  5
174
330
1F
100
AcDbEntity
  8
0
  6
CONTINUOUS
 62
     4
100
AcDbCircle
 10
136.781697
 20
115.380606
 30
0.0
 40
1.5
100
AcDbArc
 50
270.0
 51
0.0
  0
LINE
  5
175
330
1F
100
AcDbEntity
  8
0
  6
CONTINUOUS
 62
     4
100
AcDbLine
 10
136.781697
 20
113.880606
 30
0.0
 11
110.981697
 21
113.880606
 31
0.0
  0
LINE
  5
176
330
1F
100
AcDbEntity
  8
0
  6
CONTINUOUS
 62
     4
100
AcDbLine
 10
155.281697
 20
124.880606
 30
0.0
 11
138.281697
 21
124.880606
 31
0.0
  0
ARC
  5
177
330
1F
100
AcDbEntity
  8
0
  6
CONTINUOUS
 62
     4
100
AcDbCircle
 10
155.281697
 20
126.380606
 30
0.0
 40
1.500000000000007
100
AcDbArc
 50
270.0
 51
0.0
  0
LINE
  5
178
330
1F
100
AcDbEntity
  8
0
  6
CONTINUOUS
 62
     4
100
AcDbLine
 10
167.781697
 20
133.380606
 30
0.0
 11
156.781697
 21
133.380606
 31
0.0
  0
LINE
  5
179
330
1F
100
AcDbEntity
  8
0
  6
CONTINUOUS
 62
     4
100
AcDbLine
 10
167.781697
 20
178.380606
 30
0.0
 11
156.781697
 21
178.380606
 31
0.0
  0
LINE
  5
17A
330
1F
100
AcDbEntity
  8
0
  6
CONTINUOUS
 62
     4
100
AcDbLine
 10
155.281697
 20
186.880606
 30
0.0
 11
138.281697
 21
186.880606
 31
0.0
  0
ARC
  5
17B
330
1F
100
AcDbEntity
  8
0
  6
CONTINUOUS
 62
     4
100
AcDbCircle
 10
155.281697
 20
185.380606
 30
0.0
 40
1.5
100
AcDbArc
 50
0.0
 51
90.0
  0
LINE
  5
17C
330
1F
100
AcDbEntity
  8
0
  6
CONTINUOUS
 62
     4
100
AcDbLine
 10
113.128474
 20
197.880606
 30
0.0
 11
136.781697
 21
197.880606
 31
0.0
  0
ARC
  5
17D
330
1F
100
AcDbEntity
  8
0
  6
CONTINUOUS
 62
     4
100
AcDbCircle
 10
-136.781697
 20
196.380606
 30
0.0
 40
1.5
210
0.0
220
0.0
230
-1.0
100
AcDbArc
 50
90.0
 51
180.0
  0
LINE
  5
17E
330
1F
100
AcDbEntity
  8
0
  6
CONTINUOUS
 62
     4
100
AcDbLine
 10
138.281697
 20
124.880606
 30
0.0
 11
138.281697
 21
115.880606
 31
0.0
  0
LINE
  5
17F
330
1F
100
AcDbEntity
  8
0
  6
CONTINUOUS
 62
     4
100
AcDbLine
 10
156.781697
 20
133.380606
 30
0.0
 11
156.781697
 21
126.880606
 31
0.0
  0
LINE
  5
180
330
1F
100
AcDbEntity
  8
0
  6
CONTINUOUS
 62
     4
100
AcDbLine
 10
156.781697
 20
184.880606
 30
0.0
 11
156.781697
 21
178.380606
 31
0.0
  0
LINE
  5
181
330
1F
100
AcDbEntity
  8
0
  6
CONTINUOUS
 62
     4
100
AcDbLine
 10
138.281697
 20
195.880606
 30
0.0
 11
138.281697
 21
186.880606
 31
0.0
  0
LINE
  5
182
330
1F
100
AcDbEntity
  8
0
  6
CONTINUOUS
 62
     5
100
AcDbLine
 10
110.981697
 20
124.880606
 30
0.0
 11
138.081697
 21
124.880606
 31
0.0
  0
LINE
  5
183
330
1F
100
AcDbEntity
  8
0
  6
CONTINUOUS
 62
     5
100
AcDbLine
 10
110.981697
 20
115.880606
 30
0.0
 11
138.081697
 21
115.880606
 31
0.0
  0
LINE
  5
184
330
1F
100
AcDbEntity
  8
0
  6
CONTINUOUS
 62
     5
100
AcDbLine
 10
156.581697
 20
133.380606
 30
0.0
 11
110.981697
 21
133.380606
 31
0.0
  0
LINE
  5
185
330
1F
100
AcDbEntity
  8
0
  6
CONTINUOUS
 62
     5
100
AcDbLine
 10
156.581697
 20
126.880606
 30
0.0
 11
110.981697
 21
126.880606
 31
0.0
  0
LINE
  5
186
330
1F
100
AcDbEntity
  8
0
  6
CONTINUOUS
 62
     5
100
AcDbLine
 10
156.581697
 20
184.880606
 30
0.0
 11
110.981697
 21
184.880606
 31
0.0
  0
LINE
  5
187
330
1F
100
AcDbEntity
  8
0
  6
CONTINUOUS
 62
     5
100
AcDbLine
 10
156.581697
 20
178.380606
 30
0.0
 11
110.981697
 21
178.380606
 31
0.0
  0
LINE
  5
188
330
1F
100
AcDbEntity
  8
0
  6
CONTINUOUS
 62
     5
100
AcDbLine
 10
138.081697
 20
195.880606
 30
0.0
 11
112.77582
 21
195.880606
 31
0.0
  0
LINE
  5
189
330
1F
100
AcDbEntity
  8
0
  6
CONTINUOUS
 62
     5
100
AcDbLine
 10
111.188877
 20
186.880606
 30
0.0
 11
138.081697
 21
186.880606
 31
0.0
  0
LINE
  5
18A
330
1F
100
AcDbEntity
  8
0
  6
CONTINUOUS
 62
     5
100
AcDbLine
 10
138.081697
 20
124.880606
 30
0.0
 11
138.281697
 21
124.880606
 31
0.0
  0
LINE
  5
18B
330
1F
100
AcDbEntity
  8
0
  6
CONTINUOUS
 62
     5
100
AcDbLine
 10
138.081697
 20
115.880606
 30
0.0
 11
138.281697
 21
115.880606
 31
0.0
  0
LINE
  5
18C
330
1F
100
AcDbEntity
  8
0
  6
CONTINUOUS
 62
     5
100
AcDbLine
 10
156.581697
 20
133.380606
 30
0.0
 11
156.781697
 21
133.380606
 31
0.0
  0
LINE
  5
18D
330
1F
100
AcDbEntity
  8
0
  6
CONTINUOUS
 62
     5
100
AcDbLine
 10
156.581697
 20
126.880606
 30
0.0
 11
156.781697
 21
126.880606
 31
0.0
  0
LINE
  5
18E
330
1F
100
AcDbEntity
  8
0
  6
CONTINUOUS
 62
     5
100
AcDbLine
 10
156.581697
 20
184.880606
 30
0.0
 11
156.781697
 21
184.880606
 31
0.0
  0
LINE
  5
18F
330
1F
100
AcDbEntity
  8
0
  6
CONTINUOUS
 62
     5
100
AcDbLine
 10
156.581697
 20
178.380606
 30
0.0
 11
156.781697
 21
178.380606
 31
0.0
  0
LINE
  5
190
330
1F
100
AcDbEntity
  8
0
  6
CONTINUOUS
 62
     5
100
AcDbLine
 10
138.081697
 20
195.880606
 30
0.0
 11
138.281697
 21
195.880606
 31
0.0
  0
LINE
  5
191
330
1F
100
AcDbEntity
  8
0
  6
CONTINUOUS
 62
     5
100
AcDbLine
 10
138.081697
 20
186.880606
 30
0.0
 11
138.281697
 21
186.880606
 31
0.0
  0
LINE
  5
192
330
1F
100
AcDbEntity
  8
0
  6
CONTINUOUS
 62
     4
100
AcDbLine
 10
108.981697
 20
137.880606
 30
0.0
 11
108.981697
 21
113.880606
 31
0.0
  0
LINE
  5
193
330
1F
100
AcDbEntity
  8
0
  6
CONTINUOUS
 62
     5
100
AcDbLine
 10
113.281696
 20
137.880606
 30
0.0
 11
109.481696
 21
137.880606
 31
0.0
  0
LINE
  5
194
330
1F
100
AcDbEntity
  8
0
  6
CONTINUOUS
 62
     4
100
AcDbLine
 10
113.128474
 20
197.880606
 30
0.0
 11
111.09762
 21
197.880606
 31
0.0
  0
LINE
  5
195
330
1F
100
AcDbEntity
  8
0
  6
CONTINUOUS
 62
     4
100
AcDbLine
 10
108.981697
 20
113.880606
 30
0.0
 11
110.981697
 21
113.880606
 31
0.0
  0
LINE
  5
196
330
1F
100
AcDbEntity
  8
0
  6
CONTINUOUS
 62
     4
100
AcDbLine
 10
112.831695
 20
170.880606
 30
0.0
 11
113.281695
 21
172.880606
 31
0.0
  0
LINE
  5
197
330
1F
100
AcDbEntity
  8
0
  6
CONTINUOUS
 62
     4
100
AcDbLine
 10
112.831695
 20
170.880606
 30
0.0
 11
113.281695
 21
168.880606
 31
0.0
  0
LINE
  5
198
330
1F
100
AcDbEntity
  8
0
  6
CONTINUOUS
 62
     4
100
AcDbLine
 10
110.136397
 20
171.880606
 30
0.0
 11
111.579773
 21
171.880606
 31
0.0
  0
LINE
  5
199
330
1F
100
AcDbEntity
  8
0
  6
CONTINUOUS
 62
     4
100
AcDbLine
 10
111.579773
 20
171.880606
 30
0.0
 11
111.981697
 21
173.380606
 31
0.0
  0
LINE
  5
19A
330
1F
100
AcDbEntity
  8
0
  6
CONTINUOUS
 62
     4
100
AcDbLine
 10
111.981697
 20
173.380606
 30
0.0
 11
113.281697
 21
173.380606
 31
0.0
  0
LINE
  5
19B
330
1F
100
AcDbEntity
  8
0
  6
CONTINUOUS
 62
     4
100
AcDbLine
 10
113.281697
 20
168.880606
 30
0.0
 11
113.281697
 21
139.58062
 31
0.0
  0
LINE
  5
19C
330
1F
100
AcDbEntity
  8
0
  6
CONTINUOUS
 62
     5
100
AcDbLine
 10
110.981697
 20
133.380606
 30
0.0
 11
110.981697
 21
135.880606
 31
0.0
  0
LINE
  5
19D
330
1F
100
AcDbEntity
  8
0
  6
CONTINUOUS
 62
     5
100
AcDbLine
 10
110.981697
 20
124.880606
 30
0.0
 11
110.981697
 21
126.880606
 31
0.0
  0
LINE
  5
19E
330
1F
100
AcDbEntity
  8
0
  6
CONTINUOUS
 62
     5
100
AcDbLine
 10
110.981697
 20
113.880606
 30
0.0
 11
110.981697
 21
115.880606
 31
0.0
  0
LINE
  5
19F
330
1F
100
AcDbEntity
  8
0
  6
CONTINUOUS
 62
     5
100
AcDbLine
 10
110.981697
 20
135.880606
 30
0.0
 11
115.281697
 21
135.880606
 31
0.0
  0
LINE
  5
1A0
330
1F
100
AcDbEntity
  8
0
  6
CONTINUOUS
 62
     5
100
AcDbLine
 10
115.281697
 20
175.880606
 30
0.0
 11
110.981697
 21
175.880606
 31
0.0
  0
LINE
  5
1A1
330
1F
100
AcDbEntity
  8
0
  6
CONTINUOUS
 62
     5
100
AcDbLine
 10
110.981697
 20
184.880606
 30
0.0
 11
110.981697
 21
185.705628
 31
0.0
  0
LINE
  5
1A2
330
1F
100
AcDbEntity
  8
0
  6
CONTINUOUS
 62
     5
100
AcDbLine
 10
110.981697
 20
175.880606
 30
0.0
 11
110.981697
 21
178.380606
 31
0.0
  0
LINE
  5
1A3
330
1F
100
AcDbEntity
  8
0
  6
CONTINUOUS
 62
     4
100
AcDbLine
 10
111.09762
 20
197.880606
 30
0.0
 11
108.981697
 21
185.880606
 31
0.0
  0
LINE
  5
1A4
330
1F
100
AcDbEntity
  8
0
  6
CONTINUOUS
 62
     4
100
AcDbLine
 10
108.981697
 20
185.880606
 30
0.0
 11
108.981697
 21
173.880606
 31
0.0
  0
LINE
  5
1A5
330
1F
100
AcDbEntity
  8
0
  6
CONTINUOUS
 62
     4
100
AcDbLine
 10
108.981697
 20
173.880606
 30
0.0
 11
110.136397
 21
171.880606
 31
0.0
  0
LINE
  5
1A6
330
1F
100
AcDbEntity
  8
0
  6
CONTINUOUS
 62
     5
100
AcDbLine
 10
112.77582
 20
195.880606
 30
0.0
 11
113.128474
 21
197.880606
 31
0.0
  0
LINE
  5
1A7
330
1F
100
AcDbEntity
  8
0
  6
CONTINUOUS
 62
     5
100
AcDbLine
 10
110.981697
 20
185.705628
 30
0.0
 11
111.188877
 21
186.880606
 31
0.0
  0
LINE
  5
1A8
330
1F
100
AcDbEntity
  8
0
  6
CONTINUOUS
 62
     5
100
AcDbLine
 10
115.281485
 20
184.043136
 30
0.0
 11
114.281697
 21
184.130606
 31
0.0
  0
LINE
  5
1A9
330
1F
100
AcDbEntity
  8
0
  6
CONTINUOUS
 62
     5
100
AcDbLine
 10
115.281485
 20
184.043136
 30
0.0
 11
116.781485
 21
183.911903
 31
0.0
  0
LINE
  5
1AA
330
1F
100
AcDbEntity
  8
0
  6
CONTINUOUS
 62
     5
100
AcDbLine
 10
115.281485
 20
179.218076
 30
0.0
 11
115.281485
 21
184.043136
 31
0.0
  0
LINE
  5
1AB
330
1F
100
AcDbEntity
  8
0
  6
CONTINUOUS
 62
     5
100
AcDbLine
 10
115.281485
 20
179.218076
 30
0.0
 11
116.781485
 21
179.349309
 31
0.0
  0
LINE
  5
1AC
330
1F
100
AcDbEntity
  8
0
  6
CONTINUOUS
 62
     5
100
AcDbLine
 10
114.281697
 20
179.130606
 30
0.0
 11
115.281485
 21
179.218076
 31
0.0
  0
LINE
  5
1AD
330
1F
100
AcDbEntity
  8
0
  6
CONTINUOUS
 62
     5
100
AcDbLine
 10
115.281485
 20
127.718076
 30
0.0
 11
114.281697
 21
127.630606
 31
0.0
  0
LINE
  5
1AE
330
1F
100
AcDbEntity
  8
0
  6
CONTINUOUS
 62
     5
100
AcDbLine
 10
115.281485
 20
127.718076
 30
0.0
 11
116.781485
 21
127.849309
 31
0.0
  0
LINE
  5
1AF
330
1F
100
AcDbEntity
  8
0
  6
CONTINUOUS
 62
     5
100
AcDbLine
 10
115.281485
 20
132.543136
 30
0.0
 11
115.281485
 21
127.718076
 31
0.0
  0
LINE
  5
1B0
330
1F
100
AcDbEntity
  8
0
  6
CONTINUOUS
 62
     5
100
AcDbLine
 10
115.281485
 20
132.543136
 30
0.0
 11
116.781485
 21
132.411903
 31
0.0
  0
LINE
  5
1B1
330
1F
100
AcDbEntity
  8
0
  6
CONTINUOUS
 62
     5
100
AcDbLine
 10
114.281697
 20
132.630606
 30
0.0
 11
115.281485
 21
132.543136
 31
0.0
  0
LINE
  5
1B2
330
1F
100
AcDbEntity
  8
0
  6
CONTINUOUS
 62
     5
100
AcDbLine
 10
117.781697
 20
153.42435
 30
0.0
 11
117.281697
 21
153.380606
 31
0.0
  0
LINE
  5
1B3
330
1F
100
AcDbEntity
  8
0
  6
CONTINUOUS
 62
     5
100
AcDbLine
 10
117.781697
 20
153.42435
 30
0.0
 11
118.781697
 21
153.511839
 31
0.0
  0
LINE
  5
1B4
330
1F
100
AcDbEntity
  8
0
  6
CONTINUOUS
 62
     5
100
AcDbLine
 10
117.781697
 20
158.336861
 30
0.0
 11
117.781697
 21
153.42435
 31
0.0
  0
LINE
  5
1B5
330
1F
100
AcDbEntity
  8
0
  6
CONTINUOUS
 62
     5
100
AcDbLine
 10
117.781697
 20
158.336861
 30
0.0
 11
118.781697
 21
158.249373
 31
0.0
  0
LINE
  5
1B6
330
1F
100
AcDbEntity
  8
0
  6
CONTINUOUS
 62
     5
100
AcDbLine
 10
117.281697
 20
158.380606
 30
0.0
 11
117.781697
 21
158.336861
 31
0.0
  0
LINE
  5
1B7
330
1F
100
AcDbEntity
  8
0
  6
CONTINUOUS
 62
     4
100
AcDbLine
 10
89.668785
 20
176.380606
 30
0.0
 11
89.668785
 21
178.180606
 31
0.0
  0
LINE
  5
1B8
330
1F
100
AcDbEntity
  8
0
  6
CONTINUOUS
 62
     4
100
AcDbLine
 10
89.668785
 20
133.580606
 30
0.0
 11
89.668785
 21
135.380606
 31
0.0
  0
ARC
  5
1B9
330
1F
100
AcDbEntity
  8
0
  6
CONTINUOUS
 62
     6
100
AcDbCircle
 10
89.468785
 20
178.180606
 30
0.0
 40
0.2000000029802358
100
AcDbArc
 50
0.0
 51
90.0
  0
ARC
  5
1BA
330
1F
100
AcDbEntity
  8
0
  6
CONTINUOUS
 62
     6
100
AcDbCircle
 10
-89.468785
 20
133.580606
 30
0.0
 40
0.2000000029802351
210
0.0
220
0.0
230
-1.0
100
AcDbArc
 50
180.0
 51
270.0
  0
LINE
  5
1BB
330
1F
100
AcDbEntity
  8
0
  6
CONTINUOUS
 62
     6
100
AcDbLine
 10
72.068786
 20
133.380606
 30
0.0
 11
72.668785
 21
133.380606
 31
0.0
  0
LINE
  5
1BC
330
1F
100
AcDbEntity
  8
0
  6
CONTINUOUS
 62
     6
100
AcDbLine
 10
79.30301
 20
133.380606
 30
0.0
 11
89.468785
 21
133.380606
 31
0.0
  0
LINE
  5
1BD
330
1F
100
AcDbEntity
  8
0
  6
CONTINUOUS
 62
     6
100
AcDbLine
 10
64.804094
 20
133.380606
 30
0.0
 11
72.068786
 21
133.380606
 31
0.0
  0
LINE
  5
1BE
330
1F
100
AcDbEntity
  8
0
  6
CONTINUOUS
 62
     6
100
AcDbLine
 10
72.668785
 20
133.380606
 30
0.0
 11
79.30301
 21
133.380606
 31
0.0
  0
LINE
  5
1BF
330
1F
100
AcDbEntity
  8
0
  6
CONTINUOUS
 62
     6
100
AcDbLine
 10
77.068755
 20
135.280598
 30
0.0
 11
77.068755
 21
137.480598
 31
0.0
  0
LINE
  5
1C0
330
1F
100
AcDbEntity
  8
0
  6
CONTINUOUS
 62
     6
100
AcDbLine
 10
77.068755
 20
137.480598
 30
0.0
 11
75.468755
 21
137.480598
 31
0.0
  0
LINE
  5
1C1
330
1F
100
AcDbEntity
  8
0
  6
CONTINUOUS
 62
     6
100
AcDbLine
 10
75.468755
 20
137.480598
 30
0.0
 11
75.468755
 21
135.280598
 31
0.0
  0
LINE
  5
1C2
330
1F
100
AcDbEntity
  8
0
  6
CONTINUOUS
 62
     6
100
AcDbLine
 10
75.468755
 20
135.280598
 30
0.0
 11
77.068755
 21
135.280598
 31
0.0
  0
LINE
  5
1C3
330
1F
100
AcDbEntity
  8
0
  6
CONTINUOUS
 62
     6
100
AcDbLine
 10
78.568755
 20
137.480598
 30
0.0
 11
78.568755
 21
135.280598
 31
0.0
  0
LINE
  5
1C4
330
1F
100
AcDbEntity
  8
0
  6
CONTINUOUS
 62
     6
100
AcDbLine
 10
78.568755
 20
135.280598
 30
0.0
 11
80.168755
 21
135.280598
 31
0.0
  0
LINE
  5
1C5
330
1F
100
AcDbEntity
  8
0
  6
CONTINUOUS
 62
     6
100
AcDbLine
 10
80.168755
 20
135.280598
 30
0.0
 11
80.168755
 21
137.480598
 31
0.0
  0
LINE
  5
1C6
330
1F
100
AcDbEntity
  8
0
  6
CONTINUOUS
 62
     6
100
AcDbLine
 10
80.168755
 20
137.480598
 30
0.0
 11
78.568755
 21
137.480598
 31
0.0
  0
LINE
  5
1C7
330
1F
100
AcDbEntity
  8
0
  6
CONTINUOUS
 62
     6
100
AcDbLine
 10
86.368755
 20
137.480598
 30
0.0
 11
84.768755
 21
137.480598
 31
0.0
  0
LINE
  5
1C8
330
1F
100
AcDbEntity
  8
0
  6
CONTINUOUS
 62
     6
100
AcDbLine
 10
84.768755
 20
137.480598
 30
0.0
 11
84.768755
 21
135.280598
 31
0.0
  0
LINE
  5
1C9
330
1F
100
AcDbEntity
  8
0
  6
CONTINUOUS
 62
     6
100
AcDbLine
 10
84.768755
 20
135.280598
 30
0.0
 11
86.368755
 21
135.280598
 31
0.0
  0
LINE
  5
1CA
330
1F
100
AcDbEntity
  8
0
  6
CONTINUOUS
 62
     6
100
AcDbLine
 10
86.368755
 20
135.280598
 30
0.0
 11
86.368755
 21
137.480598
 31
0.0
  0
LINE
  5
1CB
330
1F
100
AcDbEntity
  8
0
  6
CONTINUOUS
 62
     6
100
AcDbLine
 10
81.668755
 20
135.280598
 30
0.0
 11
83.268755
 21
135.280598
 31
0.0
  0
LINE
  5
1CC
330
1F
100
AcDbEntity
  8
0
  6
CONTINUOUS
 62
     6
100
AcDbLine
 10
83.268755
 20
137.480598
 30
0.0
 11
81.668755
 21
137.480598
 31
0.0
  0
LINE
  5
1CD
330
1F
100
AcDbEntity
  8
0
  6
CONTINUOUS
 62
     6
100
AcDbLine
 10
81.668755
 20
135.280598
 30
0.0
 11
81.668755
 21
137.480598
 31
0.0
  0
LINE
  5
1CE
330
1F
100
AcDbEntity
  8
0
  6
CONTINUOUS
 62
     6
100
AcDbLine
 10
83.268755
 20
135.280598
 30
0.0
 11
83.268755
 21
137.480598
 31
0.0
  0
ARC
  5
1CF
330
1F
100
AcDbEntity
  8
0
  6
CONTINUOUS
 62
     6
100
AcDbCircle
 10
20.268785
 20
178.180606
 30
0.0
 40
0.2000000029802322
100
AcDbArc
 50
90.0
 51
180.0
  0
ARC
  5
1D0
330
1F
100
AcDbEntity
  8
0
  6
CONTINUOUS
 62
     6
100
AcDbCircle
 10
-20.268785
 20
133.580606
 30
0.0
 40
0.2000000029802322
210
0.0
220
0.0
230
-1.0
100
AcDbArc
 50
270.0
 51
0.0
  0
LINE
  5
1D1
330
1F
100
AcDbEntity
  8
0
  6
CONTINUOUS
 62
     4
100
AcDbLine
 10
20.068785
 20
133.580606
 30
0.0
 11
20.068785
 21
135.380606
 31
0.0
  0
LINE
  5
1D2
330
1F
100
AcDbEntity
  8
0
  6
CONTINUOUS
 62
     4
100
AcDbLine
 10
20.068785
 20
176.380606
 30
0.0
 11
20.068785
 21
178.180606
 31
0.0
  0
LINE
  5
1D3
330
1F
100
AcDbEntity
  8
0
  6
CONTINUOUS
 62
     6
100
AcDbLine
 10
29.804094
 20
133.380606
 30
0.0
 11
37.068786
 21
133.380606
 31
0.0
  0
LINE
  5
1D4
330
1F
100
AcDbEntity
  8
0
  6
CONTINUOUS
 62
     6
100
AcDbLine
 10
37.068786
 20
133.380606
 30
0.0
 11
37.668785
 21
133.380606
 31
0.0
  0
LINE
  5
1D5
330
1F
100
AcDbEntity
  8
0
  6
CONTINUOUS
 62
     6
100
AcDbLine
 10
37.668785
 20
133.380606
 30
0.0
 11
44.30301
 21
133.380606
 31
0.0
  0
LINE
  5
1D6
330
1F
100
AcDbEntity
  8
0
  6
CONTINUOUS
 62
     6
100
AcDbLine
 10
20.268785
 20
133.380606
 30
0.0
 11
29.804094
 21
133.380606
 31
0.0
  0
LINE
  5
1D7
330
1F
100
AcDbEntity
  8
0
  6
CONTINUOUS
 62
     6
100
AcDbLine
 10
24.968814
 20
135.280598
 30
0.0
 11
24.968814
 21
137.480598
 31
0.0
  0
LINE
  5
1D8
330
1F
100
AcDbEntity
  8
0
  6
CONTINUOUS
 62
     6
100
AcDbLine
 10
24.968814
 20
137.480598
 30
0.0
 11
23.368814
 21
137.480598
 31
0.0
  0
LINE
  5
1D9
330
1F
100
AcDbEntity
  8
0
  6
CONTINUOUS
 62
     6
100
AcDbLine
 10
23.368814
 20
137.480598
 30
0.0
 11
23.368814
 21
135.280598
 31
0.0
  0
LINE
  5
1DA
330
1F
100
AcDbEntity
  8
0
  6
CONTINUOUS
 62
     6
100
AcDbLine
 10
23.368814
 20
135.280598
 30
0.0
 11
24.968814
 21
135.280598
 31
0.0
  0
LINE
  5
1DB
330
1F
100
AcDbEntity
  8
0
  6
CONTINUOUS
 62
     6
100
AcDbLine
 10
29.568814
 20
137.480598
 30
0.0
 11
29.568814
 21
135.280598
 31
0.0
  0
LINE
  5
1DC
330
1F
100
AcDbEntity
  8
0
  6
CONTINUOUS
 62
     6
100
AcDbLine
 10
29.568814
 20
135.280598
 30
0.0
 11
31.168814
 21
135.280598
 31
0.0
  0
LINE
  5
1DD
330
1F
100
AcDbEntity
  8
0
  6
CONTINUOUS
 62
     6
100
AcDbLine
 10
31.168814
 20
135.280598
 30
0.0
 11
31.168814
 21
137.480598
 31
0.0
  0
LINE
  5
1DE
330
1F
100
AcDbEntity
  8
0
  6
CONTINUOUS
 62
     6
100
AcDbLine
 10
31.168814
 20
137.480598
 30
0.0
 11
29.568814
 21
137.480598
 31
0.0
  0
LINE
  5
1DF
330
1F
100
AcDbEntity
  8
0
  6
CONTINUOUS
 62
     6
100
AcDbLine
 10
32.668814
 20
137.480598
 30
0.0
 11
32.668814
 21
135.280598
 31
0.0
  0
LINE
  5
1E0
330
1F
100
AcDbEntity
  8
0
  6
CONTINUOUS
 62
     6
100
AcDbLine
 10
32.668814
 20
135.280598
 30
0.0
 11
34.268814
 21
135.280598
 31
0.0
  0
LINE
  5
1E1
330
1F
100
AcDbEntity
  8
0
  6
CONTINUOUS
 62
     6
100
AcDbLine
 10
34.268814
 20
135.280598
 30
0.0
 11
34.268814
 21
137.480598
 31
0.0
  0
LINE
  5
1E2
330
1F
100
AcDbEntity
  8
0
  6
CONTINUOUS
 62
     6
100
AcDbLine
 10
34.268814
 20
137.480598
 30
0.0
 11
32.668814
 21
137.480598
 31
0.0
  0
LINE
  5
1E3
330
1F
100
AcDbEntity
  8
0
  6
CONTINUOUS
 62
     6
100
AcDbLine
 10
26.468814
 20
135.280598
 30
0.0
 11
28.068814
 21
135.280598
 31
0.0
  0
LINE
  5
1E4
330
1F
100
AcDbEntity
  8
0
  6
CONTINUOUS
 62
     6
100
AcDbLine
 10
28.068814
 20
137.480598
 30
0.0
 11
26.468814
 21
137.480598
 31
0.0
  0
LINE
  5
1E5
330
1F
100
AcDbEntity
  8
0
  6
CONTINUOUS
 62
     6
100
AcDbLine
 10
28.068814
 20
135.280598
 30
0.0
 11
28.068814
 21
137.480598
 31
0.0
  0
LINE
  5
1E6
330
1F
100
AcDbEntity
  8
0
  6
CONTINUOUS
 62
     6
100
AcDbLine
 10
26.468814
 20
135.280598
 30
0.0
 11
26.468814
 21
137.480598
 31
0.0
  0
LINE
  5
1E7
330
1F
100
AcDbEntity
  8
0
  6
CONTINUOUS
 62
     6
100
AcDbLine
 10
89.468785
 20
178.380606
 30
0.0
 11
20.268785
 21
178.380606
 31
0.0
  0
LINE
  5
1E8
330
1F
100
AcDbEntity
  8
0
  6
CONTINUOUS
 62
     6
100
AcDbLine
 10
64.804094
 20
133.380606
 30
0.0
 11
44.30301
 21
133.380606
 31
0.0
  0
LINE
  5
1E9
330
1F
100
AcDbEntity
  8
0
  6
CONTINUOUS
 62
     5
100
AcDbLine
 10
86.229479
 20
191.53246
 30
0.0
 11
87.071796
 21
191.655589
 31
0.0
  0
LINE
  5
1EA
330
1F
100
AcDbEntity
  8
0
  6
CONTINUOUS
 62
     5
100
AcDbLine
 10
87.071796
 20
191.655589
 30
0.0
 11
86.88413
 21
192.939406
 31
0.0
  0
LINE
  5
1EB
330
1F
100
AcDbEntity
  8
0
  6
CONTINUOUS
 62
     5
100
AcDbLine
 10
86.88413
 20
192.939406
 30
0.0
 11
86.041813
 21
192.816278
 31
0.0
  0
LINE
  5
1EC
330
1F
100
AcDbEntity
  8
0
  6
CONTINUOUS
 62
     5
100
AcDbLine
 10
86.041813
 20
192.816278
 30
0.0
 11
85.918684
 21
193.658596
 31
0.0
  0
LINE
  5
1ED
330
1F
100
AcDbEntity
  8
0
  6
CONTINUOUS
 62
     5
100
AcDbLine
 10
84.634867
 20
193.47093
 30
0.0
 11
84.757995
 21
192.628612
 31
0.0
  0
LINE
  5
1EE
330
1F
100
AcDbEntity
  8
0
  6
CONTINUOUS
 62
     5
100
AcDbLine
 10
84.757995
 20
192.628612
 30
0.0
 11
83.915678
 21
192.505484
 31
0.0
  0
LINE
  5
1EF
330
1F
100
AcDbEntity
  8
0
  6
CONTINUOUS
 62
     5
100
AcDbLine
 10
83.915678
 20
192.505484
 30
0.0
 11
84.103343
 21
191.221666
 31
0.0
  0
LINE
  5
1F0
330
1F
100
AcDbEntity
  8
0
  6
CONTINUOUS
 62
     5
100
AcDbLine
 10
84.103343
 20
191.221666
 30
0.0
 11
84.945661
 21
191.344795
 31
0.0
  0
LINE
  5
1F1
330
1F
100
AcDbEntity
  8
0
  6
CONTINUOUS
 62
     5
100
AcDbLine
 10
84.945661
 20
191.344795
 30
0.0
 11
85.068789
 21
190.502477
 31
0.0
  0
LINE
  5
1F2
330
1F
100
AcDbEntity
  8
0
  6
CONTINUOUS
 62
     5
100
AcDbLine
 10
86.352607
 20
190.690143
 30
0.0
 11
86.229479
 21
191.53246
 31
0.0
  0
LINE
  5
1F3
330
1F
100
AcDbEntity
  8
0
  6
CONTINUOUS
 62
     5
100
AcDbLine
 10
84.881037
 20
193.506914
 30
0.0
 11
84.634867
 21
193.47093
 31
0.0
  0
LINE
  5
1F4
330
1F
100
AcDbEntity
  8
0
  6
CONTINUOUS
 62
     5
100
AcDbLine
 10
85.918684
 20
193.658596
 30
0.0
 11
85.672625
 21
193.622627
 31
0.0
  0
LINE
  5
1F5
330
1F
100
AcDbEntity
  8
0
  6
CONTINUOUS
 62
     5
100
AcDbLine
 10
85.068789
 20
190.502477
 30
0.0
 11
85.31496
 21
190.538462
 31
0.0
  0
LINE
  5
1F6
330
1F
100
AcDbEntity
  8
0
  6
CONTINUOUS
 62
     5
100
AcDbLine
 10
86.106547
 20
190.654174
 30
0.0
 11
86.352607
 21
190.690143
 31
0.0
  0
LINE
  5
1F7
330
1F
100
AcDbEntity
  8
0
  6
CONTINUOUS
 62
     5
100
AcDbLine
 10
84.881037
 20
193.506914
 30
0.0
 11
84.934995
 21
193.137791
 31
0.0
  0
LINE
  5
1F8
330
1F
100
AcDbEntity
  8
0
  6
CONTINUOUS
 62
     5
100
AcDbLine
 10
85.672625
 20
193.622627
 30
0.0
 11
85.726582
 21
193.253504
 31
0.0
  0
LINE
  5
1F9
330
1F
100
AcDbEntity
  8
0
  6
CONTINUOUS
 62
     5
100
AcDbLine
 10
84.934995
 20
193.137791
 30
0.0
 11
85.726582
 21
193.253504
 31
0.0
  0
LINE
  5
1FA
330
1F
100
AcDbEntity
  8
0
  6
CONTINUOUS
 62
     5
100
AcDbLine
 10
85.31496
 20
190.538462
 30
0.0
 11
85.261002
 21
190.907585
 31
0.0
  0
LINE
  5
1FB
330
1F
100
AcDbEntity
  8
0
  6
CONTINUOUS
 62
     5
100
AcDbLine
 10
86.106547
 20
190.654174
 30
0.0
 11
86.052589
 21
191.023298
 31
0.0
  0
LINE
  5
1FC
330
1F
100
AcDbEntity
  8
0
  6
CONTINUOUS
 62
     5
100
AcDbLine
 10
85.261002
 20
190.907585
 30
0.0
 11
86.052589
 21
191.023298
 31
0.0
  0
ARC
  5
1FD
330
1F
100
AcDbEntity
  8
0
  6
CONTINUOUS
 62
     5
100
AcDbCircle
 10
-85.493783
 20
192.080606
 30
0.0
 40
2.3
210
0.0
220
0.0
230
-1.0
100
AcDbArc
 50
71.668108
 51
81.683513
  0
ARC
  5
1FE
330
1F
100
AcDbEntity
  8
0
  6
CONTINUOUS
 62
     5
100
AcDbCircle
 10
-85.493783
 20
192.080606
 30
0.0
 40
2.3
210
0.0
220
0.0
230
-1.0
100
AcDbArc
 50
261.683528
 51
271.698928
  0
ARC
  5
1FF
330
1F
100
AcDbEntity
  8
0
  6
CONTINUOUS
 62
     5
100
AcDbCircle
 10
85.493783
 20
192.080606
 30
0.0
 40
2.3
100
AcDbArc
 50
88.301072
 51
98.316487
  0
ARC
  5
200
330
1F
100
AcDbEntity
  8
0
  6
CONTINUOUS
 62
     5
100
AcDbCircle
 10
85.493783
 20
192.080606
 30
0.0
 40
2.3
100
AcDbArc
 50
278.316472
 51
288.331892
  0
ARC
  5
201
330
1F
100
AcDbEntity
  8
0
  6
CONTINUOUS
 62
     5
100
AcDbCircle
 10
85.493783
 20
192.080606
 30
0.0
 40
2.3
100
AcDbArc
 50
288.331892
 51
88.301072
  0
LINE
  5
202
330
1F
100
AcDbEntity
  8
0
  6
CONTINUOUS
 62
     5
100
AcDbLine
 10
86.173014
 20
190.199477
 30
0.0
 11
86.106547
 21
190.654174
 31
0.0
  0
LINE
  5
203
330
1F
100
AcDbEntity
  8
0
  6
CONTINUOUS
 62
     5
100
AcDbLine
 10
85.672625
 20
193.622627
 30
0.0
 11
85.60614
 21
194.077447
 31
0.0
  0
ARC
  5
204
330
1F
100
AcDbEntity
  8
0
  6
CONTINUOUS
 62
     5
100
AcDbCircle
 10
-85.493783
 20
192.080606
 30
0.0
 40
2.3
210
0.0
220
0.0
230
-1.0
100
AcDbArc
 50
271.698928
 51
71.668108
  0
LINE
  5
205
330
1F
100
AcDbEntity
  8
0
  6
CONTINUOUS
 62
     5
100
AcDbLine
 10
85.31496
 20
190.538462
 30
0.0
 11
85.381427
 21
190.083764
 31
0.0
  0
LINE
  5
206
330
1F
100
AcDbEntity
  8
0
  6
CONTINUOUS
 62
     5
100
AcDbLine
 10
84.814553
 20
193.961735
 30
0.0
 11
84.881037
 21
193.506914
 31
0.0
  0
LINE
  5
207
330
1F
100
AcDbEntity
  8
0
  6
CONTINUOUS
 62
     5
100
AcDbLine
 10
86.173014
 20
190.199477
 30
0.0
 11
86.217181
 21
189.89733
 31
0.0
  0
LINE
  5
208
330
1F
100
AcDbEntity
  8
0
  6
CONTINUOUS
 62
     5
100
AcDbLine
 10
85.60614
 20
194.077447
 30
0.0
 11
85.561973
 21
194.379595
 31
0.0
  0
LINE
  5
209
330
1F
100
AcDbEntity
  8
0
  6
CONTINUOUS
 62
     5
100
AcDbLine
 10
85.381427
 20
190.083764
 30
0.0
 11
85.425594
 21
189.781617
 31
0.0
  0
LINE
  5
20A
330
1F
100
AcDbEntity
  8
0
  6
CONTINUOUS
 62
     5
100
AcDbLine
 10
84.770385
 20
194.263882
 30
0.0
 11
84.814553
 21
193.961735
 31
0.0
  0
LINE
  5
20B
330
1F
100
AcDbEntity
  8
0
  6
CONTINUOUS
 62
     5
100
AcDbLine
 10
80.229479
 20
191.53246
 30
0.0
 11
81.071796
 21
191.655589
 31
0.0
  0
LINE
  5
20C
330
1F
100
AcDbEntity
  8
0
  6
CONTINUOUS
 62
     5
100
AcDbLine
 10
81.071796
 20
191.655589
 30
0.0
 11
80.88413
 21
192.939406
 31
0.0
  0
LINE
  5
20D
330
1F
100
AcDbEntity
  8
0
  6
CONTINUOUS
 62
     5
100
AcDbLine
 10
80.88413
 20
192.939406
 30
0.0
 11
80.041813
 21
192.816278
 31
0.0
  0
LINE
  5
20E
330
1F
100
AcDbEntity
  8
0
  6
CONTINUOUS
 62
     5
100
AcDbLine
 10
80.041813
 20
192.816278
 30
0.0
 11
79.918684
 21
193.658596
 31
0.0
  0
LINE
  5
20F
330
1F
100
AcDbEntity
  8
0
  6
CONTINUOUS
 62
     5
100
AcDbLine
 10
78.634867
 20
193.47093
 30
0.0
 11
78.757995
 21
192.628612
 31
0.0
  0
LINE
  5
210
330
1F
100
AcDbEntity
  8
0
  6
CONTINUOUS
 62
     5
100
AcDbLine
 10
78.757995
 20
192.628612
 30
0.0
 11
77.915678
 21
192.505484
 31
0.0
  0
LINE
  5
211
330
1F
100
AcDbEntity
  8
0
  6
CONTINUOUS
 62
     5
100
AcDbLine
 10
77.915678
 20
192.505484
 30
0.0
 11
78.103343
 21
191.221666
 31
0.0
  0
LINE
  5
212
330
1F
100
AcDbEntity
  8
0
  6
CONTINUOUS
 62
     5
100
AcDbLine
 10
78.103343
 20
191.221666
 30
0.0
 11
78.945661
 21
191.344795
 31
0.0
  0
LINE
  5
213
330
1F
100
AcDbEntity
  8
0
  6
CONTINUOUS
 62
     5
100
AcDbLine
 10
78.945661
 20
191.344795
 30
0.0
 11
79.068789
 21
190.502477
 31
0.0
  0
LINE
  5
214
330
1F
100
AcDbEntity
  8
0
  6
CONTINUOUS
 62
     5
100
AcDbLine
 10
80.352607
 20
190.690143
 30
0.0
 11
80.229479
 21
191.53246
 31
0.0
  0
LINE
  5
215
330
1F
100
AcDbEntity
  8
0
  6
CONTINUOUS
 62
     5
100
AcDbLine
 10
78.881037
 20
193.506914
 30
0.0
 11
78.634867
 21
193.47093
 31
0.0
  0
LINE
  5
216
330
1F
100
AcDbEntity
  8
0
  6
CONTINUOUS
 62
     5
100
AcDbLine
 10
79.918684
 20
193.658596
 30
0.0
 11
79.672625
 21
193.622627
 31
0.0
  0
LINE
  5
217
330
1F
100
AcDbEntity
  8
0
  6
CONTINUOUS
 62
     5
100
AcDbLine
 10
79.068789
 20
190.502477
 30
0.0
 11
79.31496
 21
190.538462
 31
0.0
  0
LINE
  5
218
330
1F
100
AcDbEntity
  8
0
  6
CONTINUOUS
 62
     5
100
AcDbLine
 10
80.106547
 20
190.654174
 30
0.0
 11
80.352607
 21
190.690143
 31
0.0
  0
LINE
  5
219
330
1F
100
AcDbEntity
  8
0
  6
CONTINUOUS
 62
     5
100
AcDbLine
 10
78.881037
 20
193.506914
 30
0.0
 11
78.934995
 21
193.137791
 31
0.0
  0
LINE
  5
21A
330
1F
100
AcDbEntity
  8
0
  6
CONTINUOUS
 62
     5
100
AcDbLine
 10
79.672625
 20
193.622627
 30
0.0
 11
79.726582
 21
193.253504
 31
0.0
  0
LINE
  5
21B
330
1F
100
AcDbEntity
  8
0
  6
CONTINUOUS
 62
     5
100
AcDbLine
 10
78.934995
 20
193.137791
 30
0.0
 11
79.726582
 21
193.253504
 31
0.0
  0
LINE
  5
21C
330
1F
100
AcDbEntity
  8
0
  6
CONTINUOUS
 62
     5
100
AcDbLine
 10
79.31496
 20
190.538462
 30
0.0
 11
79.261002
 21
190.907585
 31
0.0
  0
LINE
  5
21D
330
1F
100
AcDbEntity
  8
0
  6
CONTINUOUS
 62
     5
100
AcDbLine
 10
80.106547
 20
190.654174
 30
0.0
 11
80.052589
 21
191.023298
 31
0.0
  0
LINE
  5
21E
330
1F
100
AcDbEntity
  8
0
  6
CONTINUOUS
 62
     5
100
AcDbLine
 10
79.261002
 20
190.907585
 30
0.0
 11
80.052589
 21
191.023298
 31
0.0
  0
ARC
  5
21F
330
1F
100
AcDbEntity
  8
0
  6
CONTINUOUS
 62
     5
100
AcDbCircle
 10
-79.493783
 20
192.080606
 30
0.0
 40
2.3
210
0.0
220
0.0
230
-1.0
100
AcDbArc
 50
71.668108
 51
81.683513
  0
ARC
  5
220
330
1F
100
AcDbEntity
  8
0
  6
CONTINUOUS
 62
     5
100
AcDbCircle
 10
-79.493783
 20
192.080606
 30
0.0
 40
2.3
210
0.0
220
0.0
230
-1.0
100
AcDbArc
 50
261.683528
 51
271.698928
  0
ARC
  5
221
330
1F
100
AcDbEntity
  8
0
  6
CONTINUOUS
 62
     5
100
AcDbCircle
 10
79.493783
 20
192.080606
 30
0.0
 40
2.3
100
AcDbArc
 50
88.301072
 51
98.316487
  0
ARC
  5
222
330
1F
100
AcDbEntity
  8
0
  6
CONTINUOUS
 62
     5
100
AcDbCircle
 10
79.493783
 20
192.080606
 30
0.0
 40
2.3
100
AcDbArc
 50
278.316472
 51
288.331892
  0
ARC
  5
223
330
1F
100
AcDbEntity
  8
0
  6
CONTINUOUS
 62
     5
100
AcDbCircle
 10
79.493783
 20
192.080606
 30
0.0
 40
2.3
100
AcDbArc
 50
288.331892
 51
88.301072
  0
LINE
  5
224
330
1F
100
AcDbEntity
  8
0
  6
CONTINUOUS
 62
     5
100
AcDbLine
 10
80.173014
 20
190.199477
 30
0.0
 11
80.106547
 21
190.654174
 31
0.0
  0
LINE
  5
225
330
1F
100
AcDbEntity
  8
0
  6
CONTINUOUS
 62
     5
100
AcDbLine
 10
79.672625
 20
193.622627
 30
0.0
 11
79.60614
 21
194.077447
 31
0.0
  0
ARC
  5
226
330
1F
100
AcDbEntity
  8
0
  6
CONTINUOUS
 62
     5
100
AcDbCircle
 10
-79.493783
 20
192.080606
 30
0.0
 40
2.3
210
0.0
220
0.0
230
-1.0
100
AcDbArc
 50
271.698928
 51
71.668108
  0
LINE
  5
227
330
1F
100
AcDbEntity
  8
0
  6
CONTINUOUS
 62
     5
100
AcDbLine
 10
79.31496
 20
190.538462
 30
0.0
 11
79.381427
 21
190.083764
 31
0.0
  0
LINE
  5
228
330
1F
100
AcDbEntity
  8
0
  6
CONTINUOUS
 62
     5
100
AcDbLine
 10
78.814553
 20
193.961735
 30
0.0
 11
78.881037
 21
193.506914
 31
0.0
  0
LINE
  5
229
330
1F
100
AcDbEntity
  8
0
  6
CONTINUOUS
 62
     5
100
AcDbLine
 10
80.173014
 20
190.199477
 30
0.0
 11
80.217181
 21
189.89733
 31
0.0
  0
LINE
  5
22A
330
1F
100
AcDbEntity
  8
0
  6
CONTINUOUS
 62
     5
100
AcDbLine
 10
79.60614
 20
194.077447
 30
0.0
 11
79.561973
 21
194.379595
 31
0.0
  0
LINE
  5
22B
330
1F
100
AcDbEntity
  8
0
  6
CONTINUOUS
 62
     5
100
AcDbLine
 10
79.381427
 20
190.083764
 30
0.0
 11
79.425594
 21
189.781617
 31
0.0
  0
LINE
  5
22C
330
1F
100
AcDbEntity
  8
0
  6
CONTINUOUS
 62
     5
100
AcDbLine
 10
78.770385
 20
194.263882
 30
0.0
 11
78.814553
 21
193.961735
 31
0.0
  0
LINE
  5
22D
330
1F
100
AcDbEntity
  8
0
  6
CONTINUOUS
 62
     5
100
AcDbLine
 10
65.979479
 20
191.53246
 30
0.0
 11
66.821796
 21
191.655589
 31
0.0
  0
LINE
  5
22E
330
1F
100
AcDbEntity
  8
0
  6
CONTINUOUS
 62
     5
100
AcDbLine
 10
66.821796
 20
191.655589
 30
0.0
 11
66.63413
 21
192.939406
 31
0.0
  0
LINE
  5
22F
330
1F
100
AcDbEntity
  8
0
  6
CONTINUOUS
 62
     5
100
AcDbLine
 10
66.63413
 20
192.939406
 30
0.0
 11
65.791813
 21
192.816278
 31
0.0
  0
LINE
  5
230
330
1F
100
AcDbEntity
  8
0
  6
CONTINUOUS
 62
     5
100
AcDbLine
 10
65.791813
 20
192.816278
 30
0.0
 11
65.668684
 21
193.658596
 31
0.0
  0
LINE
  5
231
330
1F
100
AcDbEntity
  8
0
  6
CONTINUOUS
 62
     5
100
AcDbLine
 10
64.384867
 20
193.47093
 30
0.0
 11
64.507995
 21
192.628612
 31
0.0
  0
LINE
  5
232
330
1F
100
AcDbEntity
  8
0
  6
CONTINUOUS
 62
     5
100
AcDbLine
 10
64.507995
 20
192.628612
 30
0.0
 11
63.665678
 21
192.505484
 31
0.0
  0
LINE
  5
233
330
1F
100
AcDbEntity
  8
0
  6
CONTINUOUS
 62
     5
100
AcDbLine
 10
63.665678
 20
192.505484
 30
0.0
 11
63.853343
 21
191.221666
 31
0.0
  0
LINE
  5
234
330
1F
100
AcDbEntity
  8
0
  6
CONTINUOUS
 62
     5
100
AcDbLine
 10
63.853343
 20
191.221666
 30
0.0
 11
64.695661
 21
191.344795
 31
0.0
  0
LINE
  5
235
330
1F
100
AcDbEntity
  8
0
  6
CONTINUOUS
 62
     5
100
AcDbLine
 10
64.695661
 20
191.344795
 30
0.0
 11
64.818789
 21
190.502477
 31
0.0
  0
LINE
  5
236
330
1F
100
AcDbEntity
  8
0
  6
CONTINUOUS
 62
     5
100
AcDbLine
 10
66.102607
 20
190.690143
 30
0.0
 11
65.979479
 21
191.53246
 31
0.0
  0
LINE
  5
237
330
1F
100
AcDbEntity
  8
0
  6
CONTINUOUS
 62
     5
100
AcDbLine
 10
64.631037
 20
193.506914
 30
0.0
 11
64.384867
 21
193.47093
 31
0.0
  0
LINE
  5
238
330
1F
100
AcDbEntity
  8
0
  6
CONTINUOUS
 62
     5
100
AcDbLine
 10
65.668684
 20
193.658596
 30
0.0
 11
65.422625
 21
193.622627
 31
0.0
  0
LINE
  5
239
330
1F
100
AcDbEntity
  8
0
  6
CONTINUOUS
 62
     5
100
AcDbLine
 10
64.818789
 20
190.502477
 30
0.0
 11
65.06496
 21
190.538462
 31
0.0
  0
LINE
  5
23A
330
1F
100
AcDbEntity
  8
0
  6
CONTINUOUS
 62
     5
100
AcDbLine
 10
65.856547
 20
190.654174
 30
0.0
 11
66.102607
 21
190.690143
 31
0.0
  0
LINE
  5
23B
330
1F
100
AcDbEntity
  8
0
  6
CONTINUOUS
 62
     5
100
AcDbLine
 10
64.631037
 20
193.506914
 30
0.0
 11
64.684995
 21
193.137791
 31
0.0
  0
LINE
  5
23C
330
1F
100
AcDbEntity
  8
0
  6
CONTINUOUS
 62
     5
100
AcDbLine
 10
65.422625
 20
193.622627
 30
0.0
 11
65.476582
 21
193.253504
 31
0.0
  0
LINE
  5
23D
330
1F
100
AcDbEntity
  8
0
  6
CONTINUOUS
 62
     5
100
AcDbLine
 10
64.684995
 20
193.137791
 30
0.0
 11
65.476582
 21
193.253504
 31
0.0
  0
LINE
  5
23E
330
1F
100
AcDbEntity
  8
0
  6
CONTINUOUS
 62
     5
100
AcDbLine
 10
65.06496
 20
190.538462
 30
0.0
 11
65.011002
 21
190.907585
 31
0.0
  0
LINE
  5
23F
330
1F
100
AcDbEntity
  8
0
  6
CONTINUOUS
 62
     5
100
AcDbLine
 10
65.856547
 20
190.654174
 30
0.0
 11
65.802589
 21
191.023298
 31
0.0
  0
LINE
  5
240
330
1F
100
AcDbEntity
  8
0
  6
CONTINUOUS
 62
     5
100
AcDbLine
 10
65.011002
 20
190.907585
 30
0.0
 11
65.802589
 21
191.023298
 31
0.0
  0
ARC
  5
241
330
1F
100
AcDbEntity
  8
0
  6
CONTINUOUS
 62
     5
100
AcDbCircle
 10
-65.243783
 20
192.080606
 30
0.0
 40
2.3
210
0.0
220
0.0
230
-1.0
100
AcDbArc
 50
71.668108
 51
81.683513
  0
ARC
  5
242
330
1F
100
AcDbEntity
  8
0
  6
CONTINUOUS
 62
     5
100
AcDbCircle
 10
-65.243783
 20
192.080606
 30
0.0
 40
2.3
210
0.0
220
0.0
230
-1.0
100
AcDbArc
 50
261.683528
 51
271.698928
  0
ARC
  5
243
330
1F
100
AcDbEntity
  8
0
  6
CONTINUOUS
 62
     5
100
AcDbCircle
 10
65.243783
 20
192.080606
 30
0.0
 40
2.3
100
AcDbArc
 50
88.301072
 51
98.316487
  0
ARC
  5
244
330
1F
100
AcDbEntity
  8
0
  6
CONTINUOUS
 62
     5
100
AcDbCircle
 10
65.243783
 20
192.080606
 30
0.0
 40
2.3
100
AcDbArc
 50
278.316472
 51
288.331892
  0
ARC
  5
245
330
1F
100
AcDbEntity
  8
0
  6
CONTINUOUS
 62
     5
100
AcDbCircle
 10
65.243783
 20
192.080606
 30
0.0
 40
2.3
100
AcDbArc
 50
288.331892
 51
88.301072
  0
LINE
  5
246
330
1F
100
AcDbEntity
  8
0
  6
CONTINUOUS
 62
     5
100
AcDbLine
 10
65.923014
 20
190.199477
 30
0.0
 11
65.856547
 21
190.654174
 31
0.0
  0
LINE
  5
247
330
1F
100
AcDbEntity
  8
0
  6
CONTINUOUS
 62
     5
100
AcDbLine
 10
65.422625
 20
193.622627
 30
0.0
 11
65.35614
 21
194.077447
 31
0.0
  0
ARC
  5
248
330
1F
100
AcDbEntity
  8
0
  6
CONTINUOUS
 62
     5
100
AcDbCircle
 10
-65.243783
 20
192.080606
 30
0.0
 40
2.3
210
0.0
220
0.0
230
-1.0
100
AcDbArc
 50
271.698928
 51
71.668108
  0
LINE
  5
249
330
1F
100
AcDbEntity
  8
0
  6
CONTINUOUS
 62
     5
100
AcDbLine
 10
65.06496
 20
190.538462
 30
0.0
 11
65.131427
 21
190.083764
 31
0.0
  0
LINE
  5
24A
330
1F
100
AcDbEntity
  8
0
  6
CONTINUOUS
 62
     5
100
AcDbLine
 10
64.564553
 20
193.961735
 30
0.0
 11
64.631037
 21
193.506914
 31
0.0
  0
LINE
  5
24B
330
1F
100
AcDbEntity
  8
0
  6
CONTINUOUS
 62
     5
100
AcDbLine
 10
65.923014
 20
190.199477
 30
0.0
 11
65.967181
 21
189.89733
 31
0.0
  0
LINE
  5
24C
330
1F
100
AcDbEntity
  8
0
  6
CONTINUOUS
 62
     5
100
AcDbLine
 10
65.35614
 20
194.077447
 30
0.0
 11
65.311973
 21
194.379595
 31
0.0
  0
LINE
  5
24D
330
1F
100
AcDbEntity
  8
0
  6
CONTINUOUS
 62
     5
100
AcDbLine
 10
65.131427
 20
190.083764
 30
0.0
 11
65.175594
 21
189.781617
 31
0.0
  0
LINE
  5
24E
330
1F
100
AcDbEntity
  8
0
  6
CONTINUOUS
 62
     5
100
AcDbLine
 10
64.520385
 20
194.263882
 30
0.0
 11
64.564553
 21
193.961735
 31
0.0
  0
LINE
  5
24F
330
1F
100
AcDbEntity
  8
0
  6
CONTINUOUS
 62
     5
100
AcDbLine
 10
59.979479
 20
191.53246
 30
0.0
 11
60.821796
 21
191.655589
 31
0.0
  0
LINE
  5
250
330
1F
100
AcDbEntity
  8
0
  6
CONTINUOUS
 62
     5
100
AcDbLine
 10
60.821796
 20
191.655589
 30
0.0
 11
60.63413
 21
192.939406
 31
0.0
  0
LINE
  5
251
330
1F
100
AcDbEntity
  8
0
  6
CONTINUOUS
 62
     5
100
AcDbLine
 10
60.63413
 20
192.939406
 30
0.0
 11
59.791813
 21
192.816278
 31
0.0
  0
LINE
  5
252
330
1F
100
AcDbEntity
  8
0
  6
CONTINUOUS
 62
     5
100
AcDbLine
 10
59.791813
 20
192.816278
 30
0.0
 11
59.668684
 21
193.658596
 31
0.0
  0
LINE
  5
253
330
1F
100
AcDbEntity
  8
0
  6
CONTINUOUS
 62
     5
100
AcDbLine
 10
58.384867
 20
193.47093
 30
0.0
 11
58.507995
 21
192.628612
 31
0.0
  0
LINE
  5
254
330
1F
100
AcDbEntity
  8
0
  6
CONTINUOUS
 62
     5
100
AcDbLine
 10
58.507995
 20
192.628612
 30
0.0
 11
57.665678
 21
192.505484
 31
0.0
  0
LINE
  5
255
330
1F
100
AcDbEntity
  8
0
  6
CONTINUOUS
 62
     5
100
AcDbLine
 10
57.665678
 20
192.505484
 30
0.0
 11
57.853343
 21
191.221666
 31
0.0
  0
LINE
  5
256
330
1F
100
AcDbEntity
  8
0
  6
CONTINUOUS
 62
     5
100
AcDbLine
 10
57.853343
 20
191.221666
 30
0.0
 11
58.695661
 21
191.344795
 31
0.0
  0
LINE
  5
257
330
1F
100
AcDbEntity
  8
0
  6
CONTINUOUS
 62
     5
100
AcDbLine
 10
58.695661
 20
191.344795
 30
0.0
 11
58.818789
 21
190.502477
 31
0.0
  0
LINE
  5
258
330
1F
100
AcDbEntity
  8
0
  6
CONTINUOUS
 62
     5
100
AcDbLine
 10
60.102607
 20
190.690143
 30
0.0
 11
59.979479
 21
191.53246
 31
0.0
  0
LINE
  5
259
330
1F
100
AcDbEntity
  8
0
  6
CONTINUOUS
 62
     5
100
AcDbLine
 10
58.631037
 20
193.506914
 30
0.0
 11
58.384867
 21
193.47093
 31
0.0
  0
LINE
  5
25A
330
1F
100
AcDbEntity
  8
0
  6
CONTINUOUS
 62
     5
100
AcDbLine
 10
59.668684
 20
193.658596
 30
0.0
 11
59.422625
 21
193.622627
 31
0.0
  0
LINE
  5
25B
330
1F
100
AcDbEntity
  8
0
  6
CONTINUOUS
 62
     5
100
AcDbLine
 10
58.818789
 20
190.502477
 30
0.0
 11
59.06496
 21
190.538462
 31
0.0
  0
LINE
  5
25C
330
1F
100
AcDbEntity
  8
0
  6
CONTINUOUS
 62
     5
100
AcDbLine
 10
59.856547
 20
190.654174
 30
0.0
 11
60.102607
 21
190.690143
 31
0.0
  0
LINE
  5
25D
330
1F
100
AcDbEntity
  8
0
  6
CONTINUOUS
 62
     5
100
AcDbLine
 10
58.631037
 20
193.506914
 30
0.0
 11
58.684995
 21
193.137791
 31
0.0
  0
LINE
  5
25E
330
1F
100
AcDbEntity
  8
0
  6
CONTINUOUS
 62
     5
100
AcDbLine
 10
59.422625
 20
193.622627
 30
0.0
 11
59.476582
 21
193.253504
 31
0.0
  0
LINE
  5
25F
330
1F
100
AcDbEntity
  8
0
  6
CONTINUOUS
 62
     5
100
AcDbLine
 10
58.684995
 20
193.137791
 30
0.0
 11
59.476582
 21
193.253504
 31
0.0
  0
LINE
  5
260
330
1F
100
AcDbEntity
  8
0
  6
CONTINUOUS
 62
     5
100
AcDbLine
 10
59.06496
 20
190.538462
 30
0.0
 11
59.011002
 21
190.907585
 31
0.0
  0
LINE
  5
261
330
1F
100
AcDbEntity
  8
0
  6
CONTINUOUS
 62
     5
100
AcDbLine
 10
59.856547
 20
190.654174
 30
0.0
 11
59.802589
 21
191.023298
 31
0.0
  0
LINE
  5
262
330
1F
100
AcDbEntity
  8
0
  6
CONTINUOUS
 62
     5
100
AcDbLine
 10
59.011002
 20
190.907585
 30
0.0
 11
59.802589
 21
191.023298
 31
0.0
  0
ARC
  5
263
330
1F
100
AcDbEntity
  8
0
  6
CONTINUOUS
 62
     5
100
AcDbCircle
 10
-59.243783
 20
192.080606
 30
0.0
 40
2.3
210
0.0
220
0.0
230
-1.0
100
AcDbArc
 50
71.668108
 51
81.683513
  0
ARC
  5
264
330
1F
100
AcDbEntity
  8
0
  6
CONTINUOUS
 62
     5
100
AcDbCircle
 10
-59.243783
 20
192.080606
 30
0.0
 40
2.3
210
0.0
220
0.0
230
-1.0
100
AcDbArc
 50
261.683528
 51
271.698928
  0
ARC
  5
265
330
1F
100
AcDbEntity
  8
0
  6
CONTINUOUS
 62
     5
100
AcDbCircle
 10
59.243783
 20
192.080606
 30
0.0
 40
2.3
100
AcDbArc
 50
88.301072
 51
98.316487
  0
ARC
  5
266
330
1F
100
AcDbEntity
  8
0
  6
CONTINUOUS
 62
     5
100
AcDbCircle
 10
59.243783
 20
192.080606
 30
0.0
 40
2.3
100
AcDbArc
 50
278.316472
 51
288.331892
  0
ARC
  5
267
330
1F
100
AcDbEntity
  8
0
  6
CONTINUOUS
 62
     5
100
AcDbCircle
 10
59.243783
 20
192.080606
 30
0.0
 40
2.3
100
AcDbArc
 50
288.331892
 51
88.301072
  0
LINE
  5
268
330
1F
100
AcDbEntity
  8
0
  6
CONTINUOUS
 62
     5
100
AcDbLine
 10
59.923014
 20
190.199477
 30
0.0
 11
59.856547
 21
190.654174
 31
0.0
  0
LINE
  5
269
330
1F
100
AcDbEntity
  8
0
  6
CONTINUOUS
 62
     5
100
AcDbLine
 10
59.422625
 20
193.622627
 30
0.0
 11
59.35614
 21
194.077447
 31
0.0
  0
ARC
  5
26A
330
1F
100
AcDbEntity
  8
0
  6
CONTINUOUS
 62
     5
100
AcDbCircle
 10
-59.243783
 20
192.080606
 30
0.0
 40
2.3
210
0.0
220
0.0
230
-1.0
100
AcDbArc
 50
271.698928
 51
71.668108
  0
LINE
  5
26B
330
1F
100
AcDbEntity
  8
0
  6
CONTINUOUS
 62
     5
100
AcDbLine
 10
59.06496
 20
190.538462
 30
0.0
 11
59.131427
 21
190.083764
 31
0.0
  0
LINE
  5
26C
330
1F
100
AcDbEntity
  8
0
  6
CONTINUOUS
 62
     5
100
AcDbLine
 10
58.564553
 20
193.961735
 30
0.0
 11
58.631037
 21
193.506914
 31
0.0
  0
LINE
  5
26D
330
1F
100
AcDbEntity
  8
0
  6
CONTINUOUS
 62
     5
100
AcDbLine
 10
59.923014
 20
190.199477
 30
0.0
 11
59.967181
 21
189.89733
 31
0.0
  0
LINE
  5
26E
330
1F
100
AcDbEntity
  8
0
  6
CONTINUOUS
 62
     5
100
AcDbLine
 10
59.35614
 20
194.077447
 30
0.0
 11
59.311973
 21
194.379595
 31
0.0
  0
LINE
  5
26F
330
1F
100
AcDbEntity
  8
0
  6
CONTINUOUS
 62
     5
100
AcDbLine
 10
59.131427
 20
190.083764
 30
0.0
 11
59.175594
 21
189.781617
 31
0.0
  0
LINE
  5
270
330
1F
100
AcDbEntity
  8
0
  6
CONTINUOUS
 62
     5
100
AcDbLine
 10
58.520385
 20
194.263882
 30
0.0
 11
58.564553
 21
193.961735
 31
0.0
  0
LINE
  5
271
330
1F
100
AcDbEntity
  8
0
  6
CONTINUOUS
 62
     5
100
AcDbLine
 10
35.508088
 20
120.228751
 30
0.0
 11
34.66577
 21
120.105623
 31
0.0
  0
LINE
  5
272
330
1F
100
AcDbEntity
  8
0
  6
CONTINUOUS
 62
     5
100
AcDbLine
 10
34.66577
 20
120.105623
 30
0.0
 11
34.853436
 21
118.821805
 31
0.0
  0
LINE
  5
273
330
1F
100
AcDbEntity
  8
0
  6
CONTINUOUS
 62
     5
100
AcDbLine
 10
34.853436
 20
118.821805
 30
0.0
 11
35.695754
 21
118.944934
 31
0.0
  0
LINE
  5
274
330
1F
100
AcDbEntity
  8
0
  6
CONTINUOUS
 62
     5
100
AcDbLine
 10
35.695754
 20
118.944934
 30
0.0
 11
35.818882
 21
118.102616
 31
0.0
  0
LINE
  5
275
330
1F
100
AcDbEntity
  8
0
  6
CONTINUOUS
 62
     5
100
AcDbLine
 10
37.1027
 20
118.290282
 30
0.0
 11
36.979572
 21
119.132599
 31
0.0
  0
LINE
  5
276
330
1F
100
AcDbEntity
  8
0
  6
CONTINUOUS
 62
     5
100
AcDbLine
 10
36.979572
 20
119.132599
 30
0.0
 11
37.821889
 21
119.255728
 31
0.0
  0
LINE
  5
277
330
1F
100
AcDbEntity
  8
0
  6
CONTINUOUS
 62
     5
100
AcDbLine
 10
37.821889
 20
119.255728
 30
0.0
 11
37.634223
 21
120.539545
 31
0.0
  0
LINE
  5
278
330
1F
100
AcDbEntity
  8
0
  6
CONTINUOUS
 62
     5
100
AcDbLine
 10
37.634223
 20
120.539545
 30
0.0
 11
36.791906
 21
120.416417
 31
0.0
  0
LINE
  5
279
330
1F
100
AcDbEntity
  8
0
  6
CONTINUOUS
 62
     5
100
AcDbLine
 10
36.791906
 20
120.416417
 30
0.0
 11
36.668777
 21
121.258735
 31
0.0
  0
LINE
  5
27A
330
1F
100
AcDbEntity
  8
0
  6
CONTINUOUS
 62
     5
100
AcDbLine
 10
35.38496
 20
121.071069
 30
0.0
 11
35.508088
 21
120.228751
 31
0.0
  0
LINE
  5
27B
330
1F
100
AcDbEntity
  8
0
  6
CONTINUOUS
 62
     5
100
AcDbLine
 10
36.856529
 20
118.254297
 30
0.0
 11
37.1027
 21
118.290282
 31
0.0
  0
LINE
  5
27C
330
1F
100
AcDbEntity
  8
0
  6
CONTINUOUS
 62
     5
100
AcDbLine
 10
35.818882
 20
118.102616
 30
0.0
 11
36.064942
 21
118.138585
 31
0.0
  0
LINE
  5
27D
330
1F
100
AcDbEntity
  8
0
  6
CONTINUOUS
 62
     5
100
AcDbLine
 10
36.668777
 20
121.258735
 30
0.0
 11
36.422607
 21
121.22275
 31
0.0
  0
LINE
  5
27E
330
1F
100
AcDbEntity
  8
0
  6
CONTINUOUS
 62
     5
100
AcDbLine
 10
35.631019
 20
121.107037
 30
0.0
 11
35.38496
 21
121.071069
 31
0.0
  0
LINE
  5
27F
330
1F
100
AcDbEntity
  8
0
  6
CONTINUOUS
 62
     5
100
AcDbLine
 10
36.856529
 20
118.254297
 30
0.0
 11
36.802572
 21
118.62342
 31
0.0
  0
LINE
  5
280
330
1F
100
AcDbEntity
  8
0
  6
CONTINUOUS
 62
     5
100
AcDbLine
 10
36.064942
 20
118.138585
 30
0.0
 11
36.010984
 21
118.507708
 31
0.0
  0
LINE
  5
281
330
1F
100
AcDbEntity
  8
0
  6
CONTINUOUS
 62
     5
100
AcDbLine
 10
36.802572
 20
118.62342
 30
0.0
 11
36.010984
 21
118.507708
 31
0.0
  0
LINE
  5
282
330
1F
100
AcDbEntity
  8
0
  6
CONTINUOUS
 62
     5
100
AcDbLine
 10
36.422607
 20
121.22275
 30
0.0
 11
36.476564
 21
120.853627
 31
0.0
  0
LINE
  5
283
330
1F
100
AcDbEntity
  8
0
  6
CONTINUOUS
 62
     5
100
AcDbLine
 10
35.631019
 20
121.107037
 30
0.0
 11
35.684977
 21
120.737914
 31
0.0
  0
LINE
  5
284
330
1F
100
AcDbEntity
  8
0
  6
CONTINUOUS
 62
     5
100
AcDbLine
 10
36.476564
 20
120.853627
 30
0.0
 11
35.684977
 21
120.737914
 31
0.0
  0
ARC
  5
285
330
1F
100
AcDbEntity
  8
0
  6
CONTINUOUS
 62
     5
100
AcDbCircle
 10
-36.243783
 20
119.680606
 30
0.0
 40
2.3
210
0.0
220
0.0
230
-1.0
100
AcDbArc
 50
251.668108
 51
261.683513
  0
ARC
  5
286
330
1F
100
AcDbEntity
  8
0
  6
CONTINUOUS
 62
     5
100
AcDbCircle
 10
-36.243783
 20
119.680606
 30
0.0
 40
2.3
210
0.0
220
0.0
230
-1.0
100
AcDbArc
 50
81.683528
 51
91.698928
  0
ARC
  5
287
330
1F
100
AcDbEntity
  8
0
  6
CONTINUOUS
 62
     5
100
AcDbCircle
 10
36.243783
 20
119.680606
 30
0.0
 40
2.3
100
AcDbArc
 50
268.301072
 51
278.316487
  0
ARC
  5
288
330
1F
100
AcDbEntity
  8
0
  6
CONTINUOUS
 62
     5
100
AcDbCircle
 10
36.243783
 20
119.680606
 30
0.0
 40
2.3
100
AcDbArc
 50
98.316472
 51
108.331892
  0
ARC
  5
289
330
1F
100
AcDbEntity
  8
0
  6
CONTINUOUS
 62
     5
100
AcDbCircle
 10
36.243783
 20
119.680606
 30
0.0
 40
2.3
100
AcDbArc
 50
108.331892
 51
268.301072
  0
LINE
  5
28A
330
1F
100
AcDbEntity
  8
0
  6
CONTINUOUS
 62
     5
100
AcDbLine
 10
35.564553
 20
121.561735
 30
0.0
 11
35.631019
 21
121.107037
 31
0.0
  0
LINE
  5
28B
330
1F
100
AcDbEntity
  8
0
  6
CONTINUOUS
 62
     5
100
AcDbLine
 10
36.064942
 20
118.138585
 30
0.0
 11
36.131427
 21
117.683764
 31
0.0
  0
ARC
  5
28C
330
1F
100
AcDbEntity
  8
0
  6
CONTINUOUS
 62
     5
100
AcDbCircle
 10
-36.243783
 20
119.680606
 30
0.0
 40
2.3
210
0.0
220
0.0
230
-1.0
100
AcDbArc
 50
91.698928
 51
251.668108
  0
LINE
  5
28D
330
1F
100
AcDbEntity
  8
0
  6
CONTINUOUS
 62
     5
100
AcDbLine
 10
36.422607
 20
121.22275
 30
0.0
 11
36.35614
 21
121.677447
 31
0.0
  0
LINE
  5
28E
330
1F
100
AcDbEntity
  8
0
  6
CONTINUOUS
 62
     5
100
AcDbLine
 10
36.923014
 20
117.799477
 30
0.0
 11
36.856529
 21
118.254297
 31
0.0
  0
LINE
  5
28F
330
1F
100
AcDbEntity
  8
0
  6
CONTINUOUS
 62
     5
100
AcDbLine
 10
35.564553
 20
121.561735
 30
0.0
 11
35.520385
 21
121.863882
 31
0.0
  0
LINE
  5
290
330
1F
100
AcDbEntity
  8
0
  6
CONTINUOUS
 62
     5
100
AcDbLine
 10
36.131427
 20
117.683764
 30
0.0
 11
36.175594
 21
117.381617
 31
0.0
  0
LINE
  5
291
330
1F
100
AcDbEntity
  8
0
  6
CONTINUOUS
 62
     5
100
AcDbLine
 10
36.35614
 20
121.677447
 30
0.0
 11
36.311973
 21
121.979595
 31
0.0
  0
SPLINE
  5
292
330
1F
100
AcDbEntity
  8
0
  6
CONTINUOUS
 62
     5
100
AcDbSpline
210
0.0
220
0.0
230
1.0
 70
     8
 71
     3
 72
    11
 73
     7
 74
     0
 42
0.0
 43
0.0
 40
0.0
 40
0.0
 40
0.0
 40
0.0
 40
0.0971384075870547
 40
0.2309270276904215
 40
0.3898564959742859
 40
0.4754417653202683
 40
0.4754417653202683
 40
0.4754417653202683
 40
0.4754417653202683
 10
36.96718132287015
 20
117.4973295469741
 30
0.0
 10
36.96718132427941
 20
117.4973295469741
 30
0.0
 10
36.96533665316201
 20
117.5099489166544
 30
0.0
 10
36.95519485697355
 20
117.5793287114558
 30
0.0
 10
36.93894694316577
 20
117.6904802821527
 30
0.0
 10
36.92712821596479
 20
117.7713318873604
 30
0.0
 10
36.92301401721102
 20
117.7994770128042
 30
0.0
  0
LINE
  5
293
330
1F
100
AcDbEntity
  8
0
  6
CONTINUOUS
 62
     5
100
AcDbLine
 10
23.508088
 20
120.228751
 30
0.0
 11
22.66577
 21
120.105623
 31
0.0
  0
LINE
  5
294
330
1F
100
AcDbEntity
  8
0
  6
CONTINUOUS
 62
     5
100
AcDbLine
 10
22.66577
 20
120.105623
 30
0.0
 11
22.853436
 21
118.821805
 31
0.0
  0
LINE
  5
295
330
1F
100
AcDbEntity
  8
0
  6
CONTINUOUS
 62
     5
100
AcDbLine
 10
22.853436
 20
118.821805
 30
0.0
 11
23.695754
 21
118.944934
 31
0.0
  0
LINE
  5
296
330
1F
100
AcDbEntity
  8
0
  6
CONTINUOUS
 62
     5
100
AcDbLine
 10
23.695754
 20
118.944934
 30
0.0
 11
23.818882
 21
118.102616
 31
0.0
  0
LINE
  5
297
330
1F
100
AcDbEntity
  8
0
  6
CONTINUOUS
 62
     5
100
AcDbLine
 10
25.1027
 20
118.290282
 30
0.0
 11
24.979572
 21
119.132599
 31
0.0
  0
LINE
  5
298
330
1F
100
AcDbEntity
  8
0
  6
CONTINUOUS
 62
     5
100
AcDbLine
 10
24.979572
 20
119.132599
 30
0.0
 11
25.821889
 21
119.255728
 31
0.0
  0
LINE
  5
299
330
1F
100
AcDbEntity
  8
0
  6
CONTINUOUS
 62
     5
100
AcDbLine
 10
25.821889
 20
119.255728
 30
0.0
 11
25.634223
 21
120.539545
 31
0.0
  0
LINE
  5
29A
330
1F
100
AcDbEntity
  8
0
  6
CONTINUOUS
 62
     5
100
AcDbLine
 10
25.634223
 20
120.539545
 30
0.0
 11
24.791906
 21
120.416417
 31
0.0
  0
LINE
  5
29B
330
1F
100
AcDbEntity
  8
0
  6
CONTINUOUS
 62
     5
100
AcDbLine
 10
24.791906
 20
120.416417
 30
0.0
 11
24.668777
 21
121.258735
 31
0.0
  0
LINE
  5
29C
330
1F
100
AcDbEntity
  8
0
  6
CONTINUOUS
 62
     5
100
AcDbLine
 10
23.38496
 20
121.071069
 30
0.0
 11
23.508088
 21
120.228751
 31
0.0
  0
LINE
  5
29D
330
1F
100
AcDbEntity
  8
0
  6
CONTINUOUS
 62
     5
100
AcDbLine
 10
24.856529
 20
118.254297
 30
0.0
 11
25.1027
 21
118.290282
 31
0.0
  0
LINE
  5
29E
330
1F
100
AcDbEntity
  8
0
  6
CONTINUOUS
 62
     5
100
AcDbLine
 10
23.818882
 20
118.102616
 30
0.0
 11
24.064942
 21
118.138585
 31
0.0
  0
LINE
  5
29F
330
1F
100
AcDbEntity
  8
0
  6
CONTINUOUS
 62
     5
100
AcDbLine
 10
24.668777
 20
121.258735
 30
0.0
 11
24.422607
 21
121.22275
 31
0.0
  0
LINE
  5
2A0
330
1F
100
AcDbEntity
  8
0
  6
CONTINUOUS
 62
     5
100
AcDbLine
 10
23.631019
 20
121.107037
 30
0.0
 11
23.38496
 21
121.071069
 31
0.0
  0
LINE
  5
2A1
330
1F
100
AcDbEntity
  8
0
  6
CONTINUOUS
 62
     5
100
AcDbLine
 10
24.856529
 20
118.254297
 30
0.0
 11
24.802572
 21
118.62342
 31
0.0
  0
LINE
  5
2A2
330
1F
100
AcDbEntity
  8
0
  6
CONTINUOUS
 62
     5
100
AcDbLine
 10
24.064942
 20
118.138585
 30
0.0
 11
24.010984
 21
118.507708
 31
0.0
  0
LINE
  5
2A3
330
1F
100
AcDbEntity
  8
0
  6
CONTINUOUS
 62
     5
100
AcDbLine
 10
24.802572
 20
118.62342
 30
0.0
 11
24.010984
 21
118.507708
 31
0.0
  0
LINE
  5
2A4
330
1F
100
AcDbEntity
  8
0
  6
CONTINUOUS
 62
     5
100
AcDbLine
 10
24.422607
 20
121.22275
 30
0.0
 11
24.476564
 21
120.853627
 31
0.0
  0
LINE
  5
2A5
330
1F
100
AcDbEntity
  8
0
  6
CONTINUOUS
 62
     5
100
AcDbLine
 10
23.631019
 20
121.107037
 30
0.0
 11
23.684977
 21
120.737914
 31
0.0
  0
LINE
  5
2A6
330
1F
100
AcDbEntity
  8
0
  6
CONTINUOUS
 62
     5
100
AcDbLine
 10
24.476564
 20
120.853627
 30
0.0
 11
23.684977
 21
120.737914
 31
0.0
  0
ARC
  5
2A7
330
1F
100
AcDbEntity
  8
0
  6
CONTINUOUS
 62
     5
100
AcDbCircle
 10
-24.243783
 20
119.680606
 30
0.0
 40
2.3
210
0.0
220
0.0
230
-1.0
100
AcDbArc
 50
251.668108
 51
261.683513
  0
ARC
  5
2A8
330
1F
100
AcDbEntity
  8
0
  6
CONTINUOUS
 62
     5
100
AcDbCircle
 10
-24.243783
 20
119.680606
 30
0.0
 40
2.3
210
0.0
220
0.0
230
-1.0
100
AcDbArc
 50
81.683528
 51
91.698928
  0
ARC
  5
2A9
330
1F
100
AcDbEntity
  8
0
  6
CONTINUOUS
 62
     5
100
AcDbCircle
 10
24.243783
 20
119.680606
 30
0.0
 40
2.3
100
AcDbArc
 50
268.301072
 51
278.316487
  0
ARC
  5
2AA
330
1F
100
AcDbEntity
  8
0
  6
CONTINUOUS
 62
     5
100
AcDbCircle
 10
24.243783
 20
119.680606
 30
0.0
 40
2.3
100
AcDbArc
 50
98.316472
 51
108.331892
  0
ARC
  5
2AB
330
1F
100
AcDbEntity
  8
0
  6
CONTINUOUS
 62
     5
100
AcDbCircle
 10
24.243783
 20
119.680606
 30
0.0
 40
2.3
100
AcDbArc
 50
108.331892
 51
268.301072
  0
LINE
  5
2AC
330
1F
100
AcDbEntity
  8
0
  6
CONTINUOUS
 62
     5
100
AcDbLine
 10
23.564553
 20
121.561735
 30
0.0
 11
23.631019
 21
121.107037
 31
0.0
  0
LINE
  5
2AD
330
1F
100
AcDbEntity
  8
0
  6
CONTINUOUS
 62
     5
100
AcDbLine
 10
24.064942
 20
118.138585
 30
0.0
 11
24.131427
 21
117.683764
 31
0.0
  0
ARC
  5
2AE
330
1F
100
AcDbEntity
  8
0
  6
CONTINUOUS
 62
     5
100
AcDbCircle
 10
-24.243783
 20
119.680606
 30
0.0
 40
2.3
210
0.0
220
0.0
230
-1.0
100
AcDbArc
 50
91.698928
 51
251.668108
  0
LINE
  5
2AF
330
1F
100
AcDbEntity
  8
0
  6
CONTINUOUS
 62
     5
100
AcDbLine
 10
24.422607
 20
121.22275
 30
0.0
 11
24.35614
 21
121.677447
 31
0.0
  0
LINE
  5
2B0
330
1F
100
AcDbEntity
  8
0
  6
CONTINUOUS
 62
     5
100
AcDbLine
 10
24.923014
 20
117.799477
 30
0.0
 11
24.856529
 21
118.254297
 31
0.0
  0
LINE
  5
2B1
330
1F
100
AcDbEntity
  8
0
  6
CONTINUOUS
 62
     5
100
AcDbLine
 10
23.564553
 20
121.561735
 30
0.0
 11
23.520385
 21
121.863882
 31
0.0
  0
LINE
  5
2B2
330
1F
100
AcDbEntity
  8
0
  6
CONTINUOUS
 62
     5
100
AcDbLine
 10
24.131427
 20
117.683764
 30
0.0
 11
24.175594
 21
117.381617
 31
0.0
  0
LINE
  5
2B3
330
1F
100
AcDbEntity
  8
0
  6
CONTINUOUS
 62
     5
100
AcDbLine
 10
24.35614
 20
121.677447
 30
0.0
 11
24.311973
 21
121.979595
 31
0.0
  0
SPLINE
  5
2B4
330
1F
100
AcDbEntity
  8
0
  6
CONTINUOUS
 62
     5
100
AcDbSpline
210
0.0
220
0.0
230
1.0
 70
     8
 71
     3
 72
    11
 73
     7
 74
     0
 42
0.0
 43
0.0
 40
0.0
 40
0.0
 40
0.0
 40
0.0
 40
0.0971384075870547
 40
0.2309270276904215
 40
0.3898564959742859
 40
0.4754417653202683
 40
0.4754417653202683
 40
0.4754417653202683
 40
0.4754417653202683
 10
24.96718132287015
 20
117.4973295469741
 30
0.0
 10
24.96718132427941
 20
117.4973295469741
 30
0.0
 10
24.96533665316201
 20
117.5099489166544
 30
0.0
 10
24.95519485697355
 20
117.5793287114558
 30
0.0
 10
24.93894694316577
 20
117.6904802821527
 30
0.0
 10
24.92712821596479
 20
117.7713318873604
 30
0.0
 10
24.92301401721102
 20
117.7994770128042
 30
0.0
  0
ARC
  5
2B5
330
1F
100
AcDbEntity
  8
0
  6
CONTINUOUS
 62
     4
100
AcDbCircle
 10
-77.118782
 20
111.330606
 30
0.0
 40
0.7999999849599999
210
0.0
220
0.0
230
-1.0
100
AcDbArc
 50
180.0
 51
270.0
  0
LINE
  5
2B6
330
1F
100
AcDbEntity
  8
0
  6
CONTINUOUS
 62
     4
100
AcDbLine
 10
77.118782
 20
110.530606
 30
0.0
 11
75.891876
 21
110.530606
 31
0.0
  0
LINE
  5
2B7
330
1F
100
AcDbEntity
  8
0
  6
CONTINUOUS
 62
     4
100
AcDbLine
 10
75.891876
 20
110.530606
 30
0.0
 11
73.958941
 21
109.446193
 31
0.0
  0
ARC
  5
2B8
330
1F
100
AcDbEntity
  8
0
  6
CONTINUOUS
 62
     4
100
AcDbCircle
 10
-72.368783
 20
112.280605
 30
0.0
 40
3.249999938900002
210
0.0
220
0.0
230
-1.0
100
AcDbArc
 50
240.706755
 51
299.621837
  0
LINE
  5
2B9
330
1F
100
AcDbEntity
  8
0
  6
CONTINUOUS
 62
     4
100
AcDbLine
 10
70.762395
 20
109.455359
 30
0.0
 11
68.871298
 21
110.530605
 31
0.0
  0
LINE
  5
2BA
330
1F
100
AcDbEntity
  8
0
  6
CONTINUOUS
 62
     4
100
AcDbLine
 10
68.871298
 20
110.530605
 30
0.0
 11
67.618783
 21
110.530605
 31
0.0
  0
ARC
  5
2BB
330
1F
100
AcDbEntity
  8
0
  6
CONTINUOUS
 62
     4
100
AcDbCircle
 10
-67.618783
 20
111.330605
 30
0.0
 40
0.7999999849600017
210
0.0
220
0.0
230
-1.0
100
AcDbArc
 50
270.0
 51
0.0
  0
LINE
  5
2BC
330
1F
100
AcDbEntity
  8
0
  6
CONTINUOUS
 62
     6
100
AcDbLine
 10
75.868782
 20
113.030606
 30
0.0
 11
74.490103
 21
113.030606
 31
0.0
  0
ARC
  5
2BD
330
1F
100
AcDbEntity
  8
0
  6
CONTINUOUS
 62
     6
100
AcDbCircle
 10
72.368783
 20
112.280606
 30
0.0
 40
2.249999957700001
100
AcDbArc
 50
134.674608
 51
160.528779
  0
ARC
  5
2BE
330
1F
100
AcDbEntity
  8
0
  6
CONTINUOUS
 62
     6
100
AcDbCircle
 10
72.368783
 20
112.280606
 30
0.0
 40
2.249999957700001
100
AcDbArc
 50
19.471215
 51
43.688123
  0
LINE
  5
2BF
330
1F
100
AcDbEntity
  8
0
  6
CONTINUOUS
 62
     6
100
AcDbLine
 10
70.247463
 20
113.030606
 30
0.0
 11
68.868782
 21
113.030606
 31
0.0
  0
LINE
  5
2C0
330
1F
100
AcDbEntity
  8
0
  6
CONTINUOUS
 62
     6
100
AcDbLine
 10
68.868782
 20
113.030606
 30
0.0
 11
68.868782
 21
111.530605
 31
0.0
  0
LINE
  5
2C1
330
1F
100
AcDbEntity
  8
0
  6
CONTINUOUS
 62
     6
100
AcDbLine
 10
68.868782
 20
111.530605
 30
0.0
 11
70.247462
 21
111.530605
 31
0.0
  0
ARC
  5
2C2
330
1F
100
AcDbEntity
  8
0
  6
CONTINUOUS
 62
     6
100
AcDbCircle
 10
72.368782
 20
112.280606
 30
0.0
 40
2.249999957700001
100
AcDbArc
 50
199.471224
 51
340.528779
  0
LINE
  5
2C3
330
1F
100
AcDbEntity
  8
0
  6
CONTINUOUS
 62
     6
100
AcDbLine
 10
74.490103
 20
111.530606
 30
0.0
 11
75.868782
 21
111.530606
 31
0.0
  0
LINE
  5
2C4
330
1F
100
AcDbEntity
  8
0
  6
CONTINUOUS
 62
     6
100
AcDbLine
 10
75.868782
 20
111.530606
 30
0.0
 11
75.868782
 21
113.030606
 31
0.0
  0
LINE
  5
2C5
330
1F
100
AcDbEntity
  8
0
  6
CONTINUOUS
 62
     4
100
AcDbLine
 10
77.918782
 20
113.880606
 30
0.0
 11
77.918782
 21
111.330606
 31
0.0
  0
LINE
  5
2C6
330
1F
100
AcDbEntity
  8
0
  6
CONTINUOUS
 62
     4
100
AcDbLine
 10
66.818783
 20
113.880606
 30
0.0
 11
66.818783
 21
111.330605
 31
0.0
  0
CIRCLE
  5
2C7
330
1F
100
AcDbEntity
  8
0
  6
CONTINUOUS
 62
     6
100
AcDbCircle
 10
59.243783
 20
192.080606
 30
0.0
 40
2.5
  0
CIRCLE
  5
2C8
330
1F
100
AcDbEntity
  8
0
  6
CONTINUOUS
 62
     6
100
AcDbCircle
 10
65.243783
 20
192.080606
 30
0.0
 40
2.5
  0
CIRCLE
  5
2C9
330
1F
100
AcDbEntity
  8
0
  6
CONTINUOUS
 62
     6
100
AcDbCircle
 10
79.493783
 20
192.080606
 30
0.0
 40
2.5
  0
CIRCLE
  5
2CA
330
1F
100
AcDbEntity
  8
0
  6
CONTINUOUS
 62
     6
100
AcDbCircle
 10
85.493783
 20
192.080606
 30
0.0
 40
2.5
  0
LINE
  5
2CB
330
1F
100
AcDbEntity
  8
0
  6
CONTINUOUS
 62
     4
100
AcDbLine
 10
89.868785
 20
135.380606
 30
0.0
 11
89.668785
 21
135.380606
 31
0.0
  0
LINE
  5
2CC
330
1F
100
AcDbEntity
  8
0
  6
CONTINUOUS
 62
     4
100
AcDbLine
 10
89.868785
 20
176.380606
 30
0.0
 11
89.668785
 21
176.380606
 31
0.0
  0
LINE
  5
2CD
330
1F
100
AcDbEntity
  8
0
  6
CONTINUOUS
 62
     4
100
AcDbLine
 10
89.868785
 20
135.380606
 30
0.0
 11
89.868785
 21
176.380606
 31
0.0
  0
LINE
  5
2CE
330
1F
100
AcDbEntity
  8
0
  6
CONTINUOUS
 62
     4
100
AcDbLine
 10
89.668784
 20
126.880606
 30
0.0
 11
89.668784
 21
126.380606
 31
0.0
  0
LINE
  5
2CF
330
1F
100
AcDbEntity
  8
0
  6
CONTINUOUS
 62
     4
100
AcDbLine
 10
89.668784
 20
184.880606
 30
0.0
 11
89.668784
 21
185.380606
 31
0.0
  0
LINE
  5
2D0
330
1F
100
AcDbEntity
  8
0
  6
CONTINUOUS
 62
     4
100
AcDbLine
 10
89.668783
 20
196.380606
 30
0.0
 11
89.668783
 21
195.880606
 31
0.0
  0
LINE
  5
2D1
330
1F
100
AcDbEntity
  8
0
  6
CONTINUOUS
 62
     4
100
AcDbLine
 10
89.668783
 20
115.880606
 30
0.0
 11
89.668783
 21
115.380606
 31
0.0
  0
LINE
  5
2D2
330
1F
100
AcDbEntity
  8
0
  6
CONTINUOUS
 62
     4
100
AcDbLine
 10
89.668783
 20
115.380606
 30
0.0
 11
89.668783
 21
114.080606
 31
0.0
  0
ARC
  5
2D3
330
1F
100
AcDbEntity
  8
0
  6
CONTINUOUS
 62
     4
100
AcDbCircle
 10
89.468783
 20
114.080606
 30
0.0
 40
0.2000000029802322
100
AcDbArc
 50
270.0
 51
0.0
  0
LINE
  5
2D4
330
1F
100
AcDbEntity
  8
0
  6
CONTINUOUS
 62
     4
100
AcDbLine
 10
89.668784
 20
126.380606
 30
0.0
 11
89.668784
 21
125.080606
 31
0.0
  0
ARC
  5
2D5
330
1F
100
AcDbEntity
  8
0
  6
CONTINUOUS
 62
     6
100
AcDbCircle
 10
-89.468784
 20
125.080606
 30
0.0
 40
0.2000000029802287
210
0.0
220
0.0
230
-1.0
100
AcDbArc
 50
180.0
 51
270.0
  0
LINE
  5
2D6
330
1F
100
AcDbEntity
  8
0
  6
CONTINUOUS
 62
     4
100
AcDbLine
 10
89.668783
 20
124.880606
 30
0.0
 11
89.668783
 21
125.080606
 31
0.0
  0
LINE
  5
2D7
330
1F
100
AcDbEntity
  8
0
  6
CONTINUOUS
 62
     4
100
AcDbLine
 10
89.668784
 20
133.380606
 30
0.0
 11
89.668784
 21
133.580606
 31
0.0
  0
LINE
  5
2D8
330
1F
100
AcDbEntity
  8
0
  6
CONTINUOUS
 62
     4
100
AcDbLine
 10
89.668784
 20
178.380606
 30
0.0
 11
89.668784
 21
178.180606
 31
0.0
  0
LINE
  5
2D9
330
1F
100
AcDbEntity
  8
0
  6
CONTINUOUS
 62
     4
100
AcDbLine
 10
89.668784
 20
185.380606
 30
0.0
 11
89.668784
 21
186.680606
 31
0.0
  0
LINE
  5
2DA
330
1F
100
AcDbEntity
  8
0
  6
CONTINUOUS
 62
     4
100
AcDbLine
 10
89.668783
 20
196.380606
 30
0.0
 11
89.668783
 21
197.680606
 31
0.0
  0
ARC
  5
2DB
330
1F
100
AcDbEntity
  8
0
  6
CONTINUOUS
 62
     6
100
AcDbCircle
 10
89.468784
 20
186.680606
 30
0.0
 40
0.2000000029802322
100
AcDbArc
 50
0.0
 51
90.0
  0
ARC
  5
2DC
330
1F
100
AcDbEntity
  8
0
  6
CONTINUOUS
 62
     4
100
AcDbCircle
 10
-89.468783
 20
197.680606
 30
0.0
 40
0.2000000029802322
210
0.0
220
0.0
230
-1.0
100
AcDbArc
 50
90.0
 51
180.0
  0
LINE
  5
2DD
330
1F
100
AcDbEntity
  8
0
  6
CONTINUOUS
 62
     4
100
AcDbLine
 10
89.868783
 20
115.880606
 30
0.0
 11
89.868783
 21
124.880606
 31
0.0
  0
LINE
  5
2DE
330
1F
100
AcDbEntity
  8
0
  6
CONTINUOUS
 62
     4
100
AcDbLine
 10
89.868784
 20
126.880606
 30
0.0
 11
89.868784
 21
133.380606
 31
0.0
  0
LINE
  5
2DF
330
1F
100
AcDbEntity
  8
0
  6
CONTINUOUS
 62
     4
100
AcDbLine
 10
89.868784
 20
178.380606
 30
0.0
 11
89.868784
 21
184.880606
 31
0.0
  0
LINE
  5
2E0
330
1F
100
AcDbEntity
  8
0
  6
CONTINUOUS
 62
     4
100
AcDbLine
 10
89.868783
 20
186.880606
 30
0.0
 11
89.868783
 21
195.880606
 31
0.0
  0
LINE
  5
2E1
330
1F
100
AcDbEntity
  8
0
  6
CONTINUOUS
 62
     4
100
AcDbLine
 10
89.668783
 20
115.880606
 30
0.0
 11
89.868783
 21
115.880606
 31
0.0
  0
LINE
  5
2E2
330
1F
100
AcDbEntity
  8
0
  6
CONTINUOUS
 62
     4
100
AcDbLine
 10
89.668783
 20
124.880606
 30
0.0
 11
89.868783
 21
124.880606
 31
0.0
  0
LINE
  5
2E3
330
1F
100
AcDbEntity
  8
0
  6
CONTINUOUS
 62
     4
100
AcDbLine
 10
89.668784
 20
126.880606
 30
0.0
 11
89.868784
 21
126.880606
 31
0.0
  0
LINE
  5
2E4
330
1F
100
AcDbEntity
  8
0
  6
CONTINUOUS
 62
     4
100
AcDbLine
 10
89.668784
 20
133.380606
 30
0.0
 11
89.868784
 21
133.380606
 31
0.0
  0
LINE
  5
2E5
330
1F
100
AcDbEntity
  8
0
  6
CONTINUOUS
 62
     4
100
AcDbLine
 10
89.668784
 20
178.380606
 30
0.0
 11
89.868784
 21
178.380606
 31
0.0
  0
LINE
  5
2E6
330
1F
100
AcDbEntity
  8
0
  6
CONTINUOUS
 62
     4
100
AcDbLine
 10
89.668784
 20
184.880606
 30
0.0
 11
89.868784
 21
184.880606
 31
0.0
  0
LINE
  5
2E7
330
1F
100
AcDbEntity
  8
0
  6
CONTINUOUS
 62
     4
100
AcDbLine
 10
89.668783
 20
186.880606
 30
0.0
 11
89.868783
 21
186.880606
 31
0.0
  0
LINE
  5
2E8
330
1F
100
AcDbEntity
  8
0
  6
CONTINUOUS
 62
     4
100
AcDbLine
 10
89.668783
 20
195.880606
 30
0.0
 11
89.868783
 21
195.880606
 31
0.0
  0
CIRCLE
  5
2E9
330
1F
100
AcDbEntity
  8
0
  6
CONTINUOUS
 62
     6
100
AcDbCircle
 10
24.243783
 20
119.680606
 30
0.0
 40
2.5
  0
CIRCLE
  5
2EA
330
1F
100
AcDbEntity
  8
0
  6
CONTINUOUS
 62
     6
100
AcDbCircle
 10
36.243783
 20
119.680606
 30
0.0
 40
2.5
  0
LINE
  5
2EB
330
1F
100
AcDbEntity
  8
0
  6
CONTINUOUS
 62
     4
100
AcDbLine
 10
19.868785
 20
135.380606
 30
0.0
 11
20.068785
 21
135.380606
 31
0.0
  0
LINE
  5
2EC
330
1F
100
AcDbEntity
  8
0
  6
CONTINUOUS
 62
     4
100
AcDbLine
 10
19.868785
 20
176.380606
 30
0.0
 11
20.068785
 21
176.380606
 31
0.0
  0
LINE
  5
2ED
330
1F
100
AcDbEntity
  8
0
  6
CONTINUOUS
 62
     4
100
AcDbLine
 10
19.868785
 20
176.380606
 30
0.0
 11
19.868785
 21
135.380606
 31
0.0
  0
LINE
  5
2EE
330
1F
100
AcDbEntity
  8
0
  6
CONTINUOUS
 62
     4
100
AcDbLine
 10
20.068784
 20
126.880606
 30
0.0
 11
20.068784
 21
126.380606
 31
0.0
  0
LINE
  5
2EF
330
1F
100
AcDbEntity
  8
0
  6
CONTINUOUS
 62
     4
100
AcDbLine
 10
20.068784
 20
184.880606
 30
0.0
 11
20.068784
 21
185.380606
 31
0.0
  0
LINE
  5
2F0
330
1F
100
AcDbEntity
  8
0
  6
CONTINUOUS
 62
     4
100
AcDbLine
 10
20.068783
 20
196.380606
 30
0.0
 11
20.068783
 21
195.880606
 31
0.0
  0
LINE
  5
2F1
330
1F
100
AcDbEntity
  8
0
  6
CONTINUOUS
 62
     4
100
AcDbLine
 10
20.068783
 20
115.880606
 30
0.0
 11
20.068783
 21
115.380606
 31
0.0
  0
LINE
  5
2F2
330
1F
100
AcDbEntity
  8
0
  6
CONTINUOUS
 62
     4
100
AcDbLine
 10
20.068783
 20
115.380606
 30
0.0
 11
20.068783
 21
114.080606
 31
0.0
  0
ARC
  5
2F3
330
1F
100
AcDbEntity
  8
0
  6
CONTINUOUS
 62
     4
100
AcDbCircle
 10
20.268783
 20
114.080606
 30
0.0
 40
0.2000000029802322
100
AcDbArc
 50
180.0
 51
270.0
  0
LINE
  5
2F4
330
1F
100
AcDbEntity
  8
0
  6
CONTINUOUS
 62
     4
100
AcDbLine
 10
20.068784
 20
126.380606
 30
0.0
 11
20.068784
 21
125.080606
 31
0.0
  0
ARC
  5
2F5
330
1F
100
AcDbEntity
  8
0
  6
CONTINUOUS
 62
     6
100
AcDbCircle
 10
20.268784
 20
125.080606
 30
0.0
 40
0.2000000029802358
100
AcDbArc
 50
180.0
 51
270.0
  0
LINE
  5
2F6
330
1F
100
AcDbEntity
  8
0
  6
CONTINUOUS
 62
     4
100
AcDbLine
 10
20.068783
 20
124.880606
 30
0.0
 11
20.068783
 21
125.080606
 31
0.0
  0
LINE
  5
2F7
330
1F
100
AcDbEntity
  8
0
  6
CONTINUOUS
 62
     4
100
AcDbLine
 10
20.068784
 20
133.380606
 30
0.0
 11
20.068784
 21
133.580606
 31
0.0
  0
LINE
  5
2F8
330
1F
100
AcDbEntity
  8
0
  6
CONTINUOUS
 62
     4
100
AcDbLine
 10
20.068784
 20
178.380606
 30
0.0
 11
20.068784
 21
178.180606
 31
0.0
  0
LINE
  5
2F9
330
1F
100
AcDbEntity
  8
0
  6
CONTINUOUS
 62
     4
100
AcDbLine
 10
20.068784
 20
185.380606
 30
0.0
 11
20.068784
 21
186.680606
 31
0.0
  0
LINE
  5
2FA
330
1F
100
AcDbEntity
  8
0
  6
CONTINUOUS
 62
     4
100
AcDbLine
 10
20.068783
 20
196.380606
 30
0.0
 11
20.068783
 21
197.680606
 31
0.0
  0
ARC
  5
2FB
330
1F
100
AcDbEntity
  8
0
  6
CONTINUOUS
 62
     6
100
AcDbCircle
 10
-20.268784
 20
186.680606
 30
0.0
 40
0.2000000029802322
210
0.0
220
0.0
230
-1.0
100
AcDbArc
 50
0.0
 51
90.0
  0
ARC
  5
2FC
330
1F
100
AcDbEntity
  8
0
  6
CONTINUOUS
 62
     4
100
AcDbCircle
 10
20.268783
 20
197.680606
 30
0.0
 40
0.2000000029802322
100
AcDbArc
 50
90.0
 51
180.0
  0
LINE
  5
2FD
330
1F
100
AcDbEntity
  8
0
  6
CONTINUOUS
 62
     4
100
AcDbLine
 10
19.868783
 20
124.880606
 30
0.0
 11
19.868783
 21
115.880606
 31
0.0
  0
LINE
  5
2FE
330
1F
100
AcDbEntity
  8
0
  6
CONTINUOUS
 62
     4
100
AcDbLine
 10
19.868784
 20
133.380606
 30
0.0
 11
19.868784
 21
126.880606
 31
0.0
  0
LINE
  5
2FF
330
1F
100
AcDbEntity
  8
0
  6
CONTINUOUS
 62
     4
100
AcDbLine
 10
19.868784
 20
184.880606
 30
0.0
 11
19.868784
 21
178.380606
 31
0.0
  0
LINE
  5
300
330
1F
100
AcDbEntity
  8
0
  6
CONTINUOUS
 62
     4
100
AcDbLine
 10
19.868783
 20
195.880606
 30
0.0
 11
19.868783
 21
186.880606
 31
0.0
  0
LINE
  5
301
330
1F
100
AcDbEntity
  8
0
  6
CONTINUOUS
 62
     4
100
AcDbLine
 10
20.068783
 20
124.880606
 30
0.0
 11
19.868783
 21
124.880606
 31
0.0
  0
LINE
  5
302
330
1F
100
AcDbEntity
  8
0
  6
CONTINUOUS
 62
     4
100
AcDbLine
 10
20.068783
 20
115.880606
 30
0.0
 11
19.868783
 21
115.880606
 31
0.0
  0
LINE
  5
303
330
1F
100
AcDbEntity
  8
0
  6
CONTINUOUS
 62
     4
100
AcDbLine
 10
20.068784
 20
133.380606
 30
0.0
 11
19.868784
 21
133.380606
 31
0.0
  0
LINE
  5
304
330
1F
100
AcDbEntity
  8
0
  6
CONTINUOUS
 62
     4
100
AcDbLine
 10
20.068784
 20
126.880606
 30
0.0
 11
19.868784
 21
126.880606
 31
0.0
  0
LINE
  5
305
330
1F
100
AcDbEntity
  8
0
  6
CONTINUOUS
 62
     4
100
AcDbLine
 10
20.068784
 20
184.880606
 30
0.0
 11
19.868784
 21
184.880606
 31
0.0
  0
LINE
  5
306
330
1F
100
AcDbEntity
  8
0
  6
CONTINUOUS
 62
     4
100
AcDbLine
 10
20.068784
 20
178.380606
 30
0.0
 11
19.868784
 21
178.380606
 31
0.0
  0
LINE
  5
307
330
1F
100
AcDbEntity
  8
0
  6
CONTINUOUS
 62
     4
100
AcDbLine
 10
20.068783
 20
195.880606
 30
0.0
 11
19.868783
 21
195.880606
 31
0.0
  0
LINE
  5
308
330
1F
100
AcDbEntity
  8
0
  6
CONTINUOUS
 62
     4
100
AcDbLine
 10
20.068783
 20
186.880606
 30
0.0
 11
19.868783
 21
186.880606
 31
0.0
  0
LINE
  5
309
330
1F
100
AcDbEntity
  8
0
  6
CONTINUOUS
 62
     4
100
AcDbLine
 10
20.268783
 20
113.880606
 30
0.0
 11
89.468783
 21
113.880606
 31
0.0
  0
LINE
  5
30A
330
1F
100
AcDbEntity
  8
0
  6
CONTINUOUS
 62
     6
100
AcDbLine
 10
20.268784
 20
124.880606
 30
0.0
 11
89.468784
 21
124.880606
 31
0.0
  0
LINE
  5
30B
330
1F
100
AcDbEntity
  8
0
  6
CONTINUOUS
 62
     4
100
AcDbLine
 10
20.268783
 20
197.880606
 30
0.0
 11
89.468783
 21
197.880606
 31
0.0
  0
LINE
  5
30C
330
1F
100
AcDbEntity
  8
0
  6
CONTINUOUS
 62
     6
100
AcDbLine
 10
20.268784
 20
186.880606
 30
0.0
 11
89.468784
 21
186.880606
 31
0.0
  0
LINE
  5
30D
330
1F
100
AcDbEntity
  8
0
  6
CONTINUOUS
 62
     6
100
AcDbLine
 10
57.118783
 20
116.130606
 30
0.0
 11
87.618783
 21
116.130606
 31
0.0
  0
CIRCLE
  5
30E
330
1F
100
AcDbEntity
  8
0
  6
CONTINUOUS
 62
     6
100
AcDbCircle
 10
50.493783
 20
119.680606
 30
0.0
 40
2.5
  0
LINE
  5
30F
330
1F
100
AcDbEntity
  8
0
  6
CONTINUOUS
 62
     5
100
AcDbLine
 10
55.768783
 20
186.880606
 30
0.0
 11
55.768783
 21
196.380606
 31
0.0
  0
LINE
  5
310
330
1F
100
AcDbEntity
  8
0
  6
CONTINUOUS
 62
     5
100
AcDbLine
 10
55.368783
 20
186.880606
 30
0.0
 11
55.368783
 21
196.380606
 31
0.0
  0
LINE
  5
311
330
1F
100
AcDbEntity
  8
0
  6
CONTINUOUS
 62
     5
100
AcDbLine
 10
55.768783
 20
196.380606
 30
0.0
 11
55.768783
 21
197.005502
 31
0.0
  0
LINE
  5
312
330
1F
100
AcDbEntity
  8
0
  6
CONTINUOUS
 62
     5
100
AcDbLine
 10
55.368783
 20
196.380606
 30
0.0
 11
55.368783
 21
196.838863
 31
0.0
  0
SPLINE
  5
313
330
1F
100
AcDbEntity
  8
0
  6
CONTINUOUS
 62
     5
100
AcDbSpline
210
0.0
220
0.0
230
1.0
 70
     8
 71
     3
 72
    12
 73
     8
 74
     0
 42
0.0
 43
0.0
 40
0.0
 40
0.0
 40
0.0
 40
0.0
 40
0.3680812732683907
 40
0.484448192721851
 40
0.6358565475593616
 40
0.8303213737596572
 40
1.123516588060986
 40
1.123516588060986
 40
1.123516588060986
 40
1.123516588060986
 10
55.36878343080321
 20
196.8388633582887
 30
0.0
 10
55.36878342897126
 20
197.0034852032692
 30
0.0
 10
55.36214325585775
 20
197.1959063504097
 30
0.0
 10
55.29616396680149
 20
197.3545836145853
 30
0.0
 10
55.22302981179541
 20
197.429869689338
 30
0.0
 10
55.08222587800628
 20
197.4735883784623
 30
0.0
 10
54.94891814193238
 20
197.4760509126698
 30
0.0
 10
54.86878340894748
 20
197.4760509126698
 30
0.0
  0
SPLINE
  5
314
330
1F
100
AcDbEntity
  8
0
  6
CONTINUOUS
 62
     5
100
AcDbSpline
210
0.0
220
0.0
230
1.0
 70
     8
 71
     3
 72
    14
 73
    10
 74
     0
 42
0.0
 43
0.0
 40
0.0
 40
0.0
 40
0.0
 40
0.0
 40
0.377061272884248
 40
0.6613583756207448
 40
0.8704432772848784
 40
1.142489672695304
 40
1.454549290512129
 40
1.736626600416758
 40
2.018703910321386
 40
2.018703910321386
 40
2.018703910321386
 40
2.018703910321386
 10
55.76878345265868
 20
197.0055024726522
 30
0.0
 10
55.76878345009504
 20
197.1334880736874
 30
0.0
 10
55.76373360318053
 20
197.3437271842196
 30
0.0
 10
55.71761417230232
 20
197.5637751520213
 30
0.0
 10
55.63807524680783
 20
197.7087735080158
 30
0.0
 10
55.51234307905179
 20
197.8067358222424
 30
0.0
 10
55.32440650256763
 20
197.8557810666924
 30
0.0
 10
55.10049937696522
 20
197.8722358160575
 30
0.0
 10
54.94601791144385
 20
197.874394596971
 30
0.0
 10
54.86878339305235
 20
197.874394596971
 30
0.0
  0
SPLINE
  5
315
330
1F
100
AcDbEntity
  8
0
  6
CONTINUOUS
 62
     5
100
AcDbSpline
210
0.0
220
0.0
230
1.0
 70
     8
 71
     3
 72
    12
 73
     8
 74
     0
 42
0.0
 43
0.0
 40
0.0
 40
0.0
 40
0.0
 40
0.0
 40
0.3680812732685749
 40
0.4844481927220293
 40
0.6358565475595273
 40
0.8303213737598522
 40
1.123516588060972
 40
1.123516588060972
 40
1.123516588060972
 40
1.123516588060972
 10
54.36878343080321
 20
196.8388633582887
 30
0.0
 10
54.36878342897126
 20
197.0034852032692
 30
0.0
 10
54.37542359442068
 20
197.1959063504098
 30
0.0
 10
54.44140287155915
 20
197.3545836145854
 30
0.0
 10
54.51453701817081
 20
197.4298696893381
 30
0.0
 10
54.6553409427529
 20
197.4735883784623
 30
0.0
 10
54.78864867596258
 20
197.4760509126698
 30
0.0
 10
54.86878340894748
 20
197.4760509126698
 30
0.0
  0
SPLINE
  5
316
330
1F
100
AcDbEntity
  8
0
  6
CONTINUOUS
 62
     5
100
AcDbSpline
210
0.0
220
0.0
230
1.0
 70
     8
 71
     3
 72
    14
 73
    10
 74
     0
 42
0.0
 43
0.0
 40
0.0
 40
0.0
 40
0.0
 40
0.0
 40
0.3770612728844618
 40
0.6613583756210848
 40
0.8704432772852109
 40
1.142489672695617
 40
1.454549290512487
 40
1.736626600416938
 40
2.018703910321389
 40
2.018703910321389
 40
2.018703910321389
 40
2.018703910321389
 10
53.96878344073775
 20
197.0055024726522
 30
0.0
 10
53.96878343817411
 20
197.1334880736875
 30
0.0
 10
53.97383327327998
 20
197.3437271842198
 30
0.0
 10
54.0199526836011
 20
197.5637751520215
 30
0.0
 10
54.09949158954055
 20
197.708773508016
 30
0.0
 10
54.22522373760944
 20
197.8067358222426
 30
0.0
 10
54.41316029676432
 20
197.8557810666924
 30
0.0
 10
54.63706741155556
 20
197.8722358160575
 30
0.0
 10
54.79154887466098
 20
197.874394596971
 30
0.0
 10
54.86878339305235
 20
197.874394596971
 30
0.0
  0
LINE
  5
317
330
1F
100
AcDbEntity
  8
0
  6
CONTINUOUS
 62
     5
100
AcDbLine
 10
53.968783
 20
196.380606
 30
0.0
 11
53.968783
 21
197.005502
 31
0.0
  0
LINE
  5
318
330
1F
100
AcDbEntity
  8
0
  6
CONTINUOUS
 62
     5
100
AcDbLine
 10
54.368783
 20
196.380606
 30
0.0
 11
54.368783
 21
196.838863
 31
0.0
  0
LINE
  5
319
330
1F
100
AcDbEntity
  8
0
  6
CONTINUOUS
 62
     5
100
AcDbLine
 10
53.968783
 20
196.380606
 30
0.0
 11
53.968783
 21
186.880606
 31
0.0
  0
LINE
  5
31A
330
1F
100
AcDbEntity
  8
0
  6
CONTINUOUS
 62
     5
100
AcDbLine
 10
54.368783
 20
196.380606
 30
0.0
 11
54.368783
 21
186.880606
 31
0.0
  0
LINE
  5
31B
330
1F
100
AcDbEntity
  8
0
  6
CONTINUOUS
 62
     5
100
AcDbLine
 10
53.968783
 20
124.880606
 30
0.0
 11
53.968783
 21
115.380606
 31
0.0
  0
LINE
  5
31C
330
1F
100
AcDbEntity
  8
0
  6
CONTINUOUS
 62
     5
100
AcDbLine
 10
54.368783
 20
124.880606
 30
0.0
 11
54.368783
 21
115.380606
 31
0.0
  0
LINE
  5
31D
330
1F
100
AcDbEntity
  8
0
  6
CONTINUOUS
 62
     5
100
AcDbLine
 10
53.968783
 20
115.380606
 30
0.0
 11
53.968783
 21
114.755709
 31
0.0
  0
LINE
  5
31E
330
1F
100
AcDbEntity
  8
0
  6
CONTINUOUS
 62
     5
100
AcDbLine
 10
54.368783
 20
115.380606
 30
0.0
 11
54.368783
 21
114.922348
 31
0.0
  0
SPLINE
  5
31F
330
1F
100
AcDbEntity
  8
0
  6
CONTINUOUS
 62
     5
100
AcDbSpline
210
0.0
220
0.0
230
1.0
 70
     8
 71
     3
 72
    12
 73
     8
 74
     0
 42
0.0
 43
0.0
 40
0.0
 40
0.0
 40
0.0
 40
0.0
 40
0.3680812732684842
 40
0.4844481927219441
 40
0.6358565475594251
 40
0.8303213737597599
 40
1.123516588060978
 40
1.123516588060978
 40
1.123516588060978
 40
1.123516588060978
 10
54.36878343080309
 20
114.9223482479125
 30
0.0
 10
54.36878342897114
 20
114.757726402932
 30
0.0
 10
54.37542359442068
 20
114.5653052557915
 30
0.0
 10
54.44140287155892
 20
114.4066279916158
 30
0.0
 10
54.5145370181707
 20
114.3313419168631
 30
0.0
 10
54.6553409427529
 20
114.2876232277389
 30
0.0
 10
54.78864867596258
 20
114.2851606935314
 30
0.0
 10
54.86878340894737
 20
114.2851606935314
 30
0.0
  0
SPLINE
  5
320
330
1F
100
AcDbEntity
  8
0
  6
CONTINUOUS
 62
     5
100
AcDbSpline
210
0.0
220
0.0
230
1.0
 70
     8
 71
     3
 72
    14
 73
    10
 74
     0
 42
0.0
 43
0.0
 40
0.0
 40
0.0
 40
0.0
 40
0.0
 40
0.3770612728843531
 40
0.6613583756209155
 40
0.8704432772850492
 40
1.142489672695422
 40
1.454549290512322
 40
1.736626600416851
 40
2.01870391032138
 40
2.01870391032138
 40
2.01870391032138
 40
2.01870391032138
 10
53.96878344073775
 20
114.7557091335489
 30
0.0
 10
53.968783438174
 20
114.6277235325137
 30
0.0
 10
53.97383327327998
 20
114.4174844219814
 30
0.0
 10
54.01995268360088
 20
114.1974364541798
 30
0.0
 10
54.09949158954043
 20
114.0524380981852
 30
0.0
 10
54.22522373760921
 20
113.9544757839587
 30
0.0
 10
54.41316029676409
 20
113.9054305395088
 30
0.0
 10
54.63706741155534
 20
113.8889757901437
 30
0.0
 10
54.79154887466098
 20
113.8868170092302
 30
0.0
 10
54.86878339305235
 20
113.8868170092302
 30
0.0
  0
SPLINE
  5
321
330
1F
100
AcDbEntity
  8
0
  6
CONTINUOUS
 62
     5
100
AcDbSpline
210
0.0
220
0.0
230
1.0
 70
     8
 71
     3
 72
    12
 73
     8
 74
     0
 42
0.0
 43
0.0
 40
0.0
 40
0.0
 40
0.0
 40
0.0
 40
0.3680812732683955
 40
0.4844481927218626
 40
0.6358565475593628
 40
0.8303213737596534
 40
1.123516588060985
 40
1.123516588060985
 40
1.123516588060985
 40
1.123516588060985
 10
55.36878343080309
 20
114.9223482479125
 30
0.0
 10
55.36878342897114
 20
114.7577264029321
 30
0.0
 10
55.36214325585775
 20
114.5653052557915
 30
0.0
 10
55.29616396680137
 20
114.4066279916159
 30
0.0
 10
55.22302981179541
 20
114.3313419168631
 30
0.0
 10
55.08222587800628
 20
114.2876232277389
 30
0.0
 10
54.94891814193238
 20
114.2851606935314
 30
0.0
 10
54.86878340894737
 20
114.2851606935314
 30
0.0
  0
SPLINE
  5
322
330
1F
100
AcDbEntity
  8
0
  6
CONTINUOUS
 62
     5
100
AcDbSpline
210
0.0
220
0.0
230
1.0
 70
     8
 71
     3
 72
    14
 73
    10
 74
     0
 42
0.0
 43
0.0
 40
0.0
 40
0.0
 40
0.0
 40
0.0
 40
0.3770612728842545
 40
0.661358375620754
 40
0.8704432772848998
 40
1.142489672695306
 40
1.454549290512119
 40
1.736626600416753
 40
2.018703910321387
 40
2.018703910321387
 40
2.018703910321387
 40
2.018703910321387
 10
55.76878345265868
 20
114.7557091335489
 30
0.0
 10
55.76878345009493
 20
114.6277235325138
 30
0.0
 10
55.76373360318053
 20
114.4174844219815
 30
0.0
 10
55.71761417230221
 20
114.1974364541798
 30
0.0
 10
55.63807524680772
 20
114.0524380981853
 30
0.0
 10
55.51234307905167
 20
113.9544757839587
 30
0.0
 10
55.32440650256763
 20
113.9054305395088
 30
0.0
 10
55.10049937696522
 20
113.8889757901437
 30
0.0
 10
54.94601791144385
 20
113.8868170092302
 30
0.0
 10
54.86878339305235
 20
113.8868170092302
 30
0.0
  0
LINE
  5
323
330
1F
100
AcDbEntity
  8
0
  6
CONTINUOUS
 62
     5
100
AcDbLine
 10
55.768783
 20
115.380606
 30
0.0
 11
55.768783
 21
114.755709
 31
0.0
  0
LINE
  5
324
330
1F
100
AcDbEntity
  8
0
  6
CONTINUOUS
 62
     5
100
AcDbLine
 10
55.368783
 20
115.380606
 30
0.0
 11
55.368783
 21
114.922348
 31
0.0
  0
LINE
  5
325
330
1F
100
AcDbEntity
  8
0
  6
CONTINUOUS
 62
     5
100
AcDbLine
 10
55.768783
 20
115.380606
 30
0.0
 11
55.768783
 21
124.880606
 31
0.0
  0
LINE
  5
326
330
1F
100
AcDbEntity
  8
0
  6
CONTINUOUS
 62
     5
100
AcDbLine
 10
55.368783
 20
115.380606
 30
0.0
 11
55.368783
 21
124.880606
 31
0.0
  0
LINE
  5
327
330
1F
100
AcDbEntity
  8
0
  6
CONTINUOUS
 62
     6
100
AcDbLine
 10
46.368785
 20
173.080606
 30
0.0
 11
48.368785
 21
173.080606
 31
0.0
  0
LINE
  5
328
330
1F
100
AcDbEntity
  8
0
  6
CONTINUOUS
 62
     6
100
AcDbLine
 10
48.368785
 20
173.080606
 30
0.0
 11
48.368785
 21
175.080606
 31
0.0
  0
LINE
  5
329
330
1F
100
AcDbEntity
  8
0
  6
CONTINUOUS
 62
     6
100
AcDbLine
 10
48.368785
 20
175.080606
 30
0.0
 11
46.368785
 21
175.080606
 31
0.0
  0
LINE
  5
32A
330
1F
100
AcDbEntity
  8
0
  6
CONTINUOUS
 62
     6
100
AcDbLine
 10
46.368785
 20
175.080606
 30
0.0
 11
46.368785
 21
173.080606
 31
0.0
  0
LINE
  5
32B
330
1F
100
AcDbEntity
  8
0
  6
CONTINUOUS
 62
     5
100
AcDbLine
 10
49.758088
 20
120.228751
 30
0.0
 11
48.91577
 21
120.105623
 31
0.0
  0
LINE
  5
32C
330
1F
100
AcDbEntity
  8
0
  6
CONTINUOUS
 62
     5
100
AcDbLine
 10
48.91577
 20
120.105623
 30
0.0
 11
49.103436
 21
118.821805
 31
0.0
  0
LINE
  5
32D
330
1F
100
AcDbEntity
  8
0
  6
CONTINUOUS
 62
     5
100
AcDbLine
 10
49.103436
 20
118.821805
 30
0.0
 11
49.945754
 21
118.944934
 31
0.0
  0
LINE
  5
32E
330
1F
100
AcDbEntity
  8
0
  6
CONTINUOUS
 62
     5
100
AcDbLine
 10
49.945754
 20
118.944934
 30
0.0
 11
50.068882
 21
118.102616
 31
0.0
  0
LINE
  5
32F
330
1F
100
AcDbEntity
  8
0
  6
CONTINUOUS
 62
     5
100
AcDbLine
 10
51.3527
 20
118.290282
 30
0.0
 11
51.229572
 21
119.132599
 31
0.0
  0
LINE
  5
330
330
1F
100
AcDbEntity
  8
0
  6
CONTINUOUS
 62
     5
100
AcDbLine
 10
51.229572
 20
119.132599
 30
0.0
 11
52.071889
 21
119.255728
 31
0.0
  0
LINE
  5
331
330
1F
100
AcDbEntity
  8
0
  6
CONTINUOUS
 62
     5
100
AcDbLine
 10
52.071889
 20
119.255728
 30
0.0
 11
51.884223
 21
120.539545
 31
0.0
  0
LINE
  5
332
330
1F
100
AcDbEntity
  8
0
  6
CONTINUOUS
 62
     5
100
AcDbLine
 10
51.884223
 20
120.539545
 30
0.0
 11
51.041906
 21
120.416417
 31
0.0
  0
LINE
  5
333
330
1F
100
AcDbEntity
  8
0
  6
CONTINUOUS
 62
     5
100
AcDbLine
 10
51.041906
 20
120.416417
 30
0.0
 11
50.918777
 21
121.258735
 31
0.0
  0
LINE
  5
334
330
1F
100
AcDbEntity
  8
0
  6
CONTINUOUS
 62
     5
100
AcDbLine
 10
49.63496
 20
121.071069
 30
0.0
 11
49.758088
 21
120.228751
 31
0.0
  0
LINE
  5
335
330
1F
100
AcDbEntity
  8
0
  6
CONTINUOUS
 62
     5
100
AcDbLine
 10
51.106529
 20
118.254297
 30
0.0
 11
51.3527
 21
118.290282
 31
0.0
  0
LINE
  5
336
330
1F
100
AcDbEntity
  8
0
  6
CONTINUOUS
 62
     5
100
AcDbLine
 10
50.068882
 20
118.102616
 30
0.0
 11
50.314942
 21
118.138585
 31
0.0
  0
LINE
  5
337
330
1F
100
AcDbEntity
  8
0
  6
CONTINUOUS
 62
     5
100
AcDbLine
 10
50.918777
 20
121.258735
 30
0.0
 11
50.672607
 21
121.22275
 31
0.0
  0
LINE
  5
338
330
1F
100
AcDbEntity
  8
0
  6
CONTINUOUS
 62
     5
100
AcDbLine
 10
49.881019
 20
121.107037
 30
0.0
 11
49.63496
 21
121.071069
 31
0.0
  0
LINE
  5
339
330
1F
100
AcDbEntity
  8
0
  6
CONTINUOUS
 62
     5
100
AcDbLine
 10
51.106529
 20
118.254297
 30
0.0
 11
51.052572
 21
118.62342
 31
0.0
  0
LINE
  5
33A
330
1F
100
AcDbEntity
  8
0
  6
CONTINUOUS
 62
     5
100
AcDbLine
 10
50.314942
 20
118.138585
 30
0.0
 11
50.260984
 21
118.507708
 31
0.0
  0
LINE
  5
33B
330
1F
100
AcDbEntity
  8
0
  6
CONTINUOUS
 62
     5
100
AcDbLine
 10
51.052572
 20
118.62342
 30
0.0
 11
50.260984
 21
118.507708
 31
0.0
  0
LINE
  5
33C
330
1F
100
AcDbEntity
  8
0
  6
CONTINUOUS
 62
     5
100
AcDbLine
 10
50.672607
 20
121.22275
 30
0.0
 11
50.726564
 21
120.853627
 31
0.0
  0
LINE
  5
33D
330
1F
100
AcDbEntity
  8
0
  6
CONTINUOUS
 62
     5
100
AcDbLine
 10
49.881019
 20
121.107037
 30
0.0
 11
49.934977
 21
120.737914
 31
0.0
  0
LINE
  5
33E
330
1F
100
AcDbEntity
  8
0
  6
CONTINUOUS
 62
     5
100
AcDbLine
 10
50.726564
 20
120.853627
 30
0.0
 11
49.934977
 21
120.737914
 31
0.0
  0
ARC
  5
33F
330
1F
100
AcDbEntity
  8
0
  6
CONTINUOUS
 62
     5
100
AcDbCircle
 10
-50.493783
 20
119.680606
 30
0.0
 40
2.3
210
0.0
220
0.0
230
-1.0
100
AcDbArc
 50
251.668108
 51
261.683513
  0
ARC
  5
340
330
1F
100
AcDbEntity
  8
0
  6
CONTINUOUS
 62
     5
100
AcDbCircle
 10
-50.493783
 20
119.680606
 30
0.0
 40
2.3
210
0.0
220
0.0
230
-1.0
100
AcDbArc
 50
81.683528
 51
91.698928
  0
ARC
  5
341
330
1F
100
AcDbEntity
  8
0
  6
CONTINUOUS
 62
     5
100
AcDbCircle
 10
50.493783
 20
119.680606
 30
0.0
 40
2.3
100
AcDbArc
 50
268.301072
 51
278.316487
  0
ARC
  5
342
330
1F
100
AcDbEntity
  8
0
  6
CONTINUOUS
 62
     5
100
AcDbCircle
 10
50.493783
 20
119.680606
 30
0.0
 40
2.3
100
AcDbArc
 50
98.316472
 51
108.331892
  0
ARC
  5
343
330
1F
100
AcDbEntity
  8
0
  6
CONTINUOUS
 62
     5
100
AcDbCircle
 10
50.493783
 20
119.680606
 30
0.0
 40
2.3
100
AcDbArc
 50
108.331892
 51
268.301072
  0
LINE
  5
344
330
1F
100
AcDbEntity
  8
0
  6
CONTINUOUS
 62
     5
100
AcDbLine
 10
49.814553
 20
121.561735
 30
0.0
 11
49.881019
 21
121.107037
 31
0.0
  0
LINE
  5
345
330
1F
100
AcDbEntity
  8
0
  6
CONTINUOUS
 62
     5
100
AcDbLine
 10
50.314942
 20
118.138585
 30
0.0
 11
50.381427
 21
117.683764
 31
0.0
  0
ARC
  5
346
330
1F
100
AcDbEntity
  8
0
  6
CONTINUOUS
 62
     5
100
AcDbCircle
 10
-50.493783
 20
119.680606
 30
0.0
 40
2.3
210
0.0
220
0.0
230
-1.0
100
AcDbArc
 50
91.698928
 51
251.668108
  0
LINE
  5
347
330
1F
100
AcDbEntity
  8
0
  6
CONTINUOUS
 62
     5
100
AcDbLine
 10
50.672607
 20
121.22275
 30
0.0
 11
50.60614
 21
121.677447
 31
0.0
  0
LINE
  5
348
330
1F
100
AcDbEntity
  8
0
  6
CONTINUOUS
 62
     5
100
AcDbLine
 10
51.173014
 20
117.799477
 30
0.0
 11
51.106529
 21
118.254297
 31
0.0
  0
LINE
  5
349
330
1F
100
AcDbEntity
  8
0
  6
CONTINUOUS
 62
     5
100
AcDbLine
 10
49.814553
 20
121.561735
 30
0.0
 11
49.770385
 21
121.863882
 31
0.0
  0
LINE
  5
34A
330
1F
100
AcDbEntity
  8
0
  6
CONTINUOUS
 62
     5
100
AcDbLine
 10
50.381427
 20
117.683764
 30
0.0
 11
50.425594
 21
117.381617
 31
0.0
  0
LINE
  5
34B
330
1F
100
AcDbEntity
  8
0
  6
CONTINUOUS
 62
     5
100
AcDbLine
 10
50.60614
 20
121.677447
 30
0.0
 11
50.561973
 21
121.979595
 31
0.0
  0
SPLINE
  5
34C
330
1F
100
AcDbEntity
  8
0
  6
CONTINUOUS
 62
     5
100
AcDbSpline
210
0.0
220
0.0
230
1.0
 70
     8
 71
     3
 72
    11
 73
     7
 74
     0
 42
0.0
 43
0.0
 40
0.0
 40
0.0
 40
0.0
 40
0.0
 40
0.0971384075870547
 40
0.2309270276904215
 40
0.3898564959742859
 40
0.4754417653202683
 40
0.4754417653202683
 40
0.4754417653202683
 40
0.4754417653202683
 10
51.21718132426145
 20
117.4973295469741
 30
0.0
 10
51.21718132567071
 20
117.4973295469741
 30
0.0
 10
51.21533665455331
 20
117.5099489166544
 30
0.0
 10
51.20519485836462
 20
117.5793287114558
 30
0.0
 10
51.18894694455696
 20
117.6904802821527
 30
0.0
 10
51.17712821735608
 20
117.7713318873604
 30
0.0
 10
51.1730140186022
 20
117.7994770128042
 30
0.0
  0
LINE
  5
34D
330
1F
100
AcDbEntity
  8
0
  6
CONTINUOUS
 62
     6
100
AcDbLine
 10
88.118783
 20
116.630606
 30
0.0
 11
88.118783
 21
122.630606
 31
0.0
  0
LINE
  5
34E
330
1F
100
AcDbEntity
  8
0
  6
CONTINUOUS
 62
     6
100
AcDbLine
 10
56.618783
 20
122.630606
 30
0.0
 11
56.618783
 21
116.630606
 31
0.0
  0
LINE
  5
34F
330
1F
100
AcDbEntity
  8
0
  6
CONTINUOUS
 62
     6
100
AcDbLine
 10
87.618783
 20
123.130606
 30
0.0
 11
57.118783
 21
123.130606
 31
0.0
  0
ARC
  5
350
330
1F
100
AcDbEntity
  8
0
  6
CONTINUOUS
 62
     6
100
AcDbCircle
 10
87.618783
 20
122.630606
 30
0.0
 40
0.5
100
AcDbArc
 50
0.0
 51
90.0
  0
ARC
  5
351
330
1F
100
AcDbEntity
  8
0
  6
CONTINUOUS
 62
     6
100
AcDbCircle
 10
87.618783
 20
116.630606
 30
0.0
 40
0.5
100
AcDbArc
 50
270.0
 51
0.0
  0
ARC
  5
352
330
1F
100
AcDbEntity
  8
0
  6
CONTINUOUS
 62
     6
100
AcDbCircle
 10
-57.118783
 20
116.630606
 30
0.0
 40
0.5
210
0.0
220
0.0
230
-1.0
100
AcDbArc
 50
270.0
 51
0.0
  0
ARC
  5
353
330
1F
100
AcDbEntity
  8
0
  6
CONTINUOUS
 62
     6
100
AcDbCircle
 10
-57.118783
 20
122.630606
 30
0.0
 40
0.5
210
0.0
220
0.0
230
-1.0
100
AcDbArc
 50
0.0
 51
90.0
  0
LINE
  5
354
330
1F
100
AcDbEntity
  8
0
  6
CONTINUOUS
 62
     4
100
AcDbLine
 10
89.668782
 20
186.880606
 30
0.0
 11
89.668782
 21
186.680606
 31
0.0
  0
LINE
  5
355
330
1F
100
AcDbEntity
  8
0
  6
CONTINUOUS
 62
     4
100
AcDbLine
 10
20.068782
 20
186.680606
 30
0.0
 11
20.068782
 21
186.880606
 31
0.0
  0
LINE
  5
356
330
1F
100
AcDbEntity
  8
0
  6
CONTINUOUS
 62
     4
100
AcDbLine
 10
113.281697
 20
173.380606
 30
0.0
 11
113.281697
 21
172.880606
 31
0.0
  0
POINT
  5
357
330
1F
100
AcDbEntity
  8
0
  6
CONTINUOUS
 62
     5
100
AcDbPoint
 10
113.281697
 20
137.880606
 30
0.0
  0
LINE
  5
358
330
1F
100
AcDbEntity
  8
DIM
  6
CONTINUOUS
 62
     4
100
AcDbLine
 10
109.481696
 20
137.880606
 30
0.0
 11
108.981697
 21
137.880606
 31
0.0
  0
LINE
  5
359
330
1F
100
AcDbEntity
  8
0
  6
CONTINUOUS
 62
     5
100
AcDbLine
 10
113.281697
 20
139.58062
 30
0.0
 11
113.281697
 21
137.880606
 31
0.0
  0
LINE
  5
35A
330
1F
100
AcDbEntity
  8
0
  6
CONTINUOUS
 62
     5
100
AcDbLine
 10
140.066178
 20
191.413309
 30
0.0
 11
139.623511
 21
191.413309
 31
0.0
  0
LINE
  5
35B
330
1F
100
AcDbEntity
  8
0
  6
CONTINUOUS
 62
     6
100
AcDbLine
 10
140.20107
 20
192.747903
 30
0.0
 11
140.066178
 21
192.747903
 31
0.0
  0
ARC
  5
35C
330
1F
100
AcDbEntity
  8
0
  6
CONTINUOUS
 62
     5
100
AcDbCircle
 10
138.44444
 20
192.651824
 30
0.0
 40
2.180182446112836
100
AcDbArc
 50
298.409199
 51
310.101645
  0
ARC
  5
35D
330
1F
100
AcDbEntity
  8
0
  6
CONTINUOUS
 62
     5
100
AcDbCircle
 10
-138.44444
 20
193.344644
 30
0.0
 40
2.180182472941451
210
0.0
220
0.0
230
-1.0
100
AcDbArc
 50
229.898355
 51
241.590801
  0
LINE
  5
35E
330
1F
100
AcDbEntity
  8
0
  6
CONTINUOUS
 62
     5
100
AcDbLine
 10
139.481696
 20
190.734196
 30
0.0
 11
139.481696
 21
191.427016
 31
0.0
  0
SPLINE
  5
35F
330
1F
100
AcDbEntity
  8
0
  6
CONTINUOUS
 62
     5
100
AcDbSpline
210
0.0
220
0.0
230
1.0
 70
     8
 71
     3
 72
     9
 73
     5
 74
     0
 42
0.0
 43
0.0
 40
0.0
 40
0.0
 40
0.0
 40
0.0
 40
0.6374999080219526
 40
1.080747680277525
 40
1.080747680277525
 40
1.080747680277525
 40
1.080747680277525
 10
139.8487953074539
 20
190.9841956415868
 30
0.0
 10
139.9536167744457
 20
191.0621172747505
 30
0.0
 10
140.097967728384
 20
191.2027900221337
 30
0.0
 10
140.1788721037838
 20
191.3516348632568
 30
0.0
 10
140.2010697690419
 20
191.4133089463772
 30
0.0
  0
ARC
  5
360
330
1F
100
AcDbEntity
  8
0
  6
CONTINUOUS
 62
     6
100
AcDbCircle
 10
139.139462
 20
191.618338
 30
0.0
 40
1.098800931386481
100
AcDbArc
 50
14.950104
 51
24.878921
  0
SPLINE
  5
361
330
1F
100
AcDbEntity
  8
0
  6
CONTINUOUS
 62
     5
100
AcDbSpline
210
0.0
220
0.0
230
1.0
 70
     8
 71
     3
 72
     9
 73
     5
 74
     0
 42
0.0
 43
0.0
 40
0.3186073410698726
 40
0.3186073410698726
 40
0.3186073410698726
 40
0.3186073410698726
 40
0.4432477714730389
 40
1.080747680833307
 40
1.080747680833307
 40
1.080747680833307
 40
1.080747680833307
 10
140.1362933162987
 20
192.0806057103147
 30
0.0
 10
140.1256564595806
 20
192.0575601883162
 30
0.0
 10
140.05541274308
 20
191.9174077672841
 30
0.0
 10
139.9536168389796
 20
191.7827710083691
 30
0.0
 10
139.8487953703732
 20
191.6770159646144
 30
0.0
  0
SPLINE
  5
362
330
1F
100
AcDbEntity
  8
0
  6
CONTINUOUS
 62
     6
100
AcDbSpline
210
0.0
220
0.0
230
1.0
 70
     8
 71
     3
 72
    12
 73
     8
 74
     0
 42
0.0
 43
0.0
 40
0.0000001118170245
 40
0.0000001118170245
 40
0.0000001118170245
 40
0.0000001118170245
 40
0.2362735919306027
 40
0.6720033946942938
 40
1.025019376895439
 40
1.379142103655101
 40
1.496392095428734
 40
1.496392095428734
 40
1.496392095428734
 40
1.496392095428734
 10
138.7816957252582
 20
189.7126255260007
 30
0.0
 10
138.8475175553634
 20
189.7388238207693
 30
0.0
 10
139.0288274042193
 20
189.816630120125
 30
0.0
 10
139.2732262898576
 20
189.9441364846662
 30
0.0
 10
139.4845727586325
 20
190.0800979216872
 30
0.0
 10
139.5845202332752
 20
190.1617612521234
 30
0.0
 10
139.6169994606872
 20
190.1974123954514
 30
0.0
 10
139.6235060309985
 20
190.2055357437303
 30
0.0
  0
LINE
  5
363
330
1F
100
AcDbEntity
  8
0
  6
CONTINUOUS
 62
     5
100
AcDbLine
 10
138.781696
 20
189.712626
 30
0.0
 11
138.781696
 21
190.051992
 31
0.0
  0
SPLINE
  5
364
330
1F
100
AcDbEntity
  8
0
  6
CONTINUOUS
 62
     5
100
AcDbSpline
210
0.0
220
0.0
230
1.0
 70
     8
 71
     3
 72
    17
 73
    13
 74
     0
 42
0.0
 43
0.0
 40
0.0
 40
0.0
 40
0.0
 40
0.0
 40
0.2362740745475163
 40
0.6720038249257082
 40
1.025019771135167
 40
1.379142457394417
 40
1.703931233199766
 40
2.048215541771143
 40
2.415964627670334
 40
2.819653765517537
 40
3.236578583799478
 40
3.465113796468931
 40
3.465113796468931
 40
3.465113796468931
 40
3.465113796468931
 10
138.781695949797
 20
191.6891945317738
 30
0.0
 10
138.8475179424441
 20
191.7151948892599
 30
0.0
 10
139.0288279145702
 20
191.797081045095
 30
0.0
 10
139.2732268443055
 20
191.9606268262157
 30
0.0
 10
139.4845731922415
 20
192.2027411835431
 30
0.0
 10
139.6096822132702
 20
192.470767975163
 30
0.0
 10
139.6566071330545
 20
192.774581618591
 30
0.0
 10
139.6207039835915
 20
193.1013486533643
 30
0.0
 10
139.4923189196653
 20
193.4461608251655
 30
0.0
 10
139.2716375660589
 20
193.7778046405081
 30
0.0
 10
139.0197026480956
 20
194.0229997911783
 30
0.0
 10
138.8453641712525
 20
194.1489125782448
 30
0.0
 10
138.7816958578133
 20
194.1903398510586
 30
0.0
  0
LINE
  5
365
330
1F
100
AcDbEntity
  8
0
  6
CONTINUOUS
 62
     5
100
AcDbLine
 10
138.781696
 20
191.689195
 30
0.0
 11
138.781696
 21
194.19034
 31
0.0
  0
ARC
  5
366
330
1F
100
AcDbEntity
  8
0
  6
CONTINUOUS
 62
     6
100
AcDbCircle
 10
-138.191864
 20
191.787054
 30
0.0
 40
2.043670999976424
210
0.0
220
0.0
230
-1.0
100
AcDbArc
 50
190.5375
 51
198.156132
  0
ARC
  5
367
330
1F
100
AcDbEntity
  8
0
  6
CONTINUOUS
 62
     6
100
AcDbCircle
 10
137.766107
 20
192.311318
 30
0.0
 40
2.469158986315137
100
AcDbArc
 50
338.673006
 51
350.4533
  0
ARC
  5
368
330
1F
100
AcDbEntity
  8
0
  6
CONTINUOUS
 62
     5
100
AcDbCircle
 10
-139.224436
 20
193.379437
 30
0.0
 40
0.6553359407667908
210
0.0
220
0.0
230
-1.0
100
AcDbArc
 50
170.342646
 51
179.981878
  0
ARC
  5
369
330
1F
100
AcDbEntity
  8
0
  6
CONTINUOUS
 62
     5
100
AcDbCircle
 10
139.197073
 20
193.391175
 30
0.0
 40
0.6805356132421649
100
AcDbArc
 50
8.296927
 51
30.249928
  0
ARC
  5
36A
330
1F
100
AcDbEntity
  8
0
  6
CONTINUOUS
 62
     6
100
AcDbCircle
 10
138.093249
 20
192.345531
 30
0.0
 40
2.145882219302238
100
AcDbArc
 50
10.807421
 51
18.078888
  0
ARC
  5
36B
330
1F
100
AcDbEntity
  8
0
  6
CONTINUOUS
 62
     5
100
AcDbCircle
 10
-139.224436
 20
193.379851
 30
0.0
 40
0.6553358926153745
210
0.0
220
0.0
230
-1.0
100
AcDbArc
 50
180.018106
 51
189.657337
  0
ARC
  5
36C
330
1F
100
AcDbEntity
  8
0
  6
CONTINUOUS
 62
     5
100
AcDbCircle
 10
-138.902931
 20
193.400823
 30
0.0
 40
0.9763709524719202
210
0.0
220
0.0
230
-1.0
100
AcDbArc
 50
187.70553
 51
193.451707
  0
ARC
  5
36D
330
1F
100
AcDbEntity
  8
0
  6
CONTINUOUS
 62
     6
100
AcDbCircle
 10
-137.721521
 20
191.837712
 30
0.0
 40
2.515152499931695
210
0.0
220
0.0
230
-1.0
100
AcDbArc
 50
159.13166
 51
170.348087
  0
ARC
  5
36E
330
1F
100
AcDbEntity
  8
0
  6
CONTINUOUS
 62
     6
100
AcDbCircle
 10
137.281696
 20
192.080606
 30
0.0
 40
3.0
100
AcDbArc
 50
291.039472
 51
300.0
  0
ARC
  5
36F
330
1F
100
AcDbEntity
  8
0
  6
CONTINUOUS
 62
     6
100
AcDbCircle
 10
137.281696
 20
192.080606
 30
0.0
 40
3.0
100
AcDbArc
 50
321.316003
 51
342.095682
  0
ARC
  5
370
330
1F
100
AcDbEntity
  8
0
  6
CONTINUOUS
 62
     6
100
AcDbCircle
 10
-137.281696
 20
192.080606
 30
0.0
 40
3.0
210
0.0
220
0.0
230
-1.0
100
AcDbArc
 50
111.039472
 51
161.921112
  0
LINE
  5
371
330
1F
100
AcDbEntity
  8
0
  6
CONTINUOUS
 62
     6
100
AcDbLine
 10
138.281696
 20
194.880606
 30
0.0
 11
138.358729
 21
194.880606
 31
0.0
  0
LINE
  5
372
330
1F
100
AcDbEntity
  8
0
  6
CONTINUOUS
 62
     6
100
AcDbLine
 10
138.281696
 20
189.280606
 30
0.0
 11
138.358729
 21
189.280606
 31
0.0
  0
LINE
  5
373
330
1F
100
AcDbEntity
  8
0
  6
CONTINUOUS
 62
     5
100
AcDbLine
 10
31.6381
 20
192.941661
 30
0.0
 11
32.086637
 21
192.164772
 31
0.0
  0
LINE
  5
374
330
1F
100
AcDbEntity
  8
0
  6
CONTINUOUS
 62
     5
100
AcDbLine
 10
30.449467
 20
191.219551
 30
0.0
 11
30.00093
 21
191.99644
 31
0.0
  0
CIRCLE
  5
375
330
1F
100
AcDbEntity
  8
0
  6
CONTINUOUS
 62
     6
100
AcDbCircle
 10
31.043783
 20
192.080606
 30
0.0
 40
2.799999910311403
  0
LINE
  5
376
330
1F
100
AcDbEntity
  8
0
  6
CONTINUOUS
 62
     5
100
AcDbLine
 10
32.542822
 20
192.484196
 30
0.0
 11
32.975834
 21
192.734196
 31
0.0
  0
LINE
  5
377
330
1F
100
AcDbEntity
  8
0
  6
CONTINUOUS
 62
     5
100
AcDbLine
 10
29.511733
 20
190.734196
 30
0.0
 11
29.944745
 21
190.984196
 31
0.0
  0
LINE
  5
378
330
1F
100
AcDbEntity
  8
0
  6
CONTINUOUS
 62
     5
100
AcDbLine
 10
29.544745
 20
191.677016
 30
0.0
 11
29.111733
 21
191.427016
 31
0.0
  0
LINE
  5
379
330
1F
100
AcDbEntity
  8
0
  6
CONTINUOUS
 62
     5
100
AcDbLine
 10
32.575834
 20
193.427016
 30
0.0
 11
32.142822
 21
193.177016
 31
0.0
  0
ARC
  5
37A
330
1F
100
AcDbEntity
  8
0
  6
CONTINUOUS
 62
     5
100
AcDbCircle
 10
31.043783
 20
192.080606
 30
0.0
 40
2.039607754987273
100
AcDbArc
 50
18.690065
 51
41.30993
  0
ARC
  5
37B
330
1F
100
AcDbEntity
  8
0
  6
CONTINUOUS
 62
     5
100
AcDbCircle
 10
31.043783
 20
192.080606
 30
0.0
 40
2.039607754987273
100
AcDbArc
 50
198.69007
 51
221.309935
  0
LINE
  5
37C
330
1F
100
AcDbEntity
  8
0
  6
CONTINUOUS
 62
     5
100
AcDbLine
 10
29.944745
 20
190.984196
 30
0.0
 11
30.864982
 21
191.413309
 31
0.0
  0
LINE
  5
37D
330
1F
100
AcDbEntity
  8
0
  6
CONTINUOUS
 62
     5
100
AcDbLine
 10
31.71108
 20
191.901804
 30
0.0
 11
32.542822
 21
192.484196
 31
0.0
  0
LINE
  5
37E
330
1F
100
AcDbEntity
  8
0
  6
CONTINUOUS
 62
     5
100
AcDbLine
 10
32.142822
 20
193.177016
 30
0.0
 11
31.222585
 21
192.747903
 31
0.0
  0
LINE
  5
37F
330
1F
100
AcDbEntity
  8
0
  6
CONTINUOUS
 62
     5
100
AcDbLine
 10
30.376487
 20
192.259407
 30
0.0
 11
29.544745
 21
191.677016
 31
0.0
  0
ARC
  5
380
330
1F
100
AcDbEntity
  8
0
  6
CONTINUOUS
 62
     5
100
AcDbCircle
 10
30.47471
 20
187.566234
 30
0.0
 40
2.700025890704695
100
AcDbArc
 50
52.65074
 51
112.979849
  0
ARC
  5
381
330
1F
100
AcDbEntity
  8
0
  6
CONTINUOUS
 62
     5
100
AcDbCircle
 10
31.043783
 20
192.080606
 30
0.0
 40
2.598076160903473
100
AcDbArc
 50
231.335158
 51
294.29543
  0
ARC
  5
382
330
1F
100
AcDbEntity
  8
0
  6
CONTINUOUS
 62
     5
100
AcDbCircle
 10
26.849686
 20
193.844959
 30
0.0
 40
2.700025698900619
100
AcDbArc
 50
307.020147
 51
7.349267
  0
ARC
  5
383
330
1F
100
AcDbEntity
  8
0
  6
CONTINUOUS
 62
     5
100
AcDbCircle
 10
31.043783
 20
192.080606
 30
0.0
 40
2.598076160903473
100
AcDbArc
 50
125.704568
 51
188.664846
  0
LINE
  5
384
330
1F
100
AcDbEntity
  8
0
  6
CONTINUOUS
 62
     5
100
AcDbLine
 10
31.219204
 20
190.907427
 30
0.0
 11
31.972076
 21
191.342098
 31
0.0
  0
LINE
  5
385
330
1F
100
AcDbEntity
  8
0
  6
CONTINUOUS
 62
     5
100
AcDbLine
 10
30.864982
 20
191.413309
 30
0.0
 11
31.443608
 21
190.586946
 31
0.0
  0
LINE
  5
386
330
1F
100
AcDbEntity
  8
0
  6
CONTINUOUS
 62
     5
100
AcDbLine
 10
31.443608
 20
190.586946
 30
0.0
 11
31.603719
 21
190.671834
 31
0.0
  0
LINE
  5
387
330
1F
100
AcDbEntity
  8
0
  6
CONTINUOUS
 62
     5
100
AcDbLine
 10
31.603786
 20
190.671872
 30
0.0
 11
31.983833
 21
190.891293
 31
0.0
  0
LINE
  5
388
330
1F
100
AcDbEntity
  8
0
  6
CONTINUOUS
 62
     5
100
AcDbLine
 10
32.137419
 20
190.987518
 30
0.0
 11
31.71108
 21
191.901804
 31
0.0
  0
LINE
  5
389
330
1F
100
AcDbEntity
  8
0
  6
CONTINUOUS
 62
     5
100
AcDbLine
 10
32.137419
 20
190.987518
 30
0.0
 11
31.983848
 21
190.891302
 31
0.0
  0
LINE
  5
38A
330
1F
100
AcDbEntity
  8
0
  6
CONTINUOUS
 62
     5
100
AcDbLine
 10
30.868363
 20
193.253785
 30
0.0
 11
30.115491
 21
192.819114
 31
0.0
  0
LINE
  5
38B
330
1F
100
AcDbEntity
  8
0
  6
CONTINUOUS
 62
     5
100
AcDbLine
 10
30.48384
 20
193.489373
 30
0.0
 11
30.293784
 21
193.379644
 31
0.0
  0
LINE
  5
38C
330
1F
100
AcDbEntity
  8
0
  6
CONTINUOUS
 62
     5
100
AcDbLine
 10
30.48385
 20
193.489379
 30
0.0
 11
30.643959
 21
193.574266
 31
0.0
  0
LINE
  5
38D
330
1F
100
AcDbEntity
  8
0
  6
CONTINUOUS
 62
     5
100
AcDbLine
 10
31.222585
 20
192.747903
 30
0.0
 11
30.643959
 21
193.574266
 31
0.0
  0
LINE
  5
38E
330
1F
100
AcDbEntity
  8
0
  6
CONTINUOUS
 62
     5
100
AcDbLine
 10
30.293784
 20
193.379644
 30
0.0
 11
30.103727
 21
193.269915
 31
0.0
  0
LINE
  5
38F
330
1F
100
AcDbEntity
  8
0
  6
CONTINUOUS
 62
     5
100
AcDbLine
 10
30.103717
 20
193.269909
 30
0.0
 11
29.950148
 21
193.173694
 31
0.0
  0
LINE
  5
390
330
1F
100
AcDbEntity
  8
0
  6
CONTINUOUS
 62
     5
100
AcDbLine
 10
29.950148
 20
193.173694
 30
0.0
 11
30.376487
 21
192.259407
 31
0.0
  0
ARC
  5
391
330
1F
100
AcDbEntity
  8
DIM
  6
CONTINUOUS
 62
     5
100
AcDbCircle
 10
-137.721521
 20
191.837712
 30
0.0
 40
2.515152499931695
210
0.0
220
0.0
230
-1.0
100
AcDbArc
 50
147.915234
 51
159.13166
  0
SPLINE
  5
392
330
1F
100
AcDbEntity
  8
0
  6
CONTINUOUS
 62
     6
100
AcDbSpline
210
0.0
220
0.0
230
1.0
 70
     8
 71
     3
 72
     8
 73
     4
 74
     0
 42
0.0
 43
0.0
 40
0.0
 40
0.0
 40
0.0
 40
0.0
 40
1.0
 40
1.0
 40
1.0
 40
1.0
 10
140.2010698417625
 20
192.2594074569714
 30
0.0
 10
140.185114116601
 20
192.1992409276477
 30
0.0
 10
140.1634833751371
 20
192.1395149459755
 30
0.0
 10
140.1362933162987
 20
192.0806057103147
 30
0.0
  0
LINE
  5
393
330
1F
100
AcDbEntity
  8
0
  6
CONTINUOUS
 62
     6
100
AcDbLine
 10
140.20107
 20
191.413309
 30
0.0
 11
140.066178
 21
191.413309
 31
0.0
  0
LINE
  5
394
330
1F
100
AcDbEntity
  8
0
  6
CONTINUOUS
 62
     5
100
AcDbLine
 10
139.623511
 20
191.413309
 30
0.0
 11
139.481696
 21
191.413309
 31
0.0
  0
SPLINE
  5
395
330
1F
100
AcDbEntity
  8
DIM
  6
CONTINUOUS
 62
     1
100
AcDbSpline
210
0.0
220
0.0
230
1.0
 70
    27
 71
     3
 72
     8
 73
     4
 74
     0
 42
0.0
 43
0.0
 40
0.0
 40
0.0
 40
0.0
 40
0.0
 40
1.0
 40
1.0
 40
1.0
 40
1.0
 10
138.7816956318072
 20
189.7126254888055
 30
0.0
 10
138.7816956629575
 20
189.7126255012039
 30
0.0
 10
138.7816956941079
 20
189.7126255136023
 30
0.0
 10
138.7816957252582
 20
189.7126255260007
 30
0.0
  0
SPLINE
  5
396
330
1F
100
AcDbEntity
  8
0
  6
CONTINUOUS
 62
     5
100
AcDbSpline
210
0.0
220
0.0
230
1.0
 70
     8
 71
     3
 72
     9
 73
     5
 74
     0
 42
0.0
 43
0.0
 40
1.496392095428734
 40
1.496392095428734
 40
1.496392095428734
 40
1.496392095428734
 40
1.703930879319288
 40
1.928792096186959
 40
1.928792096186959
 40
1.928792096186959
 40
1.928792096186959
 10
139.6235060309985
 20
190.2055357437303
 30
0.0
 10
139.6350230099704
 20
190.2199145065552
 30
0.0
 10
139.6487543454662
 20
190.2450118293049
 30
0.0
 10
139.6399932967483
 20
190.2585062491655
 30
0.0
 10
139.6295965612026
 20
190.2624502765962
 30
0.0
  0
SPLINE
  5
397
330
1F
100
AcDbEntity
  8
0
  6
CONTINUOUS
 62
     5
100
AcDbSpline
210
0.0
220
0.0
230
1.0
 70
     8
 71
     3
 72
    12
 73
     8
 74
     0
 42
0.0
 43
0.0
 40
1.928792096186959
 40
1.928792096186959
 40
1.928792096186959
 40
1.928792096186959
 40
2.048215199006848
 40
2.415964237578826
 40
2.819653368594039
 40
3.236578207059154
 40
3.465113421272056
 40
3.465113421272056
 40
3.465113421272056
 40
3.465113421272056
 10
139.6295965612026
 20
190.2624502765962
 30
0.0
 10
139.6240748868322
 20
190.2645449374716
 30
0.0
 10
139.5948292792033
 20
190.2695533628903
 30
0.0
 10
139.4923188288025
 20
190.252623943362
 30
0.0
 10
139.2716375376141
 20
190.1896600849868
 30
0.0
 10
139.0197026469053
 20
190.1152091368503
 30
0.0
 10
138.8453641770423
 20
190.0682995394407
 30
0.0
 10
138.7816958671614
 20
190.0519918317161
 30
0.0
  0
LINE
  5
398
330
1F
100
AcDbEntity
  8
0
  6
CONTINUOUS
 62
     6
100
AcDbLine
 10
138.781696
 20
189.48253
 30
0.0
 11
138.781696
 21
189.712626
 31
0.0
  0
DIMENSION
  5
399
330
1F
100
AcDbEntity
  8
DIM
  6
CONTINUOUS
 62
     6
100
AcDbDimension
  2
*D3
 10
169.781697
 20
205.764359
 30
0.0
 11
139.381697
 21
209.981509
 31
0.0
 70
    32
  1
<>
  3
ISO_FINDER
100
AcDbAlignedDimension
 13
108.981697
 23
185.880606
 33
0.0
 14
169.781697
 24
177.380606
 34
0.0
100
AcDbRotatedDimension
1001
ACAD
1000
DSTYLE
1002
{
1070
    41
1040
1.2
1070
   176
1070
     3
1070
   177
1070
     3
1070
   271
1070
     3
1070
    44
1040
2.4304
1070
    42
1040
1.1111
1070
   147
1040
2.4304
1002
}
  0
DIMENSION
  5
3A6
330
1F
100
AcDbEntity
  8
DIM
  6
CONTINUOUS
 62
     6
100
AcDbDimension
  2
*D4
 10
179.281265
 20
133.380606
 30
0.0
 11
179.281265
 21
155.880615
 31
0.0
 70
   161
  1
<>
  3
ISO_FINDER
100
AcDbAlignedDimension
 13
168.781697
 23
178.380606
 33
0.0
 14
168.781697
 24
133.380606
 34
0.0
1001
ACAD
1000
DSTYLE
1002
{
1070
   287
1070
     3
1070
     7
1000

1070
     6
1000

1070
   280
1070
     0
1070
    76
1070
     0
1070
    75
1070
     0
1070
   279
1070
     0
1070
    41
1040
1.2
1070
   176
1070
     3
1070
   177
1070
     3
1070
   271
1070
     3
1070
    44
1040
2.4304
1070
    42
1040
1.1111
1070
   147
1040
2.4304
1002
}
  0
DIMENSION
  5
3B3
330
1F
100
AcDbEntity
  8
DIM
  6
CONTINUOUS
 62
     6
100
AcDbDimension
  2
*D5
 10
188.805511
 20
197.880606
 30
0.0
 11
188.805511
 21
155.880615
 31
0.0
 70
   161
  1
<>
  3
ISO_FINDER
100
AcDbAlignedDimension
 13
136.781697
 23
113.880606
 33
0.0
 14
136.781697
 24
197.880606
 34
0.0
1001
ACAD
1000
DSTYLE
1002
{
1070
   287
1070
     3
1070
   279
1070
     0
1070
    41
1040
1.2
1070
   176
1070
     3
1070
   177
1070
     3
1070
   271
1070
     3
1070
    44
1040
2.4304
1070
    42
1040
1.1111
1070
   147
1040
2.4304
1002
}
  0
DIMENSION
  5
3C0
330
1F
100
AcDbEntity
  8
DIM
  6
CONTINUOUS
 62
     6
100
AcDbDimension
  2
*D6
 10
19.868783
 20
205.764359
 30
0.0
 11
54.868782
 21
205.764359
 31
0.0
 70
   161
  1
<>
  3
ISO_FINDER
100
AcDbAlignedDimension
 13
89.868783
 23
195.880606
 33
0.0
 14
19.868783
 24
195.880606
 34
0.0
1001
ACAD
1000
DSTYLE
1002
{
1070
   287
1070
     3
1070
     7
1000

1070
     6
1000

1070
   280
1070
     0
1070
    76
1070
     0
1070
    75
1070
     0
1070
   279
1070
     0
1070
    41
1040
1.2
1070
   176
1070
     3
1070
   177
1070
     3
1070
   271
1070
     3
1070
    44
1040
2.4304
1070
    42
1040
1.1111
1070
   147
1040
2.4304
1002
}
  0
DIMENSION
  5
3CD
330
1F
100
AcDbEntity
  8
DIM
  6
CONTINUOUS
 62
     6
100
AcDbDimension
  2
*D7
 10
12.352874
 20
109.030618
 30
0.0
 11
8.135724
 21
153.455612
 31
0.0
 70
    32
  1
<>
  3
ISO_FINDER
100
AcDbAlignedDimension
 13
20.268783
 23
197.880606
 33
0.0
 14
72.359464
 24
109.030618
 34
0.0
 50
90.0
100
AcDbRotatedDimension
1001
ACAD
1000
DSTYLE
1002
{
1070
     7
1000

1070
     6
1000

1070
   280
1070
     0
1070
    76
1070
     0
1070
    75
1070
     0
1070
    41
1040
1.2
1070
   176
1070
     3
1070
   177
1070
     3
1070
   271
1070
     1
1070
    44
1040
2.4304
1070
    42
1040
1.1111
1070
   147
1040
2.4304
1002
}
  0
DIMENSION
  5
3DA
330
1F
100
AcDbEntity
  8
DIM
  6
CONTINUOUS
 62
     6
100
AcDbDimension
  2
*D8
 10
102.403275
 20
109.030605
 30
0.0
 11
98.186124
 21
124.305612
 31
0.0
 70
    32
  1
30.5
  3
ISO_FINDER
100
AcDbAlignedDimension
 13
112.081696
 23
139.58062
 33
0.0
 14
109.481695
 24
109.030605
 34
0.0
 50
90.0
100
AcDbRotatedDimension
1001
ACAD
1000
DSTYLE
1002
{
1070
     7
1000

1070
     6
1000

1070
   280
1070
     0
1070
    76
1070
     0
1070
    75
1070
     0
1070
    41
1040
1.2
1070
   176
1070
     3
1070
   177
1070
     3
1070
   271
1070
     1
1070
    44
1040
2.4304
1070
    42
1040
1.1111
1070
   147
1040
2.4304
1002
}
  0
DIMENSION
  5
3E7
330
1F
100
AcDbEntity
  8
DIM
  6
CONTINUOUS
 62
     6
100
AcDbDimension
  2
*D9
 10
102.403275
 20
173.380606
 30
0.0
 11
98.186124
 21
156.480613
 31
0.0
 70
    32
  1
<>
  3
ISO_FINDER
100
AcDbAlignedDimension
 13
112.081696
 23
139.58062
 33
0.0
 14
111.981697
 24
173.380606
 34
0.0
 50
90.0
100
AcDbRotatedDimension
1001
ACAD
1000
DSTYLE
1002
{
1070
    41
1040
1.2
1070
   176
1070
     3
1070
   177
1070
     3
1070
   271
1070
     3
1070
    44
1040
2.4304
1070
    42
1040
1.1111
1070
   147
1040
2.4304
1002
}
  0
INSERT
  5
3FC
330
1F
100
AcDbEntity
  8
CARTOUCHE
  6
CONTINUOUS
 62
     7
100
AcDbBlockReference
  2
LW_POLYLINE_1
 10
200.000031
 20
287.000183
 30
0.0
  0
LINE
  5
3FD
330
1F
100
AcDbEntity
  8
0
  6
CONTINUOUS
 62
     5
100
AcDbLine
 10
62.203784
 20
116.130606
 30
0.0
 11
62.203784
 21
117.630606
 31
0.0
  0
LINE
  5
3FE
330
1F
100
AcDbEntity
  8
0
  6
CONTINUOUS
 62
     5
100
AcDbLine
 10
82.533784
 20
116.130606
 30
0.0
 11
82.533784
 21
117.630606
 31
0.0
  0
SPLINE
  5
3FF
330
1F
100
AcDbEntity
  8
0
  6
CONTINUOUS
 62
     5
100
AcDbSpline
210
0.0
220
0.0
230
1.0
 70
     8
 71
     3
 72
    14
 73
    10
 74
     0
 42
0.0
 43
0.0
 40
0.0
 40
0.0
 40
0.0
 40
0.0
 40
0.3957709092149568
 40
0.6633519235985539
 40
0.9632805776985525
 40
1.117377481279182
 40
1.217128475109036
 40
1.358902576687498
 40
1.476679618576026
 40
1.476679618576026
 40
1.476679618576026
 40
1.476679618576026
 10
63.49137646394722
 20
118.1306059999999
 30
0.0
 10
63.35952488905177
 20
118.1306059999999
 30
0.0
 10
63.13819868658508
 20
118.1191822806994
 30
0.0
 10
62.82094686827161
 20
118.0676943575758
 30
0.0
 10
62.58914426736332
 20
118.0001965071533
 30
0.0
 10
62.42258055549512
 20
117.9191380001307
 30
0.0
 10
62.31417625792862
 20
117.8437302861124
 30
0.0
 10
62.23048300741009
 20
117.7554176013016
 30
0.0
 10
62.20378378522871
 20
117.6694553930079
 30
0.0
 10
62.20378378522871
 20
117.6306059999999
 30
0.0
  0
LINE
  5
400
330
1F
100
AcDbEntity
  8
0
  6
CONTINUOUS
 62
     5
100
AcDbLine
 10
81.246191
 20
118.130606
 30
0.0
 11
63.491376
 21
118.130606
 31
0.0
  0
SPLINE
  5
401
330
1F
100
AcDbEntity
  8
0
  6
CONTINUOUS
 62
     5
100
AcDbSpline
210
0.0
220
0.0
230
1.0
 70
     8
 71
     3
 72
    14
 73
    10
 74
     0
 42
0.0
 43
0.0
 40
0.0
 40
0.0
 40
0.0
 40
0.0
 40
0.3957709092157118
 40
0.6633519235993266
 40
0.9632805776993081
 40
1.117377481279948
 40
1.217128475109805
 40
1.358902576688254
 40
1.476679618576722
 40
1.476679618576722
 40
1.476679618576722
 40
1.476679618576722
 10
81.24619110651021
 20
118.130606
 30
0.0
 10
81.37804268140566
 20
118.130606
 30
0.0
 10
81.599368883872
 20
118.1191822806995
 30
0.0
 10
81.91662070218594
 20
118.0676943575759
 30
0.0
 10
82.1484233030941
 20
118.0001965071533
 30
0.0
 10
82.31498701496243
 20
117.9191380001308
 30
0.0
 10
82.42339131252892
 20
117.8437302861125
 30
0.0
 10
82.50708456304734
 20
117.7554176013017
 30
0.0
 10
82.53378378522872
 20
117.6694553930079
 30
0.0
 10
82.53378378522872
 20
117.630606
 30
0.0
  0
LINE
  5
402
330
1F
100
AcDbEntity
  8
0
  6
CONTINUOUS
 62
     5
100
AcDbLine
 10
82.533784
 20
123.130606
 30
0.0
 11
82.533784
 21
121.630606
 31
0.0
  0
LINE
  5
403
330
1F
100
AcDbEntity
  8
0
  6
CONTINUOUS
 62
     5
100
AcDbLine
 10
62.203784
 20
123.130606
 30
0.0
 11
62.203784
 21
121.630606
 31
0.0
  0
SPLINE
  5
404
330
1F
100
AcDbEntity
  8
0
  6
CONTINUOUS
 62
     5
100
AcDbSpline
210
0.0
220
0.0
230
1.0
 70
     8
 71
     3
 72
    14
 73
    10
 74
     0
 42
0.0
 43
0.0
 40
0.0
 40
0.0
 40
0.0
 40
0.0
 40
0.3957709092149568
 40
0.6633519235985539
 40
0.9632805776985525
 40
1.117377481279182
 40
1.217128475109036
 40
1.358902576687498
 40
1.476679618576026
 40
1.476679618576026
 40
1.476679618576026
 40
1.476679618576026
 10
81.24619110651031
 20
121.1306059999999
 30
0.0
 10
81.37804268140576
 20
121.1306059999999
 30
0.0
 10
81.59936888387244
 20
121.1420297193004
 30
0.0
 10
81.91662070218592
 20
121.193517642424
 30
0.0
 10
82.1484233030942
 20
121.2610154928466
 30
0.0
 10
82.31498701496241
 20
121.3420739998691
 30
0.0
 10
82.4233913125289
 20
121.4174817138874
 30
0.0
 10
82.50708456304744
 20
121.5057943986982
 30
0.0
 10
82.53378378522882
 20
121.591756606992
 30
0.0
 10
82.53378378522882
 20
121.6306059999999
 30
0.0
  0
LINE
  5
405
330
1F
100
AcDbEntity
  8
0
  6
CONTINUOUS
 62
     5
100
AcDbLine
 10
63.491376
 20
121.130606
 30
0.0
 11
81.246191
 21
121.130606
 31
0.0
  0
SPLINE
  5
406
330
1F
100
AcDbEntity
  8
0
  6
CONTINUOUS
 62
     5
100
AcDbSpline
210
0.0
220
0.0
230
1.0
 70
     8
 71
     3
 72
    14
 73
    10
 74
     0
 42
0.0
 43
0.0
 40
0.0
 40
0.0
 40
0.0
 40
0.0
 40
0.3957709092157118
 40
0.6633519235993266
 40
0.9632805776993081
 40
1.117377481279948
 40
1.217128475109805
 40
1.358902576688254
 40
1.476679618576722
 40
1.476679618576722
 40
1.476679618576722
 40
1.476679618576722
 10
63.49137646394732
 20
121.1306059999999
 30
0.0
 10
63.35952488905187
 20
121.1306059999999
 30
0.0
 10
63.13819868658553
 20
121.1420297193003
 30
0.0
 10
62.82094686827159
 20
121.193517642424
 30
0.0
 10
62.58914426736342
 20
121.2610154928466
 30
0.0
 10
62.4225805554951
 20
121.3420739998691
 30
0.0
 10
62.31417625792861
 20
121.4174817138874
 30
0.0
 10
62.23048300741019
 20
121.5057943986982
 30
0.0
 10
62.20378378522881
 20
121.591756606992
 30
0.0
 10
62.20378378522881
 20
121.6306059999999
 30
0.0
  0
ENDSEC
  0
SECTION
  2
OBJECTS
  0
DICTIONARY
  5
C
330
0
100
AcDbDictionary
  3
ACAD_GROUP
350
D
  3
ACAD_LAYOUT
350
1A
  3
ACAD_MLINESTYLE
350
17
  3
ACAD_PLOTSETTINGS
350
19
  3
ACAD_TABLESTYLE
350
427
  3
ACAD_VISUALSTYLE
350
2A
  3
ACDBHEADERROUNDTRIPXREC
350
407
  3
ACDBVARIABLEDICTIONARY
350
428
  0
DICTIONARY
  5
D
102
{ACAD_REACTORS
330
C
102
}
330
C
100
AcDbDictionary
  0
DICTIONARY
  5
1A
102
{ACAD_REACTORS
330
C
102
}
330
C
100
AcDbDictionary
  0
DICTIONARY
  5
17
102
{ACAD_REACTORS
330
C
102
}
330
C
100
AcDbDictionary
  3
STANDARD
350
18
  0
DICTIONARY
  5
19
102
{ACAD_REACTORS
330
C
102
}
330
C
100
AcDbDictionary
  0
DICTIONARY
  5
427
102
{ACAD_REACTORS
330
C
102
}
330
C
100
AcDbDictionary
  0
DICTIONARY
  5
2A
102
{ACAD_REACTORS
330
C
102
}
330
C
100
AcDbDictionary
  3
2DWIREFRAME
350
2F
  3
3D_HIDDEN
350
31
  3
3DWIREFRAME
350
30
  3
BASIC
350
32
  3
BRIGHTEN
350
36
  3
COLORCHANGE
350
3A
  3
CONCEPTUAL
350
34
  3
DIM
350
35
  3
FACEPATTERN
350
39
  3
FLAT
350
2B
  3
FLATWITHEDGES
350
2C
  3
GOURAUD
350
2D
  3
GOURAUDWITHEDGES
350
2E
  3
LINEPATTERN
350
38
  3
REALISTIC
350
33
  3
THICKEN
350
37
  0
DICTIONARY
  5
407
102
{ACAD_REACTORS
330
C
102
}
330
C
100
AcDbDictionary
  3
CEPSNTYPE
350
410
  3
DIMSTYLEDATA
350
426
  3
FINGERPRINTGUID
350
411
  3
HYPERLINKBASE
350
40A
  3
INSUNITS
350
40F
  3
LAYOUTDICT
350
40C
  3
LWETCUNION
350
40E
  3
PLOTSETDICT
350
40D
  3
PSVPSCALE
350
413
  3
PUCSBASE
350
416
  3
PUCSORGBACK
350
41C
  3
PUCSORGBOTTOM
350
418
  3
PUCSORGFRONT
350
41B
  3
PUCSORGLEFT
350
419
  3
PUCSORGRIGHT
350
41A
  3
PUCSORGTOP
350
417
  3
PUCSORTHOREF
350
414
  3
PUCSORTHOVIEW
350
415
  3
STYLESHEET
350
40B
  3
TSTACKALIGN
350
408
  3
TSTACKSIZE
350
409
  3
UCSBASE
350
41F
  3
UCSORGBACK
350
425
  3
UCSORGBOTTOM
350
421
  3
UCSORGFRONT
350
424
  3
UCSORGLEFT
350
422
  3
UCSORGRIGHT
350
423
  3
UCSORGTOP
350
420
  3
UCSORTHOREF
350
41D
  3
UCSORTHOVIEW
350
41E
  3
VERSIONGUID
350
412
  0
DICTIONARY
  5
428
102
{ACAD_REACTORS
330
C
102
}
330
C
100
AcDbDictionary
  3
PSOLHEIGHT
350
42A
  3
PSOLWIDTH
350
429
  0
MLINESTYLE
  5
18
102
{ACAD_REACTORS
330
17
102
}
330
17
100
AcDbMlineStyle
  2
Standard
 70
     0
  3

 62
   256
 51
90.0
 52
90.0
 71
     2
 49
0.5
 62
   256
  6
BYLAYER
 49
-0.5
 62
   256
  6
BYLAYER
  0
VISUALSTYLE
  5
2F
102
{ACAD_REACTORS
330
2A
102
}
330
2A
100
AcDbVisualStyle
  2
2dWireframe
 70
     4
 71
     0
 72
     2
 73
     0
 90
        0
 40
-0.6
 41
-30.0
 62
     5
 63
     7
 74
     1
 91
        4
 64
     7
 65
   257
 75
     1
175
     1
 42
1.0
 92
        0
 66
   257
 43
1.0
 76
     1
 77
     6
 78
     2
 67
     7
 79
     5
170
     0
171
     0
290
     0
174
     0
 93
        1
 44
0.0
173
     0
291
     0
 45
0.0
1001
ACAD
1000
AcDbSavedByObjectVersion
1070
     0
  0
VISUALSTYLE
  5
31
102
{ACAD_REACTORS
330
2A
102
}
330
2A
100
AcDbVisualStyle
  2
3D Hidden
 70
     6
 71
     1
 72
     2
 73
     2
 90
        0
 40
-0.6
 41
-30.0
 62
     5
 63
     7
 74
     2
 91
        2
 64
     7
 65
   257
 75
     2
175
     1
 42
40.0
 92
        0
 66
   257
 43
1.0
 76
     1
 77
     6
 78
     2
 67
     7
 79
     3
170
     0
171
     0
290
     0
174
     0
 93
        1
 44
0.0
173
     0
291
     0
 45
0.0
1001
ACAD
1000
AcDbSavedByObjectVersion
1070
     0
  0
VISUALSTYLE
  5
30
102
{ACAD_REACTORS
330
2A
102
}
330
2A
100
AcDbVisualStyle
  2
3dWireframe
 70
     5
 71
     0
 72
     2
 73
     0
 90
        0
 40
-0.6
 41
-30.0
 62
     5
 63
     7
 74
     1
 91
        4
 64
     7
 65
   257
 75
     1
175
     1
 42
1.0
 92
        0
 66
   257
 43
1.0
 76
     1
 77
     6
 78
     2
 67
     7
 79
     5
170
     0
171
     0
290
     0
174
     0
 93
        1
 44
0.0
173
     0
291
     0
 45
0.0
1001
ACAD
1000
AcDbSavedByObjectVersion
1070
     0
  0
VISUALSTYLE
  5
32
102
{ACAD_REACTORS
330
2A
102
}
330
2A
100
AcDbVisualStyle
  2
Basic
 70
     7
 71
     1
 72
     0
 73
     1
 90
        0
 40
-0.6
 41
-30.0
 62
     5
 63
     7
 74
     0
 91
        4
 64
     7
 65
   257
 75
     1
175
     1
 42
1.0
 92
        8
 66
     7
 43
1.0
 76
     1
 77
     6
 78
     2
 67
     7
 79
     5
170
     0
171
     0
290
     0
174
     0
 93
        1
 44
0.0
173
     0
291
     1
 45
0.0
1001
ACAD
1000
AcDbSavedByObjectVersion
1070
     0
  0
VISUALSTYLE
  5
36
102
{ACAD_REACTORS
330
2A
102
}
330
2A
100
AcDbVisualStyle
  2
Brighten
 70
    12
 71
     2
 72
     2
 73
     0
 90
        0
 40
-0.6
 41
-30.0
 62
     5
 63
     7
 74
     1
 91
        4
 64
     7
 65
   257
 75
     1
175
     1
 42
1.0
 92
        8
 66
     7
 43
1.0
 76
     1
 77
     6
 78
     2
 67
     7
 79
     5
170
     0
171
     0
290
     0
174
     0
 93
        1
 44
50.0
173
     0
291
     1
 45
0.0
1001
ACAD
1000
AcDbSavedByObjectVersion
1070
     0
  0
VISUALSTYLE
  5
3A
102
{ACAD_REACTORS
330
2A
102
}
330
2A
100
AcDbVisualStyle
  2
ColorChange
 70
    16
 71
     2
 72
     2
 73
     3
 90
        0
 40
-0.6
 41
-30.0
 62
     5
 63
     8
 74
     1
 91
        4
 64
     7
 65
   257
 75
     1
175
     1
 42
1.0
 92
        8
 66
     8
 43
1.0
 76
     1
 77
     6
 78
     2
 67
     7
 79
     5
170
     0
171
     0
290
     0
174
     0
 93
        1
 44
0.0
173
     0
291
     1
 45
0.0
1001
ACAD
1000
AcDbSavedByObjectVersion
1070
     0
  0
VISUALSTYLE
  5
34
102
{ACAD_REACTORS
330
2A
102
}
330
2A
100
AcDbVisualStyle
  2
Conceptual
 70
     9
 71
     3
 72
     2
 73
     0
 90
        0
 40
-0.6
 41
-30.0
 62
     5
 63
     7
 74
     2
 91
        2
 64
     7
 65
   257
 75
     1
175
     1
 42
40.0
 92
        8
 66
     7
 43
1.0
 76
     1
 77
     6
 78
     2
 67
     7
 79
     3
170
     0
171
     0
290
     0
174
     0
 93
        1
 44
0.0
173
     0
291
     0
 45
0.0
1001
ACAD
1000
AcDbSavedByObjectVersion
1070
     0
  0
VISUALSTYLE
  5
35
102
{ACAD_REACTORS
330
2A
102
}
330
2A
100
AcDbVisualStyle
  2
Dim
 70
    11
 71
     2
 72
     2
 73
     0
 90
        0
 40
-0.6
 41
-30.0
 62
     5
 63
     7
 74
     1
 91
        4
 64
     7
 65
   257
 75
     1
175
     1
 42
1.0
 92
        8
 66
     7
 43
1.0
 76
     1
 77
     6
 78
     2
 67
     7
 79
     5
170
     0
171
     0
290
     0
174
     0
 93
        1
 44
-50.0
173
     0
291
     1
 45
0.0
1001
ACAD
1000
AcDbSavedByObjectVersion
1070
     0
  0
VISUALSTYLE
  5
39
102
{ACAD_REACTORS
330
2A
102
}
330
2A
100
AcDbVisualStyle
  2
Facepattern
 70
    15
 71
     2
 72
     2
 73
     0
 90
        0
 40
-0.6
 41
-30.0
 62
     5
 63
     7
 74
     1
 91
        4
 64
     7
 65
   257
 75
     1
175
     1
 42
1.0
 92
        8
 66
     7
 43
1.0
 76
     1
 77
     6
 78
     2
 67
     7
 79
     5
170
     0
171
     0
290
     0
174
     0
 93
        1
 44
0.0
173
     0
291
     1
 45
0.0
1001
ACAD
1000
AcDbSavedByObjectVersion
1070
     0
  0
VISUALSTYLE
  5
2B
102
{ACAD_REACTORS
330
2A
102
}
330
2A
100
AcDbVisualStyle
  2
Flat
 70
     0
 71
     2
 72
     1
 73
     1
 90
        2
 40
-0.6
 41
30.0
 62
     5
 63
     7
 74
     0
 91
        4
 64
     7
 65
   257
 75
     1
175
     1
 42
1.0
 92
        8
 66
     7
 43
1.0
 76
     1
 77
     6
 78
     2
 67
     7
 79
     5
170
     0
171
     0
290
     0
174
     0
 93
       13
 44
0.0
173
     0
291
     1
 45
0.0
1001
ACAD
1000
AcDbSavedByObjectVersion
1070
     0
  0
VISUALSTYLE
  5
2C
102
{ACAD_REACTORS
330
2A
102
}
330
2A
100
AcDbVisualStyle
  2
FlatWithEdges
 70
     1
 71
     2
 72
     1
 73
     1
 90
        2
 40
-0.6
 41
30.0
 62
     5
 63
     7
 74
     1
 91
        4
 64
     7
 65
   257
 75
     1
175
     1
 42
1.0
 92
        0
 66
   257
 43
1.0
 76
     1
 77
     6
 78
     2
 67
     7
 79
     5
170
     0
171
     0
290
     0
174
     0
 93
       13
 44
0.0
173
     0
291
     1
 45
0.0
1001
ACAD
1000
AcDbSavedByObjectVersion
1070
     0
  0
VISUALSTYLE
  5
2D
102
{ACAD_REACTORS
330
2A
102
}
330
2A
100
AcDbVisualStyle
  2
Gouraud
 70
     2
 71
     2
 72
     2
 73
     1
 90
        2
 40
-0.6
 41
30.0
 62
     5
 63
     7
 74
     0
 91
        4
 64
     7
 65
   257
 75
     1
175
     1
 42
1.0
 92
        0
 66
     7
 43
1.0
 76
     1
 77
     6
 78
     2
 67
     7
 79
     5
170
     0
171
     0
290
     0
174
     0
 93
       13
 44
0.0
173
     0
291
     1
 45
0.0
1001
ACAD
1000
AcDbSavedByObjectVersion
1070
     0
  0
VISUALSTYLE
  5
2E
102
{ACAD_REACTORS
330
2A
102
}
330
2A
100
AcDbVisualStyle
  2
GouraudWithEdges
 70
     3
 71
     2
 72
     2
 73
     1
 90
        2
 40
-0.6
 41
30.0
 62
     5
 63
     7
 74
     1
 91
        4
 64
     7
 65
   257
 75
     1
175
     1
 42
1.0
 92
        0
 66
   257
 43
1.0
 76
     1
 77
     6
 78
     2
 67
     7
 79
     5
170
     0
171
     0
290
     0
174
     0
 93
       13
 44
0.0
173
     0
291
     1
 45
0.0
1001
ACAD
1000
AcDbSavedByObjectVersion
1070
     0
  0
VISUALSTYLE
  5
38
102
{ACAD_REACTORS
330
2A
102
}
330
2A
100
AcDbVisualStyle
  2
Linepattern
 70
    14
 71
     2
 72
     2
 73
     0
 90
        0
 40
-0.6
 41
-30.0
 62
     5
 63
     7
 74
     1
 91
        4
 64
     7
 65
   257
 75
     7
175
     7
 42
1.0
 92
        8
 66
     7
 43
1.0
 76
     1
 77
     6
 78
     2
 67
     7
 79
     5
170
     0
171
     0
290
     0
174
     0
 93
        1
 44
0.0
173
     0
291
     1
 45
0.0
1001
ACAD
1000
AcDbSavedByObjectVersion
1070
     0
  0
VISUALSTYLE
  5
33
102
{ACAD_REACTORS
330
2A
102
}
330
2A
100
AcDbVisualStyle
  2
Realistic
 70
     8
 71
     2
 72
     2
 73
     0
 90
        0
 40
-0.6
 41
-30.0
 62
     5
 63
     7
 74
     1
 91
        0
 64
     7
 65
   257
 75
     1
175
     1
 42
1.0
 92
        8
 66
     8
 43
1.0
 76
     1
 77
     6
 78
     2
 67
     7
 79
     5
170
     0
171
     0
290
     0
174
     0
 93
       13
 44
0.0
173
     0
291
     0
 45
0.0
1001
ACAD
1000
AcDbSavedByObjectVersion
1070
     0
  0
VISUALSTYLE
  5
37
102
{ACAD_REACTORS
330
2A
102
}
330
2A
100
AcDbVisualStyle
  2
Thicken
 70
    13
 71
     2
 72
     2
 73
     0
 90
        0
 40
-0.6
 41
-30.0
 62
     5
 63
     7
 74
     1
 91
        4
 64
     7
 65
   257
 75
     1
175
     1
 42
1.0
 92
       12
 66
     7
 43
1.0
 76
     1
 77
     6
 78
     2
 67
     7
 79
     5
170
     0
171
     0
290
     0
174
     0
 93
        1
 44
0.0
173
     0
291
     1
 45
0.0
1001
ACAD
1000
AcDbSavedByObjectVersion
1070
     0
  0
XRECORD
  5
410
102
{ACAD_REACTORS
330
407
102
}
330
407
100
AcDbXrecord
 90
        0
  0
XRECORD
  5
426
102
{ACAD_REACTORS
330
407
102
}
330
407
100
AcDbXrecord
1000
DSTYLE
1002
{
1070
   340
340
11
1002
}
  0
XRECORD
  5
411
102
{ACAD_REACTORS
330
407
102
}
330
407
100
AcDbXrecord
  1
{4084816E-87A2-4060-B1EE-625D6BA12A2A}
  0
XRECORD
  5
40A
102
{ACAD_REACTORS
330
407
102
}
330
407
100
AcDbXrecord
  1

  0
XRECORD
  5
40F
102
{ACAD_REACTORS
330
407
102
}
330
407
100
AcDbXrecord
 90
        4
  0
XRECORD
  5
40C
102
{ACAD_REACTORS
330
407
102
}
330
407
100
AcDbXrecord
340
1A
  0
XRECORD
  5
40E
102
{ACAD_REACTORS
330
407
102
}
330
407
100
AcDbXrecord
 90
    10781
  0
XRECORD
  5
40D
102
{ACAD_REACTORS
330
407
102
}
330
407
100
AcDbXrecord
340
19
  0
XRECORD
  5
413
102
{ACAD_REACTORS
330
407
102
}
330
407
100
AcDbXrecord
 40
0.0
  0
XRECORD
  5
416
102
{ACAD_REACTORS
330
407
102
}
330
407
100
AcDbXrecord
340
0
  0
XRECORD
  5
41C
102
{ACAD_REACTORS
330
407
102
}
330
407
100
AcDbXrecord
 10
0.0
 20
0.0
 30
0.0
  0
XRECORD
  5
418
102
{ACAD_REACTORS
330
407
102
}
330
407
100
AcDbXrecord
 10
0.0
 20
0.0
 30
0.0
  0
XRECORD
  5
41B
102
{ACAD_REACTORS
330
407
102
}
330
407
100
AcDbXrecord
 10
0.0
 20
0.0
 30
0.0
  0
XRECORD
  5
419
102
{ACAD_REACTORS
330
407
102
}
330
407
100
AcDbXrecord
 10
0.0
 20
0.0
 30
0.0
  0
XRECORD
  5
41A
102
{ACAD_REACTORS
330
407
102
}
330
407
100
AcDbXrecord
 10
0.0
 20
0.0
 30
0.0
  0
XRECORD
  5
417
102
{ACAD_REACTORS
330
407
102
}
330
407
100
AcDbXrecord
 10
0.0
 20
0.0
 30
0.0
  0
XRECORD
  5
414
102
{ACAD_REACTORS
330
407
102
}
330
407
100
AcDbXrecord
340
0
  0
XRECORD
  5
415
102
{ACAD_REACTORS
330
407
102
}
330
407
100
AcDbXrecord
 70
     0
  0
XRECORD
  5
40B
102
{ACAD_REACTORS
330
407
102
}
330
407
100
AcDbXrecord
  1

  0
XRECORD
  5
408
102
{ACAD_REACTORS
330
407
102
}
330
407
100
AcDbXrecord
 90
        1
  0
XRECORD
  5
409
102
{ACAD_REACTORS
330
407
102
}
330
407
100
AcDbXrecord
 90
       70
  0
XRECORD
  5
41F
102
{ACAD_REACTORS
330
407
102
}
330
407
100
AcDbXrecord
340
0
  0
XRECORD
  5
425
102
{ACAD_REACTORS
330
407
102
}
330
407
100
AcDbXrecord
 10
0.0
 20
0.0
 30
0.0
  0
XRECORD
  5
421
102
{ACAD_REACTORS
330
407
102
}
330
407
100
AcDbXrecord
 10
0.0
 20
0.0
 30
0.0
  0
XRECORD
  5
424
102
{ACAD_REACTORS
330
407
102
}
330
407
100
AcDbXrecord
 10
0.0
 20
0.0
 30
0.0
  0
XRECORD
  5
422
102
{ACAD_REACTORS
330
407
102
}
330
407
100
AcDbXrecord
 10
0.0
 20
0.0
 30
0.0
  0
XRECORD
  5
423
102
{ACAD_REACTORS
330
407
102
}
330
407
100
AcDbXrecord
 10
0.0
 20
0.0
 30
0.0
  0
XRECORD
  5
420
102
{ACAD_REACTORS
330
407
102
}
330
407
100
AcDbXrecord
 10
0.0
 20
0.0
 30
0.0
  0
XRECORD
  5
41D
102
{ACAD_REACTORS
330
407
102
}
330
407
100
AcDbXrecord
340
0
  0
XRECORD
  5
41E
102
{ACAD_REACTORS
330
407
102
}
330
407
100
AcDbXrecord
 70
     0
  0
XRECORD
  5
412
102
{ACAD_REACTORS
330
407
102
}
330
407
100
AcDbXrecord
  1
{FAEB1C32-E019-11D5-929B-00C0DF256EC4}
  0
DICTIONARYVAR
  5
42A
102
{ACAD_REACTORS
330
428
102
}
330
428
100
DictionaryVariables
280
     0
  1
80.000000
  0
DICTIONARYVAR
  5
429
102
{ACAD_REACTORS
330
428
102
}
330
428
100
DictionaryVariables
280
     0
  1
5.000000
  0
ENDSEC
  0
EOF
