  0
SECTION
  2
HEADER
  9
$ACADVER
  1
AC1015
  9
$ACADMAINTVER
 70
    20
  9
$DWGCODEPAGE
  3
ANSI_1252
  9
$INSBASE
 10
0.0
 20
0.0
 30
0.0
  9
$EXTMIN
 10
1055.918444335711
 20
202.257037917318
 30
-1.000000009999999
  9
$EXTMAX
 10
1325.918444335711
 20
402.2570379173179
 30
0.5000000100000001
  9
$LIMMIN
 10
0.0
 20
0.0
  9
$LIMMAX
 10
420.0
 20
297.0
  9
$ORTHOMODE
 70
     0
  9
$REGENMODE
 70
     1
  9
$FILLMODE
 70
     1
  9
$QTEXTMODE
 70
     0
  9
$MIRRTEXT
 70
     1
  9
$LTSCALE
 40
1.0
  9
$ATTMODE
 70
     1
  9
$TEXTSIZE
 40
2.5
  9
$TRACEWID
 40
1.0
  9
$TEXTSTYLE
  7
Standard
  9
$CLAYER
  8
0
  9
$CELTYPE
  6
ByLayer
  9
$CECOLOR
 62
   256
  9
$CELTSCALE
 40
1.0
  9
$DISPSILH
 70
     0
  9
$DIMSCALE
 40
1.0
  9
$DIMASZ
 40
2.5
  9
$DIMEXO
 40
0.625
  9
$DIMDLI
 40
3.75
  9
$DIMRND
 40
0.0
  9
$DIMDLE
 40
0.0
  9
$DIMEXE
 40
1.25
  9
$DIMTP
 40
0.0
  9
$DIMTM
 40
0.0
  9
$DIMTXT
 40
2.5
  9
$DIMCEN
 40
2.5
  9
$DIMTSZ
 40
0.0
  9
$DIMTOL
 70
     0
  9
$DIMLIM
 70
     0
  9
$DIMTIH
 70
     0
  9
$DIMTOH
 70
     0
  9
$DIMSE1
 70
     0
  9
$DIMSE2
 70
     0
  9
$DIMTAD
 70
     0
  9
$DIMZIN
 70
     8
  9
$DIMBLK
  1

  9
$DIMASO
 70
     1
  9
$DIMSHO
 70
     1
  9
$DIMPOST
  1

  9
$DIMAPOST
  1

  9
$DIMALT
 70
     0
  9
$DIMALTD
 70
     3
  9
$DIMALTF
 40
0.03937007874016
  9
$DIMLFAC
 40
1.0
  9
$DIMTOFL
 70
     1
  9
$DIMTVP
 40
0.0
  9
$DIMTIX
 70
     0
  9
$DIMSOXD
 70
     0
  9
$DIMSAH
 70
     0
  9
$DIMBLK1
  1

  9
$DIMBLK2
  1

  9
$DIMSTYLE
  2
ISO-25
  9
$DIMCLRD
 70
     0
  9
$DIMCLRE
 70
     0
  9
$DIMCLRT
 70
     0
  9
$DIMTFAC
 40
1.0
  9
$DIMGAP
 40
0.625
  9
$DIMJUST
 70
     0
  9
$DIMSD1
 70
     0
  9
$DIMSD2
 70
     0
  9
$DIMTOLJ
 70
     0
  9
$DIMTZIN
 70
     8
  9
$DIMALTZ
 70
     0
  9
$DIMALTTZ
 70
     0
  9
$DIMUPT
 70
     0
  9
$DIMDEC
 70
     2
  9
$DIMTDEC
 70
     2
  9
$DIMALTU
 70
     2
  9
$DIMALTTD
 70
     3
  9
$DIMTXSTY
  7
Standard
  9
$DIMAUNIT
 70
     0
  9
$DIMADEC
 70
     0
  9
$DIMALTRND
 40
0.0
  9
$DIMAZIN
 70
     0
  9
$DIMDSEP
 70
    44
  9
$DIMATFIT
 70
     3
  9
$DIMFRAC
 70
     0
  9
$DIMLDRBLK
  1

  9
$DIMLUNIT
 70
     2
  9
$DIMLWD
 70
    -2
  9
$DIMLWE
 70
    -2
  9
$DIMTMOVE
 70
     0
  9
$LUNITS
 70
     2
  9
$LUPREC
 70
     4
  9
$SKETCHINC
 40
1.0
  9
$FILLETRAD
 40
10.0
  9
$AUNITS
 70
     0
  9
$AUPREC
 70
     0
  9
$MENU
  1
.
  9
$ELEVATION
 40
0.0
  9
$PELEVATION
 40
0.0
  9
$THICKNESS
 40
0.0
  9
$LIMCHECK
 70
     0
  9
$CHAMFERA
 40
10.0
  9
$CHAMFERB
 40
10.0
  9
$CHAMFERC
 40
20.0
  9
$CHAMFERD
 40
0.0
  9
$SKPOLY
 70
     0
  9
$TDCREATE
 40
2452662.431316620
  9
$TDUCREATE
 40
2452662.389649954
  9
$TDUPDATE
 40
2454799.600534549
  9
$TDUUPDATE
 40
2454799.558867882
  9
$TDINDWG
 40
0.1807187963
  9
$TDUSRTIMER
 40
0.1807165509
  9
$USRTIMER
 70
     1
  9
$ANGBASE
 50
0.0
  9
$ANGDIR
 70
     0
  9
$PDMODE
 70
     0
  9
$PDSIZE
 40
0.0
  9
$PLINEWID
 40
0.0
  9
$SPLFRAME
 70
     0
  9
$SPLINETYPE
 70
     6
  9
$SPLINESEGS
 70
     8
  9
$HANDSEED
  5
39D0
  9
$SURFTAB1
 70
     6
  9
$SURFTAB2
 70
     6
  9
$SURFTYPE
 70
     6
  9
$SURFU
 70
     6
  9
$SURFV
 70
     6
  9
$UCSBASE
  2

  9
$UCSNAME
  2

  9
$UCSORG
 10
0.0
 20
0.0
 30
0.0
  9
$UCSXDIR
 10
1.0
 20
0.0
 30
0.0
  9
$UCSYDIR
 10
0.0
 20
1.0
 30
0.0
  9
$UCSORTHOREF
  2

  9
$UCSORTHOVIEW
 70
     0
  9
$UCSORGTOP
 10
0.0
 20
0.0
 30
0.0
  9
$UCSORGBOTTOM
 10
0.0
 20
0.0
 30
0.0
  9
$UCSORGLEFT
 10
0.0
 20
0.0
 30
0.0
  9
$UCSORGRIGHT
 10
0.0
 20
0.0
 30
0.0
  9
$UCSORGFRONT
 10
0.0
 20
0.0
 30
0.0
  9
$UCSORGBACK
 10
0.0
 20
0.0
 30
0.0
  9
$PUCSBASE
  2

  9
$PUCSNAME
  2

  9
$PUCSORG
 10
0.0
 20
0.0
 30
0.0
  9
$PUCSXDIR
 10
1.0
 20
0.0
 30
0.0
  9
$PUCSYDIR
 10
0.0
 20
1.0
 30
0.0
  9
$PUCSORTHOREF
  2

  9
$PUCSORTHOVIEW
 70
     0
  9
$PUCSORGTOP
 10
0.0
 20
0.0
 30
0.0
  9
$PUCSORGBOTTOM
 10
0.0
 20
0.0
 30
0.0
  9
$PUCSORGLEFT
 10
0.0
 20
0.0
 30
0.0
  9
$PUCSORGRIGHT
 10
0.0
 20
0.0
 30
0.0
  9
$PUCSORGFRONT
 10
0.0
 20
0.0
 30
0.0
  9
$PUCSORGBACK
 10
0.0
 20
0.0
 30
0.0
  9
$USERI1
 70
     0
  9
$USERI2
 70
     0
  9
$USERI3
 70
     0
  9
$USERI4
 70
     0
  9
$USERI5
 70
     0
  9
$USERR1
 40
0.0
  9
$USERR2
 40
0.0
  9
$USERR3
 40
0.0
  9
$USERR4
 40
0.0
  9
$USERR5
 40
0.0
  9
$WORLDVIEW
 70
     1
  9
$SHADEDGE
 70
     3
  9
$SHADEDIF
 70
    70
  9
$TILEMODE
 70
     1
  9
$MAXACTVP
 70
    64
  9
$PINSBASE
 10
0.0
 20
0.0
 30
0.0
  9
$PLIMCHECK
 70
     0
  9
$PEXTMIN
 10
0.0
 20
0.0
 30
0.0
  9
$PEXTMAX
 10
0.0
 20
0.0
 30
0.0
  9
$PLIMMIN
 10
0.0
 20
0.0
  9
$PLIMMAX
 10
12.0
 20
9.0
  9
$UNITMODE
 70
     0
  9
$VISRETAIN
 70
     1
  9
$PLINEGEN
 70
     0
  9
$PSLTSCALE
 70
     1
  9
$TREEDEPTH
 70
  3020
  9
$CMLSTYLE
  2
Standard
  9
$CMLJUST
 70
     0
  9
$CMLSCALE
 40
20.0
  9
$PROXYGRAPHICS
 70
     1
  9
$MEASUREMENT
 70
     1
  9
$CELWEIGHT
370
    -1
  9
$ENDCAPS
280
     0
  9
$JOINSTYLE
280
     0
  9
$LWDISPLAY
290
     0
  9
$INSUNITS
 70
     4
  9
$HYPERLINKBASE
  1

  9
$STYLESHEET
  1
MONOCHROME.CTB
  9
$XEDIT
290
     1
  9
$CEPSNTYPE
380
     0
  9
$PSTYLEMODE
290
     1
  9
$FINGERPRINTGUID
  2
{FDEAD578-A652-11D2-9A35-0060089B3A3F}
  9
$VERSIONGUID
  2
{A8FB6BD4-9A7D-4555-9AA1-5C3652E1E812}
  9
$EXTNAMES
290
     1
  9
$PSVPSCALE
 40
0.0
  9
$OLESTARTUP
290
     0
  0
ENDSEC
  0
SECTION
  2
CLASSES
  0
CLASS
  1
ACDBDICTIONARYWDFLT
  2
AcDbDictionaryWithDefault
  3
ObjectDBX Classes
 90
        0
280
     0
281
     0
  0
CLASS
  1
DICTIONARYVAR
  2
AcDbDictionaryVar
  3
ObjectDBX Classes
 90
        0
280
     0
281
     0
  0
CLASS
  1
DIMASSOC
  2
AcDbDimAssoc
  3
"AcDbDimAssoc|Product Desc:     AcDim ARX App For Dimension|Company:          Autodesk, Inc.|WEB Address:      www.autodesk.com"
 90
        0
280
     0
281
     0
  0
CLASS
  1
ACDBPLACEHOLDER
  2
AcDbPlaceHolder
  3
ObjectDBX Classes
 90
        0
280
     0
281
     0
  0
CLASS
  1
LAYOUT
  2
AcDbLayout
  3
ObjectDBX Classes
 90
        0
280
     0
281
     0
  0
CLASS
  1
MATERIAL
  2
AcDbMaterial
  3
ObjectDBX Classes
 90
     1024
280
     0
281
     0
  0
CLASS
  1
VISUALSTYLE
  2
AcDbVisualStyle
  3
ObjectDBX Classes
 90
     4095
280
     0
281
     0
  0
CLASS
  1
TABLESTYLE
  2
AcDbTableStyle
  3
ObjectDBX Classes
 90
     4095
280
     0
281
     0
  0
CLASS
  1
SORTENTSTABLE
  2
AcDbSortentsTable
  3
ObjectDBX Classes
 90
        0
280
     0
281
     0
  0
ENDSEC
  0
SECTION
  2
TABLES
  0
TABLE
  2
VPORT
  5
8
330
0
100
AcDbSymbolTable
 70
     1
  0
VPORT
  5
3957
330
8
100
AcDbSymbolTableRecord
100
AcDbViewportTableRecord
  2
*Active
 70
     0
 10
0.0
 20
0.0
 11
1.0
 21
1.0
 12
1193.090401199746
 22
302.9154254690152
 13
0.0
 23
0.0
 14
10.0
 24
10.0
 15
10.0
 25
10.0
 16
0.0
 26
0.0
 36
1.0
 17
0.0
 27
0.0
 37
0.0
 40
220.8183596104558
 41
1.825646794150731
 42
50.0
 43
0.0
 44
0.0
 50
0.0
 51
0.0
 71
     0
 72
   100
 73
     1
 74
     3
 75
     0
 76
     0
 77
     0
 78
     0
281
     0
 65
     1
110
0.0
120
0.0
130
0.0
111
1.0
121
0.0
131
0.0
112
0.0
122
1.0
132
0.0
 79
     0
146
0.0
  0
ENDTAB
  0
TABLE
  2
LTYPE
  5
5
330
0
100
AcDbSymbolTable
 70
     2
  0
LTYPE
  5
14
330
5
100
AcDbSymbolTableRecord
100
AcDbLinetypeTableRecord
  2
ByBlock
 70
     0
  3

 72
    65
 73
     0
 40
0.0
  0
LTYPE
  5
15
330
5
100
AcDbSymbolTableRecord
100
AcDbLinetypeTableRecord
  2
ByLayer
 70
     0
  3

 72
    65
 73
     0
 40
0.0
  0
LTYPE
  5
16
330
5
100
AcDbSymbolTableRecord
100
AcDbLinetypeTableRecord
  2
Continuous
 70
     0
  3
Solid line
 72
    65
 73
     0
 40
0.0
  0
LTYPE
  5
2083
330
5
100
AcDbSymbolTableRecord
100
AcDbLinetypeTableRecord
  2
CENTER
 70
     0
  3
____ _ ____ _ ____ _ ____ _ ____ _ ____ _ ____
 72
    65
 73
     4
 40
0.6
 49
0.375
 74
     0
 49
-0.075
 74
     0
 49
0.075
 74
     0
 49
-0.075
 74
     0
  0
ENDTAB
  0
TABLE
  2
LAYER
  5
2
330
0
100
AcDbSymbolTable
 70
    10
  0
LAYER
  5
10
330
2
100
AcDbSymbolTableRecord
100
AcDbLayerTableRecord
  2
0
 70
     0
 62
     7
  6
Continuous
370
    -3
390
F
  0
LAYER
  5
1F03
330
2
100
AcDbSymbolTableRecord
100
AcDbLayerTableRecord
  2
Defpoints
 70
     0
 62
     7
  6
Continuous
290
     0
370
    -3
390
F
  0
LAYER
  5
2084
330
2
100
AcDbSymbolTableRecord
100
AcDbLayerTableRecord
  2
91000_TIP
 70
     0
 62
     7
  6
Continuous
370
    -3
390
F
  0
LAYER
  5
2085
330
2
100
AcDbSymbolTableRecord
100
AcDbLayerTableRecord
  2
11000_Left
 70
     0
 62
     7
  6
Continuous
370
    -3
390
F
  0
LAYER
  5
214D
330
2
100
AcDbSymbolTableRecord
100
AcDbLayerTableRecord
  2
10000_FRONT
 70
     0
 62
     7
  6
Continuous
370
    -3
390
F
  0
LAYER
  5
214E
330
2
100
AcDbSymbolTableRecord
100
AcDbLayerTableRecord
  2
10100_FRONT_DIM
 70
     0
 62
     7
  6
Continuous
370
    -3
390
F
  0
LAYER
  5
214F
330
2
100
AcDbSymbolTableRecord
100
AcDbLayerTableRecord
  2
90000_FRAME
 70
     0
 62
     7
  6
Continuous
370
    -3
390
F
  0
LAYER
  5
2150
330
2
100
AcDbSymbolTableRecord
100
AcDbLayerTableRecord
  2
11100_LEFT_DIM
 70
     0
 62
     7
  6
Continuous
370
    -3
390
F
  0
LAYER
  5
3312
330
2
100
AcDbSymbolTableRecord
100
AcDbLayerTableRecord
  2
30000_Drilling
 70
     0
 62
     7
  6
Continuous
370
    -3
390
F
  0
LAYER
  5
3313
330
2
100
AcDbSymbolTableRecord
100
AcDbLayerTableRecord
  2
30100_Drilling_DIM
 70
     0
 62
     7
  6
Continuous
370
    -3
390
F
  0
ENDTAB
  0
TABLE
  2
STYLE
  5
3
330
0
100
AcDbSymbolTable
 70
     1
  0
STYLE
  5
11
330
3
100
AcDbSymbolTableRecord
100
AcDbTextStyleTableRecord
  2
Standard
 70
     0
 40
0.0
 41
1.0
 50
0.0
 71
     0
 42
2.5
  3
txt
  4

  0
ENDTAB
  0
TABLE
  2
VIEW
  5
6
330
0
100
AcDbSymbolTable
 70
     0
  0
ENDTAB
  0
TABLE
  2
UCS
  5
7
330
0
100
AcDbSymbolTable
 70
     0
  0
ENDTAB
  0
TABLE
  2
APPID
  5
9
330
0
100
AcDbSymbolTable
 70
     4
  0
APPID
  5
12
330
9
100
AcDbSymbolTableRecord
100
AcDbRegAppTableRecord
  2
ACAD
 70
     0
  0
APPID
  5
1C6
330
9
100
AcDbSymbolTableRecord
100
AcDbRegAppTableRecord
  2
AUSTER_ANSICHT
 70
     0
  0
APPID
  5
1C7
330
9
100
AcDbSymbolTableRecord
100
AcDbRegAppTableRecord
  2
AUSTER_FOLIE
 70
     0
  0
APPID
  5
39C5
330
9
100
AcDbSymbolTableRecord
100
AcDbRegAppTableRecord
  2
DCO15
 70
     0
  0
ENDTAB
  0
TABLE
  2
DIMSTYLE
  5
A
330
0
100
AcDbSymbolTable
 70
     3
100
AcDbDimStyleTable
 71
     2
340
27
340
2086
  0
DIMSTYLE
105
27
102
{ACAD_REACTORS
330
399C
102
}
330
A
100
AcDbSymbolTableRecord
100
AcDbDimStyleTableRecord
  2
ISO-25
 70
     0
 41
2.5
 42
0.625
 43
3.75
 44
1.25
 73
     0
 74
     0
 78
     8
140
2.5
141
2.5
143
0.03937007874016
147
0.625
171
     3
172
     1
271
     2
272
     2
274
     3
278
    44
283
     0
284
     8
340
11
  0
DIMSTYLE
105
EE
330
A
100
AcDbSymbolTableRecord
100
AcDbDimStyleTableRecord
  2
Standard
 70
     0
340
11
  0
DIMSTYLE
105
2086
102
{ACAD_REACTORS
330
2B28
330
2B29
330
2B2A
330
2B2B
330
2B2C
330
2B2D
330
2B27
330
2B26
330
2B25
102
}
330
A
100
AcDbSymbolTableRecord
100
AcDbDimStyleTableRecord
  2
DSTYLE1
 70
     0
 41
3.0
 42
0.0
 44
1.0
 73
     0
 74
     0
 77
     1
 78
     3
140
2.5
143
0.039370079
147
1.0
271
     3
272
     3
274
     0
279
     2
340
11
  0
ENDTAB
  0
TABLE
  2
BLOCK_RECORD
  5
1
330
0
100
AcDbSymbolTable
 70
    12
  0
BLOCK_RECORD
  5
1F
102
{ACAD_XDICTIONARY
360
397D
102
}
330
1
100
AcDbSymbolTableRecord
100
AcDbBlockTableRecord
  2
*Model_Space
340
22
  0
BLOCK_RECORD
  5
50
330
1
100
AcDbSymbolTableRecord
100
AcDbBlockTableRecord
  2
*Paper_Space
340
51
  0
BLOCK_RECORD
  5
55
330
1
100
AcDbSymbolTableRecord
100
AcDbBlockTableRecord
  2
*Paper_Space0
340
56
  0
BLOCK_RECORD
  5
6C
330
1
100
AcDbSymbolTableRecord
100
AcDbBlockTableRecord
  2
SIEMENS_OUTLINE_BL0
340
0
102
{BLKREFS
331
117
102
}
  0
BLOCK_RECORD
  5
317A
330
1
100
AcDbSymbolTableRecord
100
AcDbBlockTableRecord
  2
*D2
340
0
  0
BLOCK_RECORD
  5
3187
330
1
100
AcDbSymbolTableRecord
100
AcDbBlockTableRecord
  2
*D3
340
0
  0
BLOCK_RECORD
  5
3194
330
1
100
AcDbSymbolTableRecord
100
AcDbBlockTableRecord
  2
*D4
340
0
  0
BLOCK_RECORD
  5
31A2
330
1
100
AcDbSymbolTableRecord
100
AcDbBlockTableRecord
  2
*D5
340
0
  0
BLOCK_RECORD
  5
31AF
330
1
100
AcDbSymbolTableRecord
100
AcDbBlockTableRecord
  2
*D6
340
0
  0
BLOCK_RECORD
  5
31BC
330
1
100
AcDbSymbolTableRecord
100
AcDbBlockTableRecord
  2
*D7
340
0
  0
BLOCK_RECORD
  5
31CB
330
1
100
AcDbSymbolTableRecord
100
AcDbBlockTableRecord
  2
*D8
340
0
  0
BLOCK_RECORD
  5
31D8
330
1
100
AcDbSymbolTableRecord
100
AcDbBlockTableRecord
  2
*D9
340
0
  0
BLOCK_RECORD
  5
31E7
330
1
100
AcDbSymbolTableRecord
100
AcDbBlockTableRecord
  2
*D10
340
0
  0
BLOCK_RECORD
  5
399D
330
1
100
AcDbSymbolTableRecord
100
AcDbBlockTableRecord
  2
*D11
340
0
  0
ENDTAB
  0
ENDSEC
  0
SECTION
  2
BLOCKS
  0
BLOCK
  5
20
330
1F
100
AcDbEntity
  8
0
100
AcDbBlockBegin
  2
*Model_Space
 70
     0
 10
0.0
 20
0.0
 30
0.0
  3
*Model_Space
  1

  0
ENDBLK
  5
21
330
1F
100
AcDbEntity
  8
0
100
AcDbBlockEnd
  0
BLOCK
  5
52
330
50
100
AcDbEntity
 67
     1
  8
0
100
AcDbBlockBegin
  2
*Paper_Space
 70
     0
 10
0.0
 20
0.0
 30
0.0
  3
*Paper_Space
  1

  0
ENDBLK
  5
53
330
50
100
AcDbEntity
 67
     1
  8
0
100
AcDbBlockEnd
  0
BLOCK
  5
57
330
55
100
AcDbEntity
 67
     1
  8
0
100
AcDbBlockBegin
  2
*Paper_Space0
 70
     0
 10
0.0
 20
0.0
 30
0.0
  3
*Paper_Space0
  1

  0
ENDBLK
  5
58
330
55
100
AcDbEntity
 67
     1
  8
0
100
AcDbBlockEnd
  0
BLOCK
  5
D5
330
6C
100
AcDbEntity
  8
0
  6
Continuous
 62
     7
100
AcDbBlockBegin
  2
SIEMENS_OUTLINE_BL0
 70
     0
 10
0.0
 20
0.0
 30
0.0
  3
SIEMENS_OUTLINE_BL0
  1

  0
LINE
  5
6D
330
6C
100
AcDbEntity
  8
0
  6
Continuous
 62
     7
100
AcDbLine
 10
79.186200508
 20
21.4145478991
 30
0.0
 11
79.186200508
 21
16.6612788158
 31
0.0
  0
LINE
  5
6E
330
6C
100
AcDbEntity
  8
0
  6
Continuous
 62
     7
100
AcDbLine
 10
80.61218123299999
 20
21.4145478991
 30
0.0
 11
80.61218123299999
 21
16.6612788158
 31
0.0
  0
LINE
  5
6F
330
6C
100
AcDbEntity
  8
0
  6
Continuous
 62
     7
100
AcDbLine
 10
79.186200508
 20
16.6612788158
 30
0.0
 11
80.61218123299999
 21
16.6612788158
 31
0.0
  0
LINE
  5
70
330
6C
100
AcDbEntity
  8
0
  6
Continuous
 62
     7
100
AcDbLine
 10
79.186200508
 20
21.4145478991
 30
0.0
 11
80.61218123299999
 21
21.4145478991
 31
0.0
  0
LINE
  5
71
330
6C
100
AcDbEntity
  8
0
  6
Continuous
 62
     7
100
AcDbLine
 10
81.7054331221
 20
21.4145478991
 30
0.0
 11
81.7054331221
 21
16.6612788158
 31
0.0
  0
LINE
  5
72
330
6C
100
AcDbEntity
  8
0
  6
Continuous
 62
     7
100
AcDbLine
 10
81.7054331221
 20
16.6612788158
 30
0.0
 11
85.2703849346
 21
16.6612788158
 31
0.0
  0
LINE
  5
73
330
6C
100
AcDbEntity
  8
0
  6
Continuous
 62
     7
100
AcDbLine
 10
85.2703849346
 20
17.56439994169999
 30
0.0
 11
83.0838811563
 21
17.56439994169999
 31
0.0
  0
LINE
  5
74
330
6C
100
AcDbEntity
  8
0
  6
Continuous
 62
     7
100
AcDbLine
 10
85.2703849346
 20
17.56439994169999
 30
0.0
 11
85.2703849346
 21
16.6612788158
 31
0.0
  0
LINE
  5
75
330
6C
100
AcDbEntity
  8
0
  6
Continuous
 62
     7
100
AcDbLine
 10
85.2228522438
 20
21.4145478991
 30
0.0
 11
81.7054331221
 21
21.4145478991
 31
0.0
  0
LINE
  5
76
330
6C
100
AcDbEntity
  8
0
  6
Continuous
 62
     7
100
AcDbLine
 10
85.2228522438
 20
20.5351931187
 30
0.0
 11
83.0838811563
 21
20.5351931187
 31
0.0
  0
LINE
  5
77
330
6C
100
AcDbEntity
  8
0
  6
Continuous
 62
     7
100
AcDbLine
 10
85.2228522438
 20
21.4145478991
 30
0.0
 11
85.2228522438
 21
20.5351931187
 31
0.0
  0
LINE
  5
78
330
6C
100
AcDbEntity
  8
0
  6
Continuous
 62
     7
100
AcDbLine
 10
84.9376560988
 20
18.68141817619999
 30
0.0
 11
83.0838811563
 21
18.68141817619999
 31
0.0
  0
LINE
  5
79
330
6C
100
AcDbEntity
  8
0
  6
Continuous
 62
     7
100
AcDbLine
 10
84.9376560988
 20
19.46570757499999
 30
0.0
 11
84.9376560988
 21
18.68141817619999
 31
0.0
  0
LINE
  5
7A
330
6C
100
AcDbEntity
  8
0
  6
Continuous
 62
     7
100
AcDbLine
 10
84.9376560988
 20
19.46570757499999
 30
0.0
 11
83.0838811563
 21
19.46570757499999
 31
0.0
  0
LINE
  5
7B
330
6C
100
AcDbEntity
  8
0
  6
Continuous
 62
     7
100
AcDbLine
 10
83.0838811563
 20
20.5351931187
 30
0.0
 11
83.0838811563
 21
19.46570757499999
 31
0.0
  0
LINE
  5
7C
330
6C
100
AcDbEntity
  8
0
  6
Continuous
 62
     7
100
AcDbLine
 10
83.0838811563
 20
18.68141817619999
 30
0.0
 11
83.0838811563
 21
17.56439994169999
 31
0.0
  0
LINE
  5
7D
330
6C
100
AcDbEntity
  8
0
  6
Continuous
 62
     7
100
AcDbLine
 10
86.0784406788
 20
16.6612788158
 30
0.0
 11
86.0784406788
 21
21.4145478991
 31
0.0
  0
LINE
  5
7E
330
6C
100
AcDbEntity
  8
0
  6
Continuous
 62
     7
100
AcDbLine
 10
86.0784406788
 20
16.6612788158
 30
0.0
 11
87.02909449539999
 21
16.6612788158
 31
0.0
  0
LINE
  5
7F
330
6C
100
AcDbEntity
  8
0
  6
Continuous
 62
     7
100
AcDbLine
 10
91.92496165120001
 20
21.4145478991
 30
0.0
 11
91.92496165120001
 21
16.6612788158
 31
0.0
  0
LINE
  5
80
330
6C
100
AcDbEntity
  8
0
  6
Continuous
 62
     7
100
AcDbLine
 10
91.92496165120001
 20
16.6612788158
 30
0.0
 11
90.54651361700001
 21
16.6612788158
 31
0.0
  0
LINE
  5
81
330
6C
100
AcDbEntity
  8
0
  6
Continuous
 62
     7
100
AcDbLine
 10
88.3600098387
 20
16.61374612499999
 30
0.0
 11
89.21559827370002
 21
16.61374612499999
 31
0.0
  0
LINE
  5
82
330
6C
100
AcDbEntity
  8
0
  6
Continuous
 62
     7
100
AcDbLine
 10
88.3600098387
 20
16.61374612499999
 30
0.0
 11
87.02909449539999
 21
19.7033710291
 31
0.0
  0
LINE
  5
83
330
6C
100
AcDbEntity
  8
0
  6
Continuous
 62
     7
100
AcDbLine
 10
87.02909449539999
 20
16.6612788158
 30
0.0
 11
87.02909449539999
 21
19.7033710291
 31
0.0
  0
LINE
  5
84
330
6C
100
AcDbEntity
  8
0
  6
Continuous
 62
     7
100
AcDbLine
 10
90.54651361700001
 20
19.75090372
 30
0.0
 11
89.21559827370002
 21
16.61374612499999
 31
0.0
  0
LINE
  5
85
330
6C
100
AcDbEntity
  8
0
  6
Continuous
 62
     7
100
AcDbLine
 10
87.78961754870001
 20
21.4145478991
 30
0.0
 11
86.0784406788
 21
21.4145478991
 31
0.0
  0
LINE
  5
86
330
6C
100
AcDbEntity
  8
0
  6
Continuous
 62
     7
100
AcDbLine
 10
91.92496165120001
 20
21.4145478991
 30
0.0
 11
90.2137847812
 21
21.4145478991
 31
0.0
  0
LINE
  5
87
330
6C
100
AcDbEntity
  8
0
  6
Continuous
 62
     7
100
AcDbLine
 10
87.78961754870001
 20
21.4145478991
 30
0.0
 11
89.0254675104
 21
18.51505375829999
 31
0.0
  0
LINE
  5
88
330
6C
100
AcDbEntity
  8
0
  6
Continuous
 62
     7
100
AcDbLine
 10
90.2137847812
 20
21.4145478991
 30
0.0
 11
89.0254675104
 21
18.51505375829999
 31
0.0
  0
LINE
  5
89
330
6C
100
AcDbEntity
  8
0
  6
Continuous
 62
     7
100
AcDbLine
 10
90.54651361700001
 20
19.75090372
 30
0.0
 11
90.54651361700001
 21
16.6612788158
 31
0.0
  0
LINE
  5
8A
330
6C
100
AcDbEntity
  8
0
  6
Continuous
 62
     7
100
AcDbLine
 10
93.01821354030002
 20
21.4145478991
 30
0.0
 11
93.01821354030002
 21
16.6612788158
 31
0.0
  0
LINE
  5
8B
330
6C
100
AcDbEntity
  8
0
  6
Continuous
 62
     7
100
AcDbLine
 10
93.01821354030002
 20
16.6612788158
 30
0.0
 11
96.5831653528
 21
16.6612788158
 31
0.0
  0
LINE
  5
8C
330
6C
100
AcDbEntity
  8
0
  6
Continuous
 62
     7
100
AcDbLine
 10
96.5831653528
 20
17.56439994169999
 30
0.0
 11
94.3966615745
 21
17.56439994169999
 31
0.0
  0
LINE
  5
8D
330
6C
100
AcDbEntity
  8
0
  6
Continuous
 62
     7
100
AcDbLine
 10
96.5831653528
 20
17.56439994169999
 30
0.0
 11
96.5831653528
 21
16.6612788158
 31
0.0
  0
LINE
  5
8E
330
6C
100
AcDbEntity
  8
0
  6
Continuous
 62
     7
100
AcDbLine
 10
96.53563266200002
 20
21.4145478991
 30
0.0
 11
93.01821354030002
 21
21.4145478991
 31
0.0
  0
LINE
  5
8F
330
6C
100
AcDbEntity
  8
0
  6
Continuous
 62
     7
100
AcDbLine
 10
96.53563266200002
 20
20.5351931187
 30
0.0
 11
94.3966615745
 21
20.5351931187
 31
0.0
  0
LINE
  5
90
330
6C
100
AcDbEntity
  8
0
  6
Continuous
 62
     7
100
AcDbLine
 10
96.53563266200002
 20
21.4145478991
 30
0.0
 11
96.53563266200002
 21
20.5351931187
 31
0.0
  0
LINE
  5
91
330
6C
100
AcDbEntity
  8
0
  6
Continuous
 62
     7
100
AcDbLine
 10
96.25043651700002
 20
18.68141817619999
 30
0.0
 11
94.3966615745
 21
18.68141817619999
 31
0.0
  0
LINE
  5
92
330
6C
100
AcDbEntity
  8
0
  6
Continuous
 62
     7
100
AcDbLine
 10
96.25043651700002
 20
19.46570757499999
 30
0.0
 11
96.25043651700002
 21
18.68141817619999
 31
0.0
  0
LINE
  5
93
330
6C
100
AcDbEntity
  8
0
  6
Continuous
 62
     7
100
AcDbLine
 10
96.25043651700002
 20
19.46570757499999
 30
0.0
 11
94.3966615745
 21
19.46570757499999
 31
0.0
  0
LINE
  5
94
330
6C
100
AcDbEntity
  8
0
  6
Continuous
 62
     7
100
AcDbLine
 10
94.3966615745
 20
20.5351931187
 30
0.0
 11
94.3966615745
 21
19.46570757499999
 31
0.0
  0
LINE
  5
95
330
6C
100
AcDbEntity
  8
0
  6
Continuous
 62
     7
100
AcDbLine
 10
94.3966615745
 20
18.68141817619999
 30
0.0
 11
94.3966615745
 21
17.56439994169999
 31
0.0
  0
LINE
  5
96
330
6C
100
AcDbEntity
  8
0
  6
Continuous
 62
     7
100
AcDbLine
 10
97.3674547515
 20
16.6612788158
 30
0.0
 11
97.3674547515
 21
21.4145478991
 31
0.0
  0
LINE
  5
97
330
6C
100
AcDbEntity
  8
0
  6
Continuous
 62
     7
100
AcDbLine
 10
101.5503315447999
 20
21.4145478991
 30
0.0
 11
101.5503315447999
 21
16.6612788158
 31
0.0
  0
LINE
  5
98
330
6C
100
AcDbEntity
  8
0
  6
Continuous
 62
     7
100
AcDbLine
 10
97.3674547515
 20
16.6612788158
 30
0.0
 11
98.3181085682
 21
16.6612788158
 31
0.0
  0
LINE
  5
99
330
6C
100
AcDbEntity
  8
0
  6
Continuous
 62
     7
100
AcDbLine
 10
101.5503315447999
 20
21.4145478991
 30
0.0
 11
100.5996777281999
 21
21.4145478991
 31
0.0
  0
LINE
  5
9A
330
6C
100
AcDbEntity
  8
0
  6
Continuous
 62
     7
100
AcDbLine
 10
98.91226720360002
 20
21.4145478991
 30
0.0
 11
97.3674547515
 21
21.4145478991
 31
0.0
  0
LINE
  5
9B
330
6C
100
AcDbEntity
  8
0
  6
Continuous
 62
     7
100
AcDbLine
 10
101.5503315447999
 20
16.6612788158
 30
0.0
 11
100.0292854381999
 21
16.6612788158
 31
0.0
  0
LINE
  5
9C
330
6C
100
AcDbEntity
  8
0
  6
Continuous
 62
     7
100
AcDbLine
 10
100.0292854381999
 20
16.6612788158
 30
0.0
 11
98.3181085682
 21
19.7033710291
 31
0.0
  0
LINE
  5
9D
330
6C
100
AcDbEntity
  8
0
  6
Continuous
 62
     7
100
AcDbLine
 10
98.91226720360002
 20
21.4145478991
 30
0.0
 11
100.5996777281999
 21
18.4675210675
 31
0.0
  0
LINE
  5
9E
330
6C
100
AcDbEntity
  8
0
  6
Continuous
 62
     7
100
AcDbLine
 10
100.5996777281999
 20
21.4145478991
 30
0.0
 11
100.5996777281999
 21
18.4675210675
 31
0.0
  0
LINE
  5
9F
330
6C
100
AcDbEntity
  8
0
  6
Continuous
 62
     7
100
AcDbLine
 10
98.3181085682
 20
16.6612788158
 30
0.0
 11
98.3181085682
 21
19.7033710291
 31
0.0
  0
LINE
  5
A0
330
6C
100
AcDbEntity
  8
0
  6
Continuous
 62
     7
100
AcDbLine
 10
102.3583872889999
 20
16.75634419749999
 30
0.0
 11
102.3583872889999
 21
17.7069980142
 31
0.0
  0
LINE
  5
A1
330
6C
100
AcDbEntity
  8
0
  6
Continuous
 62
     7
100
AcDbLine
 10
105.6856756473
 20
20.4163613916
 30
0.0
 11
105.6856756473
 21
21.36701520829999
 31
0.0
  0
ARC
  5
A2
330
6C
100
AcDbEntity
  8
0
  6
Continuous
 62
     7
100
AcDbCircle
 10
104.063028414
 20
18.61843736089998
 30
0.0
 40
1.111619360599997
100
AcDbArc
 50
277.7099956934
 51
295.6884927745999
  0
ARC
  5
A3
330
6C
100
AcDbEntity
  8
0
  6
Continuous
 62
     7
100
AcDbCircle
 10
104.3473383967
 20
17.8936115972
 30
0.0
 40
0.3401689265
100
AcDbArc
 50
305.503221255
 51
72.46528985229999
  0
ARC
  5
A4
330
6C
100
AcDbEntity
  8
0
  6
Continuous
 62
     7
100
AcDbCircle
 10
103.7813445885999
 20
21.2953185068
 30
0.0
 40
4.756794641099999
100
AcDbArc
 50
252.5939200548001
 51
280.9816604255999
  0
ARC
  5
A5
330
6C
100
AcDbEntity
  8
0
  6
Continuous
 62
     7
100
AcDbCircle
 10
104.2361799517
 20
18.6773047703
 30
0.0
 40
2.100726595299998
100
AcDbArc
 50
282.4058358519999
 51
311.8644433928
  0
ARC
  5
A6
330
6C
100
AcDbEntity
  8
0
  6
Continuous
 62
     7
100
AcDbCircle
 10
103.9626156045999
 20
20.2856464918
 30
0.0
 40
0.3029626476
100
AcDbArc
 50
154.4400348282
 51
221.8201698800999
  0
ARC
  5
A7
330
6C
100
AcDbEntity
  8
0
  6
Continuous
 62
     7
100
AcDbCircle
 10
104.0418367559
 20
20.2064253405
 30
0.0
 40
0.4103089737
100
AcDbArc
 50
102.8287828680999
 51
149.2259639003
  0
ARC
  5
A8
330
6C
100
AcDbEntity
  8
0
  6
Continuous
 62
     7
100
AcDbCircle
 10
104.4588635915999
 20
18.46409001059999
 30
0.0
 40
2.201836557
100
AcDbArc
 50
84.0400061857
 51
103.3427657870999
  0
ARC
  5
A9
330
6C
100
AcDbEntity
  8
0
  6
Continuous
 62
     7
100
AcDbCircle
 10
104.1178997669
 20
16.0467260867
 30
0.0
 40
4.642373736499997
100
AcDbArc
 50
70.2625858546
 51
82.95241863799999
  0
ARC
  5
AA
330
6C
100
AcDbEntity
  8
0
  6
Continuous
 62
     7
100
AcDbCircle
 10
103.6038815646999
 20
20.7183489764
 30
0.0
 40
3.258755990899997
100
AcDbArc
 50
247.5300206145
 51
280.7579522143
  0
ARC
  5
AB
330
6C
100
AcDbEntity
  8
0
  6
Continuous
 62
     7
100
AcDbCircle
 10
97.21891509270001
 20
2.4668290159
 30
0.0
 40
17.3316084133
100
AcDbArc
 50
65.34146746500001
 51
67.39977707359999
  0
ARC
  5
AC
330
6C
100
AcDbEntity
  8
0
  6
Continuous
 62
     7
100
AcDbCircle
 10
108.0147774981
 20
28.259255379
 30
0.0
 40
10.6291642039
100
AcDbArc
 50
242.8620101252001
 51
247.1042029186
  0
ARC
  5
AD
330
6C
100
AcDbEntity
  8
0
  6
Continuous
 62
     7
100
AcDbCircle
 10
104.1598762715
 20
20.725323882
 30
0.0
 40
2.166291629199998
100
AcDbArc
 50
227.3119280793999
 51
242.7040315235
  0
ARC
  5
AE
330
6C
100
AcDbEntity
  8
0
  6
Continuous
 62
     7
100
AcDbCircle
 10
103.5558454618999
 20
20.0196462412
 30
0.0
 40
1.238521734
100
AcDbArc
 50
194.7952194236
 51
225.7176549047
  0
ARC
  5
AF
330
6C
100
AcDbEntity
  8
0
  6
Continuous
 62
     7
100
AcDbCircle
 10
103.6180035961
 20
20.05986621039999
 30
0.0
 40
1.309092072899999
100
AcDbArc
 50
164.1974860461
 51
195.8025139539
  0
ARC
  5
B0
330
6C
100
AcDbEntity
  8
0
  6
Continuous
 62
     7
100
AcDbCircle
 10
104.1750273167
 20
19.1715990505
 30
0.0
 40
2.366924815299999
100
AcDbArc
 50
86.22180229280001
 51
120.4272602309
  0
ARC
  5
B1
330
6C
100
AcDbEntity
  8
0
  6
Continuous
 62
     7
100
AcDbCircle
 10
103.9061705341999
 20
12.4754312294
 30
0.0
 40
9.0679051661
100
AcDbArc
 50
78.68270492259998
 51
87.3147599624
  0
ARC
  5
B2
330
6C
100
AcDbEntity
  8
0
  6
Continuous
 62
     7
100
AcDbCircle
 10
103.4501013557999
 20
20.1673739729
 30
0.0
 40
1.119747444
100
AcDbArc
 50
142.8139179029999
 51
167.1522951416999
  0
ARC
  5
B3
330
6C
100
AcDbEntity
  8
0
  6
Continuous
 62
     7
100
AcDbCircle
 10
103.7954106973999
 20
19.86079227619999
 30
0.0
 40
1.580546684499998
100
AcDbArc
 50
121.2140948535
 51
141.5254768286
  0
ARC
  5
B4
330
6C
100
AcDbEntity
  8
0
  6
Continuous
 62
     7
100
AcDbCircle
 10
104.372585063
 20
20.6718496049
 30
0.0
 40
0.8661276051999998
100
AcDbArc
 50
222.7760387596
 51
239.0362434679
  0
ARC
  5
B5
330
6C
100
AcDbEntity
  8
0
  6
Continuous
 62
     7
100
AcDbCircle
 10
101.8658754847
 20
13.3415774063
 30
0.0
 40
6.858773576299999
100
AcDbArc
 50
59.90202725599999
 51
68.2036481279
  0
ARC
  5
B6
330
6C
100
AcDbEntity
  8
0
  6
Continuous
 62
     7
100
AcDbCircle
 10
105.2743699785
 20
22.26746391349999
 30
0.0
 40
2.698741017099999
100
AcDbArc
 50
240.0481997804
 51
251.3779673736999
  0
ARC
  5
B7
330
6C
100
AcDbEntity
  8
0
  6
Continuous
 62
     7
100
AcDbCircle
 10
104.6089128116999
 20
18.1105652982
 30
0.0
 40
1.4334474881
100
AcDbArc
 50
315.8904553224
 51
333.5229264372999
  0
ARC
  5
B8
330
6C
100
AcDbEntity
  8
0
  6
Continuous
 62
     7
100
AcDbCircle
 10
104.6135510555
 20
18.057158148
 30
0.0
 40
1.406228711899998
100
AcDbArc
 50
335.3867972702
 51
24.39151194019999
  0
ARC
  5
B9
330
6C
100
AcDbEntity
  8
0
  6
Continuous
 62
     7
100
AcDbCircle
 10
104.5413461519
 20
17.97930145619999
 30
0.0
 40
1.504702514799999
100
AcDbArc
 50
25.95629166050001
 51
59.4834829668
  0
LINE
  5
BA
330
6C
100
AcDbEntity
  8
0
  6
Continuous
 62
     7
100
AcDbLine
 10
74.7656602606
 20
16.75634419749999
 30
0.0
 11
74.7656602606
 21
17.7069980142
 31
0.0
  0
LINE
  5
BB
330
6C
100
AcDbEntity
  8
0
  6
Continuous
 62
     7
100
AcDbLine
 10
78.09294861879997
 20
20.4163613916
 30
0.0
 11
78.09294861879997
 21
21.36701520829999
 31
0.0
  0
ARC
  5
BC
330
6C
100
AcDbEntity
  8
0
  6
Continuous
 62
     7
100
AcDbCircle
 10
76.4703013855
 20
18.61843736089998
 30
0.0
 40
1.111619360599997
100
AcDbArc
 50
277.7099956934
 51
295.6884927745999
  0
ARC
  5
BD
330
6C
100
AcDbEntity
  8
0
  6
Continuous
 62
     7
100
AcDbCircle
 10
76.7546113683
 20
17.8936115972
 30
0.0
 40
0.3401689265
100
AcDbArc
 50
305.5032212556
 51
72.4652898515
  0
ARC
  5
BE
330
6C
100
AcDbEntity
  8
0
  6
Continuous
 62
     7
100
AcDbCircle
 10
76.1886175602
 20
21.2953185068
 30
0.0
 40
4.756794641099999
100
AcDbArc
 50
252.5939200545
 51
280.9816604253
  0
ARC
  5
BF
330
6C
100
AcDbEntity
  8
0
  6
Continuous
 62
     7
100
AcDbCircle
 10
76.64345292330001
 20
18.6773047703
 30
0.0
 40
2.100726595299998
100
AcDbArc
 50
282.4058358513
 51
311.8644433923
  0
ARC
  5
C0
330
6C
100
AcDbEntity
  8
0
  6
Continuous
 62
     7
100
AcDbCircle
 10
76.3698885762
 20
20.2856464918
 30
0.0
 40
0.3029626476
100
AcDbArc
 50
154.4400348282
 51
221.8201698800999
  0
ARC
  5
C1
330
6C
100
AcDbEntity
  8
0
  6
Continuous
 62
     7
100
AcDbCircle
 10
76.4491097276
 20
20.2064253405
 30
0.0
 40
0.4103089737
100
AcDbArc
 50
102.8287828727
 51
149.2259639027
  0
ARC
  5
C2
330
6C
100
AcDbEntity
  8
0
  6
Continuous
 62
     7
100
AcDbCircle
 10
76.8661365632
 20
18.46409001059999
 30
0.0
 40
2.201836557
100
AcDbArc
 50
84.0400061859
 51
103.3427657871999
  0
ARC
  5
C3
330
6C
100
AcDbEntity
  8
0
  6
Continuous
 62
     7
100
AcDbCircle
 10
76.5251727384
 20
16.0467260867
 30
0.0
 40
4.642373736499997
100
AcDbArc
 50
70.2625858546
 51
82.9524186379
  0
ARC
  5
C4
330
6C
100
AcDbEntity
  8
0
  6
Continuous
 62
     7
100
AcDbCircle
 10
76.0111545363
 20
20.7183489764
 30
0.0
 40
3.258755990899997
100
AcDbArc
 50
247.5300206148
 51
280.7579522145
  0
ARC
  5
C5
330
6C
100
AcDbEntity
  8
0
  6
Continuous
 62
     7
100
AcDbCircle
 10
69.6261880643
 20
2.4668290159
 30
0.0
 40
17.3316084133
100
AcDbArc
 50
65.34146746500001
 51
67.39977707359999
  0
ARC
  5
C6
330
6C
100
AcDbEntity
  8
0
  6
Continuous
 62
     7
100
AcDbCircle
 10
80.4220504697
 20
28.259255379
 30
0.0
 40
10.6291642039
100
AcDbArc
 50
242.8620101252001
 51
247.1042029184999
  0
ARC
  5
C7
330
6C
100
AcDbEntity
  8
0
  6
Continuous
 62
     7
100
AcDbCircle
 10
76.56714924310001
 20
20.725323882
 30
0.0
 40
2.166291629199998
100
AcDbArc
 50
227.3119280793999
 51
242.7040315235
  0
ARC
  5
C8
330
6C
100
AcDbEntity
  8
0
  6
Continuous
 62
     7
100
AcDbCircle
 10
75.9631184335
 20
20.0196462412
 30
0.0
 40
1.238521734
100
AcDbArc
 50
194.7952194234
 51
225.7176549041999
  0
ARC
  5
C9
330
6C
100
AcDbEntity
  8
0
  6
Continuous
 62
     7
100
AcDbCircle
 10
76.58230028830002
 20
19.1715990505
 30
0.0
 40
2.366924815299999
100
AcDbArc
 50
86.22180229280001
 51
120.4272602309
  0
ARC
  5
CA
330
6C
100
AcDbEntity
  8
0
  6
Continuous
 62
     7
100
AcDbCircle
 10
76.3134435058
 20
12.4754312294
 30
0.0
 40
9.0679051661
100
AcDbArc
 50
78.68270492259998
 51
87.3147599624
  0
ARC
  5
CB
330
6C
100
AcDbEntity
  8
0
  6
Continuous
 62
     7
100
AcDbCircle
 10
76.20268366899998
 20
19.86079227619999
 30
0.0
 40
1.580546684599998
100
AcDbArc
 50
121.2140948540999
 51
141.5254768289999
  0
ARC
  5
CC
330
6C
100
AcDbEntity
  8
0
  6
Continuous
 62
     7
100
AcDbCircle
 10
76.7798580346
 20
20.6718496049
 30
0.0
 40
0.8661276051999998
100
AcDbArc
 50
222.7760387596
 51
239.0362434679
  0
ARC
  5
CD
330
6C
100
AcDbEntity
  8
0
  6
Continuous
 62
     7
100
AcDbCircle
 10
74.2731484563
 20
13.3415774063
 30
0.0
 40
6.858773576299999
100
AcDbArc
 50
59.90202725620001
 51
68.20364812820002
  0
ARC
  5
CE
330
6C
100
AcDbEntity
  8
0
  6
Continuous
 62
     7
100
AcDbCircle
 10
77.6816429501
 20
22.26746391349999
 30
0.0
 40
2.698741017099999
100
AcDbArc
 50
240.0481997804
 51
251.3779673734
  0
ARC
  5
CF
330
6C
100
AcDbEntity
  8
0
  6
Continuous
 62
     7
100
AcDbCircle
 10
77.0161857833
 20
18.1105652982
 30
0.0
 40
1.4334474881
100
AcDbArc
 50
315.8904553225998
 51
333.5229264375
  0
ARC
  5
D0
330
6C
100
AcDbEntity
  8
0
  6
Continuous
 62
     7
100
AcDbCircle
 10
77.020824027
 20
18.057158148
 30
0.0
 40
1.406228711899998
100
AcDbArc
 50
335.3867972703
 51
24.3915119403
  0
ARC
  5
D1
330
6C
100
AcDbEntity
  8
0
  6
Continuous
 62
     7
100
AcDbCircle
 10
76.94861912350001
 20
17.97930145619999
 30
0.0
 40
1.504702514699999
100
AcDbArc
 50
25.9562916611
 51
59.4834829676
  0
LINE
  5
D2
330
6C
100
AcDbEntity
  8
0
  6
Continuous
 62
     7
100
AcDbLine
 10
74.9574888499
 20
20.8337423583
 30
0.0
 11
75.2315546745
 21
21.10781543579999
 31
0.0
  0
ARC
  5
D3
330
6C
100
AcDbEntity
  8
0
  6
Continuous
 62
     7
100
AcDbCircle
 10
76.0252765676
 20
20.05986621039999
 30
0.0
 40
1.309092072899999
100
AcDbArc
 50
164.1974860461
 51
195.8025139539
  0
ARC
  5
D4
330
6C
100
AcDbEntity
  8
0
  6
Continuous
 62
     7
100
AcDbCircle
 10
75.8573743274
 20
20.1673739729
 30
0.0
 40
1.119747444
100
AcDbArc
 50
142.8139179029999
 51
167.1522951416999
  0
ENDBLK
  5
D6
330
6C
100
AcDbEntity
  8
0
100
AcDbBlockEnd
  0
BLOCK
  5
3185
330
317A
100
AcDbEntity
  8
0
100
AcDbBlockBegin
  2
*D2
 70
     1
 10
0.0
 20
0.0
 30
0.0
  3
*D2
  1

  0
LINE
  5
3914
330
317A
100
AcDbEntity
  8
30100_Drilling_DIM
  6
Continuous
 62
     0
370
    -2
100
AcDbLine
 10
1252.213834489919
 20
288.2219286170663
 30
0.0
 11
1252.213834489919
 21
277.7889286170664
 31
0.0
  0
LINE
  5
3915
330
317A
100
AcDbEntity
  8
30100_Drilling_DIM
  6
Continuous
 62
     0
370
    -2
100
AcDbLine
 10
1287.213834489918
 20
286.7219286170664
 30
0.0
 11
1287.213834489918
 21
277.7889286170664
 31
0.0
  0
LINE
  5
3916
330
317A
100
AcDbEntity
  8
30100_Drilling_DIM
  6
Continuous
 62
     0
370
    -2
100
AcDbLine
 10
1254.213834489919
 20
278.7889286170663
 30
0.0
 11
1266.630501156585
 21
278.7889286170663
 31
0.0
  0
LINE
  5
3917
330
317A
100
AcDbEntity
  8
30100_Drilling_DIM
  6
Continuous
 62
     0
370
    -2
100
AcDbLine
 10
1285.213834489918
 20
278.7889286170663
 30
0.0
 11
1272.797167823252
 21
278.7889286170663
 31
0.0
  0
SOLID
  5
3918
330
317A
100
AcDbEntity
  8
30100_Drilling_DIM
  6
Continuous
 62
     0
100
AcDbTrace
 10
1254.213834489919
 20
279.1222619503997
 30
0.0
 11
1254.213834489919
 21
278.455595283733
 31
0.0
 12
1252.213834489919
 22
278.7889286170663
 32
0.0
 13
1252.213834489919
 23
278.7889286170663
 33
0.0
  0
SOLID
  5
3919
330
317A
100
AcDbEntity
  8
30100_Drilling_DIM
  6
Continuous
 62
     0
100
AcDbTrace
 10
1285.213834489918
 20
279.1222619503997
 30
0.0
 11
1285.213834489918
 21
278.455595283733
 31
0.0
 12
1287.213834489918
 22
278.7889286170663
 32
0.0
 13
1287.213834489918
 23
278.7889286170663
 33
0.0
  0
MTEXT
  5
391A
330
317A
100
AcDbEntity
  8
30100_Drilling_DIM
  6
Continuous
 62
     0
370
    13
100
AcDbMText
 10
1269.713834489919
 20
278.7889286170663
 30
0.0
 40
2.5
 41
0.0
 71
     5
 72
     1
  1
\A1;35
 73
     1
 44
1.0
1001
ACAD
1000
MTEXTBEGIN
1070
    73
1070
     1
1070
    44
1040
1.0
1070
    74
1070
     0
1000
MTEXTEND
  0
POINT
  5
391B
330
317A
100
AcDbEntity
  8
Defpoints
  6
Continuous
 62
     0
100
AcDbPoint
 10
1252.213834489919
 20
289.2219286170663
 30
0.0
  0
POINT
  5
391C
330
317A
100
AcDbEntity
  8
Defpoints
  6
Continuous
 62
     0
100
AcDbPoint
 10
1287.213834489918
 20
287.7219286170663
 30
0.0
  0
POINT
  5
391D
330
317A
100
AcDbEntity
  8
Defpoints
  6
Continuous
 62
     0
100
AcDbPoint
 10
1287.213834489918
 20
278.7889286170663
 30
0.0
  0
ENDBLK
  5
3186
330
317A
100
AcDbEntity
  8
0
100
AcDbBlockEnd
  0
BLOCK
  5
3192
330
3187
100
AcDbEntity
  8
0
100
AcDbBlockBegin
  2
*D3
 70
     1
 10
0.0
 20
0.0
 30
0.0
  3
*D3
  1

  0
LINE
  5
391E
330
3187
100
AcDbEntity
  8
30100_Drilling_DIM
  6
Continuous
 62
     0
370
    -2
100
AcDbLine
 10
1288.214134489918
 20
339.2219286170665
 30
0.0
 11
1300.734134489919
 21
339.2219286170665
 31
0.0
  0
LINE
  5
391F
330
3187
100
AcDbEntity
  8
30100_Drilling_DIM
  6
Continuous
 62
     0
370
    -2
100
AcDbLine
 10
1288.213834489918
 20
289.2219286170663
 30
0.0
 11
1300.734134489919
 21
289.2219286170663
 31
0.0
  0
LINE
  5
3920
330
3187
100
AcDbEntity
  8
30100_Drilling_DIM
  6
Continuous
 62
     0
370
    -2
100
AcDbLine
 10
1299.734134489918
 20
337.2219286170665
 30
0.0
 11
1299.734134489918
 21
317.0969286170664
 31
0.0
  0
LINE
  5
3921
330
3187
100
AcDbEntity
  8
30100_Drilling_DIM
  6
Continuous
 62
     0
370
    -2
100
AcDbLine
 10
1299.734134489918
 20
291.2219286170664
 30
0.0
 11
1299.734134489918
 21
311.3469286170664
 31
0.0
  0
SOLID
  5
3922
330
3187
100
AcDbEntity
  8
30100_Drilling_DIM
  6
Continuous
 62
     0
100
AcDbTrace
 10
1299.400801156585
 20
337.2219286170665
 30
0.0
 11
1300.067467823252
 21
337.2219286170665
 31
0.0
 12
1299.734134489918
 22
339.2219286170665
 32
0.0
 13
1299.734134489918
 23
339.2219286170665
 33
0.0
  0
SOLID
  5
3923
330
3187
100
AcDbEntity
  8
30100_Drilling_DIM
  6
Continuous
 62
     0
100
AcDbTrace
 10
1299.400801156585
 20
291.2219286170664
 30
0.0
 11
1300.067467823252
 21
291.2219286170664
 31
0.0
 12
1299.734134489918
 22
289.2219286170663
 32
0.0
 13
1299.734134489918
 23
289.2219286170663
 33
0.0
  0
MTEXT
  5
3924
330
3187
100
AcDbEntity
  8
30100_Drilling_DIM
  6
Continuous
 62
     0
370
    13
100
AcDbMText
 10
1299.734134489918
 20
314.2219286170666
 30
0.0
 40
2.5
 41
0.0
 71
     5
 72
     1
  1
\A1;50
 11
0.0000000000000001
 21
1.0
 31
0.0
 73
     1
 44
1.0
1001
ACAD
1000
MTEXTBEGIN
1070
    73
1070
     1
1070
    44
1040
1.0
1070
    74
1070
     0
1000
MTEXTEND
  0
POINT
  5
3925
330
3187
100
AcDbEntity
  8
Defpoints
  6
Continuous
 62
     0
100
AcDbPoint
 10
1287.214134489919
 20
339.2219286170665
 30
0.0
  0
POINT
  5
3926
330
3187
100
AcDbEntity
  8
Defpoints
  6
Continuous
 62
     0
100
AcDbPoint
 10
1287.213834489918
 20
289.2219286170663
 30
0.0
  0
POINT
  5
3927
330
3187
100
AcDbEntity
  8
Defpoints
  6
Continuous
 62
     0
100
AcDbPoint
 10
1299.734134489918
 20
289.2219286170663
 30
0.0
  0
ENDBLK
  5
3193
330
3187
100
AcDbEntity
  8
0
100
AcDbBlockEnd
  0
BLOCK
  5
31A0
330
3194
100
AcDbEntity
  8
0
100
AcDbBlockBegin
  2
*D4
 70
     1
 10
0.0
 20
0.0
 30
0.0
  3
*D4
  1

  0
LINE
  5
3908
330
3194
100
AcDbEntity
  8
30100_Drilling_DIM
  6
Continuous
 62
     0
370
    -2
100
AcDbLine
 10
1253.227976568975
 20
341.7219286170663
 30
0.0
 11
1265.746134489919
 21
341.7219286170663
 31
0.0
  0
LINE
  5
3909
330
3194
100
AcDbEntity
  8
30100_Drilling_DIM
  6
Continuous
 62
     0
370
    -2
100
AcDbLine
 10
1253.227976568975
 20
336.7219286170664
 30
0.0
 11
1265.746134489919
 21
336.7219286170664
 31
0.0
  0
LINE
  5
390A
330
3194
100
AcDbEntity
  8
30100_Drilling_DIM
  6
Continuous
 62
     0
370
    -2
100
AcDbLine
 10
1264.746134489918
 20
343.7219286170663
 30
0.0
 11
1264.746134489918
 21
345.7219286170663
 31
0.0
  0
LINE
  5
390B
330
3194
100
AcDbEntity
  8
30100_Drilling_DIM
  6
Continuous
 62
     0
370
    -2
100
AcDbLine
 10
1264.746134489918
 20
334.7219286170664
 30
0.0
 11
1264.746134489918
 21
332.7219286170664
 31
0.0
  0
LINE
  5
390C
330
3194
100
AcDbEntity
  8
30100_Drilling_DIM
  6
Continuous
 62
     0
370
    -2
100
AcDbLine
 10
1264.746134489918
 20
341.7219286170663
 30
0.0
 11
1264.746134489918
 21
341.0552619503997
 31
0.0
  0
LINE
  5
390D
330
3194
100
AcDbEntity
  8
30100_Drilling_DIM
  6
Continuous
 62
     0
370
    -2
100
AcDbLine
 10
1264.746134489918
 20
336.7219286170664
 30
0.0
 11
1264.746134489918
 21
337.3885952837331
 31
0.0
  0
SOLID
  5
390E
330
3194
100
AcDbEntity
  8
30100_Drilling_DIM
  6
Continuous
 62
     0
100
AcDbTrace
 10
1264.412801156585
 20
343.7219286170663
 30
0.0
 11
1265.079467823252
 21
343.7219286170663
 31
0.0
 12
1264.746134489918
 22
341.7219286170663
 32
0.0
 13
1264.746134489918
 23
341.7219286170663
 33
0.0
  0
SOLID
  5
390F
330
3194
100
AcDbEntity
  8
30100_Drilling_DIM
  6
Continuous
 62
     0
100
AcDbTrace
 10
1264.412801156585
 20
334.7219286170664
 30
0.0
 11
1265.079467823252
 21
334.7219286170664
 31
0.0
 12
1264.746134489918
 22
336.7219286170664
 32
0.0
 13
1264.746134489918
 23
336.7219286170664
 33
0.0
  0
MTEXT
  5
3910
330
3194
100
AcDbEntity
  8
30100_Drilling_DIM
  6
Continuous
 62
     0
370
    13
100
AcDbMText
 10
1264.746134489918
 20
339.2219286170666
 30
0.0
 40
2.5
 41
0.0
 71
     5
 72
     1
  1
\A1;5
 11
0.0000000000000001
 21
1.0
 31
0.0
 73
     1
 44
1.0
1001
ACAD
1000
MTEXTBEGIN
1070
    73
1070
     1
1070
    44
1040
1.0
1070
    74
1070
     0
1000
MTEXTEND
  0
POINT
  5
3911
330
3194
100
AcDbEntity
  8
Defpoints
  6
Continuous
 62
     0
100
AcDbPoint
 10
1252.227976568974
 20
341.7219286170663
 30
0.0
  0
POINT
  5
3912
330
3194
100
AcDbEntity
  8
Defpoints
  6
Continuous
 62
     0
100
AcDbPoint
 10
1252.227976568974
 20
336.7219286170664
 30
0.0
  0
POINT
  5
3913
330
3194
100
AcDbEntity
  8
Defpoints
  6
Continuous
 62
     0
100
AcDbPoint
 10
1264.746134489918
 20
336.7219286170664
 30
0.0
  0
ENDBLK
  5
31A1
330
3194
100
AcDbEntity
  8
0
100
AcDbBlockEnd
  0
BLOCK
  5
31AD
330
31A2
100
AcDbEntity
  8
0
100
AcDbBlockBegin
  2
*D5
 70
     1
 10
0.0
 20
0.0
 30
0.0
  3
*D5
  1

  0
LINE
  5
38DE
330
31A2
100
AcDbEntity
  8
10100_FRONT_DIM
  6
Continuous
 62
     0
370
    -2
100
AcDbLine
 10
1090.607689277351
 20
343.9419686170663
 30
0.0
 11
1090.607689277351
 21
361.1569286170663
 31
0.0
  0
LINE
  5
38DF
330
31A2
100
AcDbEntity
  8
10100_FRONT_DIM
  6
Continuous
 62
     0
370
    -2
100
AcDbLine
 10
1135.607689277351
 20
343.9419686170663
 30
0.0
 11
1135.607689277351
 21
361.1569286170663
 31
0.0
  0
LINE
  5
38E0
330
31A2
100
AcDbEntity
  8
10100_FRONT_DIM
  6
Continuous
 62
     0
370
    -2
100
AcDbLine
 10
1092.607689277351
 20
360.1569286170664
 30
0.0
 11
1110.024355944017
 21
360.1569286170664
 31
0.0
  0
LINE
  5
38E1
330
31A2
100
AcDbEntity
  8
10100_FRONT_DIM
  6
Continuous
 62
     0
370
    -2
100
AcDbLine
 10
1133.607689277351
 20
360.1569286170664
 30
0.0
 11
1116.191022610684
 21
360.1569286170664
 31
0.0
  0
SOLID
  5
38E2
330
31A2
100
AcDbEntity
  8
10100_FRONT_DIM
  6
Continuous
 62
     0
100
AcDbTrace
 10
1092.607689277351
 20
360.4902619503997
 30
0.0
 11
1092.607689277351
 21
359.823595283733
 31
0.0
 12
1090.607689277351
 22
360.1569286170664
 32
0.0
 13
1090.607689277351
 23
360.1569286170664
 33
0.0
  0
SOLID
  5
38E3
330
31A2
100
AcDbEntity
  8
10100_FRONT_DIM
  6
Continuous
 62
     0
100
AcDbTrace
 10
1133.607689277351
 20
360.4902619503997
 30
0.0
 11
1133.607689277351
 21
359.823595283733
 31
0.0
 12
1135.607689277351
 22
360.1569286170664
 32
0.0
 13
1135.607689277351
 23
360.1569286170664
 33
0.0
  0
MTEXT
  5
38E4
330
31A2
100
AcDbEntity
  8
10100_FRONT_DIM
  6
Continuous
 62
     0
370
    13
100
AcDbMText
 10
1113.107689277351
 20
360.1569286170664
 30
0.0
 40
2.5
 41
0.0
 71
     5
 72
     1
  1
\A1;45
 73
     1
 44
1.0
1001
ACAD
1000
MTEXTBEGIN
1070
    73
1070
     1
1070
    44
1040
1.0
1070
    74
1070
     0
1000
MTEXTEND
  0
POINT
  5
38E5
330
31A2
100
AcDbEntity
  8
Defpoints
  6
Continuous
 62
     0
100
AcDbPoint
 10
1090.607689277351
 20
342.9419686170664
 30
0.0
  0
POINT
  5
38E6
330
31A2
100
AcDbEntity
  8
Defpoints
  6
Continuous
 62
     0
100
AcDbPoint
 10
1135.607689277351
 20
342.9419686170664
 30
0.0
  0
POINT
  5
38E7
330
31A2
100
AcDbEntity
  8
Defpoints
  6
Continuous
 62
     0
100
AcDbPoint
 10
1135.607689277351
 20
360.1569286170664
 30
0.0
  0
ENDBLK
  5
31AE
330
31A2
100
AcDbEntity
  8
0
100
AcDbBlockEnd
  0
BLOCK
  5
31BA
330
31AF
100
AcDbEntity
  8
0
100
AcDbBlockBegin
  2
*D6
 70
     1
 10
0.0
 20
0.0
 30
0.0
  3
*D6
  1

  0
LINE
  5
38D4
330
31AF
100
AcDbEntity
  8
10100_FRONT_DIM
  6
Continuous
 62
     0
370
    -2
100
AcDbLine
 10
1095.907689277351
 20
333.1919286170664
 30
0.0
 11
1095.907689277351
 21
354.1769286170663
 31
0.0
  0
LINE
  5
38D5
330
31AF
100
AcDbEntity
  8
10100_FRONT_DIM
  6
Continuous
 62
     0
370
    -2
100
AcDbLine
 10
1104.50760927735
 20
333.1919686170664
 30
0.0
 11
1104.50760927735
 21
354.1769286170663
 31
0.0
  0
LINE
  5
38D6
330
31AF
100
AcDbEntity
  8
10100_FRONT_DIM
  6
Continuous
 62
     0
370
    -2
100
AcDbLine
 10
1097.90768927735
 20
353.1769286170665
 30
0.0
 11
1098.374315944017
 21
353.1769286170665
 31
0.0
  0
LINE
  5
38D7
330
31AF
100
AcDbEntity
  8
10100_FRONT_DIM
  6
Continuous
 62
     0
370
    -2
100
AcDbLine
 10
1102.50760927735
 20
353.1769286170665
 30
0.0
 11
1102.040982610684
 21
353.1769286170665
 31
0.0
  0
MTEXT
  5
38D8
330
31AF
100
AcDbEntity
  8
10100_FRONT_DIM
  6
Continuous
 62
     0
370
    13
100
AcDbMText
 10
1100.207649277351
 20
353.1769286170665
 30
0.0
 40
2.5
 41
0.0
 71
     5
 72
     1
  1
\A1;9
 73
     1
 44
1.0
1001
ACAD
1000
MTEXTBEGIN
1070
    73
1070
     1
1070
    44
1040
1.0
1070
    74
1070
     0
1000
MTEXTEND
  0
SOLID
  5
38D9
330
31AF
100
AcDbEntity
  8
10100_FRONT_DIM
  6
Continuous
 62
     0
100
AcDbTrace
 10
1097.90768927735
 20
353.5102619503998
 30
0.0
 11
1097.90768927735
 21
352.8435952837331
 31
0.0
 12
1095.907689277351
 22
353.1769286170665
 32
0.0
 13
1095.907689277351
 23
353.1769286170665
 33
0.0
  0
SOLID
  5
38DA
330
31AF
100
AcDbEntity
  8
10100_FRONT_DIM
  6
Continuous
 62
     0
100
AcDbTrace
 10
1102.50760927735
 20
353.5102619503998
 30
0.0
 11
1102.50760927735
 21
352.8435952837331
 31
0.0
 12
1104.50760927735
 22
353.1769286170665
 32
0.0
 13
1104.50760927735
 23
353.1769286170665
 33
0.0
  0
POINT
  5
38DB
330
31AF
100
AcDbEntity
  8
Defpoints
  6
Continuous
 62
     0
100
AcDbPoint
 10
1095.907689277351
 20
332.1919286170664
 30
0.0
  0
POINT
  5
38DC
330
31AF
100
AcDbEntity
  8
Defpoints
  6
Continuous
 62
     0
100
AcDbPoint
 10
1104.50760927735
 20
332.1919686170665
 30
0.0
  0
POINT
  5
38DD
330
31AF
100
AcDbEntity
  8
Defpoints
  6
Continuous
 62
     0
100
AcDbPoint
 10
1104.50760927735
 20
353.1769286170665
 30
0.0
  0
ENDBLK
  5
31BB
330
31AF
100
AcDbEntity
  8
0
100
AcDbBlockEnd
  0
BLOCK
  5
31C9
330
31BC
100
AcDbEntity
  8
0
100
AcDbBlockBegin
  2
*D7
 70
     1
 10
0.0
 20
0.0
 30
0.0
  3
*D7
  1

  0
LINE
  5
38C8
330
31BC
100
AcDbEntity
  8
10100_FRONT_DIM
  6
Continuous
 62
     0
370
    -2
100
AcDbLine
 10
1095.907689277351
 20
333.1919286170664
 30
0.0
 11
1095.907689277351
 21
354.1753880765257
 31
0.0
  0
LINE
  5
38C9
330
31BC
100
AcDbEntity
  8
10100_FRONT_DIM
  6
Continuous
 62
     0
370
    -2
100
AcDbLine
 10
1090.607689277351
 20
343.9419286170664
 30
0.0
 11
1090.607689277351
 21
354.1753880765257
 31
0.0
  0
LINE
  5
38CA
330
31BC
100
AcDbEntity
  8
10100_FRONT_DIM
  6
Continuous
 62
     0
370
    -2
100
AcDbLine
 10
1097.90768927735
 20
353.1753880765257
 30
0.0
 11
1099.90768927735
 21
353.1753880765257
 31
0.0
  0
LINE
  5
38CB
330
31BC
100
AcDbEntity
  8
10100_FRONT_DIM
  6
Continuous
 62
     0
370
    -2
100
AcDbLine
 10
1088.607689277351
 20
353.1753880765257
 30
0.0
 11
1086.607689277351
 21
353.1753880765257
 31
0.0
  0
LINE
  5
38CC
330
31BC
100
AcDbEntity
  8
10100_FRONT_DIM
  6
Continuous
 62
     0
370
    -2
100
AcDbLine
 10
1095.907689277351
 20
353.1753880765257
 30
0.0
 11
1095.091022610684
 21
353.1753880765257
 31
0.0
  0
LINE
  5
38CD
330
31BC
100
AcDbEntity
  8
10100_FRONT_DIM
  6
Continuous
 62
     0
370
    -2
100
AcDbLine
 10
1090.607689277351
 20
353.1753880765257
 30
0.0
 11
1091.424355944017
 21
353.1753880765257
 31
0.0
  0
SOLID
  5
38CE
330
31BC
100
AcDbEntity
  8
10100_FRONT_DIM
  6
Continuous
 62
     0
100
AcDbTrace
 10
1097.90768927735
 20
353.5087214098592
 30
0.0
 11
1097.90768927735
 21
352.8420547431924
 31
0.0
 12
1095.907689277351
 22
353.1753880765257
 32
0.0
 13
1095.907689277351
 23
353.1753880765257
 33
0.0
  0
SOLID
  5
38CF
330
31BC
100
AcDbEntity
  8
10100_FRONT_DIM
  6
Continuous
 62
     0
100
AcDbTrace
 10
1088.607689277351
 20
353.5087214098592
 30
0.0
 11
1088.607689277351
 21
352.8420547431924
 31
0.0
 12
1090.607689277351
 22
353.1753880765257
 32
0.0
 13
1090.607689277351
 23
353.1753880765257
 33
0.0
  0
MTEXT
  5
38D0
330
31BC
100
AcDbEntity
  8
10100_FRONT_DIM
  6
Continuous
 62
     0
370
    13
100
AcDbMText
 10
1093.257689277351
 20
353.1753880765257
 30
0.0
 40
2.5
 41
0.0
 71
     5
 72
     1
  1
\A1;5
 73
     1
 44
1.0
1001
ACAD
1000
MTEXTBEGIN
1070
    73
1070
     1
1070
    44
1040
1.0
1070
    74
1070
     0
1000
MTEXTEND
  0
POINT
  5
38D1
330
31BC
100
AcDbEntity
  8
Defpoints
  6
Continuous
 62
     0
100
AcDbPoint
 10
1095.907689277351
 20
332.1919286170664
 30
0.0
  0
POINT
  5
38D2
330
31BC
100
AcDbEntity
  8
Defpoints
  6
Continuous
 62
     0
100
AcDbPoint
 10
1090.607689277351
 20
342.9419286170664
 30
0.0
  0
POINT
  5
38D3
330
31BC
100
AcDbEntity
  8
Defpoints
  6
Continuous
 62
     0
100
AcDbPoint
 10
1090.607689277351
 20
353.1753880765257
 30
0.0
  0
ENDBLK
  5
31CA
330
31BC
100
AcDbEntity
  8
0
100
AcDbBlockEnd
  0
BLOCK
  5
31D6
330
31CB
100
AcDbEntity
  8
0
100
AcDbBlockBegin
  2
*D8
 70
     1
 10
0.0
 20
0.0
 30
0.0
  3
*D8
  1

  0
LINE
  5
38E8
330
31CB
100
AcDbEntity
  8
10100_FRONT_DIM
  6
Continuous
 62
     0
370
    -2
100
AcDbLine
 10
1136.607689277351
 20
342.9419286170664
 30
0.0
 11
1145.317189277351
 21
342.9419286170664
 31
0.0
  0
LINE
  5
38E9
330
31CB
100
AcDbEntity
  8
10100_FRONT_DIM
  6
Continuous
 62
     0
370
    -2
100
AcDbLine
 10
1136.607689277351
 20
285.4419286170664
 30
0.0
 11
1145.317189277351
 21
285.4419286170664
 31
0.0
  0
LINE
  5
38EA
330
31CB
100
AcDbEntity
  8
10100_FRONT_DIM
  6
Continuous
 62
     0
370
    -2
100
AcDbLine
 10
1144.317189277351
 20
340.9419286170664
 30
0.0
 11
1144.317189277351
 21
319.1502619503997
 31
0.0
  0
LINE
  5
38EB
330
31CB
100
AcDbEntity
  8
10100_FRONT_DIM
  6
Continuous
 62
     0
370
    -2
100
AcDbLine
 10
1144.317189277351
 20
287.4419286170664
 30
0.0
 11
1144.317189277351
 21
309.2335952837331
 31
0.0
  0
SOLID
  5
38EC
330
31CB
100
AcDbEntity
  8
10100_FRONT_DIM
  6
Continuous
 62
     0
100
AcDbTrace
 10
1143.983855944017
 20
340.9419286170664
 30
0.0
 11
1144.650522610684
 21
340.9419286170664
 31
0.0
 12
1144.317189277351
 22
342.9419286170664
 32
0.0
 13
1144.317189277351
 23
342.9419286170664
 33
0.0
  0
SOLID
  5
38ED
330
31CB
100
AcDbEntity
  8
10100_FRONT_DIM
  6
Continuous
 62
     0
100
AcDbTrace
 10
1143.983855944017
 20
287.4419286170664
 30
0.0
 11
1144.650522610684
 21
287.4419286170664
 31
0.0
 12
1144.317189277351
 22
285.4419286170664
 32
0.0
 13
1144.317189277351
 23
285.4419286170664
 33
0.0
  0
MTEXT
  5
38EE
330
31CB
100
AcDbEntity
  8
10100_FRONT_DIM
  6
Continuous
 62
     0
370
    13
100
AcDbMText
 10
1144.317189277351
 20
314.1919286170665
 30
0.0
 40
2.5
 41
0.0
 71
     5
 72
     1
  1
\A1;57,5
 11
0.0000000000000001
 21
1.0
 31
0.0
 73
     1
 44
1.0
1001
ACAD
1000
MTEXTBEGIN
1070
    73
1070
     1
1070
    44
1040
1.0
1070
    74
1070
     0
1000
MTEXTEND
  0
POINT
  5
38EF
330
31CB
100
AcDbEntity
  8
Defpoints
  6
Continuous
 62
     0
100
AcDbPoint
 10
1135.607689277351
 20
342.9419286170664
 30
0.0
  0
POINT
  5
38F0
330
31CB
100
AcDbEntity
  8
Defpoints
  6
Continuous
 62
     0
100
AcDbPoint
 10
1135.607689277351
 20
285.4419286170664
 30
0.0
  0
POINT
  5
38F1
330
31CB
100
AcDbEntity
  8
Defpoints
  6
Continuous
 62
     0
100
AcDbPoint
 10
1144.317189277351
 20
285.4419286170664
 30
0.0
  0
ENDBLK
  5
31D7
330
31CB
100
AcDbEntity
  8
0
100
AcDbBlockEnd
  0
BLOCK
  5
31E5
330
31D8
100
AcDbEntity
  8
0
100
AcDbBlockBegin
  2
*D9
 70
     1
 10
0.0
 20
0.0
 30
0.0
  3
*D9
  1

  0
LINE
  5
38FC
330
31D8
100
AcDbEntity
  8
11100_LEFT_DIM
  6
Continuous
 62
     0
370
    -2
100
AcDbLine
 10
1159.627125303257
 20
343.9219686170663
 30
0.0
 11
1159.627125303257
 21
353.8259286170663
 31
0.0
  0
LINE
  5
38FD
330
31D8
100
AcDbEntity
  8
11100_LEFT_DIM
  6
Continuous
 62
     0
370
    -2
100
AcDbLine
 10
1164.627125303258
 20
336.1719686170663
 30
0.0
 11
1164.627125303258
 21
353.8259286170663
 31
0.0
  0
LINE
  5
38FE
330
31D8
100
AcDbEntity
  8
11100_LEFT_DIM
  6
Continuous
 62
     0
370
    -2
100
AcDbLine
 10
1157.627125303258
 20
352.8259286170663
 30
0.0
 11
1155.627125303258
 21
352.8259286170663
 31
0.0
  0
LINE
  5
38FF
330
31D8
100
AcDbEntity
  8
11100_LEFT_DIM
  6
Continuous
 62
     0
370
    -2
100
AcDbLine
 10
1166.627125303258
 20
352.8259286170663
 30
0.0
 11
1168.627125303258
 21
352.8259286170663
 31
0.0
  0
LINE
  5
3900
330
31D8
100
AcDbEntity
  8
11100_LEFT_DIM
  6
Continuous
 62
     0
370
    -2
100
AcDbLine
 10
1159.627125303257
 20
352.8259286170663
 30
0.0
 11
1160.293791969924
 21
352.8259286170663
 31
0.0
  0
LINE
  5
3901
330
31D8
100
AcDbEntity
  8
11100_LEFT_DIM
  6
Continuous
 62
     0
370
    -2
100
AcDbLine
 10
1164.627125303258
 20
352.8259286170663
 30
0.0
 11
1163.960458636591
 21
352.8259286170663
 31
0.0
  0
SOLID
  5
3902
330
31D8
100
AcDbEntity
  8
11100_LEFT_DIM
  6
Continuous
 62
     0
100
AcDbTrace
 10
1157.627125303258
 20
353.1592619503997
 30
0.0
 11
1157.627125303258
 21
352.4925952837331
 31
0.0
 12
1159.627125303257
 22
352.8259286170663
 32
0.0
 13
1159.627125303257
 23
352.8259286170663
 33
0.0
  0
SOLID
  5
3903
330
31D8
100
AcDbEntity
  8
11100_LEFT_DIM
  6
Continuous
 62
     0
100
AcDbTrace
 10
1166.627125303258
 20
353.1592619503997
 30
0.0
 11
1166.627125303258
 21
352.4925952837331
 31
0.0
 12
1164.627125303258
 22
352.8259286170663
 32
0.0
 13
1164.627125303258
 23
352.8259286170663
 33
0.0
  0
MTEXT
  5
3904
330
31D8
100
AcDbEntity
  8
11100_LEFT_DIM
  6
Continuous
 62
     0
370
    13
100
AcDbMText
 10
1162.127125303258
 20
352.8259286170663
 30
0.0
 40
2.5
 41
0.0
 71
     5
 72
     1
  1
\A1;5
 73
     1
 44
1.0
1001
ACAD
1000
MTEXTBEGIN
1070
    73
1070
     1
1070
    44
1040
1.0
1070
    74
1070
     0
1000
MTEXTEND
  0
POINT
  5
3905
330
31D8
100
AcDbEntity
  8
Defpoints
  6
Continuous
 62
     0
100
AcDbPoint
 10
1159.627125303257
 20
342.9219686170664
 30
0.0
  0
POINT
  5
3906
330
31D8
100
AcDbEntity
  8
Defpoints
  6
Continuous
 62
     0
100
AcDbPoint
 10
1164.627125303258
 20
335.1719686170663
 30
0.0
  0
POINT
  5
3907
330
31D8
100
AcDbEntity
  8
Defpoints
  6
Continuous
 62
     0
100
AcDbPoint
 10
1164.627125303258
 20
352.8259286170663
 30
0.0
  0
ENDBLK
  5
31E6
330
31D8
100
AcDbEntity
  8
0
100
AcDbBlockEnd
  0
BLOCK
  5
31F2
330
31E7
100
AcDbEntity
  8
0
100
AcDbBlockBegin
  2
*D10
 70
     1
 10
0.0
 20
0.0
 30
0.0
  3
*D10
  1

  0
LINE
  5
38F2
330
31E7
100
AcDbEntity
  8
11100_LEFT_DIM
  6
Continuous
 62
     0
370
    -2
100
AcDbLine
 10
1164.627425303258
 20
336.1719286170664
 30
0.0
 11
1164.627425303258
 21
353.8259786170664
 31
0.0
  0
LINE
  5
38F3
330
31E7
100
AcDbEntity
  8
11100_LEFT_DIM
  6
Continuous
 62
     0
370
    -2
100
AcDbLine
 10
1232.127125303257
 20
330.4683786170664
 30
0.0
 11
1232.127125303257
 21
353.8259786170664
 31
0.0
  0
LINE
  5
38F4
330
31E7
100
AcDbEntity
  8
11100_LEFT_DIM
  6
Continuous
 62
     0
370
    -2
100
AcDbLine
 10
1166.627425303258
 20
352.8259786170664
 30
0.0
 11
1195.293941969924
 21
352.8259786170664
 31
0.0
  0
LINE
  5
38F5
330
31E7
100
AcDbEntity
  8
11100_LEFT_DIM
  6
Continuous
 62
     0
370
    -2
100
AcDbLine
 10
1230.127125303258
 20
352.8259786170664
 30
0.0
 11
1201.460608636591
 21
352.8259786170664
 31
0.0
  0
SOLID
  5
38F6
330
31E7
100
AcDbEntity
  8
11100_LEFT_DIM
  6
Continuous
 62
     0
100
AcDbTrace
 10
1166.627425303258
 20
353.1593119503997
 30
0.0
 11
1166.627425303258
 21
352.4926452837331
 31
0.0
 12
1164.627425303258
 22
352.8259786170664
 32
0.0
 13
1164.627425303258
 23
352.8259786170664
 33
0.0
  0
SOLID
  5
38F7
330
31E7
100
AcDbEntity
  8
11100_LEFT_DIM
  6
Continuous
 62
     0
100
AcDbTrace
 10
1230.127125303258
 20
353.1593119503997
 30
0.0
 11
1230.127125303258
 21
352.4926452837331
 31
0.0
 12
1232.127125303257
 22
352.8259786170664
 32
0.0
 13
1232.127125303257
 23
352.8259786170664
 33
0.0
  0
MTEXT
  5
38F8
330
31E7
100
AcDbEntity
  8
11100_LEFT_DIM
  6
Continuous
 62
     0
370
    13
100
AcDbMText
 10
1198.377275303258
 20
352.8259786170664
 30
0.0
 40
2.5
 41
0.0
 71
     5
 72
     1
  1
\A1;67
 73
     1
 44
1.0
1001
ACAD
1000
MTEXTBEGIN
1070
    73
1070
     1
1070
    44
1040
1.0
1070
    74
1070
     0
1000
MTEXTEND
  0
POINT
  5
38F9
330
31E7
100
AcDbEntity
  8
Defpoints
  6
Continuous
 62
     0
100
AcDbPoint
 10
1164.627425303258
 20
335.1719286170664
 30
0.0
  0
POINT
  5
38FA
330
31E7
100
AcDbEntity
  8
Defpoints
  6
Continuous
 62
     0
100
AcDbPoint
 10
1232.127125303257
 20
329.4683786170664
 30
0.0
  0
POINT
  5
38FB
330
31E7
100
AcDbEntity
  8
Defpoints
  6
Continuous
 62
     0
100
AcDbPoint
 10
1232.127125303257
 20
352.8259786170664
 30
0.0
  0
ENDBLK
  5
31F3
330
31E7
100
AcDbEntity
  8
0
100
AcDbBlockEnd
  0
BLOCK
  5
39A8
330
399D
100
AcDbEntity
  8
0
100
AcDbBlockBegin
  2
*D11
 70
     1
 10
0.0
 20
0.0
 30
0.0
  3
*D11
  1

  0
LINE
  5
39AB
330
399D
100
AcDbEntity
  8
0
 62
     0
370
    -2
100
AcDbLine
 10
1095.28260927735
 20
332.1919686170665
 30
0.0
 11
1077.549995178544
 21
332.1919686170665
 31
0.0
  0
LINE
  5
39AC
330
399D
100
AcDbEntity
  8
0
 62
     0
370
    -2
100
AcDbLine
 10
1095.28260927735
 20
296.1919286170664
 30
0.0
 11
1077.549995178544
 21
296.1919286170664
 31
0.0
  0
LINE
  5
39AD
330
399D
100
AcDbEntity
  8
0
 62
     0
370
    -2
100
AcDbLine
 10
1078.799995178544
 20
329.6919686170665
 30
0.0
 11
1078.799995178544
 21
316.9002819503997
 31
0.0
  0
LINE
  5
39AE
330
399D
100
AcDbEntity
  8
0
 62
     0
370
    -2
100
AcDbLine
 10
1078.799995178544
 20
298.6919286170664
 30
0.0
 11
1078.799995178544
 21
311.4836152837331
 31
0.0
  0
SOLID
  5
39AF
330
399D
100
AcDbEntity
  8
0
 62
     0
100
AcDbTrace
 10
1078.383328511877
 20
329.6919686170665
 30
0.0
 11
1079.216661845211
 21
329.6919686170665
 31
0.0
 12
1078.799995178544
 22
332.1919686170665
 32
0.0
 13
1078.799995178544
 23
332.1919686170665
 33
0.0
  0
SOLID
  5
39B0
330
399D
100
AcDbEntity
  8
0
 62
     0
100
AcDbTrace
 10
1078.383328511877
 20
298.6919286170664
 30
0.0
 11
1079.216661845211
 21
298.6919286170664
 31
0.0
 12
1078.799995178544
 22
296.1919286170664
 32
0.0
 13
1078.799995178544
 23
296.1919286170664
 33
0.0
  0
MTEXT
  5
39B1
330
399D
100
AcDbEntity
  8
0
 62
     0
100
AcDbMText
 10
1078.799995178544
 20
314.1919486170666
 30
0.0
 40
2.5
 41
0.0
 71
     5
 72
     1
  1
36
 11
0.0000000000000001
 21
1.0
 31
0.0
 73
     1
 44
1.0
1001
ACAD
1000
MTEXTBEGIN
1070
    73
1070
     1
1070
    44
1040
1.0
1070
    74
1070
     0
1000
MTEXTEND
  0
POINT
  5
39B2
330
399D
100
AcDbEntity
  8
Defpoints
 62
     0
100
AcDbPoint
 10
1095.90760927735
 20
332.1919686170665
 30
0.0
  0
POINT
  5
39B3
330
399D
100
AcDbEntity
  8
Defpoints
 62
     0
100
AcDbPoint
 10
1095.90760927735
 20
296.1919286170664
 30
0.0
  0
POINT
  5
39B4
330
399D
100
AcDbEntity
  8
Defpoints
 62
     0
100
AcDbPoint
 10
1078.799995178544
 20
296.1919286170664
 30
0.0
  0
ENDBLK
  5
39A9
330
399D
100
AcDbEntity
  8
0
100
AcDbBlockEnd
  0
ENDSEC
  0
SECTION
  2
ENTITIES
  0
INSERT
  5
117
330
1F
100
AcDbEntity
  8
90000_FRAME
  6
Continuous
 62
     7
100
AcDbBlockReference
  2
SIEMENS_OUTLINE_BL0
 10
1113.564341719631
 20
201.9187786897147
 30
0.0
  0
LINE
  5
118
330
1F
100
AcDbEntity
  8
90000_FRAME
  6
Continuous
 62
     7
100
AcDbLine
 10
1180.91844433571
 20
212.257037917318
 30
0.0
 11
1315.91844433571
 21
212.257037917318
 31
0.0
  0
LINE
  5
119
330
1F
100
AcDbEntity
  8
90000_FRAME
  6
Continuous
 62
     7
100
AcDbLine
 10
1180.91844433571
 20
212.257037917318
 30
0.0
 11
1180.91844433571
 21
230.257037917318
 31
0.0
  0
LINE
  5
11A
330
1F
100
AcDbEntity
  8
90000_FRAME
  6
Continuous
 62
     7
100
AcDbLine
 10
1230.91844433571
 20
218.257037917318
 30
0.0
 11
1315.91844433571
 21
218.257037917318
 31
0.0
  0
LINE
  5
11B
330
1F
100
AcDbEntity
  8
90000_FRAME
  6
Continuous
 62
     7
100
AcDbLine
 10
1180.91844433571
 20
230.257037917318
 30
0.0
 11
1315.91844433571
 21
230.257037917318
 31
0.0
  0
LINE
  5
11C
330
1F
100
AcDbEntity
  8
90000_FRAME
  6
Continuous
 62
     7
100
AcDbLine
 10
1230.91844433571
 20
212.257037917318
 30
0.0
 11
1230.91844433571
 21
230.257037917318
 31
0.0
  0
LINE
  5
11D
330
1F
100
AcDbEntity
  8
90000_FRAME
  6
Continuous
 62
     7
100
AcDbLine
 10
1273.41844433571
 20
212.257037917318
 30
0.0
 11
1273.41844433571
 21
218.257037917318
 31
0.0
  0
LINE
  5
11E
330
1F
100
AcDbEntity
  8
90000_FRAME
  6
Continuous
 62
     7
100
AcDbLine
 10
1315.91844433571
 20
212.257037917318
 30
0.0
 11
1315.91844433571
 21
230.257037917318
 31
0.0
  0
TEXT
  5
11F
330
1F
100
AcDbEntity
  8
90000_FRAME
  6
Continuous
 62
     7
100
AcDbText
 10
1231.57844433571
 20
214.157037917318
 30
0.0
 40
2.2
  1
Format / Size: DIN A4
 41
0.7994987468660261
 72
     5
 11
1264.99749195471
 21
214.157037917318
 31
0.0
100
AcDbText
  0
TEXT
  5
120
330
1F
100
AcDbEntity
  8
90000_FRAME
  6
Continuous
 62
     7
100
AcDbText
 10
1274.07844433571
 20
214.157037917318
 30
0.0
 40
2.2
  1
Massstab / Scale: 1:1
 41
0.7732634338148433
 72
     5
 11
1304.98320624051
 21
214.157037917318
 31
0.0
100
AcDbText
  0
TEXT
  5
121
330
1F
100
AcDbEntity
  8
90000_FRAME
  6
Continuous
 62
     7
100
AcDbText
 10
1244.224368859661
 20
222.507037917318
 30
0.0
 40
3.5
  1
3RT101__00000087_000_ALL.dxf
 41
0.6476313523457508
 72
     5
 11
1300.136542278844
 21
222.507037917318
 31
0.0
100
AcDbText
  0
LINE
  5
124
330
1F
100
AcDbEntity
  8
90000_FRAME
  6
Continuous
 62
     7
100
AcDbLine
 10
1055.918444335711
 20
202.257037917318
 30
0.0
 11
1325.918444335711
 21
202.257037917318
 31
0.0
  0
LINE
  5
126
330
1F
100
AcDbEntity
  8
90000_FRAME
  6
Continuous
 62
     7
100
AcDbLine
 10
1325.918444335711
 20
202.257037917318
 30
0.0
 11
1325.918444335711
 21
402.2570379173179
 31
0.0
  0
TEXT
  5
129
330
1F
100
AcDbEntity
  8
91000_TIP
  6
Continuous
 62
     7
100
AcDbText
 10
1059.971794118375
 20
210.9892745389946
 30
0.0
 40
2.5
  1
Alle Bemassungswerte sind in Millimeter (mm) angegeben.
 41
0.6056311217924568
 72
     5
 11
1133.656913936457
 21
210.9892745389946
 31
0.0
100
AcDbText
  0
TEXT
  5
12A
330
1F
100
AcDbEntity
  8
91000_TIP
  6
Continuous
 62
     7
100
AcDbText
 10
1059.971794118375
 20
205.7392745389947
 30
0.0
 40
2.5
  1
All dimensions are in millimeters (mm).
 41
0.7513350295680256
 72
     5
 11
1120.078596483817
 21
205.7392745389947
 31
0.0
100
AcDbText
  0
LINE
  5
2093
330
1F
100
AcDbEntity
  8
91000_TIP
  6
Continuous
 62
     7
100
AcDbLine
 10
1155.733114439736
 20
223.5807754396886
 30
0.0
 11
1165.733114235536
 21
226.0807753886886
 31
0.0
  0
LINE
  5
2094
330
1F
100
AcDbEntity
  8
91000_TIP
  6
CENTER
 62
     7
100
AcDbLine
 10
1154.453603967735
 20
221.0807754907886
 30
0.0
 11
1178.055593231835
 21
221.0807754907886
 31
0.0
  0
LINE
  5
2095
330
1F
100
AcDbEntity
  8
91000_TIP
  6
Continuous
 62
     7
100
AcDbLine
 10
1155.733114439736
 20
218.5807755418886
 30
0.0
 11
1165.733114235536
 21
216.0807755928885
 31
0.0
  0
LINE
  5
2096
330
1F
100
AcDbEntity
  8
91000_TIP
  6
Continuous
 62
     7
100
AcDbLine
 10
1155.733114439736
 20
223.5807754396886
 30
0.0
 11
1155.733114439736
 21
218.5807755418886
 31
0.0
  0
LINE
  5
2097
330
1F
100
AcDbEntity
  8
91000_TIP
  6
Continuous
 62
     7
100
AcDbLine
 10
1165.733114235536
 20
226.0807753886886
 30
0.0
 11
1165.733114235536
 21
216.0807755928885
 31
0.0
  0
LINE
  5
2098
330
1F
100
AcDbEntity
  8
91000_TIP
  6
CENTER
 62
     7
100
AcDbLine
 10
1172.233114102736
 20
215.3592942843886
 30
0.0
 11
1172.233114102736
 21
226.6426802843886
 31
0.0
  0
CIRCLE
  5
2099
330
1F
100
AcDbEntity
  8
91000_TIP
  6
Continuous
 62
     7
100
AcDbCircle
 10
1172.233114102736
 20
221.0807754907886
 30
0.0
 40
4.9999998979
  0
CIRCLE
  5
209A
330
1F
100
AcDbEntity
  8
91000_TIP
  6
Continuous
 62
     7
100
AcDbCircle
 10
1172.233114102736
 20
221.0807754907886
 30
0.0
 40
2.499999948899997
  0
TEXT
  5
296A
330
1F
100
AcDbEntity
  8
10000_FRONT
370
    13
100
AcDbText
 10
1127.25760927735
 20
325.9919686170664
 30
0.0
 40
2.5
  1
3RT
 41
0.6600000000000003
100
AcDbText
1001
AUSTER_ANSICHT
1002
{
1000
Det03
1002
}
1001
AUSTER_FOLIE
1002
{
1000
NSB00752A
1002
}
  0
TEXT
  5
296B
330
1F
100
AcDbEntity
  8
10000_FRONT
370
    13
100
AcDbText
 10
1092.607689277351
 20
325.7919686170664
 30
0.0
 40
2.5
  1
SIEMENS
 41
0.6600000000000003
100
AcDbText
1001
AUSTER_ANSICHT
1002
{
1000
Det03
1002
}
1001
AUSTER_FOLIE
1002
{
1000
NSB00752A
1002
}
  0
ARC
  5
296C
330
1F
100
AcDbEntity
  8
11000_Left
370
    13
100
AcDbCircle
 39
0.25
 10
1160.627025303258
 20
323.8222786170664
 30
-1.0
 40
1.0
100
AcDbArc
 50
90.0
 51
180.0
1001
AUSTER_ANSICHT
1002
{
1000
Det03
1002
}
1001
AUSTER_FOLIE
1002
{
1000
NSB00752A
1002
}
  0
ARC
  5
296D
330
1F
100
AcDbEntity
  8
11000_Left
370
    13
100
AcDbCircle
 39
0.25
 10
1160.627025303258
 20
304.8222286170664
 30
-1.0
 40
1.0
100
AcDbArc
 50
180.0
 51
270.0
1001
AUSTER_ANSICHT
1002
{
1000
Det03
1002
}
1001
AUSTER_FOLIE
1002
{
1000
NSB00752A
1002
}
  0
ARC
  5
296E
330
1F
100
AcDbEntity
  8
11000_Left
370
    13
100
AcDbCircle
 39
0.25
 10
1160.727025303257
 20
328.7222786170663
 30
-1.0
 40
1.9
100
AcDbArc
 50
270.0
 51
0.0
1001
AUSTER_ANSICHT
1002
{
1000
Det03
1002
}
1001
AUSTER_FOLIE
1002
{
1000
NSB00752A
1002
}
  0
ARC
  5
296F
330
1F
100
AcDbEntity
  8
11000_Left
370
    13
100
AcDbCircle
 39
0.25
 10
1163.127025303257
 20
329.4722786170664
 30
-1.0
 40
0.5
100
AcDbArc
 50
270.0
 51
0.0
1001
AUSTER_ANSICHT
1002
{
1000
Det03
1002
}
1001
AUSTER_FOLIE
1002
{
1000
NSB00752A
1002
}
  0
ARC
  5
2970
330
1F
100
AcDbEntity
  8
11000_Left
370
    13
100
AcDbCircle
 39
0.25
 10
1160.727025303257
 20
299.9222286170664
 30
-1.0
 40
1.9
100
AcDbArc
 50
0.0000000107509873
 51
90.0
1001
AUSTER_ANSICHT
1002
{
1000
Det03
1002
}
1001
AUSTER_FOLIE
1002
{
1000
NSB00752A
1002
}
  0
LINE
  5
2971
330
1F
100
AcDbEntity
  8
30000_Drilling
  6
Continuous
370
    13
100
AcDbLine
 39
0.25
 10
1250.713834489918
 20
289.2219286170663
 30
0.0
 11
1253.713834489918
 21
289.2219286170663
 31
0.0
1001
AUSTER_ANSICHT
1002
{
1000
Det03
1002
}
1001
AUSTER_FOLIE
1002
{
1000
NSB00752A
1002
}
  0
LINE
  5
2972
330
1F
100
AcDbEntity
  8
30000_Drilling
  6
Continuous
370
    13
100
AcDbLine
 39
0.25
 10
1252.213834489919
 20
290.7219286170663
 30
0.0
 11
1252.213834489919
 21
287.7219286170663
 31
0.0
1001
AUSTER_ANSICHT
1002
{
1000
Det03
1002
}
1001
AUSTER_FOLIE
1002
{
1000
NSB00752A
1002
}
  0
ARC
  5
2973
330
1F
100
AcDbEntity
  8
30000_Drilling
  6
Continuous
370
    50
100
AcDbCircle
 39
0.25
 10
1252.213834489919
 20
289.2219286170663
 30
0.0
 40
2.5
100
AcDbArc
 50
270.0
 51
90.0
1001
AUSTER_ANSICHT
1002
{
1000
Det03
1002
}
1001
AUSTER_FOLIE
1002
{
1000
NSB00752A
1002
}
  0
LINE
  5
2974
330
1F
100
AcDbEntity
  8
30000_Drilling
  6
Continuous
370
    13
100
AcDbLine
 39
0.25
 10
1285.713834489918
 20
289.2219286170663
 30
0.0
 11
1288.713834489919
 21
289.2219286170663
 31
0.0
1001
AUSTER_ANSICHT
1002
{
1000
Det03
1002
}
1001
AUSTER_FOLIE
1002
{
1000
NSB00752A
1002
}
  0
LINE
  5
2975
330
1F
100
AcDbEntity
  8
30000_Drilling
  6
Continuous
370
    13
100
AcDbLine
 39
0.25
 10
1287.213834489918
 20
290.7219286170663
 30
0.0
 11
1287.213834489918
 21
287.7219286170663
 31
0.0
1001
AUSTER_ANSICHT
1002
{
1000
Det03
1002
}
1001
AUSTER_FOLIE
1002
{
1000
NSB00752A
1002
}
  0
ARC
  5
2976
330
1F
100
AcDbEntity
  8
30000_Drilling
  6
Continuous
370
    50
100
AcDbCircle
 39
0.25
 10
1287.213834489918
 20
289.2219286170663
 30
0.0
 40
2.5
100
AcDbArc
 50
90.0
 51
270.0
1001
AUSTER_ANSICHT
1002
{
1000
Det03
1002
}
1001
AUSTER_FOLIE
1002
{
1000
NSB00752A
1002
}
  0
LINE
  5
2977
330
1F
100
AcDbEntity
  8
30000_Drilling
  6
Continuous
370
    13
100
AcDbLine
 39
0.25
 10
1285.713834489918
 20
339.2219686170665
 30
0.0
 11
1288.713834489919
 21
339.2219686170665
 31
0.0
1001
AUSTER_ANSICHT
1002
{
1000
Det03
1002
}
1001
AUSTER_FOLIE
1002
{
1000
NSB00752A
1002
}
  0
LINE
  5
2978
330
1F
100
AcDbEntity
  8
30000_Drilling
  6
Continuous
370
    13
100
AcDbLine
 39
0.25
 10
1287.213834489918
 20
340.7219686170663
 30
0.0
 11
1287.213834489918
 21
337.7219686170665
 31
0.0
1001
AUSTER_ANSICHT
1002
{
1000
Det03
1002
}
1001
AUSTER_FOLIE
1002
{
1000
NSB00752A
1002
}
  0
ARC
  5
2979
330
1F
100
AcDbEntity
  8
30000_Drilling
  6
Continuous
370
    50
100
AcDbCircle
 39
0.25
 10
1287.213834489918
 20
339.2219686170665
 30
0.0
 40
2.5
100
AcDbArc
 50
90.0
 51
270.0
1001
AUSTER_ANSICHT
1002
{
1000
Det03
1002
}
1001
AUSTER_FOLIE
1002
{
1000
NSB00752A
1002
}
  0
LINE
  5
297A
330
1F
100
AcDbEntity
  8
30000_Drilling
  6
Continuous
370
    13
100
AcDbLine
 39
0.25
 10
1250.713834489918
 20
339.2219686170665
 30
0.0
 11
1253.713834489918
 21
339.2219686170665
 31
0.0
1001
AUSTER_ANSICHT
1002
{
1000
Det03
1002
}
1001
AUSTER_FOLIE
1002
{
1000
NSB00752A
1002
}
  0
LINE
  5
297B
330
1F
100
AcDbEntity
  8
30000_Drilling
  6
Continuous
370
    13
100
AcDbLine
 39
0.25
 10
1252.213834489919
 20
340.7219686170663
 30
0.0
 11
1252.213834489919
 21
337.7219686170665
 31
0.0
1001
AUSTER_ANSICHT
1002
{
1000
Det03
1002
}
1001
AUSTER_FOLIE
1002
{
1000
NSB00752A
1002
}
  0
ARC
  5
297C
330
1F
100
AcDbEntity
  8
30000_Drilling
  6
Continuous
370
    50
100
AcDbCircle
 39
0.25
 10
1252.213834489919
 20
339.2219686170665
 30
0.0
 40
2.5
100
AcDbArc
 50
270.0
 51
90.0
1001
AUSTER_ANSICHT
1002
{
1000
Det03
1002
}
1001
AUSTER_FOLIE
1002
{
1000
NSB00752A
1002
}
  0
CIRCLE
  5
297D
330
1F
100
AcDbEntity
  8
10000_FRONT
  6
Continuous
370
    13
100
AcDbCircle
 39
0.25
 10
1104.50760927735
 20
332.1919686170665
 30
0.0
 40
3.1
1001
AUSTER_ANSICHT
1002
{
1000
Det03
1002
}
1001
AUSTER_FOLIE
1002
{
1000
NSB00752A
1002
}
  0
CIRCLE
  5
297E
330
1F
100
AcDbEntity
  8
10000_FRONT
  6
Continuous
370
    13
100
AcDbCircle
 39
0.25
 10
1130.307609277351
 20
296.1919286170664
 30
0.0
 40
3.1
1001
AUSTER_ANSICHT
1002
{
1000
Det03
1002
}
1001
AUSTER_FOLIE
1002
{
1000
NSB00752A
1002
}
  0
CIRCLE
  5
297F
330
1F
100
AcDbEntity
  8
10000_FRONT
  6
Continuous
370
    13
100
AcDbCircle
 39
0.25
 10
1121.707609277351
 20
296.1919286170664
 30
0.0
 40
3.1
1001
AUSTER_ANSICHT
1002
{
1000
Det03
1002
}
1001
AUSTER_FOLIE
1002
{
1000
NSB00752A
1002
}
  0
CIRCLE
  5
2980
330
1F
100
AcDbEntity
  8
10000_FRONT
  6
Continuous
370
    13
100
AcDbCircle
 39
0.25
 10
1113.107609277351
 20
296.1919286170664
 30
0.0
 40
3.1
1001
AUSTER_ANSICHT
1002
{
1000
Det03
1002
}
1001
AUSTER_FOLIE
1002
{
1000
NSB00752A
1002
}
  0
CIRCLE
  5
2981
330
1F
100
AcDbEntity
  8
10000_FRONT
  6
Continuous
370
    13
100
AcDbCircle
 39
0.25
 10
1104.50760927735
 20
296.1919286170664
 30
0.0
 40
3.1
1001
AUSTER_ANSICHT
1002
{
1000
Det03
1002
}
1001
AUSTER_FOLIE
1002
{
1000
NSB00752A
1002
}
  0
CIRCLE
  5
2982
330
1F
100
AcDbEntity
  8
10000_FRONT
  6
Continuous
370
    13
100
AcDbCircle
 39
0.25
 10
1095.90760927735
 20
296.1919286170664
 30
0.0
 40
3.1
1001
AUSTER_ANSICHT
1002
{
1000
Det03
1002
}
1001
AUSTER_FOLIE
1002
{
1000
NSB00752A
1002
}
  0
CIRCLE
  5
2983
330
1F
100
AcDbEntity
  8
10000_FRONT
  6
Continuous
370
    13
100
AcDbCircle
 39
0.25
 10
1130.307609277351
 20
332.1919686170665
 30
0.0
 40
3.1
1001
AUSTER_ANSICHT
1002
{
1000
Det03
1002
}
1001
AUSTER_FOLIE
1002
{
1000
NSB00752A
1002
}
  0
CIRCLE
  5
2984
330
1F
100
AcDbEntity
  8
10000_FRONT
  6
Continuous
370
    13
100
AcDbCircle
 39
0.25
 10
1121.707609277351
 20
332.1919686170665
 30
0.0
 40
3.1
1001
AUSTER_ANSICHT
1002
{
1000
Det03
1002
}
1001
AUSTER_FOLIE
1002
{
1000
NSB00752A
1002
}
  0
CIRCLE
  5
2985
330
1F
100
AcDbEntity
  8
10000_FRONT
  6
Continuous
370
    13
100
AcDbCircle
 39
0.25
 10
1113.107609277351
 20
332.1919686170665
 30
0.0
 40
3.1
1001
AUSTER_ANSICHT
1002
{
1000
Det03
1002
}
1001
AUSTER_FOLIE
1002
{
1000
NSB00752A
1002
}
  0
CIRCLE
  5
2986
330
1F
100
AcDbEntity
  8
10000_FRONT
  6
Continuous
370
    13
100
AcDbCircle
 39
0.25
 10
1095.90760927735
 20
332.1919686170665
 30
0.0
 40
3.1
1001
AUSTER_ANSICHT
1002
{
1000
Det03
1002
}
1001
AUSTER_FOLIE
1002
{
1000
NSB00752A
1002
}
  0
CIRCLE
  5
2987
330
1F
100
AcDbEntity
  8
10000_FRONT
  6
Continuous
370
    13
100
AcDbCircle
 39
0.25
 10
1104.50760927735
 20
332.1919686170665
 30
0.0
 40
3.1
1001
AUSTER_ANSICHT
1002
{
1000
Det03
1002
}
1001
AUSTER_FOLIE
1002
{
1000
NSB00752A
1002
}
  0
CIRCLE
  5
2988
330
1F
100
AcDbEntity
  8
10000_FRONT
  6
Continuous
370
    13
100
AcDbCircle
 39
0.25
 10
1104.50760927735
 20
332.1919686170665
 30
0.0
 40
3.1
1001
AUSTER_ANSICHT
1002
{
1000
Det03
1002
}
1001
AUSTER_FOLIE
1002
{
1000
NSB00752A
1002
}
  0
ARC
  5
2989
330
1F
100
AcDbEntity
  8
10000_FRONT
  6
Continuous
370
    13
100
AcDbCircle
 39
0.25
 10
1130.307609277351
 20
296.1919286170664
 30
0.0
 40
2.850490999999998
100
AcDbArc
 50
167.7604000000001
 51
192.2395999999998
1001
AUSTER_ANSICHT
1002
{
1000
Det03
1002
}
1001
AUSTER_FOLIE
1002
{
1000
NSB00752A
1002
}
  0
ARC
  5
298A
330
1F
100
AcDbEntity
  8
10000_FRONT
  6
Continuous
370
    13
100
AcDbCircle
 39
0.25
 10
1130.307609277351
 20
332.1919686170665
 30
0.0
 40
2.850490999999998
100
AcDbArc
 50
167.7604000000001
 51
192.2395999999998
1001
AUSTER_ANSICHT
1002
{
1000
Det03
1002
}
1001
AUSTER_FOLIE
1002
{
1000
NSB00752A
1002
}
  0
ARC
  5
298B
330
1F
100
AcDbEntity
  8
10000_FRONT
  6
Continuous
370
    13
100
AcDbCircle
 39
0.25
 10
1130.307609277351
 20
296.1919286170664
 30
0.0
 40
1.85
100
AcDbArc
 50
253.8366000000001
 51
286.1633999999999
1001
AUSTER_ANSICHT
1002
{
1000
Det03
1002
}
1001
AUSTER_FOLIE
1002
{
1000
NSB00752A
1002
}
  0
ARC
  5
298C
330
1F
100
AcDbEntity
  8
10000_FRONT
  6
Continuous
370
    13
100
AcDbCircle
 39
0.25
 10
1130.307609277351
 20
332.1919686170665
 30
0.0
 40
1.85
100
AcDbArc
 50
73.83654999999746
 51
106.1633999999998
1001
AUSTER_ANSICHT
1002
{
1000
Det03
1002
}
1001
AUSTER_FOLIE
1002
{
1000
NSB00752A
1002
}
  0
ARC
  5
298D
330
1F
100
AcDbEntity
  8
10000_FRONT
  6
Continuous
370
    13
100
AcDbCircle
 39
0.25
 10
1130.307609277351
 20
296.1919286170664
 30
0.0
 40
1.85
100
AcDbArc
 50
73.83654999999746
 51
106.1633999999998
1001
AUSTER_ANSICHT
1002
{
1000
Det03
1002
}
1001
AUSTER_FOLIE
1002
{
1000
NSB00752A
1002
}
  0
CIRCLE
  5
298E
330
1F
100
AcDbEntity
  8
10000_FRONT
  6
Continuous
370
    13
100
AcDbCircle
 39
0.25
 10
1130.307609277351
 20
296.1919286170664
 30
0.0
 40
3.1
1001
AUSTER_ANSICHT
1002
{
1000
Det03
1002
}
1001
AUSTER_FOLIE
1002
{
1000
NSB00752A
1002
}
  0
ARC
  5
298F
330
1F
100
AcDbEntity
  8
10000_FRONT
  6
Continuous
370
    13
100
AcDbCircle
 39
0.25
 10
1130.307609277351
 20
296.1919286170664
 30
0.0
 40
2.850490999999998
100
AcDbArc
 50
347.7604000000003
 51
12.23959999999984
1001
AUSTER_ANSICHT
1002
{
1000
Det03
1002
}
1001
AUSTER_FOLIE
1002
{
1000
NSB00752A
1002
}
  0
CIRCLE
  5
2990
330
1F
100
AcDbEntity
  8
10000_FRONT
  6
Continuous
370
    13
100
AcDbCircle
 39
0.25
 10
1130.307609277351
 20
332.1919686170665
 30
0.0
 40
3.1
1001
AUSTER_ANSICHT
1002
{
1000
Det03
1002
}
1001
AUSTER_FOLIE
1002
{
1000
NSB00752A
1002
}
  0
CIRCLE
  5
2991
330
1F
100
AcDbEntity
  8
10000_FRONT
  6
Continuous
370
    13
100
AcDbCircle
 39
0.25
 10
1121.707609277351
 20
296.1919286170664
 30
0.0
 40
3.1
1001
AUSTER_ANSICHT
1002
{
1000
Det03
1002
}
1001
AUSTER_FOLIE
1002
{
1000
NSB00752A
1002
}
  0
CIRCLE
  5
2992
330
1F
100
AcDbEntity
  8
10000_FRONT
  6
Continuous
370
    13
100
AcDbCircle
 39
0.25
 10
1113.107609277351
 20
296.1919286170664
 30
0.0
 40
3.1
1001
AUSTER_ANSICHT
1002
{
1000
Det03
1002
}
1001
AUSTER_FOLIE
1002
{
1000
NSB00752A
1002
}
  0
CIRCLE
  5
2993
102
{ACAD_REACTORS
330
39B5
102
}
330
1F
100
AcDbEntity
  8
10000_FRONT
  6
Continuous
370
    13
100
AcDbCircle
 39
0.25
 10
1095.90760927735
 20
296.1919286170664
 30
0.0
 40
3.1
1001
AUSTER_ANSICHT
1002
{
1000
Det03
1002
}
1001
AUSTER_FOLIE
1002
{
1000
NSB00752A
1002
}
  0
ARC
  5
2994
330
1F
100
AcDbEntity
  8
10000_FRONT
  6
Continuous
370
    13
100
AcDbCircle
 39
0.25
 10
1121.707609277351
 20
296.1919286170664
 30
0.0
 40
2.850490999999998
100
AcDbArc
 50
167.7604000000001
 51
192.2395999999998
1001
AUSTER_ANSICHT
1002
{
1000
Det03
1002
}
1001
AUSTER_FOLIE
1002
{
1000
NSB00752A
1002
}
  0
ARC
  5
2995
330
1F
100
AcDbEntity
  8
10000_FRONT
  6
Continuous
370
    13
100
AcDbCircle
 39
0.25
 10
1121.707609277351
 20
296.1919286170664
 30
0.0
 40
2.850490999999998
100
AcDbArc
 50
347.7604000000003
 51
12.23959999999984
1001
AUSTER_ANSICHT
1002
{
1000
Det03
1002
}
1001
AUSTER_FOLIE
1002
{
1000
NSB00752A
1002
}
  0
ARC
  5
2996
330
1F
100
AcDbEntity
  8
10000_FRONT
  6
Continuous
370
    13
100
AcDbCircle
 39
0.25
 10
1121.707609277351
 20
296.1919286170664
 30
0.0
 40
1.85
100
AcDbArc
 50
253.8366000000001
 51
286.1633999999999
1001
AUSTER_ANSICHT
1002
{
1000
Det03
1002
}
1001
AUSTER_FOLIE
1002
{
1000
NSB00752A
1002
}
  0
ARC
  5
2997
330
1F
100
AcDbEntity
  8
10000_FRONT
  6
Continuous
370
    13
100
AcDbCircle
 39
0.25
 10
1121.707609277351
 20
296.1919286170664
 30
0.0
 40
1.85
100
AcDbArc
 50
73.83654999999746
 51
106.1633999999998
1001
AUSTER_ANSICHT
1002
{
1000
Det03
1002
}
1001
AUSTER_FOLIE
1002
{
1000
NSB00752A
1002
}
  0
ARC
  5
2998
330
1F
100
AcDbEntity
  8
10000_FRONT
  6
Continuous
370
    13
100
AcDbCircle
 39
0.25
 10
1113.107609277351
 20
296.1919286170664
 30
0.0
 40
2.850490999999998
100
AcDbArc
 50
167.7604000000001
 51
192.2395999999998
1001
AUSTER_ANSICHT
1002
{
1000
Det03
1002
}
1001
AUSTER_FOLIE
1002
{
1000
NSB00752A
1002
}
  0
ARC
  5
2999
330
1F
100
AcDbEntity
  8
10000_FRONT
  6
Continuous
370
    13
100
AcDbCircle
 39
0.25
 10
1113.107609277351
 20
296.1919286170664
 30
0.0
 40
2.850490999999998
100
AcDbArc
 50
347.7604000000003
 51
12.23959999999984
1001
AUSTER_ANSICHT
1002
{
1000
Det03
1002
}
1001
AUSTER_FOLIE
1002
{
1000
NSB00752A
1002
}
  0
ARC
  5
299A
330
1F
100
AcDbEntity
  8
10000_FRONT
  6
Continuous
370
    13
100
AcDbCircle
 39
0.25
 10
1113.107609277351
 20
296.1919286170664
 30
0.0
 40
1.85
100
AcDbArc
 50
253.8366000000001
 51
286.1633999999999
1001
AUSTER_ANSICHT
1002
{
1000
Det03
1002
}
1001
AUSTER_FOLIE
1002
{
1000
NSB00752A
1002
}
  0
ARC
  5
299B
330
1F
100
AcDbEntity
  8
10000_FRONT
  6
Continuous
370
    13
100
AcDbCircle
 39
0.25
 10
1113.107609277351
 20
296.1919286170664
 30
0.0
 40
1.85
100
AcDbArc
 50
73.83654999999746
 51
106.1633999999998
1001
AUSTER_ANSICHT
1002
{
1000
Det03
1002
}
1001
AUSTER_FOLIE
1002
{
1000
NSB00752A
1002
}
  0
ARC
  5
299C
330
1F
100
AcDbEntity
  8
10000_FRONT
  6
Continuous
370
    13
100
AcDbCircle
 39
0.25
 10
1104.50760927735
 20
296.1919286170664
 30
0.0
 40
1.85
100
AcDbArc
 50
253.8366000000001
 51
286.1633999999999
1001
AUSTER_ANSICHT
1002
{
1000
Det03
1002
}
1001
AUSTER_FOLIE
1002
{
1000
NSB00752A
1002
}
  0
ARC
  5
299D
330
1F
100
AcDbEntity
  8
10000_FRONT
  6
Continuous
370
    13
100
AcDbCircle
 39
0.25
 10
1104.50760927735
 20
296.1919286170664
 30
0.0
 40
1.85
100
AcDbArc
 50
73.83654999999746
 51
106.1633999999998
1001
AUSTER_ANSICHT
1002
{
1000
Det03
1002
}
1001
AUSTER_FOLIE
1002
{
1000
NSB00752A
1002
}
  0
ARC
  5
299E
330
1F
100
AcDbEntity
  8
10000_FRONT
  6
Continuous
370
    13
100
AcDbCircle
 39
0.25
 10
1095.90760927735
 20
296.1919286170664
 30
0.0
 40
2.850490999999998
100
AcDbArc
 50
347.7604000000003
 51
12.23959999999984
1001
AUSTER_ANSICHT
1002
{
1000
Det03
1002
}
1001
AUSTER_FOLIE
1002
{
1000
NSB00752A
1002
}
  0
ARC
  5
299F
330
1F
100
AcDbEntity
  8
10000_FRONT
  6
Continuous
370
    13
100
AcDbCircle
 39
0.25
 10
1095.90760927735
 20
296.1919286170664
 30
0.0
 40
1.85
100
AcDbArc
 50
253.8366000000001
 51
286.1633999999999
1001
AUSTER_ANSICHT
1002
{
1000
Det03
1002
}
1001
AUSTER_FOLIE
1002
{
1000
NSB00752A
1002
}
  0
ARC
  5
29A0
330
1F
100
AcDbEntity
  8
10000_FRONT
  6
Continuous
370
    13
100
AcDbCircle
 39
0.25
 10
1095.90760927735
 20
296.1919286170664
 30
0.0
 40
1.85
100
AcDbArc
 50
73.83654999999746
 51
106.1633999999998
1001
AUSTER_ANSICHT
1002
{
1000
Det03
1002
}
1001
AUSTER_FOLIE
1002
{
1000
NSB00752A
1002
}
  0
ARC
  5
29A1
330
1F
100
AcDbEntity
  8
10000_FRONT
  6
Continuous
370
    13
100
AcDbCircle
 39
0.25
 10
1095.90760927735
 20
296.1919286170664
 30
0.0
 40
2.850490999999998
100
AcDbArc
 50
167.7604000000001
 51
192.2395999999998
1001
AUSTER_ANSICHT
1002
{
1000
Det03
1002
}
1001
AUSTER_FOLIE
1002
{
1000
NSB00752A
1002
}
  0
ARC
  5
29A2
330
1F
100
AcDbEntity
  8
10000_FRONT
  6
Continuous
370
    13
100
AcDbCircle
 39
0.25
 10
1130.307609277351
 20
332.1919686170665
 30
0.0
 40
1.85
100
AcDbArc
 50
253.8366000000001
 51
286.1633999999999
1001
AUSTER_ANSICHT
1002
{
1000
Det03
1002
}
1001
AUSTER_FOLIE
1002
{
1000
NSB00752A
1002
}
  0
ARC
  5
29A3
330
1F
100
AcDbEntity
  8
10000_FRONT
  6
Continuous
370
    13
100
AcDbCircle
 39
0.25
 10
1130.307609277351
 20
332.1919686170665
 30
0.0
 40
2.850490999999998
100
AcDbArc
 50
347.7604000000003
 51
12.23959999999984
1001
AUSTER_ANSICHT
1002
{
1000
Det03
1002
}
1001
AUSTER_FOLIE
1002
{
1000
NSB00752A
1002
}
  0
CIRCLE
  5
29A4
330
1F
100
AcDbEntity
  8
10000_FRONT
  6
Continuous
370
    13
100
AcDbCircle
 39
0.25
 10
1104.50760927735
 20
296.1919286170664
 30
0.0
 40
3.1
1001
AUSTER_ANSICHT
1002
{
1000
Det03
1002
}
1001
AUSTER_FOLIE
1002
{
1000
NSB00752A
1002
}
  0
ARC
  5
29A5
330
1F
100
AcDbEntity
  8
10000_FRONT
  6
Continuous
370
    13
100
AcDbCircle
 39
0.25
 10
1104.50760927735
 20
296.1919286170664
 30
0.0
 40
2.850490999999998
100
AcDbArc
 50
167.7604000000001
 51
192.2395999999998
1001
AUSTER_ANSICHT
1002
{
1000
Det03
1002
}
1001
AUSTER_FOLIE
1002
{
1000
NSB00752A
1002
}
  0
ARC
  5
29A6
330
1F
100
AcDbEntity
  8
10000_FRONT
  6
Continuous
370
    13
100
AcDbCircle
 39
0.25
 10
1104.50760927735
 20
296.1919286170664
 30
0.0
 40
2.850490999999998
100
AcDbArc
 50
347.7604000000003
 51
12.23959999999984
1001
AUSTER_ANSICHT
1002
{
1000
Det03
1002
}
1001
AUSTER_FOLIE
1002
{
1000
NSB00752A
1002
}
  0
CIRCLE
  5
29A7
330
1F
100
AcDbEntity
  8
10000_FRONT
  6
Continuous
370
    13
100
AcDbCircle
 39
0.25
 10
1121.707609277351
 20
332.1919686170665
 30
0.0
 40
3.1
1001
AUSTER_ANSICHT
1002
{
1000
Det03
1002
}
1001
AUSTER_FOLIE
1002
{
1000
NSB00752A
1002
}
  0
CIRCLE
  5
29A8
330
1F
100
AcDbEntity
  8
10000_FRONT
  6
Continuous
370
    13
100
AcDbCircle
 39
0.25
 10
1113.107609277351
 20
332.1919686170665
 30
0.0
 40
3.1
1001
AUSTER_ANSICHT
1002
{
1000
Det03
1002
}
1001
AUSTER_FOLIE
1002
{
1000
NSB00752A
1002
}
  0
CIRCLE
  5
29A9
330
1F
100
AcDbEntity
  8
10000_FRONT
  6
Continuous
370
    13
100
AcDbCircle
 39
0.25
 10
1104.50760927735
 20
332.1919686170665
 30
0.0
 40
3.1
1001
AUSTER_ANSICHT
1002
{
1000
Det03
1002
}
1001
AUSTER_FOLIE
1002
{
1000
NSB00752A
1002
}
  0
CIRCLE
  5
29AA
330
1F
100
AcDbEntity
  8
10000_FRONT
  6
Continuous
370
    13
100
AcDbCircle
 39
0.25
 10
1095.90760927735
 20
332.1919686170665
 30
0.0
 40
3.1
1001
AUSTER_ANSICHT
1002
{
1000
Det03
1002
}
1001
AUSTER_FOLIE
1002
{
1000
NSB00752A
1002
}
  0
ARC
  5
29AB
330
1F
100
AcDbEntity
  8
10000_FRONT
  6
Continuous
370
    13
100
AcDbCircle
 39
0.25
 10
1121.707609277351
 20
332.1919686170665
 30
0.0
 40
1.85
100
AcDbArc
 50
253.8366000000001
 51
286.1633999999999
1001
AUSTER_ANSICHT
1002
{
1000
Det03
1002
}
1001
AUSTER_FOLIE
1002
{
1000
NSB00752A
1002
}
  0
ARC
  5
29AC
330
1F
100
AcDbEntity
  8
10000_FRONT
  6
Continuous
370
    13
100
AcDbCircle
 39
0.25
 10
1121.707609277351
 20
332.1919686170665
 30
0.0
 40
2.850490999999998
100
AcDbArc
 50
167.7604000000001
 51
192.2395999999998
1001
AUSTER_ANSICHT
1002
{
1000
Det03
1002
}
1001
AUSTER_FOLIE
1002
{
1000
NSB00752A
1002
}
  0
ARC
  5
29AD
330
1F
100
AcDbEntity
  8
10000_FRONT
  6
Continuous
370
    13
100
AcDbCircle
 39
0.25
 10
1113.107609277351
 20
332.1919686170665
 30
0.0
 40
2.850490999999998
100
AcDbArc
 50
167.7604000000001
 51
192.2395999999998
1001
AUSTER_ANSICHT
1002
{
1000
Det03
1002
}
1001
AUSTER_FOLIE
1002
{
1000
NSB00752A
1002
}
  0
ARC
  5
29AE
330
1F
100
AcDbEntity
  8
10000_FRONT
  6
Continuous
370
    13
100
AcDbCircle
 39
0.25
 10
1104.50760927735
 20
332.1919686170665
 30
0.0
 40
2.850490999999998
100
AcDbArc
 50
167.7604000000001
 51
192.2395999999998
1001
AUSTER_ANSICHT
1002
{
1000
Det03
1002
}
1001
AUSTER_FOLIE
1002
{
1000
NSB00752A
1002
}
  0
ARC
  5
29AF
330
1F
100
AcDbEntity
  8
10000_FRONT
  6
Continuous
370
    13
100
AcDbCircle
 39
0.25
 10
1121.707609277351
 20
332.1919686170665
 30
0.0
 40
1.85
100
AcDbArc
 50
73.83654999999746
 51
106.1633999999998
1001
AUSTER_ANSICHT
1002
{
1000
Det03
1002
}
1001
AUSTER_FOLIE
1002
{
1000
NSB00752A
1002
}
  0
ARC
  5
29B0
330
1F
100
AcDbEntity
  8
10000_FRONT
  6
Continuous
370
    13
100
AcDbCircle
 39
0.25
 10
1113.107609277351
 20
332.1919686170665
 30
0.0
 40
1.85
100
AcDbArc
 50
73.83654999999746
 51
106.1633999999998
1001
AUSTER_ANSICHT
1002
{
1000
Det03
1002
}
1001
AUSTER_FOLIE
1002
{
1000
NSB00752A
1002
}
  0
ARC
  5
29B1
330
1F
100
AcDbEntity
  8
10000_FRONT
  6
Continuous
370
    13
100
AcDbCircle
 39
0.25
 10
1104.50760927735
 20
332.1919686170665
 30
0.0
 40
1.85
100
AcDbArc
 50
73.83654999999746
 51
106.1633999999998
1001
AUSTER_ANSICHT
1002
{
1000
Det03
1002
}
1001
AUSTER_FOLIE
1002
{
1000
NSB00752A
1002
}
  0
ARC
  5
29B2
330
1F
100
AcDbEntity
  8
10000_FRONT
  6
Continuous
370
    13
100
AcDbCircle
 39
0.25
 10
1121.707609277351
 20
332.1919686170665
 30
0.0
 40
2.850490999999998
100
AcDbArc
 50
347.7604000000003
 51
12.23959999999984
1001
AUSTER_ANSICHT
1002
{
1000
Det03
1002
}
1001
AUSTER_FOLIE
1002
{
1000
NSB00752A
1002
}
  0
ARC
  5
29B3
330
1F
100
AcDbEntity
  8
10000_FRONT
  6
Continuous
370
    13
100
AcDbCircle
 39
0.25
 10
1113.107609277351
 20
332.1919686170665
 30
0.0
 40
2.850490999999998
100
AcDbArc
 50
347.7604000000003
 51
12.23959999999984
1001
AUSTER_ANSICHT
1002
{
1000
Det03
1002
}
1001
AUSTER_FOLIE
1002
{
1000
NSB00752A
1002
}
  0
ARC
  5
29B4
330
1F
100
AcDbEntity
  8
10000_FRONT
  6
Continuous
370
    13
100
AcDbCircle
 39
0.25
 10
1104.50760927735
 20
332.1919686170665
 30
0.0
 40
2.850490999999998
100
AcDbArc
 50
347.7604000000003
 51
12.23959999999984
1001
AUSTER_ANSICHT
1002
{
1000
Det03
1002
}
1001
AUSTER_FOLIE
1002
{
1000
NSB00752A
1002
}
  0
ARC
  5
29B5
330
1F
100
AcDbEntity
  8
10000_FRONT
  6
Continuous
370
    13
100
AcDbCircle
 39
0.25
 10
1113.107609277351
 20
332.1919686170665
 30
0.0
 40
1.85
100
AcDbArc
 50
253.8366000000001
 51
286.1633999999999
1001
AUSTER_ANSICHT
1002
{
1000
Det03
1002
}
1001
AUSTER_FOLIE
1002
{
1000
NSB00752A
1002
}
  0
ARC
  5
29B6
330
1F
100
AcDbEntity
  8
10000_FRONT
  6
Continuous
370
    13
100
AcDbCircle
 39
0.25
 10
1104.50760927735
 20
332.1919686170665
 30
0.0
 40
1.85
100
AcDbArc
 50
253.8366000000001
 51
286.1633999999999
1001
AUSTER_ANSICHT
1002
{
1000
Det03
1002
}
1001
AUSTER_FOLIE
1002
{
1000
NSB00752A
1002
}
  0
ARC
  5
29B7
102
{ACAD_REACTORS
330
39B5
102
}
330
1F
100
AcDbEntity
  8
10000_FRONT
  6
Continuous
370
    13
100
AcDbCircle
 39
0.25
 10
1095.90760927735
 20
332.1919686170665
 30
0.0
 40
1.85
100
AcDbArc
 50
73.83654999999746
 51
106.1633999999998
1001
AUSTER_ANSICHT
1002
{
1000
Det03
1002
}
1001
AUSTER_FOLIE
1002
{
1000
NSB00752A
1002
}
  0
ARC
  5
29B8
330
1F
100
AcDbEntity
  8
10000_FRONT
  6
Continuous
370
    13
100
AcDbCircle
 39
0.25
 10
1095.90760927735
 20
332.1919686170665
 30
0.0
 40
2.850490999999998
100
AcDbArc
 50
347.7604000000003
 51
12.23959999999984
1001
AUSTER_ANSICHT
1002
{
1000
Det03
1002
}
1001
AUSTER_FOLIE
1002
{
1000
NSB00752A
1002
}
  0
ARC
  5
29B9
330
1F
100
AcDbEntity
  8
10000_FRONT
  6
Continuous
370
    13
100
AcDbCircle
 39
0.25
 10
1095.90760927735
 20
332.1919686170665
 30
0.0
 40
1.85
100
AcDbArc
 50
253.8366000000001
 51
286.1633999999999
1001
AUSTER_ANSICHT
1002
{
1000
Det03
1002
}
1001
AUSTER_FOLIE
1002
{
1000
NSB00752A
1002
}
  0
ARC
  5
29BA
330
1F
100
AcDbEntity
  8
10000_FRONT
  6
Continuous
370
    13
100
AcDbCircle
 39
0.25
 10
1095.90760927735
 20
332.1919686170665
 30
0.0
 40
2.850490999999998
100
AcDbArc
 50
167.7604000000001
 51
192.2395999999998
1001
AUSTER_ANSICHT
1002
{
1000
Det03
1002
}
1001
AUSTER_FOLIE
1002
{
1000
NSB00752A
1002
}
  0
ARC
  5
29BB
330
1F
100
AcDbEntity
  8
11000_Left
  6
Continuous
370
    50
100
AcDbCircle
 39
0.5
 10
1230.696825303257
 20
340.9219686170664
 30
0.0
 40
0.8
100
AcDbArc
 50
5.268494999999306
 51
90.0
1001
AUSTER_ANSICHT
1002
{
1000
Det03
1002
}
1001
AUSTER_FOLIE
1002
{
1000
NSB00752A
1002
}
  0
ARC
  5
29BC
330
1F
100
AcDbEntity
  8
11000_Left
  6
Continuous
370
    50
100
AcDbCircle
 39
0.5
 10
1230.696825303257
 20
287.5219286170663
 30
0.0
 40
0.8
100
AcDbArc
 50
270.0
 51
354.7314999999993
1001
AUSTER_ANSICHT
1002
{
1000
Det03
1002
}
1001
AUSTER_FOLIE
1002
{
1000
NSB00752A
1002
}
  0
ARC
  5
29BD
330
1F
100
AcDbEntity
  8
11000_Left
  6
Continuous
370
    50
100
AcDbCircle
 39
0.5
 10
1230.696825303257
 20
340.9219686170664
 30
0.0
 40
0.8
100
AcDbArc
 50
5.268494999999306
 51
90.0
1001
AUSTER_ANSICHT
1002
{
1000
Det03
1002
}
1001
AUSTER_FOLIE
1002
{
1000
NSB00752A
1002
}
  0
ARC
  5
29BE
330
1F
100
AcDbEntity
  8
11000_Left
  6
Continuous
370
    50
100
AcDbCircle
 39
0.5
 10
1230.696825303257
 20
287.5219286170663
 30
0.0
 40
0.8
100
AcDbArc
 50
270.0
 51
354.7314999999993
1001
AUSTER_ANSICHT
1002
{
1000
Det03
1002
}
1001
AUSTER_FOLIE
1002
{
1000
NSB00752A
1002
}
  0
ARC
  5
29BF
330
1F
100
AcDbEntity
  8
11000_Left
370
    13
100
AcDbCircle
 39
0.25
 10
1158.127025303257
 20
302.8222286170664
 30
0.0
 40
1.0
100
AcDbArc
 50
180.0
 51
270.0
1001
AUSTER_ANSICHT
1002
{
1000
Det03
1002
}
1001
AUSTER_FOLIE
1002
{
1000
NSB00752A
1002
}
  0
ARC
  5
29C0
330
1F
100
AcDbEntity
  8
11000_Left
370
    13
100
AcDbCircle
 39
0.25
 10
1158.127025303257
 20
325.8222786170664
 30
0.0
 40
1.0
100
AcDbArc
 50
90.0
 51
180.0
1001
AUSTER_ANSICHT
1002
{
1000
Det03
1002
}
1001
AUSTER_FOLIE
1002
{
1000
NSB00752A
1002
}
  0
LINE
  5
29C1
330
1F
100
AcDbEntity
  8
11000_Left
  6
Continuous
370
    50
100
AcDbLine
 39
0.25
 10
1232.127125303257
 20
300.9719286170664
 30
0.0
 11
1232.127125303257
 21
327.4719686170665
 31
0.0
1001
AUSTER_ANSICHT
1002
{
1000
Det03
1002
}
1001
AUSTER_FOLIE
1002
{
1000
NSB00752A
1002
}
  0
LINE
  5
29C2
330
1F
100
AcDbEntity
  8
10000_FRONT
  6
Continuous
370
    13
100
AcDbLine
 39
0.25
 10
1091.40768927735
 20
286.6919286170664
 30
0.0
 11
1134.807689277349
 21
286.6919286170664
 31
0.0
1001
AUSTER_ANSICHT
1002
{
1000
Det03
1002
}
1001
AUSTER_FOLIE
1002
{
1000
NSB00752A
1002
}
  0
LINE
  5
29C3
330
1F
100
AcDbEntity
  8
11000_Left
370
    13
100
AcDbLine
 39
0.5
 10
1164.627025303257
 20
296.6722286170664
 30
-1.0
 11
1164.627025303257
 21
301.8222286170663
 31
-1.0
1001
AUSTER_ANSICHT
1002
{
1000
Det03
1002
}
1001
AUSTER_FOLIE
1002
{
1000
NSB00752A
1002
}
  0
LINE
  5
29C4
330
1F
100
AcDbEntity
  8
11000_Left
370
    13
100
AcDbLine
 39
0.5
 10
1164.627025303257
 20
331.9722786170662
 30
-1.0
 11
1164.627025303257
 21
326.8222786170664
 31
-1.0
1001
AUSTER_ANSICHT
1002
{
1000
Det03
1002
}
1001
AUSTER_FOLIE
1002
{
1000
NSB00752A
1002
}
  0
LINE
  5
29C5
330
1F
100
AcDbEntity
  8
11000_Left
  6
Continuous
370
    13
100
AcDbLine
 39
0.5
 10
1163.627025303257
 20
296.6722286170664
 30
-1.0
 11
1164.627025303257
 21
296.6722286170664
 31
-1.0
1001
AUSTER_ANSICHT
1002
{
1000
Det03
1002
}
1001
AUSTER_FOLIE
1002
{
1000
NSB00752A
1002
}
  0
LINE
  5
29C6
330
1F
100
AcDbEntity
  8
11000_Left
  6
Continuous
370
    50
100
AcDbLine
 39
0.5
 10
1164.627125303258
 20
296.6731286170664
 30
0.0
 11
1164.627125303258
 21
294.6719286170664
 31
0.0
1001
AUSTER_ANSICHT
1002
{
1000
Det03
1002
}
1001
AUSTER_FOLIE
1002
{
1000
NSB00752A
1002
}
  0
LINE
  5
29C7
330
1F
100
AcDbEntity
  8
11000_Left
  6
Continuous
370
    50
100
AcDbLine
 39
0.5
 10
1159.627125303257
 20
294.6719286170664
 30
0.0
 11
1164.627125303258
 21
294.6719286170664
 31
0.0
1001
AUSTER_ANSICHT
1002
{
1000
Det03
1002
}
1001
AUSTER_FOLIE
1002
{
1000
NSB00752A
1002
}
  0
LINE
  5
29C8
330
1F
100
AcDbEntity
  8
11000_Left
  6
Continuous
370
    50
100
AcDbLine
 39
0.5
 10
1159.627125303257
 20
335.1719686170663
 30
0.0
 11
1164.627125303258
 21
335.1719686170663
 31
0.0
1001
AUSTER_ANSICHT
1002
{
1000
Det03
1002
}
1001
AUSTER_FOLIE
1002
{
1000
NSB00752A
1002
}
  0
LINE
  5
29C9
330
1F
100
AcDbEntity
  8
11000_Left
  6
Continuous
370
    50
100
AcDbLine
 39
0.5
 10
1167.227125303258
 20
338.1719686170663
 30
0.0
 11
1189.727125303257
 21
338.1719686170663
 31
0.0
1001
AUSTER_ANSICHT
1002
{
1000
Det03
1002
}
1001
AUSTER_FOLIE
1002
{
1000
NSB00752A
1002
}
  0
LINE
  5
29CA
330
1F
100
AcDbEntity
  8
11000_Left
  6
Continuous
370
    50
100
AcDbLine
 39
0.5
 10
1164.627125303258
 20
335.1719686170663
 30
0.0
 11
1164.627125303258
 21
296.6731286170664
 31
0.0
1001
AUSTER_ANSICHT
1002
{
1000
Det03
1002
}
1001
AUSTER_FOLIE
1002
{
1000
NSB00752A
1002
}
  0
LINE
  5
29CB
330
1F
100
AcDbEntity
  8
11000_Left
  6
Continuous
370
    13
100
AcDbLine
 39
0.25
 10
1195.827125303257
 20
336.4219686170664
 30
0.0
 11
1196.866325303258
 21
337.0219686170664
 31
0.0
1001
AUSTER_ANSICHT
1002
{
1000
Det03
1002
}
1001
AUSTER_FOLIE
1002
{
1000
NSB00752A
1002
}
  0
LINE
  5
29CC
330
1F
100
AcDbEntity
  8
11000_Left
  6
Continuous
370
    13
100
AcDbLine
 39
0.25
 10
1195.827125303257
 20
291.9219286170664
 30
0.0
 11
1195.827125303257
 21
294.9219286170664
 31
0.0
1001
AUSTER_ANSICHT
1002
{
1000
Det03
1002
}
1001
AUSTER_FOLIE
1002
{
1000
NSB00752A
1002
}
  0
LINE
  5
29CD
330
1F
100
AcDbEntity
  8
11000_Left
  6
Continuous
370
    13
100
AcDbLine
 39
0.25
 10
1195.827125303257
 20
333.4219686170663
 30
0.0
 11
1195.827125303257
 21
336.4219686170664
 31
0.0
1001
AUSTER_ANSICHT
1002
{
1000
Det03
1002
}
1001
AUSTER_FOLIE
1002
{
1000
NSB00752A
1002
}
  0
LINE
  5
29CE
330
1F
100
AcDbEntity
  8
11000_Left
  6
Continuous
370
    13
100
AcDbLine
 39
0.25
 10
1196.866325303258
 20
291.3219286170664
 30
0.0
 11
1195.827125303257
 21
291.9219286170664
 31
0.0
1001
AUSTER_ANSICHT
1002
{
1000
Det03
1002
}
1001
AUSTER_FOLIE
1002
{
1000
NSB00752A
1002
}
  0
LINE
  5
29CF
330
1F
100
AcDbEntity
  8
11000_Left
  6
Continuous
370
    13
100
AcDbLine
 39
0.25
 10
1195.827125303257
 20
294.9219286170664
 30
0.0
 11
1195.827125303257
 21
299.9219286170664
 31
0.0
1001
AUSTER_ANSICHT
1002
{
1000
Det03
1002
}
1001
AUSTER_FOLIE
1002
{
1000
NSB00752A
1002
}
  0
LINE
  5
29D0
330
1F
100
AcDbEntity
  8
11000_Left
  6
Continuous
370
    13
100
AcDbLine
 39
0.25
 10
1195.827125303257
 20
328.4219686170664
 30
0.0
 11
1195.827125303257
 21
333.4219686170663
 31
0.0
1001
AUSTER_ANSICHT
1002
{
1000
Det03
1002
}
1001
AUSTER_FOLIE
1002
{
1000
NSB00752A
1002
}
  0
LINE
  5
29D1
330
1F
100
AcDbEntity
  8
11000_Left
  6
Continuous
370
    50
100
AcDbLine
 39
0.5
 10
1189.727125303257
 20
290.1719286170664
 30
0.0
 11
1167.227125303258
 21
290.1719286170664
 31
0.0
1001
AUSTER_ANSICHT
1002
{
1000
Det03
1002
}
1001
AUSTER_FOLIE
1002
{
1000
NSB00752A
1002
}
  0
LINE
  5
29D2
330
1F
100
AcDbEntity
  8
11000_Left
  6
Continuous
370
    13
100
AcDbLine
 39
0.5
 10
1163.227125303258
 20
335.1719686170663
 30
0.0
 11
1163.227125303258
 21
331.1719686170663
 31
0.0
1001
AUSTER_ANSICHT
1002
{
1000
Det03
1002
}
1001
AUSTER_FOLIE
1002
{
1000
NSB00752A
1002
}
  0
LINE
  5
29D3
330
1F
100
AcDbEntity
  8
11000_Left
  6
Continuous
370
    13
100
AcDbLine
 39
0.5
 10
1162.727125303257
 20
330.1719686170664
 30
0.0
 11
1163.227125303258
 21
331.1719686170663
 31
0.0
1001
AUSTER_ANSICHT
1002
{
1000
Det03
1002
}
1001
AUSTER_FOLIE
1002
{
1000
NSB00752A
1002
}
  0
LINE
  5
29D4
330
1F
100
AcDbEntity
  8
11000_Left
  6
Continuous
370
    13
100
AcDbLine
 39
0.5
 10
1162.027125303257
 20
330.1719686170664
 30
0.0
 11
1162.727125303257
 21
330.1719686170664
 31
0.0
1001
AUSTER_ANSICHT
1002
{
1000
Det03
1002
}
1001
AUSTER_FOLIE
1002
{
1000
NSB00752A
1002
}
  0
LINE
  5
29D5
330
1F
100
AcDbEntity
  8
11000_Left
  6
Continuous
370
    13
100
AcDbLine
 39
0.5
 10
1160.727125303258
 20
335.1719686170663
 30
0.0
 11
1162.027125303257
 21
330.1719686170664
 31
0.0
1001
AUSTER_ANSICHT
1002
{
1000
Det03
1002
}
1001
AUSTER_FOLIE
1002
{
1000
NSB00752A
1002
}
  0
LINE
  5
29D6
330
1F
100
AcDbEntity
  8
11000_Left
  6
Continuous
370
    13
100
AcDbLine
 39
0.5
 10
1162.909125303257
 20
297.6719286170664
 30
0.0
 11
1159.727125303257
 21
294.6719286170664
 31
0.0
1001
AUSTER_ANSICHT
1002
{
1000
Det03
1002
}
1001
AUSTER_FOLIE
1002
{
1000
NSB00752A
1002
}
  0
LINE
  5
29D7
330
1F
100
AcDbEntity
  8
11000_Left
  6
Continuous
370
    13
100
AcDbLine
 39
0.5
 10
1163.409125303258
 20
297.6719286170664
 30
0.0
 11
1162.909125303257
 21
297.6719286170664
 31
0.0
1001
AUSTER_ANSICHT
1002
{
1000
Det03
1002
}
1001
AUSTER_FOLIE
1002
{
1000
NSB00752A
1002
}
  0
LINE
  5
29D8
330
1F
100
AcDbEntity
  8
11000_Left
  6
Continuous
370
    13
100
AcDbLine
 39
0.5
 10
1163.677125303258
 20
296.6719286170664
 30
0.0
 11
1163.409125303258
 21
297.6719286170664
 31
0.0
1001
AUSTER_ANSICHT
1002
{
1000
Det03
1002
}
1001
AUSTER_FOLIE
1002
{
1000
NSB00752A
1002
}
  0
LINE
  5
29D9
330
1F
100
AcDbEntity
  8
11000_Left
  6
Continuous
370
    50
100
AcDbLine
 39
0.5
 10
1167.227125303258
 20
338.1719686170663
 30
0.0
 11
1189.727125303257
 21
338.1719686170663
 31
0.0
1001
AUSTER_ANSICHT
1002
{
1000
Det03
1002
}
1001
AUSTER_FOLIE
1002
{
1000
NSB00752A
1002
}
  0
LINE
  5
29DA
330
1F
100
AcDbEntity
  8
11000_Left
  6
Continuous
370
    50
100
AcDbLine
 39
0.5
 10
1159.627125303257
 20
294.6719286170664
 30
0.0
 11
1164.627125303258
 21
294.6719286170664
 31
0.0
1001
AUSTER_ANSICHT
1002
{
1000
Det03
1002
}
1001
AUSTER_FOLIE
1002
{
1000
NSB00752A
1002
}
  0
LINE
  5
29DB
330
1F
100
AcDbEntity
  8
11000_Left
  6
Continuous
370
    50
100
AcDbLine
 39
0.5
 10
1159.627125303257
 20
335.1719686170663
 30
0.0
 11
1164.627125303258
 21
335.1719686170663
 31
0.0
1001
AUSTER_ANSICHT
1002
{
1000
Det03
1002
}
1001
AUSTER_FOLIE
1002
{
1000
NSB00752A
1002
}
  0
LINE
  5
29DC
330
1F
100
AcDbEntity
  8
11000_Left
  6
Continuous
370
    50
100
AcDbLine
 39
0.5
 10
1164.627125303258
 20
335.1719686170663
 30
0.0
 11
1164.627125303258
 21
296.6731286170664
 31
0.0
1001
AUSTER_ANSICHT
1002
{
1000
Det03
1002
}
1001
AUSTER_FOLIE
1002
{
1000
NSB00752A
1002
}
  0
LINE
  5
29DD
330
1F
100
AcDbEntity
  8
11000_Left
  6
Continuous
370
    50
100
AcDbLine
 39
0.5
 10
1164.627125303258
 20
296.6731286170664
 30
0.0
 11
1164.627125303258
 21
294.6719286170664
 31
0.0
1001
AUSTER_ANSICHT
1002
{
1000
Det03
1002
}
1001
AUSTER_FOLIE
1002
{
1000
NSB00752A
1002
}
  0
LINE
  5
29DE
330
1F
100
AcDbEntity
  8
11000_Left
  6
Continuous
370
    13
100
AcDbLine
 39
0.25
 10
1163.677125303258
 20
296.6719286170664
 30
0.0
 11
1164.627125303258
 21
296.6731286170664
 31
0.0
1001
AUSTER_ANSICHT
1002
{
1000
Det03
1002
}
1001
AUSTER_FOLIE
1002
{
1000
NSB00752A
1002
}
  0
LINE
  5
29DF
330
1F
100
AcDbEntity
  8
11000_Left
  6
Continuous
370
    50
100
AcDbLine
 39
0.25
 10
1218.226725303257
 20
286.7220286170664
 30
0.0
 11
1221.526725303258
 21
286.7220286170664
 31
0.0
1001
AUSTER_ANSICHT
1002
{
1000
Det03
1002
}
1001
AUSTER_FOLIE
1002
{
1000
NSB00752A
1002
}
  0
LINE
  5
29E0
330
1F
100
AcDbEntity
  8
11000_Left
370
    13
100
AcDbLine
 39
0.25
 10
1163.627025303257
 20
299.1722286170664
 30
-1.0
 11
1163.627025303257
 21
296.6722286170664
 31
-1.0
1001
AUSTER_ANSICHT
1002
{
1000
Det03
1002
}
1001
AUSTER_FOLIE
1002
{
1000
NSB00752A
1002
}
  0
LINE
  5
29E1
330
1F
100
AcDbEntity
  8
11000_Left
370
    13
100
AcDbLine
 39
0.25
 10
1163.627025303257
 20
331.9722786170662
 30
-1.0
 11
1164.627025303257
 21
331.9722786170662
 31
-1.0
1001
AUSTER_ANSICHT
1002
{
1000
Det03
1002
}
1001
AUSTER_FOLIE
1002
{
1000
NSB00752A
1002
}
  0
LINE
  5
29E2
330
1F
100
AcDbEntity
  8
11000_Left
370
    13
100
AcDbLine
 39
0.25
 10
1163.627025303257
 20
329.4722786170664
 30
-1.0
 11
1163.627025303257
 21
331.9722786170662
 31
-1.0
1001
AUSTER_ANSICHT
1002
{
1000
Det03
1002
}
1001
AUSTER_FOLIE
1002
{
1000
NSB00752A
1002
}
  0
LINE
  5
29E3
330
1F
100
AcDbEntity
  8
11000_Left
370
    13
100
AcDbLine
 39
0.25
 10
1159.627025303257
 20
323.8222786170664
 30
-1.0
 11
1159.627025303257
 21
314.3222786170664
 31
-1.0
1001
AUSTER_ANSICHT
1002
{
1000
Det03
1002
}
1001
AUSTER_FOLIE
1002
{
1000
NSB00752A
1002
}
  0
LINE
  5
29E4
330
1F
100
AcDbEntity
  8
11000_Left
370
    13
100
AcDbLine
 39
0.25
 10
1159.627025303257
 20
304.8222286170664
 30
-1.0
 11
1159.627025303257
 21
314.3222786170664
 31
-1.0
1001
AUSTER_ANSICHT
1002
{
1000
Det03
1002
}
1001
AUSTER_FOLIE
1002
{
1000
NSB00752A
1002
}
  0
LINE
  5
29E5
330
1F
100
AcDbEntity
  8
11000_Left
370
    13
100
AcDbLine
 39
0.25
 10
1162.627025303257
 20
328.7222786170663
 30
-1.0
 11
1162.627025303257
 21
328.9722786170664
 31
-1.0
1001
AUSTER_ANSICHT
1002
{
1000
Det03
1002
}
1001
AUSTER_FOLIE
1002
{
1000
NSB00752A
1002
}
  0
LINE
  5
29E6
330
1F
100
AcDbEntity
  8
11000_Left
370
    13
100
AcDbLine
 39
0.25
 10
1163.127025303257
 20
328.9722786170664
 30
-1.0
 11
1162.627025303257
 21
328.9722786170664
 31
-1.0
1001
AUSTER_ANSICHT
1002
{
1000
Det03
1002
}
1001
AUSTER_FOLIE
1002
{
1000
NSB00752A
1002
}
  0
LINE
  5
29E7
330
1F
100
AcDbEntity
  8
11000_Left
370
    13
100
AcDbLine
 39
0.25
 10
1164.627025303257
 20
326.8222786170664
 30
-1.0
 11
1162.627025303257
 21
324.8222786170665
 31
-1.0
1001
AUSTER_ANSICHT
1002
{
1000
Det03
1002
}
1001
AUSTER_FOLIE
1002
{
1000
NSB00752A
1002
}
  0
LINE
  5
29E8
330
1F
100
AcDbEntity
  8
11000_Left
370
    13
100
AcDbLine
 39
0.25
 10
1162.627025303257
 20
299.9222286170664
 30
-1.0
 11
1162.627025303257
 21
299.6722286170664
 31
-1.0
1001
AUSTER_ANSICHT
1002
{
1000
Det03
1002
}
1001
AUSTER_FOLIE
1002
{
1000
NSB00752A
1002
}
  0
LINE
  5
29E9
330
1F
100
AcDbEntity
  8
11000_Left
370
    13
100
AcDbLine
 39
0.25
 10
1163.127025303257
 20
299.6722286170664
 30
-1.0
 11
1162.627025303257
 21
299.6722286170664
 31
-1.0
1001
AUSTER_ANSICHT
1002
{
1000
Det03
1002
}
1001
AUSTER_FOLIE
1002
{
1000
NSB00752A
1002
}
  0
LINE
  5
29EA
330
1F
100
AcDbEntity
  8
11000_Left
370
    13
100
AcDbLine
 39
0.25
 10
1164.627025303257
 20
301.8222286170663
 30
-1.0
 11
1162.627025303257
 21
303.8222286170663
 31
-1.0
1001
AUSTER_ANSICHT
1002
{
1000
Det03
1002
}
1001
AUSTER_FOLIE
1002
{
1000
NSB00752A
1002
}
  0
LINE
  5
29EB
330
1F
100
AcDbEntity
  8
11000_Left
370
    13
100
AcDbLine
 39
0.25
 10
1160.627025303258
 20
324.8222786170665
 30
-1.0
 11
1162.627025303257
 21
324.8222786170665
 31
-1.0
1001
AUSTER_ANSICHT
1002
{
1000
Det03
1002
}
1001
AUSTER_FOLIE
1002
{
1000
NSB00752A
1002
}
  0
LINE
  5
29EC
330
1F
100
AcDbEntity
  8
11000_Left
370
    13
100
AcDbLine
 39
0.25
 10
1160.627025303258
 20
303.8222286170663
 30
-1.0
 11
1162.627025303257
 21
303.8222286170663
 31
-1.0
1001
AUSTER_ANSICHT
1002
{
1000
Det03
1002
}
1001
AUSTER_FOLIE
1002
{
1000
NSB00752A
1002
}
  0
LINE
  5
29ED
330
1F
100
AcDbEntity
  8
11000_Left
370
    13
100
AcDbLine
 39
0.25
 10
1160.727025303257
 20
301.8222286170663
 30
0.0
 11
1158.127025303257
 21
301.8222286170663
 31
0.0
1001
AUSTER_ANSICHT
1002
{
1000
Det03
1002
}
1001
AUSTER_FOLIE
1002
{
1000
NSB00752A
1002
}
  0
LINE
  5
29EE
330
1F
100
AcDbEntity
  8
11000_Left
370
    13
100
AcDbLine
 39
0.25
 10
1157.127025303257
 20
325.8222786170664
 30
0.0
 11
1157.127025303257
 21
302.8222286170664
 31
0.0
1001
AUSTER_ANSICHT
1002
{
1000
Det03
1002
}
1001
AUSTER_FOLIE
1002
{
1000
NSB00752A
1002
}
  0
LINE
  5
29EF
330
1F
100
AcDbEntity
  8
11000_Left
370
    13
100
AcDbLine
 39
0.25
 10
1160.727025303257
 20
326.8222786170664
 30
0.0
 11
1158.127025303257
 21
326.8222786170664
 31
0.0
1001
AUSTER_ANSICHT
1002
{
1000
Det03
1002
}
1001
AUSTER_FOLIE
1002
{
1000
NSB00752A
1002
}
  0
LINE
  5
29F0
330
1F
100
AcDbEntity
  8
30000_Drilling
  6
Continuous
370
    50
100
AcDbLine
 39
0.25
 10
1249.713834489919
 20
291.7219286170663
 30
0.0
 11
1252.213834489919
 21
291.7219286170663
 31
0.0
1001
AUSTER_ANSICHT
1002
{
1000
Det03
1002
}
1001
AUSTER_FOLIE
1002
{
1000
NSB00752A
1002
}
  0
LINE
  5
29F1
330
1F
100
AcDbEntity
  8
30000_Drilling
  6
Continuous
370
    50
100
AcDbLine
 39
0.25
 10
1249.713834489919
 20
286.7519286170664
 30
0.0
 11
1249.713834489919
 21
291.7219286170663
 31
0.0
1001
AUSTER_ANSICHT
1002
{
1000
Det03
1002
}
1001
AUSTER_FOLIE
1002
{
1000
NSB00752A
1002
}
  0
LINE
  5
29F2
330
1F
100
AcDbEntity
  8
30000_Drilling
  6
Continuous
370
    50
100
AcDbLine
 39
0.25
 10
1249.713834489919
 20
286.7519286170664
 30
0.0
 11
1252.213834489919
 21
286.7219286170664
 31
0.0
1001
AUSTER_ANSICHT
1002
{
1000
Det03
1002
}
1001
AUSTER_FOLIE
1002
{
1000
NSB00752A
1002
}
  0
LINE
  5
29F3
330
1F
100
AcDbEntity
  8
30000_Drilling
  6
Continuous
370
    50
100
AcDbLine
 39
0.25
 10
1289.713834489919
 20
291.7219286170663
 30
0.0
 11
1287.213834489918
 21
291.7219286170663
 31
0.0
1001
AUSTER_ANSICHT
1002
{
1000
Det03
1002
}
1001
AUSTER_FOLIE
1002
{
1000
NSB00752A
1002
}
  0
LINE
  5
29F4
330
1F
100
AcDbEntity
  8
30000_Drilling
  6
Continuous
370
    50
100
AcDbLine
 39
0.25
 10
1289.713834489919
 20
286.7519286170664
 30
0.0
 11
1289.713834489919
 21
291.7219286170663
 31
0.0
1001
AUSTER_ANSICHT
1002
{
1000
Det03
1002
}
1001
AUSTER_FOLIE
1002
{
1000
NSB00752A
1002
}
  0
LINE
  5
29F5
330
1F
100
AcDbEntity
  8
30000_Drilling
  6
Continuous
370
    50
100
AcDbLine
 39
0.25
 10
1289.713834489919
 20
286.7519286170664
 30
0.0
 11
1287.213834489918
 21
286.7219286170664
 31
0.0
1001
AUSTER_ANSICHT
1002
{
1000
Det03
1002
}
1001
AUSTER_FOLIE
1002
{
1000
NSB00752A
1002
}
  0
LINE
  5
29F6
330
1F
100
AcDbEntity
  8
30000_Drilling
  6
Continuous
370
    50
100
AcDbLine
 39
0.25
 10
1289.713834489919
 20
336.7219686170664
 30
0.0
 11
1287.213834489918
 21
336.7219686170664
 31
0.0
1001
AUSTER_ANSICHT
1002
{
1000
Det03
1002
}
1001
AUSTER_FOLIE
1002
{
1000
NSB00752A
1002
}
  0
LINE
  5
29F7
330
1F
100
AcDbEntity
  8
30000_Drilling
  6
Continuous
370
    50
100
AcDbLine
 39
0.25
 10
1289.713834489919
 20
341.6919686170664
 30
0.0
 11
1289.713834489919
 21
336.7219686170664
 31
0.0
1001
AUSTER_ANSICHT
1002
{
1000
Det03
1002
}
1001
AUSTER_FOLIE
1002
{
1000
NSB00752A
1002
}
  0
LINE
  5
29F8
330
1F
100
AcDbEntity
  8
30000_Drilling
  6
Continuous
370
    50
100
AcDbLine
 39
0.25
 10
1289.713834489919
 20
341.6919686170664
 30
0.0
 11
1287.213834489918
 21
341.7219686170664
 31
0.0
1001
AUSTER_ANSICHT
1002
{
1000
Det03
1002
}
1001
AUSTER_FOLIE
1002
{
1000
NSB00752A
1002
}
  0
LINE
  5
29F9
330
1F
100
AcDbEntity
  8
30000_Drilling
  6
Continuous
370
    50
100
AcDbLine
 39
0.25
 10
1249.713834489919
 20
336.7219686170664
 30
0.0
 11
1252.213834489919
 21
336.7219686170664
 31
0.0
1001
AUSTER_ANSICHT
1002
{
1000
Det03
1002
}
1001
AUSTER_FOLIE
1002
{
1000
NSB00752A
1002
}
  0
LINE
  5
29FA
330
1F
100
AcDbEntity
  8
30000_Drilling
  6
Continuous
370
    50
100
AcDbLine
 39
0.25
 10
1249.713834489919
 20
341.6919686170664
 30
0.0
 11
1249.713834489919
 21
336.7219686170664
 31
0.0
1001
AUSTER_ANSICHT
1002
{
1000
Det03
1002
}
1001
AUSTER_FOLIE
1002
{
1000
NSB00752A
1002
}
  0
LINE
  5
29FB
330
1F
100
AcDbEntity
  8
30000_Drilling
  6
Continuous
370
    50
100
AcDbLine
 39
0.25
 10
1249.713834489919
 20
341.6919686170664
 30
0.0
 11
1252.213834489919
 21
341.7219686170664
 31
0.0
1001
AUSTER_ANSICHT
1002
{
1000
Det03
1002
}
1001
AUSTER_FOLIE
1002
{
1000
NSB00752A
1002
}
  0
LINE
  5
29FC
330
1F
100
AcDbEntity
  8
10000_FRONT
  6
Continuous
370
    50
100
AcDbLine
 39
0.5
 10
1090.607689277351
 20
285.4419286170664
 30
0.0
 11
1135.607689277351
 21
285.4419286170664
 31
0.0
1001
AUSTER_ANSICHT
1002
{
1000
Det03
1002
}
1001
AUSTER_FOLIE
1002
{
1000
NSB00752A
1002
}
  0
LINE
  5
29FD
330
1F
100
AcDbEntity
  8
10000_FRONT
  6
Continuous
370
    50
100
AcDbLine
 39
0.25
 10
1135.607689277351
 20
285.4419286170664
 30
0.0
 11
1135.607689277351
 21
342.9419686170664
 31
0.0
1001
AUSTER_ANSICHT
1002
{
1000
Det03
1002
}
1001
AUSTER_FOLIE
1002
{
1000
NSB00752A
1002
}
  0
LINE
  5
29FE
330
1F
100
AcDbEntity
  8
10000_FRONT
  6
Continuous
370
    50
100
AcDbLine
 39
0.25
 10
1090.607689277351
 20
342.9419686170664
 30
0.0
 11
1090.607689277351
 21
285.4419286170664
 31
0.0
1001
AUSTER_ANSICHT
1002
{
1000
Det03
1002
}
1001
AUSTER_FOLIE
1002
{
1000
NSB00752A
1002
}
  0
LINE
  5
29FF
330
1F
100
AcDbEntity
  8
10000_FRONT
  6
Continuous
370
    13
100
AcDbLine
 39
0.5
 10
1135.607689277351
 20
286.6919286170664
 30
0.0
 11
1090.607689277351
 21
286.6919286170664
 31
0.0
1001
AUSTER_ANSICHT
1002
{
1000
Det03
1002
}
1001
AUSTER_FOLIE
1002
{
1000
NSB00752A
1002
}
  0
LINE
  5
2A00
330
1F
100
AcDbEntity
  8
10000_FRONT
  6
Continuous
370
    13
100
AcDbLine
 39
0.25
 10
1090.607689277351
 20
341.6919686170664
 30
0.0
 11
1135.607689277351
 21
341.6919686170664
 31
0.0
1001
AUSTER_ANSICHT
1002
{
1000
Det03
1002
}
1001
AUSTER_FOLIE
1002
{
1000
NSB00752A
1002
}
  0
LINE
  5
2A01
330
1F
100
AcDbEntity
  8
10000_FRONT
  6
Continuous
370
    50
100
AcDbLine
 39
0.5
 10
1135.607689277351
 20
342.9419686170664
 30
0.0
 11
1135.607689277351
 21
285.4419286170664
 31
0.0
1001
AUSTER_ANSICHT
1002
{
1000
Det03
1002
}
1001
AUSTER_FOLIE
1002
{
1000
NSB00752A
1002
}
  0
LINE
  5
2A02
330
1F
100
AcDbEntity
  8
10000_FRONT
  6
Continuous
370
    50
100
AcDbLine
 39
0.5
 10
1090.607689277351
 20
342.9419686170664
 30
0.0
 11
1135.607689277351
 21
342.9419686170664
 31
0.0
1001
AUSTER_ANSICHT
1002
{
1000
Det03
1002
}
1001
AUSTER_FOLIE
1002
{
1000
NSB00752A
1002
}
  0
LINE
  5
2A03
330
1F
100
AcDbEntity
  8
10000_FRONT
  6
Continuous
370
    50
100
AcDbLine
 39
0.5
 10
1090.607689277351
 20
285.4419286170664
 30
0.0
 11
1090.607689277351
 21
342.9419686170664
 31
0.0
1001
AUSTER_ANSICHT
1002
{
1000
Det03
1002
}
1001
AUSTER_FOLIE
1002
{
1000
NSB00752A
1002
}
  0
LINE
  5
2A04
330
1F
100
AcDbEntity
  8
10000_FRONT
  6
Continuous
370
    13
100
AcDbLine
 39
0.25
 10
1099.881109277351
 20
309.3053686170663
 30
0.0
 11
1095.76031927735
 21
309.3053686170663
 31
0.0
1001
AUSTER_ANSICHT
1002
{
1000
Det03
1002
}
1001
AUSTER_FOLIE
1002
{
1000
NSB00752A
1002
}
  0
LINE
  5
2A05
330
1F
100
AcDbEntity
  8
10000_FRONT
  6
Continuous
370
    13
100
AcDbLine
 39
0.25
 10
1110.87721927735
 20
309.3053686170663
 30
0.0
 11
1106.75887927735
 21
309.3053686170663
 31
0.0
1001
AUSTER_ANSICHT
1002
{
1000
Det03
1002
}
1001
AUSTER_FOLIE
1002
{
1000
NSB00752A
1002
}
  0
LINE
  5
2A06
330
1F
100
AcDbEntity
  8
10000_FRONT
  6
Continuous
370
    13
100
AcDbLine
 39
0.25
 10
1110.87721927735
 20
309.3053686170663
 30
0.0
 11
1113.32099927735
 21
309.3053686170663
 31
0.0
1001
AUSTER_ANSICHT
1002
{
1000
Det03
1002
}
1001
AUSTER_FOLIE
1002
{
1000
NSB00752A
1002
}
  0
LINE
  5
2A07
330
1F
100
AcDbEntity
  8
10000_FRONT
  6
Continuous
370
    13
100
AcDbLine
 39
0.25
 10
1099.881109277351
 20
309.3053686170663
 30
0.0
 11
1106.75887927735
 21
309.3053686170663
 31
0.0
1001
AUSTER_ANSICHT
1002
{
1000
Det03
1002
}
1001
AUSTER_FOLIE
1002
{
1000
NSB00752A
1002
}
  0
LINE
  5
2A08
330
1F
100
AcDbEntity
  8
10000_FRONT
  6
Continuous
370
    13
100
AcDbLine
 39
0.25
 10
1093.32099927735
 20
309.3053686170663
 30
0.0
 11
1095.76031927735
 21
309.3053686170663
 31
0.0
1001
AUSTER_ANSICHT
1002
{
1000
Det03
1002
}
1001
AUSTER_FOLIE
1002
{
1000
NSB00752A
1002
}
  0
LINE
  5
2A0F
330
1F
100
AcDbEntity
  8
10000_FRONT
  6
Continuous
370
    13
100
AcDbLine
 39
0.25
 10
1114.90760927735
 20
308.3285686170664
 30
0.0
 11
1114.90760927735
 21
302.1553286170665
 31
0.0
1001
AUSTER_ANSICHT
1002
{
1000
Det03
1002
}
1001
AUSTER_FOLIE
1002
{
1000
NSB00752A
1002
}
  0
LINE
  5
2A26
330
1F
100
AcDbEntity
  8
10000_FRONT
  6
Continuous
370
    13
100
AcDbLine
 39
0.25
 10
1093.32099927735
 20
309.3053686170663
 30
0.0
 11
1093.32099927735
 21
302.1553286170665
 31
0.0
1001
AUSTER_ANSICHT
1002
{
1000
Det03
1002
}
1001
AUSTER_FOLIE
1002
{
1000
NSB00752A
1002
}
  0
LINE
  5
2A27
330
1F
100
AcDbEntity
  8
10000_FRONT
  6
Continuous
370
    13
100
AcDbLine
 39
0.25
 10
1093.32099927735
 20
302.1553286170665
 30
0.0
 11
1114.90760927735
 21
302.1553286170665
 31
0.0
1001
AUSTER_ANSICHT
1002
{
1000
Det03
1002
}
1001
AUSTER_FOLIE
1002
{
1000
NSB00752A
1002
}
  0
LINE
  5
2A28
330
1F
100
AcDbEntity
  8
10000_FRONT
  6
Continuous
370
    13
100
AcDbLine
 39
0.25
 10
1113.32099927735
 20
309.3053686170663
 30
0.0
 11
1113.32099927735
 21
302.1553286170665
 31
0.0
1001
AUSTER_ANSICHT
1002
{
1000
Det03
1002
}
1001
AUSTER_FOLIE
1002
{
1000
NSB00752A
1002
}
  0
LINE
  5
2A29
330
1F
100
AcDbEntity
  8
10000_FRONT
  6
Continuous
370
    13
100
AcDbLine
 39
0.25
 10
1113.32099927735
 20
308.3285686170664
 30
0.0
 11
1114.90760927735
 21
308.3285686170664
 31
0.0
1001
AUSTER_ANSICHT
1002
{
1000
Det03
1002
}
1001
AUSTER_FOLIE
1002
{
1000
NSB00752A
1002
}
  0
LINE
  5
2A2A
330
1F
100
AcDbEntity
  8
10000_FRONT
  6
Continuous
370
    13
100
AcDbLine
 39
0.25
 10
1110.776449277351
 20
311.8919686170664
 30
0.0
 11
1110.776449277351
 21
316.4919686170664
 31
0.0
1001
AUSTER_ANSICHT
1002
{
1000
Det03
1002
}
1001
AUSTER_FOLIE
1002
{
1000
NSB00752A
1002
}
  0
LINE
  5
2A2B
330
1F
100
AcDbEntity
  8
10000_FRONT
  6
Continuous
370
    13
100
AcDbLine
 39
0.25
 10
1110.776449277351
 20
316.4919686170664
 30
0.0
 11
1106.837619277351
 21
316.4919486170664
 31
0.0
1001
AUSTER_ANSICHT
1002
{
1000
Det03
1002
}
1001
AUSTER_FOLIE
1002
{
1000
NSB00752A
1002
}
  0
LINE
  5
2A2C
330
1F
100
AcDbEntity
  8
10000_FRONT
  6
Continuous
370
    13
100
AcDbLine
 39
0.25
 10
1110.776449277351
 20
311.8919686170664
 30
0.0
 11
1106.837619277351
 21
311.8919886170664
 31
0.0
1001
AUSTER_ANSICHT
1002
{
1000
Det03
1002
}
1001
AUSTER_FOLIE
1002
{
1000
NSB00752A
1002
}
  0
LINE
  5
2A2D
330
1F
100
AcDbEntity
  8
10000_FRONT
  6
Continuous
370
    13
100
AcDbLine
 39
0.25
 10
1113.62260927735
 20
297.0365286170664
 30
0.0
 11
1113.62260927735
 21
298.0288286170664
 31
0.0
1001
AUSTER_ANSICHT
1002
{
1000
Det03
1002
}
1001
AUSTER_FOLIE
1002
{
1000
NSB00752A
1002
}
  0
LINE
  5
2A2E
330
1F
100
AcDbEntity
  8
10000_FRONT
  6
Continuous
370
    13
100
AcDbLine
 39
0.25
 10
1112.592609277351
 20
298.0288286170664
 30
0.0
 11
1112.592609277351
 21
297.0365286170664
 31
0.0
1001
AUSTER_ANSICHT
1002
{
1000
Det03
1002
}
1001
AUSTER_FOLIE
1002
{
1000
NSB00752A
1002
}
  0
LINE
  5
2A2F
330
1F
100
AcDbEntity
  8
10000_FRONT
  6
Continuous
370
    13
100
AcDbLine
 39
0.25
 10
1135.607689277351
 20
286.6919286170664
 30
0.0
 11
1090.607689277351
 21
286.6919286170664
 31
0.0
1001
AUSTER_ANSICHT
1002
{
1000
Det03
1002
}
1001
AUSTER_FOLIE
1002
{
1000
NSB00752A
1002
}
  0
LINE
  5
2A30
330
1F
100
AcDbEntity
  8
10000_FRONT
  6
Continuous
370
    50
100
AcDbLine
 39
0.5
 10
1090.607689277351
 20
342.9419686170664
 30
0.0
 11
1135.607689277351
 21
342.9419686170664
 31
0.0
1001
AUSTER_ANSICHT
1002
{
1000
Det03
1002
}
1001
AUSTER_FOLIE
1002
{
1000
NSB00752A
1002
}
  0
LINE
  5
2A31
330
1F
100
AcDbEntity
  8
10000_FRONT
  6
Continuous
370
    13
100
AcDbLine
 39
0.25
 10
1129.207609277351
 20
309.0919686170664
 30
0.0
 11
1133.407609277351
 21
309.0919686170664
 31
0.0
1001
AUSTER_ANSICHT
1002
{
1000
Det03
1002
}
1001
AUSTER_FOLIE
1002
{
1000
NSB00752A
1002
}
  0
LINE
  5
2A32
330
1F
100
AcDbEntity
  8
10000_FRONT
  6
Continuous
370
    13
100
AcDbLine
 39
0.25
 10
1129.207609277351
 20
319.2919686170664
 30
0.0
 11
1133.407609277351
 21
319.2919686170664
 31
0.0
1001
AUSTER_ANSICHT
1002
{
1000
Det03
1002
}
1001
AUSTER_FOLIE
1002
{
1000
NSB00752A
1002
}
  0
LINE
  5
2A33
330
1F
100
AcDbEntity
  8
10000_FRONT
  6
Continuous
370
    13
100
AcDbLine
 39
0.25
 10
1133.407609277351
 20
310.5419686170663
 30
0.0
 11
1129.207609277351
 21
310.5419686170663
 31
0.0
1001
AUSTER_ANSICHT
1002
{
1000
Det03
1002
}
1001
AUSTER_FOLIE
1002
{
1000
NSB00752A
1002
}
  0
LINE
  5
2A34
330
1F
100
AcDbEntity
  8
10000_FRONT
  6
Continuous
370
    13
100
AcDbLine
 39
0.25
 10
1133.407609277351
 20
317.8419686170662
 30
0.0
 11
1129.207609277351
 21
317.8419686170662
 31
0.0
1001
AUSTER_ANSICHT
1002
{
1000
Det03
1002
}
1001
AUSTER_FOLIE
1002
{
1000
NSB00752A
1002
}
  0
LINE
  5
2A35
330
1F
100
AcDbEntity
  8
10000_FRONT
  6
Continuous
370
    13
100
AcDbLine
 39
0.25
 10
1129.207609277351
 20
305.7919286170664
 30
0.0
 11
1129.207609277351
 21
304.2919286170664
 31
0.0
1001
AUSTER_ANSICHT
1002
{
1000
Det03
1002
}
1001
AUSTER_FOLIE
1002
{
1000
NSB00752A
1002
}
  0
LINE
  5
2A36
330
1F
100
AcDbEntity
  8
10000_FRONT
  6
Continuous
370
    13
100
AcDbLine
 39
0.25
 10
1131.107609277351
 20
305.7919286170664
 30
0.0
 11
1129.207609277351
 21
305.7919286170664
 31
0.0
1001
AUSTER_ANSICHT
1002
{
1000
Det03
1002
}
1001
AUSTER_FOLIE
1002
{
1000
NSB00752A
1002
}
  0
LINE
  5
2A37
330
1F
100
AcDbEntity
  8
10000_FRONT
  6
Continuous
370
    13
100
AcDbLine
 39
0.25
 10
1131.107609277351
 20
307.1919686170664
 30
0.0
 11
1131.107609277351
 21
305.7919286170664
 31
0.0
1001
AUSTER_ANSICHT
1002
{
1000
Det03
1002
}
1001
AUSTER_FOLIE
1002
{
1000
NSB00752A
1002
}
  0
LINE
  5
2A38
330
1F
100
AcDbEntity
  8
10000_FRONT
  6
Continuous
370
    13
100
AcDbLine
 39
0.25
 10
1133.407609277351
 20
307.1919686170664
 30
0.0
 11
1131.107609277351
 21
307.1919686170664
 31
0.0
1001
AUSTER_ANSICHT
1002
{
1000
Det03
1002
}
1001
AUSTER_FOLIE
1002
{
1000
NSB00752A
1002
}
  0
LINE
  5
2A39
330
1F
100
AcDbEntity
  8
10000_FRONT
  6
Continuous
370
    13
100
AcDbLine
 39
0.25
 10
1133.407609277351
 20
302.8919286170664
 30
0.0
 11
1133.407609277351
 21
307.1919686170664
 31
0.0
1001
AUSTER_ANSICHT
1002
{
1000
Det03
1002
}
1001
AUSTER_FOLIE
1002
{
1000
NSB00752A
1002
}
  0
LINE
  5
2A3A
330
1F
100
AcDbEntity
  8
10000_FRONT
  6
Continuous
370
    13
100
AcDbLine
 39
0.25
 10
1131.107609277351
 20
302.8919286170664
 30
0.0
 11
1133.407609277351
 21
302.8919286170664
 31
0.0
1001
AUSTER_ANSICHT
1002
{
1000
Det03
1002
}
1001
AUSTER_FOLIE
1002
{
1000
NSB00752A
1002
}
  0
LINE
  5
2A3B
330
1F
100
AcDbEntity
  8
10000_FRONT
  6
Continuous
370
    13
100
AcDbLine
 39
0.25
 10
1131.107609277351
 20
304.2919286170664
 30
0.0
 11
1131.107609277351
 21
302.8919286170664
 31
0.0
1001
AUSTER_ANSICHT
1002
{
1000
Det03
1002
}
1001
AUSTER_FOLIE
1002
{
1000
NSB00752A
1002
}
  0
LINE
  5
2A3C
330
1F
100
AcDbEntity
  8
10000_FRONT
  6
Continuous
370
    13
100
AcDbLine
 39
0.25
 10
1129.207609277351
 20
304.2919286170664
 30
0.0
 11
1131.107609277351
 21
304.2919286170664
 31
0.0
1001
AUSTER_ANSICHT
1002
{
1000
Det03
1002
}
1001
AUSTER_FOLIE
1002
{
1000
NSB00752A
1002
}
  0
LINE
  5
2A3D
330
1F
100
AcDbEntity
  8
10000_FRONT
  6
Continuous
370
    13
100
AcDbLine
 39
0.25
 10
1133.407609277351
 20
309.0919686170664
 30
0.0
 11
1133.407609277351
 21
310.5419686170663
 31
0.0
1001
AUSTER_ANSICHT
1002
{
1000
Det03
1002
}
1001
AUSTER_FOLIE
1002
{
1000
NSB00752A
1002
}
  0
LINE
  5
2A3E
330
1F
100
AcDbEntity
  8
10000_FRONT
  6
Continuous
370
    13
100
AcDbLine
 39
0.25
 10
1129.207609277351
 20
322.5919686170663
 30
0.0
 11
1129.207609277351
 21
324.0919686170662
 31
0.0
1001
AUSTER_ANSICHT
1002
{
1000
Det03
1002
}
1001
AUSTER_FOLIE
1002
{
1000
NSB00752A
1002
}
  0
LINE
  5
2A3F
330
1F
100
AcDbEntity
  8
10000_FRONT
  6
Continuous
370
    13
100
AcDbLine
 39
0.25
 10
1131.107609277351
 20
322.5919686170663
 30
0.0
 11
1129.207609277351
 21
322.5919686170663
 31
0.0
1001
AUSTER_ANSICHT
1002
{
1000
Det03
1002
}
1001
AUSTER_FOLIE
1002
{
1000
NSB00752A
1002
}
  0
LINE
  5
2A40
330
1F
100
AcDbEntity
  8
10000_FRONT
  6
Continuous
370
    13
100
AcDbLine
 39
0.25
 10
1131.107609277351
 20
321.1919686170664
 30
0.0
 11
1131.107609277351
 21
322.5919686170663
 31
0.0
1001
AUSTER_ANSICHT
1002
{
1000
Det03
1002
}
1001
AUSTER_FOLIE
1002
{
1000
NSB00752A
1002
}
  0
LINE
  5
2A41
330
1F
100
AcDbEntity
  8
10000_FRONT
  6
Continuous
370
    13
100
AcDbLine
 39
0.25
 10
1133.407609277351
 20
321.1919686170664
 30
0.0
 11
1131.107609277351
 21
321.1919686170664
 31
0.0
1001
AUSTER_ANSICHT
1002
{
1000
Det03
1002
}
1001
AUSTER_FOLIE
1002
{
1000
NSB00752A
1002
}
  0
LINE
  5
2A42
330
1F
100
AcDbEntity
  8
10000_FRONT
  6
Continuous
370
    13
100
AcDbLine
 39
0.25
 10
1133.407609277351
 20
325.4919686170664
 30
0.0
 11
1133.407609277351
 21
321.1919686170664
 31
0.0
1001
AUSTER_ANSICHT
1002
{
1000
Det03
1002
}
1001
AUSTER_FOLIE
1002
{
1000
NSB00752A
1002
}
  0
LINE
  5
2A43
330
1F
100
AcDbEntity
  8
10000_FRONT
  6
Continuous
370
    13
100
AcDbLine
 39
0.25
 10
1131.107609277351
 20
325.4919686170664
 30
0.0
 11
1133.407609277351
 21
325.4919686170664
 31
0.0
1001
AUSTER_ANSICHT
1002
{
1000
Det03
1002
}
1001
AUSTER_FOLIE
1002
{
1000
NSB00752A
1002
}
  0
LINE
  5
2A44
330
1F
100
AcDbEntity
  8
10000_FRONT
  6
Continuous
370
    13
100
AcDbLine
 39
0.25
 10
1131.107609277351
 20
324.0919686170662
 30
0.0
 11
1131.107609277351
 21
325.4919686170664
 31
0.0
1001
AUSTER_ANSICHT
1002
{
1000
Det03
1002
}
1001
AUSTER_FOLIE
1002
{
1000
NSB00752A
1002
}
  0
LINE
  5
2A45
330
1F
100
AcDbEntity
  8
10000_FRONT
  6
Continuous
370
    13
100
AcDbLine
 39
0.25
 10
1129.207609277351
 20
324.0919686170662
 30
0.0
 11
1131.107609277351
 21
324.0919686170662
 31
0.0
1001
AUSTER_ANSICHT
1002
{
1000
Det03
1002
}
1001
AUSTER_FOLIE
1002
{
1000
NSB00752A
1002
}
  0
LINE
  5
2A46
330
1F
100
AcDbEntity
  8
10000_FRONT
  6
Continuous
370
    13
100
AcDbLine
 39
0.25
 10
1133.407609277351
 20
319.2919686170664
 30
0.0
 11
1133.407609277351
 21
317.8419686170662
 31
0.0
1001
AUSTER_ANSICHT
1002
{
1000
Det03
1002
}
1001
AUSTER_FOLIE
1002
{
1000
NSB00752A
1002
}
  0
LINE
  5
2A47
330
1F
100
AcDbEntity
  8
10000_FRONT
  6
Continuous
370
    13
100
AcDbLine
 39
0.25
 10
1129.207609277351
 20
319.2919686170664
 30
0.0
 11
1129.207609277351
 21
317.8419686170662
 31
0.0
1001
AUSTER_ANSICHT
1002
{
1000
Det03
1002
}
1001
AUSTER_FOLIE
1002
{
1000
NSB00752A
1002
}
  0
LINE
  5
2A48
330
1F
100
AcDbEntity
  8
10000_FRONT
  6
Continuous
370
    13
100
AcDbLine
 39
0.25
 10
1129.79260927735
 20
295.4074286170664
 30
0.0
 11
1129.79260927735
 21
295.5876286170664
 31
0.0
1001
AUSTER_ANSICHT
1002
{
1000
Det03
1002
}
1001
AUSTER_FOLIE
1002
{
1000
NSB00752A
1002
}
  0
LINE
  5
2A49
330
1F
100
AcDbEntity
  8
10000_FRONT
  6
Continuous
370
    13
100
AcDbLine
 39
0.25
 10
1129.79260927735
 20
296.9765286170664
 30
0.0
 11
1129.79260927735
 21
296.7962286170664
 31
0.0
1001
AUSTER_ANSICHT
1002
{
1000
Det03
1002
}
1001
AUSTER_FOLIE
1002
{
1000
NSB00752A
1002
}
  0
LINE
  5
2A4A
330
1F
100
AcDbEntity
  8
10000_FRONT
  6
Continuous
370
    13
100
AcDbLine
 39
0.25
 10
1130.822609277351
 20
295.4074286170664
 30
0.0
 11
1130.822609277351
 21
295.5876286170664
 31
0.0
1001
AUSTER_ANSICHT
1002
{
1000
Det03
1002
}
1001
AUSTER_FOLIE
1002
{
1000
NSB00752A
1002
}
  0
LINE
  5
2A4B
330
1F
100
AcDbEntity
  8
10000_FRONT
  6
Continuous
370
    13
100
AcDbLine
 39
0.25
 10
1130.822609277351
 20
296.9765286170664
 30
0.0
 11
1130.822609277351
 21
296.7962286170664
 31
0.0
1001
AUSTER_ANSICHT
1002
{
1000
Det03
1002
}
1001
AUSTER_FOLIE
1002
{
1000
NSB00752A
1002
}
  0
LINE
  5
2A4C
330
1F
100
AcDbEntity
  8
10000_FRONT
  6
Continuous
370
    13
100
AcDbLine
 39
0.25
 10
1129.79260927735
 20
295.4074286170664
 30
0.0
 11
1129.79260927735
 21
294.4151286170664
 31
0.0
1001
AUSTER_ANSICHT
1002
{
1000
Det03
1002
}
1001
AUSTER_FOLIE
1002
{
1000
NSB00752A
1002
}
  0
LINE
  5
2A4D
330
1F
100
AcDbEntity
  8
10000_FRONT
  6
Continuous
370
    13
100
AcDbLine
 39
0.25
 10
1130.822609277351
 20
294.4151286170664
 30
0.0
 11
1130.822609277351
 21
295.4074286170664
 31
0.0
1001
AUSTER_ANSICHT
1002
{
1000
Det03
1002
}
1001
AUSTER_FOLIE
1002
{
1000
NSB00752A
1002
}
  0
LINE
  5
2A4E
330
1F
100
AcDbEntity
  8
10000_FRONT
  6
Continuous
370
    13
100
AcDbLine
 39
0.25
 10
1130.822609277351
 20
296.9765286170664
 30
0.0
 11
1130.822609277351
 21
297.9688286170664
 31
0.0
1001
AUSTER_ANSICHT
1002
{
1000
Det03
1002
}
1001
AUSTER_FOLIE
1002
{
1000
NSB00752A
1002
}
  0
LINE
  5
2A4F
330
1F
100
AcDbEntity
  8
10000_FRONT
  6
Continuous
370
    13
100
AcDbLine
 39
0.25
 10
1129.79260927735
 20
297.9688286170664
 30
0.0
 11
1129.79260927735
 21
296.9765286170664
 31
0.0
1001
AUSTER_ANSICHT
1002
{
1000
Det03
1002
}
1001
AUSTER_FOLIE
1002
{
1000
NSB00752A
1002
}
  0
LINE
  5
2A50
330
1F
100
AcDbEntity
  8
10000_FRONT
  6
Continuous
370
    13
100
AcDbLine
 39
0.25
 10
1129.79260927735
 20
296.7962286170664
 30
0.0
 11
1127.52190927735
 21
296.7962286170664
 31
0.0
1001
AUSTER_ANSICHT
1002
{
1000
Det03
1002
}
1001
AUSTER_FOLIE
1002
{
1000
NSB00752A
1002
}
  0
LINE
  5
2A51
330
1F
100
AcDbEntity
  8
10000_FRONT
  6
Continuous
370
    13
100
AcDbLine
 39
0.25
 10
1133.09330927735
 20
296.7962286170664
 30
0.0
 11
1130.822609277351
 21
296.7962286170664
 31
0.0
1001
AUSTER_ANSICHT
1002
{
1000
Det03
1002
}
1001
AUSTER_FOLIE
1002
{
1000
NSB00752A
1002
}
  0
LINE
  5
2A52
330
1F
100
AcDbEntity
  8
10000_FRONT
  6
Continuous
370
    13
100
AcDbLine
 39
0.25
 10
1130.822609277351
 20
295.5876286170664
 30
0.0
 11
1133.09330927735
 21
295.5876286170664
 31
0.0
1001
AUSTER_ANSICHT
1002
{
1000
Det03
1002
}
1001
AUSTER_FOLIE
1002
{
1000
NSB00752A
1002
}
  0
LINE
  5
2A53
330
1F
100
AcDbEntity
  8
10000_FRONT
  6
Continuous
370
    13
100
AcDbLine
 39
0.25
 10
1127.52190927735
 20
295.5876286170664
 30
0.0
 11
1129.79260927735
 21
295.5876286170664
 31
0.0
1001
AUSTER_ANSICHT
1002
{
1000
Det03
1002
}
1001
AUSTER_FOLIE
1002
{
1000
NSB00752A
1002
}
  0
LINE
  5
2A54
330
1F
100
AcDbEntity
  8
10000_FRONT
  6
Continuous
370
    13
100
AcDbLine
 39
0.25
 10
1129.79260927735
 20
332.9765486170664
 30
0.0
 11
1129.79260927735
 21
333.9688386170664
 31
0.0
1001
AUSTER_ANSICHT
1002
{
1000
Det03
1002
}
1001
AUSTER_FOLIE
1002
{
1000
NSB00752A
1002
}
  0
LINE
  5
2A55
330
1F
100
AcDbEntity
  8
10000_FRONT
  6
Continuous
370
    13
100
AcDbLine
 39
0.25
 10
1130.822609277351
 20
333.9688386170664
 30
0.0
 11
1130.822609277351
 21
332.9765486170664
 31
0.0
1001
AUSTER_ANSICHT
1002
{
1000
Det03
1002
}
1001
AUSTER_FOLIE
1002
{
1000
NSB00752A
1002
}
  0
LINE
  5
2A56
330
1F
100
AcDbEntity
  8
10000_FRONT
  6
Continuous
370
    13
100
AcDbLine
 39
0.25
 10
1129.79260927735
 20
331.5876586170664
 30
0.0
 11
1127.52190927735
 21
331.5876586170664
 31
0.0
1001
AUSTER_ANSICHT
1002
{
1000
Det03
1002
}
1001
AUSTER_FOLIE
1002
{
1000
NSB00752A
1002
}
  0
LINE
  5
2A57
330
1F
100
AcDbEntity
  8
10000_FRONT
  6
Continuous
370
    13
100
AcDbLine
 39
0.25
 10
1127.52190927735
 20
332.7962786170664
 30
0.0
 11
1129.79260927735
 21
332.7962786170664
 31
0.0
1001
AUSTER_ANSICHT
1002
{
1000
Det03
1002
}
1001
AUSTER_FOLIE
1002
{
1000
NSB00752A
1002
}
  0
LINE
  5
2A58
330
1F
100
AcDbEntity
  8
10000_FRONT
  6
Continuous
370
    13
100
AcDbLine
 39
0.25
 10
1121.19260927735
 20
295.4074286170664
 30
0.0
 11
1121.19260927735
 21
295.5876286170664
 31
0.0
1001
AUSTER_ANSICHT
1002
{
1000
Det03
1002
}
1001
AUSTER_FOLIE
1002
{
1000
NSB00752A
1002
}
  0
LINE
  5
2A59
330
1F
100
AcDbEntity
  8
10000_FRONT
  6
Continuous
370
    13
100
AcDbLine
 39
0.25
 10
1121.19260927735
 20
296.9765286170664
 30
0.0
 11
1121.19260927735
 21
296.7962286170664
 31
0.0
1001
AUSTER_ANSICHT
1002
{
1000
Det03
1002
}
1001
AUSTER_FOLIE
1002
{
1000
NSB00752A
1002
}
  0
LINE
  5
2A5A
330
1F
100
AcDbEntity
  8
10000_FRONT
  6
Continuous
370
    13
100
AcDbLine
 39
0.25
 10
1122.222609277351
 20
295.4074286170664
 30
0.0
 11
1122.222609277351
 21
295.5876286170664
 31
0.0
1001
AUSTER_ANSICHT
1002
{
1000
Det03
1002
}
1001
AUSTER_FOLIE
1002
{
1000
NSB00752A
1002
}
  0
LINE
  5
2A5B
330
1F
100
AcDbEntity
  8
10000_FRONT
  6
Continuous
370
    13
100
AcDbLine
 39
0.25
 10
1122.222609277351
 20
296.9765286170664
 30
0.0
 11
1122.222609277351
 21
296.7962286170664
 31
0.0
1001
AUSTER_ANSICHT
1002
{
1000
Det03
1002
}
1001
AUSTER_FOLIE
1002
{
1000
NSB00752A
1002
}
  0
LINE
  5
2A5C
330
1F
100
AcDbEntity
  8
10000_FRONT
  6
Continuous
370
    13
100
AcDbLine
 39
0.25
 10
1121.19260927735
 20
295.4074286170664
 30
0.0
 11
1121.19260927735
 21
294.4151286170664
 31
0.0
1001
AUSTER_ANSICHT
1002
{
1000
Det03
1002
}
1001
AUSTER_FOLIE
1002
{
1000
NSB00752A
1002
}
  0
LINE
  5
2A5D
330
1F
100
AcDbEntity
  8
10000_FRONT
  6
Continuous
370
    13
100
AcDbLine
 39
0.25
 10
1122.222609277351
 20
294.4151286170664
 30
0.0
 11
1122.222609277351
 21
295.4074286170664
 31
0.0
1001
AUSTER_ANSICHT
1002
{
1000
Det03
1002
}
1001
AUSTER_FOLIE
1002
{
1000
NSB00752A
1002
}
  0
LINE
  5
2A5E
330
1F
100
AcDbEntity
  8
10000_FRONT
  6
Continuous
370
    13
100
AcDbLine
 39
0.25
 10
1122.222609277351
 20
296.9765286170664
 30
0.0
 11
1122.222609277351
 21
297.9688286170664
 31
0.0
1001
AUSTER_ANSICHT
1002
{
1000
Det03
1002
}
1001
AUSTER_FOLIE
1002
{
1000
NSB00752A
1002
}
  0
LINE
  5
2A5F
330
1F
100
AcDbEntity
  8
10000_FRONT
  6
Continuous
370
    13
100
AcDbLine
 39
0.25
 10
1121.19260927735
 20
297.9688286170664
 30
0.0
 11
1121.19260927735
 21
296.9765286170664
 31
0.0
1001
AUSTER_ANSICHT
1002
{
1000
Det03
1002
}
1001
AUSTER_FOLIE
1002
{
1000
NSB00752A
1002
}
  0
LINE
  5
2A60
330
1F
100
AcDbEntity
  8
10000_FRONT
  6
Continuous
370
    13
100
AcDbLine
 39
0.25
 10
1121.19260927735
 20
296.7962286170664
 30
0.0
 11
1118.921909277351
 21
296.7962286170664
 31
0.0
1001
AUSTER_ANSICHT
1002
{
1000
Det03
1002
}
1001
AUSTER_FOLIE
1002
{
1000
NSB00752A
1002
}
  0
LINE
  5
2A61
330
1F
100
AcDbEntity
  8
10000_FRONT
  6
Continuous
370
    13
100
AcDbLine
 39
0.25
 10
1124.493309277351
 20
296.7962286170664
 30
0.0
 11
1122.222609277351
 21
296.7962286170664
 31
0.0
1001
AUSTER_ANSICHT
1002
{
1000
Det03
1002
}
1001
AUSTER_FOLIE
1002
{
1000
NSB00752A
1002
}
  0
LINE
  5
2A62
330
1F
100
AcDbEntity
  8
10000_FRONT
  6
Continuous
370
    13
100
AcDbLine
 39
0.25
 10
1122.222609277351
 20
295.5876286170664
 30
0.0
 11
1124.493309277351
 21
295.5876286170664
 31
0.0
1001
AUSTER_ANSICHT
1002
{
1000
Det03
1002
}
1001
AUSTER_FOLIE
1002
{
1000
NSB00752A
1002
}
  0
LINE
  5
2A63
330
1F
100
AcDbEntity
  8
10000_FRONT
  6
Continuous
370
    13
100
AcDbLine
 39
0.25
 10
1118.921909277351
 20
295.5876286170664
 30
0.0
 11
1121.19260927735
 21
295.5876286170664
 31
0.0
1001
AUSTER_ANSICHT
1002
{
1000
Det03
1002
}
1001
AUSTER_FOLIE
1002
{
1000
NSB00752A
1002
}
  0
LINE
  5
2A64
330
1F
100
AcDbEntity
  8
10000_FRONT
  6
Continuous
370
    13
100
AcDbLine
 39
0.25
 10
1112.592609277351
 20
295.4074286170664
 30
0.0
 11
1112.592609277351
 21
295.5876286170664
 31
0.0
1001
AUSTER_ANSICHT
1002
{
1000
Det03
1002
}
1001
AUSTER_FOLIE
1002
{
1000
NSB00752A
1002
}
  0
LINE
  5
2A65
330
1F
100
AcDbEntity
  8
10000_FRONT
  6
Continuous
370
    13
100
AcDbLine
 39
0.25
 10
1112.592609277351
 20
296.9765286170664
 30
0.0
 11
1112.592609277351
 21
296.7962286170664
 31
0.0
1001
AUSTER_ANSICHT
1002
{
1000
Det03
1002
}
1001
AUSTER_FOLIE
1002
{
1000
NSB00752A
1002
}
  0
LINE
  5
2A66
330
1F
100
AcDbEntity
  8
10000_FRONT
  6
Continuous
370
    13
100
AcDbLine
 39
0.25
 10
1113.62260927735
 20
295.4074286170664
 30
0.0
 11
1113.62260927735
 21
295.5876286170664
 31
0.0
1001
AUSTER_ANSICHT
1002
{
1000
Det03
1002
}
1001
AUSTER_FOLIE
1002
{
1000
NSB00752A
1002
}
  0
LINE
  5
2A67
330
1F
100
AcDbEntity
  8
10000_FRONT
  6
Continuous
370
    13
100
AcDbLine
 39
0.25
 10
1113.62260927735
 20
296.9765286170664
 30
0.0
 11
1113.62260927735
 21
296.7962286170664
 31
0.0
1001
AUSTER_ANSICHT
1002
{
1000
Det03
1002
}
1001
AUSTER_FOLIE
1002
{
1000
NSB00752A
1002
}
  0
LINE
  5
2A68
330
1F
100
AcDbEntity
  8
10000_FRONT
  6
Continuous
370
    13
100
AcDbLine
 39
0.25
 10
1112.592609277351
 20
295.4074286170664
 30
0.0
 11
1112.592609277351
 21
294.4151286170664
 31
0.0
1001
AUSTER_ANSICHT
1002
{
1000
Det03
1002
}
1001
AUSTER_FOLIE
1002
{
1000
NSB00752A
1002
}
  0
LINE
  5
2A69
330
1F
100
AcDbEntity
  8
10000_FRONT
  6
Continuous
370
    13
100
AcDbLine
 39
0.25
 10
1113.62260927735
 20
294.4151286170664
 30
0.0
 11
1113.62260927735
 21
295.4074286170664
 31
0.0
1001
AUSTER_ANSICHT
1002
{
1000
Det03
1002
}
1001
AUSTER_FOLIE
1002
{
1000
NSB00752A
1002
}
  0
LINE
  5
2A6A
330
1F
100
AcDbEntity
  8
10000_FRONT
  6
Continuous
370
    13
100
AcDbLine
 39
0.25
 10
1113.62260927735
 20
296.9765286170664
 30
0.0
 11
1113.62260927735
 21
297.9688286170664
 31
0.0
1001
AUSTER_ANSICHT
1002
{
1000
Det03
1002
}
1001
AUSTER_FOLIE
1002
{
1000
NSB00752A
1002
}
  0
LINE
  5
2A6B
330
1F
100
AcDbEntity
  8
10000_FRONT
  6
Continuous
370
    13
100
AcDbLine
 39
0.25
 10
1112.592609277351
 20
297.9688286170664
 30
0.0
 11
1112.592609277351
 21
296.9765286170664
 31
0.0
1001
AUSTER_ANSICHT
1002
{
1000
Det03
1002
}
1001
AUSTER_FOLIE
1002
{
1000
NSB00752A
1002
}
  0
LINE
  5
2A6C
330
1F
100
AcDbEntity
  8
10000_FRONT
  6
Continuous
370
    13
100
AcDbLine
 39
0.25
 10
1112.592609277351
 20
296.7962286170664
 30
0.0
 11
1110.321909277351
 21
296.7962286170664
 31
0.0
1001
AUSTER_ANSICHT
1002
{
1000
Det03
1002
}
1001
AUSTER_FOLIE
1002
{
1000
NSB00752A
1002
}
  0
LINE
  5
2A6D
330
1F
100
AcDbEntity
  8
10000_FRONT
  6
Continuous
370
    13
100
AcDbLine
 39
0.25
 10
1115.893309277351
 20
296.7962286170664
 30
0.0
 11
1113.62260927735
 21
296.7962286170664
 31
0.0
1001
AUSTER_ANSICHT
1002
{
1000
Det03
1002
}
1001
AUSTER_FOLIE
1002
{
1000
NSB00752A
1002
}
  0
LINE
  5
2A6E
330
1F
100
AcDbEntity
  8
10000_FRONT
  6
Continuous
370
    13
100
AcDbLine
 39
0.25
 10
1113.62260927735
 20
295.5876286170664
 30
0.0
 11
1115.893309277351
 21
295.5876286170664
 31
0.0
1001
AUSTER_ANSICHT
1002
{
1000
Det03
1002
}
1001
AUSTER_FOLIE
1002
{
1000
NSB00752A
1002
}
  0
LINE
  5
2A6F
330
1F
100
AcDbEntity
  8
10000_FRONT
  6
Continuous
370
    13
100
AcDbLine
 39
0.25
 10
1110.321909277351
 20
295.5876286170664
 30
0.0
 11
1112.592609277351
 21
295.5876286170664
 31
0.0
1001
AUSTER_ANSICHT
1002
{
1000
Det03
1002
}
1001
AUSTER_FOLIE
1002
{
1000
NSB00752A
1002
}
  0
LINE
  5
2A70
330
1F
100
AcDbEntity
  8
10000_FRONT
  6
Continuous
370
    13
100
AcDbLine
 39
0.25
 10
1103.992609277351
 20
296.9765286170664
 30
0.0
 11
1103.992609277351
 21
296.7962286170664
 31
0.0
1001
AUSTER_ANSICHT
1002
{
1000
Det03
1002
}
1001
AUSTER_FOLIE
1002
{
1000
NSB00752A
1002
}
  0
LINE
  5
2A71
330
1F
100
AcDbEntity
  8
10000_FRONT
  6
Continuous
370
    13
100
AcDbLine
 39
0.25
 10
1105.022609277351
 20
295.4074286170664
 30
0.0
 11
1105.022609277351
 21
295.5876286170664
 31
0.0
1001
AUSTER_ANSICHT
1002
{
1000
Det03
1002
}
1001
AUSTER_FOLIE
1002
{
1000
NSB00752A
1002
}
  0
LINE
  5
2A72
330
1F
100
AcDbEntity
  8
10000_FRONT
  6
Continuous
370
    13
100
AcDbLine
 39
0.25
 10
1105.022609277351
 20
296.9765286170664
 30
0.0
 11
1105.022609277351
 21
296.7962286170664
 31
0.0
1001
AUSTER_ANSICHT
1002
{
1000
Det03
1002
}
1001
AUSTER_FOLIE
1002
{
1000
NSB00752A
1002
}
  0
LINE
  5
2A73
330
1F
100
AcDbEntity
  8
10000_FRONT
  6
Continuous
370
    13
100
AcDbLine
 39
0.25
 10
1103.992609277351
 20
295.4074286170664
 30
0.0
 11
1103.992609277351
 21
294.4151286170664
 31
0.0
1001
AUSTER_ANSICHT
1002
{
1000
Det03
1002
}
1001
AUSTER_FOLIE
1002
{
1000
NSB00752A
1002
}
  0
LINE
  5
2A74
330
1F
100
AcDbEntity
  8
10000_FRONT
  6
Continuous
370
    13
100
AcDbLine
 39
0.25
 10
1105.022609277351
 20
294.4151286170664
 30
0.0
 11
1105.022609277351
 21
295.4074286170664
 31
0.0
1001
AUSTER_ANSICHT
1002
{
1000
Det03
1002
}
1001
AUSTER_FOLIE
1002
{
1000
NSB00752A
1002
}
  0
LINE
  5
2A75
330
1F
100
AcDbEntity
  8
10000_FRONT
  6
Continuous
370
    13
100
AcDbLine
 39
0.25
 10
1105.022609277351
 20
296.9765286170664
 30
0.0
 11
1105.022609277351
 21
297.9688286170664
 31
0.0
1001
AUSTER_ANSICHT
1002
{
1000
Det03
1002
}
1001
AUSTER_FOLIE
1002
{
1000
NSB00752A
1002
}
  0
LINE
  5
2A76
330
1F
100
AcDbEntity
  8
10000_FRONT
  6
Continuous
370
    13
100
AcDbLine
 39
0.25
 10
1103.992609277351
 20
297.9688286170664
 30
0.0
 11
1103.992609277351
 21
296.9765286170664
 31
0.0
1001
AUSTER_ANSICHT
1002
{
1000
Det03
1002
}
1001
AUSTER_FOLIE
1002
{
1000
NSB00752A
1002
}
  0
LINE
  5
2A77
330
1F
100
AcDbEntity
  8
10000_FRONT
  6
Continuous
370
    13
100
AcDbLine
 39
0.25
 10
1095.39260927735
 20
295.4074286170664
 30
0.0
 11
1095.39260927735
 21
295.5876286170664
 31
0.0
1001
AUSTER_ANSICHT
1002
{
1000
Det03
1002
}
1001
AUSTER_FOLIE
1002
{
1000
NSB00752A
1002
}
  0
LINE
  5
2A78
330
1F
100
AcDbEntity
  8
10000_FRONT
  6
Continuous
370
    13
100
AcDbLine
 39
0.25
 10
1095.39260927735
 20
296.9765286170664
 30
0.0
 11
1095.39260927735
 21
296.7962286170664
 31
0.0
1001
AUSTER_ANSICHT
1002
{
1000
Det03
1002
}
1001
AUSTER_FOLIE
1002
{
1000
NSB00752A
1002
}
  0
LINE
  5
2A79
330
1F
100
AcDbEntity
  8
10000_FRONT
  6
Continuous
370
    13
100
AcDbLine
 39
0.25
 10
1096.42260927735
 20
295.4074286170664
 30
0.0
 11
1096.42260927735
 21
295.5876286170664
 31
0.0
1001
AUSTER_ANSICHT
1002
{
1000
Det03
1002
}
1001
AUSTER_FOLIE
1002
{
1000
NSB00752A
1002
}
  0
LINE
  5
2A7A
330
1F
100
AcDbEntity
  8
10000_FRONT
  6
Continuous
370
    13
100
AcDbLine
 39
0.25
 10
1096.42260927735
 20
296.9765286170664
 30
0.0
 11
1096.42260927735
 21
296.7962286170664
 31
0.0
1001
AUSTER_ANSICHT
1002
{
1000
Det03
1002
}
1001
AUSTER_FOLIE
1002
{
1000
NSB00752A
1002
}
  0
LINE
  5
2A7B
330
1F
100
AcDbEntity
  8
10000_FRONT
  6
Continuous
370
    13
100
AcDbLine
 39
0.25
 10
1095.39260927735
 20
295.4074286170664
 30
0.0
 11
1095.39260927735
 21
294.4151286170664
 31
0.0
1001
AUSTER_ANSICHT
1002
{
1000
Det03
1002
}
1001
AUSTER_FOLIE
1002
{
1000
NSB00752A
1002
}
  0
LINE
  5
2A7C
330
1F
100
AcDbEntity
  8
10000_FRONT
  6
Continuous
370
    13
100
AcDbLine
 39
0.25
 10
1096.42260927735
 20
294.4151286170664
 30
0.0
 11
1096.42260927735
 21
295.4074286170664
 31
0.0
1001
AUSTER_ANSICHT
1002
{
1000
Det03
1002
}
1001
AUSTER_FOLIE
1002
{
1000
NSB00752A
1002
}
  0
LINE
  5
2A7D
330
1F
100
AcDbEntity
  8
10000_FRONT
  6
Continuous
370
    13
100
AcDbLine
 39
0.25
 10
1096.42260927735
 20
296.9765286170664
 30
0.0
 11
1096.42260927735
 21
297.9688286170664
 31
0.0
1001
AUSTER_ANSICHT
1002
{
1000
Det03
1002
}
1001
AUSTER_FOLIE
1002
{
1000
NSB00752A
1002
}
  0
LINE
  5
2A7E
330
1F
100
AcDbEntity
  8
10000_FRONT
  6
Continuous
370
    13
100
AcDbLine
 39
0.25
 10
1095.39260927735
 20
297.9688286170664
 30
0.0
 11
1095.39260927735
 21
296.9765286170664
 31
0.0
1001
AUSTER_ANSICHT
1002
{
1000
Det03
1002
}
1001
AUSTER_FOLIE
1002
{
1000
NSB00752A
1002
}
  0
LINE
  5
2A7F
330
1F
100
AcDbEntity
  8
10000_FRONT
  6
Continuous
370
    13
100
AcDbLine
 39
0.25
 10
1095.39260927735
 20
296.7962286170664
 30
0.0
 11
1093.12190927735
 21
296.7962286170664
 31
0.0
1001
AUSTER_ANSICHT
1002
{
1000
Det03
1002
}
1001
AUSTER_FOLIE
1002
{
1000
NSB00752A
1002
}
  0
LINE
  5
2A80
330
1F
100
AcDbEntity
  8
10000_FRONT
  6
Continuous
370
    13
100
AcDbLine
 39
0.25
 10
1098.69330927735
 20
296.7962286170664
 30
0.0
 11
1096.42260927735
 21
296.7962286170664
 31
0.0
1001
AUSTER_ANSICHT
1002
{
1000
Det03
1002
}
1001
AUSTER_FOLIE
1002
{
1000
NSB00752A
1002
}
  0
LINE
  5
2A81
330
1F
100
AcDbEntity
  8
10000_FRONT
  6
Continuous
370
    13
100
AcDbLine
 39
0.25
 10
1096.42260927735
 20
295.5876286170664
 30
0.0
 11
1098.69330927735
 21
295.5876286170664
 31
0.0
1001
AUSTER_ANSICHT
1002
{
1000
Det03
1002
}
1001
AUSTER_FOLIE
1002
{
1000
NSB00752A
1002
}
  0
LINE
  5
2A82
330
1F
100
AcDbEntity
  8
10000_FRONT
  6
Continuous
370
    13
100
AcDbLine
 39
0.25
 10
1093.12190927735
 20
295.5876286170664
 30
0.0
 11
1095.39260927735
 21
295.5876286170664
 31
0.0
1001
AUSTER_ANSICHT
1002
{
1000
Det03
1002
}
1001
AUSTER_FOLIE
1002
{
1000
NSB00752A
1002
}
  0
LINE
  5
2A83
330
1F
100
AcDbEntity
  8
10000_FRONT
  6
Continuous
370
    13
100
AcDbLine
 39
0.25
 10
1129.79260927735
 20
332.9765486170664
 30
0.0
 11
1129.79260927735
 21
332.7962786170664
 31
0.0
1001
AUSTER_ANSICHT
1002
{
1000
Det03
1002
}
1001
AUSTER_FOLIE
1002
{
1000
NSB00752A
1002
}
  0
LINE
  5
2A84
330
1F
100
AcDbEntity
  8
10000_FRONT
  6
Continuous
370
    13
100
AcDbLine
 39
0.25
 10
1129.79260927735
 20
331.4073986170663
 30
0.0
 11
1129.79260927735
 21
331.5876586170664
 31
0.0
1001
AUSTER_ANSICHT
1002
{
1000
Det03
1002
}
1001
AUSTER_FOLIE
1002
{
1000
NSB00752A
1002
}
  0
LINE
  5
2A85
330
1F
100
AcDbEntity
  8
10000_FRONT
  6
Continuous
370
    13
100
AcDbLine
 39
0.25
 10
1130.822609277351
 20
332.9765486170664
 30
0.0
 11
1130.822609277351
 21
332.7962786170664
 31
0.0
1001
AUSTER_ANSICHT
1002
{
1000
Det03
1002
}
1001
AUSTER_FOLIE
1002
{
1000
NSB00752A
1002
}
  0
LINE
  5
2A86
330
1F
100
AcDbEntity
  8
10000_FRONT
  6
Continuous
370
    13
100
AcDbLine
 39
0.25
 10
1130.822609277351
 20
331.4073886170664
 30
0.0
 11
1130.822609277351
 21
331.5876586170664
 31
0.0
1001
AUSTER_ANSICHT
1002
{
1000
Det03
1002
}
1001
AUSTER_FOLIE
1002
{
1000
NSB00752A
1002
}
  0
LINE
  5
2A87
330
1F
100
AcDbEntity
  8
10000_FRONT
  6
Continuous
370
    13
100
AcDbLine
 39
0.25
 10
1130.822609277351
 20
331.4073986170663
 30
0.0
 11
1130.822609277351
 21
330.4150986170662
 31
0.0
1001
AUSTER_ANSICHT
1002
{
1000
Det03
1002
}
1001
AUSTER_FOLIE
1002
{
1000
NSB00752A
1002
}
  0
LINE
  5
2A88
330
1F
100
AcDbEntity
  8
10000_FRONT
  6
Continuous
370
    13
100
AcDbLine
 39
0.25
 10
1129.79260927735
 20
330.4150986170662
 30
0.0
 11
1129.79260927735
 21
331.4073986170663
 31
0.0
1001
AUSTER_ANSICHT
1002
{
1000
Det03
1002
}
1001
AUSTER_FOLIE
1002
{
1000
NSB00752A
1002
}
  0
LINE
  5
2A89
330
1F
100
AcDbEntity
  8
10000_FRONT
  6
Continuous
370
    13
100
AcDbLine
 39
0.25
 10
1133.09330927735
 20
331.5876586170664
 30
0.0
 11
1130.822609277351
 21
331.5876586170664
 31
0.0
1001
AUSTER_ANSICHT
1002
{
1000
Det03
1002
}
1001
AUSTER_FOLIE
1002
{
1000
NSB00752A
1002
}
  0
LINE
  5
2A8A
330
1F
100
AcDbEntity
  8
10000_FRONT
  6
Continuous
370
    13
100
AcDbLine
 39
0.25
 10
1130.822609277351
 20
332.7962786170664
 30
0.0
 11
1133.09330927735
 21
332.7962786170664
 31
0.0
1001
AUSTER_ANSICHT
1002
{
1000
Det03
1002
}
1001
AUSTER_FOLIE
1002
{
1000
NSB00752A
1002
}
  0
LINE
  5
2A8B
330
1F
100
AcDbEntity
  8
10000_FRONT
  6
Continuous
370
    13
100
AcDbLine
 39
0.25
 10
1103.992609277351
 20
296.7962286170664
 30
0.0
 11
1101.72190927735
 21
296.7962286170664
 31
0.0
1001
AUSTER_ANSICHT
1002
{
1000
Det03
1002
}
1001
AUSTER_FOLIE
1002
{
1000
NSB00752A
1002
}
  0
LINE
  5
2A8C
330
1F
100
AcDbEntity
  8
10000_FRONT
  6
Continuous
370
    13
100
AcDbLine
 39
0.25
 10
1107.293309277351
 20
296.7962286170664
 30
0.0
 11
1105.022609277351
 21
296.7962286170664
 31
0.0
1001
AUSTER_ANSICHT
1002
{
1000
Det03
1002
}
1001
AUSTER_FOLIE
1002
{
1000
NSB00752A
1002
}
  0
LINE
  5
2A8D
330
1F
100
AcDbEntity
  8
10000_FRONT
  6
Continuous
370
    13
100
AcDbLine
 39
0.25
 10
1105.022609277351
 20
295.5876286170664
 30
0.0
 11
1107.293309277351
 21
295.5876286170664
 31
0.0
1001
AUSTER_ANSICHT
1002
{
1000
Det03
1002
}
1001
AUSTER_FOLIE
1002
{
1000
NSB00752A
1002
}
  0
LINE
  5
2A8E
330
1F
100
AcDbEntity
  8
10000_FRONT
  6
Continuous
370
    13
100
AcDbLine
 39
0.25
 10
1122.222609277351
 20
331.4073986170663
 30
0.0
 11
1122.222609277351
 21
330.4150986170662
 31
0.0
1001
AUSTER_ANSICHT
1002
{
1000
Det03
1002
}
1001
AUSTER_FOLIE
1002
{
1000
NSB00752A
1002
}
  0
LINE
  5
2A8F
330
1F
100
AcDbEntity
  8
10000_FRONT
  6
Continuous
370
    13
100
AcDbLine
 39
0.25
 10
1113.62260927735
 20
331.4073986170663
 30
0.0
 11
1113.62260927735
 21
330.4150986170662
 31
0.0
1001
AUSTER_ANSICHT
1002
{
1000
Det03
1002
}
1001
AUSTER_FOLIE
1002
{
1000
NSB00752A
1002
}
  0
LINE
  5
2A90
330
1F
100
AcDbEntity
  8
10000_FRONT
  6
Continuous
370
    13
100
AcDbLine
 39
0.25
 10
1105.022609277351
 20
331.4073986170663
 30
0.0
 11
1105.022609277351
 21
330.4150986170662
 31
0.0
1001
AUSTER_ANSICHT
1002
{
1000
Det03
1002
}
1001
AUSTER_FOLIE
1002
{
1000
NSB00752A
1002
}
  0
LINE
  5
2A91
330
1F
100
AcDbEntity
  8
10000_FRONT
  6
Continuous
370
    13
100
AcDbLine
 39
0.25
 10
1121.19260927735
 20
330.4150986170662
 30
0.0
 11
1121.19260927735
 21
331.4073986170663
 31
0.0
1001
AUSTER_ANSICHT
1002
{
1000
Det03
1002
}
1001
AUSTER_FOLIE
1002
{
1000
NSB00752A
1002
}
  0
LINE
  5
2A92
330
1F
100
AcDbEntity
  8
10000_FRONT
  6
Continuous
370
    13
100
AcDbLine
 39
0.25
 10
1112.592609277351
 20
330.4150986170662
 30
0.0
 11
1112.592609277351
 21
331.4073986170663
 31
0.0
1001
AUSTER_ANSICHT
1002
{
1000
Det03
1002
}
1001
AUSTER_FOLIE
1002
{
1000
NSB00752A
1002
}
  0
LINE
  5
2A93
330
1F
100
AcDbEntity
  8
10000_FRONT
  6
Continuous
370
    13
100
AcDbLine
 39
0.25
 10
1103.992609277351
 20
330.4150986170662
 30
0.0
 11
1103.992609277351
 21
331.4073986170663
 31
0.0
1001
AUSTER_ANSICHT
1002
{
1000
Det03
1002
}
1001
AUSTER_FOLIE
1002
{
1000
NSB00752A
1002
}
  0
LINE
  5
2A94
330
1F
100
AcDbEntity
  8
10000_FRONT
  6
Continuous
370
    13
100
AcDbLine
 39
0.25
 10
1121.19260927735
 20
332.9765486170664
 30
0.0
 11
1121.19260927735
 21
332.7962786170664
 31
0.0
1001
AUSTER_ANSICHT
1002
{
1000
Det03
1002
}
1001
AUSTER_FOLIE
1002
{
1000
NSB00752A
1002
}
  0
LINE
  5
2A95
330
1F
100
AcDbEntity
  8
10000_FRONT
  6
Continuous
370
    13
100
AcDbLine
 39
0.25
 10
1112.592609277351
 20
332.9765486170664
 30
0.0
 11
1112.592609277351
 21
332.7962786170664
 31
0.0
1001
AUSTER_ANSICHT
1002
{
1000
Det03
1002
}
1001
AUSTER_FOLIE
1002
{
1000
NSB00752A
1002
}
  0
LINE
  5
2A96
330
1F
100
AcDbEntity
  8
10000_FRONT
  6
Continuous
370
    13
100
AcDbLine
 39
0.25
 10
1121.19260927735
 20
331.4073986170663
 30
0.0
 11
1121.19260927735
 21
331.5876586170664
 31
0.0
1001
AUSTER_ANSICHT
1002
{
1000
Det03
1002
}
1001
AUSTER_FOLIE
1002
{
1000
NSB00752A
1002
}
  0
LINE
  5
2A97
330
1F
100
AcDbEntity
  8
10000_FRONT
  6
Continuous
370
    13
100
AcDbLine
 39
0.25
 10
1112.592609277351
 20
331.4073986170663
 30
0.0
 11
1112.592609277351
 21
331.5876586170664
 31
0.0
1001
AUSTER_ANSICHT
1002
{
1000
Det03
1002
}
1001
AUSTER_FOLIE
1002
{
1000
NSB00752A
1002
}
  0
LINE
  5
2A98
330
1F
100
AcDbEntity
  8
10000_FRONT
  6
Continuous
370
    13
100
AcDbLine
 39
0.25
 10
1103.992609277351
 20
331.4073986170663
 30
0.0
 11
1103.992609277351
 21
331.5876586170664
 31
0.0
1001
AUSTER_ANSICHT
1002
{
1000
Det03
1002
}
1001
AUSTER_FOLIE
1002
{
1000
NSB00752A
1002
}
  0
LINE
  5
2A99
330
1F
100
AcDbEntity
  8
10000_FRONT
  6
Continuous
370
    13
100
AcDbLine
 39
0.25
 10
1122.222609277351
 20
332.9765486170664
 30
0.0
 11
1122.222609277351
 21
332.7962786170664
 31
0.0
1001
AUSTER_ANSICHT
1002
{
1000
Det03
1002
}
1001
AUSTER_FOLIE
1002
{
1000
NSB00752A
1002
}
  0
LINE
  5
2A9A
330
1F
100
AcDbEntity
  8
10000_FRONT
  6
Continuous
370
    13
100
AcDbLine
 39
0.25
 10
1113.62260927735
 20
332.9765486170664
 30
0.0
 11
1113.62260927735
 21
332.7962786170664
 31
0.0
1001
AUSTER_ANSICHT
1002
{
1000
Det03
1002
}
1001
AUSTER_FOLIE
1002
{
1000
NSB00752A
1002
}
  0
LINE
  5
2A9B
330
1F
100
AcDbEntity
  8
10000_FRONT
  6
Continuous
370
    13
100
AcDbLine
 39
0.25
 10
1105.022609277351
 20
332.9765486170664
 30
0.0
 11
1105.022609277351
 21
332.7962786170664
 31
0.0
1001
AUSTER_ANSICHT
1002
{
1000
Det03
1002
}
1001
AUSTER_FOLIE
1002
{
1000
NSB00752A
1002
}
  0
LINE
  5
2A9C
330
1F
100
AcDbEntity
  8
10000_FRONT
  6
Continuous
370
    13
100
AcDbLine
 39
0.25
 10
1122.222609277351
 20
331.4073886170664
 30
0.0
 11
1122.222609277351
 21
331.5876586170664
 31
0.0
1001
AUSTER_ANSICHT
1002
{
1000
Det03
1002
}
1001
AUSTER_FOLIE
1002
{
1000
NSB00752A
1002
}
  0
LINE
  5
2A9D
330
1F
100
AcDbEntity
  8
10000_FRONT
  6
Continuous
370
    13
100
AcDbLine
 39
0.25
 10
1113.62260927735
 20
331.4073886170664
 30
0.0
 11
1113.62260927735
 21
331.5876586170664
 31
0.0
1001
AUSTER_ANSICHT
1002
{
1000
Det03
1002
}
1001
AUSTER_FOLIE
1002
{
1000
NSB00752A
1002
}
  0
LINE
  5
2A9E
330
1F
100
AcDbEntity
  8
10000_FRONT
  6
Continuous
370
    13
100
AcDbLine
 39
0.25
 10
1105.022609277351
 20
331.4073886170664
 30
0.0
 11
1105.022609277351
 21
331.5876586170664
 31
0.0
1001
AUSTER_ANSICHT
1002
{
1000
Det03
1002
}
1001
AUSTER_FOLIE
1002
{
1000
NSB00752A
1002
}
  0
LINE
  5
2A9F
330
1F
100
AcDbEntity
  8
10000_FRONT
  6
Continuous
370
    13
100
AcDbLine
 39
0.25
 10
1121.19260927735
 20
332.9765486170664
 30
0.0
 11
1121.19260927735
 21
333.9688386170664
 31
0.0
1001
AUSTER_ANSICHT
1002
{
1000
Det03
1002
}
1001
AUSTER_FOLIE
1002
{
1000
NSB00752A
1002
}
  0
LINE
  5
2AA0
330
1F
100
AcDbEntity
  8
10000_FRONT
  6
Continuous
370
    13
100
AcDbLine
 39
0.25
 10
1112.592609277351
 20
332.9765486170664
 30
0.0
 11
1112.592609277351
 21
333.9688386170664
 31
0.0
1001
AUSTER_ANSICHT
1002
{
1000
Det03
1002
}
1001
AUSTER_FOLIE
1002
{
1000
NSB00752A
1002
}
  0
LINE
  5
2AA1
330
1F
100
AcDbEntity
  8
10000_FRONT
  6
Continuous
370
    13
100
AcDbLine
 39
0.25
 10
1103.992609277351
 20
332.9765486170664
 30
0.0
 11
1103.992609277351
 21
333.9688386170664
 31
0.0
1001
AUSTER_ANSICHT
1002
{
1000
Det03
1002
}
1001
AUSTER_FOLIE
1002
{
1000
NSB00752A
1002
}
  0
LINE
  5
2AA2
330
1F
100
AcDbEntity
  8
10000_FRONT
  6
Continuous
370
    13
100
AcDbLine
 39
0.25
 10
1122.222609277351
 20
333.9688386170664
 30
0.0
 11
1122.222609277351
 21
332.9765486170664
 31
0.0
1001
AUSTER_ANSICHT
1002
{
1000
Det03
1002
}
1001
AUSTER_FOLIE
1002
{
1000
NSB00752A
1002
}
  0
LINE
  5
2AA3
330
1F
100
AcDbEntity
  8
10000_FRONT
  6
Continuous
370
    13
100
AcDbLine
 39
0.25
 10
1113.62260927735
 20
333.9688386170664
 30
0.0
 11
1113.62260927735
 21
332.9765486170664
 31
0.0
1001
AUSTER_ANSICHT
1002
{
1000
Det03
1002
}
1001
AUSTER_FOLIE
1002
{
1000
NSB00752A
1002
}
  0
LINE
  5
2AA4
330
1F
100
AcDbEntity
  8
10000_FRONT
  6
Continuous
370
    13
100
AcDbLine
 39
0.25
 10
1105.022609277351
 20
333.9688386170664
 30
0.0
 11
1105.022609277351
 21
332.9765486170664
 31
0.0
1001
AUSTER_ANSICHT
1002
{
1000
Det03
1002
}
1001
AUSTER_FOLIE
1002
{
1000
NSB00752A
1002
}
  0
LINE
  5
2AA5
330
1F
100
AcDbEntity
  8
10000_FRONT
  6
Continuous
370
    13
100
AcDbLine
 39
0.25
 10
1121.19260927735
 20
331.5876586170664
 30
0.0
 11
1118.921909277351
 21
331.5876586170664
 31
0.0
1001
AUSTER_ANSICHT
1002
{
1000
Det03
1002
}
1001
AUSTER_FOLIE
1002
{
1000
NSB00752A
1002
}
  0
LINE
  5
2AA6
330
1F
100
AcDbEntity
  8
10000_FRONT
  6
Continuous
370
    13
100
AcDbLine
 39
0.25
 10
1112.592609277351
 20
331.5876586170664
 30
0.0
 11
1110.321909277351
 21
331.5876586170664
 31
0.0
1001
AUSTER_ANSICHT
1002
{
1000
Det03
1002
}
1001
AUSTER_FOLIE
1002
{
1000
NSB00752A
1002
}
  0
LINE
  5
2AA7
330
1F
100
AcDbEntity
  8
10000_FRONT
  6
Continuous
370
    13
100
AcDbLine
 39
0.25
 10
1103.992609277351
 20
331.5876586170664
 30
0.0
 11
1101.72190927735
 21
331.5876586170664
 31
0.0
1001
AUSTER_ANSICHT
1002
{
1000
Det03
1002
}
1001
AUSTER_FOLIE
1002
{
1000
NSB00752A
1002
}
  0
LINE
  5
2AA8
330
1F
100
AcDbEntity
  8
10000_FRONT
  6
Continuous
370
    13
100
AcDbLine
 39
0.25
 10
1124.493309277351
 20
331.5876586170664
 30
0.0
 11
1122.222609277351
 21
331.5876586170664
 31
0.0
1001
AUSTER_ANSICHT
1002
{
1000
Det03
1002
}
1001
AUSTER_FOLIE
1002
{
1000
NSB00752A
1002
}
  0
LINE
  5
2AA9
330
1F
100
AcDbEntity
  8
10000_FRONT
  6
Continuous
370
    13
100
AcDbLine
 39
0.25
 10
1115.893309277351
 20
331.5876586170664
 30
0.0
 11
1113.62260927735
 21
331.5876586170664
 31
0.0
1001
AUSTER_ANSICHT
1002
{
1000
Det03
1002
}
1001
AUSTER_FOLIE
1002
{
1000
NSB00752A
1002
}
  0
LINE
  5
2AAA
330
1F
100
AcDbEntity
  8
10000_FRONT
  6
Continuous
370
    13
100
AcDbLine
 39
0.25
 10
1107.293309277351
 20
331.5876586170664
 30
0.0
 11
1105.022609277351
 21
331.5876586170664
 31
0.0
1001
AUSTER_ANSICHT
1002
{
1000
Det03
1002
}
1001
AUSTER_FOLIE
1002
{
1000
NSB00752A
1002
}
  0
LINE
  5
2AAB
330
1F
100
AcDbEntity
  8
10000_FRONT
  6
Continuous
370
    13
100
AcDbLine
 39
0.25
 10
1122.222609277351
 20
332.7962786170664
 30
0.0
 11
1124.493309277351
 21
332.7962786170664
 31
0.0
1001
AUSTER_ANSICHT
1002
{
1000
Det03
1002
}
1001
AUSTER_FOLIE
1002
{
1000
NSB00752A
1002
}
  0
LINE
  5
2AAC
330
1F
100
AcDbEntity
  8
10000_FRONT
  6
Continuous
370
    13
100
AcDbLine
 39
0.25
 10
1113.62260927735
 20
332.7962786170664
 30
0.0
 11
1115.893309277351
 21
332.7962786170664
 31
0.0
1001
AUSTER_ANSICHT
1002
{
1000
Det03
1002
}
1001
AUSTER_FOLIE
1002
{
1000
NSB00752A
1002
}
  0
LINE
  5
2AAD
330
1F
100
AcDbEntity
  8
10000_FRONT
  6
Continuous
370
    13
100
AcDbLine
 39
0.25
 10
1105.022609277351
 20
332.7962786170664
 30
0.0
 11
1107.293309277351
 21
332.7962786170664
 31
0.0
1001
AUSTER_ANSICHT
1002
{
1000
Det03
1002
}
1001
AUSTER_FOLIE
1002
{
1000
NSB00752A
1002
}
  0
LINE
  5
2AAE
330
1F
100
AcDbEntity
  8
10000_FRONT
  6
Continuous
370
    13
100
AcDbLine
 39
0.25
 10
1118.921909277351
 20
332.7962786170664
 30
0.0
 11
1121.19260927735
 21
332.7962786170664
 31
0.0
1001
AUSTER_ANSICHT
1002
{
1000
Det03
1002
}
1001
AUSTER_FOLIE
1002
{
1000
NSB00752A
1002
}
  0
LINE
  5
2AAF
330
1F
100
AcDbEntity
  8
10000_FRONT
  6
Continuous
370
    13
100
AcDbLine
 39
0.25
 10
1110.321909277351
 20
332.7962786170664
 30
0.0
 11
1112.592609277351
 21
332.7962786170664
 31
0.0
1001
AUSTER_ANSICHT
1002
{
1000
Det03
1002
}
1001
AUSTER_FOLIE
1002
{
1000
NSB00752A
1002
}
  0
LINE
  5
2AB0
330
1F
100
AcDbEntity
  8
10000_FRONT
  6
Continuous
370
    13
100
AcDbLine
 39
0.25
 10
1095.39260927735
 20
331.4073986170663
 30
0.0
 11
1095.39260927735
 21
331.5876586170664
 31
0.0
1001
AUSTER_ANSICHT
1002
{
1000
Det03
1002
}
1001
AUSTER_FOLIE
1002
{
1000
NSB00752A
1002
}
  0
LINE
  5
2AB1
330
1F
100
AcDbEntity
  8
10000_FRONT
  6
Continuous
370
    13
100
AcDbLine
 39
0.25
 10
1096.42260927735
 20
332.9765486170664
 30
0.0
 11
1096.42260927735
 21
332.7962786170664
 31
0.0
1001
AUSTER_ANSICHT
1002
{
1000
Det03
1002
}
1001
AUSTER_FOLIE
1002
{
1000
NSB00752A
1002
}
  0
LINE
  5
2AB2
330
1F
100
AcDbEntity
  8
10000_FRONT
  6
Continuous
370
    13
100
AcDbLine
 39
0.25
 10
1096.42260927735
 20
331.4073886170664
 30
0.0
 11
1096.42260927735
 21
331.5876586170664
 31
0.0
1001
AUSTER_ANSICHT
1002
{
1000
Det03
1002
}
1001
AUSTER_FOLIE
1002
{
1000
NSB00752A
1002
}
  0
LINE
  5
2AB3
330
1F
100
AcDbEntity
  8
10000_FRONT
  6
Continuous
370
    13
100
AcDbLine
 39
0.25
 10
1095.39260927735
 20
332.9765486170664
 30
0.0
 11
1095.39260927735
 21
333.9688386170664
 31
0.0
1001
AUSTER_ANSICHT
1002
{
1000
Det03
1002
}
1001
AUSTER_FOLIE
1002
{
1000
NSB00752A
1002
}
  0
LINE
  5
2AB4
330
1F
100
AcDbEntity
  8
10000_FRONT
  6
Continuous
370
    13
100
AcDbLine
 39
0.25
 10
1096.42260927735
 20
333.9688386170664
 30
0.0
 11
1096.42260927735
 21
332.9765486170664
 31
0.0
1001
AUSTER_ANSICHT
1002
{
1000
Det03
1002
}
1001
AUSTER_FOLIE
1002
{
1000
NSB00752A
1002
}
  0
LINE
  5
2AB5
330
1F
100
AcDbEntity
  8
10000_FRONT
  6
Continuous
370
    13
100
AcDbLine
 39
0.25
 10
1096.42260927735
 20
331.4073986170663
 30
0.0
 11
1096.42260927735
 21
330.4150986170662
 31
0.0
1001
AUSTER_ANSICHT
1002
{
1000
Det03
1002
}
1001
AUSTER_FOLIE
1002
{
1000
NSB00752A
1002
}
  0
LINE
  5
2AB6
330
1F
100
AcDbEntity
  8
10000_FRONT
  6
Continuous
370
    13
100
AcDbLine
 39
0.25
 10
1095.39260927735
 20
330.4150986170662
 30
0.0
 11
1095.39260927735
 21
331.4073986170663
 31
0.0
1001
AUSTER_ANSICHT
1002
{
1000
Det03
1002
}
1001
AUSTER_FOLIE
1002
{
1000
NSB00752A
1002
}
  0
LINE
  5
2AB7
330
1F
100
AcDbEntity
  8
10000_FRONT
  6
Continuous
370
    13
100
AcDbLine
 39
0.25
 10
1095.39260927735
 20
331.5876586170664
 30
0.0
 11
1093.12190927735
 21
331.5876586170664
 31
0.0
1001
AUSTER_ANSICHT
1002
{
1000
Det03
1002
}
1001
AUSTER_FOLIE
1002
{
1000
NSB00752A
1002
}
  0
LINE
  5
2AB8
330
1F
100
AcDbEntity
  8
10000_FRONT
  6
Continuous
370
    13
100
AcDbLine
 39
0.25
 10
1098.69330927735
 20
331.5876586170664
 30
0.0
 11
1096.42260927735
 21
331.5876586170664
 31
0.0
1001
AUSTER_ANSICHT
1002
{
1000
Det03
1002
}
1001
AUSTER_FOLIE
1002
{
1000
NSB00752A
1002
}
  0
LINE
  5
2AB9
330
1F
100
AcDbEntity
  8
10000_FRONT
  6
Continuous
370
    13
100
AcDbLine
 39
0.25
 10
1096.42260927735
 20
332.7962786170664
 30
0.0
 11
1098.69330927735
 21
332.7962786170664
 31
0.0
1001
AUSTER_ANSICHT
1002
{
1000
Det03
1002
}
1001
AUSTER_FOLIE
1002
{
1000
NSB00752A
1002
}
  0
LINE
  5
2ABA
330
1F
100
AcDbEntity
  8
10000_FRONT
  6
Continuous
370
    50
100
AcDbLine
 39
0.5
 10
1135.607689277351
 20
342.9419686170664
 30
0.0
 11
1135.607689277351
 21
285.4419286170664
 31
0.0
1001
AUSTER_ANSICHT
1002
{
1000
Det03
1002
}
1001
AUSTER_FOLIE
1002
{
1000
NSB00752A
1002
}
  0
LINE
  5
2ABB
330
1F
100
AcDbEntity
  8
10000_FRONT
  6
Continuous
370
    13
100
AcDbLine
 39
0.25
 10
1103.992609277351
 20
295.4074286170664
 30
0.0
 11
1103.992609277351
 21
295.5876286170664
 31
0.0
1001
AUSTER_ANSICHT
1002
{
1000
Det03
1002
}
1001
AUSTER_FOLIE
1002
{
1000
NSB00752A
1002
}
  0
LINE
  5
2ABC
330
1F
100
AcDbEntity
  8
10000_FRONT
  6
Continuous
370
    13
100
AcDbLine
 39
0.25
 10
1103.992609277351
 20
332.9765486170664
 30
0.0
 11
1103.992609277351
 21
332.7962786170664
 31
0.0
1001
AUSTER_ANSICHT
1002
{
1000
Det03
1002
}
1001
AUSTER_FOLIE
1002
{
1000
NSB00752A
1002
}
  0
LINE
  5
2ABD
330
1F
100
AcDbEntity
  8
10000_FRONT
  6
Continuous
370
    13
100
AcDbLine
 39
0.25
 10
1095.39260927735
 20
332.9765486170664
 30
0.0
 11
1095.39260927735
 21
332.7962786170664
 31
0.0
1001
AUSTER_ANSICHT
1002
{
1000
Det03
1002
}
1001
AUSTER_FOLIE
1002
{
1000
NSB00752A
1002
}
  0
LINE
  5
2ABE
330
1F
100
AcDbEntity
  8
10000_FRONT
  6
Continuous
370
    13
100
AcDbLine
 39
0.25
 10
1101.72190927735
 20
295.5876286170664
 30
0.0
 11
1103.992609277351
 21
295.5876286170664
 31
0.0
1001
AUSTER_ANSICHT
1002
{
1000
Det03
1002
}
1001
AUSTER_FOLIE
1002
{
1000
NSB00752A
1002
}
  0
LINE
  5
2ABF
330
1F
100
AcDbEntity
  8
10000_FRONT
  6
Continuous
370
    13
100
AcDbLine
 39
0.25
 10
1101.72190927735
 20
332.7962786170664
 30
0.0
 11
1103.992609277351
 21
332.7962786170664
 31
0.0
1001
AUSTER_ANSICHT
1002
{
1000
Det03
1002
}
1001
AUSTER_FOLIE
1002
{
1000
NSB00752A
1002
}
  0
LINE
  5
2AC0
330
1F
100
AcDbEntity
  8
10000_FRONT
  6
Continuous
370
    13
100
AcDbLine
 39
0.25
 10
1093.12190927735
 20
332.7962786170664
 30
0.0
 11
1095.39260927735
 21
332.7962786170664
 31
0.0
1001
AUSTER_ANSICHT
1002
{
1000
Det03
1002
}
1001
AUSTER_FOLIE
1002
{
1000
NSB00752A
1002
}
  0
LINE
  5
2AC1
330
1F
100
AcDbEntity
  8
10000_FRONT
  6
Continuous
370
    13
100
AcDbLine
 39
0.25
 10
1090.607689277351
 20
341.6919686170664
 30
0.0
 11
1135.607689277351
 21
341.6919686170664
 31
0.0
1001
AUSTER_ANSICHT
1002
{
1000
Det03
1002
}
1001
AUSTER_FOLIE
1002
{
1000
NSB00752A
1002
}
  0
LINE
  5
2AC2
330
1F
100
AcDbEntity
  8
10000_FRONT
  6
Continuous
370
    50
100
AcDbLine
 39
0.5
 10
1090.607689277351
 20
285.4419286170664
 30
0.0
 11
1090.607689277351
 21
342.9419686170664
 31
0.0
1001
AUSTER_ANSICHT
1002
{
1000
Det03
1002
}
1001
AUSTER_FOLIE
1002
{
1000
NSB00752A
1002
}
  0
LINE
  5
2AC3
330
1F
100
AcDbEntity
  8
11000_Left
  6
CENTER
370
    13
100
AcDbLine
 39
0.25
 10
1218.727125303258
 20
301.2219286170664
 30
0.0
 11
1218.727125303258
 21
286.7219286170664
 31
0.0
1001
AUSTER_ANSICHT
1002
{
1000
Det03
1002
}
1001
AUSTER_FOLIE
1002
{
1000
NSB00752A
1002
}
  0
LINE
  5
2AC4
330
1F
100
AcDbEntity
  8
11000_Left
  6
CENTER
370
    13
100
AcDbLine
 39
0.25
 10
1218.727125303258
 20
301.2219286170664
 30
0.0
 11
1218.727125303258
 21
286.7219286170664
 31
0.0
1001
AUSTER_ANSICHT
1002
{
1000
Det03
1002
}
1001
AUSTER_FOLIE
1002
{
1000
NSB00752A
1002
}
  0
LINE
  5
2AC5
330
1F
100
AcDbEntity
  8
11000_Left
  6
CENTER
370
    13
100
AcDbLine
 39
0.25
 10
1215.727125303257
 20
301.2219286170664
 30
0.0
 11
1218.727125303258
 21
301.2219286170664
 31
0.0
1001
AUSTER_ANSICHT
1002
{
1000
Det03
1002
}
1001
AUSTER_FOLIE
1002
{
1000
NSB00752A
1002
}
  0
LINE
  5
2AC6
330
1F
100
AcDbEntity
  8
11000_Left
  6
CENTER
370
    13
100
AcDbLine
 39
0.25
 10
1215.727125303257
 20
301.2219286170664
 30
0.0
 11
1218.727125303258
 21
301.2219286170664
 31
0.0
1001
AUSTER_ANSICHT
1002
{
1000
Det03
1002
}
1001
AUSTER_FOLIE
1002
{
1000
NSB00752A
1002
}
  0
LINE
  5
2AC7
330
1F
100
AcDbEntity
  8
11000_Left
  6
CENTER
370
    13
100
AcDbLine
 39
0.25
 10
1215.727125303257
 20
286.7219286170664
 30
0.0
 11
1215.727125303257
 21
301.2219286170664
 31
0.0
1001
AUSTER_ANSICHT
1002
{
1000
Det03
1002
}
1001
AUSTER_FOLIE
1002
{
1000
NSB00752A
1002
}
  0
LINE
  5
2AC8
330
1F
100
AcDbEntity
  8
11000_Left
  6
CENTER
370
    13
100
AcDbLine
 39
0.25
 10
1215.727125303257
 20
286.7219286170664
 30
0.0
 11
1215.727125303257
 21
301.2219286170664
 31
0.0
1001
AUSTER_ANSICHT
1002
{
1000
Det03
1002
}
1001
AUSTER_FOLIE
1002
{
1000
NSB00752A
1002
}
  0
LINE
  5
2AC9
330
1F
100
AcDbEntity
  8
11000_Left
  6
CENTER
370
    13
100
AcDbLine
 39
0.25
 10
1218.727125303258
 20
327.2219686170665
 30
0.0
 11
1218.727125303258
 21
341.7219686170664
 31
0.0
1001
AUSTER_ANSICHT
1002
{
1000
Det03
1002
}
1001
AUSTER_FOLIE
1002
{
1000
NSB00752A
1002
}
  0
LINE
  5
2ACA
330
1F
100
AcDbEntity
  8
11000_Left
  6
CENTER
370
    13
100
AcDbLine
 39
0.25
 10
1218.727125303258
 20
327.2219686170665
 30
0.0
 11
1218.727125303258
 21
341.7219686170664
 31
0.0
1001
AUSTER_ANSICHT
1002
{
1000
Det03
1002
}
1001
AUSTER_FOLIE
1002
{
1000
NSB00752A
1002
}
  0
LINE
  5
2ACB
330
1F
100
AcDbEntity
  8
11000_Left
  6
CENTER
370
    13
100
AcDbLine
 39
0.25
 10
1215.727125303257
 20
327.2219686170665
 30
0.0
 11
1218.727125303258
 21
327.2219686170665
 31
0.0
1001
AUSTER_ANSICHT
1002
{
1000
Det03
1002
}
1001
AUSTER_FOLIE
1002
{
1000
NSB00752A
1002
}
  0
LINE
  5
2ACC
330
1F
100
AcDbEntity
  8
11000_Left
  6
CENTER
370
    13
100
AcDbLine
 39
0.25
 10
1215.727125303257
 20
327.2219686170665
 30
0.0
 11
1218.727125303258
 21
327.2219686170665
 31
0.0
1001
AUSTER_ANSICHT
1002
{
1000
Det03
1002
}
1001
AUSTER_FOLIE
1002
{
1000
NSB00752A
1002
}
  0
LINE
  5
2ACD
330
1F
100
AcDbEntity
  8
11000_Left
  6
CENTER
370
    13
100
AcDbLine
 39
0.25
 10
1215.727125303257
 20
341.7219686170664
 30
0.0
 11
1215.727125303257
 21
327.2219686170665
 31
0.0
1001
AUSTER_ANSICHT
1002
{
1000
Det03
1002
}
1001
AUSTER_FOLIE
1002
{
1000
NSB00752A
1002
}
  0
LINE
  5
2ACE
330
1F
100
AcDbEntity
  8
11000_Left
  6
CENTER
370
    13
100
AcDbLine
 39
0.25
 10
1215.727125303257
 20
341.7219686170664
 30
0.0
 11
1215.727125303257
 21
327.2219686170665
 31
0.0
1001
AUSTER_ANSICHT
1002
{
1000
Det03
1002
}
1001
AUSTER_FOLIE
1002
{
1000
NSB00752A
1002
}
  0
LINE
  5
2ACF
330
1F
100
AcDbEntity
  8
11000_Left
  6
Continuous
370
    50
100
AcDbLine
 39
0.5
 10
1232.127125303257
 20
300.9791286170663
 30
0.0
 11
1232.127125303257
 21
296.9719286170663
 31
0.0
1001
AUSTER_ANSICHT
1002
{
1000
Det03
1002
}
1001
AUSTER_FOLIE
1002
{
1000
NSB00752A
1002
}
  0
LINE
  5
2AD0
330
1F
100
AcDbEntity
  8
11000_Left
  6
Continuous
370
    50
100
AcDbLine
 39
0.5
 10
1232.127125303257
 20
331.4719686170665
 30
0.0
 11
1232.127125303257
 21
327.4647886170663
 31
0.0
1001
AUSTER_ANSICHT
1002
{
1000
Det03
1002
}
1001
AUSTER_FOLIE
1002
{
1000
NSB00752A
1002
}
  0
LINE
  5
2AD1
330
1F
100
AcDbEntity
  8
11000_Left
  6
Continuous
370
    50
100
AcDbLine
 39
0.5
 10
1231.874625303257
 20
292.5219286170663
 30
0.0
 11
1231.493425303258
 21
287.4485286170664
 31
0.0
1001
AUSTER_ANSICHT
1002
{
1000
Det03
1002
}
1001
AUSTER_FOLIE
1002
{
1000
NSB00752A
1002
}
  0
LINE
  5
2AD2
330
1F
100
AcDbEntity
  8
11000_Left
  6
Continuous
370
    50
100
AcDbLine
 39
0.5
 10
1232.127125303257
 20
296.9719286170663
 30
0.0
 11
1231.874625303257
 21
292.5219286170663
 31
0.0
1001
AUSTER_ANSICHT
1002
{
1000
Det03
1002
}
1001
AUSTER_FOLIE
1002
{
1000
NSB00752A
1002
}
  0
LINE
  5
2AD3
330
1F
100
AcDbEntity
  8
11000_Left
  6
Continuous
370
    50
100
AcDbLine
 39
0.5
 10
1232.127125303257
 20
296.9719286170663
 30
0.0
 11
1232.127125303257
 21
300.9791286170663
 31
0.0
1001
AUSTER_ANSICHT
1002
{
1000
Det03
1002
}
1001
AUSTER_FOLIE
1002
{
1000
NSB00752A
1002
}
  0
LINE
  5
2AD4
330
1F
100
AcDbEntity
  8
11000_Left
  6
Continuous
370
    50
100
AcDbLine
 39
0.5
 10
1232.127125303257
 20
331.4719686170665
 30
0.0
 11
1232.127125303257
 21
327.4647886170663
 31
0.0
1001
AUSTER_ANSICHT
1002
{
1000
Det03
1002
}
1001
AUSTER_FOLIE
1002
{
1000
NSB00752A
1002
}
  0
LINE
  5
2AD5
330
1F
100
AcDbEntity
  8
11000_Left
  6
Continuous
370
    50
100
AcDbLine
 39
0.5
 10
1232.127125303257
 20
331.4719686170665
 30
0.0
 11
1231.874625303257
 21
335.9219686170663
 31
0.0
1001
AUSTER_ANSICHT
1002
{
1000
Det03
1002
}
1001
AUSTER_FOLIE
1002
{
1000
NSB00752A
1002
}
  0
LINE
  5
2AD6
330
1F
100
AcDbEntity
  8
11000_Left
  6
Continuous
370
    50
100
AcDbLine
 39
0.5
 10
1231.874625303257
 20
335.9219686170663
 30
0.0
 11
1231.493425303258
 21
340.9954286170663
 31
0.0
1001
AUSTER_ANSICHT
1002
{
1000
Det03
1002
}
1001
AUSTER_FOLIE
1002
{
1000
NSB00752A
1002
}
  0
LINE
  5
2AD7
330
1F
100
AcDbEntity
  8
11000_Left
  6
Continuous
370
    50
100
AcDbLine
 39
0.5
 10
1232.127125303257
 20
331.4719686170665
 30
0.0
 11
1232.127125303257
 21
327.4647886170663
 31
0.0
1001
AUSTER_ANSICHT
1002
{
1000
Det03
1002
}
1001
AUSTER_FOLIE
1002
{
1000
NSB00752A
1002
}
  0
LINE
  5
2AD8
330
1F
100
AcDbEntity
  8
11000_Left
  6
Continuous
370
    50
100
AcDbLine
 39
0.5
 10
1232.127125303257
 20
296.9719286170663
 30
0.0
 11
1231.874625303257
 21
292.5219286170663
 31
0.0
1001
AUSTER_ANSICHT
1002
{
1000
Det03
1002
}
1001
AUSTER_FOLIE
1002
{
1000
NSB00752A
1002
}
  0
LINE
  5
2AD9
330
1F
100
AcDbEntity
  8
11000_Left
  6
Continuous
370
    50
100
AcDbLine
 39
0.5
 10
1231.874625303257
 20
292.5219286170663
 30
0.0
 11
1231.493425303258
 21
287.4485286170664
 31
0.0
1001
AUSTER_ANSICHT
1002
{
1000
Det03
1002
}
1001
AUSTER_FOLIE
1002
{
1000
NSB00752A
1002
}
  0
LINE
  5
2ADA
330
1F
100
AcDbEntity
  8
11000_Left
  6
Continuous
370
    50
100
AcDbLine
 39
0.5
 10
1232.127125303257
 20
296.9719286170663
 30
0.0
 11
1232.127125303257
 21
300.9791286170663
 31
0.0
1001
AUSTER_ANSICHT
1002
{
1000
Det03
1002
}
1001
AUSTER_FOLIE
1002
{
1000
NSB00752A
1002
}
  0
LINE
  5
2ADB
330
1F
100
AcDbEntity
  8
11000_Left
  6
Continuous
370
    50
100
AcDbLine
 39
0.5
 10
1231.874625303257
 20
335.9219686170663
 30
0.0
 11
1231.493425303258
 21
340.9954286170663
 31
0.0
1001
AUSTER_ANSICHT
1002
{
1000
Det03
1002
}
1001
AUSTER_FOLIE
1002
{
1000
NSB00752A
1002
}
  0
LINE
  5
2ADC
330
1F
100
AcDbEntity
  8
11000_Left
  6
Continuous
370
    50
100
AcDbLine
 39
0.5
 10
1232.127125303257
 20
331.4719686170665
 30
0.0
 11
1231.874625303257
 21
335.9219686170663
 31
0.0
1001
AUSTER_ANSICHT
1002
{
1000
Det03
1002
}
1001
AUSTER_FOLIE
1002
{
1000
NSB00752A
1002
}
  0
LINE
  5
2ADD
330
1F
100
AcDbEntity
  8
11000_Left
  6
Continuous
370
    50
100
AcDbLine
 39
0.5
 10
1214.644225303257
 20
286.7219286170664
 30
0.0
 11
1222.254125303258
 21
286.7219286170664
 31
0.0
1001
AUSTER_ANSICHT
1002
{
1000
Det03
1002
}
1001
AUSTER_FOLIE
1002
{
1000
NSB00752A
1002
}
  0
LINE
  5
2ADE
330
1F
100
AcDbEntity
  8
11000_Left
  6
Continuous
370
    50
100
AcDbLine
 39
0.5
 10
1214.644225303257
 20
286.7219286170664
 30
0.0
 11
1213.727125303258
 21
286.7219286170664
 31
0.0
1001
AUSTER_ANSICHT
1002
{
1000
Det03
1002
}
1001
AUSTER_FOLIE
1002
{
1000
NSB00752A
1002
}
  0
LINE
  5
2ADF
330
1F
100
AcDbEntity
  8
11000_Left
  6
Continuous
370
    50
100
AcDbLine
 39
0.5
 10
1167.227125303258
 20
290.1719286170664
 30
0.0
 11
1206.525225303258
 21
290.1719286170664
 31
0.0
1001
AUSTER_ANSICHT
1002
{
1000
Det03
1002
}
1001
AUSTER_FOLIE
1002
{
1000
NSB00752A
1002
}
  0
LINE
  5
2AE0
330
1F
100
AcDbEntity
  8
11000_Left
  6
Continuous
370
    13
100
AcDbLine
 39
0.5
 10
1206.525225303258
 20
290.1719286170664
 30
0.0
 11
1206.527125303258
 21
286.7219286170664
 31
0.0
1001
AUSTER_ANSICHT
1002
{
1000
Det03
1002
}
1001
AUSTER_FOLIE
1002
{
1000
NSB00752A
1002
}
  0
LINE
  5
2AE1
330
1F
100
AcDbEntity
  8
11000_Left
  6
Continuous
370
    50
100
AcDbLine
 39
0.5
 10
1206.527125303258
 20
341.7219686170664
 30
0.0
 11
1206.525225303258
 21
338.1719686170663
 31
0.0
1001
AUSTER_ANSICHT
1002
{
1000
Det03
1002
}
1001
AUSTER_FOLIE
1002
{
1000
NSB00752A
1002
}
  0
LINE
  5
2AE2
330
1F
100
AcDbEntity
  8
11000_Left
  6
Continuous
370
    50
100
AcDbLine
 39
0.5
 10
1211.127125303258
 20
341.7219686170664
 30
0.0
 11
1213.727125303258
 21
341.7219686170664
 31
0.0
1001
AUSTER_ANSICHT
1002
{
1000
Det03
1002
}
1001
AUSTER_FOLIE
1002
{
1000
NSB00752A
1002
}
  0
LINE
  5
2AE3
330
1F
100
AcDbEntity
  8
11000_Left
  6
Continuous
370
    50
100
AcDbLine
 39
0.5
 10
1211.127125303258
 20
286.7219286170664
 30
0.0
 11
1213.727125303258
 21
286.7219286170664
 31
0.0
1001
AUSTER_ANSICHT
1002
{
1000
Det03
1002
}
1001
AUSTER_FOLIE
1002
{
1000
NSB00752A
1002
}
  0
LINE
  5
2AE4
330
1F
100
AcDbEntity
  8
11000_Left
  6
Continuous
370
    50
100
AcDbLine
 39
0.5
 10
1189.727125303257
 20
338.1719686170663
 30
0.0
 11
1205.927125303257
 21
338.1719686170663
 31
0.0
1001
AUSTER_ANSICHT
1002
{
1000
Det03
1002
}
1001
AUSTER_FOLIE
1002
{
1000
NSB00752A
1002
}
  0
LINE
  5
2AE5
330
1F
100
AcDbEntity
  8
11000_Left
  6
Continuous
370
    50
100
AcDbLine
 39
0.5
 10
1205.927125303257
 20
338.1719686170663
 30
0.0
 11
1206.525225303258
 21
338.1719686170663
 31
0.0
1001
AUSTER_ANSICHT
1002
{
1000
Det03
1002
}
1001
AUSTER_FOLIE
1002
{
1000
NSB00752A
1002
}
  0
LINE
  5
2AE6
330
1F
100
AcDbEntity
  8
11000_Left
  6
Continuous
370
    50
100
AcDbLine
 39
0.5
 10
1227.027125303258
 20
341.7219686170664
 30
0.0
 11
1230.696825303257
 21
341.7219686170664
 31
0.0
1001
AUSTER_ANSICHT
1002
{
1000
Det03
1002
}
1001
AUSTER_FOLIE
1002
{
1000
NSB00752A
1002
}
  0
LINE
  5
2AE7
330
1F
100
AcDbEntity
  8
11000_Left
370
    50
100
AcDbLine
 39
0.5
 10
1232.127125303257
 20
327.2219686170665
 30
0.0
 11
1232.127125303257
 21
301.2219286170664
 31
0.0
1001
AUSTER_ANSICHT
1002
{
1000
Det03
1002
}
1001
AUSTER_FOLIE
1002
{
1000
NSB00752A
1002
}
  0
LINE
  5
2AE8
330
1F
100
AcDbEntity
  8
11000_Left
  6
Continuous
370
    50
100
AcDbLine
 39
0.5
 10
1230.696825303257
 20
286.7219286170664
 30
0.0
 11
1222.251225303258
 21
286.7219286170664
 31
0.0
1001
AUSTER_ANSICHT
1002
{
1000
Det03
1002
}
1001
AUSTER_FOLIE
1002
{
1000
NSB00752A
1002
}
  0
LINE
  5
2AE9
330
1F
100
AcDbEntity
  8
11000_Left
  6
Continuous
370
    50
100
AcDbLine
 39
0.5
 10
1213.727125303258
 20
341.7219686170664
 30
0.0
 11
1227.027125303258
 21
341.7219686170664
 31
0.0
1001
AUSTER_ANSICHT
1002
{
1000
Det03
1002
}
1001
AUSTER_FOLIE
1002
{
1000
NSB00752A
1002
}
  0
LINE
  5
2AEA
330
1F
100
AcDbEntity
  8
11000_Left
  6
Continuous
370
    50
100
AcDbLine
 39
0.5
 10
1222.948125303258
 20
341.7219686170664
 30
0.0
 11
1222.594025303258
 21
341.7304486170664
 31
0.0
1001
AUSTER_ANSICHT
1002
{
1000
Det03
1002
}
1001
AUSTER_FOLIE
1002
{
1000
NSB00752A
1002
}
  0
LINE
  5
2AEB
330
1F
100
AcDbEntity
  8
11000_Left
  6
Continuous
370
    50
100
AcDbLine
 39
0.5
 10
1159.627125303257
 20
342.9219686170664
 30
0.0
 11
1159.627125303257
 21
335.1719686170663
 31
0.0
1001
AUSTER_ANSICHT
1002
{
1000
Det03
1002
}
1001
AUSTER_FOLIE
1002
{
1000
NSB00752A
1002
}
  0
LINE
  5
2AEC
330
1F
100
AcDbEntity
  8
11000_Left
  6
Continuous
370
    50
100
AcDbLine
 39
0.5
 10
1159.627125303257
 20
285.4219286170664
 30
0.0
 11
1159.627125303257
 21
294.6719286170664
 31
0.0
1001
AUSTER_ANSICHT
1002
{
1000
Det03
1002
}
1001
AUSTER_FOLIE
1002
{
1000
NSB00752A
1002
}
  0
LINE
  5
2AED
330
1F
100
AcDbEntity
  8
11000_Left
  6
Continuous
370
    50
100
AcDbLine
 39
0.5
 10
1159.627125303257
 20
285.4219286170664
 30
0.0
 11
1167.227125303258
 21
285.4219286170664
 31
0.0
1001
AUSTER_ANSICHT
1002
{
1000
Det03
1002
}
1001
AUSTER_FOLIE
1002
{
1000
NSB00752A
1002
}
  0
LINE
  5
2AEE
330
1F
100
AcDbEntity
  8
11000_Left
  6
Continuous
370
    50
100
AcDbLine
 39
0.5
 10
1159.627125303257
 20
342.9219686170664
 30
0.0
 11
1167.227125303258
 21
342.9219686170664
 31
0.0
1001
AUSTER_ANSICHT
1002
{
1000
Det03
1002
}
1001
AUSTER_FOLIE
1002
{
1000
NSB00752A
1002
}
  0
LINE
  5
2AEF
330
1F
100
AcDbEntity
  8
11000_Left
  6
Continuous
370
    50
100
AcDbLine
 39
0.5
 10
1167.227125303258
 20
285.4219286170664
 30
0.0
 11
1167.227125303258
 21
290.1719286170664
 31
0.0
1001
AUSTER_ANSICHT
1002
{
1000
Det03
1002
}
1001
AUSTER_FOLIE
1002
{
1000
NSB00752A
1002
}
  0
LINE
  5
2AF0
330
1F
100
AcDbEntity
  8
11000_Left
  6
Continuous
370
    50
100
AcDbLine
 39
0.5
 10
1167.227125303258
 20
342.9219686170664
 30
0.0
 11
1167.227125303258
 21
338.1719686170663
 31
0.0
1001
AUSTER_ANSICHT
1002
{
1000
Det03
1002
}
1001
AUSTER_FOLIE
1002
{
1000
NSB00752A
1002
}
  0
LINE
  5
2AF1
330
1F
100
AcDbEntity
  8
11000_Left
  6
Continuous
370
    50
100
AcDbLine
 39
0.5
 10
1206.527125303258
 20
286.7219286170664
 30
0.0
 11
1211.127125303258
 21
286.7219286170664
 31
0.0
1001
AUSTER_ANSICHT
1002
{
1000
Det03
1002
}
1001
AUSTER_FOLIE
1002
{
1000
NSB00752A
1002
}
  0
LINE
  5
2AF2
330
1F
100
AcDbEntity
  8
11000_Left
  6
Continuous
370
    50
100
AcDbLine
 39
0.5
 10
1206.527125303258
 20
341.7219686170664
 30
0.0
 11
1211.127125303258
 21
341.7219686170664
 31
0.0
1001
AUSTER_ANSICHT
1002
{
1000
Det03
1002
}
1001
AUSTER_FOLIE
1002
{
1000
NSB00752A
1002
}
  0
LINE
  5
2AF3
330
1F
100
AcDbEntity
  8
11000_Left
  6
Continuous
370
    50
100
AcDbLine
 39
0.5
 10
1232.127125303257
 20
300.9791286170663
 30
0.0
 11
1232.127125303257
 21
296.9719286170663
 31
0.0
1001
AUSTER_ANSICHT
1002
{
1000
Det03
1002
}
1001
AUSTER_FOLIE
1002
{
1000
NSB00752A
1002
}
  0
LINE
  5
2AF4
330
1F
100
AcDbEntity
  8
11000_Left
  6
Continuous
370
    50
100
AcDbLine
 39
0.5
 10
1232.127125303257
 20
327.2219686170665
 30
0.0
 11
1232.127125303257
 21
331.4719686170665
 31
0.0
1001
AUSTER_ANSICHT
1002
{
1000
Det03
1002
}
1001
AUSTER_FOLIE
1002
{
1000
NSB00752A
1002
}
  0
LINE
  5
2AF5
330
1F
100
AcDbEntity
  8
11000_Left
  6
Continuous
370
    50
100
AcDbLine
 39
0.5
 10
1189.727125303257
 20
338.1719686170663
 30
0.0
 11
1205.927125303257
 21
338.1719686170663
 31
0.0
1001
AUSTER_ANSICHT
1002
{
1000
Det03
1002
}
1001
AUSTER_FOLIE
1002
{
1000
NSB00752A
1002
}
  0
LINE
  5
2AF6
330
1F
100
AcDbEntity
  8
11000_Left
  6
Continuous
370
    13
100
AcDbLine
 39
0.5
 10
1205.927125303257
 20
290.1719286170664
 30
0.0
 11
1189.727125303257
 21
290.1719286170664
 31
0.0
1001
AUSTER_ANSICHT
1002
{
1000
Det03
1002
}
1001
AUSTER_FOLIE
1002
{
1000
NSB00752A
1002
}
  0
LINE
  5
2AF7
330
1F
100
AcDbEntity
  8
11000_Left
  6
Continuous
370
    13
100
AcDbLine
 39
0.5
 10
1206.525225303258
 20
290.1719286170664
 30
0.0
 11
1205.927125303257
 21
290.1719286170664
 31
0.0
1001
AUSTER_ANSICHT
1002
{
1000
Det03
1002
}
1001
AUSTER_FOLIE
1002
{
1000
NSB00752A
1002
}
  0
LINE
  5
2AF8
330
1F
100
AcDbEntity
  8
11000_Left
  6
Continuous
370
    50
100
AcDbLine
 39
0.5
 10
1205.927125303257
 20
338.1719686170663
 30
0.0
 11
1206.525225303258
 21
338.1719686170663
 31
0.0
1001
AUSTER_ANSICHT
1002
{
1000
Det03
1002
}
1001
AUSTER_FOLIE
1002
{
1000
NSB00752A
1002
}
  0
LINE
  5
2AF9
330
1F
100
AcDbEntity
  8
11000_Left
  6
Continuous
370
    50
100
AcDbLine
 39
0.5
 10
1227.027125303258
 20
341.7219686170664
 30
0.0
 11
1230.696825303257
 21
341.7219686170664
 31
0.0
1001
AUSTER_ANSICHT
1002
{
1000
Det03
1002
}
1001
AUSTER_FOLIE
1002
{
1000
NSB00752A
1002
}
  0
LINE
  5
2AFA
330
1F
100
AcDbEntity
  8
11000_Left
  6
Continuous
370
    13
100
AcDbLine
 39
0.25
 10
1227.027125303258
 20
340.7219686170663
 30
0.0
 11
1227.027125303258
 21
341.7219686170664
 31
0.0
1001
AUSTER_ANSICHT
1002
{
1000
Det03
1002
}
1001
AUSTER_FOLIE
1002
{
1000
NSB00752A
1002
}
  0
LINE
  5
2AFB
330
1F
100
AcDbEntity
  8
11000_Left
  6
Continuous
370
    13
100
AcDbLine
 39
0.25
 10
1230.627125303258
 20
318.5719686170664
 30
0.0
 11
1230.627125303258
 21
309.8719686170664
 31
0.0
1001
AUSTER_ANSICHT
1002
{
1000
Det03
1002
}
1001
AUSTER_FOLIE
1002
{
1000
NSB00752A
1002
}
  0
LINE
  5
2AFC
330
1F
100
AcDbEntity
  8
11000_Left
  6
Continuous
370
    13
100
AcDbLine
 39
0.25
 10
1227.027125303258
 20
318.5741386170662
 30
0.0
 11
1230.627125303258
 21
318.5719686170664
 31
0.0
1001
AUSTER_ANSICHT
1002
{
1000
Det03
1002
}
1001
AUSTER_FOLIE
1002
{
1000
NSB00752A
1002
}
  0
LINE
  5
2AFD
330
1F
100
AcDbEntity
  8
11000_Left
  6
Continuous
370
    13
100
AcDbLine
 39
0.25
 10
1227.027125303258
 20
318.5741386170662
 30
0.0
 11
1227.027125303258
 21
340.7219686170663
 31
0.0
1001
AUSTER_ANSICHT
1002
{
1000
Det03
1002
}
1001
AUSTER_FOLIE
1002
{
1000
NSB00752A
1002
}
  0
LINE
  5
2AFE
330
1F
100
AcDbEntity
  8
11000_Left
  6
Continuous
370
    13
100
AcDbLine
 39
0.25
 10
1230.627125303258
 20
309.8719686170664
 30
0.0
 11
1227.027125303258
 21
309.8698086170664
 31
0.0
1001
AUSTER_ANSICHT
1002
{
1000
Det03
1002
}
1001
AUSTER_FOLIE
1002
{
1000
NSB00752A
1002
}
  0
LINE
  5
2AFF
330
1F
100
AcDbEntity
  8
11000_Left
  6
Continuous
370
    13
100
AcDbLine
 39
0.25
 10
1227.027125303258
 20
287.7219286170663
 30
0.0
 11
1227.027125303258
 21
309.8698086170664
 31
0.0
1001
AUSTER_ANSICHT
1002
{
1000
Det03
1002
}
1001
AUSTER_FOLIE
1002
{
1000
NSB00752A
1002
}
  0
LINE
  5
2B00
330
1F
100
AcDbEntity
  8
11000_Left
  6
Continuous
370
    13
100
AcDbLine
 39
0.25
 10
1227.027125303258
 20
286.7219286170664
 30
0.0
 11
1227.027125303258
 21
287.7219286170663
 31
0.0
1001
AUSTER_ANSICHT
1002
{
1000
Det03
1002
}
1001
AUSTER_FOLIE
1002
{
1000
NSB00752A
1002
}
  0
LINE
  5
2B01
330
1F
100
AcDbEntity
  8
11000_Left
  6
Continuous
370
    50
100
AcDbLine
 39
0.5
 10
1214.644225303257
 20
286.7219286170664
 30
0.0
 11
1222.254125303258
 21
286.7219286170664
 31
0.0
1001
AUSTER_ANSICHT
1002
{
1000
Det03
1002
}
1001
AUSTER_FOLIE
1002
{
1000
NSB00752A
1002
}
  0
LINE
  5
2B02
330
1F
100
AcDbEntity
  8
11000_Left
  6
Continuous
370
    50
100
AcDbLine
 39
0.5
 10
1211.127125303258
 20
286.7219286170664
 30
0.0
 11
1213.727125303258
 21
286.7219286170664
 31
0.0
1001
AUSTER_ANSICHT
1002
{
1000
Det03
1002
}
1001
AUSTER_FOLIE
1002
{
1000
NSB00752A
1002
}
  0
LINE
  5
2B03
330
1F
100
AcDbEntity
  8
11000_Left
  6
Continuous
370
    50
100
AcDbLine
 39
0.5
 10
1214.644225303257
 20
286.7219286170664
 30
0.0
 11
1213.727125303258
 21
286.7219286170664
 31
0.0
1001
AUSTER_ANSICHT
1002
{
1000
Det03
1002
}
1001
AUSTER_FOLIE
1002
{
1000
NSB00752A
1002
}
  0
LINE
  5
2B04
330
1F
100
AcDbEntity
  8
11000_Left
  6
Continuous
370
    50
100
AcDbLine
 39
0.5
 10
1227.027125303258
 20
286.7219286170664
 30
0.0
 11
1222.251225303258
 21
286.7219286170664
 31
0.0
1001
AUSTER_ANSICHT
1002
{
1000
Det03
1002
}
1001
AUSTER_FOLIE
1002
{
1000
NSB00752A
1002
}
  0
LINE
  5
2B05
330
1F
100
AcDbEntity
  8
11000_Left
  6
Continuous
370
    13
100
AcDbLine
 39
0.25
 10
1210.627125303258
 20
315.4719686170663
 30
0.0
 11
1227.027125303258
 21
315.4719686170663
 31
0.0
1001
AUSTER_ANSICHT
1002
{
1000
Det03
1002
}
1001
AUSTER_FOLIE
1002
{
1000
NSB00752A
1002
}
  0
LINE
  5
2B06
330
1F
100
AcDbEntity
  8
11000_Left
  6
Continuous
370
    13
100
AcDbLine
 39
0.25
 10
1210.627125303258
 20
312.9719686170665
 30
0.0
 11
1210.627125303258
 21
315.4719686170663
 31
0.0
1001
AUSTER_ANSICHT
1002
{
1000
Det03
1002
}
1001
AUSTER_FOLIE
1002
{
1000
NSB00752A
1002
}
  0
LINE
  5
2B07
330
1F
100
AcDbEntity
  8
11000_Left
  6
Continuous
370
    13
100
AcDbLine
 39
0.25
 10
1227.027125303258
 20
312.9719686170665
 30
0.0
 11
1210.627125303258
 21
312.9719686170665
 31
0.0
1001
AUSTER_ANSICHT
1002
{
1000
Det03
1002
}
1001
AUSTER_FOLIE
1002
{
1000
NSB00752A
1002
}
  0
LINE
  5
2B08
330
1F
100
AcDbEntity
  8
11000_Left
  6
Continuous
370
    13
100
AcDbLine
 39
0.25
 10
1227.027125303258
 20
309.8698086170664
 30
0.0
 11
1227.027125303258
 21
312.9719686170665
 31
0.0
1001
AUSTER_ANSICHT
1002
{
1000
Det03
1002
}
1001
AUSTER_FOLIE
1002
{
1000
NSB00752A
1002
}
  0
LINE
  5
2B09
330
1F
100
AcDbEntity
  8
11000_Left
  6
Continuous
370
    50
100
AcDbLine
 39
0.5
 10
1213.727125303258
 20
341.7219686170664
 30
0.0
 11
1227.027125303258
 21
341.7219686170664
 31
0.0
1001
AUSTER_ANSICHT
1002
{
1000
Det03
1002
}
1001
AUSTER_FOLIE
1002
{
1000
NSB00752A
1002
}
  0
LINE
  5
2B0A
330
1F
100
AcDbEntity
  8
11000_Left
  6
Continuous
370
    50
100
AcDbLine
 39
0.5
 10
1211.127125303258
 20
341.7219686170664
 30
0.0
 11
1213.727125303258
 21
341.7219686170664
 31
0.0
1001
AUSTER_ANSICHT
1002
{
1000
Det03
1002
}
1001
AUSTER_FOLIE
1002
{
1000
NSB00752A
1002
}
  0
LINE
  5
2B0B
330
1F
100
AcDbEntity
  8
11000_Left
  6
Continuous
370
    13
100
AcDbLine
 39
0.25
 10
1227.027125303258
 20
315.4719686170663
 30
0.0
 11
1227.027125303258
 21
318.5741386170662
 31
0.0
1001
AUSTER_ANSICHT
1002
{
1000
Det03
1002
}
1001
AUSTER_FOLIE
1002
{
1000
NSB00752A
1002
}
  0
LINE
  5
2B0C
330
1F
100
AcDbEntity
  8
11000_Left
  6
Continuous
370
    50
100
AcDbLine
 39
0.5
 10
1222.948125303258
 20
341.7219686170664
 30
0.0
 11
1222.594025303258
 21
341.7304486170664
 31
0.0
1001
AUSTER_ANSICHT
1002
{
1000
Det03
1002
}
1001
AUSTER_FOLIE
1002
{
1000
NSB00752A
1002
}
  0
LINE
  5
2B0D
330
1F
100
AcDbEntity
  8
11000_Left
  6
Continuous
370
    50
100
AcDbLine
 39
0.5
 10
1159.627125303257
 20
285.4219286170664
 30
0.0
 11
1167.227125303258
 21
285.4219286170664
 31
0.0
1001
AUSTER_ANSICHT
1002
{
1000
Det03
1002
}
1001
AUSTER_FOLIE
1002
{
1000
NSB00752A
1002
}
  0
LINE
  5
2B0E
330
1F
100
AcDbEntity
  8
11000_Left
  6
Continuous
370
    50
100
AcDbLine
 39
0.5
 10
1159.627125303257
 20
342.9219686170664
 30
0.0
 11
1167.227125303258
 21
342.9219686170664
 31
0.0
1001
AUSTER_ANSICHT
1002
{
1000
Det03
1002
}
1001
AUSTER_FOLIE
1002
{
1000
NSB00752A
1002
}
  0
LINE
  5
2B0F
330
1F
100
AcDbEntity
  8
11000_Left
  6
Continuous
370
    50
100
AcDbLine
 39
0.5
 10
1206.527125303258
 20
286.7219286170664
 30
0.0
 11
1211.127125303258
 21
286.7219286170664
 31
0.0
1001
AUSTER_ANSICHT
1002
{
1000
Det03
1002
}
1001
AUSTER_FOLIE
1002
{
1000
NSB00752A
1002
}
  0
LINE
  5
2B10
330
1F
100
AcDbEntity
  8
11000_Left
  6
Continuous
370
    13
100
AcDbLine
 39
0.5
 10
1206.527125303258
 20
291.3219286170664
 30
0.0
 11
1206.527125303258
 21
290.1719286170664
 31
0.0
1001
AUSTER_ANSICHT
1002
{
1000
Det03
1002
}
1001
AUSTER_FOLIE
1002
{
1000
NSB00752A
1002
}
  0
LINE
  5
2B11
330
1F
100
AcDbEntity
  8
11000_Left
  6
Continuous
370
    50
100
AcDbLine
 39
0.5
 10
1206.527125303258
 20
341.7219686170664
 30
0.0
 11
1211.127125303258
 21
341.7219686170664
 31
0.0
1001
AUSTER_ANSICHT
1002
{
1000
Det03
1002
}
1001
AUSTER_FOLIE
1002
{
1000
NSB00752A
1002
}
  0
LINE
  5
2B12
330
1F
100
AcDbEntity
  8
11000_Left
  6
Continuous
370
    13
100
AcDbLine
 39
0.5
 10
1206.527125303258
 20
337.0219686170664
 30
0.0
 11
1206.527125303258
 21
338.1719686170663
 31
0.0
1001
AUSTER_ANSICHT
1002
{
1000
Det03
1002
}
1001
AUSTER_FOLIE
1002
{
1000
NSB00752A
1002
}
  0
LINE
  5
2B13
330
1F
100
AcDbEntity
  8
11000_Left
  6
Continuous
370
    13
100
AcDbLine
 39
0.25
 10
1196.866325303258
 20
291.3219286170664
 30
0.0
 11
1206.527125303258
 21
291.3219286170664
 31
0.0
1001
AUSTER_ANSICHT
1002
{
1000
Det03
1002
}
1001
AUSTER_FOLIE
1002
{
1000
NSB00752A
1002
}
  0
LINE
  5
2B14
330
1F
100
AcDbEntity
  8
11000_Left
  6
Continuous
370
    13
100
AcDbLine
 39
0.25
 10
1196.866325303258
 20
337.0219686170664
 30
0.0
 11
1206.527125303258
 21
337.0219686170664
 31
0.0
1001
AUSTER_ANSICHT
1002
{
1000
Det03
1002
}
1001
AUSTER_FOLIE
1002
{
1000
NSB00752A
1002
}
  0
LINE
  5
2B15
330
1F
100
AcDbEntity
  8
11000_Left
  6
Continuous
370
    50
100
AcDbLine
 39
0.5
 10
1231.874625303257
 20
292.5219286170663
 30
0.0
 11
1231.493425303258
 21
287.4485286170664
 31
0.0
1001
AUSTER_ANSICHT
1002
{
1000
Det03
1002
}
1001
AUSTER_FOLIE
1002
{
1000
NSB00752A
1002
}
  0
LINE
  5
2B16
330
1F
100
AcDbEntity
  8
11000_Left
  6
Continuous
370
    50
100
AcDbLine
 39
0.5
 10
1232.127125303257
 20
296.9719286170663
 30
0.0
 11
1231.874625303257
 21
292.5219286170663
 31
0.0
1001
AUSTER_ANSICHT
1002
{
1000
Det03
1002
}
1001
AUSTER_FOLIE
1002
{
1000
NSB00752A
1002
}
  0
LINE
  5
2B17
330
1F
100
AcDbEntity
  8
11000_Left
  6
Continuous
370
    50
100
AcDbLine
 39
0.5
 10
1232.127125303257
 20
296.9719286170663
 30
0.0
 11
1232.127125303257
 21
300.9791286170663
 31
0.0
1001
AUSTER_ANSICHT
1002
{
1000
Det03
1002
}
1001
AUSTER_FOLIE
1002
{
1000
NSB00752A
1002
}
  0
LINE
  5
2B18
330
1F
100
AcDbEntity
  8
11000_Left
  6
Continuous
370
    50
100
AcDbLine
 39
0.5
 10
1232.127125303257
 20
331.4719686170665
 30
0.0
 11
1232.127125303257
 21
327.4647886170663
 31
0.0
1001
AUSTER_ANSICHT
1002
{
1000
Det03
1002
}
1001
AUSTER_FOLIE
1002
{
1000
NSB00752A
1002
}
  0
LINE
  5
2B19
330
1F
100
AcDbEntity
  8
11000_Left
  6
Continuous
370
    50
100
AcDbLine
 39
0.5
 10
1232.127125303257
 20
331.4719686170665
 30
0.0
 11
1231.874625303257
 21
335.9219686170663
 31
0.0
1001
AUSTER_ANSICHT
1002
{
1000
Det03
1002
}
1001
AUSTER_FOLIE
1002
{
1000
NSB00752A
1002
}
  0
LINE
  5
2B1A
330
1F
100
AcDbEntity
  8
11000_Left
  6
Continuous
370
    50
100
AcDbLine
 39
0.5
 10
1231.874625303257
 20
335.9219686170663
 30
0.0
 11
1231.493425303258
 21
340.9954286170663
 31
0.0
1001
AUSTER_ANSICHT
1002
{
1000
Det03
1002
}
1001
AUSTER_FOLIE
1002
{
1000
NSB00752A
1002
}
  0
LINE
  5
2B1B
330
1F
100
AcDbEntity
  8
11000_Left
  6
Continuous
370
    50
100
AcDbLine
 39
0.5
 10
1167.227125303258
 20
285.4219286170664
 30
0.0
 11
1167.227125303258
 21
290.1719286170664
 31
0.0
1001
AUSTER_ANSICHT
1002
{
1000
Det03
1002
}
1001
AUSTER_FOLIE
1002
{
1000
NSB00752A
1002
}
  0
LINE
  5
2B1C
330
1F
100
AcDbEntity
  8
11000_Left
  6
Continuous
370
    50
100
AcDbLine
 39
0.5
 10
1159.627125303257
 20
285.4219286170664
 30
0.0
 11
1159.627125303257
 21
294.6719286170664
 31
0.0
1001
AUSTER_ANSICHT
1002
{
1000
Det03
1002
}
1001
AUSTER_FOLIE
1002
{
1000
NSB00752A
1002
}
  0
LINE
  5
2B1D
330
1F
100
AcDbEntity
  8
11000_Left
  6
Continuous
370
    50
100
AcDbLine
 39
0.5
 10
1167.227125303258
 20
342.9219686170664
 30
0.0
 11
1167.227125303258
 21
338.1719686170663
 31
0.0
1001
AUSTER_ANSICHT
1002
{
1000
Det03
1002
}
1001
AUSTER_FOLIE
1002
{
1000
NSB00752A
1002
}
  0
LINE
  5
2B1E
330
1F
100
AcDbEntity
  8
11000_Left
  6
Continuous
370
    50
100
AcDbLine
 39
0.5
 10
1159.627125303257
 20
342.9219686170664
 30
0.0
 11
1159.627125303257
 21
335.1719686170663
 31
0.0
1001
AUSTER_ANSICHT
1002
{
1000
Det03
1002
}
1001
AUSTER_FOLIE
1002
{
1000
NSB00752A
1002
}
  0
LINE
  5
2B1F
330
1F
100
AcDbEntity
  8
11000_Left
370
    50
100
AcDbLine
 39
0.5
 10
1232.127125303257
 20
327.2219686170665
 30
0.0
 11
1232.127125303257
 21
301.2219286170664
 31
0.0
1001
AUSTER_ANSICHT
1002
{
1000
Det03
1002
}
1001
AUSTER_FOLIE
1002
{
1000
NSB00752A
1002
}
  0
LINE
  5
2B20
330
1F
100
AcDbEntity
  8
11000_Left
  6
Continuous
370
    50
100
AcDbLine
 39
0.5
 10
1214.644225303257
 20
286.7219286170664
 30
0.0
 11
1222.254125303258
 21
286.7219286170664
 31
0.0
1001
AUSTER_ANSICHT
1002
{
1000
Det03
1002
}
1001
AUSTER_FOLIE
1002
{
1000
NSB00752A
1002
}
  0
LINE
  5
2B21
330
1F
100
AcDbEntity
  8
11000_Left
  6
Continuous
370
    13
100
AcDbLine
 39
0.25
 10
1195.827125303257
 20
299.9219286170664
 30
0.0
 11
1195.827125303257
 21
328.4219686170664
 31
0.0
1001
AUSTER_ANSICHT
1002
{
1000
Det03
1002
}
1001
AUSTER_FOLIE
1002
{
1000
NSB00752A
1002
}
  0
LINE
  5
2B22
330
1F
100
AcDbEntity
  8
10000_FRONT
  6
Continuous
370
    13
100
AcDbLine
 39
0.25
 10
1129.207609277351
 20
309.0919686170664
 30
0.0
 11
1129.207609277351
 21
310.5419686170663
 31
0.0
1001
AUSTER_ANSICHT
1002
{
1000
Det03
1002
}
1001
AUSTER_FOLIE
1002
{
1000
NSB00752A
1002
}
  0
LINE
  5
2B23
330
1F
100
AcDbEntity
  8
11000_Left
370
    50
100
AcDbLine
 39
0.5
 10
1232.127125303257
 20
325.9719686170663
 30
0.0
 11
1232.127125303257
 21
302.4719286170663
 31
0.0
1001
AUSTER_ANSICHT
1002
{
1000
Det03
1002
}
1001
AUSTER_FOLIE
1002
{
1000
NSB00752A
1002
}
  0
LINE
  5
2B24
330
1F
100
AcDbEntity
  8
10000_FRONT
  6
Continuous
370
    13
100
AcDbLine
 39
0.25
 10
1106.837619277351
 20
316.4919486170664
 30
0.0
 11
1106.837619277351
 21
311.8919886170664
 31
0.0
1001
AUSTER_ANSICHT
1002
{
1000
Det03
1002
}
1001
AUSTER_FOLIE
1002
{
1000
NSB00752A
1002
}
  0
DIMENSION
  5
2B25
330
1F
100
AcDbEntity
  8
30100_Drilling_DIM
  6
Continuous
370
    13
100
AcDbDimension
  2
*D2
 10
1287.213834489918
 20
278.7889286170663
 30
0.0
 11
1269.713834489919
 21
278.7889286170663
 31
0.0
 70
    32
 71
     5
 42
34.99999999999909
  3
DSTYLE1
100
AcDbAlignedDimension
 13
1252.213834489919
 23
289.2219286170663
 33
0.0
 14
1287.213834489918
 24
287.7219286170663
 34
0.0
100
AcDbRotatedDimension
1001
AUSTER_FOLIE
1002
{
1000
NSB00752A
1002
}
1001
AUSTER_ANSICHT
1002
{
1000
Det03
1002
}
1001
ACAD
1000
DSTYLE
1002
{
1070
    41
1040
2.0
1070
    42
1040
1.0
1070
    43
1040
1.0
1070
    47
1040
0.005
1070
    48
1040
-0.005
1070
    77
1070
     0
1070
    78
1070
     0
1070
   143
1040
25.4
1070
   171
1070
     0
1070
   172
1070
     1
1070
   271
1070
     0
1070
   272
1070
     1
1070
   277
1070
     6
1002
}
  0
DIMENSION
  5
2B26
330
1F
100
AcDbEntity
  8
30100_Drilling_DIM
  6
Continuous
370
    13
100
AcDbDimension
  2
*D3
 10
1299.734134489918
 20
289.2219286170663
 30
0.0
 11
1299.734134489918
 21
314.2219286170666
 31
0.0
 70
    32
 71
     5
 42
50.0000000000001
  3
DSTYLE1
100
AcDbAlignedDimension
 13
1287.214134489919
 23
339.2219286170665
 33
0.0
 14
1287.213834489918
 24
289.2219286170663
 34
0.0
 50
90.0
100
AcDbRotatedDimension
1001
AUSTER_FOLIE
1002
{
1000
NSB00752A
1002
}
1001
AUSTER_ANSICHT
1002
{
1000
Det03
1002
}
1001
ACAD
1000
DSTYLE
1002
{
1070
    41
1040
2.0
1070
    42
1040
1.0
1070
    43
1040
1.0
1070
    47
1040
0.005
1070
    48
1040
-0.005
1070
    77
1070
     0
1070
    78
1070
     0
1070
   143
1040
25.4
1070
   171
1070
     0
1070
   172
1070
     1
1070
   271
1070
     0
1070
   272
1070
     1
1070
   277
1070
     6
1002
}
  0
DIMENSION
  5
2B27
330
1F
100
AcDbEntity
  8
30100_Drilling_DIM
  6
Continuous
370
    13
100
AcDbDimension
  2
*D4
 10
1264.746134489918
 20
336.7219286170664
 30
0.0
 11
1264.746134489918
 21
339.2219286170666
 31
0.0
 70
    32
 71
     5
 42
4.999999999999886
  3
DSTYLE1
100
AcDbAlignedDimension
 13
1252.227976568974
 23
341.7219286170663
 33
0.0
 14
1252.227976568974
 24
336.7219286170664
 34
0.0
 50
90.0
100
AcDbRotatedDimension
1001
AUSTER_FOLIE
1002
{
1000
NSB00752A
1002
}
1001
AUSTER_ANSICHT
1002
{
1000
Det03
1002
}
1001
ACAD
1000
DSTYLE
1002
{
1070
    41
1040
2.0
1070
    42
1040
1.0
1070
    43
1040
1.0
1070
    47
1040
0.005
1070
    48
1040
-0.005
1070
    77
1070
     0
1070
    78
1070
     0
1070
   143
1040
25.4
1070
   171
1070
     0
1070
   172
1070
     1
1070
   271
1070
     0
1070
   272
1070
     1
1070
   277
1070
     6
1002
}
  0
DIMENSION
  5
2B28
330
1F
100
AcDbEntity
  8
10100_FRONT_DIM
  6
Continuous
370
    13
100
AcDbDimension
  2
*D5
 10
1135.607689277351
 20
360.1569286170664
 30
0.0
 11
1113.107689277351
 21
360.1569286170664
 31
0.0
 70
    32
 71
     5
 42
45.0
  3
DSTYLE1
100
AcDbAlignedDimension
 13
1090.607689277351
 23
342.9419686170664
 33
0.0
 14
1135.607689277351
 24
342.9419686170664
 34
0.0
100
AcDbRotatedDimension
1001
AUSTER_FOLIE
1002
{
1000
NSB00752A
1002
}
1001
AUSTER_ANSICHT
1002
{
1000
Det03
1002
}
1001
ACAD
1000
DSTYLE
1002
{
1070
    41
1040
2.0
1070
    42
1040
1.0
1070
    43
1040
1.0
1070
    47
1040
0.005
1070
    48
1040
-0.005
1070
    77
1070
     0
1070
    78
1070
     0
1070
   143
1040
25.4
1070
   171
1070
     0
1070
   172
1070
     1
1070
   271
1070
     0
1070
   272
1070
     1
1070
   277
1070
     6
1002
}
  0
DIMENSION
  5
2B29
330
1F
100
AcDbEntity
  8
10100_FRONT_DIM
  6
Continuous
370
    13
100
AcDbDimension
  2
*D6
 10
1104.50760927735
 20
353.1769286170665
 30
0.0
 11
1100.207649277351
 21
353.1769286170665
 31
0.0
 70
   160
 71
     5
 42
8.599919999998974
  3
DSTYLE1
100
AcDbAlignedDimension
 13
1095.907689277351
 23
332.1919286170664
 33
0.0
 14
1104.50760927735
 24
332.1919686170665
 34
0.0
100
AcDbRotatedDimension
1001
AUSTER_FOLIE
1002
{
1000
NSB00752A
1002
}
1001
AUSTER_ANSICHT
1002
{
1000
Det03
1002
}
1001
ACAD
1000
DSTYLE
1002
{
1070
    41
1040
2.0
1070
    42
1040
1.0
1070
    43
1040
1.0
1070
    47
1040
0.005
1070
    48
1040
-0.005
1070
    77
1070
     0
1070
    78
1070
     0
1070
   143
1040
25.4
1070
   171
1070
     0
1070
   172
1070
     1
1070
   271
1070
     0
1070
   272
1070
     1
1070
   277
1070
     6
1002
}
  0
DIMENSION
  5
2B2A
330
1F
100
AcDbEntity
  8
10100_FRONT_DIM
  6
Continuous
370
    13
100
AcDbDimension
  2
*D7
 10
1090.607689277351
 20
353.1753880765257
 30
0.0
 11
1093.257689277351
 21
353.1753880765257
 31
0.0
 70
    32
 71
     5
 42
5.299999999999954
  3
DSTYLE1
100
AcDbAlignedDimension
 13
1095.907689277351
 23
332.1919286170664
 33
0.0
 14
1090.607689277351
 24
342.9419286170664
 34
0.0
100
AcDbRotatedDimension
1001
AUSTER_FOLIE
1002
{
1000
NSB00752A
1002
}
1001
AUSTER_ANSICHT
1002
{
1000
Det03
1002
}
1001
ACAD
1000
DSTYLE
1002
{
1070
    41
1040
2.0
1070
    42
1040
1.0
1070
    43
1040
1.0
1070
    47
1040
0.005
1070
    48
1040
-0.005
1070
    77
1070
     0
1070
    78
1070
     0
1070
   143
1040
25.4
1070
   171
1070
     0
1070
   172
1070
     1
1070
   271
1070
     0
1070
   272
1070
     1
1070
   277
1070
     6
1002
}
  0
DIMENSION
  5
2B2B
330
1F
100
AcDbEntity
  8
10100_FRONT_DIM
  6
Continuous
370
    13
100
AcDbDimension
  2
*D8
 10
1144.317189277351
 20
285.4419286170664
 30
0.0
 11
1144.317189277351
 21
314.1919286170665
 31
0.0
 70
    32
 71
     5
 42
57.5
  3
DSTYLE1
100
AcDbAlignedDimension
 13
1135.607689277351
 23
342.9419286170664
 33
0.0
 14
1135.607689277351
 24
285.4419286170664
 34
0.0
 50
90.0
100
AcDbRotatedDimension
1001
AUSTER_FOLIE
1002
{
1000
NSB00752A
1002
}
1001
AUSTER_ANSICHT
1002
{
1000
Det03
1002
}
1001
ACAD
1000
DSTYLE
1002
{
1070
    41
1040
2.0
1070
    42
1040
1.0
1070
    43
1040
1.0
1070
    47
1040
0.005
1070
    48
1040
-0.005
1070
    77
1070
     0
1070
    78
1070
     0
1070
   143
1040
25.4
1070
   171
1070
     0
1070
   172
1070
     1
1070
   271
1070
     1
1070
   272
1070
     1
1070
   277
1070
     6
1002
}
  0
DIMENSION
  5
2B2C
330
1F
100
AcDbEntity
  8
11100_LEFT_DIM
  6
Continuous
370
    13
100
AcDbDimension
  2
*D9
 10
1164.627125303258
 20
352.8259286170663
 30
0.0
 11
1162.127125303258
 21
352.8259286170663
 31
0.0
 70
   160
 71
     5
 42
5.0
  3
DSTYLE1
100
AcDbAlignedDimension
 13
1159.627125303257
 23
342.9219686170664
 33
0.0
 14
1164.627125303258
 24
335.1719686170663
 34
0.0
100
AcDbRotatedDimension
1001
AUSTER_FOLIE
1002
{
1000
NSB00752A
1002
}
1001
AUSTER_ANSICHT
1002
{
1000
Det03
1002
}
1001
ACAD
1000
DSTYLE
1002
{
1070
    41
1040
2.0
1070
    42
1040
1.0
1070
    43
1040
1.0
1070
    47
1040
0.005
1070
    48
1040
-0.005
1070
    77
1070
     0
1070
    78
1070
     0
1070
   143
1040
25.4
1070
   171
1070
     0
1070
   172
1070
     1
1070
   271
1070
     0
1070
   272
1070
     1
1070
   277
1070
     6
1070
   279
1070
     0
1002
}
  0
DIMENSION
  5
2B2D
330
1F
100
AcDbEntity
  8
11100_LEFT_DIM
  6
Continuous
370
    13
100
AcDbDimension
  2
*D10
 10
1232.127125303257
 20
352.8259786170664
 30
0.0
 11
1198.377275303258
 21
352.8259786170664
 31
0.0
 70
    32
 71
     5
 42
67.49970000000008
  3
DSTYLE1
100
AcDbAlignedDimension
 13
1164.627425303258
 23
335.1719286170664
 33
0.0
 14
1232.127125303257
 24
329.4683786170664
 34
0.0
100
AcDbRotatedDimension
1001
AUSTER_FOLIE
1002
{
1000
NSB00752A
1002
}
1001
AUSTER_ANSICHT
1002
{
1000
Det03
1002
}
1001
ACAD
1000
DSTYLE
1002
{
1070
    41
1040
2.0
1070
    42
1040
1.0
1070
    43
1040
1.0
1070
    47
1040
0.005
1070
    48
1040
-0.005
1070
    77
1070
     0
1070
    78
1070
     0
1070
   143
1040
25.4
1070
   171
1070
     0
1070
   172
1070
     1
1070
   271
1070
     0
1070
   272
1070
     1
1070
   277
1070
     6
1070
   279
1070
     0
1002
}
  0
LINE
  5
3866
330
1F
100
AcDbEntity
  8
90000_FRAME
  6
Continuous
 62
     7
100
AcDbLine
 10
1055.918444335711
 20
202.257037917318
 30
0.0
 11
1055.918444335711
 21
402.2570379173179
 31
0.0
  0
LINE
  5
3867
330
1F
100
AcDbEntity
  8
90000_FRAME
  6
Continuous
 62
     7
100
AcDbLine
 10
1055.918444335711
 20
402.2570379173179
 30
0.0
 11
1325.918444335711
 21
402.2570379173179
 31
0.0
  0
LINE
  5
397C
330
1F
100
AcDbEntity
  8
11000_Left
  6
Continuous
370
    13
100
AcDbLine
 39
0.5
 10
1206.527125303258
 20
338.4667561750213
 30
0.0
 11
1206.527125303258
 21
341.7219686170664
 31
0.0
1001
AUSTER_ANSICHT
1002
{
1000
Det03
1002
}
1001
AUSTER_FOLIE
1002
{
1000
NSB00752A
1002
}
  0
LINE
  5
397F
330
1F
100
AcDbEntity
  8
11000_Left
  6
Continuous
370
    50
100
AcDbLine
 39
0.5
 10
1206.527125303258
 20
290.1719286170664
 30
0.0
 11
1206.527125303258
 21
286.7219286170664
 31
0.0
1001
AUSTER_ANSICHT
1002
{
1000
Det03
1002
}
1001
AUSTER_FOLIE
1002
{
1000
NSB00752A
1002
}
  0
DIMENSION
  5
399C
102
{ACAD_XDICTIONARY
360
39AA
102
}
102
{ACAD_REACTORS
330
39B5
102
}
330
1F
100
AcDbEntity
  8
0
100
AcDbDimension
  2
*D11
 10
1078.799995178544
 20
296.1919286170664
 30
0.0
 11
1078.799995178544
 21
314.1919486170666
 31
0.0
 70
    32
 71
     5
 42
36.00004000000013
  3
ISO-25
100
AcDbAlignedDimension
 13
1095.90760927735
 23
332.1919686170665
 33
0.0
 14
1095.90760927735
 24
296.1919286170664
 34
0.0
 50
90.0
100
AcDbRotatedDimension
  0
ENDSEC
  0
SECTION
  2
OBJECTS
  0
DICTIONARY
  5
C
330
0
100
AcDbDictionary
281
     1
  3
ACAD_COLOR
350
2081
  3
ACAD_GROUP
350
D
  3
ACAD_LAYOUT
350
1A
  3
ACAD_MATERIAL
350
2080
  3
ACAD_MLINESTYLE
350
17
  3
ACAD_PLOTSETTINGS
350
19
  3
ACAD_PLOTSTYLENAME
350
E
  3
ACAD_TABLESTYLE
350
3979
  3
ACAD_VISUALSTYLE
350
3968
  3
AcDbVariableDictionary
350
5E
  3
ASE_INDEX_DICTIONARY
350
39C4
  3
DWGPROPS
350
39C7
  0
DICTIONARY
  5
397D
330
1F
100
AcDbDictionary
280
     1
281
     1
  3
ACAD_SORTENTS
360
397E
  0
DICTIONARY
  5
39AA
330
399C
100
AcDbDictionary
280
     1
281
     1
  3
ACAD_DIMASSOC
360
39B5
  0
DICTIONARY
  5
2081
102
{ACAD_REACTORS
330
C
102
}
330
C
100
AcDbDictionary
281
     1
  0
DICTIONARY
  5
D
102
{ACAD_REACTORS
330
C
102
}
330
C
100
AcDbDictionary
281
     1
  0
DICTIONARY
  5
1A
102
{ACAD_REACTORS
330
C
102
}
330
C
100
AcDbDictionary
281
     1
  3
Layout1
350
51
  3
Layout2
350
56
  3
Model
350
22
  0
DICTIONARY
  5
2080
102
{ACAD_REACTORS
330
C
102
}
330
C
100
AcDbDictionary
281
     1
  3
ByBlock
350
3966
  3
ByLayer
350
3965
  3
Global
350
3967
  0
DICTIONARY
  5
17
102
{ACAD_REACTORS
330
C
102
}
330
C
100
AcDbDictionary
281
     1
  3
Standard
350
18
  0
DICTIONARY
  5
19
102
{ACAD_REACTORS
330
C
102
}
330
C
100
AcDbDictionary
281
     1
  0
ACDBDICTIONARYWDFLT
  5
E
102
{ACAD_REACTORS
330
C
102
}
330
C
100
AcDbDictionary
281
     1
  3
Normal
350
F
100
AcDbDictionaryWithDefault
340
F
  0
DICTIONARY
  5
3979
102
{ACAD_REACTORS
330
C
102
}
330
C
100
AcDbDictionary
281
     1
  3
Standard
350
397A
  0
DICTIONARY
  5
3968
102
{ACAD_REACTORS
330
C
102
}
330
C
100
AcDbDictionary
281
     1
  3
2dWireframe
350
396E
  3
3D Hidden
350
3970
  3
3dWireframe
350
396F
  3
Basic
350
396D
  3
Brighten
350
3974
  3
ColorChange
350
3978
  3
Conceptual
350
3971
  3
Dim
350
3973
  3
Facepattern
350
3977
  3
Flat
350
3969
  3
FlatWithEdges
350
396A
  3
Gouraud
350
396B
  3
GouraudWithEdges
350
396C
  3
Linepattern
350
3976
  3
Realistic
350
3972
  3
Thicken
350
3975
  0
DICTIONARY
  5
5E
102
{ACAD_REACTORS
330
C
102
}
330
C
100
AcDbDictionary
281
     1
  3
CTABLESTYLE
350
3986
  3
DIMASSOC
350
5F
  3
HIDETEXT
350
63
  3
INDEXCTL
350
3988
  3
PROJECTNAME
350
392D
  3
SORTENTS
350
3987
  0
DICTIONARY
  5
39C4
102
{ACAD_REACTORS
330
C
102
}
330
C
100
AcDbDictionary
281
     1
  3
ASEBlockHierarchyIndexRecord
350
39C6
1001
DCO15
1040
1641287982.185
  0
XRECORD
  5
39C7
102
{ACAD_REACTORS
330
C
102
}
330
C
100
AcDbXrecord
280
     1
  1
DWGPROPS COOKIE
  2

  3

  4

  6

  7

  8
ADWIPE1
  9

300
=
301
=
302
=
303
=
304
=
305
=
306
=
307
=
308
=
309
=
 40
0.1807187962962963
 41
2452662.43131662
 42
2454799.600534549
  1

 90
        0
  0
SORTENTSTABLE
  5
397E
102
{ACAD_REACTORS
330
397D
102
}
330
397D
100
AcDbSortentsTable
330
1F
331
2B29
  5
2B2B
331
2B21
  5
2B23
331
2AAB
  5
2AAB
331
2AE2
  5
2AE2
331
29E6
  5
29E6
331
2A35
  5
2A35
331
2970
  5
2970
331
29AF
  5
29AF
331
2A6C
  5
2A6C
331
2A74
  5
2A74
331
2AB3
  5
2AB3
331
29B7
  5
29B7
331
29EE
  5
29EE
331
2978
  5
2978
331
2A3D
  5
2A3D
331
11F
  5
11F
331
2AEA
  5
2AEA
331
2AF2
  5
2AF2
331
2A7C
  5
2A7C
331
2ABB
  5
2ABB
331
29BF
  5
29BF
331
29F6
  5
29F6
331
2980
  5
2980
331
2A45
  5
2A45
331
2AFA
  5
2AFA
331
2A84
  5
2A84
331
29FE
  5
29FE
331
2988
  5
2988
331
121
  5
121
331
2AC3
  5
2AC3
331
2B02
  5
2B02
331
2A06
  5
2A06
331
2A4D
  5
2A4D
331
129
  5
129
331
2990
  5
2990
331
29C7
  5
29C7
331
2A8C
  5
2A8C
331
2A94
  5
2A94
331
2ACB
  5
2ACB
331
2A55
  5
2A55
331
2B0A
  5
2B0A
331
2998
  5
2998
331
29CF
  5
29CF
331
2A9C
  5
2A9C
331
2AD3
  5
2AD3
331
29D7
  5
29D7
331
2A26
  5
2A26
331
2099
  5
2099
331
29A0
  5
29A0
331
2A5D
  5
2A5D
331
2B12
  5
2B13
331
2B1A
  5
2B1C
331
2A65
  5
2A65
331
2AA4
  5
2AA4
331
29DF
  5
29DF
331
2A2E
  5
2A2E
331
2ADB
  5
2ADB
331
2B2A
  5
2B2C
331
29A8
  5
29A8
331
2B22
  5
2B24
331
2AE3
  5
2AE3
331
2A36
  5
2A36
331
2A6D
  5
2A6D
331
29B0
  5
29B0
331
29E7
  5
29E7
331
2AAC
  5
2AAC
331
118
  5
118
331
2971
  5
2971
331
2AEB
  5
2AEB
331
2A3E
  5
2A3E
331
2A75
  5
2A75
331
2979
  5
2979
331
29B8
  5
29B8
331
29EF
  5
29EF
331
2AB4
  5
2AB4
331
2ABC
  5
2ABC
331
2AF3
  5
2AF3
331
29F7
  5
29F7
331
2981
  5
2981
331
2A46
  5
2A46
331
2A7D
  5
2A7D
331
2A85
  5
2A85
331
29FF
  5
29FF
331
2AFB
  5
2AFB
331
29C0
  5
29C0
331
2989
  5
2989
331
2B03
  5
2B03
331
2A8D
  5
2A8D
331
2AC4
  5
2AC4
331
29C8
  5
29C8
331
2A07
  5
2A07
331
12A
  5
12A
331
2991
  5
2991
331
2A4E
  5
2A4E
331
2B0B
  5
2B0B
331
2A56
  5
2A56
331
2A95
  5
2A95
331
2999
  5
2999
331
29D0
  5
29D0
331
2A0F
  5
2A0F
331
2ACC
  5
2ACC
331
2AD4
  5
2AD4
331
2B13
  5
2B15
331
2A27
  5
2A27
331
2A5E
  5
2A5E
331
209A
  5
209A
331
29A1
  5
29A1
331
29D8
  5
29D8
331
2A9D
  5
2A9D
331
2AA5
  5
2AA5
331
2ADC
  5
2ADC
331
2A2F
  5
2A2F
331
2A66
  5
2A66
331
2B1B
  5
2B1D
331
2B2B
  5
2B2D
331
296A
  5
296A
331
29A9
  5
29A9
331
2B23
  5
2B25
331
29E0
  5
29E0
331
2AAD
  5
2AAD
331
2AE4
  5
2AE4
331
29E8
  5
29E8
331
2A37
  5
2A37
331
2972
  5
2972
331
119
  5
119
331
29B1
  5
29B1
331
2A6E
  5
2A6E
331
2A76
  5
2A76
331
2AB5
  5
2AB5
331
29B9
  5
29B9
331
29F0
  5
29F0
331
297A
  5
297A
331
2A3F
  5
2A3F
331
2AEC
  5
2AEC
331
2AF4
  5
2AF4
331
2A47
  5
2A47
331
2A7E
  5
2A7E
331
29F8
  5
29F8
331
2ABD
  5
2ABD
331
2982
  5
2982
331
2AFC
  5
2AFC
331
2A86
  5
2A86
331
298A
  5
298A
331
29C1
  5
29C1
331
2A00
  5
2A00
331
2AC5
  5
2AC5
331
2B04
  5
2B04
331
2A08
  5
2A08
331
2A4F
  5
2A4F
331
2992
  5
2992
331
29C9
  5
29C9
331
2A8E
  5
2A8E
331
2A96
  5
2A96
331
2ACD
  5
2ACD
331
29D1
  5
29D1
331
2093
  5
2093
331
117
  5
117
331
299A
  5
299A
331
2A57
  5
2A57
331
2B0C
  5
2B0C
331
2B14
  5
2B16
331
2A9E
  5
2A9E
331
2AD5
  5
2AD5
331
29D9
  5
29D9
331
2A28
  5
2A28
331
29A2
  5
29A2
331
2A5F
  5
2A5F
331
2B1C
  5
2B1E
331
2A67
  5
2A67
331
2AA6
  5
2AA6
331
2ADD
  5
2ADD
331
2B2C
  5
3866
331
29AA
  5
29AA
331
29E1
  5
29E1
331
2B24
  5
2B26
331
296B
  5
296B
331
2A30
  5
2A30
331
2AE5
  5
2AE5
331
2A38
  5
2A38
331
2A6F
  5
2A6F
331
2973
  5
2973
331
11A
  5
11A
331
29B2
  5
29B2
331
397C
  5
2B14
331
29E9
  5
29E9
331
2AAE
  5
2AAE
331
2AB6
  5
2AB6
331
2AED
  5
2AED
331
2A40
  5
2A40
331
2A77
  5
2A77
331
297B
  5
297B
331
29BA
  5
29BA
331
29F1
  5
29F1
331
2ABE
  5
2ABE
331
2AF5
  5
2AF5
331
29F9
  5
29F9
331
2983
  5
2983
331
2A7F
  5
2A7F
331
2A87
  5
2A87
331
2AFD
  5
2AFD
331
29C2
  5
29C2
331
2A01
  5
2A01
331
124
  5
124
331
298B
  5
298B
331
2A48
  5
2A48
331
2B05
  5
2B05
331
2A50
  5
2A50
331
29CA
  5
29CA
331
2A8F
  5
2A8F
331
2AC6
  5
2AC6
331
2993
  5
2993
331
2B0D
  5
2B0D
331
2A58
  5
2A58
331
299B
  5
299B
331
29D2
  5
29D2
331
2A97
  5
2A97
331
2094
  5
2094
331
2ACE
  5
2ACE
331
2AD6
  5
2AD6
331
2B15
  5
2B17
331
2A29
  5
2A29
331
2A60
  5
2A60
331
29A3
  5
29A3
331
29DA
  5
29DA
331
2A9F
  5
2A9F
331
2AA7
  5
2AA7
331
2ADE
  5
2ADE
331
2B1D
  5
2B1F
331
2B2D
  5
3867
331
29E2
  5
29E2
331
2A31
  5
2A31
331
296C
  5
296C
331
29AB
  5
29AB
331
2A68
  5
2A68
331
2B25
  5
2B27
331
2AAF
  5
2AAF
331
2AE6
  5
2AE6
331
29EA
  5
29EA
331
2A39
  5
2A39
331
2974
  5
2974
331
11B
  5
11B
331
29B3
  5
29B3
331
2A70
  5
2A70
331
2A78
  5
2A78
331
2AB7
  5
2AB7
331
29BB
  5
29BB
331
29F2
  5
29F2
331
297C
  5
297C
331
2A41
  5
2A41
331
2AEE
  5
2AEE
331
2AF6
  5
2AF6
331
2A80
  5
2A80
331
2984
  5
2984
331
29FA
  5
29FA
331
2ABF
  5
2ABF
331
2AFE
  5
2AFE
331
2A49
  5
2A49
331
2A88
  5
2A88
331
298C
  5
298C
331
29C3
  5
29C3
331
2A02
  5
2A02
331
2AC7
  5
2AC7
331
2B06
  5
2B06
331
2A51
  5
2A51
331
2994
  5
2994
331
29CB
  5
29CB
331
2A90
  5
2A90
331
2A98
  5
2A98
331
2ACF
  5
2ACF
331
29D3
  5
29D3
331
2095
  5
2095
331
299C
  5
299C
331
2A59
  5
2A59
331
2B0E
  5
2B0E
331
2B16
  5
2B18
331
2A61
  5
2A61
331
2AA0
  5
2AA0
331
29DB
  5
29DB
331
2A2A
  5
2A2A
331
2AD7
  5
2AD7
331
29A4
  5
29A4
331
2B1E
  5
2B20
331
2ADF
  5
2ADF
331
2A69
  5
2A69
331
2AA8
  5
2AA8
331
29AC
  5
29AC
331
29E3
  5
29E3
331
2B26
  5
2B28
331
296D
  5
296D
331
2A32
  5
2A32
331
2AE7
  5
2AE7
331
3866
  5
397C
331
2A3A
  5
2A3A
331
2A71
  5
2A71
331
2975
  5
2975
331
11C
  5
11C
331
29B4
  5
29B4
331
29EB
  5
29EB
331
2AB0
  5
2AB0
331
2AB8
  5
2AB8
331
2AEF
  5
2AEF
331
29F3
  5
29F3
331
2A42
  5
2A42
331
297D
  5
297D
331
29BC
  5
29BC
331
2A79
  5
2A79
331
2AF7
  5
2AF7
331
29FB
  5
29FB
331
2985
  5
2985
331
2A81
  5
2A81
331
2AFF
  5
2AFF
331
2A89
  5
2A89
331
2AC0
  5
2AC0
331
29C4
  5
29C4
331
2A03
  5
2A03
331
126
  5
126
331
298D
  5
298D
331
2A4A
  5
2A4A
331
2B07
  5
2B07
331
2A52
  5
2A52
331
2995
  5
2995
331
29CC
  5
29CC
331
2A91
  5
2A91
331
2AC8
  5
2AC8
331
2AD0
  5
2AD0
331
2B0F
  5
2B0F
331
2A5A
  5
2A5A
331
299D
  5
299D
331
29D4
  5
29D4
331
2A99
  5
2A99
331
2096
  5
2096
331
2AD8
  5
2AD8
331
2B17
  5
2B19
331
2A2B
  5
2A2B
331
2A62
  5
2A62
331
29A5
  5
29A5
331
29DC
  5
29DC
331
2AA1
  5
2AA1
331
2B1F
  5
2B21
331
2AA9
  5
2AA9
331
2AE0
  5
2AE0
331
29E4
  5
29E4
331
2A33
  5
2A33
331
296E
  5
296E
331
29AD
  5
29AD
331
2B27
  5
2B29
331
2A6A
  5
2A6A
331
3867
  5
397F
331
2A72
  5
2A72
331
2AB1
  5
2AB1
331
29EC
  5
29EC
331
2A3B
  5
2A3B
331
2AE8
  5
2AE8
331
2976
  5
2976
331
397F
  5
2B11
331
11D
  5
11D
331
29B5
  5
29B5
331
2A7A
  5
2A7A
331
2AB9
  5
2AB9
331
29BD
  5
29BD
331
29F4
  5
29F4
331
297E
  5
297E
331
2A43
  5
2A43
331
2AF0
  5
2AF0
331
2AF8
  5
2AF8
331
2A82
  5
2A82
331
2986
  5
2986
331
29FC
  5
29FC
331
2AC1
  5
2AC1
331
2B00
  5
2B00
331
2A04
  5
2A04
331
2A4B
  5
2A4B
331
298E
  5
298E
331
29C5
  5
29C5
331
2A8A
  5
2A8A
331
2AC9
  5
2AC9
331
2B08
  5
2B08
331
2A53
  5
2A53
331
2996
  5
2996
331
29CD
  5
29CD
331
2A92
  5
2A92
331
2A9A
  5
2A9A
331
2AD1
  5
2AD1
331
29D5
  5
29D5
331
2097
  5
2097
331
299E
  5
299E
331
2A5B
  5
2A5B
331
2B10
  5
2B10
331
2B18
  5
2B1A
331
2A63
  5
2A63
331
2AA2
  5
2AA2
331
29A6
  5
29A6
331
29DD
  5
29DD
331
2A2C
  5
2A2C
331
2AD9
  5
2AD9
331
2B28
  5
2B2A
331
2B20
  5
2B22
331
2AE1
  5
2AE1
331
2A6B
  5
2A6B
331
2AAA
  5
2AAA
331
29AE
  5
29AE
331
29E5
  5
29E5
331
296F
  5
296F
331
2A34
  5
2A34
331
2AE9
  5
2AE9
331
2A3C
  5
2A3C
331
2A73
  5
2A73
331
2977
  5
2977
331
11E
  5
11E
331
29B6
  5
29B6
331
29ED
  5
29ED
331
2AB2
  5
2AB2
331
2ABA
  5
2ABA
331
2AF1
  5
2AF1
331
29F5
  5
29F5
331
2A44
  5
2A44
331
297F
  5
297F
331
29BE
  5
29BE
331
2A7B
  5
2A7B
331
2A83
  5
2A83
331
29FD
  5
29FD
331
2987
  5
2987
331
2AF9
  5
2AF9
331
120
  5
120
331
2A8B
  5
2A8B
331
2AC2
  5
2AC2
331
29C6
  5
29C6
331
2A05
  5
2A05
331
298F
  5
298F
331
2A4C
  5
2A4C
331
2B01
  5
2B01
331
2B09
  5
2B09
331
2A54
  5
2A54
331
2997
  5
2997
331
29CE
  5
29CE
331
2A93
  5
2A93
331
2ACA
  5
2ACA
331
2AD2
  5
2AD2
331
2B11
  5
2B12
331
2A5C
  5
2A5C
331
299F
  5
299F
331
29D6
  5
29D6
331
2A9B
  5
2A9B
331
2098
  5
2098
331
2ADA
  5
2ADA
331
2B19
  5
2B1B
331
2A2D
  5
2A2D
331
2A64
  5
2A64
331
29A7
  5
29A7
331
29DE
  5
29DE
331
2AA3
  5
2AA3
  0
DIMASSOC
  5
39B5
102
{ACAD_REACTORS
330
39AA
102
}
330
39AA
100
AcDbDimAssoc
330
399C
 90
        3
 70
     0
 71
     0
  1
AcDbOsnapPointRef
 72
     3
331
29B7
 73
     2
 91
        0
 40
1.288690905813373
 10
0.0
 20
0.0
 30
0.0
 75
     0
  1
AcDbOsnapPointRef
 72
     3
331
2993
 73
     2
 91
        0
 40
0.0
 10
0.0
 20
0.0
 30
0.0
 75
     0
  0
LAYOUT
  5
51
102
{ACAD_XDICTIONARY
360
39CA
102
}
102
{ACAD_REACTORS
330
1A
102
}
330
1A
100
AcDbPlotSettings
  1

  2
None
  4

  6

 40
0.0
 41
0.0
 42
0.0
 43
0.0
 44
0.0
 45
0.0
 46
0.0
 47
0.0
 48
0.0
 49
0.0
140
0.0
141
0.0
142
1.0
143
1.0
 70
   688
 72
     0
 73
     0
 74
     5
  7

 75
    16
147
1.0
148
0.0
149
0.0
100
AcDbLayout
  1
Layout1
 70
     1
 71
     1
 10
0.0
 20
0.0
 11
12.0
 21
9.0
 12
0.0
 22
0.0
 32
0.0
 14
0.0
 24
0.0
 34
0.0
 15
0.0
 25
0.0
 35
0.0
146
0.0
 13
0.0
 23
0.0
 33
0.0
 16
1.0
 26
0.0
 36
0.0
 17
0.0
 27
1.0
 37
0.0
 76
     0
330
50
  0
LAYOUT
  5
56
102
{ACAD_XDICTIONARY
360
39CC
102
}
102
{ACAD_REACTORS
330
1A
102
}
330
1A
100
AcDbPlotSettings
  1

  2
None
  4

  6

 40
0.0
 41
0.0
 42
0.0
 43
0.0
 44
0.0
 45
0.0
 46
0.0
 47
0.0
 48
0.0
 49
0.0
140
0.0
141
0.0
142
1.0
143
1.0
 70
   688
 72
     0
 73
     0
 74
     5
  7

 75
    16
147
1.0
148
0.0
149
0.0
100
AcDbLayout
  1
Layout2
 70
     1
 71
     2
 10
0.0
 20
0.0
 11
12.0
 21
9.0
 12
0.0
 22
0.0
 32
0.0
 14
0.0
 24
0.0
 34
0.0
 15
0.0
 25
0.0
 35
0.0
146
0.0
 13
0.0
 23
0.0
 33
0.0
 16
1.0
 26
0.0
 36
0.0
 17
0.0
 27
1.0
 37
0.0
 76
     0
330
55
  0
LAYOUT
  5
22
102
{ACAD_XDICTIONARY
360
39C8
102
}
102
{ACAD_REACTORS
330
1A
102
}
330
1A
100
AcDbPlotSettings
  1

  2
\\ambw779a\A_P00873 (Canon iR2200-3300 PCL6)
  4
A4
  6

 40
4.815417
 41
4.815412
 42
4.815413999999996
 43
4.81543
 44
209.973328
 45
296.925995
 46
0.0
 47
0.0
 48
0.0
 49
0.0
140
0.0
141
0.0
142
1.0
143
1.0
 70
 11952
 72
     1
 73
     1
 74
     1
  7
monochrome.ctb
 75
    16
147
1.0
148
-1055.862915891527
149
-202.2333520829548
100
AcDbLayout
  1
Model
 70
     1
 71
     0
 10
0.0
 20
0.0
 11
12.0
 21
9.0
 12
0.0
 22
0.0
 32
0.0
 14
0.0
 24
0.0
 34
0.0
 15
0.0
 25
0.0
 35
0.0
146
0.0
 13
0.0
 23
0.0
 33
0.0
 16
1.0
 26
0.0
 36
0.0
 17
0.0
 27
1.0
 37
0.0
 76
     0
330
1F
331
3957
  0
MATERIAL
  5
3966
102
{ACAD_XDICTIONARY
360
3992
102
}
102
{ACAD_REACTORS
330
2080
102
}
330
2080
100
AcDbMaterial
  1
ByBlock
  0
MATERIAL
  5
3965
102
{ACAD_XDICTIONARY
360
3990
102
}
102
{ACAD_REACTORS
330
2080
102
}
330
2080
100
AcDbMaterial
  1
ByLayer
  0
MATERIAL
  5
3967
102
{ACAD_XDICTIONARY
360
3994
102
}
102
{ACAD_REACTORS
330
2080
102
}
330
2080
100
AcDbMaterial
  1
Global
  0
MLINESTYLE
  5
18
102
{ACAD_REACTORS
330
17
102
}
330
17
100
AcDbMlineStyle
  2
STANDARD
 70
     0
  3

 62
   256
 51
90.0
 52
90.0
 71
     2
 49
0.5
 62
   256
  6
BYLAYER
 49
-0.5
 62
   256
  6
BYLAYER
  0
ACDBPLACEHOLDER
  5
F
102
{ACAD_REACTORS
330
E
102
}
330
E
  0
TABLESTYLE
  5
397A
102
{ACAD_XDICTIONARY
360
39CE
102
}
102
{ACAD_REACTORS
330
3979
102
}
330
3979
100
AcDbTableStyle
  3
Standard
 70
     0
 71
     0
 40
1.5
 41
1.5
280
     0
281
     0
  7
Standard
140
4.5
170
     2
 62
     0
 63
     7
283
     0
274
    -2
284
     1
 64
     0
275
    -2
285
     1
 65
     0
276
    -2
286
     1
 66
     0
277
    -2
287
     1
 67
     0
278
    -2
288
     1
 68
     0
279
    -2
289
     1
 69
     0
  7
Standard
140
6.0
170
     5
 62
     0
 63
     7
283
     0
274
    -2
284
     1
 64
     0
275
    -2
285
     1
 65
     0
276
    -2
286
     1
 66
     0
277
    -2
287
     1
 67
     0
278
    -2
288
     1
 68
     0
279
    -2
289
     1
 69
     0
  7
Standard
140
4.5
170
     5
 62
     0
 63
     7
283
     0
274
    -2
284
     1
 64
     0
275
    -2
285
     1
 65
     0
276
    -2
286
     1
 66
     0
277
    -2
287
     1
 67
     0
278
    -2
288
     1
 68
     0
279
    -2
289
     1
 69
     0
  0
VISUALSTYLE
  5
396E
102
{ACAD_REACTORS
330
3968
102
}
330
3968
100
AcDbVisualStyle
  2
2dWireframe
 70
     4
 71
     0
 72
     2
 73
     0
 90
        0
 40
-0.6
 41
-30.0
 62
     5
 63
     7
 74
     1
 91
        4
 64
     7
 65
   257
 75
     1
175
     1
 42
1.0
 92
        0
 66
   257
 43
1.0
 76
     1
 77
     6
 78
     2
 67
     7
 79
     5
170
     0
171
     0
290
     0
174
     0
 93
        1
 44
0.0
173
     0
291
     0
 45
0.0
1001
ACAD
1000
AcDbSavedByObjectVersion
1070
     0
1000
AcDbSavedByObjectVersion
1070
     0
1000
AcDbSavedByObjectVersion
1070
     0
  0
VISUALSTYLE
  5
3970
102
{ACAD_REACTORS
330
3968
102
}
330
3968
100
AcDbVisualStyle
  2
3D Hidden
 70
     6
 71
     1
 72
     2
 73
     2
 90
        0
 40
-0.6
 41
-30.0
 62
     5
 63
     7
 74
     2
 91
        2
 64
     7
 65
   257
 75
     2
175
     1
 42
40.0
 92
        0
 66
   257
 43
1.0
 76
     1
 77
     6
 78
     2
 67
     7
 79
     3
170
     0
171
     0
290
     0
174
     0
 93
        1
 44
0.0
173
     0
291
     0
 45
0.0
1001
ACAD
1000
AcDbSavedByObjectVersion
1070
     0
1000
AcDbSavedByObjectVersion
1070
     0
1000
AcDbSavedByObjectVersion
1070
     0
  0
VISUALSTYLE
  5
396F
102
{ACAD_REACTORS
330
3968
102
}
330
3968
100
AcDbVisualStyle
  2
3dWireframe
 70
     5
 71
     0
 72
     2
 73
     0
 90
        0
 40
-0.6
 41
-30.0
 62
     5
 63
     7
 74
     1
 91
        4
 64
     7
 65
   257
 75
     1
175
     1
 42
1.0
 92
        0
 66
   257
 43
1.0
 76
     1
 77
     6
 78
     2
 67
     7
 79
     5
170
     0
171
     0
290
     0
174
     0
 93
        1
 44
0.0
173
     0
291
     0
 45
0.0
1001
ACAD
1000
AcDbSavedByObjectVersion
1070
     0
1000
AcDbSavedByObjectVersion
1070
     0
1000
AcDbSavedByObjectVersion
1070
     0
  0
VISUALSTYLE
  5
396D
102
{ACAD_REACTORS
330
3968
102
}
330
3968
100
AcDbVisualStyle
  2
Basic
 70
     7
 71
     1
 72
     0
 73
     1
 90
        0
 40
-0.6
 41
-30.0
 62
     5
 63
     7
 74
     0
 91
        4
 64
     7
 65
   257
 75
     1
175
     1
 42
1.0
 92
        8
 66
     7
 43
1.0
 76
     1
 77
     6
 78
     2
 67
     7
 79
     5
170
     0
171
     0
290
     0
174
     0
 93
        1
 44
0.0
173
     0
291
     1
 45
0.0
1001
ACAD
1000
AcDbSavedByObjectVersion
1070
     0
1000
AcDbSavedByObjectVersion
1070
     0
1000
AcDbSavedByObjectVersion
1070
     0
  0
VISUALSTYLE
  5
3974
102
{ACAD_REACTORS
330
3968
102
}
330
3968
100
AcDbVisualStyle
  2
Brighten
 70
    12
 71
     2
 72
     2
 73
     0
 90
        0
 40
-0.6
 41
-30.0
 62
     5
 63
     7
 74
     1
 91
        4
 64
     7
 65
   257
 75
     1
175
     1
 42
1.0
 92
        8
 66
     7
 43
1.0
 76
     1
 77
     6
 78
     2
 67
     7
 79
     5
170
     0
171
     0
290
     0
174
     0
 93
        1
 44
50.0
173
     0
291
     1
 45
0.0
1001
ACAD
1000
AcDbSavedByObjectVersion
1070
     0
1000
AcDbSavedByObjectVersion
1070
     0
1000
AcDbSavedByObjectVersion
1070
     0
  0
VISUALSTYLE
  5
3978
102
{ACAD_REACTORS
330
3968
102
}
330
3968
100
AcDbVisualStyle
  2
ColorChange
 70
    16
 71
     2
 72
     2
 73
     3
 90
        0
 40
-0.6
 41
-30.0
 62
     5
 63
     8
 74
     1
 91
        4
 64
     7
 65
   257
 75
     1
175
     1
 42
1.0
 92
        8
 66
     8
 43
1.0
 76
     1
 77
     6
 78
     2
 67
     7
 79
     5
170
     0
171
     0
290
     0
174
     0
 93
        1
 44
0.0
173
     0
291
     1
 45
0.0
1001
ACAD
1000
AcDbSavedByObjectVersion
1070
     0
1000
AcDbSavedByObjectVersion
1070
     0
1000
AcDbSavedByObjectVersion
1070
     0
  0
VISUALSTYLE
  5
3971
102
{ACAD_REACTORS
330
3968
102
}
330
3968
100
AcDbVisualStyle
  2
Conceptual
 70
     9
 71
     3
 72
     2
 73
     0
 90
        0
 40
-0.6
 41
-30.0
 62
     5
 63
     7
 74
     2
 91
        2
 64
     7
 65
   257
 75
     1
175
     1
 42
40.0
 92
        8
 66
     7
 43
1.0
 76
     1
 77
     6
 78
     2
 67
     7
 79
     3
170
     0
171
     0
290
     0
174
     0
 93
        1
 44
0.0
173
     0
291
     0
 45
0.0
1001
ACAD
1000
AcDbSavedByObjectVersion
1070
     0
1000
AcDbSavedByObjectVersion
1070
     0
1000
AcDbSavedByObjectVersion
1070
     0
  0
VISUALSTYLE
  5
3973
102
{ACAD_REACTORS
330
3968
102
}
330
3968
100
AcDbVisualStyle
  2
Dim
 70
    11
 71
     2
 72
     2
 73
     0
 90
        0
 40
-0.6
 41
-30.0
 62
     5
 63
     7
 74
     1
 91
        4
 64
     7
 65
   257
 75
     1
175
     1
 42
1.0
 92
        8
 66
     7
 43
1.0
 76
     1
 77
     6
 78
     2
 67
     7
 79
     5
170
     0
171
     0
290
     0
174
     0
 93
        1
 44
-50.0
173
     0
291
     1
 45
0.0
1001
ACAD
1000
AcDbSavedByObjectVersion
1070
     0
1000
AcDbSavedByObjectVersion
1070
     0
1000
AcDbSavedByObjectVersion
1070
     0
  0
VISUALSTYLE
  5
3977
102
{ACAD_REACTORS
330
3968
102
}
330
3968
100
AcDbVisualStyle
  2
Facepattern
 70
    15
 71
     2
 72
     2
 73
     0
 90
        0
 40
-0.6
 41
-30.0
 62
     5
 63
     7
 74
     1
 91
        4
 64
     7
 65
   257
 75
     1
175
     1
 42
1.0
 92
        8
 66
     7
 43
1.0
 76
     1
 77
     6
 78
     2
 67
     7
 79
     5
170
     0
171
     0
290
     0
174
     0
 93
        1
 44
0.0
173
     0
291
     1
 45
0.0
1001
ACAD
1000
AcDbSavedByObjectVersion
1070
     0
1000
AcDbSavedByObjectVersion
1070
     0
1000
AcDbSavedByObjectVersion
1070
     0
  0
VISUALSTYLE
  5
3969
102
{ACAD_REACTORS
330
3968
102
}
330
3968
100
AcDbVisualStyle
  2
Flat
 70
     0
 71
     2
 72
     1
 73
     1
 90
        2
 40
-0.6
 41
30.0
 62
     5
 63
     7
 74
     0
 91
        4
 64
     7
 65
   257
 75
     1
175
     1
 42
1.0
 92
        8
 66
     7
 43
1.0
 76
     1
 77
     6
 78
     2
 67
     7
 79
     5
170
     0
171
     0
290
     0
174
     0
 93
       13
 44
0.0
173
     0
291
     1
 45
0.0
1001
ACAD
1000
AcDbSavedByObjectVersion
1070
     0
1000
AcDbSavedByObjectVersion
1070
     0
1000
AcDbSavedByObjectVersion
1070
     0
  0
VISUALSTYLE
  5
396A
102
{ACAD_REACTORS
330
3968
102
}
330
3968
100
AcDbVisualStyle
  2
FlatWithEdges
 70
     1
 71
     2
 72
     1
 73
     1
 90
        2
 40
-0.6
 41
30.0
 62
     5
 63
     7
 74
     1
 91
        4
 64
     7
 65
   257
 75
     1
175
     1
 42
1.0
 92
        0
 66
   257
 43
1.0
 76
     1
 77
     6
 78
     2
 67
     7
 79
     5
170
     0
171
     0
290
     0
174
     0
 93
       13
 44
0.0
173
     0
291
     1
 45
0.0
1001
ACAD
1000
AcDbSavedByObjectVersion
1070
     0
1000
AcDbSavedByObjectVersion
1070
     0
1000
AcDbSavedByObjectVersion
1070
     0
  0
VISUALSTYLE
  5
396B
102
{ACAD_REACTORS
330
3968
102
}
330
3968
100
AcDbVisualStyle
  2
Gouraud
 70
     2
 71
     2
 72
     2
 73
     1
 90
        2
 40
-0.6
 41
30.0
 62
     5
 63
     7
 74
     0
 91
        4
 64
     7
 65
   257
 75
     1
175
     1
 42
1.0
 92
        0
 66
     7
 43
1.0
 76
     1
 77
     6
 78
     2
 67
     7
 79
     5
170
     0
171
     0
290
     0
174
     0
 93
       13
 44
0.0
173
     0
291
     1
 45
0.0
1001
ACAD
1000
AcDbSavedByObjectVersion
1070
     0
1000
AcDbSavedByObjectVersion
1070
     0
1000
AcDbSavedByObjectVersion
1070
     0
  0
VISUALSTYLE
  5
396C
102
{ACAD_REACTORS
330
3968
102
}
330
3968
100
AcDbVisualStyle
  2
GouraudWithEdges
 70
     3
 71
     2
 72
     2
 73
     1
 90
        2
 40
-0.6
 41
30.0
 62
     5
 63
     7
 74
     1
 91
        4
 64
     7
 65
   257
 75
     1
175
     1
 42
1.0
 92
        0
 66
   257
 43
1.0
 76
     1
 77
     6
 78
     2
 67
     7
 79
     5
170
     0
171
     0
290
     0
174
     0
 93
       13
 44
0.0
173
     0
291
     1
 45
0.0
1001
ACAD
1000
AcDbSavedByObjectVersion
1070
     0
1000
AcDbSavedByObjectVersion
1070
     0
1000
AcDbSavedByObjectVersion
1070
     0
  0
VISUALSTYLE
  5
3976
102
{ACAD_REACTORS
330
3968
102
}
330
3968
100
AcDbVisualStyle
  2
Linepattern
 70
    14
 71
     2
 72
     2
 73
     0
 90
        0
 40
-0.6
 41
-30.0
 62
     5
 63
     7
 74
     1
 91
        4
 64
     7
 65
   257
 75
     7
175
     7
 42
1.0
 92
        8
 66
     7
 43
1.0
 76
     1
 77
     6
 78
     2
 67
     7
 79
     5
170
     0
171
     0
290
     0
174
     0
 93
        1
 44
0.0
173
     0
291
     1
 45
0.0
1001
ACAD
1000
AcDbSavedByObjectVersion
1070
     0
1000
AcDbSavedByObjectVersion
1070
     0
1000
AcDbSavedByObjectVersion
1070
     0
  0
VISUALSTYLE
  5
3972
102
{ACAD_REACTORS
330
3968
102
}
330
3968
100
AcDbVisualStyle
  2
Realistic
 70
     8
 71
     2
 72
     2
 73
     0
 90
        0
 40
-0.6
 41
-30.0
 62
     5
 63
     7
 74
     1
 91
        0
 64
     7
 65
   257
 75
     1
175
     1
 42
1.0
 92
        8
 66
     8
 43
1.0
 76
     1
 77
     6
 78
     2
 67
     7
 79
     5
170
     0
171
     0
290
     0
174
     0
 93
       13
 44
0.0
173
     0
291
     0
 45
0.0
1001
ACAD
1000
AcDbSavedByObjectVersion
1070
     0
1000
AcDbSavedByObjectVersion
1070
     0
1000
AcDbSavedByObjectVersion
1070
     0
  0
VISUALSTYLE
  5
3975
102
{ACAD_REACTORS
330
3968
102
}
330
3968
100
AcDbVisualStyle
  2
Thicken
 70
    13
 71
     2
 72
     2
 73
     0
 90
        0
 40
-0.6
 41
-30.0
 62
     5
 63
     7
 74
     1
 91
        4
 64
     7
 65
   257
 75
     1
175
     1
 42
1.0
 92
       12
 66
     7
 43
1.0
 76
     1
 77
     6
 78
     2
 67
     7
 79
     5
170
     0
171
     0
290
     0
174
     0
 93
        1
 44
0.0
173
     0
291
     1
 45
0.0
1001
ACAD
1000
AcDbSavedByObjectVersion
1070
     0
1000
AcDbSavedByObjectVersion
1070
     0
1000
AcDbSavedByObjectVersion
1070
     0
  0
DICTIONARYVAR
  5
3986
102
{ACAD_REACTORS
330
5E
102
}
330
5E
100
DictionaryVariables
280
     0
  1
STANDARD
  0
DICTIONARYVAR
  5
5F
102
{ACAD_REACTORS
330
5E
102
}
330
5E
100
DictionaryVariables
280
     0
  1
2
  0
DICTIONARYVAR
  5
63
102
{ACAD_REACTORS
330
5E
102
}
330
5E
100
DictionaryVariables
280
     0
  1
1
  0
DICTIONARYVAR
  5
3988
102
{ACAD_REACTORS
330
5E
102
}
330
5E
100
DictionaryVariables
280
     0
  1
0
  0
DICTIONARYVAR
  5
392D
102
{ACAD_REACTORS
330
5E
102
}
330
5E
100
DictionaryVariables
280
     0
  1

  0
DICTIONARYVAR
  5
3987
102
{ACAD_REACTORS
330
5E
102
}
330
5E
100
DictionaryVariables
280
     0
  1
127
  0
XRECORD
  5
39C6
102
{ACAD_REACTORS
330
39C4
102
}
330
39C4
100
AcDbXrecord
280
     1
330
117
  0
DICTIONARY
  5
39CA
330
51
100
AcDbDictionary
280
     1
281
     1
  3
ACAD_XREC_ROUNDTRIP
360
39CB
  0
DICTIONARY
  5
39CC
330
56
100
AcDbDictionary
280
     1
281
     1
  3
ACAD_XREC_ROUNDTRIP
360
39CD
  0
DICTIONARY
  5
39C8
330
22
100
AcDbDictionary
280
     1
281
     1
  3
ACAD_XREC_ROUNDTRIP
360
39C9
  0
DICTIONARY
  5
3992
330
3966
100
AcDbDictionary
280
     1
281
     1
  3
ACAD_XREC_ROUNDTRIP
360
3993
  0
DICTIONARY
  5
3990
330
3965
100
AcDbDictionary
280
     1
281
     1
  3
ACAD_XREC_ROUNDTRIP
360
3991
  0
DICTIONARY
  5
3994
330
3967
100
AcDbDictionary
280
     1
281
     1
  3
ACAD_XREC_ROUNDTRIP
360
3995
  0
DICTIONARY
  5
39CE
330
397A
100
AcDbDictionary
280
     1
281
     1
  3
ACAD_XREC_ROUNDTRIP
360
39CF
  0
XRECORD
  5
39CB
102
{ACAD_REACTORS
330
39CA
102
}
330
39CA
100
AcDbXrecord
280
     1
102
SHADEPLOT
 70
     0
102
SHADEPLOTRESLEVEL
 70
     2
102
SHADEPLOTCUSTOMDPI
 70
   300
  0
XRECORD
  5
39CD
102
{ACAD_REACTORS
330
39CC
102
}
330
39CC
100
AcDbXrecord
280
     1
102
SHADEPLOT
 70
     0
102
SHADEPLOTRESLEVEL
 70
     2
102
SHADEPLOTCUSTOMDPI
 70
   300
  0
XRECORD
  5
39C9
102
{ACAD_REACTORS
330
39C8
102
}
330
39C8
100
AcDbXrecord
280
     1
102
SHADEPLOT
 70
     1
102
SHADEPLOTRESLEVEL
 70
     2
102
SHADEPLOTCUSTOMDPI
 70
   300
  0
XRECORD
  5
3993
102
{ACAD_REACTORS
330
3992
102
}
330
3992
100
AcDbXrecord
280
     1
102
MATERIAL
148
0.0
149
0.0
149
0.0
 93
        0
 94
       63
282
     0
 72
     1
 77
     1
171
     1
175
     1
179
     1
273
     0
  0
XRECORD
  5
3991
102
{ACAD_REACTORS
330
3990
102
}
330
3990
100
AcDbXrecord
280
     1
102
MATERIAL
148
0.0
149
0.0
149
0.0
 93
        0
 94
       63
282
     0
 72
     1
 77
     1
171
     1
175
     1
179
     1
273
     0
  0
XRECORD
  5
3995
102
{ACAD_REACTORS
330
3994
102
}
330
3994
100
AcDbXrecord
280
     1
102
MATERIAL
148
0.0
149
0.0
149
0.0
 93
        0
 94
       63
282
     0
 72
     1
 77
     1
171
     1
175
     1
179
     1
273
     0
  0
XRECORD
  5
39CF
102
{ACAD_REACTORS
330
39CE
102
}
330
39CE
100
AcDbXrecord
280
     1
102
ACAD_ROUNDTRIP_PRE2007_TABLESTYLE
 90
      512
 91
        0
  1

 92
      512
 93
        0
  2

 94
      512
 95
        0
  3

  0
ENDSEC
  0
EOF
