  0
SECTION
  2
HEADER
  9
$ACADVER
  1
AC1014
  9
$ACADMAINTVER
 70
     9
  9
$DWGCODEPAGE
  3
ANSI_1252
  9
$INSBASE
 10
0.0
 20
0.0
 30
0.0
  9
$EXTMIN
 10
1.000000E+20
 20
1.000000E+20
 30
1.000000E+20
  9
$EXTMAX
 10
-1.000000E+20
 20
-1.000000E+20
 30
-1.000000E+20
  9
$LIMMIN
 10
0.0
 20
0.0
  9
$LIMMAX
 10
420.0
 20
297.0
  9
$ORTHOMODE
 70
     0
  9
$REGENMODE
 70
     1
  9
$FILLMODE
 70
     1
  9
$QTEXTMODE
 70
     0
  9
$MIRRTEXT
 70
     1
  9
$DRAGMODE
 70
     2
  9
$LTSCALE
 40
1.0
  9
$OSMODE
 70
    37
  9
$ATTMODE
 70
     1
  9
$TEXTSIZE
 40
2.5
  9
$TRACEWID
 40
1.0
  9
$TEXTSTYLE
  7
STANDARD
  9
$CLAYER
  8
0
  9
$CELTYPE
  6
BYLAYER
  9
$CECOLOR
 62
   256
  9
$CELTSCALE
 40
1.0
  9
$DELOBJ
 70
     1
  9
$DISPSILH
 70
     0
  9
$DIMSCALE
 40
1.0
  9
$DIMASZ
 40
2.5
  9
$DIMEXO
 40
0.625
  9
$DIMDLI
 40
3.75
  9
$DIMRND
 40
0.0
  9
$DIMDLE
 40
0.0
  9
$DIMEXE
 40
1.25
  9
$DIMTP
 40
0.0
  9
$DIMTM
 40
0.0
  9
$DIMTXT
 40
2.5
  9
$DIMCEN
 40
2.5
  9
$DIMTSZ
 40
0.0
  9
$DIMTOL
 70
     0
  9
$DIMLIM
 70
     0
  9
$DIMTIH
 70
     0
  9
$DIMTOH
 70
     0
  9
$DIMSE1
 70
     0
  9
$DIMSE2
 70
     0
  9
$DIMTAD
 70
     1
  9
$DIMZIN
 70
     8
  9
$DIMBLK
  1

  9
$DIMASO
 70
     1
  9
$DIMSHO
 70
     1
  9
$DIMPOST
  1

  9
$DIMAPOST
  1

  9
$DIMALT
 70
     0
  9
$DIMALTD
 70
     3
  9
$DIMALTF
 40
0.03937
  9
$DIMLFAC
 40
1.0
  9
$DIMTOFL
 70
     1
  9
$DIMTVP
 40
0.0
  9
$DIMTIX
 70
     0
  9
$DIMSOXD
 70
     0
  9
$DIMSAH
 70
     0
  9
$DIMBLK1
  1

  9
$DIMBLK2
  1

  9
$DIMSTYLE
  2
ISO-25
  9
$DIMCLRD
 70
     0
  9
$DIMCLRE
 70
     0
  9
$DIMCLRT
 70
     0
  9
$DIMTFAC
 40
1.0
  9
$DIMGAP
 40
0.625
  9
$DIMJUST
 70
     0
  9
$DIMSD1
 70
     0
  9
$DIMSD2
 70
     0
  9
$DIMTOLJ
 70
     0
  9
$DIMTZIN
 70
     8
  9
$DIMALTZ
 70
     0
  9
$DIMALTTZ
 70
     0
  9
$DIMFIT
 70
     3
  9
$DIMUPT
 70
     0
  9
$DIMUNIT
 70
     2
  9
$DIMDEC
 70
     2
  9
$DIMTDEC
 70
     2
  9
$DIMALTU
 70
     2
  9
$DIMALTTD
 70
     3
  9
$DIMTXSTY
  7
STANDARD
  9
$DIMAUNIT
 70
     0
  9
$LUNITS
 70
     2
  9
$LUPREC
 70
     4
  9
$SKETCHINC
 40
1.0
  9
$FILLETRAD
 40
10.0
  9
$AUNITS
 70
     0
  9
$AUPREC
 70
     0
  9
$MENU
  1
.
  9
$ELEVATION
 40
0.0
  9
$PELEVATION
 40
0.0
  9
$THICKNESS
 40
0.0
  9
$LIMCHECK
 70
     0
  9
$CHAMFERA
 40
10.0
  9
$CHAMFERB
 40
10.0
  9
$CHAMFERC
 40
20.0
  9
$CHAMFERD
 40
0.0
  9
$SKPOLY
 70
     0
  9
$TDCREATE
 40
2455406.394646076
  9
$TDUPDATE
 40
2455406.394646088
  9
$TDINDWG
 40
0.0000000116
  9
$TDUSRTIMER
 40
0.0000000116
  9
$USRTIMER
 70
     1
  9
$ANGBASE
 50
0.0
  9
$ANGDIR
 70
     0
  9
$PDMODE
 70
     0
  9
$PDSIZE
 40
0.0
  9
$PLINEWID
 40
0.0
  9
$COORDS
 70
     1
  9
$SPLFRAME
 70
     0
  9
$SPLINETYPE
 70
     6
  9
$SPLINESEGS
 70
     8
  9
$ATTDIA
 70
     0
  9
$ATTREQ
 70
     1
  9
$HANDLING
 70
     1
  9
$HANDSEED
  5
391
  9
$SURFTAB1
 70
     6
  9
$SURFTAB2
 70
     6
  9
$SURFTYPE
 70
     6
  9
$SURFU
 70
     6
  9
$SURFV
 70
     6
  9
$UCSNAME
  2

  9
$UCSORG
 10
0.0
 20
0.0
 30
0.0
  9
$UCSXDIR
 10
1.0
 20
0.0
 30
0.0
  9
$UCSYDIR
 10
0.0
 20
1.0
 30
0.0
  9
$PUCSNAME
  2

  9
$PUCSORG
 10
0.0
 20
0.0
 30
0.0
  9
$PUCSXDIR
 10
1.0
 20
0.0
 30
0.0
  9
$PUCSYDIR
 10
0.0
 20
1.0
 30
0.0
  9
$USERI1
 70
     0
  9
$USERI2
 70
     0
  9
$USERI3
 70
     0
  9
$USERI4
 70
     0
  9
$USERI5
 70
     0
  9
$USERR1
 40
0.0
  9
$USERR2
 40
0.0
  9
$USERR3
 40
0.0
  9
$USERR4
 40
0.0
  9
$USERR5
 40
0.0
  9
$WORLDVIEW
 70
     1
  9
$SHADEDGE
 70
     3
  9
$SHADEDIF
 70
    70
  9
$TILEMODE
 70
     1
  9
$MAXACTVP
 70
    64
  9
$PINSBASE
 10
0.0
 20
0.0
 30
0.0
  9
$PLIMCHECK
 70
     0
  9
$PEXTMIN
 10
1.000000E+20
 20
1.000000E+20
 30
1.000000E+20
  9
$PEXTMAX
 10
-1.000000E+20
 20
-1.000000E+20
 30
-1.000000E+20
  9
$PLIMMIN
 10
0.0
 20
0.0
  9
$PLIMMAX
 10
420.0
 20
297.0
  9
$UNITMODE
 70
     0
  9
$VISRETAIN
 70
     1
  9
$PLINEGEN
 70
     0
  9
$PSLTSCALE
 70
     1
  9
$TREEDEPTH
 70
  3020
  9
$PICKSTYLE
 70
     1
  9
$CMLSTYLE
  2
STANDARD
  9
$CMLJUST
 70
     0
  9
$CMLSCALE
 40
20.0
  9
$PROXYGRAPHICS
 70
     1
  9
$MEASUREMENT
 70
     1
  0
ENDSEC
  0
SECTION
  2
CLASSES
  0
CLASS
  1
ACDBDICTIONARYWDFLT
  2
AcDbDictionaryWithDefault
  3
ObjectDBX Classes
 90
        0
280
     0
281
     0
  0
CLASS
  1
VISUALSTYLE
  2
AcDbVisualStyle
  3
ObjectDBX Classes
 90
     4095
280
     0
281
     0
  0
CLASS
  1
DICTIONARYVAR
  2
AcDbDictionaryVar
  3
ObjectDBX Classes
 90
        0
280
     0
281
     0
  0
CLASS
  1
XRECORD
  2
AcDbXrecord
  3
AutoCAD 2000
 90
        0
280
     0
281
     0
  0
CLASS
  1
LWPOLYLINE
  2
AcDbPolyline
  3
AutoCAD 2000
 90
        0
280
     0
281
     1
  0
CLASS
  1
HATCH
  2
AcDbHatch
  3
AutoCAD 2000
 90
        0
280
     0
281
     1
  0
CLASS
  1
ACDBPLACEHOLDER
  2
AcDbPlaceHolder
  3
ObjectDBX Classes
 90
        0
280
     0
281
     0
  0
CLASS
  1
LAYOUT
  2
AcDbLayout
  3
ObjectDBX Classes
 90
        0
280
     0
281
     0
  0
ENDSEC
  0
SECTION
  2
TABLES
  0
TABLE
  2
VPORT
  5
8
330
0
100
AcDbSymbolTable
 70
     1
  0
VPORT
  5
29
330
8
100
AcDbSymbolTableRecord
100
AcDbViewportTableRecord
  2
*ACTIVE
 70
     0
 10
0.0
 20
0.0
 11
1.0
 21
1.0
 12
344.186916
 22
148.5
 13
0.0
 23
0.0
 14
10.0
 24
10.0
 15
10.0
 25
10.0
 16
0.0
 26
0.0
 36
1.0
 17
0.0
 27
0.0
 37
0.0
 40
297.0
 41
1.972973
 42
50.0
 43
0.0
 44
0.0
 50
0.0
 51
0.0
 71
     0
 72
   100
 73
     1
 74
     3
 75
     0
 76
     0
 77
     0
 78
     0
  0
ENDTAB
  0
TABLE
  2
LTYPE
  5
5
330
0
100
AcDbSymbolTable
 70
     1
  0
LTYPE
  5
14
330
5
100
AcDbSymbolTableRecord
100
AcDbLinetypeTableRecord
  2
BYBLOCK
 70
     0
  3

 72
    65
 73
     0
 40
0.0
  0
LTYPE
  5
15
330
5
100
AcDbSymbolTableRecord
100
AcDbLinetypeTableRecord
  2
BYLAYER
 70
     0
  3

 72
    65
 73
     0
 40
0.0
  0
LTYPE
  5
16
330
5
100
AcDbSymbolTableRecord
100
AcDbLinetypeTableRecord
  2
CONTINUOUS
 70
     0
  3
Solid line
 72
    65
 73
     0
 40
0.0
  0
ENDTAB
  0
TABLE
  2
LAYER
  5
2
330
0
100
AcDbSymbolTable
 70
     6
  0
LAYER
  5
10
330
2
100
AcDbSymbolTableRecord
100
AcDbLayerTableRecord
  2
0
 70
     0
 62
     7
  6
CONTINUOUS
  0
LAYER
  5
3B
330
2
100
AcDbSymbolTableRecord
100
AcDbLayerTableRecord
  2
DIM
 70
     0
 62
     7
  6
CONTINUOUS
  0
LAYER
  5
3C
330
2
100
AcDbSymbolTableRecord
100
AcDbLayerTableRecord
  2
DRAW
 70
     0
 62
     7
  6
CONTINUOUS
  0
LAYER
  5
3D
330
2
100
AcDbSymbolTableRecord
100
AcDbLayerTableRecord
  2
CARTOUCHE
 70
     0
 62
     7
  6
CONTINUOUS
  0
LAYER
  5
3E
330
2
100
AcDbSymbolTableRecord
100
AcDbLayerTableRecord
  2
DRAW-TEXT
 70
     0
 62
     7
  6
CONTINUOUS
  0
LAYER
  5
3F
330
2
100
AcDbSymbolTableRecord
100
AcDbLayerTableRecord
  2
DEFPOINTS
 70
     0
 62
     7
  6
CONTINUOUS
  0
ENDTAB
  0
TABLE
  2
STYLE
  5
3
330
0
100
AcDbSymbolTable
 70
    17
  0
STYLE
  5
11
330
3
100
AcDbSymbolTableRecord
100
AcDbTextStyleTableRecord
  2
STANDARD
 70
     0
 40
0.0
 41
1.0
 50
0.0
 71
     0
 42
2.5
  3
txt
  4

1001
ACAD
1000
txt
1071
        0
  0
STYLE
  5
40
330
3
100
AcDbSymbolTableRecord
100
AcDbTextStyleTableRecord
  2
DEFAULT
 70
     0
 40
0.0
 41
1.0
 50
0.0
 71
     0
 42
0.2
  3

  4

1001
ACAD
1000
txt
1071
        0
  0
STYLE
  5
41
330
3
100
AcDbSymbolTableRecord
100
AcDbTextStyleTableRecord
  2
FINDER
 70
     0
 40
0.0
 41
1.0
 50
0.0
 71
     0
 42
0.2
  3

  4

1001
ACAD
1000
Arial
1071
        0
  0
STYLE
  5
42
330
3
100
AcDbSymbolTableRecord
100
AcDbTextStyleTableRecord
  2
ISO_FINDER
 70
     0
 40
0.0
 41
1.0
 50
0.0
 71
     0
 42
0.2
  3

  4

1001
ACAD
1000
Arial
1071
        0
  0
STYLE
  5
43
330
3
100
AcDbSymbolTableRecord
100
AcDbTextStyleTableRecord
  2
TSTYLE1
 70
     0
 40
0.0
 41
1.0
 50
0.0
 71
     0
 42
0.2
  3

  4

1001
ACAD
1000
Arial
1071
        0
  0
STYLE
  5
44
330
3
100
AcDbSymbolTableRecord
100
AcDbTextStyleTableRecord
  2
TSTYLE2
 70
     0
 40
0.0
 41
1.0
 50
0.0
 71
     0
 42
0.2
  3

  4

1001
ACAD
1000
Arial
1071
        0
  0
STYLE
  5
45
330
3
100
AcDbSymbolTableRecord
100
AcDbTextStyleTableRecord
  2
TSTYLE3
 70
     0
 40
0.0
 41
1.0
 50
0.0
 71
     0
 42
0.2
  3

  4

1001
ACAD
1000
Arial
1071
        0
  0
STYLE
  5
46
330
3
100
AcDbSymbolTableRecord
100
AcDbTextStyleTableRecord
  2
TSTYLE4
 70
     0
 40
0.0
 41
1.0
 50
0.0
 71
     0
 42
0.2
  3

  4

1001
ACAD
1000
Arial
1071
        0
  0
STYLE
  5
47
330
3
100
AcDbSymbolTableRecord
100
AcDbTextStyleTableRecord
  2
TSTYLE5
 70
     0
 40
0.0
 41
1.0
 50
0.0
 71
     0
 42
0.2
  3

  4

1001
ACAD
1000
Arial
1071
        0
  0
STYLE
  5
48
330
3
100
AcDbSymbolTableRecord
100
AcDbTextStyleTableRecord
  2
TSTYLE11
 70
     0
 40
0.0
 41
1.0
 50
0.0
 71
     0
 42
0.2
  3

  4

1001
ACAD
1000
Arial
1071
        0
  0
STYLE
  5
49
330
3
100
AcDbSymbolTableRecord
100
AcDbTextStyleTableRecord
  2
TSTYLE23
 70
     0
 40
0.0
 41
1.0
 50
0.0
 71
     0
 42
0.2
  3

  4

1001
ACAD
1000
Arial
1071
        0
  0
STYLE
  5
4A
330
3
100
AcDbSymbolTableRecord
100
AcDbTextStyleTableRecord
  2
TSTYLE22
 70
     0
 40
0.0
 41
1.0
 50
0.0
 71
     0
 42
0.2
  3

  4

1001
ACAD
1000
Arial
1071
        0
  0
STYLE
  5
4B
330
3
100
AcDbSymbolTableRecord
100
AcDbTextStyleTableRecord
  2
ISO
 70
     0
 40
0.0
 41
1.0
 50
0.0
 71
     0
 42
0.2
  3

  4

1001
ACAD
1000
ISOCP
1071
        0
  0
STYLE
  5
4C
330
3
100
AcDbSymbolTableRecord
100
AcDbTextStyleTableRecord
  2
HELVETICAR
 70
     0
 40
0.0
 41
1.0
 50
0.0
 71
     0
 42
0.2
  3

  4

1001
ACAD
1000
Swis721 Cn BT
1071
        0
  0
STYLE
  5
4D
330
3
100
AcDbSymbolTableRecord
100
AcDbTextStyleTableRecord
  2
ROMANS
 70
     0
 40
0.0
 41
1.0
 50
0.0
 71
     0
 42
0.2
  3

  4

1001
ACAD
1000
romans
1071
        0
  0
STYLE
  5
4E
330
3
100
AcDbSymbolTableRecord
100
AcDbTextStyleTableRecord
  2
STD
 70
     0
 40
0.0
 41
1.0
 50
0.0
 71
     0
 42
0.2
  3

  4

1001
ACAD
1000
txt
1071
        0
  0
STYLE
  5
4F
330
3
100
AcDbSymbolTableRecord
100
AcDbTextStyleTableRecord
  2
STYLE1
 70
     0
 40
0.0
 41
1.0
 50
0.0
 71
     0
 42
0.2
  3

  4

1001
ACAD
1000
Arial Black
1071
        0
  0
ENDTAB
  0
TABLE
  2
VIEW
  5
6
330
0
100
AcDbSymbolTable
 70
     0
  0
ENDTAB
  0
TABLE
  2
UCS
  5
7
330
0
100
AcDbSymbolTable
 70
     0
  0
ENDTAB
  0
TABLE
  2
APPID
  5
9
330
0
100
AcDbSymbolTable
 70
     1
  0
APPID
  5
12
330
9
100
AcDbSymbolTableRecord
100
AcDbRegAppTableRecord
  2
ACAD
 70
     0
  0
ENDTAB
  0
TABLE
  2
DIMSTYLE
  5
A
330
0
100
AcDbSymbolTable
 70
    12
  0
DIMSTYLE
105
27
330
A
100
AcDbSymbolTableRecord
100
AcDbDimStyleTableRecord
  2
ISO-25
 70
     0
  3

  4

  5

  6

  7

 40
1.0
 41
2.5
 42
0.625
 43
3.75
 44
1.25
 45
0.0
 46
0.0
 47
0.0
 48
0.0
140
2.5
141
2.5
142
0.0
143
0.03937
144
1.0
145
0.0
146
1.0
147
0.625
 71
     0
 72
     0
 73
     0
 74
     0
 75
     0
 76
     0
 77
     1
 78
     8
170
     0
171
     3
172
     1
173
     0
174
     0
175
     0
176
     0
177
     0
178
     0
270
     2
271
     2
272
     2
273
     2
274
     3
340
11
275
     0
280
     0
281
     0
282
     0
283
     0
284
     8
285
     0
286
     0
287
     3
288
     0
  0
DIMSTYLE
105
50
330
A
100
AcDbSymbolTableRecord
100
AcDbDimStyleTableRecord
  2
DEFAULT
 70
     0
  3
<>
  4

  5
CLOSED
  6

  7

 40
1.0
 41
4.375
 42
1.05
 43
0.38
 44
2.1
 45
0.0
 46
0.0
 47
0.0
 48
0.0
140
3.5
141
0.09
142
0.0
143
25.4
144
1.0
145
0.0
146
0.4
147
1.75
 71
     0
 72
     0
 73
     0
 74
     0
 75
     0
 76
     0
 77
     1
 78
     8
170
     0
171
     2
172
     0
173
     0
174
     0
175
     0
176
     0
177
     0
178
     2
270
     2
271
     2
272
     3
273
     2
274
     2
340
40
275
     0
280
     0
281
     0
282
     0
283
     1
284
     8
285
     0
286
     0
287
     3
288
     0
  0
DIMSTYLE
105
58
330
A
100
AcDbSymbolTableRecord
100
AcDbDimStyleTableRecord
  2
DEFAULTDIMENSIONSTYLE
 70
     0
  3
<>
  4

  5

  6

  7

 40
1.0
 41
2.5
 42
0.875
 43
0.38
 44
1.75
 45
0.0
 46
0.0
 47
0.0
 48
0.0
140
3.5
141
0.09
142
0.0
143
25.4
144
1.0
145
0.0
146
1.0
147
1.75
 71
     0
 72
     0
 73
     0
 74
     0
 75
     0
 76
     0
 77
     1
 78
     8
170
     0
171
     2
172
     0
173
     0
174
     0
175
     0
176
     0
177
     0
178
     2
270
     2
271
     2
272
     2
273
     2
274
     2
340
11
275
     0
280
     0
281
     0
282
     0
283
     1
284
     8
285
     0
286
     0
287
     3
288
     0
  0
DIMSTYLE
105
59
330
A
100
AcDbSymbolTableRecord
100
AcDbDimStyleTableRecord
  2
FINDER
 70
     0
  3
<>
  4

  5

  6

  7

 40
1.0
 41
2.5
 42
3.888889
 43
0.38
 44
2.430556
 45
0.0
 46
0.0
 47
0.0
 48
0.0
140
3.5
141
0.09
142
0.0
143
25.4
144
1.0
145
0.0
146
1.0
147
2.430556
 71
     0
 72
     0
 73
     0
 74
     0
 75
     0
 76
     0
 77
     1
 78
     8
170
     0
171
     2
172
     0
173
     0
174
     0
175
     0
176
     0
177
     0
178
     2
270
     2
271
     2
272
     2
273
     2
274
     2
340
41
275
     0
280
     0
281
     0
282
     0
283
     1
284
     8
285
     0
286
     0
287
     3
288
     0
  0
DIMSTYLE
105
5A
102
{ACAD_REACTORS
330
2BE
330
2CB
330
2D8
330
2E5
330
2F2
330
2FF
330
30C
102
}
330
A
100
AcDbSymbolTableRecord
100
AcDbDimStyleTableRecord
  2
ISO_FINDER
 70
     0
  3
<>
  4

  5
CLOSED
  6

  7

 40
1.0
 41
1.0
 42
1.05
 43
0.38
 44
1.75
 45
0.0
 46
0.0
 47
0.0
 48
0.0
140
3.5
141
0.09
142
0.0
143
25.4
144
1.0
145
0.0
146
0.6
147
3.5
 71
     0
 72
     0
 73
     0
 74
     0
 75
     0
 76
     0
 77
     1
 78
     8
170
     0
171
     2
172
     0
173
     0
174
     0
175
     0
176
     0
177
     0
178
     2
270
     2
271
     2
272
     3
273
     2
274
     2
340
42
275
     0
280
     0
281
     0
282
     0
283
     1
284
     8
285
     0
286
     0
287
     3
288
     0
  0
DIMSTYLE
105
5B
330
A
100
AcDbSymbolTableRecord
100
AcDbDimStyleTableRecord
  2
DSTYLE1
 70
     0
  3
<>
  4

  5

  6

  7

 40
1.0
 41
1.35
 42
0.35
 43
0.38
 44
1.166667
 45
0.0
 46
0.0
 47
0.0
 48
0.0
140
3.5
141
0.09
142
0.0
143
25.4
144
1.0
145
0.0
146
0.6
147
2.45
 71
     0
 72
     0
 73
     0
 74
     0
 75
     0
 76
     0
 77
     1
 78
     8
170
     0
171
     2
172
     0
173
     0
174
     0
175
     0
176
     0
177
     0
178
     2
270
     2
271
     2
272
     4
273
     2
274
     2
340
49
275
     0
280
     0
281
     0
282
     0
283
     1
284
     0
285
     0
286
     0
287
     3
288
     0
  0
DIMSTYLE
105
5C
330
A
100
AcDbSymbolTableRecord
100
AcDbDimStyleTableRecord
  2
DSTYLE2
 70
     0
  3
<>
  4

  5

  6

  7

 40
1.0
 41
1.35
 42
0.35
 43
0.38
 44
1.166667
 45
0.0
 46
0.0
 47
0.0
 48
0.0
140
3.5
141
0.09
142
0.0
143
25.4
144
1.0
145
0.0
146
0.6
147
2.45
 71
     0
 72
     0
 73
     0
 74
     0
 75
     0
 76
     0
 77
     1
 78
     8
170
     0
171
     2
172
     0
173
     0
174
     0
175
     0
176
     0
177
     0
178
     2
270
     2
271
     2
272
     4
273
     2
274
     2
340
49
275
     0
280
     0
281
     0
282
     0
283
     1
284
     0
285
     0
286
     0
287
     3
288
     0
  0
DIMSTYLE
105
5D
330
A
100
AcDbSymbolTableRecord
100
AcDbDimStyleTableRecord
  2
DSTYLE3
 70
     0
  3
<>
  4

  5

  6

  7

 40
1.0
 41
1.35
 42
0.233333
 43
0.38
 44
1.166667
 45
0.0
 46
0.0
 47
0.0
 48
0.0
140
3.5
141
0.09
142
0.0
143
25.4
144
1.0
145
0.0
146
0.6
147
2.45
 71
     0
 72
     0
 73
     0
 74
     0
 75
     0
 76
     0
 77
     1
 78
     8
170
     0
171
     2
172
     0
173
     0
174
     0
175
     0
176
     0
177
     0
178
     2
270
     2
271
     2
272
     4
273
     2
274
     2
340
49
275
     0
280
     0
281
     0
282
     0
283
     1
284
     0
285
     0
286
     0
287
     3
288
     0
  0
DIMSTYLE
105
5E
330
A
100
AcDbSymbolTableRecord
100
AcDbDimStyleTableRecord
  2
DSTYLE4
 70
     0
  3
<>
  4

  5

  6

  7

 40
1.0
 41
1.35
 42
0.233333
 43
0.38
 44
1.166667
 45
0.0
 46
0.0
 47
0.0
 48
0.0
140
3.5
141
0.09
142
0.0
143
25.4
144
1.0
145
0.0
146
0.6
147
2.45
 71
     0
 72
     0
 73
     0
 74
     0
 75
     0
 76
     0
 77
     1
 78
     8
170
     0
171
     2
172
     0
173
     0
174
     0
175
     0
176
     0
177
     0
178
     2
270
     2
271
     2
272
     4
273
     2
274
     2
340
49
275
     0
280
     0
281
     0
282
     0
283
     1
284
     0
285
     0
286
     0
287
     3
288
     0
  0
DIMSTYLE
105
5F
330
A
100
AcDbSymbolTableRecord
100
AcDbDimStyleTableRecord
  2
DSTYLE5
 70
     0
  3
<>
  4

  5

  6

  7

 40
1.0
 41
1.35
 42
0.000147
 43
0.38
 44
1.166667
 45
0.0
 46
0.0
 47
0.0
 48
0.0
140
3.5
141
0.09
142
0.0
143
25.4
144
1.0
145
0.0
146
0.6
147
2.45
 71
     0
 72
     0
 73
     0
 74
     0
 75
     0
 76
     0
 77
     1
 78
     8
170
     0
171
     2
172
     0
173
     0
174
     0
175
     0
176
     0
177
     0
178
     2
270
     2
271
     2
272
     4
273
     2
274
     2
340
49
275
     0
280
     0
281
     0
282
     0
283
     1
284
     0
285
     0
286
     0
287
     3
288
     0
  0
DIMSTYLE
105
60
330
A
100
AcDbSymbolTableRecord
100
AcDbDimStyleTableRecord
  2
ST0
 70
     0
  3
<>
  4

  5

  6

  7

 40
1.0
 41
1.4
 42
0.6125
 43
0.38
 44
0.6125
 45
0.0
 46
0.0
 47
0.0
 48
0.0
140
3.5
141
0.09
142
0.0
143
25.4
144
1.0
145
0.0
146
0.5
147
1.458333
 71
     0
 72
     0
 73
     0
 74
     0
 75
     0
 76
     0
 77
     1
 78
     8
170
     0
171
     2
172
     0
173
     0
174
     0
175
     0
176
     0
177
     0
178
     2
270
     2
271
     1
272
     2
273
     2
274
     2
340
4B
275
     0
280
     0
281
     0
282
     0
283
     1
284
     0
285
     0
286
     0
287
     3
288
     0
  0
DIMSTYLE
105
61
330
A
100
AcDbSymbolTableRecord
100
AcDbDimStyleTableRecord
  2
PUNTI
 70
     0
  3
<>
  4

  5
DOT
  6

  7

 40
1.0
 41
1.05
 42
0.6125
 43
0.38
 44
0.30625
 45
0.0
 46
0.0
 47
0.0
 48
0.0
140
3.5
141
0.09
142
0.0
143
25.4
144
1.0
145
0.0
146
0.5
147
0.8575
 71
     0
 72
     0
 73
     0
 74
     0
 75
     0
 76
     0
 77
     1
 78
     8
170
     0
171
     2
172
     0
173
     0
174
     0
175
     0
176
     0
177
     0
178
     2
270
     2
271
     4
272
     4
273
     2
274
     2
340
4B
275
     0
280
     0
281
     0
282
     0
283
     1
284
     0
285
     0
286
     0
287
     3
288
     0
  0
ENDTAB
  0
TABLE
  2
BLOCK_RECORD
  5
1
330
0
100
AcDbSymbolTable
 70
    11
  0
BLOCK_RECORD
  5
1F
330
1
100
AcDbSymbolTableRecord
100
AcDbBlockTableRecord
  2
*MODEL_SPACE
  0
BLOCK_RECORD
  5
1B
330
1
100
AcDbSymbolTableRecord
100
AcDbBlockTableRecord
  2
*PAPER_SPACE
  0
BLOCK_RECORD
  5
51
330
1
100
AcDbSymbolTableRecord
100
AcDbBlockTableRecord
  2
_CLOSED
  0
BLOCK_RECORD
  5
62
330
1
100
AcDbSymbolTableRecord
100
AcDbBlockTableRecord
  2
_DOT
  0
BLOCK_RECORD
  5
2BF
330
1
100
AcDbSymbolTableRecord
100
AcDbBlockTableRecord
  2
*D3
  0
BLOCK_RECORD
  5
2CC
330
1
100
AcDbSymbolTableRecord
100
AcDbBlockTableRecord
  2
*D4
  0
BLOCK_RECORD
  5
2D9
330
1
100
AcDbSymbolTableRecord
100
AcDbBlockTableRecord
  2
*D5
  0
BLOCK_RECORD
  5
2E6
330
1
100
AcDbSymbolTableRecord
100
AcDbBlockTableRecord
  2
*D6
  0
BLOCK_RECORD
  5
2F3
330
1
100
AcDbSymbolTableRecord
100
AcDbBlockTableRecord
  2
*D7
  0
BLOCK_RECORD
  5
300
330
1
100
AcDbSymbolTableRecord
100
AcDbBlockTableRecord
  2
*D8
  0
BLOCK_RECORD
  5
30D
330
1
100
AcDbSymbolTableRecord
100
AcDbBlockTableRecord
  2
*D9
  0
BLOCK_RECORD
  5
319
330
1
100
AcDbSymbolTableRecord
100
AcDbBlockTableRecord
  2
LW_POLYLINE_1
  0
ENDTAB
  0
ENDSEC
  0
SECTION
  2
BLOCKS
  0
BLOCK
  5
20
330
1F
100
AcDbEntity
  8
0
100
AcDbBlockBegin
  2
*MODEL_SPACE
 70
     0
 71
     0
 10
0.0
 20
0.0
 30
0.0
  3
*MODEL_SPACE
  1

  0
ENDBLK
  5
21
330
1F
100
AcDbEntity
  8
0
100
AcDbBlockEnd
  0
BLOCK
  5
1C
330
1B
100
AcDbEntity
 67
     1
  8
0
100
AcDbBlockBegin
  2
*PAPER_SPACE
 70
     0
 71
     0
 10
0.0
 20
0.0
 30
0.0
  3
*PAPER_SPACE
  1

  0
ENDBLK
  5
1D
330
1B
100
AcDbEntity
 67
     1
  8
0
100
AcDbBlockEnd
  0
BLOCK
  5
52
330
51
100
AcDbEntity
  8
0
100
AcDbBlockBegin
  2
_CLOSED
 70
     0
 71
     0
 10
0.0
 20
0.0
 30
0.0
  3
_CLOSED
  1

  0
LINE
  5
54
330
51
100
AcDbEntity
  8
0
  6
BYBLOCK
 62
     0
100
AcDbLine
 10
-1.0
 20
0.166667
 30
0.0
 11
0.0
 21
0.0
 31
0.0
  0
LINE
  5
55
330
51
100
AcDbEntity
  8
0
  6
BYBLOCK
 62
     0
100
AcDbLine
 10
0.0
 20
0.0
 30
0.0
 11
-1.0
 21
-0.166667
 31
0.0
  0
LINE
  5
56
330
51
100
AcDbEntity
  8
0
  6
BYBLOCK
 62
     0
100
AcDbLine
 10
-1.0
 20
0.166667
 30
0.0
 11
-1.0
 21
-0.166667
 31
0.0
  0
LINE
  5
57
330
51
100
AcDbEntity
  8
0
  6
BYBLOCK
 62
     0
100
AcDbLine
 10
0.0
 20
0.0
 30
0.0
 11
-1.0
 21
0.0
 31
0.0
  0
ENDBLK
  5
53
330
51
100
AcDbEntity
  8
0
100
AcDbBlockEnd
  0
BLOCK
  5
63
330
62
100
AcDbEntity
  8
0
100
AcDbBlockBegin
  2
_DOT
 70
     0
 71
     0
 10
0.0
 20
0.0
 30
0.0
  3
_DOT
  1

  0
POLYLINE
  5
65
330
62
100
AcDbEntity
  8
0
  6
BYBLOCK
 62
     0
100
AcDb2dPolyline
 66
     1
 10
0.0
 20
0.0
 30
0.0
 70
     1
 40
0.5
 41
0.5
  0
VERTEX
  5
68
330
65
100
AcDbEntity
  8
0
  6
BYBLOCK
 62
     0
100
AcDbVertex
100
AcDb2dVertex
 10
-0.25
 20
0.0
 30
0.0
 42
1.0
  0
VERTEX
  5
69
330
65
100
AcDbEntity
  8
0
  6
BYBLOCK
 62
     0
100
AcDbVertex
100
AcDb2dVertex
 10
0.25
 20
0.0
 30
0.0
 42
1.0
  0
SEQEND
  5
67
330
65
100
AcDbEntity
  8
0
  6
BYBLOCK
 62
     0
  0
LINE
  5
66
330
62
100
AcDbEntity
  8
0
  6
BYBLOCK
 62
     0
100
AcDbLine
 10
-0.5
 20
0.0
 30
0.0
 11
-1.0
 21
0.0
 31
0.0
  0
ENDBLK
  5
64
330
62
100
AcDbEntity
  8
0
100
AcDbBlockEnd
  0
BLOCK
  5
2C9
330
2BF
100
AcDbEntity
  8
0
100
AcDbBlockBegin
  2
*D3
 70
     1
 71
     0
 10
0.0
 20
0.0
 30
0.0
  3
*D3
  1

  0
LINE
  5
2C0
330
2BF
100
AcDbEntity
  8
DIM
  6
CONTINUOUS
 62
     3
100
AcDbLine
 10
166.267487
 20
190.512557
 30
0.0
 11
182.614502
 21
190.512557
 31
0.0
  0
LINE
  5
2C1
330
2BF
100
AcDbEntity
  8
DIM
  6
CONTINUOUS
 62
     3
100
AcDbLine
 10
166.267487
 20
131.012557
 30
0.0
 11
182.614502
 21
131.012557
 31
0.0
  0
LINE
  5
2C2
330
2BF
100
AcDbEntity
  8
DIM
  6
CONTINUOUS
 62
     3
100
AcDbLine
 10
180.864502
 20
189.312557
 30
0.0
 11
180.864502
 21
132.212557
 31
0.0
  0
INSERT
  5
2C3
330
2BF
100
AcDbEntity
  8
DIM
 62
     3
100
AcDbBlockReference
  2
_CLOSED
 10
180.864502
 20
190.512557
 30
0.0
 41
1.2
 42
1.2
 43
1.2
 50
90.0
  0
INSERT
  5
2C4
330
2BF
100
AcDbEntity
  8
DIM
 62
     3
100
AcDbBlockReference
  2
_CLOSED
 10
180.864502
 20
131.012557
 30
0.0
 41
1.2
 42
1.2
 43
1.2
 50
270.0
  0
MTEXT
  5
2C5
330
2BF
100
AcDbEntity
  8
DIM
 62
     2
100
AcDbMText
 10
177.327752
 20
160.762558
 30
0.0
 40
3.5
 41
0.0
 71
     5
 72
     1
  1
\A1;59.5
  7
ISO_FINDER
 11
0.0
 21
1.0
 31
0.0
  0
POINT
  5
2C6
330
2BF
100
AcDbEntity
  8
DEFPOINTS
 62
     0
100
AcDbPoint
 10
165.217487
 20
190.512557
 30
0.0
  0
POINT
  5
2C7
330
2BF
100
AcDbEntity
  8
DEFPOINTS
 62
     0
100
AcDbPoint
 10
165.217487
 20
131.012557
 30
0.0
  0
POINT
  5
2C8
330
2BF
100
AcDbEntity
  8
DEFPOINTS
 62
     0
100
AcDbPoint
 10
180.864502
 20
131.012557
 30
0.0
  0
ENDBLK
  5
2CA
330
2BF
100
AcDbEntity
  8
0
100
AcDbBlockEnd
  0
BLOCK
  5
2D6
330
2CC
100
AcDbEntity
  8
0
100
AcDbBlockBegin
  2
*D4
 70
     1
 71
     0
 10
0.0
 20
0.0
 30
0.0
  3
*D4
  1

  0
LINE
  5
2CD
330
2CC
100
AcDbEntity
  8
DIM
  6
CONTINUOUS
 62
     3
100
AcDbLine
 10
20.062065
 20
199.212571
 30
0.0
 11
20.062065
 21
208.732376
 31
0.0
  0
LINE
  5
2CE
330
2CC
100
AcDbEntity
  8
DIM
  6
CONTINUOUS
 62
     3
100
AcDbLine
 10
42.562065
 20
199.212571
 30
0.0
 11
42.562065
 21
208.732376
 31
0.0
  0
LINE
  5
2CF
330
2CC
100
AcDbEntity
  8
DIM
  6
CONTINUOUS
 62
     3
100
AcDbLine
 10
21.262065
 20
206.982376
 30
0.0
 11
41.362065
 21
206.982376
 31
0.0
  0
INSERT
  5
2D0
330
2CC
100
AcDbEntity
  8
DIM
 62
     3
100
AcDbBlockReference
  2
_CLOSED
 10
20.062065
 20
206.982376
 30
0.0
 41
1.2
 42
1.2
 43
1.2
 50
180.0
  0
INSERT
  5
2D1
330
2CC
100
AcDbEntity
  8
DIM
 62
     3
100
AcDbBlockReference
  2
_CLOSED
 10
42.562065
 20
206.982376
 30
0.0
 41
1.2
 42
1.2
 43
1.2
  0
MTEXT
  5
2D2
330
2CC
100
AcDbEntity
  8
DIM
 62
     2
100
AcDbMText
 10
31.312065
 20
210.519126
 30
0.0
 40
3.5
 41
0.0
 71
     5
 72
     1
  1
\A1;22.5
  7
ISO_FINDER
  0
POINT
  5
2D3
330
2CC
100
AcDbEntity
  8
DEFPOINTS
 62
     0
100
AcDbPoint
 10
20.062065
 20
198.162571
 30
0.0
  0
POINT
  5
2D4
330
2CC
100
AcDbEntity
  8
DEFPOINTS
 62
     0
100
AcDbPoint
 10
42.562065
 20
198.162571
 30
0.0
  0
POINT
  5
2D5
330
2CC
100
AcDbEntity
  8
DEFPOINTS
 62
     0
100
AcDbPoint
 10
42.562065
 20
206.982376
 30
0.0
  0
ENDBLK
  5
2D7
330
2CC
100
AcDbEntity
  8
0
100
AcDbBlockEnd
  0
BLOCK
  5
2E3
330
2D9
100
AcDbEntity
  8
0
100
AcDbBlockBegin
  2
*D5
 70
     1
 71
     0
 10
0.0
 20
0.0
 30
0.0
  3
*D5
  1

  0
LINE
  5
2DA
330
2D9
100
AcDbEntity
  8
DIM
  6
CONTINUOUS
 62
     3
100
AcDbLine
 10
41.112064
 20
200.162568
 30
0.0
 11
9.272775
 21
200.162568
 31
0.0
  0
LINE
  5
2DB
330
2D9
100
AcDbEntity
  8
DIM
  6
CONTINUOUS
 62
     3
100
AcDbLine
 10
30.252762
 20
113.912567
 30
0.0
 11
9.272775
 21
113.912567
 31
0.0
  0
LINE
  5
2DC
330
2D9
100
AcDbEntity
  8
DIM
  6
CONTINUOUS
 62
     3
100
AcDbLine
 10
11.022775
 20
198.962568
 30
0.0
 11
11.022775
 21
115.112567
 31
0.0
  0
INSERT
  5
2DD
330
2D9
100
AcDbEntity
  8
DIM
 62
     3
100
AcDbBlockReference
  2
_CLOSED
 10
11.022775
 20
200.162568
 30
0.0
 41
1.2
 42
1.2
 43
1.2
 50
90.0
  0
INSERT
  5
2DE
330
2D9
100
AcDbEntity
  8
DIM
 62
     3
100
AcDbBlockReference
  2
_CLOSED
 10
11.022775
 20
113.912567
 30
0.0
 41
1.2
 42
1.2
 43
1.2
 50
270.0
  0
MTEXT
  5
2DF
330
2D9
100
AcDbEntity
  8
DIM
 62
     2
100
AcDbMText
 10
7.486025
 20
157.037568
 30
0.0
 40
3.5
 41
0.0
 71
     5
 72
     1
  1
\A1;86.3
  7
ISO_FINDER
 11
6.178632443522081E-17
 21
1.0
 31
0.0
  0
POINT
  5
2E0
330
2D9
100
AcDbEntity
  8
DEFPOINTS
 62
     0
100
AcDbPoint
 10
42.162064
 20
200.162568
 30
0.0
  0
POINT
  5
2E1
330
2D9
100
AcDbEntity
  8
DEFPOINTS
 62
     0
100
AcDbPoint
 10
31.302762
 20
113.912567
 30
0.0
  0
POINT
  5
2E2
330
2D9
100
AcDbEntity
  8
DEFPOINTS
 62
     0
100
AcDbPoint
 10
11.022775
 20
113.912567
 30
0.0
  0
ENDBLK
  5
2E4
330
2D9
100
AcDbEntity
  8
0
100
AcDbBlockEnd
  0
BLOCK
  5
2F0
330
2E6
100
AcDbEntity
  8
0
100
AcDbBlockBegin
  2
*D6
 70
     1
 71
     0
 10
0.0
 20
0.0
 30
0.0
  3
*D6
  1

  0
LINE
  5
2E7
330
2E6
100
AcDbEntity
  8
DIM
  6
CONTINUOUS
 62
     3
100
AcDbLine
 10
68.333512
 20
178.262553
 30
0.0
 11
55.97747
 21
178.262553
 31
0.0
  0
LINE
  5
2E8
330
2E6
100
AcDbEntity
  8
DIM
  6
CONTINUOUS
 62
     3
100
AcDbLine
 10
68.467486
 20
144.462554
 30
0.0
 11
55.97747
 21
144.462554
 31
0.0
  0
LINE
  5
2E9
330
2E6
100
AcDbEntity
  8
DIM
  6
CONTINUOUS
 62
     3
100
AcDbLine
 10
57.72747
 20
177.062553
 30
0.0
 11
57.72747
 21
145.662554
 31
0.0
  0
INSERT
  5
2EA
330
2E6
100
AcDbEntity
  8
DIM
 62
     3
100
AcDbBlockReference
  2
_CLOSED
 10
57.72747
 20
178.262553
 30
0.0
 41
1.2
 42
1.2
 43
1.2
 50
90.0
  0
INSERT
  5
2EB
330
2E6
100
AcDbEntity
  8
DIM
 62
     3
100
AcDbBlockReference
  2
_CLOSED
 10
57.72747
 20
144.462554
 30
0.0
 41
1.2
 42
1.2
 43
1.2
 50
270.0
  0
MTEXT
  5
2EC
330
2E6
100
AcDbEntity
  8
DIM
 62
     2
100
AcDbMText
 10
54.19072
 20
161.362553
 30
0.0
 40
3.5
 41
0.0
 71
     5
 72
     1
  1
\A1;33.8
  7
ISO_FINDER
 11
0.0
 21
1.0
 31
0.0
  0
POINT
  5
2ED
330
2E6
100
AcDbEntity
  8
DEFPOINTS
 62
     0
100
AcDbPoint
 10
69.383512
 20
178.262553
 30
0.0
  0
POINT
  5
2EE
330
2E6
100
AcDbEntity
  8
DEFPOINTS
 62
     0
100
AcDbPoint
 10
69.517486
 20
144.462554
 30
0.0
  0
POINT
  5
2EF
330
2E6
100
AcDbEntity
  8
DEFPOINTS
 62
     0
100
AcDbPoint
 10
57.72747
 20
144.462554
 30
0.0
  0
ENDBLK
  5
2F1
330
2E6
100
AcDbEntity
  8
0
100
AcDbBlockEnd
  0
BLOCK
  5
2FD
330
2F3
100
AcDbEntity
  8
0
100
AcDbBlockBegin
  2
*D7
 70
     1
 71
     0
 10
0.0
 20
0.0
 30
0.0
  3
*D7
  1

  0
LINE
  5
2F4
330
2F3
100
AcDbEntity
  8
DIM
  6
CONTINUOUS
 62
     3
100
AcDbLine
 10
68.467486
 20
144.462554
 30
0.0
 11
55.97747
 21
144.462554
 31
0.0
  0
LINE
  5
2F5
330
2F3
100
AcDbEntity
  8
DIM
  6
CONTINUOUS
 62
     3
100
AcDbLine
 10
65.867486
 20
113.912539
 30
0.0
 11
55.97747
 21
113.912539
 31
0.0
  0
LINE
  5
2F6
330
2F3
100
AcDbEntity
  8
DIM
  6
CONTINUOUS
 62
     3
100
AcDbLine
 10
57.72747
 20
143.262554
 30
0.0
 11
57.72747
 21
115.112539
 31
0.0
  0
INSERT
  5
2F7
330
2F3
100
AcDbEntity
  8
DIM
 62
     3
100
AcDbBlockReference
  2
_CLOSED
 10
57.72747
 20
144.462554
 30
0.0
 41
1.2
 42
1.2
 43
1.2
 50
90.0
  0
INSERT
  5
2F8
330
2F3
100
AcDbEntity
  8
DIM
 62
     3
100
AcDbBlockReference
  2
_CLOSED
 10
57.72747
 20
113.912539
 30
0.0
 41
1.2
 42
1.2
 43
1.2
 50
270.0
  0
MTEXT
  5
2F9
330
2F3
100
AcDbEntity
  8
DIM
 62
     2
100
AcDbMText
 10
54.19072
 20
129.187546
 30
0.0
 40
3.5
 41
0.0
 71
     5
 72
     1
  1
\A1;30.6
  7
ISO_FINDER
 11
0.0
 21
1.0
 31
0.0
  0
POINT
  5
2FA
330
2F3
100
AcDbEntity
  8
DEFPOINTS
 62
     0
100
AcDbPoint
 10
69.517486
 20
144.462554
 30
0.0
  0
POINT
  5
2FB
330
2F3
100
AcDbEntity
  8
DEFPOINTS
 62
     0
100
AcDbPoint
 10
66.917486
 20
113.912539
 30
0.0
  0
POINT
  5
2FC
330
2F3
100
AcDbEntity
  8
DEFPOINTS
 62
     0
100
AcDbPoint
 10
57.72747
 20
113.912539
 30
0.0
  0
ENDBLK
  5
2FE
330
2F3
100
AcDbEntity
  8
0
100
AcDbBlockEnd
  0
BLOCK
  5
30A
330
300
100
AcDbEntity
  8
0
100
AcDbBlockBegin
  2
*D8
 70
     1
 71
     0
 10
0.0
 20
0.0
 30
0.0
  3
*D8
  1

  0
LINE
  5
301
330
300
100
AcDbEntity
  8
DIM
  6
CONTINUOUS
 62
     3
100
AcDbLine
 10
135.267487
 20
200.162552
 30
0.0
 11
192.411804
 21
200.162552
 31
0.0
  0
LINE
  5
302
330
300
100
AcDbEntity
  8
DIM
  6
CONTINUOUS
 62
     3
100
AcDbLine
 10
135.267487
 20
121.362553
 30
0.0
 11
192.411804
 21
121.362553
 31
0.0
  0
LINE
  5
303
330
300
100
AcDbEntity
  8
DIM
  6
CONTINUOUS
 62
     3
100
AcDbLine
 10
190.661804
 20
198.962552
 30
0.0
 11
190.661804
 21
122.562553
 31
0.0
  0
INSERT
  5
304
330
300
100
AcDbEntity
  8
DIM
 62
     3
100
AcDbBlockReference
  2
_CLOSED
 10
190.661804
 20
200.162552
 30
0.0
 41
1.2
 42
1.2
 43
1.2
 50
90.0
  0
INSERT
  5
305
330
300
100
AcDbEntity
  8
DIM
 62
     3
100
AcDbBlockReference
  2
_CLOSED
 10
190.661804
 20
121.362553
 30
0.0
 41
1.2
 42
1.2
 43
1.2
 50
270.0
  0
MTEXT
  5
306
330
300
100
AcDbEntity
  8
DIM
 62
     2
100
AcDbMText
 10
187.125054
 20
160.762543
 30
0.0
 40
3.5
 41
0.0
 71
     5
 72
     1
  1
\A1;78.8
  7
ISO_FINDER
 11
0.0
 21
1.0
 31
0.0
  0
POINT
  5
307
330
300
100
AcDbEntity
  8
DEFPOINTS
 62
     0
100
AcDbPoint
 10
134.217487
 20
200.162552
 30
0.0
  0
POINT
  5
308
330
300
100
AcDbEntity
  8
DEFPOINTS
 62
     0
100
AcDbPoint
 10
134.217487
 20
121.362553
 30
0.0
  0
POINT
  5
309
330
300
100
AcDbEntity
  8
DEFPOINTS
 62
     0
100
AcDbPoint
 10
190.661804
 20
121.362553
 30
0.0
  0
ENDBLK
  5
30B
330
300
100
AcDbEntity
  8
0
100
AcDbBlockEnd
  0
BLOCK
  5
317
330
30D
100
AcDbEntity
  8
0
100
AcDbBlockBegin
  2
*D9
 70
     1
 71
     0
 10
0.0
 20
0.0
 30
0.0
  3
*D9
  1

  0
LINE
  5
30E
330
30D
100
AcDbEntity
  8
DIM
  6
CONTINUOUS
 62
     3
100
AcDbLine
 10
66.417487
 20
191.812553
 30
0.0
 11
66.417487
 21
212.019608
 31
0.0
  0
LINE
  5
30F
330
30D
100
AcDbEntity
  8
DIM
  6
CONTINUOUS
 62
     3
100
AcDbLine
 10
166.717487
 20
190.062557
 30
0.0
 11
166.717487
 21
212.019608
 31
0.0
  0
LINE
  5
310
330
30D
100
AcDbEntity
  8
DIM
  6
CONTINUOUS
 62
     3
100
AcDbLine
 10
67.617487
 20
210.269608
 30
0.0
 11
165.517487
 21
210.269608
 31
0.0
  0
INSERT
  5
311
330
30D
100
AcDbEntity
  8
DIM
 62
     3
100
AcDbBlockReference
  2
_CLOSED
 10
66.417487
 20
210.269608
 30
0.0
 41
1.2
 42
1.2
 43
1.2
 50
180.0
  0
INSERT
  5
312
330
30D
100
AcDbEntity
  8
DIM
 62
     3
100
AcDbBlockReference
  2
_CLOSED
 10
166.717487
 20
210.269608
 30
0.0
 41
1.2
 42
1.2
 43
1.2
  0
MTEXT
  5
313
330
30D
100
AcDbEntity
  8
DIM
 62
     2
100
AcDbMText
 10
116.567487
 20
213.806358
 30
0.0
 40
3.5
 41
0.0
 71
     5
 72
     1
  1
\A1;100.3
  7
ISO_FINDER
  0
POINT
  5
314
330
30D
100
AcDbEntity
  8
DEFPOINTS
 62
     0
100
AcDbPoint
 10
66.417487
 20
190.762553
 30
0.0
  0
POINT
  5
315
330
30D
100
AcDbEntity
  8
DEFPOINTS
 62
     0
100
AcDbPoint
 10
166.717487
 20
189.012557
 30
0.0
  0
POINT
  5
316
330
30D
100
AcDbEntity
  8
DEFPOINTS
 62
     0
100
AcDbPoint
 10
166.717487
 20
210.269608
 30
0.0
  0
ENDBLK
  5
318
330
30D
100
AcDbEntity
  8
0
100
AcDbBlockEnd
  0
BLOCK
  5
31F
330
319
100
AcDbEntity
  8
0
100
AcDbBlockBegin
  2
LW_POLYLINE_1
 70
     0
 71
     0
 10
200.000031
 20
287.000183
 30
0.0
  3
LW_POLYLINE_1
  1

  0
LINE
  5
31A
330
319
100
AcDbEntity
  8
CARTOUCHE
  6
CONTINUOUS
 62
     0
100
AcDbLine
 10
200.000031
 20
287.000183
 30
0.0
 11
200.000031
 21
0.000183
 31
0.0
  0
LINE
  5
31B
330
319
100
AcDbEntity
  8
CARTOUCHE
  6
CONTINUOUS
 62
     0
100
AcDbLine
 10
200.000031
 20
0.000183
 30
0.0
 11
-0.000006
 21
0.0
 31
0.0
  0
LINE
  5
31C
330
319
100
AcDbEntity
  8
CARTOUCHE
  6
CONTINUOUS
 62
     0
100
AcDbLine
 10
-0.000006
 20
0.0
 30
0.0
 11
-0.000006
 21
287.0
 31
0.0
  0
LINE
  5
31D
330
319
100
AcDbEntity
  8
CARTOUCHE
  6
CONTINUOUS
 62
     0
100
AcDbLine
 10
-0.000006
 20
287.0
 30
0.0
 11
199.999768
 21
287.000183
 31
0.0
  0
LINE
  5
31E
330
319
100
AcDbEntity
  8
CARTOUCHE
  6
CONTINUOUS
 62
     0
100
AcDbLine
 10
199.999768
 20
287.000183
 30
0.0
 11
200.000031
 21
287.000183
 31
0.0
  0
ENDBLK
  5
320
330
319
100
AcDbEntity
  8
0
100
AcDbBlockEnd
  0
ENDSEC
  0
SECTION
  2
ENTITIES
  0
LINE
  5
6A
330
1F
100
AcDbEntity
  8
CARTOUCHE
  6
CONTINUOUS
 62
     7
100
AcDbLine
 10
200.000013
 20
5.000763
 30
0.0
 11
-0.000024
 21
5.001038
 31
0.0
  0
LINE
  5
6B
330
1F
100
AcDbEntity
  8
CARTOUCHE
  6
CONTINUOUS
 62
     7
100
AcDbLine
 10
44.999977
 20
31.845363
 30
0.0
 11
44.999977
 21
0.000011
 31
0.0
  0
TEXT
  5
6C
330
1F
100
AcDbEntity
  8
CARTOUCHE
  6
CONTINUOUS
 62
     7
100
AcDbText
 10
114.722389
 20
27.435944
 30
0.0
 40
1.8
  1
PRODUCT TYPE
 50
359.999908
 41
0.03
  7
FINDER
100
AcDbText
  0
TEXT
  5
6D
330
1F
100
AcDbEntity
  8
CARTOUCHE
  6
CONTINUOUS
 62
     2
100
AcDbText
 10
14.493933
 20
1.600952
 30
0.0
 40
1.8
  1
MOD. UT 902
 50
359.999908
 41
0.15
  7
FINDER
100
AcDbText
  0
LINE
  5
6E
330
1F
100
AcDbEntity
  8
CARTOUCHE
  6
CONTINUOUS
 62
     7
100
AcDbLine
 10
199.999984
 20
15.002778
 30
0.0
 11
44.999949
 21
15.003015
 31
0.0
  0
TEXT
  5
6F
330
1F
100
AcDbEntity
  8
CARTOUCHE
  6
CONTINUOUS
 62
     7
100
AcDbText
 10
68.494057
 20
11.624267
 30
0.0
 40
1.8
  1
REV.
 50
359.999908
 41
0.28
  7
FINDER
100
AcDbText
  0
LINE
  5
70
330
1F
100
AcDbEntity
  8
CARTOUCHE
  6
CONTINUOUS
 62
     7
100
AcDbLine
 10
96.666627
 20
15.002936
 30
0.0
 11
96.666627
 21
5.000994
 31
0.0
  0
LINE
  5
71
330
1F
100
AcDbEntity
  8
CARTOUCHE
  6
CONTINUOUS
 62
     4
100
AcDbLine
 10
7.362899
 20
22.655455
 30
0.0
 11
7.362899
 21
16.810164
 31
0.0
  0
LINE
  5
72
330
1F
100
AcDbEntity
  8
CARTOUCHE
  6
CONTINUOUS
 62
     4
100
AcDbLine
 10
7.362899
 20
16.810164
 30
0.0
 11
5.887799
 21
18.410814
 31
0.0
  0
LINE
  5
73
330
1F
100
AcDbEntity
  8
CARTOUCHE
  6
CONTINUOUS
 62
     4
100
AcDbLine
 10
5.887799
 20
18.410814
 30
0.0
 11
6.116399
 21
18.410814
 31
0.0
  0
LINE
  5
74
330
1F
100
AcDbEntity
  8
CARTOUCHE
  6
CONTINUOUS
 62
     4
100
AcDbLine
 10
6.413849
 20
18.766484
 30
0.0
 11
6.413849
 21
22.652591
 31
0.0
  0
LINE
  5
75
330
1F
100
AcDbEntity
  8
CARTOUCHE
  6
CONTINUOUS
 62
     4
100
AcDbLine
 10
5.464799
 20
22.399476
 30
0.0
 11
5.464799
 21
19.428714
 31
0.0
  0
LINE
  5
76
330
1F
100
AcDbEntity
  8
CARTOUCHE
  6
CONTINUOUS
 62
     4
100
AcDbLine
 10
5.464799
 20
19.428714
 30
0.0
 11
3.174752
 21
19.428714
 31
0.0
  0
LINE
  5
77
330
1F
100
AcDbEntity
  8
CARTOUCHE
  6
CONTINUOUS
 62
     4
100
AcDbLine
 10
3.176289
 20
18.410814
 30
0.0
 11
4.378499
 21
18.410814
 31
0.0
  0
LINE
  5
78
330
1F
100
AcDbEntity
  8
CARTOUCHE
  6
CONTINUOUS
 62
     4
100
AcDbLine
 10
4.378499
 20
18.410814
 30
0.0
 11
7.173675
 21
15.668298
 31
0.0
  0
LINE
  5
79
330
1F
100
AcDbEntity
  8
CARTOUCHE
  6
CONTINUOUS
 62
     4
100
AcDbLine
 10
8.323199
 20
16.169814
 30
0.0
 11
8.323199
 21
19.508364
 31
0.0
  0
LINE
  5
7A
330
1F
100
AcDbEntity
  8
CARTOUCHE
  6
CONTINUOUS
 62
     4
100
AcDbLine
 10
8.323199
 20
19.508364
 30
0.0
 11
9.455399
 21
19.508364
 31
0.0
  0
LINE
  5
7B
330
1F
100
AcDbEntity
  8
CARTOUCHE
  6
CONTINUOUS
 62
     4
100
AcDbLine
 10
9.353632
 20
20.503314
 30
0.0
 11
8.323199
 21
20.503314
 31
0.0
  0
LINE
  5
7C
330
1F
100
AcDbEntity
  8
CARTOUCHE
  6
CONTINUOUS
 62
     4
100
AcDbLine
 10
8.323199
 20
20.503314
 30
0.0
 11
8.323199
 21
22.404104
 31
0.0
  0
LINE
  5
7D
330
1F
100
AcDbEntity
  8
CARTOUCHE
  6
CONTINUOUS
 62
     4
100
AcDbLine
 10
23.108399
 20
17.479004
 30
0.0
 11
23.108399
 21
15.632064
 31
0.0
  0
LINE
  5
7E
330
1F
100
AcDbEntity
  8
CARTOUCHE
  6
CONTINUOUS
 62
     4
100
AcDbLine
 10
23.108399
 20
15.632064
 30
0.0
 11
24.892199
 21
15.632064
 31
0.0
  0
LINE
  5
7F
330
1F
100
AcDbEntity
  8
CARTOUCHE
  6
CONTINUOUS
 62
     4
100
AcDbLine
 10
24.892199
 20
15.632064
 30
0.0
 11
24.892199
 21
18.324523
 31
0.0
  0
LINE
  5
80
330
1F
100
AcDbEntity
  8
CARTOUCHE
  6
CONTINUOUS
 62
     4
100
AcDbLine
 10
21.289949
 20
19.074114
 30
0.0
 11
21.289949
 21
19.508364
 31
0.0
  0
LINE
  5
81
330
1F
100
AcDbEntity
  8
CARTOUCHE
  6
CONTINUOUS
 62
     4
100
AcDbLine
 10
21.289949
 20
19.508364
 30
0.0
 11
19.494899
 21
19.508364
 31
0.0
  0
LINE
  5
82
330
1F
100
AcDbEntity
  8
CARTOUCHE
  6
CONTINUOUS
 62
     4
100
AcDbLine
 10
19.494899
 20
19.508364
 30
0.0
 11
19.494899
 21
15.632064
 31
0.0
  0
LINE
  5
83
330
1F
100
AcDbEntity
  8
CARTOUCHE
  6
CONTINUOUS
 62
     4
100
AcDbLine
 10
19.494899
 20
15.632064
 30
0.0
 11
21.289949
 21
15.632064
 31
0.0
  0
LINE
  5
84
330
1F
100
AcDbEntity
  8
CARTOUCHE
  6
CONTINUOUS
 62
     4
100
AcDbLine
 10
21.289949
 20
15.632064
 30
0.0
 11
21.289949
 21
17.433469
 31
0.0
  0
LINE
  5
85
330
1F
100
AcDbEntity
  8
CARTOUCHE
  6
CONTINUOUS
 62
     4
100
AcDbLine
 10
30.986549
 20
20.823714
 30
0.0
 11
30.986549
 21
15.620814
 31
0.0
  0
LINE
  5
86
330
1F
100
AcDbEntity
  8
CARTOUCHE
  6
CONTINUOUS
 62
     4
100
AcDbLine
 10
30.986549
 20
15.620814
 30
0.0
 11
29.191499
 21
15.620814
 31
0.0
  0
LINE
  5
87
330
1F
100
AcDbEntity
  8
CARTOUCHE
  6
CONTINUOUS
 62
     4
100
AcDbLine
 10
29.191499
 20
19.319874
 30
0.0
 11
29.191499
 21
20.823714
 31
0.0
  0
LINE
  5
88
330
1F
100
AcDbEntity
  8
CARTOUCHE
  6
CONTINUOUS
 62
     4
100
AcDbLine
 10
29.191499
 20
20.823714
 30
0.0
 11
30.986549
 21
20.823714
 31
0.0
  0
LINE
  5
89
330
1F
100
AcDbEntity
  8
CARTOUCHE
  6
CONTINUOUS
 62
     4
100
AcDbLine
 10
37.732949
 20
19.508364
 30
0.0
 11
39.459599
 21
19.508364
 31
0.0
  0
LINE
  5
8A
330
1F
100
AcDbEntity
  8
CARTOUCHE
  6
CONTINUOUS
 62
     4
100
AcDbLine
 10
39.459599
 20
19.508364
 30
0.0
 11
39.459599
 21
19.165464
 31
0.0
  0
LINE
  5
8B
330
1F
100
AcDbEntity
  8
CARTOUCHE
  6
CONTINUOUS
 62
     4
100
AcDbLine
 10
42.283799
 20
17.587764
 30
0.0
 11
40.454549
 21
17.587764
 31
0.0
  0
LINE
  5
8C
330
1F
100
AcDbEntity
  8
CARTOUCHE
  6
CONTINUOUS
 62
     4
100
AcDbLine
 10
40.454549
 20
17.587764
 30
0.0
 11
40.454549
 21
17.827614
 31
0.0
  0
LINE
  5
8D
330
1F
100
AcDbEntity
  8
CARTOUCHE
  6
CONTINUOUS
 62
     4
100
AcDbLine
 10
39.459599
 20
17.782164
 30
0.0
 11
39.459599
 21
15.632064
 31
0.0
  0
LINE
  5
8E
330
1F
100
AcDbEntity
  8
CARTOUCHE
  6
CONTINUOUS
 62
     4
100
AcDbLine
 10
39.459599
 20
15.632064
 30
0.0
 11
37.732949
 21
15.632064
 31
0.0
  0
LINE
  5
8F
330
1F
100
AcDbEntity
  8
CARTOUCHE
  6
CONTINUOUS
 62
     4
100
AcDbLine
 10
37.732949
 20
15.632064
 30
0.0
 11
37.732949
 21
19.508364
 31
0.0
  0
LINE
  5
90
330
1F
100
AcDbEntity
  8
CARTOUCHE
  6
CONTINUOUS
 62
     4
100
AcDbLine
 10
34.154099
 20
17.244414
 30
0.0
 11
34.051049
 21
17.244414
 31
0.0
  0
LINE
  5
91
330
1F
100
AcDbEntity
  8
CARTOUCHE
  6
CONTINUOUS
 62
     4
100
AcDbLine
 10
34.051049
 20
17.244414
 30
0.0
 11
33.364799
 21
17.244414
 31
0.0
  0
LINE
  5
92
330
1F
100
AcDbEntity
  8
CARTOUCHE
  6
CONTINUOUS
 62
     4
100
AcDbLine
 10
35.342999
 20
16.855614
 30
0.0
 11
37.103849
 21
16.855614
 31
0.0
  0
LINE
  5
93
330
1F
100
AcDbEntity
  8
CARTOUCHE
  6
CONTINUOUS
 62
     4
100
AcDbLine
 10
37.206899
 20
17.256114
 30
0.0
 11
34.154099
 21
17.244414
 31
0.0
  0
LINE
  5
94
330
1F
100
AcDbEntity
  8
CARTOUCHE
  6
CONTINUOUS
 62
     4
100
AcDbLine
 10
34.154099
 20
18.079164
 30
0.0
 11
35.342999
 21
18.079164
 31
0.0
  0
LINE
  5
95
330
1F
100
AcDbEntity
  8
CARTOUCHE
  6
CONTINUOUS
 62
     4
100
AcDbLine
 10
33.364799
 20
18.079164
 30
0.0
 11
34.154099
 21
18.079164
 31
0.0
  0
LINE
  5
96
330
1F
100
AcDbEntity
  8
CARTOUCHE
  6
CONTINUOUS
 62
     4
100
AcDbLine
 10
16.087499
 20
19.931814
 30
0.0
 11
16.087499
 21
20.834964
 31
0.0
  0
LINE
  5
97
330
1F
100
AcDbEntity
  8
CARTOUCHE
  6
CONTINUOUS
 62
     4
100
AcDbLine
 10
16.087499
 20
20.834964
 30
0.0
 11
14.589449
 21
20.834964
 31
0.0
  0
LINE
  5
98
330
1F
100
AcDbEntity
  8
CARTOUCHE
  6
CONTINUOUS
 62
     4
100
AcDbLine
 10
13.674599
 20
19.931814
 30
0.0
 11
13.674599
 21
19.508364
 31
0.0
  0
LINE
  5
99
330
1F
100
AcDbEntity
  8
CARTOUCHE
  6
CONTINUOUS
 62
     4
100
AcDbLine
 10
13.674599
 20
19.508364
 30
0.0
 11
13.137299
 21
19.508364
 31
0.0
  0
LINE
  5
9A
330
1F
100
AcDbEntity
  8
CARTOUCHE
  6
CONTINUOUS
 62
     4
100
AcDbLine
 10
13.137299
 20
19.508364
 30
0.0
 11
13.137299
 21
18.410814
 31
0.0
  0
LINE
  5
9B
330
1F
100
AcDbEntity
  8
CARTOUCHE
  6
CONTINUOUS
 62
     4
100
AcDbLine
 10
13.137299
 20
18.410814
 30
0.0
 11
13.674599
 21
18.410814
 31
0.0
  0
LINE
  5
9C
330
1F
100
AcDbEntity
  8
CARTOUCHE
  6
CONTINUOUS
 62
     4
100
AcDbLine
 10
13.674599
 20
18.410814
 30
0.0
 11
13.674599
 21
15.632064
 31
0.0
  0
LINE
  5
9D
330
1F
100
AcDbEntity
  8
CARTOUCHE
  6
CONTINUOUS
 62
     4
100
AcDbLine
 10
13.674599
 20
15.632064
 30
0.0
 11
15.470099
 21
15.632064
 31
0.0
  0
LINE
  5
9E
330
1F
100
AcDbEntity
  8
CARTOUCHE
  6
CONTINUOUS
 62
     4
100
AcDbLine
 10
15.470099
 20
15.632064
 30
0.0
 11
15.470099
 21
18.410814
 31
0.0
  0
LINE
  5
9F
330
1F
100
AcDbEntity
  8
CARTOUCHE
  6
CONTINUOUS
 62
     4
100
AcDbLine
 10
15.470099
 20
18.410814
 30
0.0
 11
16.087499
 21
18.410814
 31
0.0
  0
LINE
  5
A0
330
1F
100
AcDbEntity
  8
CARTOUCHE
  6
CONTINUOUS
 62
     4
100
AcDbLine
 10
16.087499
 20
18.410814
 30
0.0
 11
16.087499
 21
19.508364
 31
0.0
  0
LINE
  5
A1
330
1F
100
AcDbEntity
  8
CARTOUCHE
  6
CONTINUOUS
 62
     4
100
AcDbLine
 10
16.087499
 20
19.508364
 30
0.0
 11
15.412949
 21
19.508364
 31
0.0
  0
LINE
  5
A2
330
1F
100
AcDbEntity
  8
CARTOUCHE
  6
CONTINUOUS
 62
     4
100
AcDbLine
 10
15.412949
 20
19.508364
 30
0.0
 11
15.461055
 21
19.768592
 31
0.0
  0
LINE
  5
A3
330
1F
100
AcDbEntity
  8
CARTOUCHE
  6
CONTINUOUS
 62
     4
100
AcDbLine
 10
15.679029
 20
19.931814
 30
0.0
 11
16.087499
 21
19.931814
 31
0.0
  0
LINE
  5
A4
330
1F
100
AcDbEntity
  8
CARTOUCHE
  6
CONTINUOUS
 62
     4
100
AcDbLine
 10
16.807949
 20
15.632064
 30
0.0
 11
16.807949
 21
19.508364
 31
0.0
  0
LINE
  5
A5
330
1F
100
AcDbEntity
  8
CARTOUCHE
  6
CONTINUOUS
 62
     4
100
AcDbLine
 10
16.807949
 20
19.508364
 30
0.0
 11
18.625949
 21
19.508364
 31
0.0
  0
LINE
  5
A6
330
1F
100
AcDbEntity
  8
CARTOUCHE
  6
CONTINUOUS
 62
     4
100
AcDbLine
 10
18.625949
 20
19.508364
 30
0.0
 11
18.625949
 21
15.632064
 31
0.0
  0
LINE
  5
A7
330
1F
100
AcDbEntity
  8
CARTOUCHE
  6
CONTINUOUS
 62
     4
100
AcDbLine
 10
18.625949
 20
15.632064
 30
0.0
 11
16.807949
 21
15.632064
 31
0.0
  0
LINE
  5
A8
330
1F
100
AcDbEntity
  8
CARTOUCHE
  6
CONTINUOUS
 62
     4
100
AcDbLine
 10
16.807949
 20
19.943064
 30
0.0
 11
16.807949
 21
20.834964
 31
0.0
  0
LINE
  5
A9
330
1F
100
AcDbEntity
  8
CARTOUCHE
  6
CONTINUOUS
 62
     4
100
AcDbLine
 10
16.807949
 20
20.834964
 30
0.0
 11
18.625949
 21
20.834964
 31
0.0
  0
LINE
  5
AA
330
1F
100
AcDbEntity
  8
CARTOUCHE
  6
CONTINUOUS
 62
     4
100
AcDbLine
 10
18.625949
 20
20.834964
 30
0.0
 11
18.625949
 21
19.943064
 31
0.0
  0
LINE
  5
AB
330
1F
100
AcDbEntity
  8
CARTOUCHE
  6
CONTINUOUS
 62
     4
100
AcDbLine
 10
18.625949
 20
19.943064
 30
0.0
 11
16.807949
 21
19.943064
 31
0.0
  0
ARC
  5
AC
330
1F
100
AcDbEntity
  8
CARTOUCHE
  6
CONTINUOUS
 62
     4
100
AcDbCircle
 10
14.580235
 20
19.929371
 30
0.0
 40
0.905639
100
AcDbArc
 50
90.0
 51
180.0
  0
ARC
  5
AD
330
1F
100
AcDbEntity
  8
CARTOUCHE
  6
CONTINUOUS
 62
     4
100
AcDbCircle
 10
15.705964
 20
19.668686
 30
0.0
 40
0.264503
100
AcDbArc
 50
95.844673
 51
157.807812
  0
ARC
  5
AE
330
1F
100
AcDbEntity
  8
CARTOUCHE
  6
CONTINUOUS
 62
     4
100
AcDbCircle
 10
23.675004
 20
18.264843
 30
0.0
 40
1.218658
100
AcDbArc
 50
2.806997
 51
66.545781
  0
ARC
  5
AF
330
1F
100
AcDbEntity
  8
CARTOUCHE
  6
CONTINUOUS
 62
     4
100
AcDbCircle
 10
23.067379
 20
16.045231
 30
0.0
 40
3.511892
100
AcDbArc
 50
71.872392
 51
120.405557
  0
ARC
  5
B0
330
1F
100
AcDbEntity
  8
CARTOUCHE
  6
CONTINUOUS
 62
     4
100
AcDbCircle
 10
22.4573
 20
17.479004
 30
0.0
 40
0.6511239999999999
100
AcDbArc
 50
0.0
 51
97.150683
  0
ARC
  5
B1
330
1F
100
AcDbEntity
  8
CARTOUCHE
  6
CONTINUOUS
 62
     4
100
AcDbCircle
 10
22.443786
 20
16.820049
 30
0.0
 40
1.306761
100
AcDbArc
 50
92.962513
 51
152.003324
  0
CIRCLE
  5
B2
330
1F
100
AcDbEntity
  8
CARTOUCHE
  6
CONTINUOUS
 62
     4
100
AcDbCircle
 10
6.899622
 20
18.925392
 30
0.0
 40
4.756723
  0
ARC
  5
B3
330
1F
100
AcDbEntity
  8
CARTOUCHE
  6
CONTINUOUS
 62
     4
100
AcDbCircle
 10
6.899627
 20
18.925387
 30
0.0
 40
3.758726999999999
100
AcDbArc
 50
112.441032
 51
172.30447
  0
ARC
  5
B4
330
1F
100
AcDbEntity
  8
CARTOUCHE
  6
CONTINUOUS
 62
     4
100
AcDbCircle
 10
6.899627
 20
18.925387
 30
0.0
 40
3.758726999999999
100
AcDbArc
 50
82.920154
 51
97.425676
  0
ARC
  5
B5
330
1F
100
AcDbEntity
  8
CARTOUCHE
  6
CONTINUOUS
 62
     4
100
AcDbCircle
 10
6.899627
 20
18.925387
 30
0.0
 40
3.758726999999999
100
AcDbArc
 50
187.868554
 51
67.744476
  0
SPLINE
  5
B6
330
1F
100
AcDbEntity
  8
CARTOUCHE
  6
CONTINUOUS
 62
     4
100
AcDbSpline
210
0.0
220
0.0
230
1.0
 70
     8
 71
     3
 72
    36
 73
    32
 74
     0
 42
0.0
 43
0.0
 40
0.0
 40
0.0
 40
0.0
 40
0.0
 40
0.1780767830136681
 40
0.3550421473332519
 40
0.5343453484092107
 40
0.7146565399102438
 40
1.070969665796742
 40
1.425797276482803
 40
1.782601621641158
 40
2.138604507529012
 40
2.49466569435076
 40
2.851054992366517
 40
3.206893612592711
 40
3.563376496270242
 40
3.919394399374821
 40
4.275489906300406
 40
4.631810709934303
 40
4.987969559364684
 40
5.344082118601289
 40
5.700399378588026
 40
6.056403899471826
 40
6.412686420078557
 40
6.768554714070927
 40
7.124994803535126
 40
7.480919478161396
 40
7.837065786048822
 40
8.193227339653799
 40
8.54915435091597
 40
8.90592851958123
 40
9.261828936493904
 40
9.970559377486843
 40
9.970559377486843
 40
9.970559377486843
 40
9.970559377486843
 10
29.19149894105624
 20
19.31987357408497
 30
0.0
 10
29.14705711051317
 20
19.35922336432913
 30
0.0
 10
29.0521469805617
 20
19.43170494317127
 30
0.0
 10
28.88700082677019
 20
19.50223694075765
 30
0.0
 10
28.71302728040598
 20
19.54492604638034
 30
0.0
 10
28.47832442128845
 20
19.58795207341097
 30
0.0
 10
28.18515713502291
 20
19.63797657237637
 30
0.0
 10
27.82897243269178
 20
19.65933851840265
 30
0.0
 10
27.47324268966406
 20
19.64618322323383
 30
0.0
 10
27.11755088214306
 20
19.61239811998934
 30
0.0
 10
26.77296796883456
 20
19.51554032648636
 30
0.0
 10
26.44747460689825
 20
19.36657600529082
 30
0.0
 10
26.15773290811273
 20
19.15564745037233
 30
0.0
 10
25.90607072935518
 20
18.90201616212113
 30
0.0
 10
25.69447714732144
 20
18.61343774063516
 30
0.0
 10
25.53860177686477
 20
18.29086541022133
 30
0.0
 10
25.44275278050748
 20
17.94620232800634
 30
0.0
 10
25.40513483785207
 20
17.58964992915384
 30
0.0
 10
25.4434992489854
 20
17.23348744302638
 30
0.0
 10
25.53306439313417
 20
16.88745810301185
 30
0.0
 10
25.68155445718594
 20
16.56145426457067
 30
0.0
 10
25.88915280559445
 20
16.26916390937606
 30
0.0
 10
26.15218873976767
 20
16.02572833774786
 30
0.0
 10
26.45090115804078
 20
15.82970400265867
 30
0.0
 10
26.77613475072974
 20
15.67999582365132
 30
0.0
 10
27.12457419496252
 20
15.59677807650917
 30
0.0
 10
27.48033807307854
 20
15.56918376429235
 30
0.0
 10
27.83669540465519
 20
15.56877276259434
 30
0.0
 10
28.1928628784176
 20
15.58092949136937
 30
0.0
 10
28.66416678255518
 20
15.63794019399387
 30
0.0
 10
28.99990785452701
 20
15.78859635134637
 30
0.0
 10
29.19149894105624
 20
15.92681298406984
 30
0.0
  0
SPLINE
  5
B7
330
1F
100
AcDbEntity
  8
CARTOUCHE
  6
CONTINUOUS
 62
     4
100
AcDbSpline
210
0.0
220
0.0
230
1.0
 70
     8
 71
     3
 72
    32
 73
    28
 74
     0
 42
0.0
 43
0.0
 40
0.0
 40
0.0
 40
0.0
 40
0.0
 40
0.1932877580521157
 40
0.3866798787325882
 40
0.5800722507134989
 40
0.772333729456475
 40
0.9658523902015596
 40
1.159368918637214
 40
1.351212480188304
 40
1.544294116240268
 40
1.738458877748041
 40
1.931765051105017
 40
2.315248221342022
 40
2.698534908932237
 40
2.891497325006418
 40
3.086240061673468
 40
3.27934698460621
 40
3.47149554917474
 40
3.665362297658928
 40
3.858867169137038
 40
4.051425425593017
 40
4.244517993884933
 40
4.62904839620363
 40
4.822527042047698
 40
5.015999172173861
 40
5.208857197714148
 40
5.402321103694231
 40
5.402321103694231
 40
5.402321103694231
 40
5.402321103694231
 10
29.19149894105624
 20
17.75921298406985
 30
0.0
 10
29.18285839884152
 20
17.82306022074977
 30
0.0
 10
29.14696521713608
 20
17.94920037187808
 30
0.0
 10
29.03860630084512
 20
18.11292834413302
 30
0.0
 10
28.88806189905551
 20
18.23747492865112
 30
0.0
 10
28.71387833320341
 20
18.32346557080882
 30
0.0
 10
28.52949873489217
 20
18.38163624204975
 30
0.0
 10
28.3428807599862
 20
18.43122884052036
 30
0.0
 10
28.15003433218703
 20
18.45342598415414
 30
0.0
 10
27.95674124840775
 20
18.43189360432376
 30
0.0
 10
27.77053592791697
 20
18.37585569327575
 30
0.0
 10
27.54003139574581
 20
18.25924826510305
 30
0.0
 10
27.30429576280403
 20
18.02892570948183
 30
0.0
 10
27.19915821219422
 20
17.70407789960257
 30
0.0
 10
27.25558496553867
 20
17.44860292414387
 30
0.0
 10
27.34550423403584
 20
17.27535473745382
 30
0.0
 10
27.47309689125416
 20
17.12727496001042
 30
0.0
 10
27.6348061210648
 20
17.01826563059404
 30
0.0
 10
27.81423590514805
 20
16.94469611115886
 30
0.0
 10
28.00141886226936
 20
16.89438401957938
 30
0.0
 10
28.19425798187763
 20
16.87301245557796
 30
0.0
 10
28.45146296095675
 20
16.88931727635986
 30
0.0
 10
28.70117265524402
 20
16.97259856421653
 30
0.0
 10
28.91652860785769
 20
17.11453027912216
 30
0.0
 10
29.05833633124178
 20
17.24855481145374
 30
0.0
 10
29.15637344263371
 20
17.41855888580687
 30
0.0
 10
29.18555823666691
 20
17.54604923061117
 30
0.0
 10
29.19149894105624
 20
17.61026298406983
 30
0.0
  0
LINE
  5
B8
330
1F
100
AcDbEntity
  8
CARTOUCHE
  6
CONTINUOUS
 62
     4
100
AcDbLine
 10
29.191499
 20
17.610264
 30
0.0
 11
29.191499
 21
17.759214
 31
0.0
  0
LINE
  5
B9
330
1F
100
AcDbEntity
  8
CARTOUCHE
  6
CONTINUOUS
 62
     4
100
AcDbLine
 10
29.191499
 20
15.620814
 30
0.0
 11
29.191499
 21
15.926814
 31
0.0
  0
SPLINE
  5
BA
330
1F
100
AcDbEntity
  8
CARTOUCHE
  6
CONTINUOUS
 62
     4
100
AcDbSpline
210
0.0
220
0.0
230
1.0
 70
     8
 71
     3
 72
    46
 73
    42
 74
     0
 42
0.0
 43
0.0
 40
0.0
 40
0.0
 40
0.0
 40
0.0
 40
0.2811760796502946
 40
0.5640898973250563
 40
0.8489971748537003
 40
1.131205009177211
 40
1.693847543907711
 40
2.256883126992216
 40
2.539006962714905
 40
2.820697028678528
 40
3.102988717666821
 40
3.385255369055035
 40
3.948537474972731
 40
4.512595302147443
 40
5.076291358232316
 40
5.639939427570668
 40
6.203885740903808
 40
6.766738495431308
 40
7.329351108981915
 40
7.892323841237687
 40
8.455148665905549
 40
8.737355288896866
 40
9.018966908742904
 40
9.581781624582574
 40
9.86403908982524
 40
10.14660944492419
 40
10.42765695915669
 40
10.71044536711539
 40
11.27439772862129
 40
11.83782241902082
 40
12.40155022911231
 40
12.96488140450844
 40
13.53013698036285
 40
13.81230410617875
 40
14.09372936703951
 40
14.37575719238146
 40
14.65757020519361
 40
14.93943603583764
 40
15.22120144973325
 40
15.50299703910227
 40
15.78483944550847
 40
15.78483944550847
 40
15.78483944550847
 40
15.78483944550847
 10
37.20689894105624
 20
17.25611298406983
 30
0.0
 10
37.23201017176473
 20
17.34641176134608
 30
0.0
 10
37.26334080893412
 20
17.53396291210004
 30
0.0
 10
37.24147208836951
 20
17.81798348950264
 30
0.0
 10
37.17834320020245
 20
18.09480426600913
 30
0.0
 10
37.05822703614683
 20
18.45209609231705
 30
0.0
 10
36.82304191654134
 20
18.86721996172997
 30
0.0
 10
36.46779186029562
 20
19.18450367548132
 30
0.0
 10
36.14758668706725
 20
19.38193266846457
 30
0.0
 10
35.88895059383412
 20
19.49662770493615
 30
0.0
 10
35.61966892210989
 20
19.58170341214554
 30
0.0
 10
35.25429000596125
 20
19.67109522145677
 30
0.0
 10
34.78714542982789
 20
19.73488696534633
 30
0.0
 10
34.22283712391982
 20
19.74311563905297
 30
0.0
 10
33.65909591132674
 20
19.70773696830332
 30
0.0
 10
33.10428474499633
 20
19.60052442459727
 30
0.0
 10
32.56700920266144
 20
19.41972269861623
 30
0.0
 10
32.09125911681974
 20
19.10129395949696
 30
0.0
 10
31.7419139697455
 20
18.64938316100103
 30
0.0
 10
31.52259664716939
 20
18.12462048587736
 30
0.0
 10
31.46283737483975
 20
17.65234390377015
 30
0.0
 10
31.49894694769216
 20
17.27674307873787
 30
0.0
 10
31.60136047833589
 20
16.91444794929043
 30
0.0
 10
31.76182972811876
 20
16.56950894557525
 30
0.0
 10
31.99182028226971
 20
16.27132388803415
 30
0.0
 10
32.18409680256491
 20
16.06369918408365
 30
0.0
 10
32.41496610490162
 20
15.89807934733335
 30
0.0
 10
32.75230771574797
 20
15.73104938510386
 30
0.0
 10
33.19503010786218
 20
15.56627033740773
 30
0.0
 10
33.75224968751274
 20
15.46842375309416
 30
0.0
 10
34.31513947418125
 20
15.42683190673904
 30
0.0
 10
34.87976062609619
 20
15.45307354260763
 30
0.0
 10
35.34633718176804
 20
15.51790192527017
 30
0.0
 10
35.71314518445263
 20
15.60358785067262
 30
0.0
 10
35.9801828997671
 20
15.69572586750536
 30
0.0
 10
36.23631608222195
 20
15.81334008513556
 30
0.0
 10
36.48753701219425
 20
15.94254805155316
 30
0.0
 10
36.7112869273617
 20
16.11776515610887
 30
0.0
 10
36.89207916686576
 20
16.33574368224947
 30
0.0
 10
37.03702924670063
 20
16.57965775588116
 30
0.0
 10
37.08872129466624
 20
16.76289145901217
 30
0.0
 10
37.10384894105607
 20
16.85561298406986
 30
0.0
  0
SPLINE
  5
BB
330
1F
100
AcDbEntity
  8
CARTOUCHE
  6
CONTINUOUS
 62
     4
100
AcDbSpline
210
0.0
220
0.0
230
1.0
 70
     8
 71
     3
 72
    15
 73
    11
 74
     0
 42
0.0
 43
0.0
 40
0.0
 40
0.0
 40
0.0
 40
0.0
 40
0.3371530624456519
 40
0.6743134103473634
 40
1.011742195803972
 40
1.348774234605689
 40
1.687275239821948
 40
1.856093664733061
 40
2.024672439731733
 40
2.36171424272068
 40
2.36171424272068
 40
2.36171424272068
 40
2.36171424272068
 10
33.36479894105616
 20
17.24441298406987
 30
0.0
 10
33.38585378634627
 20
17.13401852520883
 30
0.0
 10
33.47906455136729
 20
16.91717130733844
 30
0.0
 10
33.7542853493751
 20
16.70641864113617
 30
0.0
 10
34.0699627190337
 20
16.58177937665317
 30
0.0
 10
34.40537114403116
 20
16.52553201502462
 30
0.0
 10
34.68947066160149
 20
16.54059473915333
 30
0.0
 10
34.90810290622494
 20
16.59884312177536
 30
0.0
 10
35.11325867938285
 20
16.69219483354124
 30
0.0
 10
35.25570366157831
 20
16.78489210502966
 30
0.0
 10
35.34299894105618
 20
16.85561298406986
 30
0.0
  0
SPLINE
  5
BC
330
1F
100
AcDbEntity
  8
CARTOUCHE
  6
CONTINUOUS
 62
     4
100
AcDbSpline
210
0.0
220
0.0
230
1.0
 70
     8
 71
     3
 72
    21
 73
    17
 74
     0
 42
0.0
 43
0.0
 40
0.0
 40
0.0
 40
0.0
 40
0.0
 40
0.1868562426648683
 40
0.3735753311188897
 40
0.561385244331366
 40
0.7484499710535985
 40
0.935589465646341
 40
1.123113048870195
 40
1.311429068188788
 40
1.500242837337344
 40
1.686444243009906
 40
1.873057665252351
 40
2.059520356870872
 40
2.246467921108977
 40
2.434628805645711
 40
2.621194974095634
 40
2.621194974095634
 40
2.621194974095634
 40
2.621194974095634
 10
35.34299894105618
 20
18.07916298406985
 30
0.0
 10
35.33824998784894
 20
18.14126709237343
 30
0.0
 10
35.31096187286244
 20
18.26529105588833
 30
0.0
 10
35.2117452889247
 20
18.42740874211336
 30
0.0
 10
35.07408068716427
 20
18.55664645101137
 30
0.0
 10
34.91377670821532
 20
18.65563285146885
 30
0.0
 10
34.73871021416221
 20
18.72449145180383
 30
0.0
 10
34.55487537088391
 20
18.76541100309822
 30
0.0
 10
34.36637301278631
 20
18.77882772697177
 30
0.0
 10
34.17899806337778
 20
18.76779211055066
 30
0.0
 10
33.99272394767377
 20
18.72742960241914
 30
0.0
 10
33.83746381984827
 20
18.62065068620888
 30
0.0
 10
33.66638178248695
 20
18.54389817717225
 30
0.0
 10
33.52522471172642
 20
18.41618658926967
 30
0.0
 10
33.42098089991032
 20
18.25889339584097
 30
0.0
 10
33.37819626472537
 20
18.13989146967634
 30
0.0
 10
33.36479894105616
 20
18.07916298406985
 30
0.0
  0
SPLINE
  5
BD
330
1F
100
AcDbEntity
  8
CARTOUCHE
  6
CONTINUOUS
 62
     4
100
AcDbSpline
210
0.0
220
0.0
230
1.0
 70
     8
 71
     3
 72
    14
 73
    10
 74
     0
 42
0.0
 43
0.0
 40
0.0
 40
0.0
 40
0.0
 40
0.0
 40
0.2162148910594536
 40
0.4333935378504983
 40
0.6499506618299267
 40
0.8697440506435968
 40
1.087238867261142
 40
1.304828920110254
 40
1.522317995136569
 40
1.522317995136569
 40
1.522317995136569
 40
1.522317995136569
 10
40.45454894105626
 20
17.82761298406984
 30
0.0
 10
40.45854678934597
 20
17.89957364770493
 30
0.0
 10
40.42638467961876
 20
18.04877735683488
 30
0.0
 10
40.27437108639424
 20
18.21577515996677
 30
0.0
 10
40.0618501535879
 20
18.29253594799212
 30
0.0
 10
39.83993609220829
 20
18.27346196934405
 30
0.0
 10
39.63536971327301
 20
18.17924846408766
 30
0.0
 10
39.50066763148175
 20
17.99884938877267
 30
0.0
 10
39.46298185051023
 20
17.85458037077007
 30
0.0
 10
39.45959894105624
 20
17.78216298406983
 30
0.0
  0
SPLINE
  5
BE
330
1F
100
AcDbEntity
  8
CARTOUCHE
  6
CONTINUOUS
 62
     4
100
AcDbSpline
210
0.0
220
0.0
230
1.0
 70
     8
 71
     3
 72
    20
 73
    16
 74
     0
 42
0.0
 43
0.0
 40
0.0
 40
0.0
 40
0.0
 40
0.0
 40
0.3099173987996669
 40
0.6201169005603266
 40
0.9308839291328164
 40
1.24078332570778
 40
1.550959395651279
 40
1.86184239372724
 40
2.170990040564944
 40
2.482795387658576
 40
2.792567816778102
 40
3.102413185111548
 40
3.413424630920253
 40
3.723772126664227
 40
4.34241605336301
 40
4.34241605336301
 40
4.34241605336301
 40
4.34241605336301
 10
42.28379894105626
 20
17.58776298406985
 30
0.0
 10
42.29783415525719
 20
17.69011092490553
 30
0.0
 10
42.31440036294782
 20
17.89673940186316
 30
0.0
 10
42.30090630369205
 20
18.20744622405624
 30
0.0
 10
42.25563105776928
 20
18.51471444691782
 30
0.0
 10
42.17618094392458
 20
18.81638658112115
 30
0.0
 10
42.02730481260267
 20
19.09237868370815
 30
0.0
 10
41.81018522165573
 20
19.32070927546556
 30
0.0
 10
41.53094241920371
 20
19.46670571461198
 30
0.0
 10
41.23073825325275
 20
19.54809164299633
 30
0.0
 10
40.92300467308723
 20
19.59721638729684
 30
0.0
 10
40.61152641579508
 20
19.58968074142842
 30
0.0
 10
40.30363308981225
 20
19.54590325208636
 30
0.0
 10
39.90382520652884
 20
19.43646449738924
 30
0.0
 10
39.62712312860174
 20
19.28571324501962
 30
0.0
 10
39.45959894105624
 20
19.16546298406985
 30
0.0
  0
ARC
  5
BF
330
1F
100
AcDbEntity
  8
CARTOUCHE
  6
CONTINUOUS
 62
     4
100
AcDbCircle
 10
5.95093
 20
18.851463
 30
0.0
 40
0.4706070000000001
100
AcDbArc
 50
290.581791
 51
349.597912
  0
SPLINE
  5
C0
330
1F
100
AcDbEntity
  8
CARTOUCHE
  6
CONTINUOUS
 62
     4
100
AcDbSpline
210
0.0
220
0.0
230
1.0
 70
     8
 71
     3
 72
    14
 73
    10
 74
     0
 42
0.0
 43
0.0
 40
0.0
 40
0.0
 40
0.0
 40
0.0
 40
0.218061519141428
 40
0.4363611552766656
 40
0.653729022402962
 40
0.8729556978994846
 40
1.089089148588594
 40
1.305404600578317
 40
1.52328134381688
 40
1.52328134381688
 40
1.52328134381688
 40
1.52328134381688
 10
8.323198941056262
 20
16.16981298406984
 30
0.0
 10
8.318264179261405
 20
16.09729351598287
 30
0.0
 10
8.284417166552771
 20
15.95298178262806
 30
0.0
 10
8.169459049560828
 20
15.76304269261817
 30
0.0
 10
7.996361365592293
 20
15.62403173965146
 30
0.0
 10
7.795550592551763
 20
15.53564882383085
 30
0.0
 10
7.576022910598226
 20
15.50357505081666
 30
0.0
 10
7.361921436765783
 20
15.55793020026135
 30
0.0
 10
7.233231818879517
 20
15.62673480293643
 30
0.0
 10
7.173674943952733
 20
15.66829745054338
 30
0.0
  0
ARC
  5
C1
330
1F
100
AcDbEntity
  8
CARTOUCHE
  6
CONTINUOUS
 62
     4
100
AcDbCircle
 10
9.404515
 20
20.005839
 30
0.0
 40
0.5000710000000002
100
AcDbArc
 50
275.840125
 51
95.840125
  0
HATCH
  5
C2
330
1F
100
AcDbEntity
  8
CARTOUCHE
  6
CONTINUOUS
 62
     4
100
AcDbHatch
 10
0.0
 20
0.0
 30
0.0
210
0.0
220
0.0
230
1.0
  2
ANSI_31
 70
     0
 71
     0
 91
        4
 92
        1
 93
        3
 72
     1
 10
5.46482299999991
 20
22.39947548242185
 11
5.46482299999991
 21
19.42871348242187
 72
     1
 10
5.46482299999991
 20
19.42871348242187
 11
3.174775999999838
 21
19.42871348242187
 72
     2
 10
6.899651000000177
 20
18.92538648242157
 40
3.758727000000213
 50
187.6955481858986
 51
247.5589807620773
 73
     0
 97
        0
 92
        0
 93
        6
 72
     1
 10
6.413872999999967
 20
22.65259048242183
 11
6.413872999999967
 21
18.76648348242196
 72
     2
 10
5.950953999999455
 20
18.85146248242217
 40
0.4706070000003885
 50
10.4020663707182
 51
69.41820895941248
 73
     0
 72
     1
 10
6.116422999999941
 20
18.41081348242187
 11
5.887823000000026
 21
18.41081348242187
 72
     1
 10
5.887823000000026
 20
18.41081348242187
 11
7.36292299999991
 21
16.81016348242184
 72
     1
 10
7.36292299999991
 20
16.81016348242184
 11
7.36292299999991
 21
22.65545448242187
 72
     2
 10
6.899650999999857
 20
18.92538648242421
 40
3.758726999997608
 50
82.9201709847132
 51
97.42568618827117
 73
     1
 97
        0
 92
        0
 93
       40
 72
     1
 10
9.353656
 20
20.50331348242185
 11
8.323222999999984
 21
20.50331348242185
 72
     1
 10
8.323222999999984
 20
20.50331348242185
 11
8.323222999999984
 21
22.40410348242187
 72
     2
 10
6.899650999999722
 20
18.92538648242157
 40
3.758727000000194
 50
292.2555505518885
 51
532.1314361600689
 73
     0
 72
     1
 10
3.17631300000005
 20
18.41081348242187
 11
4.378522999999973
 21
18.41081348242187
 72
     1
 10
4.378522999999973
 20
18.41081348242187
 11
7.173699000000056
 21
15.66829748242174
 72
     1
 10
7.173699000000056
 20
15.66829748242174
 11
7.228616999999986
 21
15.63282248242183
 72
     1
 10
7.228616999999986
 20
15.63282248242183
 11
7.286013000000025
 21
15.60133248242187
 72
     1
 10
7.286013000000025
 20
15.60133248242187
 11
7.36599799999999
 21
15.56587048242187
 72
     1
 10
7.36599799999999
 20
15.56587048242187
 11
7.407007000000021
 21
15.55119848242185
 72
     1
 10
7.407007000000021
 20
15.55119848242185
 11
7.44873599999994
 21
15.53876648242186
 72
     1
 10
7.44873599999994
 20
15.53876648242186
 11
7.491052999999965
 21
15.52887648242182
 72
     1
 10
7.491052999999965
 20
15.52887648242182
 11
7.533828999999969
 21
15.52182948242182
 72
     1
 10
7.533828999999969
 20
15.52182948242182
 11
7.576934000000051
 21
15.51792948242183
 72
     1
 10
7.576934000000051
 20
15.51792948242183
 11
7.620190999999977
 21
15.51738548242196
 72
     1
 10
7.620190999999977
 20
15.51738548242196
 11
7.663455999999996
 21
15.52003948242185
 72
     1
 10
7.663455999999996
 20
15.52003948242185
 11
7.706539000000021
 21
15.52564748242185
 72
     1
 10
7.706539000000021
 20
15.52564748242185
 11
7.74924899999985
 21
15.53396348242183
 72
     1
 10
7.74924899999985
 20
15.53396348242183
 11
7.791397999999845
 21
15.54474448242183
 72
     1
 10
7.791397999999845
 20
15.54474448242183
 11
7.833399999999983
 21
15.55797948242184
 72
     1
 10
7.833399999999983
 20
15.55797948242184
 11
7.874554999999987
 21
15.57344848242184
 72
     1
 10
7.874554999999987
 20
15.57344848242184
 11
7.914786999999933
 21
15.59109848242184
 72
     1
 10
7.914786999999933
 20
15.59109848242184
 11
7.992186999999944
 21
15.63274448242186
 72
     1
 10
7.992186999999944
 20
15.63274448242186
 11
8.028870999999981
 21
15.65643648242184
 72
     1
 10
8.028870999999981
 20
15.65643648242184
 11
8.064194000000043
 21
15.68213348242188
 72
     1
 10
8.064194000000043
 20
15.68213348242188
 11
8.097920000000045
 21
15.70984348242183
 72
     1
 10
8.097920000000045
 20
15.70984348242183
 11
8.129815000000008
 21
15.73957448242186
 72
     1
 10
8.129815000000008
 20
15.73957448242186
 11
8.15964299999996
 21
15.77133448242188
 72
     1
 10
8.15964299999996
 20
15.77133448242188
 11
8.187311999999906
 21
15.80524748242175
 72
     1
 10
8.187311999999906
 20
15.80524748242175
 11
8.212607999999932
 21
15.84101448242183
 72
     1
 10
8.212607999999932
 20
15.84101448242183
 11
8.235479999999939
 21
15.87843548242188
 72
     1
 10
8.235479999999939
 20
15.87843548242188
 11
8.255877000000055
 21
15.91730948242184
 72
     1
 10
8.255877000000055
 20
15.91730948242184
 11
8.27374999999995
 21
15.95743748242182
 72
     1
 10
8.27374999999995
 20
15.95743748242182
 11
8.289028999999914
 21
15.99857448242187
 72
     1
 10
8.289028999999914
 20
15.99857448242187
 11
8.30167700000004
 21
16.04057148242185
 72
     1
 10
8.30167700000004
 20
16.04057148242185
 11
8.311632000000031
 21
16.08323748242185
 72
     1
 10
8.311632000000031
 20
16.08323748242185
 11
8.318835000000036
 21
16.12638148242183
 72
     1
 10
8.318835000000036
 20
16.12638148242183
 11
8.323222999999984
 21
16.16981348242183
 72
     1
 10
8.323222999999984
 20
16.16981348242183
 11
8.323222999999984
 21
19.50836348242183
 72
     1
 10
8.323222999999984
 20
19.50836348242183
 11
9.455422999999996
 21
19.50836348242183
 72
     2
 10
9.404539
 20
20.00583848242184
 40
0.5000709999999801
 50
275.8401026338591
 51
455.8401224817037
 73
     1
 97
        0
 92
        0
 93
        1
 72
     2
 10
6.899645999999958
 20
18.92539222066786
 40
4.756722999999909
 50
359.9999911076638
 51
719.9999735075696
 73
     1
 97
        0
 75
     0
 76
     2
 52
0.0
 41
0.062992
 77
     0
 78
     1
 53
44.99999999988837
 43
0.0
 44
0.0
 45
-3.592095212307267
 46
3.592095212321264
 79
     0
 98
        0
  0
HATCH
  5
C3
330
1F
100
AcDbEntity
  8
CARTOUCHE
  6
CONTINUOUS
 62
     4
100
AcDbHatch
 10
0.0
 20
0.0
 30
0.0
210
0.0
220
0.0
230
1.0
  2
ANSI_31
 70
     0
 71
     0
 91
        1
 92
        1
 93
       16
 72
     1
 10
15.67905299999995
 20
19.93181348242183
 11
16.08752300000003
 21
19.93181348242183
 72
     1
 10
16.08752300000003
 20
19.93181348242183
 11
16.08752300000003
 21
20.83496348242187
 72
     1
 10
16.08752300000003
 20
20.83496348242187
 11
14.58025899999996
 21
20.83496348242187
 72
     2
 10
14.58025899999996
 20
19.92937048242186
 40
0.9056390000000029
 50
89.99998127603085
 51
180.0000198478418
 73
     1
 72
     1
 10
13.674623
 20
19.92937048242186
 11
13.674623
 21
19.50836348242183
 72
     1
 10
13.674623
 20
19.50836348242183
 11
13.13732300000004
 21
19.50836348242183
 72
     1
 10
13.13732300000004
 20
19.50836348242183
 11
13.13732300000004
 21
18.41081348242187
 72
     1
 10
13.13732300000004
 20
18.41081348242187
 11
13.674623
 21
18.41081348242187
 72
     1
 10
13.674623
 20
18.41081348242187
 11
13.674623
 21
15.63206348242187
 72
     1
 10
13.674623
 20
15.63206348242187
 11
15.47012299999994
 21
15.63206348242187
 72
     1
 10
15.47012299999994
 20
15.63206348242187
 11
15.47012299999994
 21
18.41081348242187
 72
     1
 10
15.47012299999994
 20
18.41081348242187
 11
16.08752300000003
 21
18.41081348242187
 72
     1
 10
16.08752300000003
 20
18.41081348242187
 11
16.08752300000003
 21
19.50836348242183
 72
     1
 10
16.08752300000003
 20
19.50836348242183
 11
15.41297299999997
 21
19.50836348242183
 72
     1
 10
15.41297299999997
 20
19.50836348242183
 11
15.46107900000004
 21
19.76859148242187
 72
     2
 10
15.70598800000004
 20
19.66868548242185
 40
0.2645029999999212
 50
202.1921825436276
 51
264.155333551653
 73
     0
 97
        0
 75
     0
 76
     2
 52
0.0
 41
0.062992
 77
     0
 78
     1
 53
44.99999999988837
 43
0.0
 44
0.0
 45
-3.592095212307267
 46
3.592095212321264
 79
     0
 98
        0
  0
HATCH
  5
C4
330
1F
100
AcDbEntity
  8
CARTOUCHE
  6
CONTINUOUS
 62
     4
100
AcDbHatch
 10
0.0
 20
0.0
 30
0.0
210
0.0
220
0.0
230
1.0
  2
ANSI_31
 70
     0
 71
     0
 91
        1
 92
        1
 93
        4
 72
     1
 10
659.2770281757812
 20
320.1824366269531
 11
659.2770281757812
 21
319.2905366269531
 72
     1
 10
659.2770281757812
 20
319.2905366269531
 11
661.0950281757813
 21
319.2905366269531
 72
     1
 10
661.0950281757813
 20
319.2905366269531
 11
661.0950281757813
 21
320.1824366269531
 72
     1
 10
661.0950281757813
 20
320.1824366269531
 11
659.2770281757812
 21
320.1824366269531
 97
        0
 75
     0
 76
     2
 52
0.0
 41
0.062992
 77
     0
 78
     1
 53
44.99999999988837
 43
0.0
 44
0.0
 45
-3.592095212307267
 46
3.592095212321264
 79
     0
 98
        0
  0
HATCH
  5
C5
330
1F
100
AcDbEntity
  8
CARTOUCHE
  6
CONTINUOUS
 62
     4
100
AcDbHatch
 10
0.0
 20
0.0
 30
0.0
210
0.0
220
0.0
230
1.0
  2
ANSI_31
 70
     0
 71
     0
 91
        1
 92
        1
 93
        4
 72
     1
 10
16.80797299999995
 20
19.50836348242183
 11
16.80797299999995
 21
15.63206348242187
 72
     1
 10
16.80797299999995
 20
15.63206348242187
 11
18.62597300000004
 21
15.63206348242187
 72
     1
 10
18.62597300000004
 20
15.63206348242187
 11
18.62597300000004
 21
19.50836348242183
 72
     1
 10
18.62597300000004
 20
19.50836348242183
 11
16.80797299999995
 21
19.50836348242183
 97
        0
 75
     0
 76
     2
 52
0.0
 41
0.062992
 77
     0
 78
     1
 53
44.99999999988837
 43
0.0
 44
0.0
 45
-3.592095212307267
 46
3.592095212321264
 79
     0
 98
        0
  0
HATCH
  5
C6
330
1F
100
AcDbEntity
  8
CARTOUCHE
  6
CONTINUOUS
 62
     4
100
AcDbHatch
 10
0.0
 20
0.0
 30
0.0
210
0.0
220
0.0
230
1.0
  2
ANSI_31
 70
     0
 71
     0
 91
        1
 92
        1
 93
       12
 72
     2
 10
22.45732400000008
 20
17.47900348242234
 40
0.6511239999996531
 50
262.8493335533725
 51
360.0000000000343
 73
     0
 72
     1
 10
23.10842300000002
 20
17.47900348242183
 11
23.10842300000002
 21
15.63206348242187
 72
     1
 10
23.10842300000002
 20
15.63206348242187
 11
24.89222299999983
 21
15.63206348242187
 72
     1
 10
24.89222299999983
 20
15.63206348242187
 11
24.89222299999983
 21
18.32452248242174
 72
     2
 10
23.67502799999931
 20
18.26484248242144
 40
1.218658000000759
 50
2.806977534140868
 51
66.54578204499428
 73
     1
 72
     2
 10
23.0674029999999
 20
16.04523048242197
 40
3.511891999999952
 50
71.87239877900404
 51
120.4055336606933
 73
     1
 72
     1
 10
21.28997299999992
 20
19.07411348242186
 11
21.28997299999992
 21
19.50836348242183
 72
     1
 10
21.28997299999992
 20
19.50836348242183
 11
19.49492299999997
 21
19.50836348242183
 72
     1
 10
19.49492299999997
 20
19.50836348242183
 11
19.49492299999997
 21
15.63206348242187
 72
     1
 10
19.49492299999997
 20
15.63206348242187
 11
21.28997299999992
 21
15.63206348242187
 72
     1
 10
21.28997299999992
 20
15.63206348242187
 11
21.28997299999992
 21
17.43346848242174
 72
     2
 10
22.44380999999976
 20
16.82004848242165
 40
1.306760999999848
 50
207.9967033745327
 51
267.0374831484668
 73
     0
 97
        0
 75
     0
 76
     2
 52
0.0
 41
0.062992
 77
     0
 78
     1
 53
44.99999999988837
 43
0.0
 44
0.0
 45
-3.592095212307267
 46
3.592095212321264
 79
     0
 98
        0
  0
HATCH
  5
C7
330
1F
100
AcDbEntity
  8
CARTOUCHE
  6
CONTINUOUS
 62
     4
100
AcDbHatch
 10
0.0
 20
0.0
 30
0.0
210
0.0
220
0.0
230
1.0
  2
ANSI_31
 70
     0
 71
     0
 91
        2
 92
        1
 93
       68
 72
     1
 10
29.19152299999996
 20
19.31987348242183
 11
29.13663899999995
 21
19.36543448242185
 72
     1
 10
29.13663899999995
 20
19.36543448242185
 11
29.09335299999998
 21
19.39692148242187
 72
     1
 10
29.09335299999998
 20
19.39692148242187
 11
29.04814599999997
 21
19.42548748242183
 72
     1
 10
29.04814599999997
 20
19.42548748242183
 11
28.9853149999999
 21
19.45821248242186
 72
     1
 10
28.9853149999999
 20
19.45821248242186
 11
28.9364149999999
 21
19.47915248242174
 72
     1
 10
28.9364149999999
 20
19.47915248242174
 11
28.88641399999995
 21
19.49731848242186
 72
     1
 10
28.88641399999995
 20
19.49731848242186
 11
28.80036899999993
 21
19.52263948242182
 72
     1
 10
28.80036899999993
 20
19.52263948242182
 11
28.71305600000005
 21
19.54310648242188
 72
     1
 10
28.71305600000005
 20
19.54310648242188
 11
28.53598499999998
 21
19.57713348242174
 72
     1
 10
28.53598499999998
 20
19.57713348242174
 11
28.18386099999998
 21
19.63161248242187
 72
     1
 10
28.18386099999998
 20
19.63161248242187
 11
27.82971399999997
 21
19.65358048242183
 72
     1
 10
27.82971399999997
 20
19.65358048242183
 11
27.47307499999999
 21
19.64272848242183
 72
     1
 10
27.47307499999999
 20
19.64272848242183
 11
27.29553499999997
 21
19.62753648242187
 72
     1
 10
27.29553499999997
 20
19.62753648242187
 11
27.11942199999999
 21
19.60189148242188
 72
     1
 10
27.11942199999999
 20
19.60189148242188
 11
26.98039299999994
 21
19.57084348242182
 72
     1
 10
26.98039299999994
 20
19.57084348242182
 11
26.77626899999996
 21
19.50688848242186
 72
     1
 10
26.77626899999996
 20
19.50688848242186
 11
26.64385699999991
 21
19.45341148242187
 72
     1
 10
26.64385699999991
 20
19.45341148242187
 11
26.54719899999998
 21
19.40744748242196
 72
     1
 10
26.54719899999998
 20
19.40744748242196
 11
26.45331799999997
 21
19.35616948242188
 72
     1
 10
26.45331799999997
 20
19.35616948242188
 11
26.33327599999984
 21
19.27951048242187
 72
     1
 10
26.33327599999984
 20
19.27951048242187
 11
26.16425100000004
 21
19.14865748242187
 72
     1
 10
26.16425100000004
 20
19.14865748242187
 11
26.0589379999999
 21
19.05232748242196
 72
     1
 10
26.0589379999999
 20
19.05232748242196
 11
25.9126829999999
 21
18.89608348242183
 72
     1
 10
25.9126829999999
 20
18.89608348242183
 11
25.82344499999999
 21
18.78490048242196
 72
     1
 10
25.82344499999999
 20
18.78490048242196
 11
25.70379299999991
 21
18.60778848242182
 72
     1
 10
25.70379299999991
 20
18.60778848242182
 11
25.634816
 21
18.48298948242183
 72
     1
 10
25.634816
 20
18.48298948242183
 11
25.58909600000004
 21
18.38627948242186
 72
     1
 10
25.58909600000004
 20
18.38627948242186
 11
25.54866099999992
 21
18.28726148242185
 72
     1
 10
25.54866099999992
 20
18.28726148242185
 11
25.50307699999996
 21
18.15210148242187
 72
     1
 10
25.50307699999996
 20
18.15210148242187
 11
25.45247299999994
 21
17.94416848242196
 72
     1
 10
25.45247299999994
 20
17.94416848242196
 11
25.43063199999995
 21
17.80311948242183
 72
     1
 10
25.43063199999995
 20
17.80311948242183
 11
25.42104700000004
 21
17.69655748242184
 72
     1
 10
25.42104700000004
 20
17.69655748242184
 11
25.41782000000001
 21
17.58969948242185
 72
     1
 10
25.41782000000001
 20
17.58969948242185
 11
25.42378299999996
 21
17.44732448242183
 72
     1
 10
25.42378299999996
 20
17.44732448242183
 11
25.45204699999999
 21
17.23523548242184
 72
     1
 10
25.45204699999999
 20
17.23523548242184
 11
25.48182299999996
 21
17.09565248242183
 72
     1
 10
25.48182299999996
 20
17.09565248242183
 11
25.54294100000004
 21
16.89070648242188
 72
     1
 10
25.54294100000004
 20
16.89070648242188
 11
25.59524499999998
 21
16.75811348242183
 72
     1
 10
25.59524499999998
 20
16.75811348242183
 11
25.6406629999999
 21
16.66129548242174
 72
     1
 10
25.6406629999999
 20
16.66129548242174
 11
25.69139600000005
 21
16.56713248242187
 72
     1
 10
25.69139600000005
 20
16.56713248242187
 11
25.76734099999999
 21
16.44627148242188
 72
     1
 10
25.76734099999999
 20
16.44627148242188
 11
25.8303709999999
 21
16.35974748242182
 72
     1
 10
25.8303709999999
 20
16.35974748242182
 11
25.89849000000004
 21
16.27721948242186
 72
     1
 10
25.89849000000004
 20
16.27721948242186
 11
25.99676699999998
 21
16.17404948242182
 72
     1
 10
25.99676699999998
 20
16.17404948242182
 11
26.15802499999995
 21
16.03373648242183
 72
     1
 10
26.15802499999995
 20
16.03373648242183
 11
26.27323199999989
 21
15.94954648242185
 72
     1
 10
26.27323199999989
 20
15.94954648242185
 11
26.45548299999996
 21
15.83734848242187
 72
     1
 10
26.45548299999996
 20
15.83734848242187
 11
26.58228499999996
 21
15.77216548242183
 72
     1
 10
26.58228499999996
 20
15.77216548242183
 11
26.68003799999997
 21
15.72891248242183
 72
     1
 10
26.68003799999997
 20
15.72891248242183
 11
26.77997000000005
 21
15.69109448242187
 72
     1
 10
26.77997000000005
 20
15.69109448242187
 11
26.91640600000005
 21
15.64970648242183
 72
     1
 10
26.91640600000005
 20
15.64970648242183
 11
27.12581399999999
 21
15.60605148242183
 72
     1
 10
27.12581399999999
 20
15.60605148242183
 11
27.30267700000002
 21
15.58470348242196
 72
     1
 10
27.30267700000002
 20
15.58470348242196
 11
27.480504
 21
15.57371048242186
 72
     1
 10
27.480504
 20
15.57371048242186
 11
27.83641999999998
 21
15.57086348242183
 72
     1
 10
27.83641999999998
 20
15.57086348242183
 11
28.19286999999997
 21
15.58607148242186
 72
     1
 10
28.19286999999997
 20
15.58607148242186
 11
28.33459699999992
 21
15.59996948242184
 72
     1
 10
28.33459699999992
 20
15.59996948242184
 11
28.54527099999996
 21
15.63585348242174
 72
     1
 10
28.54527099999996
 20
15.63585348242174
 11
28.68285299999991
 21
15.67298548242184
 72
     1
 10
28.68285299999991
 20
15.67298548242184
 11
28.81743300000005
 21
15.72112348242183
 72
     1
 10
28.81743300000005
 20
15.72112348242183
 11
28.94784799999991
 21
15.77979148242184
 72
     1
 10
28.94784799999991
 20
15.77979148242184
 11
29.07293300000003
 21
15.84851348242182
 72
     1
 10
29.07293300000003
 20
15.84851348242182
 11
29.19152299999996
 21
15.92681348242184
 72
     1
 10
29.19152299999996
 20
15.92681348242184
 11
29.19152299999996
 21
15.62081348242185
 72
     1
 10
29.19152299999996
 20
15.62081348242185
 11
30.98657300000002
 21
15.62081348242185
 72
     1
 10
30.98657300000002
 20
15.62081348242185
 11
30.98657300000002
 21
20.82371348242185
 72
     1
 10
30.98657300000002
 20
20.82371348242185
 11
29.19152299999996
 21
20.82371348242185
 72
     1
 10
29.19152299999996
 20
20.82371348242185
 11
29.19152299999996
 21
19.31987348242183
 97
        0
 92
        0
 93
       86
 72
     1
 10
29.19152299999996
 20
17.75921348242184
 11
29.18522399999983
 21
17.79739848242184
 72
     1
 10
29.18522399999983
 20
17.79739848242184
 11
29.17670399999997
 21
17.83522748242183
 72
     1
 10
29.17670399999997
 20
17.83522748242183
 11
29.1659719999999
 21
17.87253448242183
 72
     1
 10
29.1659719999999
 20
17.87253448242183
 11
29.15304099999992
 21
17.90915348242186
 72
     1
 10
29.15304099999992
 20
17.90915348242186
 11
29.1379189999999
 21
17.94491948242182
 72
     1
 10
29.1379189999999
 20
17.94491948242182
 11
29.12062200000003
 21
17.97969348242185
 72
     1
 10
29.12062200000003
 20
17.97969348242185
 11
29.10124099999996
 21
18.01333948242183
 72
     1
 10
29.10124099999996
 20
18.01333948242183
 11
29.07987099999991
 21
18.04575048242185
 72
     1
 10
29.07987099999991
 20
18.04575048242185
 11
29.05660999999998
 21
18.07681748242175
 72
     1
 10
29.05660999999998
 20
18.07681748242175
 11
29.03155399999991
 21
18.10643348242183
 72
     1
 10
29.03155399999991
 20
18.10643348242183
 11
29.00480799999991
 21
18.13450948242183
 72
     1
 10
29.00480799999991
 20
18.13450948242183
 11
28.97651299999995
 21
18.16102848242184
 72
     1
 10
28.97651299999995
 20
18.16102848242184
 11
28.93149700000004
 21
18.19788948242183
 72
     1
 10
28.93149700000004
 20
18.19788948242183
 11
28.88383899999997
 21
18.23125748242182
 72
     1
 10
28.88383899999997
 20
18.23125748242182
 11
28.817408
 21
18.27022348242184
 72
     1
 10
28.817408
 20
18.27022348242184
 11
28.71259999999995
 21
18.31867448242184
 72
     1
 10
28.71259999999995
 20
18.31867448242184
 11
28.52912599999991
 21
18.38020948242183
 72
     1
 10
28.52912599999991
 20
18.38020948242183
 11
28.34129499999983
 21
18.42677648242187
 72
     1
 10
28.34129499999983
 20
18.42677648242187
 11
28.26536699999997
 21
18.43868948242186
 72
     1
 10
28.26536699999997
 20
18.43868948242186
 11
28.20799199999999
 21
18.44415348242183
 72
     1
 10
28.20799199999999
 20
18.44415348242183
 11
28.15043299999991
 21
18.44615448242183
 72
     1
 10
28.15043299999991
 20
18.44615448242183
 11
28.07320599999991
 21
18.44291048242184
 72
     1
 10
28.07320599999991
 20
18.44291048242184
 11
28.01556000000005
 21
18.43623848242186
 72
     1
 10
28.01556000000005
 20
18.43623848242186
 11
27.95838299999991
 21
18.42622148242185
 72
     1
 10
27.95838299999991
 20
18.42622148242185
 11
27.882791
 21
18.40791948242196
 72
     1
 10
27.882791
 20
18.40791948242196
 11
27.82709299999999
 21
18.39065848242183
 72
     1
 10
27.82709299999999
 20
18.39065848242183
 11
27.77240099999983
 21
18.37044848242186
 72
     1
 10
27.77240099999983
 20
18.37044848242186
 11
27.70162299999993
 21
18.33913348242186
 72
     1
 10
27.70162299999993
 20
18.33913348242186
 11
27.65017599999999
 21
18.31221448242184
 72
     1
 10
27.65017599999999
 20
18.31221448242184
 11
27.60037799999998
 21
18.28226948242184
 72
     1
 10
27.60037799999998
 20
18.28226948242184
 11
27.53744099999994
 21
18.23794948242187
 72
     1
 10
27.53744099999994
 20
18.23794948242187
 11
27.47837200000004
 21
18.18838248242196
 72
     1
 10
27.47837200000004
 20
18.18838248242196
 11
27.42376899999999
 21
18.13374548242183
 72
     1
 10
27.42376899999999
 20
18.13374548242183
 11
27.37423000000001
 21
18.07421648242183
 72
     1
 10
27.37423000000001
 20
18.07421648242183
 11
27.33035299999995
 21
18.00997248242174
 72
     1
 10
27.33035299999995
 20
18.00997248242174
 11
27.2928179999999
 21
17.94136348242188
 72
     1
 10
27.2928179999999
 20
17.94136348242188
 11
27.26252099999999
 21
17.86921548242174
 72
     1
 10
27.26252099999999
 20
17.86921548242174
 11
27.25039599999991
 21
17.83212448242188
 72
     1
 10
27.25039599999991
 20
17.83212448242188
 11
27.2404489999999
 21
17.79452148242183
 72
     1
 10
27.2404489999999
 20
17.79452148242183
 11
27.23280499999998
 21
17.75653048242185
 72
     1
 10
27.23280499999998
 20
17.75653048242185
 11
27.22758599999997
 21
17.71827548242186
 72
     1
 10
27.22758599999997
 20
17.71827548242186
 11
27.224917
 21
17.67988148242188
 72
     1
 10
27.224917
 20
17.67988148242188
 11
27.224919
 21
17.64147248242188
 72
     1
 10
27.224919
 20
17.64147248242188
 11
27.22769300000004
 21
17.60290948242186
 72
     1
 10
27.22769300000004
 20
17.60290948242186
 11
27.23311099999989
 21
17.56458748242187
 72
     1
 10
27.23311099999989
 20
17.56458748242187
 11
27.24098099999992
 21
17.52663648242185
 72
     1
 10
27.24098099999992
 20
17.52663648242185
 11
27.25111399999992
 21
17.48918648242187
 72
     1
 10
27.25111399999992
 20
17.48918648242187
 11
27.26331799999991
 21
17.45236948242183
 72
     1
 10
27.26331799999991
 20
17.45236948242183
 11
27.29364499999997
 21
17.38039448242188
 72
     1
 10
27.29364499999997
 20
17.38039448242188
 11
27.32104800000002
 21
17.32867548242183
 72
     1
 10
27.32104800000002
 20
17.32867548242183
 11
27.35215399999993
 21
17.27906948242185
 72
     1
 10
27.35215399999993
 20
17.27906948242185
 11
27.39858599999991
 21
17.21708248242186
 72
     1
 10
27.39858599999991
 20
17.21708248242186
 11
27.43723499999999
 21
17.17374148242186
 72
     1
 10
27.43723499999999
 20
17.17374148242186
 11
27.47906599999999
 21
17.13352348242182
 72
     1
 10
27.47906599999999
 20
17.13352348242182
 11
27.53918599999986
 21
17.08545648242188
 72
     1
 10
27.53918599999986
 20
17.08545648242188
 11
27.58721199999991
 21
17.05332448242183
 72
     1
 10
27.58721199999991
 20
17.05332448242183
 11
27.63725699999998
 21
17.02445048242174
 72
     1
 10
27.63725699999998
 20
17.02445048242174
 11
27.70704799999999
 21
16.99048848242182
 72
     1
 10
27.70704799999999
 20
16.99048848242182
 11
27.8156479999999
 21
16.94855048242187
 72
     1
 10
27.8156479999999
 20
16.94855048242187
 11
27.88966299999993
 21
16.92566848242183
 72
     1
 10
27.88966299999993
 20
16.92566848242183
 11
28.00273799999991
 21
16.89913748242185
 72
     1
 10
28.00273799999991
 20
16.89913748242185
 11
28.07891400000005
 21
16.88721448242183
 72
     1
 10
28.07891400000005
 20
16.88721448242183
 11
28.19419899999991
 21
16.87861548242188
 72
     1
 10
28.19419899999991
 20
16.87861548242188
 11
28.27146299999993
 21
16.87947848242186
 72
     1
 10
28.27146299999993
 20
16.87947848242186
 11
28.38690199999985
 21
16.89086948242186
 72
     1
 10
28.38690199999985
 20
16.89086948242186
 11
28.46279000000004
 21
16.90509648242187
 72
     1
 10
28.46279000000004
 20
16.90509648242187
 11
28.53763099999992
 21
16.92452348242188
 72
     1
 10
28.53763099999992
 20
16.92452348242188
 11
28.61100199999998
 21
16.94901648242183
 72
     1
 10
28.61100199999998
 20
16.94901648242183
 11
28.68247699999984
 21
16.97844248242183
 72
     1
 10
28.68247699999984
 20
16.97844248242183
 11
28.75163399999997
 21
17.01266748242188
 72
     1
 10
28.75163399999997
 20
17.01266748242188
 11
28.81849899999997
 21
17.05181548242183
 72
     1
 10
28.81849899999997
 20
17.05181548242183
 11
28.91321000000005
 21
17.11909548242187
 72
     1
 10
28.91321000000005
 20
17.11909548242187
 11
28.97214599999984
 21
17.16956848242182
 72
     1
 10
28.97214599999984
 20
17.16956848242182
 11
29.01332500000001
 21
17.21063348242183
 72
     1
 10
29.01332500000001
 20
17.21063348242183
 11
29.051197
 21
17.25471048242184
 72
     1
 10
29.051197
 20
17.25471048242184
 11
29.07423700000004
 21
17.28575148242186
 72
     1
 10
29.07423700000004
 20
17.28575148242186
 11
29.09544999999991
 21
17.31811048242196
 72
     1
 10
29.09544999999991
 20
17.31811048242196
 11
29.11475199999984
 21
17.35167048242187
 72
     1
 10
29.11475199999984
 20
17.35167048242187
 11
29.13205999999991
 21
17.38631348242183
 72
     1
 10
29.13205999999991
 20
17.38631348242183
 11
29.147289
 21
17.42192348242196
 72
     1
 10
29.147289
 20
17.42192348242196
 11
29.16041099999995
 21
17.45849448242183
 72
     1
 10
29.16041099999995
 20
17.45849448242183
 11
29.17137700000001
 21
17.49576648242186
 72
     1
 10
29.17137700000001
 20
17.49576648242186
 11
29.180205
 21
17.53358848242186
 72
     1
 10
29.180205
 20
17.53358848242186
 11
29.186914
 21
17.57180448242184
 72
     1
 10
29.186914
 20
17.57180448242184
 11
29.19152299999996
 21
17.61026348242183
 72
     1
 10
29.19152299999996
 20
17.61026348242183
 11
29.19152299999996
 21
17.75921348242184
 97
        0
 75
     0
 76
     2
 52
0.0
 41
0.062992
 77
     0
 78
     1
 53
44.99999999988837
 43
0.0
 44
0.0
 45
-3.592095212307267
 46
3.592095212321264
 79
     0
 98
        0
  0
HATCH
  5
C8
330
1F
100
AcDbEntity
  8
CARTOUCHE
  6
CONTINUOUS
 62
     4
100
AcDbHatch
 10
0.0
 20
0.0
 30
0.0
210
0.0
220
0.0
230
1.0
  2
ANSI_31
 70
     0
 71
     0
 91
        2
 92
        1
 93
      122
 72
     1
 10
34.05107299999986
 20
17.24441348242186
 11
34.15412299999991
 21
17.24441348242186
 72
     1
 10
34.15412299999991
 20
17.24441348242186
 11
37.20692299999996
 21
17.25611348242182
 72
     1
 10
37.20692299999996
 20
17.25611348242182
 11
37.23237800000004
 21
17.36581648242185
 72
     1
 10
37.23237800000004
 20
17.36581648242185
 11
37.245048
 21
17.44943148242186
 72
     1
 10
37.245048
 20
17.44943148242186
 11
37.25187400000004
 21
17.53367248242188
 72
     1
 10
37.25187400000004
 20
17.53367248242188
 11
37.25173500000005
 21
17.64693848242183
 72
     1
 10
37.25173500000005
 20
17.64693848242183
 11
37.23470999999984
 21
17.81606548242183
 72
     1
 10
37.23470999999984
 20
17.81606548242183
 11
37.20846500000005
 21
17.95618248242187
 72
     1
 10
37.20846500000005
 20
17.95618248242187
 11
37.1735789999999
 21
18.09433748242185
 72
     1
 10
37.1735789999999
 20
18.09433748242185
 11
37.1317949999999
 21
18.22911548242183
 72
     1
 10
37.1317949999999
 20
18.22911548242183
 11
37.08234200000004
 21
18.36139048242183
 72
     1
 10
37.08234200000004
 20
18.36139048242183
 11
37.03686200000004
 21
18.46468548242183
 72
     1
 10
37.03686200000004
 20
18.46468548242183
 11
36.985861
 21
18.56550448242183
 72
     1
 10
36.985861
 20
18.56550448242183
 11
36.92927999999995
 21
18.66329248242187
 72
     1
 10
36.92927999999995
 20
18.66329248242187
 11
36.86706100000004
 21
18.75749648242186
 72
     1
 10
36.86706100000004
 20
18.75749648242186
 11
36.79914499999984
 21
18.84756448242183
 72
     1
 10
36.79914499999984
 20
18.84756448242183
 11
36.72552399999995
 21
18.93309948242182
 72
     1
 10
36.72552399999995
 20
18.93309948242182
 11
36.64671899999996
 21
19.01397348242187
 72
     1
 10
36.64671899999996
 20
19.01397348242187
 11
36.563309
 21
19.09022448242183
 72
     1
 10
36.563309
 20
19.09022448242183
 11
36.384996
 21
19.22899548242185
 72
     1
 10
36.384996
 20
19.22899548242185
 11
36.26698599999997
 21
19.30657448242187
 72
     1
 10
36.26698599999997
 20
19.30657448242187
 11
36.14445000000001
 21
19.37641148242187
 72
     1
 10
36.14445000000001
 20
19.37641148242187
 11
36.01771900000006
 21
19.43795548242184
 72
     1
 10
36.01771900000006
 20
19.43795548242184
 11
35.88739599999997
 21
19.49161848242187
 72
     1
 10
35.88739599999997
 20
19.49161848242187
 11
35.6188719999999
 21
19.57870348242187
 72
     1
 10
35.6188719999999
 20
19.57870348242187
 11
35.344652
 21
19.64561848242187
 72
     1
 10
35.344652
 20
19.64561848242187
 11
35.06700499999999
 21
19.69359948242186
 72
     1
 10
35.06700499999999
 20
19.69359948242186
 11
34.78677800000003
 21
19.72348448242184
 72
     1
 10
34.78677800000003
 20
19.72348448242184
 11
34.22285499999998
 21
19.73584348242184
 72
     1
 10
34.22285499999998
 20
19.73584348242184
 11
33.66058599999997
 21
19.69576448242185
 72
     1
 10
33.66058599999997
 20
19.69576448242185
 11
33.38229999999999
 21
19.65110848242188
 72
     1
 10
33.38229999999999
 20
19.65110848242188
 11
33.10728299999994
 21
19.58826948242182
 72
     1
 10
33.10728299999994
 20
19.58826948242182
 11
32.89059299999997
 21
19.52404948242196
 72
     1
 10
32.89059299999997
 20
19.52404948242196
 11
32.73158599999999
 21
19.46566648242185
 72
     1
 10
32.73158599999999
 20
19.46566648242185
 11
32.57691
 21
19.39659448242185
 72
     1
 10
32.57691
 20
19.39659448242185
 11
32.47700599999996
 21
19.34394848242187
 72
     1
 10
32.47700599999996
 20
19.34394848242187
 11
32.38006700000005
 21
19.28583248242182
 72
     1
 10
32.38006700000005
 20
19.28583248242182
 11
32.28661299999999
 21
19.22227548242188
 72
     1
 10
32.28661299999999
 20
19.22227548242188
 11
32.19716499999993
 21
19.15330948242183
 72
     1
 10
32.19716499999993
 20
19.15330948242183
 11
32.11224299999992
 21
19.07896448242184
 72
     1
 10
32.11224299999992
 20
19.07896448242184
 11
32.03231999999991
 21
18.99938348242188
 72
     1
 10
32.03231999999991
 20
18.99938348242188
 11
31.95746899999995
 21
18.91494348242196
 72
     1
 10
31.95746899999995
 20
18.91494348242196
 11
31.88772299999994
 21
18.82613348242182
 72
     1
 10
31.88772299999994
 20
18.82613348242182
 11
31.82311299999992
 21
18.73343848242183
 72
     1
 10
31.82311299999992
 20
18.73343848242183
 11
31.76366900000005
 21
18.63734448242184
 72
     1
 10
31.76366900000005
 20
18.63734448242184
 11
31.66049099999998
 21
18.43645848242187
 72
     1
 10
31.66049099999998
 20
18.43645848242187
 11
31.61706100000004
 21
18.33226848242174
 72
     1
 10
31.61706100000004
 20
18.33226848242174
 11
31.57925699999998
 21
18.22591248242196
 72
     1
 10
31.57925699999998
 20
18.22591248242196
 11
31.54722199999992
 21
18.11764348242184
 72
     1
 10
31.54722199999992
 20
18.11764348242184
 11
31.52110400000004
 21
18.00775948242187
 72
     1
 10
31.52110400000004
 20
18.00775948242187
 11
31.50105099999996
 21
17.89658248242188
 72
     1
 10
31.50105099999996
 20
17.89658248242188
 11
31.48722299999997
 21
17.78448148242182
 72
     1
 10
31.48722299999997
 20
17.78448148242182
 11
31.4797779999999
 21
17.67182548242187
 72
     1
 10
31.4797779999999
 20
17.67182548242187
 11
31.4788759999999
 21
17.55898348242187
 72
     1
 10
31.4788759999999
 20
17.55898348242187
 11
31.48475800000006
 21
17.44604148242183
 72
     1
 10
31.48475800000006
 20
17.44604148242183
 11
31.50730299999998
 21
17.27821248242185
 72
     1
 10
31.50730299999998
 20
17.27821248242185
 11
31.53184199999998
 21
17.16833248242187
 72
     1
 10
31.53184199999998
 20
17.16833248242187
 11
31.58066099999985
 21
17.00632348242186
 72
     1
 10
31.58066099999985
 20
17.00632348242186
 11
31.66317599999991
 21
16.79602048242185
 72
     1
 10
31.66317599999991
 20
16.79602048242185
 11
31.73810199999991
 21
16.64421248242184
 72
     1
 10
31.73810199999991
 20
16.64421248242184
 11
31.82487600000002
 21
16.49925448242186
 72
     1
 10
31.82487600000002
 20
16.49925448242186
 11
31.906565
 21
16.38418948242196
 72
     1
 10
31.906565
 20
16.38418948242196
 11
31.99507500000004
 21
16.27408348242187
 72
     1
 10
31.99507500000004
 20
16.27408348242187
 11
32.069976
 21
16.18920148242182
 72
     1
 10
32.069976
 20
16.18920148242182
 11
32.19090600000004
 21
16.07037748242186
 72
     1
 10
32.19090600000004
 20
16.07037748242186
 11
32.27814000000001
 21
15.99934248242187
 72
     1
 10
32.27814000000001
 20
15.99934248242187
 11
32.41820699999994
 21
15.90508448242184
 72
     1
 10
32.41820699999994
 20
15.90508448242184
 11
32.54199200000005
 21
15.83672648242174
 72
     1
 10
32.54199200000005
 20
15.83672648242174
 11
32.66963099999998
 21
15.77564248242186
 72
     1
 10
32.66963099999998
 20
15.77564248242186
 11
32.87800800000002
 21
15.68842648242185
 72
     1
 10
32.87800800000002
 20
15.68842648242185
 11
33.1996059999999
 21
15.58285048242186
 72
     1
 10
33.1996059999999
 20
15.58285048242186
 11
33.41901499999994
 21
15.53130748242182
 72
     1
 10
33.41901499999994
 20
15.53130748242182
 11
33.753153
 21
15.47780748242184
 72
     1
 10
33.753153
 20
15.47780748242184
 11
34.03387999999995
 21
15.45021248242188
 72
     1
 10
34.03387999999995
 20
15.45021248242188
 11
34.31548199999997
 21
15.43813148242185
 72
     1
 10
34.31548199999997
 20
15.43813148242185
 11
34.87832400000002
 21
15.46160448242188
 72
     1
 10
34.87832400000002
 20
15.46160448242188
 11
35.15919199999996
 21
15.49443748242186
 72
     1
 10
35.15919199999996
 20
15.49443748242186
 11
35.43780400000003
 21
15.54220448242182
 72
     1
 10
35.43780400000003
 20
15.54220448242182
 11
35.71211799999992
 21
15.60831348242186
 72
     1
 10
35.71211799999992
 20
15.60831348242186
 11
35.97822199999996
 21
15.69990348242186
 72
     1
 10
35.97822199999996
 20
15.69990348242186
 11
36.23556399999995
 21
15.81529348242185
 72
     1
 10
36.23556399999995
 20
15.81529348242185
 11
36.36129899999992
 21
15.87915548242182
 72
     1
 10
36.36129899999992
 20
15.87915548242182
 11
36.48298
 21
15.95021448242187
 72
     1
 10
36.48298
 20
15.95021448242187
 11
36.57561799999985
 21
16.01475148242196
 72
     1
 10
36.57561799999985
 20
16.01475148242196
 11
36.64162099999999
 21
16.06786448242184
 72
     1
 10
36.64162099999999
 20
16.06786448242184
 11
36.70417599999996
 21
16.12491648242184
 72
     1
 10
36.70417599999996
 20
16.12491648242184
 11
36.78170999999998
 21
16.20678448242182
 72
     1
 10
36.78170999999998
 20
16.20678448242182
 11
36.88612499999999
 21
16.34005848242174
 72
     1
 10
36.88612499999999
 20
16.34005848242174
 11
36.94806800000003
 21
16.43456248242182
 72
     1
 10
36.94806800000003
 20
16.43456248242182
 11
36.98954600000002
 21
16.50835548242173
 72
     1
 10
36.98954600000002
 20
16.50835548242173
 11
37.02580999999998
 21
16.58479748242183
 72
     1
 10
37.02580999999998
 20
16.58479748242183
 11
37.06495299999995
 21
16.69077548242183
 72
     1
 10
37.06495299999995
 20
16.69077548242183
 11
37.0873499999999
 21
16.77256948242183
 72
     1
 10
37.0873499999999
 20
16.77256948242183
 11
37.10387300000002
 21
16.85561348242186
 72
     1
 10
37.10387300000002
 20
16.85561348242186
 11
35.3430229999999
 21
16.85561348242186
 72
     1
 10
35.3430229999999
 20
16.85561348242186
 11
35.23476000000005
 21
16.77510848242184
 72
     1
 10
35.23476000000005
 20
16.77510848242184
 11
35.14934200000005
 21
16.72062448242184
 72
     1
 10
35.14934200000005
 20
16.72062448242184
 11
35.06077599999992
 21
16.67140248242185
 72
     1
 10
35.06077599999992
 20
16.67140248242185
 11
34.98475800000006
 21
16.63474248242187
 72
     1
 10
34.98475800000006
 20
16.63474248242187
 11
34.90657599999997
 21
16.60327648242173
 72
     1
 10
34.90657599999997
 20
16.60327648242173
 11
34.84227699999985
 21
16.58260448242186
 72
     1
 10
34.84227699999985
 20
16.58260448242186
 11
34.743651
 21
16.55905748242185
 72
     1
 10
34.743651
 20
16.55905748242185
 11
34.60933699999998
 21
16.54050548242185
 72
     1
 10
34.60933699999998
 20
16.54050548242185
 11
34.50763899999993
 21
16.53562548242184
 72
     1
 10
34.50763899999993
 20
16.53562548242184
 11
34.40580899999998
 21
16.53795048242188
 72
     1
 10
34.40580899999998
 20
16.53795048242188
 11
34.27139199999999
 21
16.55146548242186
 72
     1
 10
34.27139199999999
 20
16.55146548242186
 11
34.17168100000004
 21
16.56915748242187
 72
     1
 10
34.17168100000004
 20
16.56915748242187
 11
34.07332899999994
 21
16.59315548242188
 72
     1
 10
34.07332899999994
 20
16.59315548242188
 11
33.944884
 21
16.63500648242183
 72
     1
 10
33.944884
 20
16.63500648242183
 11
33.85139500000002
 21
16.67427048242183
 72
     1
 10
33.85139500000002
 20
16.67427048242183
 11
33.7609809999999
 21
16.72081548242187
 72
     1
 10
33.7609809999999
 20
16.72081548242187
 11
33.70284000000004
 21
16.75610948242183
 72
     1
 10
33.70284000000004
 20
16.75610948242183
 11
33.64707699999985
 21
16.79507348242174
 72
     1
 10
33.64707699999985
 20
16.79507348242174
 11
33.59444999999994
 21
16.83793648242187
 72
     1
 10
33.59444999999994
 20
16.83793648242187
 11
33.54571899999996
 21
16.88492548242186
 72
     1
 10
33.54571899999996
 20
16.88492548242186
 11
33.50164199999995
 21
16.93626948242184
 72
     1
 10
33.50164199999995
 20
16.93626948242184
 11
33.46287699999993
 21
16.99201948242182
 72
     1
 10
33.46287699999993
 20
16.99201948242182
 11
33.42966899999999
 21
17.05153148242186
 72
     1
 10
33.42966899999999
 20
17.05153148242186
 11
33.40216099999998
 21
17.11398248242187
 72
     1
 10
33.40216099999998
 20
17.11398248242187
 11
33.38049799999999
 21
17.17855048242183
 72
     1
 10
33.38049799999999
 20
17.17855048242183
 11
33.364823
 21
17.24441348242186
 72
     1
 10
33.364823
 20
17.24441348242186
 11
34.05107299999986
 21
17.24441348242186
 97
        0
 92
        0
 93
       43
 72
     1
 10
33.364823
 20
18.07916348242196
 11
34.15412299999991
 21
18.07916348242196
 72
     1
 10
34.15412299999991
 20
18.07916348242196
 11
35.3430229999999
 21
18.07916348242196
 72
     1
 10
35.3430229999999
 20
18.07916348242196
 11
35.33909900000003
 21
18.11638548242183
 72
     1
 10
35.33909900000003
 20
18.11638548242183
 11
35.33300199999996
 21
18.15340048242183
 72
     1
 10
35.33300199999996
 20
18.15340048242183
 11
35.32469199999991
 21
18.19001848242186
 72
     1
 10
35.32469199999991
 20
18.19001848242186
 11
35.31413199999997
 21
18.22604748242196
 72
     1
 10
35.31413199999997
 20
18.22604748242196
 11
35.30128499999989
 21
18.26129848242186
 72
     1
 10
35.30128499999989
 20
18.26129848242186
 11
35.28615600000001
 21
18.29557548242184
 72
     1
 10
35.28615600000001
 20
18.29557548242184
 11
35.26886400000001
 21
18.32881548242187
 72
     1
 10
35.26886400000001
 20
18.32881548242187
 11
35.24956699999996
 21
18.36095148242185
 72
     1
 10
35.24956699999996
 20
18.36095148242185
 11
35.22842500000002
 21
18.39191348242184
 72
     1
 10
35.22842500000002
 20
18.39191348242184
 11
35.20559500000002
 21
18.42163348242184
 72
     1
 10
35.20559500000002
 20
18.42163348242184
 11
35.15515799999991
 21
18.47750348242187
 72
     1
 10
35.15515799999991
 20
18.47750348242187
 11
35.11388799999997
 21
18.51602848242186
 72
     1
 10
35.11388799999997
 20
18.51602848242186
 11
35.0701489999999
 21
18.55173748242174
 72
     1
 10
35.0701489999999
 20
18.55173748242174
 11
35.00889700000005
 21
18.59490548242184
 72
     1
 10
35.00889700000005
 20
18.59490548242184
 11
34.96089400000005
 21
18.62411348242188
 72
     1
 10
34.96089400000005
 20
18.62411348242188
 11
34.91135099999997
 21
18.65061248242188
 72
     1
 10
34.91135099999997
 20
18.65061248242188
 11
34.84321299999999
 21
18.68177148242182
 72
     1
 10
34.84321299999999
 20
18.68177148242182
 11
34.73746299999993
 21
18.71978048242187
 72
     1
 10
34.73746299999993
 20
18.71978048242187
 11
34.66503399999999
 21
18.73951548242184
 72
     1
 10
34.66503399999999
 20
18.73951548242184
 11
34.55447499999991
 21
18.76077648242187
 72
     1
 10
34.55447499999991
 20
18.76077648242187
 11
34.47958200000005
 21
18.76950348242184
 72
     1
 10
34.47958200000005
 20
18.76950348242184
 11
34.36667799999998
 21
18.77473948242186
 72
     1
 10
34.36667799999998
 20
18.77473948242186
 11
34.29122899999993
 21
18.77319548242184
 72
     1
 10
34.29122899999993
 20
18.77319548242184
 11
34.17824399999995
 21
18.76277148242184
 72
     1
 10
34.17824399999995
 20
18.76277148242184
 11
34.10438799999997
 21
18.74979348242186
 72
     1
 10
34.10438799999997
 20
18.74979348242186
 11
34.068085
 21
18.74081648242185
 72
     1
 10
34.068085
 20
18.74081648242185
 11
34.03251399999999
 21
18.72978048242186
 72
     1
 10
34.03251399999999
 20
18.72978048242186
 11
33.99791200000004
 21
18.71638748242185
 72
     1
 10
33.99791200000004
 20
18.71638748242185
 11
33.96434399999998
 21
18.70047748242183
 72
     1
 10
33.96434399999998
 20
18.70047748242183
 11
33.83484299999998
 21
18.62565048242186
 72
     1
 10
33.83484299999998
 20
18.62565048242186
 11
33.67159400000003
 21
18.53555048242185
 72
     1
 10
33.67159400000003
 20
18.53555048242185
 11
33.64097600000002
 21
18.51412948242182
 72
     1
 10
33.64097600000002
 20
18.51412948242182
 11
33.611625
 21
18.49084948242182
 72
     1
 10
33.611625
 20
18.49084948242182
 11
33.58359099999996
 21
18.46588048242182
 72
     1
 10
33.58359099999996
 20
18.46588048242182
 11
33.53168099999994
 21
18.41155948242186
 72
     1
 10
33.53168099999994
 20
18.41155948242186
 11
33.48534099999983
 21
18.35199448242196
 72
     1
 10
33.48534099999983
 20
18.35199448242196
 11
33.45462099999986
 21
18.30452048242182
 72
     1
 10
33.45462099999986
 20
18.30452048242182
 11
33.427457
 21
18.25490148242187
 72
     1
 10
33.427457
 20
18.25490148242187
 11
33.3972
 21
18.18644248242185
 72
     1
 10
33.3972
 20
18.18644248242185
 11
33.37897999999984
 21
18.13336448242183
 72
     1
 10
33.37897999999984
 20
18.13336448242183
 11
33.364823
 21
18.07916348242196
 97
        0
 75
     0
 76
     2
 52
0.0
 41
0.062992
 77
     0
 78
     1
 53
44.99999999988837
 43
0.0
 44
0.0
 45
-3.592095212307267
 46
3.592095212321264
 79
     0
 98
        0
  0
HATCH
  5
C9
330
1F
100
AcDbEntity
  8
CARTOUCHE
  6
CONTINUOUS
 62
     4
100
AcDbHatch
 10
0.0
 20
0.0
 30
0.0
210
0.0
220
0.0
230
1.0
  2
ANSI_31
 70
     0
 71
     0
 91
        1
 92
        1
 93
       78
 72
     1
 10
37.7329729999999
 20
19.50836348242183
 11
37.7329729999999
 21
15.63206348242187
 72
     1
 10
37.7329729999999
 20
15.63206348242187
 11
39.45962299999997
 21
15.63206348242187
 72
     1
 10
39.45962299999997
 20
15.63206348242187
 11
39.45962299999997
 21
17.78216348242182
 72
     1
 10
39.45962299999997
 20
17.78216348242182
 11
39.46348799999998
 21
17.82553248242186
 72
     1
 10
39.46348799999998
 20
17.82553248242186
 11
39.47094600000003
 21
17.86855548242187
 72
     1
 10
39.47094600000003
 20
17.86855548242187
 11
39.48187900000005
 21
17.91096048242184
 72
     1
 10
39.48187900000005
 20
17.91096048242184
 11
39.496172
 21
17.95247348242174
 72
     1
 10
39.496172
 20
17.95247348242174
 11
39.51370699999995
 21
17.99282048242185
 72
     1
 10
39.51370699999995
 20
17.99282048242185
 11
39.53438600000004
 21
18.03172448242185
 72
     1
 10
39.53438600000004
 20
18.03172448242185
 11
39.55812200000003
 21
18.06878348242185
 72
     1
 10
39.55812200000003
 20
18.06878348242185
 11
39.58484099999998
 21
18.10359348242184
 72
     1
 10
39.58484099999998
 20
18.10359348242184
 11
39.61447299999998
 21
18.13574948242183
 72
     1
 10
39.61447299999998
 20
18.13574948242183
 11
39.64694299999996
 21
18.16484748242186
 72
     1
 10
39.64694299999996
 20
18.16484748242186
 11
39.68210899999997
 21
18.19055648242187
 72
     1
 10
39.68210899999997
 20
18.19055648242187
 11
39.71962599999995
 21
18.21290248242184
 72
     1
 10
39.71962599999995
 20
18.21290248242184
 11
39.75908300000003
 21
18.23198148242187
 72
     1
 10
39.75908300000003
 20
18.23198148242187
 11
39.8000669999999
 21
18.24788948242184
 72
     1
 10
39.8000669999999
 20
18.24788948242184
 11
39.84216600000002
 21
18.26072448242184
 72
     1
 10
39.84216600000002
 20
18.26072448242184
 11
39.88545499999998
 21
18.27062448242174
 72
     1
 10
39.88545499999998
 20
18.27062448242174
 11
39.92924099999993
 21
18.27731348242185
 72
     1
 10
39.92924099999993
 20
18.27731348242185
 11
39.97330699999998
 21
18.28061848242186
 72
     1
 10
39.97330699999998
 20
18.28061848242186
 11
40.01743299999998
 21
18.28037048242186
 72
     1
 10
40.01743299999998
 20
18.28037048242186
 11
40.06139899999994
 21
18.27639748242183
 72
     1
 10
40.06139899999994
 20
18.27639748242183
 11
40.10431900000003
 21
18.26870548242186
 72
     1
 10
40.10431900000003
 20
18.26870548242186
 11
40.14647099999991
 21
18.25726348242188
 72
     1
 10
40.14647099999991
 20
18.25726348242188
 11
40.187456
 21
18.24210548242183
 72
     1
 10
40.187456
 20
18.24210548242183
 11
40.22687299999996
 21
18.22326248242183
 72
     1
 10
40.22687299999996
 20
18.22326248242183
 11
40.264321
 21
18.20076648242184
 72
     1
 10
40.264321
 20
18.20076648242184
 11
40.29950399999996
 21
18.17461148242182
 72
     1
 10
40.29950399999996
 20
18.17461148242182
 11
40.3319469999999
 21
18.14508848242184
 72
     1
 10
40.3319469999999
 20
18.14508848242184
 11
40.36129100000005
 21
18.11246848242183
 72
     1
 10
40.36129100000005
 20
18.11246848242183
 11
40.38718099999994
 21
18.07702348242174
 72
     1
 10
40.38718099999994
 20
18.07702348242174
 11
40.40925700000003
 21
18.03902548242183
 72
     1
 10
40.40925700000003
 20
18.03902548242183
 11
40.42712900000004
 21
17.99898048242187
 72
     1
 10
40.42712900000004
 20
17.99898048242187
 11
40.44073199999991
 21
17.95724648242185
 72
     1
 10
40.44073199999991
 20
17.95724648242185
 11
40.44992999999999
 21
17.91439248242187
 72
     1
 10
40.44992999999999
 20
17.91439248242187
 11
40.45458900000006
 21
17.87099148242186
 72
     1
 10
40.45458900000006
 20
17.87099148242186
 11
40.45517400000006
 21
17.84926348242186
 72
     1
 10
40.45517400000006
 20
17.84926348242186
 11
40.45457299999998
 21
17.82761348242184
 72
     1
 10
40.45457299999998
 20
17.82761348242184
 11
40.45457299999998
 21
17.58776348242185
 72
     1
 10
40.45457299999998
 20
17.58776348242185
 11
42.28382299999998
 21
17.58776348242185
 72
     1
 10
42.28382299999998
 20
17.58776348242185
 11
42.30047999999999
 21
17.74187048242186
 72
     1
 10
42.30047999999999
 20
17.74187048242186
 11
42.30803400000002
 21
17.89673348242184
 72
     1
 10
42.30803400000002
 20
17.89673348242184
 11
42.30622299999993
 21
18.05189048242187
 72
     1
 10
42.30622299999993
 20
18.05189048242187
 11
42.29564799999991
 21
18.20668548242185
 72
     1
 10
42.29564799999991
 20
18.20668548242185
 11
42.27690799999993
 21
18.36094148242182
 72
     1
 10
42.27690799999993
 20
18.36094148242182
 11
42.24989999999991
 21
18.51406648242187
 72
     1
 10
42.24989999999991
 20
18.51406648242187
 11
42.22187399999984
 21
18.63504148242185
 72
     1
 10
42.22187399999984
 20
18.63504148242185
 11
42.19592
 21
18.72441448242188
 72
     1
 10
42.19592
 20
18.72441448242188
 11
42.16467999999998
 21
18.81201848242188
 72
     1
 10
42.16467999999998
 20
18.81201848242188
 11
42.11349900000005
 21
18.92521948242182
 72
     1
 10
42.11349900000005
 20
18.92521948242182
 11
42.06786699999998
 21
19.00658448242183
 72
     1
 10
42.06786699999998
 20
19.00658448242183
 11
42.01605699999993
 21
19.08426948242186
 72
     1
 10
42.01605699999993
 20
19.08426948242186
 11
41.97801799999991
 21
19.13381748242188
 72
     1
 10
41.97801799999991
 20
19.13381748242188
 11
41.93728699999997
 21
19.18117748242196
 72
     1
 10
41.93728699999997
 20
19.18117748242196
 11
41.89391699999999
 21
19.22606648242186
 72
     1
 10
41.89391699999999
 20
19.22606648242186
 11
41.84796299999994
 21
19.26819948242184
 72
     1
 10
41.84796299999994
 20
19.26819948242184
 11
41.79947599999991
 21
19.30729548242175
 72
     1
 10
41.79947599999991
 20
19.30729548242175
 11
41.74884699999996
 21
19.34295048242183
 72
     1
 10
41.74884699999996
 20
19.34295048242183
 11
41.69608700000003
 21
19.37546648242187
 72
     1
 10
41.69608700000003
 20
19.37546648242187
 11
41.61365699999999
 21
19.41867248242187
 72
     1
 10
41.61365699999999
 20
19.41867248242187
 11
41.52824199999998
 21
19.45563348242183
 72
     1
 10
41.52824199999998
 20
19.45563348242183
 11
41.41028499999993
 21
19.49650348242187
 72
     1
 10
41.41028499999993
 20
19.49650348242187
 11
41.22888
 21
19.54284148242186
 72
     1
 10
41.22888
 20
19.54284148242186
 11
41.10697100000004
 21
19.56604448242183
 72
     1
 10
41.10697100000004
 20
19.56604448242183
 11
40.92238599999985
 21
19.58779048242184
 72
     1
 10
40.92238599999985
 20
19.58779048242184
 11
40.79850399999998
 21
19.59178548242187
 72
     1
 10
40.79850399999998
 20
19.59178548242187
 11
40.6125679999999
 21
19.58367248242183
 72
     1
 10
40.6125679999999
 20
19.58367248242183
 11
40.45792600000004
 21
19.56624348242184
 72
     1
 10
40.45792600000004
 20
19.56624348242184
 11
40.30471599999998
 21
19.53945148242184
 72
     1
 10
40.30471599999998
 20
19.53945148242184
 11
40.18380500000001
 21
19.51110448242184
 72
     1
 10
40.18380500000001
 20
19.51110448242184
 11
40.00579900000002
 21
19.45599948242187
 72
     1
 10
40.00579900000002
 20
19.45599948242187
 11
39.89043400000003
 21
19.41048748242184
 72
     1
 10
39.89043400000003
 20
19.41048748242184
 11
39.77781700000003
 21
19.35816748242183
 72
     1
 10
39.77781700000003
 20
19.35816748242183
 11
39.66826399999991
 21
19.29954948242187
 72
     1
 10
39.66826399999991
 20
19.29954948242187
 11
39.45962299999997
 21
19.16546348242184
 72
     1
 10
39.45962299999997
 20
19.16546348242184
 11
39.45962299999997
 21
19.50836348242183
 72
     1
 10
39.45962299999997
 20
19.50836348242183
 11
37.7329729999999
 21
19.50836348242183
 97
        0
 75
     0
 76
     2
 52
0.0
 41
0.062992
 77
     0
 78
     1
 53
44.99999999988837
 43
0.0
 44
0.0
 45
-3.592095212307267
 46
3.592095212321264
 79
     0
 98
        0
  0
LINE
  5
CA
330
1F
100
AcDbEntity
  8
CARTOUCHE
  6
CONTINUOUS
 62
     7
100
AcDbLine
 10
200.000013
 20
31.845126
 30
0.0
 11
-0.000024
 21
31.845432
 31
0.0
  0
LINE
  5
CB
330
1F
100
AcDbEntity
  8
CARTOUCHE
  6
CONTINUOUS
 62
     7
100
AcDbLine
 10
148.333306
 20
15.002857
 30
0.0
 11
148.333306
 21
5.000915
 31
0.0
  0
TEXT
  5
CC
330
1F
100
AcDbEntity
  8
CARTOUCHE
  6
CONTINUOUS
 62
     2
100
AcDbText
 10
11.190894
 20
9.308746
 30
0.0
 40
1.8
  1
www.findernet.com
 50
359.999908
 41
0.09
  7
FINDER
100
AcDbText
  0
TEXT
  5
CD
330
1F
100
AcDbEntity
  8
CARTOUCHE
  6
CONTINUOUS
 62
     7
100
AcDbText
 10
119.919533
 20
11.624206
 30
0.0
 40
1.8
  1
DATE
 50
359.999908
 41
0.15
  7
FINDER
100
AcDbText
  0
TEXT
  5
CE
330
1F
100
AcDbEntity
  8
CARTOUCHE
  6
CONTINUOUS
 62
     7
100
AcDbText
 10
170.877045
 20
11.624115
 30
0.0
 40
1.8
  1
SCALE
 50
359.999908
 41
0.1
  7
FINDER
100
AcDbText
  0
TEXT
  5
CF
330
1F
100
AcDbEntity
  8
CARTOUCHE
  6
CONTINUOUS
 62
     1
100
AcDbText
 10
70.188087
 20
6.776245
 30
0.0
 40
2.1
  1
0
 50
359.999908
  7
FINDER
100
AcDbText
  0
TEXT
  5
D0
330
1F
100
AcDbEntity
  8
CARTOUCHE
  6
CONTINUOUS
 62
     1
100
AcDbText
 10
118.895912
 20
6.776184
 30
0.0
 40
2.1
  1
27/07/10
 50
359.999908
 41
0.26
  7
FINDER
100
AcDbText
  0
TEXT
  5
D1
330
1F
100
AcDbEntity
  8
CARTOUCHE
  6
CONTINUOUS
 62
     1
100
AcDbText
 10
172.623016
 20
6.776092
 30
0.0
 40
2.1
  1
1:1
 50
359.999908
 41
2.82
  7
FINDER
100
AcDbText
  0
TEXT
  5
D2
330
1F
100
AcDbEntity
  8
CARTOUCHE
  6
CONTINUOUS
 62
     1
100
AcDbText
 10
116.257088
 20
17.506577
 30
0.0
 40
3.0
  1
83.62
 50
359.999908
 41
0.33
  7
FINDER
100
AcDbText
  0
CIRCLE
  5
D3
330
1F
100
AcDbEntity
  8
0
  6
CONTINUOUS
 62
     5
100
AcDbCircle
 10
97.185652
 20
194.32355
 30
0.0
 40
2.283226896594925
  0
ARC
  5
D4
330
1F
100
AcDbEntity
  8
0
  6
CONTINUOUS
 62
     5
100
AcDbCircle
 10
-97.185654
 20
194.323547
 30
0.0
 40
1.80418896795202
210
0.0
220
0.0
230
-1.0
100
AcDbArc
 50
7.69553
 51
67.558968
  0
LINE
  5
D5
330
1F
100
AcDbEntity
  8
0
  6
CONTINUOUS
 62
     5
100
AcDbLine
 10
96.496937
 20
195.99111
 30
0.0
 11
96.496937
 21
194.565144
 31
0.0
  0
LINE
  5
D6
330
1F
100
AcDbEntity
  8
0
  6
CONTINUOUS
 62
     5
100
AcDbLine
 10
96.496937
 20
194.565144
 30
0.0
 11
95.397714
 21
194.565144
 31
0.0
  0
LINE
  5
D7
330
1F
100
AcDbEntity
  8
0
  6
CONTINUOUS
 62
     5
100
AcDbLine
 10
97.408025
 20
193.30824
 30
0.0
 11
96.699977
 21
194.076552
 31
0.0
  0
LINE
  5
D8
330
1F
100
AcDbEntity
  8
0
  6
CONTINUOUS
 62
     5
100
AcDbLine
 10
96.699977
 20
194.076552
 30
0.0
 11
96.809705
 21
194.076552
 31
0.0
  0
ARC
  5
D9
330
1F
100
AcDbEntity
  8
0
  6
CONTINUOUS
 62
     5
100
AcDbCircle
 10
96.730346
 20
194.287984
 30
0.0
 40
0.2258343473017366
100
AcDbArc
 50
290.573117
 51
349.614785
  0
LINE
  5
DA
330
1F
100
AcDbEntity
  8
0
  6
CONTINUOUS
 62
     5
100
AcDbLine
 10
96.952481
 20
194.247274
 30
0.0
 11
96.952481
 21
196.112605
 31
0.0
  0
ARC
  5
DB
330
1F
100
AcDbEntity
  8
0
  6
CONTINUOUS
 62
     5
100
AcDbCircle
 10
-97.185654
 20
194.323547
 30
0.0
 40
1.804188967725572
210
0.0
220
0.0
230
-1.0
100
AcDbArc
 50
82.574324
 51
97.079846
  0
LINE
  5
DC
330
1F
100
AcDbEntity
  8
0
  6
CONTINUOUS
 62
     5
100
AcDbLine
 10
97.408025
 20
196.11398
 30
0.0
 11
97.408025
 21
193.30824
 31
0.0
  0
LINE
  5
DD
330
1F
100
AcDbEntity
  8
0
  6
CONTINUOUS
 62
     5
100
AcDbLine
 10
97.868969
 20
195.080952
 30
0.0
 11
97.868969
 21
195.993332
 31
0.0
  0
ARC
  5
DE
330
1F
100
AcDbEntity
  8
0
  6
CONTINUOUS
 62
     5
100
AcDbCircle
 10
-97.185654
 20
194.323547
 30
0.0
 40
1.8041889679523
210
0.0
220
0.0
230
-1.0
100
AcDbArc
 50
112.255524
 51
352.131446
  0
LINE
  5
DF
330
1F
100
AcDbEntity
  8
0
  6
CONTINUOUS
 62
     5
100
AcDbLine
 10
95.398452
 20
194.076552
 30
0.0
 11
95.975513
 21
194.076552
 31
0.0
  0
LINE
  5
E0
330
1F
100
AcDbEntity
  8
0
  6
CONTINUOUS
 62
     5
100
AcDbLine
 10
95.975513
 20
194.076552
 30
0.0
 11
97.317197
 21
192.760145
 31
0.0
  0
ARC
  5
E1
330
1F
100
AcDbEntity
  8
0
  6
CONTINUOUS
 62
     5
100
AcDbCircle
 10
97.525517
 20
193.035376
 30
0.0
 40
0.3451801230784826
100
AcDbArc
 50
232.878195
 51
354.263267
  0
LINE
  5
E2
330
1F
100
AcDbEntity
  8
0
  6
CONTINUOUS
 62
     5
100
AcDbLine
 10
97.868969
 20
193.000872
 30
0.0
 11
97.868969
 21
194.603376
 31
0.0
  0
LINE
  5
E3
330
1F
100
AcDbEntity
  8
0
  6
CONTINUOUS
 62
     5
100
AcDbLine
 10
97.868969
 20
194.603376
 30
0.0
 11
98.412425
 21
194.603376
 31
0.0
  0
ARC
  5
E4
330
1F
100
AcDbEntity
  8
0
  6
CONTINUOUS
 62
     5
100
AcDbCircle
 10
98.388001
 20
194.842164
 30
0.0
 40
0.2400338493353892
100
AcDbArc
 50
275.840125
 51
95.840125
  0
LINE
  5
E5
330
1F
100
AcDbEntity
  8
0
  6
CONTINUOUS
 62
     5
100
AcDbLine
 10
98.363576
 20
195.080952
 30
0.0
 11
97.868969
 21
195.080952
 31
0.0
  0
SPLINE
  5
E6
330
1F
100
AcDbEntity
  8
0
  6
CONTINUOUS
 62
     5
100
AcDbSpline
210
0.0
220
0.0
230
1.0
 70
     8
 71
     3
 72
    31
 73
    27
 74
     0
 42
0.0
 43
0.0
 40
0.0
 40
0.0
 40
0.0
 40
0.0
 40
0.4099510339074079
 40
1.446824218052893
 40
2.704343203993066
 40
3.847343203993066
 40
4.767900643808748
 40
5.668462690532898
 40
6.555363474160922
 40
7.475459664784491
 40
8.376376975085499
 40
9.253185392015896
 40
10.161423246325
 40
11.08109710155848
 40
12.00176479405126
 40
12.87837017847461
 40
13.7422526936351
 40
14.60793277311018
 40
15.47665885191753
 40
16.34054136707802
 40
17.21714675150136
 40
18.13682060673484
 40
19.30582060673484
 40
20.53241304108294
 40
21.52898767451488
 40
22.1535931499952
 40
22.1535931499952
 40
22.1535931499952
 40
22.1535931499952
 10
107.8857528315946
 20
194.5129014849827
 30
0.0
 10
107.8636539459372
 20
194.5324683323565
 30
0.0
 10
107.7794139939272
 20
194.5961814620092
 30
0.0
 10
107.583329562199
 20
194.6354251409516
 30
0.0
 10
107.3404968317701
 20
194.6765117224638
 30
0.0
 10
107.1002051663605
 20
194.6727298491345
 30
0.0
 10
106.8870617050998
 20
194.6542781625711
 30
0.0
 10
106.698903769361
 20
194.598352450461
 30
0.0
 10
106.5237526987786
 20
194.509651667928
 30
0.0
 10
106.3735905946226
 20
194.3831497148794
 30
0.0
 10
106.2461430075239
 20
194.2354541790121
 30
0.0
 10
106.149827831557
 20
194.0661120184555
 30
0.0
 10
106.0901057072539
 20
193.8795283031019
 30
0.0
 10
106.0662673394769
 20
193.6813627719806
 30
0.0
 10
106.0905931948514
 20
193.4857969544325
 30
0.0
 10
106.1450087467216
 20
193.3011481781084
 30
0.0
 10
106.2337404615795
 20
193.1342398688762
 30
0.0
 10
106.3553564438574
 20
192.9899801963873
 30
0.0
 10
106.5053255758966
 20
192.8764317199779
 30
0.0
 10
106.6708990668894
 20
192.7858177700183
 30
0.0
 10
106.8558676658529
 20
192.7303902058651
 30
0.0
 10
107.0693151104143
 20
192.7106438064298
 30
0.0
 10
107.3077652720494
 20
192.7132608753039
 30
0.0
 10
107.5530897618751
 20
192.7284559639856
 30
0.0
 10
107.7491290108553
 20
192.7970362699241
 30
0.0
 10
107.8492813209722
 20
192.8579213166416
 30
0.0
 10
107.8857528315946
 20
192.8842324017755
 30
0.0
  0
LINE
  5
E7
330
1F
100
AcDbEntity
  8
0
  6
CONTINUOUS
 62
     5
100
AcDbLine
 10
107.885753
 20
192.884232
 30
0.0
 11
107.885753
 21
192.737352
 31
0.0
  0
LINE
  5
E8
330
1F
100
AcDbEntity
  8
0
  6
CONTINUOUS
 62
     5
100
AcDbLine
 10
107.885753
 20
192.737352
 30
0.0
 11
108.747377
 21
192.737352
 31
0.0
  0
LINE
  5
E9
330
1F
100
AcDbEntity
  8
0
  6
CONTINUOUS
 62
     5
100
AcDbLine
 10
108.747377
 20
192.737352
 30
0.0
 11
108.747377
 21
195.234744
 31
0.0
  0
LINE
  5
EA
330
1F
100
AcDbEntity
  8
0
  6
CONTINUOUS
 62
     5
100
AcDbLine
 10
108.747377
 20
195.234744
 30
0.0
 11
107.885753
 21
195.234744
 31
0.0
  0
LINE
  5
EB
330
1F
100
AcDbEntity
  8
0
  6
CONTINUOUS
 62
     5
100
AcDbLine
 10
107.885753
 20
195.234744
 30
0.0
 11
107.885753
 21
194.512901
 31
0.0
  0
LINE
  5
EC
330
1F
100
AcDbEntity
  8
0
  6
CONTINUOUS
 62
     5
100
AcDbLine
 10
107.885753
 20
193.763784
 30
0.0
 11
107.885753
 21
193.692288
 31
0.0
  0
SPLINE
  5
ED
330
1F
100
AcDbEntity
  8
0
  6
CONTINUOUS
 62
     5
100
AcDbSpline
210
0.0
220
0.0
230
1.0
 70
     8
 71
     3
 72
    23
 73
    19
 74
     0
 42
0.0
 43
0.0
 40
0.0
 40
0.0
 40
0.0
 40
0.0
 40
0.6669640170203994
 40
1.367241105036289
 40
2.140113668917293
 40
2.988671268612208
 40
3.841507712486409
 40
4.61392016707269
 40
5.335952022325626
 40
6.020499317988973
 40
6.729216468903221
 40
7.451248324156158
 40
8.23595017836577
 40
9.084507778060683
 40
9.795872057201187
 40
10.65924169220739
 40
11.32417627545601
 40
11.97574438394506
 40
11.97574438394506
 40
11.97574438394506
 40
11.97574438394506
 10
107.8857528315946
 20
193.6922884017755
 30
0.0
 10
107.881329045228
 20
193.644471188785
 30
0.0
 10
107.8509460344524
 20
193.5461220418804
 30
0.0
 10
107.7376271906532
 20
193.4356575325522
 30
0.0
 10
107.5875322124018
 20
193.3576374711517
 30
0.0
 10
107.407262389902
 20
193.3303941250049
 30
0.0
 10
107.2305490277545
 20
193.3652983547316
 30
0.0
 10
107.0741445077019
 20
193.4387380060644
 30
0.0
 10
106.9725593621725
 20
193.5641461080275
 30
0.0
 10
106.926752430445
 20
193.7157993694987
 30
0.0
 10
106.971139427653
 20
193.8690491963455
 30
0.0
 10
107.0757170525453
 20
193.9942896490097
 30
0.0
 10
107.2278616598433
 20
194.0763372231062
 30
0.0
 10
107.3993177627335
 20
194.1046768785309
 30
0.0
 10
107.5703658731816
 20
194.0637941675178
 30
0.0
 10
107.7249866491449
 20
194.0118755996769
 30
0.0
 10
107.8454215660219
 20
193.9031554166731
 30
0.0
 10
107.8794613892931
 20
193.810273521984
 30
0.0
 10
107.8857528315946
 20
193.7637844017755
 30
0.0
  0
ARC
  5
EE
330
1F
100
AcDbEntity
  8
0
  6
CONTINUOUS
 62
     5
100
AcDbCircle
 10
104.946175
 20
192.941073
 30
0.0
 40
1.685708095064602
100
AcDbArc
 50
71.872392
 51
120.405557
  0
LINE
  5
EF
330
1F
100
AcDbEntity
  8
0
  6
CONTINUOUS
 62
     5
100
AcDbLine
 10
104.093009
 20
194.394936
 30
0.0
 11
104.093009
 21
194.603376
 31
0.0
  0
LINE
  5
F0
330
1F
100
AcDbEntity
  8
0
  6
CONTINUOUS
 62
     5
100
AcDbLine
 10
104.093009
 20
194.603376
 30
0.0
 11
103.231385
 21
194.603376
 31
0.0
  0
LINE
  5
F1
330
1F
100
AcDbEntity
  8
0
  6
CONTINUOUS
 62
     5
100
AcDbLine
 10
103.231385
 20
194.603376
 30
0.0
 11
103.231385
 21
192.742752
 31
0.0
  0
LINE
  5
F2
330
1F
100
AcDbEntity
  8
0
  6
CONTINUOUS
 62
     5
100
AcDbLine
 10
103.231385
 20
192.742752
 30
0.0
 11
104.093009
 21
192.742752
 31
0.0
  0
LINE
  5
F3
330
1F
100
AcDbEntity
  8
0
  6
CONTINUOUS
 62
     5
100
AcDbLine
 10
104.093009
 20
192.742752
 30
0.0
 11
104.093009
 21
193.607427
 31
0.0
  0
ARC
  5
F4
330
1F
100
AcDbEntity
  8
0
  6
CONTINUOUS
 62
     5
100
AcDbCircle
 10
-104.64685
 20
193.312986
 30
0.0
 40
0.6272451125316516
210
0.0
220
0.0
230
-1.0
100
AcDbArc
 50
27.996676
 51
87.037487
  0
ARC
  5
F5
330
1F
100
AcDbEntity
  8
0
  6
CONTINUOUS
 62
     5
100
AcDbCircle
 10
-104.653337
 20
193.629284
 30
0.0
 40
0.3125393542177978
210
0.0
220
0.0
230
-1.0
100
AcDbArc
 50
82.849317
 51
180.0
  0
LINE
  5
F6
330
1F
100
AcDbEntity
  8
0
  6
CONTINUOUS
 62
     5
100
AcDbLine
 10
104.965877
 20
193.629284
 30
0.0
 11
104.965865
 21
192.742752
 31
0.0
  0
LINE
  5
F7
330
1F
100
AcDbEntity
  8
0
  6
CONTINUOUS
 62
     5
100
AcDbLine
 10
104.965865
 20
192.742752
 30
0.0
 11
105.822089
 21
192.742752
 31
0.0
  0
LINE
  5
F8
330
1F
100
AcDbEntity
  8
0
  6
CONTINUOUS
 62
     5
100
AcDbLine
 10
105.822089
 20
192.742752
 30
0.0
 11
105.822089
 21
194.035133
 31
0.0
  0
ARC
  5
F9
330
1F
100
AcDbEntity
  8
0
  6
CONTINUOUS
 62
     5
100
AcDbCircle
 10
105.237835
 20
194.006487
 30
0.0
 40
0.5849556751082106
100
AcDbArc
 50
2.806997
 51
66.545781
  0
LINE
  5
FA
330
1F
100
AcDbEntity
  8
0
  6
CONTINUOUS
 62
     5
100
AcDbLine
 10
102.814289
 20
192.742752
 30
0.0
 11
102.814289
 21
194.603376
 31
0.0
  0
LINE
  5
FB
330
1F
100
AcDbEntity
  8
0
  6
CONTINUOUS
 62
     5
100
AcDbLine
 10
102.814289
 20
194.603376
 30
0.0
 11
101.941649
 21
194.603376
 31
0.0
  0
LINE
  5
FC
330
1F
100
AcDbEntity
  8
0
  6
CONTINUOUS
 62
     5
100
AcDbLine
 10
101.941649
 20
194.603376
 30
0.0
 11
101.941649
 21
192.742752
 31
0.0
  0
LINE
  5
FD
330
1F
100
AcDbEntity
  8
0
  6
CONTINUOUS
 62
     5
100
AcDbLine
 10
101.941649
 20
192.742752
 30
0.0
 11
102.814289
 21
192.742752
 31
0.0
  0
LINE
  5
FE
330
1F
100
AcDbEntity
  8
0
  6
CONTINUOUS
 62
     5
100
AcDbLine
 10
101.941649
 20
195.240144
 30
0.0
 11
101.941649
 21
194.812032
 31
0.0
  0
LINE
  5
FF
330
1F
100
AcDbEntity
  8
0
  6
CONTINUOUS
 62
     5
100
AcDbLine
 10
101.941649
 20
194.812032
 30
0.0
 11
102.814289
 21
194.812032
 31
0.0
  0
LINE
  5
100
330
1F
100
AcDbEntity
  8
0
  6
CONTINUOUS
 62
     5
100
AcDbLine
 10
102.814289
 20
194.812032
 30
0.0
 11
102.814289
 21
195.240144
 31
0.0
  0
LINE
  5
101
330
1F
100
AcDbEntity
  8
0
  6
CONTINUOUS
 62
     5
100
AcDbLine
 10
102.814289
 20
195.240144
 30
0.0
 11
101.941649
 21
195.240144
 31
0.0
  0
LINE
  5
102
330
1F
100
AcDbEntity
  8
0
  6
CONTINUOUS
 62
     5
100
AcDbLine
 10
101.595833
 20
194.806632
 30
0.0
 11
101.595833
 21
195.240144
 31
0.0
  0
LINE
  5
103
330
1F
100
AcDbEntity
  8
0
  6
CONTINUOUS
 62
     5
100
AcDbLine
 10
101.595833
 20
195.240144
 30
0.0
 11
100.876769
 21
195.240144
 31
0.0
  0
ARC
  5
104
330
1F
100
AcDbEntity
  8
0
  6
CONTINUOUS
 62
     5
100
AcDbCircle
 10
100.872346
 20
194.80546
 30
0.0
 40
0.4347067697258611
100
AcDbArc
 50
89.417049
 51
180.0
  0
LINE
  5
105
330
1F
100
AcDbEntity
  8
0
  6
CONTINUOUS
 62
     5
100
AcDbLine
 10
100.437639
 20
194.80546
 30
0.0
 11
100.437641
 21
194.603376
 31
0.0
  0
LINE
  5
106
330
1F
100
AcDbEntity
  8
0
  6
CONTINUOUS
 62
     5
100
AcDbLine
 10
100.437641
 20
194.603376
 30
0.0
 11
100.179737
 21
194.603376
 31
0.0
  0
LINE
  5
107
330
1F
100
AcDbEntity
  8
0
  6
CONTINUOUS
 62
     5
100
AcDbLine
 10
100.179737
 20
194.603376
 30
0.0
 11
100.179737
 21
194.076552
 31
0.0
  0
LINE
  5
108
330
1F
100
AcDbEntity
  8
0
  6
CONTINUOUS
 62
     5
100
AcDbLine
 10
100.179737
 20
194.076552
 30
0.0
 11
100.437641
 21
194.076552
 31
0.0
  0
LINE
  5
109
330
1F
100
AcDbEntity
  8
0
  6
CONTINUOUS
 62
     5
100
AcDbLine
 10
100.437641
 20
194.076552
 30
0.0
 11
100.437641
 21
192.742752
 31
0.0
  0
LINE
  5
10A
330
1F
100
AcDbEntity
  8
0
  6
CONTINUOUS
 62
     5
100
AcDbLine
 10
100.437641
 20
192.742752
 30
0.0
 11
101.299481
 21
192.742752
 31
0.0
  0
LINE
  5
10B
330
1F
100
AcDbEntity
  8
0
  6
CONTINUOUS
 62
     5
100
AcDbLine
 10
101.299481
 20
192.742752
 30
0.0
 11
101.299481
 21
194.076552
 31
0.0
  0
LINE
  5
10C
330
1F
100
AcDbEntity
  8
0
  6
CONTINUOUS
 62
     5
100
AcDbLine
 10
101.299481
 20
194.076552
 30
0.0
 11
101.595833
 21
194.076552
 31
0.0
  0
LINE
  5
10D
330
1F
100
AcDbEntity
  8
0
  6
CONTINUOUS
 62
     5
100
AcDbLine
 10
101.595833
 20
194.076552
 30
0.0
 11
101.595833
 21
194.603376
 31
0.0
  0
LINE
  5
10E
330
1F
100
AcDbEntity
  8
0
  6
CONTINUOUS
 62
     5
100
AcDbLine
 10
101.595833
 20
194.603376
 30
0.0
 11
101.272049
 21
194.603376
 31
0.0
  0
LINE
  5
10F
330
1F
100
AcDbEntity
  8
0
  6
CONTINUOUS
 62
     5
100
AcDbLine
 10
101.272049
 20
194.603376
 30
0.0
 11
101.29514
 21
194.728286
 31
0.0
  0
LINE
  5
110
330
1F
100
AcDbEntity
  8
0
  6
CONTINUOUS
 62
     5
100
AcDbLine
 10
101.29514
 20
194.728286
 30
0.0
 11
101.399767
 21
194.806632
 31
0.0
  0
LINE
  5
111
330
1F
100
AcDbEntity
  8
0
  6
CONTINUOUS
 62
     5
100
AcDbLine
 10
101.399767
 20
194.806632
 30
0.0
 11
101.595833
 21
194.806632
 31
0.0
  0
ARC
  5
112
330
1F
100
AcDbEntity
  8
0
  6
CONTINUOUS
 62
     5
100
AcDbCircle
 10
-113.053771
 20
193.773834
 30
0.0
 40
0.2393323797024598
210
0.0
220
0.0
230
-1.0
100
AcDbArc
 50
0.231345
 51
174.537671
  0
LINE
  5
113
330
1F
100
AcDbEntity
  8
0
  6
CONTINUOUS
 62
     5
100
AcDbLine
 10
113.292017
 20
193.796616
 30
0.0
 11
113.292017
 21
193.681488
 31
0.0
  0
LINE
  5
114
330
1F
100
AcDbEntity
  8
0
  6
CONTINUOUS
 62
     5
100
AcDbLine
 10
113.292017
 20
193.681488
 30
0.0
 11
114.170057
 21
193.681488
 31
0.0
  0
SPLINE
  5
115
330
1F
100
AcDbEntity
  8
0
  6
CONTINUOUS
 62
     5
100
AcDbSpline
210
0.0
220
0.0
230
1.0
 70
     8
 71
     3
 72
    18
 73
    14
 74
     0
 42
0.0
 43
0.0
 40
0.0
 40
0.0
 40
0.0
 40
0.0
 40
0.5862226539464359
 40
1.937079048978856
 40
2.725655614697113
 40
3.510357468906729
 40
4.33775157089199
 40
5.29538250188785
 40
6.222921719387574
 40
7.036306007408925
 40
8.367711655586822
 40
9.276897005226814
 40
9.643276589810892
 40
9.643276589810892
 40
9.643276589810892
 40
9.643276589810892
 10
114.1700568315946
 20
193.6814884017755
 30
0.0
 10
114.1757912507614
 20
193.7233050769759
 30
0.0
 10
114.1881644842887
 20
193.862497437572
 30
0.0
 10
114.1716596658953
 20
194.0595699977776
 30
0.0
 10
114.122364609957
 20
194.2653707378753
 30
0.0
 10
114.0387318376435
 20
194.4193462150784
 30
0.0
 10
113.8999473261019
 20
194.5488063445083
 30
0.0
 10
113.7121124752956
 20
194.6136810568256
 30
0.0
 10
113.5201669022788
 20
194.6482187621692
 30
0.0
 10
113.2980644016806
 20
194.6387031169356
 30
0.0
 10
113.0807739185768
 20
194.5907991928948
 30
0.0
 10
112.9124092411536
 20
194.5049872914695
 30
0.0
 10
112.8358708124799
 20
194.4541670210341
 30
0.0
 10
112.8144408315946
 20
194.4387844017755
 30
0.0
  0
LINE
  5
116
330
1F
100
AcDbEntity
  8
0
  6
CONTINUOUS
 62
     5
100
AcDbLine
 10
112.814441
 20
194.438784
 30
0.0
 11
112.814441
 21
194.603376
 31
0.0
  0
LINE
  5
117
330
1F
100
AcDbEntity
  8
0
  6
CONTINUOUS
 62
     5
100
AcDbLine
 10
112.814441
 20
194.603376
 30
0.0
 11
111.985649
 21
194.603376
 31
0.0
  0
LINE
  5
118
330
1F
100
AcDbEntity
  8
0
  6
CONTINUOUS
 62
     5
100
AcDbLine
 10
111.985649
 20
194.603376
 30
0.0
 11
111.985649
 21
192.742752
 31
0.0
  0
LINE
  5
119
330
1F
100
AcDbEntity
  8
0
  6
CONTINUOUS
 62
     5
100
AcDbLine
 10
111.985649
 20
192.742752
 30
0.0
 11
112.814441
 21
192.742752
 31
0.0
  0
LINE
  5
11A
330
1F
100
AcDbEntity
  8
0
  6
CONTINUOUS
 62
     5
100
AcDbLine
 10
112.814441
 20
192.742752
 30
0.0
 11
112.814441
 21
193.7748
 31
0.0
  0
ARC
  5
11B
330
1F
100
AcDbEntity
  8
0
  6
CONTINUOUS
 62
     5
100
AcDbCircle
 10
-110.433103
 20
193.776463
 30
0.0
 40
0.6029953992722756
210
0.0
220
0.0
230
-1.0
100
AcDbArc
 50
227.758223
 51
334.480407
  0
LINE
  5
11C
330
1F
100
AcDbEntity
  8
0
  6
CONTINUOUS
 62
     5
100
AcDbLine
 10
109.888937
 20
193.51668
 30
0.0
 11
110.218337
 21
193.51668
 31
0.0
  0
LINE
  5
11D
330
1F
100
AcDbEntity
  8
0
  6
CONTINUOUS
 62
     5
100
AcDbLine
 10
110.267801
 20
193.51668
 30
0.0
 11
111.733145
 21
193.522296
 31
0.0
  0
SPLINE
  5
11E
330
1F
100
AcDbEntity
  8
0
  6
CONTINUOUS
 62
     5
100
AcDbSpline
210
0.0
220
0.0
230
1.0
 70
     8
 71
     3
 72
    41
 73
    37
 74
     0
 42
0.0
 43
0.0
 40
0.0
 40
0.0
 40
0.0
 40
0.0
 40
0.3630440744592747
 40
1.791700086240979
 40
2.820865281921449
 40
3.849931363375884
 40
4.856790340591665
 40
5.83759868068671
 40
6.970581469611588
 40
8.29123736726245
 40
9.767247191077999
 40
11.3455465923324
 40
12.80086580130341
 40
14.00866255572859
 40
15.04597687646266
 40
15.94689418676366
 40
16.84554205995983
 40
17.75377991426894
 40
18.72405101040651
 40
19.59393433591632
 40
20.2929722326603
 40
21.13632971514732
 40
21.79231523328016
 40
22.79782107612743
 40
23.68135899268789
 40
25.22006762332594
 40
26.40656246107282
 40
27.65394131290573
 40
29.43754020279101
 40
31.10758122025136
 40
31.88123876723194
 40
32.57478040260793
 40
33.22571281077332
 40
33.82134105053366
 40
34.4354371342209
 40
35.07059774383078
 40
35.07059774383078
 40
35.07059774383078
 40
35.07059774383078
 10
111.7331448315946
 20
193.5222964017755
 30
0.0
 10
111.7401481315939
 20
193.5474799315742
 30
0.0
 10
111.7681868247412
 20
193.6740007638659
 30
0.0
 10
111.7375546494618
 20
193.8817774400356
 30
0.0
 10
111.6531342304761
 20
194.1182116969543
 30
0.0
 10
111.5331645978304
 20
194.3068782397862
 30
0.0
 10
111.3710640049478
 20
194.4541692490214
 30
0.0
 10
111.1779790126178
 20
194.5720204431796
 30
0.0
 10
110.9420407763592
 20
194.6508190658132
 30
0.0
 10
110.6636959595024
 20
194.7057604701615
 30
0.0
 10
110.3480619991418
 20
194.7185233692482
 30
0.0
 10
110.0230610594405
 20
194.7006709886586
 30
0.0
 10
109.7230650336088
 20
194.6379314830801
 30
0.0
 10
109.4723655317272
 20
194.5419614887795
 30
0.0
 10
109.2864628670872
 20
194.4078662817143
 30
0.0
 10
109.1536472569335
 20
194.2505842315666
 30
0.0
 10
109.0600857757776
 20
194.0782569133831
 30
0.0
 10
108.9973322092691
 20
193.8871321488909
 30
0.0
 10
108.9762045057695
 20
193.6887683875413
 30
0.0
 10
108.9965497610857
 20
193.5053320362816
 30
0.0
 10
109.0527005679676
 20
193.3404400393842
 30
0.0
 10
109.120262952943
 20
193.196279367315
 30
0.0
 10
109.2269161855018
 20
193.0505245673558
 30
0.0
 10
109.3539779759034
 20
192.9151038190598
 30
0.0
 10
109.5727948298849
 20
192.7965177546034
 30
0.0
 10
109.8182824408584
 20
192.7071043478583
 30
0.0
 10
110.1015375873741
 20
192.6614562778209
 30
0.0
 10
110.4051445944201
 20
192.6415516398576
 30
0.0
 10
110.7432826266718
 20
192.6684312105261
 30
0.0
 10
111.0442539673304
 20
192.7293526468672
 30
0.0
 10
111.2509008915029
 20
192.8216063806301
 30
0.0
 10
111.3872570130063
 20
192.8906530096938
 30
0.0
 10
111.4976668332549
 20
192.9783124583367
 30
0.0
 10
111.582987737819
 20
193.0823359686125
 30
0.0
 10
111.6514051452006
 20
193.1972094994764
 30
0.0
 10
111.6763170256694
 20
193.2849216003658
 30
0.0
 10
111.6836808315946
 20
193.3300564017755
 30
0.0
  0
LINE
  5
11F
330
1F
100
AcDbEntity
  8
0
  6
CONTINUOUS
 62
     5
100
AcDbLine
 10
111.683681
 20
193.330056
 30
0.0
 11
110.838473
 21
193.330056
 31
0.0
  0
SPLINE
  5
120
330
1F
100
AcDbEntity
  8
0
  6
CONTINUOUS
 62
     5
100
AcDbSpline
210
0.0
220
0.0
230
1.0
 70
     8
 71
     3
 72
    16
 73
    12
 74
     0
 42
0.0
 43
0.0
 40
0.0
 40
0.0
 40
0.0
 40
0.0
 40
0.5474303608679332
 40
1.248433213929174
 40
1.669148378856708
 40
2.089863543784241
 40
2.533741905500601
 40
3.889403367665844
 40
4.652346353740162
 40
5.302653973255724
 40
5.802071634136879
 40
5.802071634136879
 40
5.802071634136879
 40
5.802071634136879
 10
109.8889368315946
 20
193.9173604017755
 30
0.0
 10
109.8974280065329
 20
193.9558498947335
 30
0.0
 10
109.9316049983352
 20
194.0405111793491
 30
0.0
 10
110.0162390993614
 20
194.1327839327662
 30
0.0
 10
110.1179033162791
 20
194.1784552156913
 30
0.0
 10
110.1953216133273
 20
194.2313312317883
 30
0.0
 10
110.3548491625176
 20
194.2613950921155
 30
0.0
 10
110.5455239889743
 20
194.2425326768474
 30
0.0
 10
110.7226419118413
 20
194.1440842419904
 30
0.0
 10
110.8147948310208
 20
194.0358496757819
 30
0.0
 10
110.8357312073875
 20
193.9532138034092
 30
0.0
 10
110.8384728315946
 20
193.9173604017755
 30
0.0
  0
LINE
  5
121
330
1F
100
AcDbEntity
  8
0
  6
CONTINUOUS
 62
     5
100
AcDbLine
 10
110.838473
 20
193.91736
 30
0.0
 11
110.267801
 21
193.91736
 31
0.0
  0
LINE
  5
122
330
1F
100
AcDbEntity
  8
0
  6
CONTINUOUS
 62
     5
100
AcDbLine
 10
110.267801
 20
193.91736
 30
0.0
 11
109.888937
 21
193.91736
 31
0.0
  0
LINE
  5
123
330
1F
100
AcDbEntity
  8
0
  6
CONTINUOUS
 62
     5
100
AcDbLine
 10
100.935597
 20
124.690786
 30
0.0
 11
100.935597
 21
125.446203
 31
0.0
  0
ARC
  5
124
330
1F
100
AcDbEntity
  8
0
  6
CONTINUOUS
 62
     5
100
AcDbCircle
 10
-100.685597
 20
127.178254
 30
0.0
 40
1.749999999999972
210
0.0
220
0.0
230
-1.0
100
AcDbArc
 50
261.786789
 51
98.213211
  0
LINE
  5
125
330
1F
100
AcDbEntity
  8
0
  6
CONTINUOUS
 62
     5
100
AcDbLine
 10
100.935597
 20
128.910305
 30
0.0
 11
100.935596
 21
129.665723
 31
0.0
  0
ARC
  5
126
330
1F
100
AcDbEntity
  8
0
  6
CONTINUOUS
 62
     5
100
AcDbCircle
 10
100.685597
 20
127.178254
 30
0.0
 40
2.499999999999982
100
AcDbArc
 50
84.260838
 51
275.73917
  0
LINE
  5
127
330
1F
100
AcDbEntity
  8
0
  6
CONTINUOUS
 62
     5
100
AcDbLine
 10
105.185597
 20
124.690786
 30
0.0
 11
105.185597
 21
125.446203
 31
0.0
  0
ARC
  5
128
330
1F
100
AcDbEntity
  8
0
  6
CONTINUOUS
 62
     5
100
AcDbCircle
 10
-104.935597
 20
127.178254
 30
0.0
 40
1.750000000000005
210
0.0
220
0.0
230
-1.0
100
AcDbArc
 50
261.786787
 51
347.626375
  0
LINE
  5
129
330
1F
100
AcDbEntity
  8
0
  6
CONTINUOUS
 62
     5
100
AcDbLine
 10
103.226247
 20
126.803254
 30
0.0
 11
104.685597
 21
126.803254
 31
0.0
  0
LINE
  5
12A
330
1F
100
AcDbEntity
  8
0
  6
CONTINUOUS
 62
     5
100
AcDbLine
 10
104.685597
 20
126.803254
 30
0.0
 11
104.685597
 21
127.553254
 31
0.0
  0
LINE
  5
12B
330
1F
100
AcDbEntity
  8
0
  6
CONTINUOUS
 62
     5
100
AcDbLine
 10
104.685597
 20
127.553254
 30
0.0
 11
103.226247
 21
127.553254
 31
0.0
  0
ARC
  5
12C
330
1F
100
AcDbEntity
  8
0
  6
CONTINUOUS
 62
     5
100
AcDbCircle
 10
-104.935597
 20
127.178254
 30
0.0
 40
1.749999999999989
210
0.0
220
0.0
230
-1.0
100
AcDbArc
 50
12.373619
 51
98.213211
  0
LINE
  5
12D
330
1F
100
AcDbEntity
  8
0
  6
CONTINUOUS
 62
     5
100
AcDbLine
 10
105.185597
 20
128.910305
 30
0.0
 11
105.185597
 21
129.665723
 31
0.0
  0
ARC
  5
12E
330
1F
100
AcDbEntity
  8
0
  6
CONTINUOUS
 62
     5
100
AcDbCircle
 10
104.935597
 20
127.178254
 30
0.0
 40
2.499999999999953
100
AcDbArc
 50
84.26083
 51
275.73917
  0
LINE
  5
12F
330
1F
100
AcDbEntity
  8
0
  6
CONTINUOUS
 62
     5
100
AcDbLine
 10
164.717487
 20
133.012557
 30
0.0
 11
164.717487
 21
188.512557
 31
0.0
  0
LINE
  5
130
330
1F
100
AcDbEntity
  8
0
  6
CONTINUOUS
 62
     6
100
AcDbLine
 10
68.417487
 20
123.362553
 30
0.0
 11
68.417487
 21
131.012557
 31
0.0
  0
LINE
  5
131
330
1F
100
AcDbEntity
  8
0
  6
CONTINUOUS
 62
     6
100
AcDbLine
 10
72.717487
 20
140.762553
 30
0.0
 11
68.417488
 21
140.762553
 31
0.0
  0
LINE
  5
132
330
1F
100
AcDbEntity
  8
0
  6
CONTINUOUS
 62
     6
100
AcDbLine
 10
68.417488
 20
180.762562
 30
0.0
 11
72.717487
 21
180.762562
 31
0.0
  0
LINE
  5
133
330
1F
100
AcDbEntity
  8
0
  6
CONTINUOUS
 62
     6
100
AcDbLine
 10
68.417487
 20
133.012557
 30
0.0
 11
68.417487
 21
140.762553
 31
0.0
  0
LINE
  5
134
330
1F
100
AcDbEntity
  8
0
  6
CONTINUOUS
 62
     6
100
AcDbLine
 10
68.417487
 20
180.762562
 30
0.0
 11
68.417487
 21
188.512557
 31
0.0
  0
LINE
  5
135
330
1F
100
AcDbEntity
  8
0
  6
CONTINUOUS
 62
     4
100
AcDbLine
 10
166.717487
 20
180.512557
 30
0.0
 11
166.717487
 21
189.012557
 31
0.0
  0
ARC
  5
136
330
1F
100
AcDbEntity
  8
0
  6
CONTINUOUS
 62
     4
100
AcDbCircle
 10
165.217487
 20
189.012557
 30
0.0
 40
1.5
100
AcDbArc
 50
0.0
 51
90.0
  0
LINE
  5
137
330
1F
100
AcDbEntity
  8
0
  6
CONTINUOUS
 62
     4
100
AcDbLine
 10
165.217487
 20
190.512557
 30
0.0
 11
135.717487
 21
190.512557
 31
0.0
  0
ARC
  5
138
330
1F
100
AcDbEntity
  8
0
  6
CONTINUOUS
 62
     4
100
AcDbCircle
 10
-134.217487
 20
122.862553
 30
0.0
 40
1.499999999999993
210
0.0
220
0.0
230
-1.0
100
AcDbArc
 50
180.0
 51
270.0
  0
LINE
  5
139
330
1F
100
AcDbEntity
  8
0
  6
CONTINUOUS
 62
     4
100
AcDbLine
 10
135.717487
 20
122.862553
 30
0.0
 11
135.717487
 21
123.362553
 31
0.0
  0
LINE
  5
13A
330
1F
100
AcDbEntity
  8
0
  6
CONTINUOUS
 62
     4
100
AcDbLine
 10
135.717487
 20
131.012557
 30
0.0
 11
135.717487
 21
123.362553
 31
0.0
  0
LINE
  5
13B
330
1F
100
AcDbEntity
  8
0
  6
CONTINUOUS
 62
     5
100
AcDbLine
 10
68.417487
 20
123.362553
 30
0.0
 11
135.517487
 21
123.362553
 31
0.0
  0
LINE
  5
13C
330
1F
100
AcDbEntity
  8
0
  6
CONTINUOUS
 62
     5
100
AcDbLine
 10
135.517487
 20
131.012557
 30
0.0
 11
135.717487
 21
131.012557
 31
0.0
  0
LINE
  5
13D
330
1F
100
AcDbEntity
  8
0
  6
CONTINUOUS
 62
     5
100
AcDbLine
 10
135.517487
 20
123.362553
 30
0.0
 11
135.717487
 21
123.362553
 31
0.0
  0
LINE
  5
13E
330
1F
100
AcDbEntity
  8
0
  6
CONTINUOUS
 62
     4
100
AcDbLine
 10
135.717487
 20
131.012557
 30
0.0
 11
165.217487
 21
131.012557
 31
0.0
  0
ARC
  5
13F
330
1F
100
AcDbEntity
  8
0
  6
CONTINUOUS
 62
     4
100
AcDbCircle
 10
-165.217487
 20
132.512557
 30
0.0
 40
1.5
210
0.0
220
0.0
230
-1.0
100
AcDbArc
 50
180.0
 51
270.0
  0
LINE
  5
140
330
1F
100
AcDbEntity
  8
0
  6
CONTINUOUS
 62
     4
100
AcDbLine
 10
166.717487
 20
141.012557
 30
0.0
 11
166.717487
 21
132.512557
 31
0.0
  0
LINE
  5
141
330
1F
100
AcDbEntity
  8
0
  6
CONTINUOUS
 62
     4
100
AcDbLine
 10
135.717487
 20
198.662552
 30
0.0
 11
135.717487
 21
198.162555
 31
0.0
  0
ARC
  5
142
330
1F
100
AcDbEntity
  8
0
  6
CONTINUOUS
 62
     4
100
AcDbCircle
 10
134.217487
 20
198.662552
 30
0.0
 40
1.5
100
AcDbArc
 50
0.0
 51
90.0
  0
LINE
  5
143
330
1F
100
AcDbEntity
  8
0
  6
CONTINUOUS
 62
     4
100
AcDbLine
 10
135.717487
 20
198.162555
 30
0.0
 11
135.717487
 21
190.512557
 31
0.0
  0
LINE
  5
144
330
1F
100
AcDbEntity
  8
0
  6
CONTINUOUS
 62
     5
100
AcDbLine
 10
135.517487
 20
198.162555
 30
0.0
 11
135.717487
 21
198.162555
 31
0.0
  0
LINE
  5
145
330
1F
100
AcDbEntity
  8
0
  6
CONTINUOUS
 62
     5
100
AcDbLine
 10
135.517487
 20
190.512557
 30
0.0
 11
135.717487
 21
190.512557
 31
0.0
  0
LINE
  5
146
330
1F
100
AcDbEntity
  8
0
  6
CONTINUOUS
 62
     6
100
AcDbLine
 10
75.217486
 20
129.512557
 30
0.0
 11
75.217486
 21
131.012557
 31
0.0
  0
LINE
  5
147
330
1F
100
AcDbEntity
  8
0
  6
CONTINUOUS
 62
     6
100
AcDbLine
 10
75.217486
 20
131.012557
 30
0.0
 11
75.217486
 21
133.012557
 31
0.0
  0
LINE
  5
148
330
1F
100
AcDbEntity
  8
0
  6
CONTINUOUS
 62
     6
100
AcDbLine
 10
75.217486
 20
133.012557
 30
0.0
 11
75.217486
 21
134.512557
 31
0.0
  0
LINE
  5
149
330
1F
100
AcDbEntity
  8
0
  6
CONTINUOUS
 62
     6
100
AcDbLine
 10
75.217486
 20
187.012557
 30
0.0
 11
75.217486
 21
188.512557
 31
0.0
  0
LINE
  5
14A
330
1F
100
AcDbEntity
  8
0
  6
CONTINUOUS
 62
     6
100
AcDbLine
 10
75.217486
 20
188.512557
 30
0.0
 11
75.217486
 21
190.312557
 31
0.0
  0
LINE
  5
14B
330
1F
100
AcDbEntity
  8
0
  6
CONTINUOUS
 62
     6
100
AcDbLine
 10
75.217486
 20
190.312557
 30
0.0
 11
75.217486
 21
190.512557
 31
0.0
  0
LINE
  5
14C
330
1F
100
AcDbEntity
  8
0
  6
CONTINUOUS
 62
     6
100
AcDbLine
 10
75.217486
 20
190.512557
 30
0.0
 11
75.217486
 21
192.012557
 31
0.0
  0
LINE
  5
14D
330
1F
100
AcDbEntity
  8
0
  6
CONTINUOUS
 62
     5
100
AcDbLine
 10
164.717487
 20
188.512557
 30
0.0
 11
75.217486
 21
188.512557
 31
0.0
  0
LINE
  5
14E
330
1F
100
AcDbEntity
  8
0
  6
CONTINUOUS
 62
     5
100
AcDbLine
 10
75.217486
 20
133.012557
 30
0.0
 11
164.717487
 21
133.012557
 31
0.0
  0
LINE
  5
14F
330
1F
100
AcDbEntity
  8
0
  6
CONTINUOUS
 62
     5
100
AcDbLine
 10
135.517487
 20
131.012557
 30
0.0
 11
75.217486
 21
131.012557
 31
0.0
  0
LINE
  5
150
330
1F
100
AcDbEntity
  8
0
  6
CONTINUOUS
 62
     5
100
AcDbLine
 10
75.217486
 20
190.512557
 30
0.0
 11
135.517487
 21
190.512557
 31
0.0
  0
LINE
  5
151
330
1F
100
AcDbEntity
  8
0
  6
CONTINUOUS
 62
     6
100
AcDbLine
 10
72.717486
 20
134.512557
 30
0.0
 11
72.717486
 21
133.012557
 31
0.0
  0
LINE
  5
152
330
1F
100
AcDbEntity
  8
0
  6
CONTINUOUS
 62
     6
100
AcDbLine
 10
72.717486
 20
133.012557
 30
0.0
 11
72.717486
 21
131.012557
 31
0.0
  0
LINE
  5
153
330
1F
100
AcDbEntity
  8
0
  6
CONTINUOUS
 62
     6
100
AcDbLine
 10
72.717486
 20
131.012557
 30
0.0
 11
72.717486
 21
129.512557
 31
0.0
  0
LINE
  5
154
330
1F
100
AcDbEntity
  8
0
  6
CONTINUOUS
 62
     6
100
AcDbLine
 10
72.717486
 20
192.012557
 30
0.0
 11
72.717486
 21
190.512557
 31
0.0
  0
LINE
  5
155
330
1F
100
AcDbEntity
  8
0
  6
CONTINUOUS
 62
     6
100
AcDbLine
 10
72.717486
 20
190.512557
 30
0.0
 11
72.717486
 21
188.512557
 31
0.0
  0
LINE
  5
156
330
1F
100
AcDbEntity
  8
0
  6
CONTINUOUS
 62
     6
100
AcDbLine
 10
72.717486
 20
188.512557
 30
0.0
 11
72.717486
 21
187.012557
 31
0.0
  0
LINE
  5
157
330
1F
100
AcDbEntity
  8
0
  6
CONTINUOUS
 62
     6
100
AcDbLine
 10
72.717486
 20
134.512557
 30
0.0
 11
75.217486
 21
134.512557
 31
0.0
  0
LINE
  5
158
330
1F
100
AcDbEntity
  8
0
  6
CONTINUOUS
 62
     6
100
AcDbLine
 10
72.717486
 20
187.012557
 30
0.0
 11
75.217486
 21
187.012557
 31
0.0
  0
LINE
  5
159
330
1F
100
AcDbEntity
  8
0
  6
CONTINUOUS
 62
     6
100
AcDbLine
 10
72.717486
 20
129.512557
 30
0.0
 11
75.217486
 21
129.512557
 31
0.0
  0
LINE
  5
15A
330
1F
100
AcDbEntity
  8
0
  6
CONTINUOUS
 62
     6
100
AcDbLine
 10
72.717486
 20
192.012557
 30
0.0
 11
75.217486
 21
192.012557
 31
0.0
  0
LINE
  5
15B
330
1F
100
AcDbEntity
  8
0
  6
CONTINUOUS
 62
     5
100
AcDbLine
 10
68.417487
 20
133.012557
 30
0.0
 11
72.717486
 21
133.012557
 31
0.0
  0
LINE
  5
15C
330
1F
100
AcDbEntity
  8
0
  6
CONTINUOUS
 62
     5
100
AcDbLine
 10
68.417487
 20
188.512557
 30
0.0
 11
72.717486
 21
188.512557
 31
0.0
  0
LINE
  5
15D
330
1F
100
AcDbEntity
  8
0
  6
CONTINUOUS
 62
     5
100
AcDbLine
 10
68.417487
 20
131.012557
 30
0.0
 11
72.717486
 21
131.012557
 31
0.0
  0
LINE
  5
15E
330
1F
100
AcDbEntity
  8
0
  6
CONTINUOUS
 62
     6
100
AcDbLine
 10
74.717487
 20
163.262557
 30
0.0
 11
74.717487
 21
158.262557
 31
0.0
  0
LINE
  5
15F
330
1F
100
AcDbEntity
  8
0
  6
CONTINUOUS
 62
     6
100
AcDbLine
 10
72.717487
 20
140.762553
 30
0.0
 11
72.717487
 21
180.762562
 31
0.0
  0
LINE
  5
160
330
1F
100
AcDbEntity
  8
0
  6
CONTINUOUS
 62
     6
100
AcDbLine
 10
77.217487
 20
158.262557
 30
0.0
 11
77.217487
 21
163.262557
 31
0.0
  0
LINE
  5
161
330
1F
100
AcDbEntity
  8
0
  6
CONTINUOUS
 62
     6
100
AcDbLine
 10
74.717487
 20
163.262557
 30
0.0
 11
77.217487
 21
163.262557
 31
0.0
  0
LINE
  5
162
330
1F
100
AcDbEntity
  8
0
  6
CONTINUOUS
 62
     6
100
AcDbLine
 10
74.717487
 20
158.262557
 30
0.0
 11
77.217487
 21
158.262557
 31
0.0
  0
LINE
  5
163
330
1F
100
AcDbEntity
  8
0
  6
CONTINUOUS
 62
     4
100
AcDbLine
 10
134.217487
 20
121.362553
 30
0.0
 11
68.417487
 21
121.362553
 31
0.0
  0
LINE
  5
164
330
1F
100
AcDbEntity
  8
0
  6
CONTINUOUS
 62
     4
100
AcDbLine
 10
134.217487
 20
200.162552
 30
0.0
 11
70.105812
 21
200.162552
 31
0.0
  0
LINE
  5
165
330
1F
100
AcDbEntity
  8
0
  6
CONTINUOUS
 62
     6
100
AcDbLine
 10
70.105812
 20
200.162552
 30
0.0
 11
70.070547
 21
199.962552
 31
0.0
  0
LINE
  5
166
330
1F
100
AcDbEntity
  8
0
  6
CONTINUOUS
 62
     6
100
AcDbLine
 10
68.404657
 20
190.514819
 30
0.0
 11
69.753159
 21
198.162555
 31
0.0
  0
LINE
  5
167
330
1F
100
AcDbEntity
  8
0
  6
CONTINUOUS
 62
     5
100
AcDbLine
 10
135.517487
 20
198.162555
 30
0.0
 11
69.753159
 21
198.162555
 31
0.0
  0
LINE
  5
168
330
1F
100
AcDbEntity
  8
0
  6
CONTINUOUS
 62
     5
100
AcDbLine
 10
72.717486
 20
190.512557
 30
0.0
 11
68.404657
 21
190.514394
 31
0.0
  0
LINE
  5
169
330
1F
100
AcDbEntity
  8
0
  6
CONTINUOUS
 62
     5
100
AcDbLine
 10
164.717487
 20
157.762557
 30
0.0
 11
165.417487
 21
157.762557
 31
0.0
  0
LINE
  5
16A
330
1F
100
AcDbEntity
  8
0
  6
CONTINUOUS
 62
     5
100
AcDbLine
 10
165.417487
 20
157.762557
 30
0.0
 11
165.417487
 21
155.262557
 31
0.0
  0
LINE
  5
16B
330
1F
100
AcDbEntity
  8
0
  6
CONTINUOUS
 62
     5
100
AcDbLine
 10
164.717487
 20
155.262557
 30
0.0
 11
165.417487
 21
155.262557
 31
0.0
  0
LINE
  5
16C
330
1F
100
AcDbEntity
  8
0
  6
CONTINUOUS
 62
     4
100
AcDbLine
 10
166.717487
 20
141.012557
 30
0.0
 11
166.717487
 21
180.512557
 31
0.0
  0
LINE
  5
16D
330
1F
100
AcDbEntity
  8
0
  6
CONTINUOUS
 62
     4
100
AcDbLine
 10
70.717486
 20
177.762553
 30
0.0
 11
70.267486
 21
175.762553
 31
0.0
  0
LINE
  5
16E
330
1F
100
AcDbEntity
  8
0
  6
CONTINUOUS
 62
     4
100
AcDbLine
 10
70.267486
 20
175.762553
 30
0.0
 11
70.717486
 21
173.762553
 31
0.0
  0
LINE
  5
16F
330
1F
100
AcDbEntity
  8
0
  6
CONTINUOUS
 62
     4
100
AcDbLine
 10
72.717488
 20
121.362553
 30
0.0
 11
72.717488
 21
120.262553
 31
0.0
  0
LINE
  5
170
330
1F
100
AcDbEntity
  8
0
  6
CONTINUOUS
 62
     4
100
AcDbLine
 10
66.417486
 20
120.262553
 30
0.0
 11
72.717488
 21
120.262553
 31
0.0
  0
LINE
  5
171
330
1F
100
AcDbEntity
  8
0
  6
CONTINUOUS
 62
     5
100
AcDbLine
 10
73.217486
 20
129.512557
 30
0.0
 11
73.217486
 21
134.512557
 31
0.0
  0
LINE
  5
172
330
1F
100
AcDbEntity
  8
0
  6
CONTINUOUS
 62
     5
100
AcDbLine
 10
75.217487
 20
158.262557
 30
0.0
 11
75.217487
 21
163.262557
 31
0.0
  0
LINE
  5
173
330
1F
100
AcDbEntity
  8
0
  6
CONTINUOUS
 62
     5
100
AcDbLine
 10
73.217486
 20
187.012557
 30
0.0
 11
73.217486
 21
192.012557
 31
0.0
  0
LINE
  5
174
330
1F
100
AcDbEntity
  8
0
  6
CONTINUOUS
 62
     4
100
AcDbLine
 10
70.717487
 20
178.262553
 30
0.0
 11
69.383512
 21
178.262553
 31
0.0
  0
LINE
  5
175
330
1F
100
AcDbEntity
  8
0
  6
CONTINUOUS
 62
     4
100
AcDbLine
 10
69.383512
 20
178.262553
 30
0.0
 11
68.981588
 21
176.762553
 31
0.0
  0
LINE
  5
176
330
1F
100
AcDbEntity
  8
0
  6
CONTINUOUS
 62
     4
100
AcDbLine
 10
68.981588
 20
176.762553
 30
0.0
 11
67.572187
 21
176.762553
 31
0.0
  0
LINE
  5
177
330
1F
100
AcDbEntity
  8
0
  6
CONTINUOUS
 62
     4
100
AcDbLine
 10
67.572187
 20
176.762553
 30
0.0
 11
66.417487
 21
178.762553
 31
0.0
  0
LINE
  5
178
330
1F
100
AcDbEntity
  8
0
  6
CONTINUOUS
 62
     4
100
AcDbLine
 10
66.417487
 20
178.762553
 30
0.0
 11
66.417487
 21
190.762553
 31
0.0
  0
LINE
  5
179
330
1F
100
AcDbEntity
  8
0
  6
CONTINUOUS
 62
     6
100
AcDbLine
 10
68.417487
 20
190.587581
 30
0.0
 11
68.417487
 21
188.512557
 31
0.0
  0
LINE
  5
17A
330
1F
100
AcDbEntity
  8
0
  6
CONTINUOUS
 62
     5
100
AcDbLine
 10
67.217486
 20
142.762553
 30
0.0
 11
70.717486
 21
142.762553
 31
0.0
  0
LINE
  5
17B
330
1F
100
AcDbEntity
  8
0
  6
CONTINUOUS
 62
     4
100
AcDbLine
 10
70.717486
 20
144.462554
 30
0.0
 11
70.717487
 21
173.762553
 31
0.0
  0
LINE
  5
17C
330
1F
100
AcDbEntity
  8
0
  6
CONTINUOUS
 62
     4
100
AcDbLine
 10
66.417486
 20
121.362553
 30
0.0
 11
66.417486
 21
120.262553
 31
0.0
  0
LINE
  5
17D
330
1F
100
AcDbEntity
  8
0
  6
CONTINUOUS
 62
     6
100
AcDbLine
 10
66.417486
 20
121.362553
 30
0.0
 11
68.417487
 21
121.362553
 31
0.0
  0
LINE
  5
17E
330
1F
100
AcDbEntity
  8
0
  6
CONTINUOUS
 62
     4
100
AcDbLine
 10
70.105812
 20
200.162552
 30
0.0
 11
68.07496
 21
200.162552
 31
0.0
  0
LINE
  5
17F
330
1F
100
AcDbEntity
  8
0
  6
CONTINUOUS
 62
     4
100
AcDbLine
 10
66.417486
 20
142.762553
 30
0.0
 11
66.417486
 21
121.562553
 31
0.0
  0
LINE
  5
180
330
1F
100
AcDbEntity
  8
0
  6
CONTINUOUS
 62
     6
100
AcDbLine
 10
68.417487
 20
123.362553
 30
0.0
 11
68.417487
 21
121.562553
 31
0.0
  0
LINE
  5
181
330
1F
100
AcDbEntity
  8
0
  6
CONTINUOUS
 62
     6
100
AcDbLine
 10
68.417487
 20
133.012557
 30
0.0
 11
68.417487
 21
131.012557
 31
0.0
  0
LINE
  5
182
330
1F
100
AcDbEntity
  8
0
  6
CONTINUOUS
 62
     6
100
AcDbLine
 10
69.753159
 20
198.162555
 30
0.0
 11
70.07161
 21
199.968583
 31
0.0
  0
LINE
  5
183
330
1F
100
AcDbEntity
  8
0
  6
CONTINUOUS
 62
     4
100
AcDbLine
 10
66.417487
 20
190.762553
 30
0.0
 11
68.07496
 21
200.162552
 31
0.0
  0
LINE
  5
184
330
1F
100
AcDbEntity
  8
0
  6
CONTINUOUS
 62
     4
100
AcDbLine
 10
66.417486
 20
121.562553
 30
0.0
 11
66.417486
 21
121.362553
 31
0.0
  0
LINE
  5
185
330
1F
100
AcDbEntity
  8
0
  6
CONTINUOUS
 62
     6
100
AcDbLine
 10
68.417487
 20
121.562553
 30
0.0
 11
68.417487
 21
121.362553
 31
0.0
  0
LINE
  5
186
330
1F
100
AcDbEntity
  8
0
  6
CONTINUOUS
 62
     5
100
AcDbLine
 10
68.617486
 20
142.762553
 30
0.0
 11
68.617486
 21
143.537516
 31
0.0
  0
LINE
  5
187
330
1F
100
AcDbEntity
  8
0
  6
CONTINUOUS
 62
     5
100
AcDbLine
 10
70.717486
 20
143.537516
 30
0.0
 11
68.617486
 21
143.537516
 31
0.0
  0
LINE
  5
188
330
1F
100
AcDbEntity
  8
0
  6
CONTINUOUS
 62
     4
100
AcDbLine
 10
70.717486
 20
113.912539
 30
0.0
 11
70.717486
 21
114.337293
 31
0.0
  0
LINE
  5
189
330
1F
100
AcDbEntity
  8
0
  6
CONTINUOUS
 62
     4
100
AcDbLine
 10
70.717486
 20
114.337293
 30
0.0
 11
70.717486
 21
115.412539
 31
0.0
  0
LINE
  5
18A
330
1F
100
AcDbEntity
  8
0
  6
CONTINUOUS
 62
     4
100
AcDbLine
 10
70.717486
 20
115.412539
 30
0.0
 11
70.717486
 21
116.212539
 31
0.0
  0
LINE
  5
18B
330
1F
100
AcDbEntity
  8
0
  6
CONTINUOUS
 62
     4
100
AcDbLine
 10
66.917486
 20
113.912539
 30
0.0
 11
66.917486
 21
114.337293
 31
0.0
  0
LINE
  5
18C
330
1F
100
AcDbEntity
  8
0
  6
CONTINUOUS
 62
     5
100
AcDbLine
 10
70.717486
 20
114.337293
 30
0.0
 11
66.917486
 21
114.337293
 31
0.0
  0
LINE
  5
18D
330
1F
100
AcDbEntity
  8
0
  6
CONTINUOUS
 62
     4
100
AcDbLine
 10
66.917486
 20
114.337293
 30
0.0
 11
66.917486
 21
115.412539
 31
0.0
  0
LINE
  5
18E
330
1F
100
AcDbEntity
  8
0
  6
CONTINUOUS
 62
     5
100
AcDbLine
 10
70.717486
 20
115.412539
 30
0.0
 11
66.917486
 21
115.412539
 31
0.0
  0
LINE
  5
18F
330
1F
100
AcDbEntity
  8
0
  6
CONTINUOUS
 62
     4
100
AcDbLine
 10
66.917486
 20
115.412539
 30
0.0
 11
66.917486
 21
116.212539
 31
0.0
  0
LINE
  5
190
330
1F
100
AcDbEntity
  8
0
  6
CONTINUOUS
 62
     5
100
AcDbLine
 10
70.717486
 20
116.212539
 30
0.0
 11
66.917486
 21
116.212539
 31
0.0
  0
LINE
  5
191
330
1F
100
AcDbEntity
  8
0
  6
CONTINUOUS
 62
     4
100
AcDbLine
 10
66.917486
 20
116.212539
 30
0.0
 11
66.917486
 21
120.262553
 31
0.0
  0
LINE
  5
192
330
1F
100
AcDbEntity
  8
0
  6
CONTINUOUS
 62
     4
100
AcDbLine
 10
70.717486
 20
120.262553
 30
0.0
 11
70.717486
 21
116.212539
 31
0.0
  0
LINE
  5
193
330
1F
100
AcDbEntity
  8
0
  6
CONTINUOUS
 62
     4
100
AcDbLine
 10
69.115562
 20
145.962554
 30
0.0
 11
69.517486
 21
144.462554
 31
0.0
  0
LINE
  5
194
330
1F
100
AcDbEntity
  8
0
  6
CONTINUOUS
 62
     4
100
AcDbLine
 10
70.717486
 20
144.462554
 30
0.0
 11
69.517486
 21
144.462554
 31
0.0
  0
LINE
  5
195
330
1F
100
AcDbEntity
  8
0
  6
CONTINUOUS
 62
     4
100
AcDbLine
 10
67.217486
 20
143.199298
 30
0.0
 11
69.115562
 21
145.962554
 31
0.0
  0
LINE
  5
196
330
1F
100
AcDbEntity
  8
0
  6
CONTINUOUS
 62
     4
100
AcDbLine
 10
67.217486
 20
142.762553
 30
0.0
 11
67.217486
 21
143.199298
 31
0.0
  0
LINE
  5
197
330
1F
100
AcDbEntity
  8
0
  6
CONTINUOUS
 62
     4
100
AcDbLine
 10
70.717486
 20
113.912539
 30
0.0
 11
66.917486
 21
113.912539
 31
0.0
  0
LINE
  5
198
330
1F
100
AcDbEntity
  8
0
  6
CONTINUOUS
 62
     4
100
AcDbLine
 10
42.562065
 20
133.012572
 30
0.0
 11
42.362065
 21
133.012572
 31
0.0
  0
LINE
  5
199
330
1F
100
AcDbEntity
  8
0
  6
CONTINUOUS
 62
     4
100
AcDbLine
 10
42.562065
 20
188.512572
 30
0.0
 11
42.362065
 21
188.512572
 31
0.0
  0
CIRCLE
  5
19A
330
1F
100
AcDbEntity
  8
0
  6
CONTINUOUS
 62
     6
100
AcDbCircle
 10
25.062065
 20
194.362568
 30
0.0
 40
2.55
  0
CIRCLE
  5
19B
330
1F
100
AcDbEntity
  8
0
  6
CONTINUOUS
 62
     6
100
AcDbCircle
 10
25.062065
 20
127.162568
 30
0.0
 40
2.55
  0
CIRCLE
  5
19C
330
1F
100
AcDbEntity
  8
0
  6
CONTINUOUS
 62
     6
100
AcDbCircle
 10
31.312065
 20
127.162568
 30
0.0
 40
2.55
  0
CIRCLE
  5
19D
330
1F
100
AcDbEntity
  8
0
  6
CONTINUOUS
 62
     6
100
AcDbCircle
 10
37.562065
 20
127.162568
 30
0.0
 40
2.55
  0
LINE
  5
19E
330
1F
100
AcDbEntity
  8
0
  6
CONTINUOUS
 62
     4
100
AcDbLine
 10
42.562065
 20
188.512572
 30
0.0
 11
42.562065
 21
133.012572
 31
0.0
  0
LINE
  5
19F
330
1F
100
AcDbEntity
  8
0
  6
CONTINUOUS
 62
     4
100
AcDbLine
 10
20.062065
 20
133.012572
 30
0.0
 11
20.262065
 21
133.012572
 31
0.0
  0
LINE
  5
1A0
330
1F
100
AcDbEntity
  8
0
  6
CONTINUOUS
 62
     4
100
AcDbLine
 10
20.062065
 20
188.512572
 30
0.0
 11
20.262065
 21
188.512572
 31
0.0
  0
LINE
  5
1A1
330
1F
100
AcDbEntity
  8
0
  6
CONTINUOUS
 62
     4
100
AcDbLine
 10
20.062065
 20
133.012572
 30
0.0
 11
20.062065
 21
188.512572
 31
0.0
  0
LINE
  5
1A2
330
1F
100
AcDbEntity
  8
0
  6
CONTINUOUS
 62
     4
100
AcDbLine
 10
20.262065
 20
188.512572
 30
0.0
 11
20.262065
 21
189.012572
 31
0.0
  0
LINE
  5
1A3
330
1F
100
AcDbEntity
  8
0
  6
CONTINUOUS
 62
     4
100
AcDbLine
 10
20.262065
 20
189.012572
 30
0.0
 11
20.262065
 21
190.312572
 31
0.0
  0
ARC
  5
1A4
330
1F
100
AcDbEntity
  8
0
  6
CONTINUOUS
 62
     6
100
AcDbCircle
 10
-20.462065
 20
190.312572
 30
0.0
 40
0.2000000029802322
210
0.0
220
0.0
230
-1.0
100
AcDbArc
 50
0.0
 51
90.0
  0
LINE
  5
1A5
330
1F
100
AcDbEntity
  8
0
  6
CONTINUOUS
 62
     4
100
AcDbLine
 10
20.262065
 20
190.512572
 30
0.0
 11
20.262065
 21
190.312572
 31
0.0
  0
LINE
  5
1A6
330
1F
100
AcDbEntity
  8
0
  6
CONTINUOUS
 62
     4
100
AcDbLine
 10
20.262065
 20
122.862568
 30
0.0
 11
20.262065
 21
121.562568
 31
0.0
  0
LINE
  5
1A7
330
1F
100
AcDbEntity
  8
0
  6
CONTINUOUS
 62
     4
100
AcDbLine
 10
20.262065
 20
122.862568
 30
0.0
 11
20.262065
 21
123.362568
 31
0.0
  0
ARC
  5
1A8
330
1F
100
AcDbEntity
  8
0
  6
CONTINUOUS
 62
     4
100
AcDbCircle
 10
20.462065
 20
121.562568
 30
0.0
 40
0.2000000029802322
100
AcDbArc
 50
180.0
 51
270.0
  0
LINE
  5
1A9
330
1F
100
AcDbEntity
  8
0
  6
CONTINUOUS
 62
     4
100
AcDbLine
 10
20.062065
 20
131.012572
 30
0.0
 11
20.062065
 21
123.362568
 31
0.0
  0
LINE
  5
1AA
330
1F
100
AcDbEntity
  8
0
  6
CONTINUOUS
 62
     4
100
AcDbLine
 10
20.262065
 20
131.012572
 30
0.0
 11
20.062065
 21
131.012572
 31
0.0
  0
LINE
  5
1AB
330
1F
100
AcDbEntity
  8
0
  6
CONTINUOUS
 62
     4
100
AcDbLine
 10
20.262065
 20
123.362568
 30
0.0
 11
20.062065
 21
123.362568
 31
0.0
  0
LINE
  5
1AC
330
1F
100
AcDbEntity
  8
0
  6
CONTINUOUS
 62
     4
100
AcDbLine
 10
20.262065
 20
132.512572
 30
0.0
 11
20.262065
 21
131.212572
 31
0.0
  0
ARC
  5
1AD
330
1F
100
AcDbEntity
  8
0
  6
CONTINUOUS
 62
     6
100
AcDbCircle
 10
20.462065
 20
131.212572
 30
0.0
 40
0.2000000029802322
100
AcDbArc
 50
180.0
 51
270.0
  0
LINE
  5
1AE
330
1F
100
AcDbEntity
  8
0
  6
CONTINUOUS
 62
     4
100
AcDbLine
 10
20.262065
 20
131.012572
 30
0.0
 11
20.262065
 21
131.212572
 31
0.0
  0
LINE
  5
1AF
330
1F
100
AcDbEntity
  8
0
  6
CONTINUOUS
 62
     4
100
AcDbLine
 10
20.262065
 20
133.012572
 30
0.0
 11
20.262065
 21
132.512572
 31
0.0
  0
LINE
  5
1B0
330
1F
100
AcDbEntity
  8
0
  6
CONTINUOUS
 62
     4
100
AcDbLine
 10
20.262065
 20
198.662568
 30
0.0
 11
20.262065
 21
198.162571
 31
0.0
  0
LINE
  5
1B1
330
1F
100
AcDbEntity
  8
0
  6
CONTINUOUS
 62
     4
100
AcDbLine
 10
20.262065
 20
198.662568
 30
0.0
 11
20.262065
 21
199.962568
 31
0.0
  0
ARC
  5
1B2
330
1F
100
AcDbEntity
  8
0
  6
CONTINUOUS
 62
     4
100
AcDbCircle
 10
-20.462065
 20
199.962568
 30
0.0
 40
0.2000000029802322
210
0.0
220
0.0
230
-1.0
100
AcDbArc
 50
0.0
 51
90.0
  0
LINE
  5
1B3
330
1F
100
AcDbEntity
  8
0
  6
CONTINUOUS
 62
     4
100
AcDbLine
 10
20.062065
 20
198.162571
 30
0.0
 11
20.062065
 21
190.512572
 31
0.0
  0
LINE
  5
1B4
330
1F
100
AcDbEntity
  8
0
  6
CONTINUOUS
 62
     4
100
AcDbLine
 10
20.262065
 20
198.162571
 30
0.0
 11
20.062065
 21
198.162571
 31
0.0
  0
LINE
  5
1B5
330
1F
100
AcDbEntity
  8
0
  6
CONTINUOUS
 62
     4
100
AcDbLine
 10
20.262065
 20
190.512572
 30
0.0
 11
20.062065
 21
190.512572
 31
0.0
  0
LINE
  5
1B6
330
1F
100
AcDbEntity
  8
0
  6
CONTINUOUS
 62
     4
100
AcDbLine
 10
42.362064
 20
188.512572
 30
0.0
 11
42.362064
 21
189.012572
 31
0.0
  0
LINE
  5
1B7
330
1F
100
AcDbEntity
  8
0
  6
CONTINUOUS
 62
     4
100
AcDbLine
 10
42.362064
 20
189.012572
 30
0.0
 11
42.362064
 21
190.312572
 31
0.0
  0
LINE
  5
1B8
330
1F
100
AcDbEntity
  8
0
  6
CONTINUOUS
 62
     6
100
AcDbLine
 10
42.162064
 20
190.512572
 30
0.0
 11
20.462065
 21
190.512572
 31
0.0
  0
ARC
  5
1B9
330
1F
100
AcDbEntity
  8
0
  6
CONTINUOUS
 62
     6
100
AcDbCircle
 10
-42.162064
 20
190.312572
 30
0.0
 40
0.2000000029802322
210
0.0
220
0.0
230
-1.0
100
AcDbArc
 50
90.0
 51
180.0
  0
LINE
  5
1BA
330
1F
100
AcDbEntity
  8
0
  6
CONTINUOUS
 62
     4
100
AcDbLine
 10
42.362064
 20
190.512572
 30
0.0
 11
42.362064
 21
190.312572
 31
0.0
  0
LINE
  5
1BB
330
1F
100
AcDbEntity
  8
0
  6
CONTINUOUS
 62
     4
100
AcDbLine
 10
42.362064
 20
198.662568
 30
0.0
 11
42.362064
 21
198.162571
 31
0.0
  0
LINE
  5
1BC
330
1F
100
AcDbEntity
  8
0
  6
CONTINUOUS
 62
     4
100
AcDbLine
 10
42.362064
 20
198.662568
 30
0.0
 11
42.362064
 21
199.962568
 31
0.0
  0
LINE
  5
1BD
330
1F
100
AcDbEntity
  8
0
  6
CONTINUOUS
 62
     4
100
AcDbLine
 10
42.162064
 20
200.162568
 30
0.0
 11
20.462065
 21
200.162568
 31
0.0
  0
ARC
  5
1BE
330
1F
100
AcDbEntity
  8
0
  6
CONTINUOUS
 62
     4
100
AcDbCircle
 10
-42.162064
 20
199.962568
 30
0.0
 40
0.2000000096476506
210
0.0
220
0.0
230
-1.0
100
AcDbArc
 50
90.0
 51
180.0
  0
LINE
  5
1BF
330
1F
100
AcDbEntity
  8
0
  6
CONTINUOUS
 62
     4
100
AcDbLine
 10
42.562065
 20
190.512572
 30
0.0
 11
42.562065
 21
198.162571
 31
0.0
  0
LINE
  5
1C0
330
1F
100
AcDbEntity
  8
0
  6
CONTINUOUS
 62
     4
100
AcDbLine
 10
42.362065
 20
190.512572
 30
0.0
 11
42.562065
 21
190.512572
 31
0.0
  0
LINE
  5
1C1
330
1F
100
AcDbEntity
  8
0
  6
CONTINUOUS
 62
     4
100
AcDbLine
 10
42.362065
 20
198.162571
 30
0.0
 11
42.562065
 21
198.162571
 31
0.0
  0
LINE
  5
1C2
330
1F
100
AcDbEntity
  8
0
  6
CONTINUOUS
 62
     4
100
AcDbLine
 10
42.362064
 20
122.862568
 30
0.0
 11
42.362064
 21
121.562568
 31
0.0
  0
LINE
  5
1C3
330
1F
100
AcDbEntity
  8
0
  6
CONTINUOUS
 62
     4
100
AcDbLine
 10
42.362064
 20
122.862568
 30
0.0
 11
42.362064
 21
123.362568
 31
0.0
  0
LINE
  5
1C4
330
1F
100
AcDbEntity
  8
0
  6
CONTINUOUS
 62
     4
100
AcDbLine
 10
20.462065
 20
121.362568
 30
0.0
 11
42.162064
 21
121.362568
 31
0.0
  0
ARC
  5
1C5
330
1F
100
AcDbEntity
  8
0
  6
CONTINUOUS
 62
     4
100
AcDbCircle
 10
-42.162064
 20
121.562568
 30
0.0
 40
0.2000000029802322
210
0.0
220
0.0
230
-1.0
100
AcDbArc
 50
180.0
 51
270.0
  0
LINE
  5
1C6
330
1F
100
AcDbEntity
  8
0
  6
CONTINUOUS
 62
     4
100
AcDbLine
 10
42.562065
 20
123.362568
 30
0.0
 11
42.562065
 21
131.012572
 31
0.0
  0
LINE
  5
1C7
330
1F
100
AcDbEntity
  8
0
  6
CONTINUOUS
 62
     4
100
AcDbLine
 10
42.362065
 20
123.362568
 30
0.0
 11
42.562065
 21
123.362568
 31
0.0
  0
LINE
  5
1C8
330
1F
100
AcDbEntity
  8
0
  6
CONTINUOUS
 62
     4
100
AcDbLine
 10
42.362065
 20
131.012572
 30
0.0
 11
42.562065
 21
131.012572
 31
0.0
  0
LINE
  5
1C9
330
1F
100
AcDbEntity
  8
0
  6
CONTINUOUS
 62
     4
100
AcDbLine
 10
42.362064
 20
132.512572
 30
0.0
 11
42.362064
 21
131.212572
 31
0.0
  0
LINE
  5
1CA
330
1F
100
AcDbEntity
  8
0
  6
CONTINUOUS
 62
     4
100
AcDbLine
 10
42.362064
 20
133.012572
 30
0.0
 11
42.362064
 21
132.512572
 31
0.0
  0
LINE
  5
1CB
330
1F
100
AcDbEntity
  8
0
  6
CONTINUOUS
 62
     6
100
AcDbLine
 10
20.462065
 20
131.012572
 30
0.0
 11
42.162064
 21
131.012572
 31
0.0
  0
ARC
  5
1CC
330
1F
100
AcDbEntity
  8
0
  6
CONTINUOUS
 62
     6
100
AcDbCircle
 10
42.162064
 20
131.212572
 30
0.0
 40
0.2000000029802326
100
AcDbArc
 50
270.0
 51
0.0
  0
LINE
  5
1CD
330
1F
100
AcDbEntity
  8
0
  6
CONTINUOUS
 62
     4
100
AcDbLine
 10
42.362064
 20
131.012572
 30
0.0
 11
42.362064
 21
131.212572
 31
0.0
  0
CIRCLE
  5
1CE
330
1F
100
AcDbEntity
  8
0
  6
CONTINUOUS
 62
     6
100
AcDbCircle
 10
25.062065
 20
184.712573
 30
0.0
 40
2.55
  0
CIRCLE
  5
1CF
330
1F
100
AcDbEntity
  8
0
  6
CONTINUOUS
 62
     6
100
AcDbCircle
 10
31.312065
 20
184.712574
 30
0.0
 40
2.55
  0
CIRCLE
  5
1D0
330
1F
100
AcDbEntity
  8
0
  6
CONTINUOUS
 62
     6
100
AcDbCircle
 10
37.562065
 20
184.712575
 30
0.0
 40
2.55
  0
LINE
  5
1D1
330
1F
100
AcDbEntity
  8
0
  6
CONTINUOUS
 62
     5
100
AcDbLine
 10
32.038991
 20
176.248921
 30
0.0
 11
31.983098
 21
175.235092
 31
0.0
  0
LINE
  5
1D2
330
1F
100
AcDbEntity
  8
0
  6
CONTINUOUS
 62
     5
100
AcDbLine
 10
31.983098
 20
175.235092
 30
0.0
 11
30.974966
 21
175.114086
 31
0.0
  0
LINE
  5
1D3
330
1F
100
AcDbEntity
  8
0
  6
CONTINUOUS
 62
     5
100
AcDbLine
 10
30.974966
 20
175.114086
 30
0.0
 11
31.000715
 21
174.314501
 31
0.0
  0
LINE
  5
1D4
330
1F
100
AcDbEntity
  8
0
  6
CONTINUOUS
 62
     5
100
AcDbLine
 10
31.000715
 20
174.314501
 30
0.0
 11
32.014544
 21
174.258608
 31
0.0
  0
LINE
  5
1D5
330
1F
100
AcDbEntity
  8
0
  6
CONTINUOUS
 62
     5
100
AcDbLine
 10
32.014544
 20
174.258608
 30
0.0
 11
32.13555
 21
173.250475
 31
0.0
  0
LINE
  5
1D6
330
1F
100
AcDbEntity
  8
0
  6
CONTINUOUS
 62
     5
100
AcDbLine
 10
32.935135
 20
173.276224
 30
0.0
 11
32.991028
 21
174.290053
 31
0.0
  0
LINE
  5
1D7
330
1F
100
AcDbEntity
  8
0
  6
CONTINUOUS
 62
     5
100
AcDbLine
 10
32.991028
 20
174.290053
 30
0.0
 11
33.999161
 21
174.411059
 31
0.0
  0
LINE
  5
1D8
330
1F
100
AcDbEntity
  8
0
  6
CONTINUOUS
 62
     5
100
AcDbLine
 10
33.999161
 20
174.411059
 30
0.0
 11
33.973412
 21
175.210644
 31
0.0
  0
LINE
  5
1D9
330
1F
100
AcDbEntity
  8
0
  6
CONTINUOUS
 62
     5
100
AcDbLine
 10
33.973412
 20
175.210644
 30
0.0
 11
32.959583
 21
175.266537
 31
0.0
  0
LINE
  5
1DA
330
1F
100
AcDbEntity
  8
0
  6
CONTINUOUS
 62
     5
100
AcDbLine
 10
32.959583
 20
175.266537
 30
0.0
 11
32.838577
 21
176.27467
 31
0.0
  0
LINE
  5
1DB
330
1F
100
AcDbEntity
  8
0
  6
CONTINUOUS
 62
     5
100
AcDbLine
 10
32.100716
 20
173.540681
 30
0.0
 11
32.951225
 21
173.568069
 31
0.0
  0
LINE
  5
1DC
330
1F
100
AcDbEntity
  8
0
  6
CONTINUOUS
 62
     5
100
AcDbLine
 10
32.022902
 20
175.957076
 30
0.0
 11
32.87341
 21
175.984464
 31
0.0
  0
LINE
  5
1DD
330
1F
100
AcDbEntity
  8
0
  6
CONTINUOUS
 62
     5
100
AcDbLine
 10
32.008002
 20
177.21123
 30
0.0
 11
32.011098
 21
177.115093
 31
0.0
  0
LINE
  5
1DE
330
1F
100
AcDbEntity
  8
0
  6
CONTINUOUS
 62
     5
100
AcDbLine
 10
32.807327
 20
177.245075
 30
0.0
 11
32.810684
 21
177.140842
 31
0.0
  0
LINE
  5
1DF
330
1F
100
AcDbEntity
  8
0
  6
CONTINUOUS
 62
     5
100
AcDbLine
 10
32.966437
 20
172.30421
 30
0.0
 11
32.963028
 21
172.410052
 31
0.0
  0
LINE
  5
1E0
330
1F
100
AcDbEntity
  8
0
  6
CONTINUOUS
 62
     5
100
AcDbLine
 10
32.16659
 20
172.286558
 30
0.0
 11
32.163443
 21
172.384303
 31
0.0
  0
LINE
  5
1E1
330
1F
100
AcDbEntity
  8
0
  6
CONTINUOUS
 62
     5
100
AcDbLine
 10
32.13555
 20
173.250475
 30
0.0
 11
32.163443
 21
172.384303
 31
0.0
  0
LINE
  5
1E2
330
1F
100
AcDbEntity
  8
0
  6
CONTINUOUS
 62
     5
100
AcDbLine
 10
32.011098
 20
177.115093
 30
0.0
 11
32.038991
 21
176.248921
 31
0.0
  0
LINE
  5
1E3
330
1F
100
AcDbEntity
  8
0
  6
CONTINUOUS
 62
     5
100
AcDbLine
 10
32.838577
 20
176.27467
 30
0.0
 11
32.810684
 21
177.140842
 31
0.0
  0
LINE
  5
1E4
330
1F
100
AcDbEntity
  8
0
  6
CONTINUOUS
 62
     5
100
AcDbLine
 10
32.963028
 20
172.410052
 30
0.0
 11
32.935135
 21
173.276224
 31
0.0
  0
CIRCLE
  5
1E5
330
1F
100
AcDbEntity
  8
0
  6
CONTINUOUS
 62
     6
100
AcDbCircle
 10
30.012063
 20
165.012572
 30
0.0
 40
2.5
  0
LINE
  5
1E6
330
1F
100
AcDbEntity
  8
0
  6
CONTINUOUS
 62
     6
100
AcDbLine
 10
27.285421
 20
173.050203
 30
0.0
 11
30.136317
 21
173.984223
 31
0.0
  0
ARC
  5
1E7
330
1F
100
AcDbEntity
  8
0
  6
CONTINUOUS
 62
     6
100
AcDbCircle
 10
32.512063
 20
174.762572
 30
0.0
 40
5.5
100
AcDbArc
 50
161.86
 51
198.14
  0
LINE
  5
1E8
330
1F
100
AcDbEntity
  8
0
  6
CONTINUOUS
 62
     6
100
AcDbLine
 10
27.285421
 20
176.474942
 30
0.0
 11
30.136317
 21
175.540922
 31
0.0
  0
ARC
  5
1E9
330
1F
100
AcDbEntity
  8
0
  6
CONTINUOUS
 62
     6
100
AcDbCircle
 10
-32.512063
 20
174.762572
 30
0.0
 40
2.499999999999657
210
0.0
220
0.0
230
-1.0
100
AcDbArc
 50
341.86
 51
41.718178
  0
ARC
  5
1EA
330
1F
100
AcDbEntity
  8
0
  6
CONTINUOUS
 62
     5
100
AcDbCircle
 10
-43.03093
 20
165.108105
 30
0.0
 40
17.63514491225952
210
0.0
220
0.0
230
-1.0
100
AcDbArc
 50
22.344877
 51
26.76655
  0
ARC
  5
1EB
330
1F
100
AcDbEntity
  8
0
  6
CONTINUOUS
 62
     5
100
AcDbCircle
 10
43.030911
 20
184.417031
 30
0.0
 40
17.63512457822454
100
AcDbArc
 50
202.344918
 51
206.766552
  0
ARC
  5
1EC
330
1F
100
AcDbEntity
  8
0
  6
CONTINUOUS
 62
     5
100
AcDbCircle
 10
32.512063
 20
174.762572
 30
0.0
 40
6.500000000000003
100
AcDbArc
 50
153.010117
 51
206.989838
  0
ARC
  5
1ED
330
1F
100
AcDbEntity
  8
0
  6
CONTINUOUS
 62
     6
100
AcDbCircle
 10
32.512063
 20
174.762572
 30
0.0
 40
2.500000000000025
100
AcDbArc
 50
198.14
 51
221.718178
  0
LINE
  5
1EE
330
1F
100
AcDbEntity
  8
0
  6
CONTINUOUS
 62
     5
100
AcDbLine
 10
26.719968
 20
171.812646
 30
0.0
 11
30.645996
 21
173.098904
 31
0.0
  0
LINE
  5
1EF
330
1F
100
AcDbEntity
  8
0
  6
CONTINUOUS
 62
     5
100
AcDbLine
 10
26.72
 20
177.712488
 30
0.0
 11
30.645996
 21
176.42624
 31
0.0
  0
ARC
  5
1F0
330
1F
100
AcDbEntity
  8
0
  6
CONTINUOUS
 62
     6
100
AcDbCircle
 10
32.512063
 20
174.762572
 30
0.0
 40
2.5
100
AcDbArc
 50
221.718178
 51
138.281822
  0
LINE
  5
1F1
330
1F
100
AcDbEntity
  8
0
  6
CONTINUOUS
 62
     6
100
AcDbLine
 10
22.362065
 20
161.762568
 30
0.0
 11
22.362065
 21
159.762568
 31
0.0
  0
LINE
  5
1F2
330
1F
100
AcDbEntity
  8
0
  6
CONTINUOUS
 62
     6
100
AcDbLine
 10
22.362065
 20
159.762568
 30
0.0
 11
24.362065
 21
159.762568
 31
0.0
  0
LINE
  5
1F3
330
1F
100
AcDbEntity
  8
0
  6
CONTINUOUS
 62
     6
100
AcDbLine
 10
24.362065
 20
159.762568
 30
0.0
 11
24.362065
 21
161.762568
 31
0.0
  0
LINE
  5
1F4
330
1F
100
AcDbEntity
  8
0
  6
CONTINUOUS
 62
     6
100
AcDbLine
 10
24.362065
 20
161.762568
 30
0.0
 11
22.362065
 21
161.762568
 31
0.0
  0
LINE
  5
1F5
330
1F
100
AcDbEntity
  8
0
  6
CONTINUOUS
 62
     4
100
AcDbLine
 10
24.762081
 20
121.362568
 30
0.0
 11
24.762081
 21
120.262568
 31
0.0
  0
LINE
  5
1F6
330
1F
100
AcDbEntity
  8
0
  6
CONTINUOUS
 62
     5
100
AcDbLine
 10
25.762081
 20
120.262568
 30
0.0
 11
36.86208
 21
120.262568
 31
0.0
  0
LINE
  5
1F7
330
1F
100
AcDbEntity
  8
0
  6
CONTINUOUS
 62
     4
100
AcDbLine
 10
37.86208
 20
120.262568
 30
0.0
 11
37.86208
 21
121.362568
 31
0.0
  0
ARC
  5
1F8
330
1F
100
AcDbEntity
  8
0
  6
CONTINUOUS
 62
     4
100
AcDbCircle
 10
-36.06208
 20
116.212555
 30
0.0
 40
0.7999999849599999
210
0.0
220
0.0
230
-1.0
100
AcDbArc
 50
180.0
 51
270.0
  0
LINE
  5
1F9
330
1F
100
AcDbEntity
  8
0
  6
CONTINUOUS
 62
     4
100
AcDbLine
 10
36.06208
 20
115.412555
 30
0.0
 11
34.835174
 21
115.412555
 31
0.0
  0
LINE
  5
1FA
330
1F
100
AcDbEntity
  8
0
  6
CONTINUOUS
 62
     4
100
AcDbLine
 10
34.835174
 20
115.412555
 30
0.0
 11
32.902239
 21
114.328142
 31
0.0
  0
ARC
  5
1FB
330
1F
100
AcDbEntity
  8
0
  6
CONTINUOUS
 62
     4
100
AcDbCircle
 10
-31.312081
 20
117.162554
 30
0.0
 40
3.249999938900002
210
0.0
220
0.0
230
-1.0
100
AcDbArc
 50
240.706755
 51
299.621837
  0
LINE
  5
1FC
330
1F
100
AcDbEntity
  8
0
  6
CONTINUOUS
 62
     4
100
AcDbLine
 10
29.705693
 20
114.337308
 30
0.0
 11
27.814596
 21
115.412554
 31
0.0
  0
LINE
  5
1FD
330
1F
100
AcDbEntity
  8
0
  6
CONTINUOUS
 62
     4
100
AcDbLine
 10
27.814596
 20
115.412554
 30
0.0
 11
26.562081
 21
115.412554
 31
0.0
  0
ARC
  5
1FE
330
1F
100
AcDbEntity
  8
0
  6
CONTINUOUS
 62
     4
100
AcDbCircle
 10
-26.562081
 20
116.212554
 30
0.0
 40
0.7999999849600017
210
0.0
220
0.0
230
-1.0
100
AcDbArc
 50
270.0
 51
0.0
  0
LINE
  5
1FF
330
1F
100
AcDbEntity
  8
0
  6
CONTINUOUS
 62
     6
100
AcDbLine
 10
34.81208
 20
117.912555
 30
0.0
 11
33.433401
 21
117.912555
 31
0.0
  0
ARC
  5
200
330
1F
100
AcDbEntity
  8
0
  6
CONTINUOUS
 62
     6
100
AcDbCircle
 10
31.312081
 20
117.162555
 30
0.0
 40
2.249999957700001
100
AcDbArc
 50
19.471215
 51
160.528779
  0
LINE
  5
201
330
1F
100
AcDbEntity
  8
0
  6
CONTINUOUS
 62
     6
100
AcDbLine
 10
29.190761
 20
117.912555
 30
0.0
 11
27.81208
 21
117.912555
 31
0.0
  0
LINE
  5
202
330
1F
100
AcDbEntity
  8
0
  6
CONTINUOUS
 62
     6
100
AcDbLine
 10
27.81208
 20
117.912555
 30
0.0
 11
27.81208
 21
116.412555
 31
0.0
  0
LINE
  5
203
330
1F
100
AcDbEntity
  8
0
  6
CONTINUOUS
 62
     6
100
AcDbLine
 10
27.81208
 20
116.412555
 30
0.0
 11
29.19076
 21
116.412555
 31
0.0
  0
ARC
  5
204
330
1F
100
AcDbEntity
  8
0
  6
CONTINUOUS
 62
     6
100
AcDbCircle
 10
31.31208
 20
117.162555
 30
0.0
 40
2.249999957700001
100
AcDbArc
 50
199.471224
 51
340.528779
  0
LINE
  5
205
330
1F
100
AcDbEntity
  8
0
  6
CONTINUOUS
 62
     6
100
AcDbLine
 10
33.433401
 20
116.412555
 30
0.0
 11
34.81208
 21
116.412555
 31
0.0
  0
LINE
  5
206
330
1F
100
AcDbEntity
  8
0
  6
CONTINUOUS
 62
     6
100
AcDbLine
 10
34.81208
 20
116.412555
 30
0.0
 11
34.81208
 21
117.912555
 31
0.0
  0
LINE
  5
207
330
1F
100
AcDbEntity
  8
0
  6
CONTINUOUS
 62
     4
100
AcDbLine
 10
36.86208
 20
120.262568
 30
0.0
 11
36.86208
 21
116.212555
 31
0.0
  0
LINE
  5
208
330
1F
100
AcDbEntity
  8
0
  6
CONTINUOUS
 62
     4
100
AcDbLine
 10
25.762081
 20
120.262568
 30
0.0
 11
25.762081
 21
116.212554
 31
0.0
  0
LINE
  5
209
330
1F
100
AcDbEntity
  8
0
  6
CONTINUOUS
 62
     5
100
AcDbLine
 10
30.387063
 20
166.512572
 30
0.0
 11
29.587063
 21
166.512572
 31
0.0
  0
LINE
  5
20A
330
1F
100
AcDbEntity
  8
0
  6
CONTINUOUS
 62
     5
100
AcDbLine
 10
29.587063
 20
163.512572
 30
0.0
 11
30.387063
 21
163.512572
 31
0.0
  0
ARC
  5
20B
330
1F
100
AcDbEntity
  8
0
  6
CONTINUOUS
 62
     5
100
AcDbCircle
 10
-27.32421
 20
161.130829
 30
0.0
 40
3.0
210
0.0
220
0.0
230
-1.0
100
AcDbArc
 50
98.511659
 51
150.388145
  0
ARC
  5
20C
330
1F
100
AcDbEntity
  8
0
  6
CONTINUOUS
 62
     5
100
AcDbCircle
 10
27.32421
 20
168.894314
 30
0.0
 40
3.0
100
AcDbArc
 50
278.511659
 51
330.388145
  0
LINE
  5
20D
330
1F
100
AcDbEntity
  8
0
  6
CONTINUOUS
 62
     5
100
AcDbLine
 10
32.353495
 20
164.612572
 30
0.0
 11
32.479856
 21
164.612572
 31
0.0
  0
LINE
  5
20E
330
1F
100
AcDbEntity
  8
0
  6
CONTINUOUS
 62
     5
100
AcDbLine
 10
27.544271
 20
164.612572
 30
0.0
 11
27.620631
 21
164.612572
 31
0.0
  0
LINE
  5
20F
330
1F
100
AcDbEntity
  8
0
  6
CONTINUOUS
 62
     5
100
AcDbLine
 10
27.620631
 20
165.412572
 30
0.0
 11
27.544271
 21
165.412572
 31
0.0
  0
LINE
  5
210
330
1F
100
AcDbEntity
  8
0
  6
CONTINUOUS
 62
     5
100
AcDbLine
 10
32.479856
 20
165.412572
 30
0.0
 11
32.353495
 21
165.412572
 31
0.0
  0
LINE
  5
211
330
1F
100
AcDbEntity
  8
0
  6
CONTINUOUS
 62
     5
100
AcDbLine
 10
27.680849
 20
165.915588
 30
0.0
 11
27.768242
 21
165.927357
 31
0.0
  0
LINE
  5
212
330
1F
100
AcDbEntity
  8
0
  6
CONTINUOUS
 62
     5
100
AcDbLine
 10
29.932388
 20
167.411949
 30
0.0
 11
29.987489
 21
167.512451
 31
0.0
  0
LINE
  5
213
330
1F
100
AcDbEntity
  8
0
  6
CONTINUOUS
 62
     5
100
AcDbLine
 10
27.680878
 20
164.109552
 30
0.0
 11
27.768242
 21
164.097786
 31
0.0
  0
LINE
  5
214
330
1F
100
AcDbEntity
  8
0
  6
CONTINUOUS
 62
     5
100
AcDbLine
 10
29.932388
 20
162.613194
 30
0.0
 11
29.987489
 21
162.512692
 31
0.0
  0
LINE
  5
215
330
1F
100
AcDbEntity
  8
0
  6
CONTINUOUS
 62
     5
100
AcDbLine
 10
27.620631
 20
164.612572
 30
0.0
 11
28.487063
 21
164.612572
 31
0.0
  0
LINE
  5
216
330
1F
100
AcDbEntity
  8
0
  6
CONTINUOUS
 62
     5
100
AcDbLine
 10
31.487063
 20
164.612572
 30
0.0
 11
32.353495
 21
164.612572
 31
0.0
  0
LINE
  5
217
330
1F
100
AcDbEntity
  8
0
  6
CONTINUOUS
 62
     5
100
AcDbLine
 10
32.353495
 20
165.412572
 30
0.0
 11
31.487063
 21
165.412572
 31
0.0
  0
LINE
  5
218
330
1F
100
AcDbEntity
  8
0
  6
CONTINUOUS
 62
     5
100
AcDbLine
 10
28.487063
 20
165.412572
 30
0.0
 11
27.620631
 21
165.412572
 31
0.0
  0
LINE
  5
219
330
1F
100
AcDbEntity
  8
0
  6
CONTINUOUS
 62
     5
100
AcDbLine
 10
29.498568
 20
164.524076
 30
0.0
 11
29.587063
 21
163.512572
 31
0.0
  0
LINE
  5
21A
330
1F
100
AcDbEntity
  8
0
  6
CONTINUOUS
 62
     5
100
AcDbLine
 10
28.487063
 20
164.612572
 30
0.0
 11
29.498568
 21
164.524076
 31
0.0
  0
LINE
  5
21B
330
1F
100
AcDbEntity
  8
0
  6
CONTINUOUS
 62
     5
100
AcDbLine
 10
30.387063
 20
163.512572
 30
0.0
 11
30.475559
 21
164.524076
 31
0.0
  0
LINE
  5
21C
330
1F
100
AcDbEntity
  8
0
  6
CONTINUOUS
 62
     5
100
AcDbLine
 10
30.475559
 20
164.524076
 30
0.0
 11
31.487063
 21
164.612572
 31
0.0
  0
LINE
  5
21D
330
1F
100
AcDbEntity
  8
0
  6
CONTINUOUS
 62
     5
100
AcDbLine
 10
30.475559
 20
165.501067
 30
0.0
 11
30.387063
 21
166.512572
 31
0.0
  0
LINE
  5
21E
330
1F
100
AcDbEntity
  8
0
  6
CONTINUOUS
 62
     5
100
AcDbLine
 10
31.487063
 20
165.412572
 30
0.0
 11
30.475559
 21
165.501067
 31
0.0
  0
LINE
  5
21F
330
1F
100
AcDbEntity
  8
0
  6
CONTINUOUS
 62
     5
100
AcDbLine
 10
29.587063
 20
166.512572
 30
0.0
 11
29.498568
 21
165.501067
 31
0.0
  0
LINE
  5
220
330
1F
100
AcDbEntity
  8
0
  6
CONTINUOUS
 62
     5
100
AcDbLine
 10
29.498568
 20
165.501067
 30
0.0
 11
28.487063
 21
165.412572
 31
0.0
  0
LINE
  5
221
330
1F
100
AcDbEntity
  8
0
  6
CONTINUOUS
 62
     5
100
AcDbLine
 10
28.778239
 20
164.587097
 30
0.0
 11
28.778239
 21
165.438046
 31
0.0
  0
LINE
  5
222
330
1F
100
AcDbEntity
  8
0
  6
CONTINUOUS
 62
     5
100
AcDbLine
 10
31.195887
 20
164.587097
 30
0.0
 11
31.195887
 21
165.438046
 31
0.0
  0
ARC
  5
223
330
1F
100
AcDbEntity
  8
0
  6
CONTINUOUS
 62
     5
100
AcDbCircle
 10
-25.061119
 20
194.363969
 30
0.0
 40
2.284511715182939
210
0.0
220
0.0
230
-1.0
100
AcDbArc
 50
40.923697
 51
65.564814
  0
ARC
  5
224
330
1F
100
AcDbEntity
  8
0
  6
CONTINUOUS
 62
     5
100
AcDbCircle
 10
-25.062606
 20
194.363146
 30
0.0
 40
2.286294250807127
210
0.0
220
0.0
230
-1.0
100
AcDbArc
 50
220.954577
 51
245.576147
  0
LINE
  5
225
330
1F
100
AcDbEntity
  8
0
  6
CONTINUOUS
 62
     5
100
AcDbLine
 10
24.53529
 20
195.966121
 30
0.0
 11
23.674037
 21
195.322904
 31
0.0
  0
LINE
  5
226
330
1F
100
AcDbEntity
  8
0
  6
CONTINUOUS
 62
     5
100
AcDbLine
 10
25.588839
 20
192.759014
 30
0.0
 11
26.450093
 21
193.402231
 31
0.0
  0
ARC
  5
227
330
1F
100
AcDbEntity
  8
0
  6
CONTINUOUS
 62
     5
100
AcDbCircle
 10
52.515447
 20
157.721628
 30
0.0
 40
46.34739336235641
100
AcDbArc
 50
124.698827
 51
126.14907
  0
ARC
  5
228
330
1F
100
AcDbEntity
  8
0
  6
CONTINUOUS
 62
     5
100
AcDbCircle
 10
12.778364
 20
166.101936
 30
0.0
 40
48.964580800453
210
0.0
220
0.0
230
-1.0
100
AcDbArc
 50
142.62272
 51
143.869802
  0
ARC
  5
229
330
1F
100
AcDbEntity
  8
0
  6
CONTINUOUS
 62
     5
100
AcDbCircle
 10
2.270892
 20
231.080535
 30
0.0
 40
46.33703895869566
210
0.0
220
0.0
230
-1.0
100
AcDbArc
 50
231.191674
 51
232.642264
  0
ARC
  5
22A
330
1F
100
AcDbEntity
  8
0
  6
CONTINUOUS
 62
     5
100
AcDbCircle
 10
-2.385702
 20
230.994804
 30
0.0
 40
46.33704978530481
100
AcDbArc
 50
304.699228
 51
306.149815
  0
ARC
  5
22B
330
1F
100
AcDbEntity
  8
0
  6
CONTINUOUS
 62
     5
100
AcDbCircle
 10
62.902494
 20
222.6232
 30
0.0
 40
48.96458158919538
100
AcDbArc
 50
216.130198
 51
217.377277
  0
ARC
  5
22C
330
1F
100
AcDbEntity
  8
0
  6
CONTINUOUS
 62
     5
100
AcDbCircle
 10
-52.406261
 20
157.630751
 30
0.0
 40
46.35487007199196
210
0.0
220
0.0
230
-1.0
100
AcDbArc
 50
51.191603
 51
52.641608
  0
ARC
  5
22D
330
1F
100
AcDbEntity
  8
0
  6
CONTINUOUS
 62
     5
100
AcDbCircle
 10
25.062097
 20
194.362592
 30
0.0
 40
2.274692507338991
100
AcDbArc
 50
139.429334
 51
294.078217
  0
ARC
  5
22E
330
1F
100
AcDbEntity
  8
0
  6
CONTINUOUS
 62
     5
100
AcDbCircle
 10
25.061953
 20
194.362137
 30
0.0
 40
2.275031004197495
100
AcDbArc
 50
36.760776
 51
114.072217
  0
ARC
  5
22F
330
1F
100
AcDbEntity
  8
0
  6
CONTINUOUS
 62
     5
100
AcDbCircle
 10
-25.061664
 20
194.362581
 30
0.0
 40
2.274996668250288
210
0.0
220
0.0
230
-1.0
100
AcDbArc
 50
143.252533
 51
220.565358
  0
LINE
  5
230
330
1F
100
AcDbEntity
  8
0
  6
CONTINUOUS
 62
     5
100
AcDbLine
 10
23.334257
 20
195.842027
 30
0.0
 11
23.334904
 21
195.860513
 31
0.0
  0
LINE
  5
231
330
1F
100
AcDbEntity
  8
0
  6
CONTINUOUS
 62
     5
100
AcDbLine
 10
25.990149
 20
192.285845
 30
0.0
 11
26.008056
 21
192.281218
 31
0.0
  0
LINE
  5
232
330
1F
100
AcDbEntity
  8
0
  6
CONTINUOUS
 62
     5
100
AcDbLine
 10
24.133981
 20
196.439291
 30
0.0
 11
24.116071
 21
196.443918
 31
0.0
  0
LINE
  5
233
330
1F
100
AcDbEntity
  8
0
  6
CONTINUOUS
 62
     5
100
AcDbLine
 10
26.789873
 20
192.883109
 30
0.0
 11
26.789225
 21
192.864621
 31
0.0
  0
SPLINE
  5
234
330
1F
100
AcDbEntity
  8
0
  6
CONTINUOUS
 62
     5
100
AcDbSpline
210
0.0
220
0.0
230
1.0
 70
     8
 71
     3
 72
     9
 73
     5
 74
     0
 42
0.0
 43
0.0
 40
4.91732857459192
 40
4.91732857459192
 40
4.91732857459192
 40
4.91732857459192
 40
5.780442304740269
 40
6.48675702296981
 40
6.48675702296981
 40
6.48675702296981
 40
6.48675702296981
 10
23.41767363028539
 20
195.695504654942
 30
0.0
 10
23.56169299496286
 20
195.4835418961733
 30
0.0
 10
23.8402687693072
 20
195.0822153402583
 30
0.0
 10
24.14043340665594
 20
194.6648789360328
 30
0.0
 10
24.27817710505107
 20
194.47617379353
 30
0.0
  0
SPLINE
  5
235
330
1F
100
AcDbEntity
  8
0
  6
CONTINUOUS
 62
     5
100
AcDbSpline
210
0.0
220
0.0
230
1.0
 70
     8
 71
     3
 72
    10
 73
     6
 74
     0
 42
0.0
 43
0.0
 40
0.0
 40
0.0
 40
0.0
 40
0.0
 40
0.1392650523937432
 40
0.260610814587122
 40
0.304237796084168
 40
0.304237796084168
 40
0.304237796084168
 40
0.304237796084168
 10
23.33425667379544
 20
195.8420267642315
 30
0.0
 10
23.33404408767115
 20
195.835648488508
 30
0.0
 10
23.34626162068008
 20
195.8070057192841
 30
0.0
 10
23.38378732606265
 20
195.7458600869639
 30
0.0
 10
23.41041838872553
 20
195.7061863347922
 30
0.0
 10
23.41768779699839
 20
195.695487565158
 30
0.0
  0
SPLINE
  5
236
330
1F
100
AcDbEntity
  8
0
  6
CONTINUOUS
 62
     5
100
AcDbSpline
210
0.0
220
0.0
230
1.0
 70
     8
 71
     3
 72
     9
 73
     5
 74
     0
 42
0.0
 43
0.0
 40
7.609826795033298
 40
7.609826795033298
 40
7.609826795033298
 40
7.609826795033298
 40
8.426922285250132
 40
9.179280102982277
 40
9.179280102982277
 40
9.179280102982277
 40
9.179280102982277
 10
24.94846068611803
 20
193.5786793855876
 30
0.0
 10
25.11254401106375
 20
193.3639147470063
 30
0.0
 10
25.42747553949526
 20
192.958585763854
 30
0.0
 10
25.73182966056996
 20
192.5802245515367
 30
0.0
 10
25.87333964759156
 20
192.4074230655204
 30
0.0
  0
SPLINE
  5
237
330
1F
100
AcDbEntity
  8
0
  6
CONTINUOUS
 62
     5
100
AcDbSpline
210
0.0
220
0.0
230
1.0
 70
     8
 71
     3
 72
     9
 73
     5
 74
     0
 42
0.0
 43
0.0
 40
0.0
 40
0.0
 40
0.0
 40
0.0
 40
0.1392651465254976
 40
0.3042392384436074
 40
0.3042392384436074
 40
0.3042392384436074
 40
0.3042392384436074
 10
25.99014891421291
 20
192.2858445348907
 30
0.0
 10
25.98397270470923
 20
192.2874514182205
 30
0.0
 10
25.95622583346108
 20
192.3102223385153
 30
0.0
 10
25.90400942843723
 20
192.3699548546999
 30
0.0
 10
25.87334560892333
 20
192.407401571376
 30
0.0
  0
SPLINE
  5
238
330
1F
100
AcDbEntity
  8
0
  6
CONTINUOUS
 62
     5
100
AcDbSpline
210
0.0
220
0.0
230
1.0
 70
     8
 71
     3
 72
     9
 73
     5
 74
     0
 42
0.0
 43
0.0
 40
4.917305997971718
 40
4.917305997971718
 40
4.917305997971718
 40
4.917305997971718
 40
5.669663815703807
 40
6.486761078027563
 40
6.486761078027563
 40
6.486761078027563
 40
6.486761078027563
 10
24.25078994718712
 20
196.3177125600845
 30
0.0
 10
24.39229993420871
 20
196.1449110740683
 30
0.0
 10
24.69665439893685
 20
195.7665494345344
 30
0.0
 10
25.01158629490821
 20
195.3612199632655
 30
0.0
 10
25.17566997624647
 20
195.1464548426804
 30
0.0
  0
SPLINE
  5
239
330
1F
100
AcDbEntity
  8
0
  6
CONTINUOUS
 62
     5
100
AcDbSpline
210
0.0
220
0.0
230
1.0
 70
     8
 71
     3
 72
     9
 73
     5
 74
     0
 42
0.0
 43
0.0
 40
0.0
 40
0.0
 40
0.0
 40
0.0
 40
0.1391534225208124
 40
0.3042364891791635
 40
0.3042364891791635
 40
0.3042364891791635
 40
0.3042364891791635
 10
24.1339806805658
 20
196.4392910907142
 30
0.0
 10
24.14015202318154
 20
196.4376854736175
 30
0.0
 10
24.16788574527521
 20
196.4149322829098
 30
0.0
 10
24.22010017543846
 20
196.3552049591675
 30
0.0
 10
24.25078398585003
 20
196.3177340542355
 30
0.0
  0
SPLINE
  5
23A
330
1F
100
AcDbEntity
  8
0
  6
CONTINUOUS
 62
     5
100
AcDbSpline
210
0.0
220
0.0
230
1.0
 70
     8
 71
     3
 72
     9
 73
     5
 74
     0
 42
0.0
 43
0.0
 40
7.609830882098102
 40
7.609830882098102
 40
7.609830882098102
 40
7.609830882098102
 40
8.316143796213701
 40
9.179257526362088
 40
9.179257526362088
 40
9.179257526362088
 40
9.179257526362088
 10
25.84595354522865
 20
194.248960386067
 30
0.0
 10
25.98369687822259
 20
194.0602557300861
 30
0.0
 10
26.28386114570424
 20
193.6429198240075
 30
0.0
 10
26.56243659981581
 20
193.2415937294317
 30
0.0
 10
26.70645596449328
 20
193.029630970663
 30
0.0
  0
SPLINE
  5
23B
330
1F
100
AcDbEntity
  8
0
  6
CONTINUOUS
 62
     5
100
AcDbSpline
210
0.0
220
0.0
230
1.0
 70
     8
 71
     3
 72
    10
 73
     6
 74
     0
 42
0.0
 43
0.0
 40
0.0
 40
0.0
 40
0.0
 40
0.0
 40
0.1391534132219165
 40
0.2604780005939917
 40
0.3042364138572717
 40
0.3042364138572717
 40
0.3042364138572717
 40
0.3042364138572717
 10
26.78987292098327
 20
192.8831088613734
 30
0.0
 10
26.79008533969142
 20
192.8894821140678
 30
0.0
 10
26.77788434716678
 20
192.9180967938611
 30
0.0
 10
26.74037924165106
 20
192.9792185660166
 30
0.0
 10
26.71373325296918
 20
193.0189168035234
 30
0.0
 10
26.70644179778105
 20
193.0296480604457
 30
0.0
  0
CIRCLE
  5
23C
330
1F
100
AcDbEntity
  8
0
  6
CONTINUOUS
 62
     6
100
AcDbCircle
 10
31.312065
 20
194.362568
 30
0.0
 40
2.55
  0
ARC
  5
23D
330
1F
100
AcDbEntity
  8
0
  6
CONTINUOUS
 62
     5
100
AcDbCircle
 10
-31.311119
 20
194.363969
 30
0.0
 40
2.284511715182939
210
0.0
220
0.0
230
-1.0
100
AcDbArc
 50
40.923697
 51
65.564814
  0
ARC
  5
23E
330
1F
100
AcDbEntity
  8
0
  6
CONTINUOUS
 62
     5
100
AcDbCircle
 10
-31.312606
 20
194.363146
 30
0.0
 40
2.286294250807127
210
0.0
220
0.0
230
-1.0
100
AcDbArc
 50
220.954577
 51
245.576147
  0
LINE
  5
23F
330
1F
100
AcDbEntity
  8
0
  6
CONTINUOUS
 62
     5
100
AcDbLine
 10
30.78529
 20
195.966121
 30
0.0
 11
29.924037
 21
195.322904
 31
0.0
  0
LINE
  5
240
330
1F
100
AcDbEntity
  8
0
  6
CONTINUOUS
 62
     5
100
AcDbLine
 10
31.838839
 20
192.759014
 30
0.0
 11
32.700093
 21
193.402231
 31
0.0
  0
ARC
  5
241
330
1F
100
AcDbEntity
  8
0
  6
CONTINUOUS
 62
     5
100
AcDbCircle
 10
58.765447
 20
157.721628
 30
0.0
 40
46.34739336235641
100
AcDbArc
 50
124.698827
 51
126.14907
  0
ARC
  5
242
330
1F
100
AcDbEntity
  8
0
  6
CONTINUOUS
 62
     5
100
AcDbCircle
 10
6.528364
 20
166.101936
 30
0.0
 40
48.964580800453
210
0.0
220
0.0
230
-1.0
100
AcDbArc
 50
142.62272
 51
143.869802
  0
ARC
  5
243
330
1F
100
AcDbEntity
  8
0
  6
CONTINUOUS
 62
     5
100
AcDbCircle
 10
-3.979108
 20
231.080535
 30
0.0
 40
46.33703895869566
210
0.0
220
0.0
230
-1.0
100
AcDbArc
 50
231.191674
 51
232.642264
  0
ARC
  5
244
330
1F
100
AcDbEntity
  8
0
  6
CONTINUOUS
 62
     5
100
AcDbCircle
 10
3.864298
 20
230.994804
 30
0.0
 40
46.33704978530481
100
AcDbArc
 50
304.699228
 51
306.149815
  0
ARC
  5
245
330
1F
100
AcDbEntity
  8
0
  6
CONTINUOUS
 62
     5
100
AcDbCircle
 10
69.152494
 20
222.6232
 30
0.0
 40
48.96458158919538
100
AcDbArc
 50
216.130198
 51
217.377277
  0
ARC
  5
246
330
1F
100
AcDbEntity
  8
0
  6
CONTINUOUS
 62
     5
100
AcDbCircle
 10
-58.656261
 20
157.630751
 30
0.0
 40
46.35487007199196
210
0.0
220
0.0
230
-1.0
100
AcDbArc
 50
51.191603
 51
52.641608
  0
ARC
  5
247
330
1F
100
AcDbEntity
  8
0
  6
CONTINUOUS
 62
     5
100
AcDbCircle
 10
31.312097
 20
194.362592
 30
0.0
 40
2.274692507338991
100
AcDbArc
 50
139.429334
 51
294.078217
  0
ARC
  5
248
330
1F
100
AcDbEntity
  8
0
  6
CONTINUOUS
 62
     5
100
AcDbCircle
 10
31.311953
 20
194.362137
 30
0.0
 40
2.275031004197495
100
AcDbArc
 50
36.760776
 51
114.072217
  0
ARC
  5
249
330
1F
100
AcDbEntity
  8
0
  6
CONTINUOUS
 62
     5
100
AcDbCircle
 10
-31.311664
 20
194.362581
 30
0.0
 40
2.274996668250288
210
0.0
220
0.0
230
-1.0
100
AcDbArc
 50
143.252533
 51
220.565358
  0
LINE
  5
24A
330
1F
100
AcDbEntity
  8
0
  6
CONTINUOUS
 62
     5
100
AcDbLine
 10
29.584257
 20
195.842027
 30
0.0
 11
29.584904
 21
195.860513
 31
0.0
  0
LINE
  5
24B
330
1F
100
AcDbEntity
  8
0
  6
CONTINUOUS
 62
     5
100
AcDbLine
 10
32.240149
 20
192.285845
 30
0.0
 11
32.258056
 21
192.281218
 31
0.0
  0
LINE
  5
24C
330
1F
100
AcDbEntity
  8
0
  6
CONTINUOUS
 62
     5
100
AcDbLine
 10
30.383981
 20
196.439291
 30
0.0
 11
30.366071
 21
196.443918
 31
0.0
  0
LINE
  5
24D
330
1F
100
AcDbEntity
  8
0
  6
CONTINUOUS
 62
     5
100
AcDbLine
 10
33.039873
 20
192.883109
 30
0.0
 11
33.039225
 21
192.864621
 31
0.0
  0
SPLINE
  5
24E
330
1F
100
AcDbEntity
  8
0
  6
CONTINUOUS
 62
     5
100
AcDbSpline
210
0.0
220
0.0
230
1.0
 70
     8
 71
     3
 72
     9
 73
     5
 74
     0
 42
0.0
 43
0.0
 40
4.91732857459192
 40
4.91732857459192
 40
4.91732857459192
 40
4.91732857459192
 40
5.780442304740269
 40
6.48675702296981
 40
6.48675702296981
 40
6.48675702296981
 40
6.48675702296981
 10
29.66767363028539
 20
195.695504654942
 30
0.0
 10
29.81169299496286
 20
195.4835418961733
 30
0.0
 10
30.0902687693072
 20
195.0822153402583
 30
0.0
 10
30.39043340665594
 20
194.6648789360328
 30
0.0
 10
30.52817710505107
 20
194.47617379353
 30
0.0
  0
SPLINE
  5
24F
330
1F
100
AcDbEntity
  8
0
  6
CONTINUOUS
 62
     5
100
AcDbSpline
210
0.0
220
0.0
230
1.0
 70
     8
 71
     3
 72
    10
 73
     6
 74
     0
 42
0.0
 43
0.0
 40
0.0
 40
0.0
 40
0.0
 40
0.0
 40
0.1392650523937432
 40
0.260610814587122
 40
0.304237796084168
 40
0.304237796084168
 40
0.304237796084168
 40
0.304237796084168
 10
29.58425667379544
 20
195.8420267642315
 30
0.0
 10
29.58404408767115
 20
195.835648488508
 30
0.0
 10
29.59626162068008
 20
195.8070057192841
 30
0.0
 10
29.63378732606265
 20
195.7458600869639
 30
0.0
 10
29.66041838872553
 20
195.7061863347922
 30
0.0
 10
29.66768779699839
 20
195.695487565158
 30
0.0
  0
SPLINE
  5
250
330
1F
100
AcDbEntity
  8
0
  6
CONTINUOUS
 62
     5
100
AcDbSpline
210
0.0
220
0.0
230
1.0
 70
     8
 71
     3
 72
     9
 73
     5
 74
     0
 42
0.0
 43
0.0
 40
7.609826795033298
 40
7.609826795033298
 40
7.609826795033298
 40
7.609826795033298
 40
8.426922285250132
 40
9.179280102982277
 40
9.179280102982277
 40
9.179280102982277
 40
9.179280102982277
 10
31.19846068611803
 20
193.5786793855876
 30
0.0
 10
31.36254401106376
 20
193.3639147470063
 30
0.0
 10
31.67747553949527
 20
192.958585763854
 30
0.0
 10
31.98182966056996
 20
192.5802245515367
 30
0.0
 10
32.12333964759157
 20
192.4074230655204
 30
0.0
  0
SPLINE
  5
251
330
1F
100
AcDbEntity
  8
0
  6
CONTINUOUS
 62
     5
100
AcDbSpline
210
0.0
220
0.0
230
1.0
 70
     8
 71
     3
 72
     9
 73
     5
 74
     0
 42
0.0
 43
0.0
 40
0.0
 40
0.0
 40
0.0
 40
0.0
 40
0.1392651465254976
 40
0.3042392384436074
 40
0.3042392384436074
 40
0.3042392384436074
 40
0.3042392384436074
 10
32.24014891421291
 20
192.2858445348907
 30
0.0
 10
32.23397270470923
 20
192.2874514182205
 30
0.0
 10
32.20622583346108
 20
192.3102223385153
 30
0.0
 10
32.15400942843723
 20
192.3699548546999
 30
0.0
 10
32.12334560892333
 20
192.407401571376
 30
0.0
  0
SPLINE
  5
252
330
1F
100
AcDbEntity
  8
0
  6
CONTINUOUS
 62
     5
100
AcDbSpline
210
0.0
220
0.0
230
1.0
 70
     8
 71
     3
 72
     9
 73
     5
 74
     0
 42
0.0
 43
0.0
 40
4.917305997971718
 40
4.917305997971718
 40
4.917305997971718
 40
4.917305997971718
 40
5.669663815703807
 40
6.486761078027563
 40
6.486761078027563
 40
6.486761078027563
 40
6.486761078027563
 10
30.50078994718711
 20
196.3177125600845
 30
0.0
 10
30.64229993420871
 20
196.1449110740683
 30
0.0
 10
30.94665439893685
 20
195.7665494345344
 30
0.0
 10
31.26158629490821
 20
195.3612199632655
 30
0.0
 10
31.42566997624647
 20
195.1464548426804
 30
0.0
  0
SPLINE
  5
253
330
1F
100
AcDbEntity
  8
0
  6
CONTINUOUS
 62
     5
100
AcDbSpline
210
0.0
220
0.0
230
1.0
 70
     8
 71
     3
 72
     9
 73
     5
 74
     0
 42
0.0
 43
0.0
 40
0.0
 40
0.0
 40
0.0
 40
0.0
 40
0.1391534225208124
 40
0.3042364891791635
 40
0.3042364891791635
 40
0.3042364891791635
 40
0.3042364891791635
 10
30.3839806805658
 20
196.4392910907142
 30
0.0
 10
30.39015202318154
 20
196.4376854736175
 30
0.0
 10
30.41788574527521
 20
196.4149322829098
 30
0.0
 10
30.47010017543846
 20
196.3552049591675
 30
0.0
 10
30.50078398585003
 20
196.3177340542355
 30
0.0
  0
SPLINE
  5
254
330
1F
100
AcDbEntity
  8
0
  6
CONTINUOUS
 62
     5
100
AcDbSpline
210
0.0
220
0.0
230
1.0
 70
     8
 71
     3
 72
     9
 73
     5
 74
     0
 42
0.0
 43
0.0
 40
7.609830882098102
 40
7.609830882098102
 40
7.609830882098102
 40
7.609830882098102
 40
8.316143796213701
 40
9.179257526362088
 40
9.179257526362088
 40
9.179257526362088
 40
9.179257526362088
 10
32.09595354522866
 20
194.248960386067
 30
0.0
 10
32.23369687822259
 20
194.0602557300861
 30
0.0
 10
32.53386114570424
 20
193.6429198240075
 30
0.0
 10
32.81243659981581
 20
193.2415937294317
 30
0.0
 10
32.95645596449328
 20
193.029630970663
 30
0.0
  0
SPLINE
  5
255
330
1F
100
AcDbEntity
  8
0
  6
CONTINUOUS
 62
     5
100
AcDbSpline
210
0.0
220
0.0
230
1.0
 70
     8
 71
     3
 72
    10
 73
     6
 74
     0
 42
0.0
 43
0.0
 40
0.0
 40
0.0
 40
0.0
 40
0.0
 40
0.1391534132219165
 40
0.2604780005939917
 40
0.3042364138572717
 40
0.3042364138572717
 40
0.3042364138572717
 40
0.3042364138572717
 10
33.03987292098327
 20
192.8831088613734
 30
0.0
 10
33.04008533969142
 20
192.8894821140678
 30
0.0
 10
33.02788434716678
 20
192.9180967938611
 30
0.0
 10
32.99037924165106
 20
192.9792185660166
 30
0.0
 10
32.96373325296918
 20
193.0189168035234
 30
0.0
 10
32.95644179778105
 20
193.0296480604457
 30
0.0
  0
CIRCLE
  5
256
330
1F
100
AcDbEntity
  8
0
  6
CONTINUOUS
 62
     6
100
AcDbCircle
 10
37.562065
 20
194.362568
 30
0.0
 40
2.55
  0
CIRCLE
  5
257
330
1F
100
AcDbEntity
  8
0
  6
CONTINUOUS
 62
     6
100
AcDbCircle
 10
25.062065
 20
136.812568
 30
0.0
 40
2.55
  0
ARC
  5
258
330
1F
100
AcDbEntity
  8
0
  6
CONTINUOUS
 62
     5
100
AcDbCircle
 10
-25.061119
 20
136.813969
 30
0.0
 40
2.284511715182939
210
0.0
220
0.0
230
-1.0
100
AcDbArc
 50
40.923697
 51
65.564814
  0
ARC
  5
259
330
1F
100
AcDbEntity
  8
0
  6
CONTINUOUS
 62
     5
100
AcDbCircle
 10
-25.062606
 20
136.813146
 30
0.0
 40
2.286294250807127
210
0.0
220
0.0
230
-1.0
100
AcDbArc
 50
220.954577
 51
245.576147
  0
LINE
  5
25A
330
1F
100
AcDbEntity
  8
0
  6
CONTINUOUS
 62
     5
100
AcDbLine
 10
24.53529
 20
138.416121
 30
0.0
 11
23.674037
 21
137.772904
 31
0.0
  0
LINE
  5
25B
330
1F
100
AcDbEntity
  8
0
  6
CONTINUOUS
 62
     5
100
AcDbLine
 10
25.588839
 20
135.209014
 30
0.0
 11
26.450093
 21
135.852231
 31
0.0
  0
ARC
  5
25C
330
1F
100
AcDbEntity
  8
0
  6
CONTINUOUS
 62
     5
100
AcDbCircle
 10
52.515447
 20
100.171628
 30
0.0
 40
46.34739336235641
100
AcDbArc
 50
124.698827
 51
126.14907
  0
ARC
  5
25D
330
1F
100
AcDbEntity
  8
0
  6
CONTINUOUS
 62
     5
100
AcDbCircle
 10
12.778364
 20
108.551936
 30
0.0
 40
48.964580800453
210
0.0
220
0.0
230
-1.0
100
AcDbArc
 50
142.62272
 51
143.869802
  0
ARC
  5
25E
330
1F
100
AcDbEntity
  8
0
  6
CONTINUOUS
 62
     5
100
AcDbCircle
 10
2.270892
 20
173.530535
 30
0.0
 40
46.33703895869566
210
0.0
220
0.0
230
-1.0
100
AcDbArc
 50
231.191674
 51
232.642264
  0
ARC
  5
25F
330
1F
100
AcDbEntity
  8
0
  6
CONTINUOUS
 62
     5
100
AcDbCircle
 10
-2.385702
 20
173.444804
 30
0.0
 40
46.33704978530481
100
AcDbArc
 50
304.699228
 51
306.149815
  0
ARC
  5
260
330
1F
100
AcDbEntity
  8
0
  6
CONTINUOUS
 62
     5
100
AcDbCircle
 10
62.902494
 20
165.0732
 30
0.0
 40
48.96458158919538
100
AcDbArc
 50
216.130198
 51
217.377277
  0
ARC
  5
261
330
1F
100
AcDbEntity
  8
0
  6
CONTINUOUS
 62
     5
100
AcDbCircle
 10
-52.406261
 20
100.080751
 30
0.0
 40
46.35487007199196
210
0.0
220
0.0
230
-1.0
100
AcDbArc
 50
51.191603
 51
52.641608
  0
ARC
  5
262
330
1F
100
AcDbEntity
  8
0
  6
CONTINUOUS
 62
     5
100
AcDbCircle
 10
25.062097
 20
136.812592
 30
0.0
 40
2.274692507338991
100
AcDbArc
 50
139.429334
 51
294.078217
  0
ARC
  5
263
330
1F
100
AcDbEntity
  8
0
  6
CONTINUOUS
 62
     5
100
AcDbCircle
 10
25.061953
 20
136.812137
 30
0.0
 40
2.275031004197495
100
AcDbArc
 50
36.760776
 51
114.072217
  0
ARC
  5
264
330
1F
100
AcDbEntity
  8
0
  6
CONTINUOUS
 62
     5
100
AcDbCircle
 10
-25.061664
 20
136.812581
 30
0.0
 40
2.274996668250288
210
0.0
220
0.0
230
-1.0
100
AcDbArc
 50
143.252533
 51
220.565358
  0
LINE
  5
265
330
1F
100
AcDbEntity
  8
0
  6
CONTINUOUS
 62
     5
100
AcDbLine
 10
23.334257
 20
138.292027
 30
0.0
 11
23.334904
 21
138.310513
 31
0.0
  0
LINE
  5
266
330
1F
100
AcDbEntity
  8
0
  6
CONTINUOUS
 62
     5
100
AcDbLine
 10
25.990149
 20
134.735845
 30
0.0
 11
26.008056
 21
134.731218
 31
0.0
  0
LINE
  5
267
330
1F
100
AcDbEntity
  8
0
  6
CONTINUOUS
 62
     5
100
AcDbLine
 10
24.133981
 20
138.889291
 30
0.0
 11
24.116071
 21
138.893918
 31
0.0
  0
LINE
  5
268
330
1F
100
AcDbEntity
  8
0
  6
CONTINUOUS
 62
     5
100
AcDbLine
 10
26.789873
 20
135.333109
 30
0.0
 11
26.789225
 21
135.314621
 31
0.0
  0
SPLINE
  5
269
330
1F
100
AcDbEntity
  8
0
  6
CONTINUOUS
 62
     5
100
AcDbSpline
210
0.0
220
0.0
230
1.0
 70
     8
 71
     3
 72
     9
 73
     5
 74
     0
 42
0.0
 43
0.0
 40
4.91732857459192
 40
4.91732857459192
 40
4.91732857459192
 40
4.91732857459192
 40
5.780442304740269
 40
6.48675702296981
 40
6.48675702296981
 40
6.48675702296981
 40
6.48675702296981
 10
23.41767363028539
 20
138.145504654942
 30
0.0
 10
23.56169299496286
 20
137.9335418961733
 30
0.0
 10
23.8402687693072
 20
137.5322153402583
 30
0.0
 10
24.14043340665594
 20
137.1148789360328
 30
0.0
 10
24.27817710505107
 20
136.92617379353
 30
0.0
  0
SPLINE
  5
26A
330
1F
100
AcDbEntity
  8
0
  6
CONTINUOUS
 62
     5
100
AcDbSpline
210
0.0
220
0.0
230
1.0
 70
     8
 71
     3
 72
    10
 73
     6
 74
     0
 42
0.0
 43
0.0
 40
0.0
 40
0.0
 40
0.0
 40
0.0
 40
0.1392650523937432
 40
0.260610814587122
 40
0.304237796084168
 40
0.304237796084168
 40
0.304237796084168
 40
0.304237796084168
 10
23.33425667379544
 20
138.2920267642315
 30
0.0
 10
23.33404408767115
 20
138.285648488508
 30
0.0
 10
23.34626162068008
 20
138.2570057192841
 30
0.0
 10
23.38378732606265
 20
138.1958600869639
 30
0.0
 10
23.41041838872553
 20
138.1561863347923
 30
0.0
 10
23.41768779699839
 20
138.145487565158
 30
0.0
  0
SPLINE
  5
26B
330
1F
100
AcDbEntity
  8
0
  6
CONTINUOUS
 62
     5
100
AcDbSpline
210
0.0
220
0.0
230
1.0
 70
     8
 71
     3
 72
     9
 73
     5
 74
     0
 42
0.0
 43
0.0
 40
7.609826795033298
 40
7.609826795033298
 40
7.609826795033298
 40
7.609826795033298
 40
8.426922285250132
 40
9.179280102982277
 40
9.179280102982277
 40
9.179280102982277
 40
9.179280102982277
 10
24.94846068611803
 20
136.0286793855876
 30
0.0
 10
25.11254401106375
 20
135.8139147470063
 30
0.0
 10
25.42747553949526
 20
135.408585763854
 30
0.0
 10
25.73182966056996
 20
135.0302245515367
 30
0.0
 10
25.87333964759156
 20
134.8574230655205
 30
0.0
  0
SPLINE
  5
26C
330
1F
100
AcDbEntity
  8
0
  6
CONTINUOUS
 62
     5
100
AcDbSpline
210
0.0
220
0.0
230
1.0
 70
     8
 71
     3
 72
     9
 73
     5
 74
     0
 42
0.0
 43
0.0
 40
0.0
 40
0.0
 40
0.0
 40
0.0
 40
0.1392651465254976
 40
0.3042392384436074
 40
0.3042392384436074
 40
0.3042392384436074
 40
0.3042392384436074
 10
25.99014891421291
 20
134.7358445348908
 30
0.0
 10
25.98397270470923
 20
134.7374514182205
 30
0.0
 10
25.95622583346108
 20
134.7602223385153
 30
0.0
 10
25.90400942843723
 20
134.8199548546999
 30
0.0
 10
25.87334560892333
 20
134.857401571376
 30
0.0
  0
SPLINE
  5
26D
330
1F
100
AcDbEntity
  8
0
  6
CONTINUOUS
 62
     5
100
AcDbSpline
210
0.0
220
0.0
230
1.0
 70
     8
 71
     3
 72
     9
 73
     5
 74
     0
 42
0.0
 43
0.0
 40
4.917305997971718
 40
4.917305997971718
 40
4.917305997971718
 40
4.917305997971718
 40
5.669663815703807
 40
6.486761078027563
 40
6.486761078027563
 40
6.486761078027563
 40
6.486761078027563
 10
24.25078994718712
 20
138.7677125600846
 30
0.0
 10
24.39229993420871
 20
138.5949110740683
 30
0.0
 10
24.69665439893685
 20
138.2165494345344
 30
0.0
 10
25.01158629490821
 20
137.8112199632656
 30
0.0
 10
25.17566997624647
 20
137.5964548426805
 30
0.0
  0
SPLINE
  5
26E
330
1F
100
AcDbEntity
  8
0
  6
CONTINUOUS
 62
     5
100
AcDbSpline
210
0.0
220
0.0
230
1.0
 70
     8
 71
     3
 72
     9
 73
     5
 74
     0
 42
0.0
 43
0.0
 40
0.0
 40
0.0
 40
0.0
 40
0.0
 40
0.1391534225208124
 40
0.3042364891791635
 40
0.3042364891791635
 40
0.3042364891791635
 40
0.3042364891791635
 10
24.1339806805658
 20
138.8892910907143
 30
0.0
 10
24.14015202318154
 20
138.8876854736175
 30
0.0
 10
24.16788574527521
 20
138.8649322829098
 30
0.0
 10
24.22010017543846
 20
138.8052049591675
 30
0.0
 10
24.25078398585003
 20
138.7677340542355
 30
0.0
  0
SPLINE
  5
26F
330
1F
100
AcDbEntity
  8
0
  6
CONTINUOUS
 62
     5
100
AcDbSpline
210
0.0
220
0.0
230
1.0
 70
     8
 71
     3
 72
     9
 73
     5
 74
     0
 42
0.0
 43
0.0
 40
7.609830882098102
 40
7.609830882098102
 40
7.609830882098102
 40
7.609830882098102
 40
8.316143796213701
 40
9.179257526362088
 40
9.179257526362088
 40
9.179257526362088
 40
9.179257526362088
 10
25.84595354522865
 20
136.6989603860671
 30
0.0
 10
25.98369687822259
 20
136.5102557300861
 30
0.0
 10
26.28386114570424
 20
136.0929198240075
 30
0.0
 10
26.56243659981581
 20
135.6915937294316
 30
0.0
 10
26.70645596449328
 20
135.479630970663
 30
0.0
  0
SPLINE
  5
270
330
1F
100
AcDbEntity
  8
0
  6
CONTINUOUS
 62
     5
100
AcDbSpline
210
0.0
220
0.0
230
1.0
 70
     8
 71
     3
 72
    10
 73
     6
 74
     0
 42
0.0
 43
0.0
 40
0.0
 40
0.0
 40
0.0
 40
0.0
 40
0.1391534132219165
 40
0.2604780005939917
 40
0.3042364138572717
 40
0.3042364138572717
 40
0.3042364138572717
 40
0.3042364138572717
 10
26.78987292098327
 20
135.3331088613734
 30
0.0
 10
26.79008533969142
 20
135.3394821140678
 30
0.0
 10
26.77788434716678
 20
135.3680967938611
 30
0.0
 10
26.74037924165106
 20
135.4292185660166
 30
0.0
 10
26.71373325296918
 20
135.4689168035234
 30
0.0
 10
26.70644179778105
 20
135.4796480604458
 30
0.0
  0
CIRCLE
  5
271
330
1F
100
AcDbEntity
  8
0
  6
CONTINUOUS
 62
     6
100
AcDbCircle
 10
31.312065
 20
136.812568
 30
0.0
 40
2.55
  0
ARC
  5
272
330
1F
100
AcDbEntity
  8
0
  6
CONTINUOUS
 62
     5
100
AcDbCircle
 10
-31.311119
 20
136.813969
 30
0.0
 40
2.284511715182939
210
0.0
220
0.0
230
-1.0
100
AcDbArc
 50
40.923697
 51
65.564814
  0
ARC
  5
273
330
1F
100
AcDbEntity
  8
0
  6
CONTINUOUS
 62
     5
100
AcDbCircle
 10
-31.312606
 20
136.813146
 30
0.0
 40
2.286294250807127
210
0.0
220
0.0
230
-1.0
100
AcDbArc
 50
220.954577
 51
245.576147
  0
LINE
  5
274
330
1F
100
AcDbEntity
  8
0
  6
CONTINUOUS
 62
     5
100
AcDbLine
 10
30.78529
 20
138.416121
 30
0.0
 11
29.924037
 21
137.772904
 31
0.0
  0
LINE
  5
275
330
1F
100
AcDbEntity
  8
0
  6
CONTINUOUS
 62
     5
100
AcDbLine
 10
31.838839
 20
135.209014
 30
0.0
 11
32.700093
 21
135.852231
 31
0.0
  0
ARC
  5
276
330
1F
100
AcDbEntity
  8
0
  6
CONTINUOUS
 62
     5
100
AcDbCircle
 10
58.765447
 20
100.171628
 30
0.0
 40
46.34739336235641
100
AcDbArc
 50
124.698827
 51
126.14907
  0
ARC
  5
277
330
1F
100
AcDbEntity
  8
0
  6
CONTINUOUS
 62
     5
100
AcDbCircle
 10
6.528364
 20
108.551936
 30
0.0
 40
48.964580800453
210
0.0
220
0.0
230
-1.0
100
AcDbArc
 50
142.62272
 51
143.869802
  0
ARC
  5
278
330
1F
100
AcDbEntity
  8
0
  6
CONTINUOUS
 62
     5
100
AcDbCircle
 10
-3.979108
 20
173.530535
 30
0.0
 40
46.33703895869566
210
0.0
220
0.0
230
-1.0
100
AcDbArc
 50
231.191674
 51
232.642264
  0
ARC
  5
279
330
1F
100
AcDbEntity
  8
0
  6
CONTINUOUS
 62
     5
100
AcDbCircle
 10
3.864298
 20
173.444804
 30
0.0
 40
46.33704978530481
100
AcDbArc
 50
304.699228
 51
306.149815
  0
ARC
  5
27A
330
1F
100
AcDbEntity
  8
0
  6
CONTINUOUS
 62
     5
100
AcDbCircle
 10
69.152494
 20
165.0732
 30
0.0
 40
48.96458158919538
100
AcDbArc
 50
216.130198
 51
217.377277
  0
ARC
  5
27B
330
1F
100
AcDbEntity
  8
0
  6
CONTINUOUS
 62
     5
100
AcDbCircle
 10
-58.656261
 20
100.080751
 30
0.0
 40
46.35487007199196
210
0.0
220
0.0
230
-1.0
100
AcDbArc
 50
51.191603
 51
52.641608
  0
ARC
  5
27C
330
1F
100
AcDbEntity
  8
0
  6
CONTINUOUS
 62
     5
100
AcDbCircle
 10
31.312097
 20
136.812592
 30
0.0
 40
2.274692507338991
100
AcDbArc
 50
139.429334
 51
294.078217
  0
ARC
  5
27D
330
1F
100
AcDbEntity
  8
0
  6
CONTINUOUS
 62
     5
100
AcDbCircle
 10
31.311953
 20
136.812137
 30
0.0
 40
2.275031004197495
100
AcDbArc
 50
36.760776
 51
114.072217
  0
ARC
  5
27E
330
1F
100
AcDbEntity
  8
0
  6
CONTINUOUS
 62
     5
100
AcDbCircle
 10
-31.311664
 20
136.812581
 30
0.0
 40
2.274996668250288
210
0.0
220
0.0
230
-1.0
100
AcDbArc
 50
143.252533
 51
220.565358
  0
LINE
  5
27F
330
1F
100
AcDbEntity
  8
0
  6
CONTINUOUS
 62
     5
100
AcDbLine
 10
29.584257
 20
138.292027
 30
0.0
 11
29.584904
 21
138.310513
 31
0.0
  0
LINE
  5
280
330
1F
100
AcDbEntity
  8
0
  6
CONTINUOUS
 62
     5
100
AcDbLine
 10
32.240149
 20
134.735845
 30
0.0
 11
32.258056
 21
134.731218
 31
0.0
  0
LINE
  5
281
330
1F
100
AcDbEntity
  8
0
  6
CONTINUOUS
 62
     5
100
AcDbLine
 10
30.383981
 20
138.889291
 30
0.0
 11
30.366071
 21
138.893918
 31
0.0
  0
LINE
  5
282
330
1F
100
AcDbEntity
  8
0
  6
CONTINUOUS
 62
     5
100
AcDbLine
 10
33.039873
 20
135.333109
 30
0.0
 11
33.039225
 21
135.314621
 31
0.0
  0
SPLINE
  5
283
330
1F
100
AcDbEntity
  8
0
  6
CONTINUOUS
 62
     5
100
AcDbSpline
210
0.0
220
0.0
230
1.0
 70
     8
 71
     3
 72
     9
 73
     5
 74
     0
 42
0.0
 43
0.0
 40
4.91732857459192
 40
4.91732857459192
 40
4.91732857459192
 40
4.91732857459192
 40
5.780442304740269
 40
6.48675702296981
 40
6.48675702296981
 40
6.48675702296981
 40
6.48675702296981
 10
29.66767363028539
 20
138.145504654942
 30
0.0
 10
29.81169299496286
 20
137.9335418961733
 30
0.0
 10
30.0902687693072
 20
137.5322153402583
 30
0.0
 10
30.39043340665594
 20
137.1148789360328
 30
0.0
 10
30.52817710505107
 20
136.92617379353
 30
0.0
  0
SPLINE
  5
284
330
1F
100
AcDbEntity
  8
0
  6
CONTINUOUS
 62
     5
100
AcDbSpline
210
0.0
220
0.0
230
1.0
 70
     8
 71
     3
 72
    10
 73
     6
 74
     0
 42
0.0
 43
0.0
 40
0.0
 40
0.0
 40
0.0
 40
0.0
 40
0.1392650523937432
 40
0.260610814587122
 40
0.304237796084168
 40
0.304237796084168
 40
0.304237796084168
 40
0.304237796084168
 10
29.58425667379544
 20
138.2920267642315
 30
0.0
 10
29.58404408767115
 20
138.285648488508
 30
0.0
 10
29.59626162068008
 20
138.2570057192841
 30
0.0
 10
29.63378732606265
 20
138.1958600869639
 30
0.0
 10
29.66041838872553
 20
138.1561863347923
 30
0.0
 10
29.66768779699839
 20
138.145487565158
 30
0.0
  0
SPLINE
  5
285
330
1F
100
AcDbEntity
  8
0
  6
CONTINUOUS
 62
     5
100
AcDbSpline
210
0.0
220
0.0
230
1.0
 70
     8
 71
     3
 72
     9
 73
     5
 74
     0
 42
0.0
 43
0.0
 40
7.609826795033298
 40
7.609826795033298
 40
7.609826795033298
 40
7.609826795033298
 40
8.426922285250132
 40
9.179280102982277
 40
9.179280102982277
 40
9.179280102982277
 40
9.179280102982277
 10
31.19846068611803
 20
136.0286793855876
 30
0.0
 10
31.36254401106376
 20
135.8139147470063
 30
0.0
 10
31.67747553949527
 20
135.408585763854
 30
0.0
 10
31.98182966056996
 20
135.0302245515367
 30
0.0
 10
32.12333964759157
 20
134.8574230655205
 30
0.0
  0
SPLINE
  5
286
330
1F
100
AcDbEntity
  8
0
  6
CONTINUOUS
 62
     5
100
AcDbSpline
210
0.0
220
0.0
230
1.0
 70
     8
 71
     3
 72
     9
 73
     5
 74
     0
 42
0.0
 43
0.0
 40
0.0
 40
0.0
 40
0.0
 40
0.0
 40
0.1392651465254976
 40
0.3042392384436074
 40
0.3042392384436074
 40
0.3042392384436074
 40
0.3042392384436074
 10
32.24014891421291
 20
134.7358445348908
 30
0.0
 10
32.23397270470923
 20
134.7374514182205
 30
0.0
 10
32.20622583346108
 20
134.7602223385153
 30
0.0
 10
32.15400942843723
 20
134.8199548546999
 30
0.0
 10
32.12334560892333
 20
134.857401571376
 30
0.0
  0
SPLINE
  5
287
330
1F
100
AcDbEntity
  8
0
  6
CONTINUOUS
 62
     5
100
AcDbSpline
210
0.0
220
0.0
230
1.0
 70
     8
 71
     3
 72
     9
 73
     5
 74
     0
 42
0.0
 43
0.0
 40
4.917305997971718
 40
4.917305997971718
 40
4.917305997971718
 40
4.917305997971718
 40
5.669663815703807
 40
6.486761078027563
 40
6.486761078027563
 40
6.486761078027563
 40
6.486761078027563
 10
30.50078994718711
 20
138.7677125600846
 30
0.0
 10
30.64229993420871
 20
138.5949110740683
 30
0.0
 10
30.94665439893685
 20
138.2165494345344
 30
0.0
 10
31.26158629490821
 20
137.8112199632656
 30
0.0
 10
31.42566997624647
 20
137.5964548426805
 30
0.0
  0
SPLINE
  5
288
330
1F
100
AcDbEntity
  8
0
  6
CONTINUOUS
 62
     5
100
AcDbSpline
210
0.0
220
0.0
230
1.0
 70
     8
 71
     3
 72
     9
 73
     5
 74
     0
 42
0.0
 43
0.0
 40
0.0
 40
0.0
 40
0.0
 40
0.0
 40
0.1391534225208124
 40
0.3042364891791635
 40
0.3042364891791635
 40
0.3042364891791635
 40
0.3042364891791635
 10
30.3839806805658
 20
138.8892910907143
 30
0.0
 10
30.39015202318154
 20
138.8876854736175
 30
0.0
 10
30.41788574527521
 20
138.8649322829098
 30
0.0
 10
30.47010017543846
 20
138.8052049591675
 30
0.0
 10
30.50078398585003
 20
138.7677340542355
 30
0.0
  0
SPLINE
  5
289
330
1F
100
AcDbEntity
  8
0
  6
CONTINUOUS
 62
     5
100
AcDbSpline
210
0.0
220
0.0
230
1.0
 70
     8
 71
     3
 72
     9
 73
     5
 74
     0
 42
0.0
 43
0.0
 40
7.609830882098102
 40
7.609830882098102
 40
7.609830882098102
 40
7.609830882098102
 40
8.316143796213701
 40
9.179257526362088
 40
9.179257526362088
 40
9.179257526362088
 40
9.179257526362088
 10
32.09595354522866
 20
136.6989603860671
 30
0.0
 10
32.23369687822259
 20
136.5102557300861
 30
0.0
 10
32.53386114570424
 20
136.0929198240075
 30
0.0
 10
32.81243659981581
 20
135.6915937294316
 30
0.0
 10
32.95645596449328
 20
135.479630970663
 30
0.0
  0
SPLINE
  5
28A
330
1F
100
AcDbEntity
  8
0
  6
CONTINUOUS
 62
     5
100
AcDbSpline
210
0.0
220
0.0
230
1.0
 70
     8
 71
     3
 72
    10
 73
     6
 74
     0
 42
0.0
 43
0.0
 40
0.0
 40
0.0
 40
0.0
 40
0.0
 40
0.1391534132219165
 40
0.2604780005939917
 40
0.3042364138572717
 40
0.3042364138572717
 40
0.3042364138572717
 40
0.3042364138572717
 10
33.03987292098327
 20
135.3331088613734
 30
0.0
 10
33.04008533969142
 20
135.3394821140678
 30
0.0
 10
33.02788434716678
 20
135.3680967938611
 30
0.0
 10
32.99037924165106
 20
135.4292185660166
 30
0.0
 10
32.96373325296918
 20
135.4689168035234
 30
0.0
 10
32.95644179778105
 20
135.4796480604458
 30
0.0
  0
CIRCLE
  5
28B
330
1F
100
AcDbEntity
  8
0
  6
CONTINUOUS
 62
     6
100
AcDbCircle
 10
37.562065
 20
136.812568
 30
0.0
 40
2.55
  0
ARC
  5
28C
330
1F
100
AcDbEntity
  8
0
  6
CONTINUOUS
 62
     5
100
AcDbCircle
 10
-37.561119
 20
136.813969
 30
0.0
 40
2.284511715182939
210
0.0
220
0.0
230
-1.0
100
AcDbArc
 50
40.923697
 51
65.564814
  0
ARC
  5
28D
330
1F
100
AcDbEntity
  8
0
  6
CONTINUOUS
 62
     5
100
AcDbCircle
 10
-37.562606
 20
136.813146
 30
0.0
 40
2.286294250807127
210
0.0
220
0.0
230
-1.0
100
AcDbArc
 50
220.954577
 51
245.576147
  0
LINE
  5
28E
330
1F
100
AcDbEntity
  8
0
  6
CONTINUOUS
 62
     5
100
AcDbLine
 10
37.03529
 20
138.416121
 30
0.0
 11
36.174037
 21
137.772904
 31
0.0
  0
LINE
  5
28F
330
1F
100
AcDbEntity
  8
0
  6
CONTINUOUS
 62
     5
100
AcDbLine
 10
38.088839
 20
135.209014
 30
0.0
 11
38.950093
 21
135.852231
 31
0.0
  0
ARC
  5
290
330
1F
100
AcDbEntity
  8
0
  6
CONTINUOUS
 62
     5
100
AcDbCircle
 10
65.015447
 20
100.171628
 30
0.0
 40
46.34739336235641
100
AcDbArc
 50
124.698827
 51
126.14907
  0
ARC
  5
291
330
1F
100
AcDbEntity
  8
0
  6
CONTINUOUS
 62
     5
100
AcDbCircle
 10
0.278364
 20
108.551936
 30
0.0
 40
48.964580800453
210
0.0
220
0.0
230
-1.0
100
AcDbArc
 50
142.62272
 51
143.869802
  0
ARC
  5
292
330
1F
100
AcDbEntity
  8
0
  6
CONTINUOUS
 62
     5
100
AcDbCircle
 10
-10.229108
 20
173.530535
 30
0.0
 40
46.33703895869566
210
0.0
220
0.0
230
-1.0
100
AcDbArc
 50
231.191674
 51
232.642264
  0
ARC
  5
293
330
1F
100
AcDbEntity
  8
0
  6
CONTINUOUS
 62
     5
100
AcDbCircle
 10
10.114298
 20
173.444804
 30
0.0
 40
46.33704978530481
100
AcDbArc
 50
304.699228
 51
306.149815
  0
ARC
  5
294
330
1F
100
AcDbEntity
  8
0
  6
CONTINUOUS
 62
     5
100
AcDbCircle
 10
75.402494
 20
165.0732
 30
0.0
 40
48.96458158919538
100
AcDbArc
 50
216.130198
 51
217.377277
  0
ARC
  5
295
330
1F
100
AcDbEntity
  8
0
  6
CONTINUOUS
 62
     5
100
AcDbCircle
 10
-64.906261
 20
100.080751
 30
0.0
 40
46.35487007199196
210
0.0
220
0.0
230
-1.0
100
AcDbArc
 50
51.191603
 51
52.641608
  0
ARC
  5
296
330
1F
100
AcDbEntity
  8
0
  6
CONTINUOUS
 62
     5
100
AcDbCircle
 10
37.562097
 20
136.812592
 30
0.0
 40
2.274692507338991
100
AcDbArc
 50
139.429334
 51
294.078217
  0
ARC
  5
297
330
1F
100
AcDbEntity
  8
0
  6
CONTINUOUS
 62
     5
100
AcDbCircle
 10
37.561953
 20
136.812137
 30
0.0
 40
2.275031004197495
100
AcDbArc
 50
36.760776
 51
114.072217
  0
ARC
  5
298
330
1F
100
AcDbEntity
  8
0
  6
CONTINUOUS
 62
     5
100
AcDbCircle
 10
-37.561664
 20
136.812581
 30
0.0
 40
2.274996668250288
210
0.0
220
0.0
230
-1.0
100
AcDbArc
 50
143.252533
 51
220.565358
  0
LINE
  5
299
330
1F
100
AcDbEntity
  8
0
  6
CONTINUOUS
 62
     5
100
AcDbLine
 10
35.834257
 20
138.292027
 30
0.0
 11
35.834904
 21
138.310513
 31
0.0
  0
LINE
  5
29A
330
1F
100
AcDbEntity
  8
0
  6
CONTINUOUS
 62
     5
100
AcDbLine
 10
38.490149
 20
134.735845
 30
0.0
 11
38.508056
 21
134.731218
 31
0.0
  0
LINE
  5
29B
330
1F
100
AcDbEntity
  8
0
  6
CONTINUOUS
 62
     5
100
AcDbLine
 10
36.633981
 20
138.889291
 30
0.0
 11
36.616071
 21
138.893918
 31
0.0
  0
LINE
  5
29C
330
1F
100
AcDbEntity
  8
0
  6
CONTINUOUS
 62
     5
100
AcDbLine
 10
39.289873
 20
135.333109
 30
0.0
 11
39.289225
 21
135.314621
 31
0.0
  0
SPLINE
  5
29D
330
1F
100
AcDbEntity
  8
0
  6
CONTINUOUS
 62
     5
100
AcDbSpline
210
0.0
220
0.0
230
1.0
 70
     8
 71
     3
 72
     9
 73
     5
 74
     0
 42
0.0
 43
0.0
 40
4.91732857459192
 40
4.91732857459192
 40
4.91732857459192
 40
4.91732857459192
 40
5.780442304740269
 40
6.48675702296981
 40
6.48675702296981
 40
6.48675702296981
 40
6.48675702296981
 10
35.91767363028539
 20
138.145504654942
 30
0.0
 10
36.06169299496285
 20
137.9335418961733
 30
0.0
 10
36.34026876930721
 20
137.5322153402583
 30
0.0
 10
36.64043340665594
 20
137.1148789360328
 30
0.0
 10
36.77817710505108
 20
136.92617379353
 30
0.0
  0
SPLINE
  5
29E
330
1F
100
AcDbEntity
  8
0
  6
CONTINUOUS
 62
     5
100
AcDbSpline
210
0.0
220
0.0
230
1.0
 70
     8
 71
     3
 72
    10
 73
     6
 74
     0
 42
0.0
 43
0.0
 40
0.0
 40
0.0
 40
0.0
 40
0.0
 40
0.1392650523937432
 40
0.260610814587122
 40
0.304237796084168
 40
0.304237796084168
 40
0.304237796084168
 40
0.304237796084168
 10
35.83425667379544
 20
138.2920267642315
 30
0.0
 10
35.83404408767115
 20
138.285648488508
 30
0.0
 10
35.84626162068008
 20
138.2570057192841
 30
0.0
 10
35.88378732606265
 20
138.1958600869639
 30
0.0
 10
35.91041838872553
 20
138.1561863347923
 30
0.0
 10
35.91768779699839
 20
138.145487565158
 30
0.0
  0
SPLINE
  5
29F
330
1F
100
AcDbEntity
  8
0
  6
CONTINUOUS
 62
     5
100
AcDbSpline
210
0.0
220
0.0
230
1.0
 70
     8
 71
     3
 72
     9
 73
     5
 74
     0
 42
0.0
 43
0.0
 40
7.609826795033298
 40
7.609826795033298
 40
7.609826795033298
 40
7.609826795033298
 40
8.426922285250132
 40
9.179280102982277
 40
9.179280102982277
 40
9.179280102982277
 40
9.179280102982277
 10
37.44846068611803
 20
136.0286793855876
 30
0.0
 10
37.61254401106375
 20
135.8139147470063
 30
0.0
 10
37.92747553949526
 20
135.408585763854
 30
0.0
 10
38.23182966056996
 20
135.0302245515367
 30
0.0
 10
38.37333964759156
 20
134.8574230655205
 30
0.0
  0
SPLINE
  5
2A0
330
1F
100
AcDbEntity
  8
0
  6
CONTINUOUS
 62
     5
100
AcDbSpline
210
0.0
220
0.0
230
1.0
 70
     8
 71
     3
 72
     9
 73
     5
 74
     0
 42
0.0
 43
0.0
 40
0.0
 40
0.0
 40
0.0
 40
0.0
 40
0.1392651465254976
 40
0.3042392384436074
 40
0.3042392384436074
 40
0.3042392384436074
 40
0.3042392384436074
 10
38.49014891421291
 20
134.7358445348908
 30
0.0
 10
38.48397270470923
 20
134.7374514182205
 30
0.0
 10
38.45622583346108
 20
134.7602223385153
 30
0.0
 10
38.40400942843723
 20
134.8199548546999
 30
0.0
 10
38.37334560892333
 20
134.857401571376
 30
0.0
  0
SPLINE
  5
2A1
330
1F
100
AcDbEntity
  8
0
  6
CONTINUOUS
 62
     5
100
AcDbSpline
210
0.0
220
0.0
230
1.0
 70
     8
 71
     3
 72
     9
 73
     5
 74
     0
 42
0.0
 43
0.0
 40
4.917305997971718
 40
4.917305997971718
 40
4.917305997971718
 40
4.917305997971718
 40
5.669663815703807
 40
6.486761078027563
 40
6.486761078027563
 40
6.486761078027563
 40
6.486761078027563
 10
36.75078994718712
 20
138.7677125600846
 30
0.0
 10
36.89229993420871
 20
138.5949110740683
 30
0.0
 10
37.19665439893685
 20
138.2165494345344
 30
0.0
 10
37.51158629490821
 20
137.8112199632656
 30
0.0
 10
37.67566997624647
 20
137.5964548426805
 30
0.0
  0
SPLINE
  5
2A2
330
1F
100
AcDbEntity
  8
0
  6
CONTINUOUS
 62
     5
100
AcDbSpline
210
0.0
220
0.0
230
1.0
 70
     8
 71
     3
 72
     9
 73
     5
 74
     0
 42
0.0
 43
0.0
 40
0.0
 40
0.0
 40
0.0
 40
0.0
 40
0.1391534225208124
 40
0.3042364891791635
 40
0.3042364891791635
 40
0.3042364891791635
 40
0.3042364891791635
 10
36.6339806805658
 20
138.8892910907143
 30
0.0
 10
36.64015202318154
 20
138.8876854736175
 30
0.0
 10
36.66788574527521
 20
138.8649322829098
 30
0.0
 10
36.72010017543846
 20
138.8052049591675
 30
0.0
 10
36.75078398585003
 20
138.7677340542355
 30
0.0
  0
SPLINE
  5
2A3
330
1F
100
AcDbEntity
  8
0
  6
CONTINUOUS
 62
     5
100
AcDbSpline
210
0.0
220
0.0
230
1.0
 70
     8
 71
     3
 72
     9
 73
     5
 74
     0
 42
0.0
 43
0.0
 40
7.609830882098102
 40
7.609830882098102
 40
7.609830882098102
 40
7.609830882098102
 40
8.316143796213701
 40
9.179257526362088
 40
9.179257526362088
 40
9.179257526362088
 40
9.179257526362088
 10
38.34595354522865
 20
136.6989603860671
 30
0.0
 10
38.48369687822259
 20
136.5102557300861
 30
0.0
 10
38.78386114570424
 20
136.0929198240075
 30
0.0
 10
39.06243659981581
 20
135.6915937294316
 30
0.0
 10
39.20645596449328
 20
135.479630970663
 30
0.0
  0
SPLINE
  5
2A4
330
1F
100
AcDbEntity
  8
0
  6
CONTINUOUS
 62
     5
100
AcDbSpline
210
0.0
220
0.0
230
1.0
 70
     8
 71
     3
 72
    10
 73
     6
 74
     0
 42
0.0
 43
0.0
 40
0.0
 40
0.0
 40
0.0
 40
0.0
 40
0.1391534132219165
 40
0.2604780005939917
 40
0.3042364138572717
 40
0.3042364138572717
 40
0.3042364138572717
 40
0.3042364138572717
 10
39.28987292098327
 20
135.3331088613734
 30
0.0
 10
39.29008533969142
 20
135.3394821140678
 30
0.0
 10
39.27788434716678
 20
135.3680967938611
 30
0.0
 10
39.24037924165106
 20
135.4292185660166
 30
0.0
 10
39.21373325296918
 20
135.4689168035234
 30
0.0
 10
39.20644179778105
 20
135.4796480604458
 30
0.0
  0
LINE
  5
2A5
330
1F
100
AcDbEntity
  8
DRAW
  6
CONTINUOUS
 62
     4
100
AcDbLine
 10
24.762081
 20
120.262568
 30
0.0
 11
25.762081
 21
120.262568
 31
0.0
  0
LINE
  5
2A6
330
1F
100
AcDbEntity
  8
DRAW
  6
CONTINUOUS
 62
     4
100
AcDbLine
 10
36.86208
 20
120.262568
 30
0.0
 11
37.86208
 21
120.262568
 31
0.0
  0
POINT
  5
2A7
330
1F
100
AcDbEntity
  8
DRAW
  6
CONTINUOUS
 62
     5
100
AcDbPoint
 10
70.717486
 20
142.762553
 30
0.0
  0
POINT
  5
2A8
330
1F
100
AcDbEntity
  8
DRAW
  6
CONTINUOUS
 62
     5
100
AcDbPoint
 10
70.717486
 20
142.762553
 30
0.0
  0
LINE
  5
2A9
330
1F
100
AcDbEntity
  8
DRAW
  6
CONTINUOUS
 62
     4
100
AcDbLine
 10
66.417486
 20
142.762553
 30
0.0
 11
67.217486
 21
142.762553
 31
0.0
  0
POINT
  5
2AA
330
1F
100
AcDbEntity
  8
DRAW
  6
CONTINUOUS
 62
     5
100
AcDbPoint
 10
70.717486
 20
142.762553
 30
0.0
  0
LINE
  5
2AB
330
1F
100
AcDbEntity
  8
DRAW
  6
CONTINUOUS
 62
     4
100
AcDbLine
 10
70.717487
 20
177.762553
 30
0.0
 11
70.717487
 21
178.262553
 31
0.0
  0
LINE
  5
2AC
330
1F
100
AcDbEntity
  8
DRAW
  6
CONTINUOUS
 62
     5
100
AcDbLine
 10
70.717486
 20
142.762553
 30
0.0
 11
70.717486
 21
144.462554
 31
0.0
  0
LINE
  5
2AD
330
1F
100
AcDbEntity
  8
0
  6
CONTINUOUS
 62
     5
100
AcDbLine
 10
70.717487
 20
173.762553
 30
0.0
 11
70.717487
 21
177.762553
 31
0.0
  0
LINE
  5
2AE
330
1F
100
AcDbEntity
  8
0
  6
CONTINUOUS
 62
     6
100
AcDbLine
 10
35.162065
 20
157.612572
 30
0.0
 11
36.762065
 21
157.612572
 31
0.0
  0
LINE
  5
2AF
330
1F
100
AcDbEntity
  8
0
  6
CONTINUOUS
 62
     6
100
AcDbLine
 10
36.762065
 20
157.612572
 30
0.0
 11
36.762065
 21
155.412572
 31
0.0
  0
LINE
  5
2B0
330
1F
100
AcDbEntity
  8
0
  6
CONTINUOUS
 62
     6
100
AcDbLine
 10
36.762065
 20
155.412572
 30
0.0
 11
35.162065
 21
155.412572
 31
0.0
  0
LINE
  5
2B1
330
1F
100
AcDbEntity
  8
0
  6
CONTINUOUS
 62
     6
100
AcDbLine
 10
35.162065
 20
155.412572
 30
0.0
 11
35.162065
 21
157.612572
 31
0.0
  0
LINE
  5
2B2
330
1F
100
AcDbEntity
  8
0
  6
CONTINUOUS
 62
     6
100
AcDbLine
 10
28.962065
 20
157.612572
 30
0.0
 11
30.562065
 21
157.612572
 31
0.0
  0
LINE
  5
2B3
330
1F
100
AcDbEntity
  8
0
  6
CONTINUOUS
 62
     6
100
AcDbLine
 10
30.562065
 20
157.612572
 30
0.0
 11
30.562065
 21
155.412572
 31
0.0
  0
LINE
  5
2B4
330
1F
100
AcDbEntity
  8
0
  6
CONTINUOUS
 62
     6
100
AcDbLine
 10
30.562065
 20
155.412572
 30
0.0
 11
28.962065
 21
155.412572
 31
0.0
  0
LINE
  5
2B5
330
1F
100
AcDbEntity
  8
0
  6
CONTINUOUS
 62
     6
100
AcDbLine
 10
28.962065
 20
155.412572
 30
0.0
 11
28.962065
 21
157.612572
 31
0.0
  0
LINE
  5
2B6
330
1F
100
AcDbEntity
  8
0
  6
CONTINUOUS
 62
     6
100
AcDbLine
 10
32.062065
 20
157.612572
 30
0.0
 11
33.662065
 21
157.612572
 31
0.0
  0
LINE
  5
2B7
330
1F
100
AcDbEntity
  8
0
  6
CONTINUOUS
 62
     6
100
AcDbLine
 10
33.662065
 20
157.612572
 30
0.0
 11
33.662065
 21
155.412572
 31
0.0
  0
LINE
  5
2B8
330
1F
100
AcDbEntity
  8
0
  6
CONTINUOUS
 62
     6
100
AcDbLine
 10
33.662065
 20
155.412572
 30
0.0
 11
32.062065
 21
155.412572
 31
0.0
  0
LINE
  5
2B9
330
1F
100
AcDbEntity
  8
0
  6
CONTINUOUS
 62
     6
100
AcDbLine
 10
32.062065
 20
155.412572
 30
0.0
 11
32.062065
 21
157.612572
 31
0.0
  0
LINE
  5
2BA
330
1F
100
AcDbEntity
  8
0
  6
CONTINUOUS
 62
     6
100
AcDbLine
 10
25.862065
 20
157.612572
 30
0.0
 11
27.462065
 21
157.612572
 31
0.0
  0
LINE
  5
2BB
330
1F
100
AcDbEntity
  8
0
  6
CONTINUOUS
 62
     6
100
AcDbLine
 10
27.462065
 20
157.612572
 30
0.0
 11
27.462065
 21
155.412572
 31
0.0
  0
LINE
  5
2BC
330
1F
100
AcDbEntity
  8
0
  6
CONTINUOUS
 62
     6
100
AcDbLine
 10
27.462065
 20
155.412572
 30
0.0
 11
25.862065
 21
155.412572
 31
0.0
  0
LINE
  5
2BD
330
1F
100
AcDbEntity
  8
0
  6
CONTINUOUS
 62
     6
100
AcDbLine
 10
25.862065
 20
155.412572
 30
0.0
 11
25.862065
 21
157.612572
 31
0.0
  0
DIMENSION
  5
2BE
330
1F
100
AcDbEntity
  8
DIM
  6
CONTINUOUS
 62
     6
100
AcDbDimension
  2
*D3
 10
180.864502
 20
131.012557
 30
0.0
 11
180.864502
 21
160.762558
 31
0.0
 70
   161
  1
<>
  3
ISO_FINDER
100
AcDbAlignedDimension
 13
165.217487
 23
190.512557
 33
0.0
 14
165.217487
 24
131.012557
 34
0.0
1001
ACAD
1000
DSTYLE
1002
{
1070
   287
1070
     3
1070
     7
1000

1070
     6
1000

1070
   280
1070
     0
1070
    76
1070
     0
1070
    75
1070
     0
1070
   279
1070
     0
1070
    41
1040
1.2
1070
   176
1070
     3
1070
   177
1070
     3
1070
   271
1070
     3
1070
   147
1040
1.75
1002
}
  0
DIMENSION
  5
2CB
330
1F
100
AcDbEntity
  8
DIM
  6
CONTINUOUS
 62
     6
100
AcDbDimension
  2
*D4
 10
42.562065
 20
206.982376
 30
0.0
 11
31.312065
 21
206.982376
 31
0.0
 70
   161
  1
<>
  3
ISO_FINDER
100
AcDbAlignedDimension
 13
20.062065
 23
198.162571
 33
0.0
 14
42.562065
 24
198.162571
 34
0.0
1001
ACAD
1000
DSTYLE
1002
{
1070
   287
1070
     3
1070
   279
1070
     0
1070
    41
1040
1.2
1070
   176
1070
     3
1070
   177
1070
     3
1070
   271
1070
     3
1070
   147
1040
1.75
1002
}
  0
DIMENSION
  5
2D8
330
1F
100
AcDbEntity
  8
DIM
  6
CONTINUOUS
 62
     6
100
AcDbDimension
  2
*D5
 10
11.022775
 20
113.912567
 30
0.0
 11
7.486025
 21
157.037568
 31
0.0
 70
    32
  1
<>
  3
ISO_FINDER
100
AcDbAlignedDimension
 13
42.162064
 23
200.162568
 33
0.0
 14
31.302762
 24
113.912567
 34
0.0
 50
90.0
100
AcDbRotatedDimension
1001
ACAD
1000
DSTYLE
1002
{
1070
     7
1000

1070
     6
1000

1070
   280
1070
     0
1070
    76
1070
     0
1070
    75
1070
     0
1070
    41
1040
1.2
1070
   176
1070
     3
1070
   177
1070
     3
1070
   271
1070
     1
1070
   147
1040
1.75
1002
}
  0
DIMENSION
  5
2E5
330
1F
100
AcDbEntity
  8
DIM
  6
CONTINUOUS
 62
     6
100
AcDbDimension
  2
*D6
 10
57.72747
 20
144.462554
 30
0.0
 11
54.19072
 21
161.362553
 31
0.0
 70
    32
  1
<>
  3
ISO_FINDER
100
AcDbAlignedDimension
 13
69.383512
 23
178.262553
 33
0.0
 14
69.517486
 24
144.462554
 34
0.0
 50
90.0
100
AcDbRotatedDimension
1001
ACAD
1000
DSTYLE
1002
{
1070
     7
1000

1070
     6
1000

1070
   280
1070
     0
1070
    76
1070
     0
1070
    75
1070
     0
1070
    41
1040
1.2
1070
   176
1070
     3
1070
   177
1070
     3
1070
   271
1070
     3
1070
   147
1040
1.75
1002
}
  0
DIMENSION
  5
2F2
330
1F
100
AcDbEntity
  8
DIM
  6
CONTINUOUS
 62
     6
100
AcDbDimension
  2
*D7
 10
57.72747
 20
113.912539
 30
0.0
 11
54.19072
 21
129.187546
 31
0.0
 70
    32
  1
<>
  3
ISO_FINDER
100
AcDbAlignedDimension
 13
69.517486
 23
144.462554
 33
0.0
 14
66.917486
 24
113.912539
 34
0.0
 50
90.0
100
AcDbRotatedDimension
1001
ACAD
1000
DSTYLE
1002
{
1070
     7
1000

1070
     6
1000

1070
   280
1070
     0
1070
    76
1070
     0
1070
    75
1070
     0
1070
    41
1040
1.2
1070
   176
1070
     3
1070
   177
1070
     3
1070
   271
1070
     1
1070
   147
1040
1.75
1002
}
  0
DIMENSION
  5
2FF
330
1F
100
AcDbEntity
  8
DIM
  6
CONTINUOUS
 62
     6
100
AcDbDimension
  2
*D8
 10
190.661804
 20
121.362553
 30
0.0
 11
190.661804
 21
160.762543
 31
0.0
 70
   161
  1
<>
  3
ISO_FINDER
100
AcDbAlignedDimension
 13
134.217487
 23
200.162552
 33
0.0
 14
134.217487
 24
121.362553
 34
0.0
1001
ACAD
1000
DSTYLE
1002
{
1070
   287
1070
     3
1070
     7
1000

1070
     6
1000

1070
   280
1070
     0
1070
    76
1070
     0
1070
    75
1070
     0
1070
   279
1070
     0
1070
    41
1040
1.2
1070
   176
1070
     3
1070
   177
1070
     3
1070
   271
1070
     3
1070
   147
1040
1.75
1002
}
  0
DIMENSION
  5
30C
330
1F
100
AcDbEntity
  8
DIM
  6
CONTINUOUS
 62
     6
100
AcDbDimension
  2
*D9
 10
166.717487
 20
210.269608
 30
0.0
 11
116.567487
 21
213.806358
 31
0.0
 70
    32
  1
<>
  3
ISO_FINDER
100
AcDbAlignedDimension
 13
66.417487
 23
190.762553
 33
0.0
 14
166.717487
 24
189.012557
 34
0.0
100
AcDbRotatedDimension
1001
ACAD
1000
DSTYLE
1002
{
1070
    41
1040
1.2
1070
   176
1070
     3
1070
   177
1070
     3
1070
   271
1070
     3
1070
   147
1040
1.75
1002
}
  0
INSERT
  5
321
330
1F
100
AcDbEntity
  8
CARTOUCHE
  6
CONTINUOUS
 62
     7
100
AcDbBlockReference
  2
LW_POLYLINE_1
 10
200.000031
 20
287.000183
 30
0.0
  0
ARC
  5
322
330
1F
100
AcDbEntity
  8
0
  6
CONTINUOUS
 62
     5
100
AcDbCircle
 10
-25.061087
 20
184.71395
 30
0.0
 40
2.284511715182939
210
0.0
220
0.0
230
-1.0
100
AcDbArc
 50
40.923697
 51
65.564814
  0
ARC
  5
323
330
1F
100
AcDbEntity
  8
0
  6
CONTINUOUS
 62
     5
100
AcDbCircle
 10
-25.062574
 20
184.713127
 30
0.0
 40
2.286294250807127
210
0.0
220
0.0
230
-1.0
100
AcDbArc
 50
220.954577
 51
245.576147
  0
LINE
  5
324
330
1F
100
AcDbEntity
  8
0
  6
CONTINUOUS
 62
     5
100
AcDbLine
 10
24.535258
 20
186.316102
 30
0.0
 11
23.674005
 21
185.672885
 31
0.0
  0
LINE
  5
325
330
1F
100
AcDbEntity
  8
0
  6
CONTINUOUS
 62
     5
100
AcDbLine
 10
25.588807
 20
183.108995
 30
0.0
 11
26.450061
 21
183.752212
 31
0.0
  0
ARC
  5
326
330
1F
100
AcDbEntity
  8
0
  6
CONTINUOUS
 62
     5
100
AcDbCircle
 10
52.515415
 20
148.071609
 30
0.0
 40
46.34739336235641
100
AcDbArc
 50
124.698827
 51
126.14907
  0
ARC
  5
327
330
1F
100
AcDbEntity
  8
0
  6
CONTINUOUS
 62
     5
100
AcDbCircle
 10
12.778396
 20
156.451917
 30
0.0
 40
48.964580800453
210
0.0
220
0.0
230
-1.0
100
AcDbArc
 50
142.62272
 51
143.869802
  0
ARC
  5
328
330
1F
100
AcDbEntity
  8
0
  6
CONTINUOUS
 62
     5
100
AcDbCircle
 10
2.270924
 20
221.430516
 30
0.0
 40
46.33703895869566
210
0.0
220
0.0
230
-1.0
100
AcDbArc
 50
231.191674
 51
232.642264
  0
ARC
  5
329
330
1F
100
AcDbEntity
  8
0
  6
CONTINUOUS
 62
     5
100
AcDbCircle
 10
-2.385734
 20
221.344785
 30
0.0
 40
46.33704978530481
100
AcDbArc
 50
304.699228
 51
306.149815
  0
ARC
  5
32A
330
1F
100
AcDbEntity
  8
0
  6
CONTINUOUS
 62
     5
100
AcDbCircle
 10
62.902462
 20
212.973181
 30
0.0
 40
48.96458158919538
100
AcDbArc
 50
216.130198
 51
217.377277
  0
ARC
  5
32B
330
1F
100
AcDbEntity
  8
0
  6
CONTINUOUS
 62
     5
100
AcDbCircle
 10
-52.406229
 20
147.980732
 30
0.0
 40
46.35487007199196
210
0.0
220
0.0
230
-1.0
100
AcDbArc
 50
51.191603
 51
52.641608
  0
ARC
  5
32C
330
1F
100
AcDbEntity
  8
0
  6
CONTINUOUS
 62
     5
100
AcDbCircle
 10
25.062065
 20
184.712573
 30
0.0
 40
2.274692507338991
100
AcDbArc
 50
139.429334
 51
294.078217
  0
ARC
  5
32D
330
1F
100
AcDbEntity
  8
0
  6
CONTINUOUS
 62
     5
100
AcDbCircle
 10
25.061921
 20
184.712118
 30
0.0
 40
2.275031004197495
100
AcDbArc
 50
36.760776
 51
114.072217
  0
ARC
  5
32E
330
1F
100
AcDbEntity
  8
0
  6
CONTINUOUS
 62
     5
100
AcDbCircle
 10
-25.061632
 20
184.712562
 30
0.0
 40
2.274996668250288
210
0.0
220
0.0
230
-1.0
100
AcDbArc
 50
143.252533
 51
220.565358
  0
LINE
  5
32F
330
1F
100
AcDbEntity
  8
0
  6
CONTINUOUS
 62
     5
100
AcDbLine
 10
23.334225
 20
186.192008
 30
0.0
 11
23.334872
 21
186.210494
 31
0.0
  0
LINE
  5
330
330
1F
100
AcDbEntity
  8
0
  6
CONTINUOUS
 62
     5
100
AcDbLine
 10
25.990117
 20
182.635826
 30
0.0
 11
26.008024
 21
182.631199
 31
0.0
  0
LINE
  5
331
330
1F
100
AcDbEntity
  8
0
  6
CONTINUOUS
 62
     5
100
AcDbLine
 10
24.133949
 20
186.789272
 30
0.0
 11
24.116039
 21
186.793899
 31
0.0
  0
LINE
  5
332
330
1F
100
AcDbEntity
  8
0
  6
CONTINUOUS
 62
     5
100
AcDbLine
 10
26.789841
 20
183.23309
 30
0.0
 11
26.789193
 21
183.214602
 31
0.0
  0
SPLINE
  5
333
330
1F
100
AcDbEntity
  8
0
  6
CONTINUOUS
 62
     5
100
AcDbSpline
210
0.0
220
0.0
230
1.0
 70
     8
 71
     3
 72
     9
 73
     5
 74
     0
 42
0.0
 43
0.0
 40
4.91732857459192
 40
4.91732857459192
 40
4.91732857459192
 40
4.91732857459192
 40
5.780442304740269
 40
6.48675702296981
 40
6.48675702296981
 40
6.48675702296981
 40
6.48675702296981
 10
23.41764163028539
 20
186.045485654942
 30
0.0
 10
23.56166099496286
 20
185.8335228961733
 30
0.0
 10
23.8402367693072
 20
185.4321963402583
 30
0.0
 10
24.14040140665594
 20
185.0148599360328
 30
0.0
 10
24.27814510505107
 20
184.82615479353
 30
0.0
  0
SPLINE
  5
334
330
1F
100
AcDbEntity
  8
0
  6
CONTINUOUS
 62
     5
100
AcDbSpline
210
0.0
220
0.0
230
1.0
 70
     8
 71
     3
 72
    10
 73
     6
 74
     0
 42
0.0
 43
0.0
 40
0.0
 40
0.0
 40
0.0
 40
0.0
 40
0.1392650523937432
 40
0.260610814587122
 40
0.304237796084168
 40
0.304237796084168
 40
0.304237796084168
 40
0.304237796084168
 10
23.33422467379544
 20
186.1920077642315
 30
0.0
 10
23.33401208767115
 20
186.185629488508
 30
0.0
 10
23.34622962068008
 20
186.1569867192841
 30
0.0
 10
23.38375532606265
 20
186.0958410869639
 30
0.0
 10
23.41038638872553
 20
186.0561673347922
 30
0.0
 10
23.41765579699839
 20
186.045468565158
 30
0.0
  0
SPLINE
  5
335
330
1F
100
AcDbEntity
  8
0
  6
CONTINUOUS
 62
     5
100
AcDbSpline
210
0.0
220
0.0
230
1.0
 70
     8
 71
     3
 72
     9
 73
     5
 74
     0
 42
0.0
 43
0.0
 40
7.609826795033298
 40
7.609826795033298
 40
7.609826795033298
 40
7.609826795033298
 40
8.426922285250132
 40
9.179280102982277
 40
9.179280102982277
 40
9.179280102982277
 40
9.179280102982277
 10
24.94842868611803
 20
183.9286603855876
 30
0.0
 10
25.11251201106375
 20
183.7138957470063
 30
0.0
 10
25.42744353949526
 20
183.308566763854
 30
0.0
 10
25.73179766056996
 20
182.9302055515367
 30
0.0
 10
25.87330764759156
 20
182.7574040655204
 30
0.0
  0
SPLINE
  5
336
330
1F
100
AcDbEntity
  8
0
  6
CONTINUOUS
 62
     5
100
AcDbSpline
210
0.0
220
0.0
230
1.0
 70
     8
 71
     3
 72
     9
 73
     5
 74
     0
 42
0.0
 43
0.0
 40
0.0
 40
0.0
 40
0.0
 40
0.0
 40
0.1392651465254976
 40
0.3042392384436074
 40
0.3042392384436074
 40
0.3042392384436074
 40
0.3042392384436074
 10
25.99011691421291
 20
182.6358255348907
 30
0.0
 10
25.98394070470923
 20
182.6374324182205
 30
0.0
 10
25.95619383346108
 20
182.6602033385153
 30
0.0
 10
25.90397742843723
 20
182.7199358546999
 30
0.0
 10
25.87331360892333
 20
182.757382571376
 30
0.0
  0
SPLINE
  5
337
330
1F
100
AcDbEntity
  8
0
  6
CONTINUOUS
 62
     5
100
AcDbSpline
210
0.0
220
0.0
230
1.0
 70
     8
 71
     3
 72
     9
 73
     5
 74
     0
 42
0.0
 43
0.0
 40
4.917305997971718
 40
4.917305997971718
 40
4.917305997971718
 40
4.917305997971718
 40
5.669663815703807
 40
6.486761078027563
 40
6.486761078027563
 40
6.486761078027563
 40
6.486761078027563
 10
24.25075794718712
 20
186.6676935600845
 30
0.0
 10
24.39226793420871
 20
186.4948920740683
 30
0.0
 10
24.69662239893685
 20
186.1165304345344
 30
0.0
 10
25.01155429490821
 20
185.7112009632655
 30
0.0
 10
25.17563797624647
 20
185.4964358426804
 30
0.0
  0
SPLINE
  5
338
330
1F
100
AcDbEntity
  8
0
  6
CONTINUOUS
 62
     5
100
AcDbSpline
210
0.0
220
0.0
230
1.0
 70
     8
 71
     3
 72
     9
 73
     5
 74
     0
 42
0.0
 43
0.0
 40
0.0
 40
0.0
 40
0.0
 40
0.0
 40
0.1391534225208124
 40
0.3042364891791635
 40
0.3042364891791635
 40
0.3042364891791635
 40
0.3042364891791635
 10
24.1339486805658
 20
186.7892720907142
 30
0.0
 10
24.14012002318154
 20
186.7876664736175
 30
0.0
 10
24.16785374527521
 20
186.7649132829098
 30
0.0
 10
24.22006817543846
 20
186.7051859591675
 30
0.0
 10
24.25075198585003
 20
186.6677150542355
 30
0.0
  0
SPLINE
  5
339
330
1F
100
AcDbEntity
  8
0
  6
CONTINUOUS
 62
     5
100
AcDbSpline
210
0.0
220
0.0
230
1.0
 70
     8
 71
     3
 72
     9
 73
     5
 74
     0
 42
0.0
 43
0.0
 40
7.609830882098102
 40
7.609830882098102
 40
7.609830882098102
 40
7.609830882098102
 40
8.316143796213701
 40
9.179257526362088
 40
9.179257526362088
 40
9.179257526362088
 40
9.179257526362088
 10
25.84592154522865
 20
184.598941386067
 30
0.0
 10
25.98366487822259
 20
184.4102367300861
 30
0.0
 10
26.28382914570424
 20
183.9929008240075
 30
0.0
 10
26.56240459981581
 20
183.5915747294317
 30
0.0
 10
26.70642396449328
 20
183.379611970663
 30
0.0
  0
SPLINE
  5
33A
330
1F
100
AcDbEntity
  8
0
  6
CONTINUOUS
 62
     5
100
AcDbSpline
210
0.0
220
0.0
230
1.0
 70
     8
 71
     3
 72
    10
 73
     6
 74
     0
 42
0.0
 43
0.0
 40
0.0
 40
0.0
 40
0.0
 40
0.0
 40
0.1391534132219165
 40
0.2604780005939917
 40
0.3042364138572717
 40
0.3042364138572717
 40
0.3042364138572717
 40
0.3042364138572717
 10
26.78984092098327
 20
183.2330898613734
 30
0.0
 10
26.79005333969142
 20
183.2394631140678
 30
0.0
 10
26.77785234716678
 20
183.2680777938611
 30
0.0
 10
26.74034724165106
 20
183.3291995660166
 30
0.0
 10
26.71370125296918
 20
183.3688978035234
 30
0.0
 10
26.70640979778105
 20
183.3796290604457
 30
0.0
  0
ARC
  5
33B
330
1F
100
AcDbEntity
  8
0
  6
CONTINUOUS
 62
     5
100
AcDbCircle
 10
-31.311087
 20
184.71395
 30
0.0
 40
2.284511715182939
210
0.0
220
0.0
230
-1.0
100
AcDbArc
 50
40.923697
 51
65.564814
  0
ARC
  5
33C
330
1F
100
AcDbEntity
  8
0
  6
CONTINUOUS
 62
     5
100
AcDbCircle
 10
-31.312574
 20
184.713127
 30
0.0
 40
2.286294250807127
210
0.0
220
0.0
230
-1.0
100
AcDbArc
 50
220.954577
 51
245.576147
  0
LINE
  5
33D
330
1F
100
AcDbEntity
  8
0
  6
CONTINUOUS
 62
     5
100
AcDbLine
 10
30.785258
 20
186.316102
 30
0.0
 11
29.924005
 21
185.672885
 31
0.0
  0
LINE
  5
33E
330
1F
100
AcDbEntity
  8
0
  6
CONTINUOUS
 62
     5
100
AcDbLine
 10
31.838807
 20
183.108995
 30
0.0
 11
32.700061
 21
183.752212
 31
0.0
  0
ARC
  5
33F
330
1F
100
AcDbEntity
  8
0
  6
CONTINUOUS
 62
     5
100
AcDbCircle
 10
58.765415
 20
148.071609
 30
0.0
 40
46.34739336235641
100
AcDbArc
 50
124.698827
 51
126.14907
  0
ARC
  5
340
330
1F
100
AcDbEntity
  8
0
  6
CONTINUOUS
 62
     5
100
AcDbCircle
 10
6.528396
 20
156.451917
 30
0.0
 40
48.964580800453
210
0.0
220
0.0
230
-1.0
100
AcDbArc
 50
142.62272
 51
143.869802
  0
ARC
  5
341
330
1F
100
AcDbEntity
  8
0
  6
CONTINUOUS
 62
     5
100
AcDbCircle
 10
-3.979076
 20
221.430516
 30
0.0
 40
46.33703895869566
210
0.0
220
0.0
230
-1.0
100
AcDbArc
 50
231.191674
 51
232.642264
  0
ARC
  5
342
330
1F
100
AcDbEntity
  8
0
  6
CONTINUOUS
 62
     5
100
AcDbCircle
 10
3.864266
 20
221.344785
 30
0.0
 40
46.33704978530481
100
AcDbArc
 50
304.699228
 51
306.149815
  0
ARC
  5
343
330
1F
100
AcDbEntity
  8
0
  6
CONTINUOUS
 62
     5
100
AcDbCircle
 10
69.152462
 20
212.973181
 30
0.0
 40
48.96458158919538
100
AcDbArc
 50
216.130198
 51
217.377277
  0
ARC
  5
344
330
1F
100
AcDbEntity
  8
0
  6
CONTINUOUS
 62
     5
100
AcDbCircle
 10
-58.656229
 20
147.980732
 30
0.0
 40
46.35487007199196
210
0.0
220
0.0
230
-1.0
100
AcDbArc
 50
51.191603
 51
52.641608
  0
ARC
  5
345
330
1F
100
AcDbEntity
  8
0
  6
CONTINUOUS
 62
     5
100
AcDbCircle
 10
31.312065
 20
184.712573
 30
0.0
 40
2.274692507338991
100
AcDbArc
 50
139.429334
 51
294.078217
  0
ARC
  5
346
330
1F
100
AcDbEntity
  8
0
  6
CONTINUOUS
 62
     5
100
AcDbCircle
 10
31.311921
 20
184.712118
 30
0.0
 40
2.275031004197495
100
AcDbArc
 50
36.760776
 51
114.072217
  0
ARC
  5
347
330
1F
100
AcDbEntity
  8
0
  6
CONTINUOUS
 62
     5
100
AcDbCircle
 10
-31.311632
 20
184.712562
 30
0.0
 40
2.274996668250288
210
0.0
220
0.0
230
-1.0
100
AcDbArc
 50
143.252533
 51
220.565358
  0
LINE
  5
348
330
1F
100
AcDbEntity
  8
0
  6
CONTINUOUS
 62
     5
100
AcDbLine
 10
29.584225
 20
186.192008
 30
0.0
 11
29.584872
 21
186.210494
 31
0.0
  0
LINE
  5
349
330
1F
100
AcDbEntity
  8
0
  6
CONTINUOUS
 62
     5
100
AcDbLine
 10
32.240117
 20
182.635826
 30
0.0
 11
32.258024
 21
182.631199
 31
0.0
  0
LINE
  5
34A
330
1F
100
AcDbEntity
  8
0
  6
CONTINUOUS
 62
     5
100
AcDbLine
 10
30.383949
 20
186.789272
 30
0.0
 11
30.366039
 21
186.793899
 31
0.0
  0
LINE
  5
34B
330
1F
100
AcDbEntity
  8
0
  6
CONTINUOUS
 62
     5
100
AcDbLine
 10
33.039841
 20
183.23309
 30
0.0
 11
33.039193
 21
183.214602
 31
0.0
  0
SPLINE
  5
34C
330
1F
100
AcDbEntity
  8
0
  6
CONTINUOUS
 62
     5
100
AcDbSpline
210
0.0
220
0.0
230
1.0
 70
     8
 71
     3
 72
     9
 73
     5
 74
     0
 42
0.0
 43
0.0
 40
4.91732857459192
 40
4.91732857459192
 40
4.91732857459192
 40
4.91732857459192
 40
5.780442304740269
 40
6.48675702296981
 40
6.48675702296981
 40
6.48675702296981
 40
6.48675702296981
 10
29.66764163028539
 20
186.045485654942
 30
0.0
 10
29.81166099496286
 20
185.8335228961733
 30
0.0
 10
30.0902367693072
 20
185.4321963402583
 30
0.0
 10
30.39040140665594
 20
185.0148599360328
 30
0.0
 10
30.52814510505107
 20
184.82615479353
 30
0.0
  0
SPLINE
  5
34D
330
1F
100
AcDbEntity
  8
0
  6
CONTINUOUS
 62
     5
100
AcDbSpline
210
0.0
220
0.0
230
1.0
 70
     8
 71
     3
 72
    10
 73
     6
 74
     0
 42
0.0
 43
0.0
 40
0.0
 40
0.0
 40
0.0
 40
0.0
 40
0.1392650523937432
 40
0.260610814587122
 40
0.304237796084168
 40
0.304237796084168
 40
0.304237796084168
 40
0.304237796084168
 10
29.58422467379544
 20
186.1920077642315
 30
0.0
 10
29.58401208767115
 20
186.185629488508
 30
0.0
 10
29.59622962068008
 20
186.1569867192841
 30
0.0
 10
29.63375532606265
 20
186.0958410869639
 30
0.0
 10
29.66038638872553
 20
186.0561673347922
 30
0.0
 10
29.66765579699839
 20
186.045468565158
 30
0.0
  0
SPLINE
  5
34E
330
1F
100
AcDbEntity
  8
0
  6
CONTINUOUS
 62
     5
100
AcDbSpline
210
0.0
220
0.0
230
1.0
 70
     8
 71
     3
 72
     9
 73
     5
 74
     0
 42
0.0
 43
0.0
 40
7.609826795033298
 40
7.609826795033298
 40
7.609826795033298
 40
7.609826795033298
 40
8.426922285250132
 40
9.179280102982277
 40
9.179280102982277
 40
9.179280102982277
 40
9.179280102982277
 10
31.19842868611803
 20
183.9286603855876
 30
0.0
 10
31.36251201106376
 20
183.7138957470063
 30
0.0
 10
31.67744353949527
 20
183.308566763854
 30
0.0
 10
31.98179766056996
 20
182.9302055515367
 30
0.0
 10
32.12330764759157
 20
182.7574040655204
 30
0.0
  0
SPLINE
  5
34F
330
1F
100
AcDbEntity
  8
0
  6
CONTINUOUS
 62
     5
100
AcDbSpline
210
0.0
220
0.0
230
1.0
 70
     8
 71
     3
 72
     9
 73
     5
 74
     0
 42
0.0
 43
0.0
 40
0.0
 40
0.0
 40
0.0
 40
0.0
 40
0.1392651465254976
 40
0.3042392384436074
 40
0.3042392384436074
 40
0.3042392384436074
 40
0.3042392384436074
 10
32.2401169142129
 20
182.6358255348907
 30
0.0
 10
32.23394070470923
 20
182.6374324182205
 30
0.0
 10
32.20619383346109
 20
182.6602033385153
 30
0.0
 10
32.15397742843723
 20
182.7199358546999
 30
0.0
 10
32.12331360892333
 20
182.757382571376
 30
0.0
  0
SPLINE
  5
350
330
1F
100
AcDbEntity
  8
0
  6
CONTINUOUS
 62
     5
100
AcDbSpline
210
0.0
220
0.0
230
1.0
 70
     8
 71
     3
 72
     9
 73
     5
 74
     0
 42
0.0
 43
0.0
 40
4.917305997971718
 40
4.917305997971718
 40
4.917305997971718
 40
4.917305997971718
 40
5.669663815703807
 40
6.486761078027563
 40
6.486761078027563
 40
6.486761078027563
 40
6.486761078027563
 10
30.50075794718711
 20
186.6676935600845
 30
0.0
 10
30.64226793420871
 20
186.4948920740683
 30
0.0
 10
30.94662239893685
 20
186.1165304345344
 30
0.0
 10
31.26155429490821
 20
185.7112009632655
 30
0.0
 10
31.42563797624647
 20
185.4964358426804
 30
0.0
  0
SPLINE
  5
351
330
1F
100
AcDbEntity
  8
0
  6
CONTINUOUS
 62
     5
100
AcDbSpline
210
0.0
220
0.0
230
1.0
 70
     8
 71
     3
 72
     9
 73
     5
 74
     0
 42
0.0
 43
0.0
 40
0.0
 40
0.0
 40
0.0
 40
0.0
 40
0.1391534225208124
 40
0.3042364891791635
 40
0.3042364891791635
 40
0.3042364891791635
 40
0.3042364891791635
 10
30.3839486805658
 20
186.7892720907142
 30
0.0
 10
30.39012002318154
 20
186.7876664736175
 30
0.0
 10
30.41785374527521
 20
186.7649132829098
 30
0.0
 10
30.47006817543846
 20
186.7051859591675
 30
0.0
 10
30.50075198585003
 20
186.6677150542355
 30
0.0
  0
SPLINE
  5
352
330
1F
100
AcDbEntity
  8
0
  6
CONTINUOUS
 62
     5
100
AcDbSpline
210
0.0
220
0.0
230
1.0
 70
     8
 71
     3
 72
     9
 73
     5
 74
     0
 42
0.0
 43
0.0
 40
7.609830882098102
 40
7.609830882098102
 40
7.609830882098102
 40
7.609830882098102
 40
8.316143796213701
 40
9.179257526362088
 40
9.179257526362088
 40
9.179257526362088
 40
9.179257526362088
 10
32.09592154522866
 20
184.598941386067
 30
0.0
 10
32.23366487822258
 20
184.4102367300861
 30
0.0
 10
32.53382914570425
 20
183.9929008240075
 30
0.0
 10
32.81240459981581
 20
183.5915747294317
 30
0.0
 10
32.95642396449328
 20
183.379611970663
 30
0.0
  0
SPLINE
  5
353
330
1F
100
AcDbEntity
  8
0
  6
CONTINUOUS
 62
     5
100
AcDbSpline
210
0.0
220
0.0
230
1.0
 70
     8
 71
     3
 72
    10
 73
     6
 74
     0
 42
0.0
 43
0.0
 40
0.0
 40
0.0
 40
0.0
 40
0.0
 40
0.1391534132219165
 40
0.2604780005939917
 40
0.3042364138572717
 40
0.3042364138572717
 40
0.3042364138572717
 40
0.3042364138572717
 10
33.03984092098327
 20
183.2330898613734
 30
0.0
 10
33.04005333969143
 20
183.2394631140678
 30
0.0
 10
33.02785234716679
 20
183.2680777938611
 30
0.0
 10
32.99034724165107
 20
183.3291995660166
 30
0.0
 10
32.96370125296917
 20
183.3688978035234
 30
0.0
 10
32.95640979778105
 20
183.3796290604457
 30
0.0
  0
ARC
  5
354
330
1F
100
AcDbEntity
  8
0
  6
CONTINUOUS
 62
     5
100
AcDbCircle
 10
-37.561087
 20
184.713951
 30
0.0
 40
2.284511715182939
210
0.0
220
0.0
230
-1.0
100
AcDbArc
 50
40.923697
 51
65.564814
  0
ARC
  5
355
330
1F
100
AcDbEntity
  8
0
  6
CONTINUOUS
 62
     5
100
AcDbCircle
 10
-37.562574
 20
184.713128
 30
0.0
 40
2.286294250807127
210
0.0
220
0.0
230
-1.0
100
AcDbArc
 50
220.954577
 51
245.576147
  0
LINE
  5
356
330
1F
100
AcDbEntity
  8
0
  6
CONTINUOUS
 62
     5
100
AcDbLine
 10
37.035258
 20
186.316103
 30
0.0
 11
36.174005
 21
185.672886
 31
0.0
  0
LINE
  5
357
330
1F
100
AcDbEntity
  8
0
  6
CONTINUOUS
 62
     5
100
AcDbLine
 10
38.088807
 20
183.108996
 30
0.0
 11
38.950061
 21
183.752213
 31
0.0
  0
ARC
  5
358
330
1F
100
AcDbEntity
  8
0
  6
CONTINUOUS
 62
     5
100
AcDbCircle
 10
65.015415
 20
148.07161
 30
0.0
 40
46.34739336235641
100
AcDbArc
 50
124.698827
 51
126.14907
  0
ARC
  5
359
330
1F
100
AcDbEntity
  8
0
  6
CONTINUOUS
 62
     5
100
AcDbCircle
 10
0.278396
 20
156.451918
 30
0.0
 40
48.964580800453
210
0.0
220
0.0
230
-1.0
100
AcDbArc
 50
142.62272
 51
143.869802
  0
ARC
  5
35A
330
1F
100
AcDbEntity
  8
0
  6
CONTINUOUS
 62
     5
100
AcDbCircle
 10
-10.229076
 20
221.430517
 30
0.0
 40
46.33703895869566
210
0.0
220
0.0
230
-1.0
100
AcDbArc
 50
231.191674
 51
232.642264
  0
ARC
  5
35B
330
1F
100
AcDbEntity
  8
0
  6
CONTINUOUS
 62
     5
100
AcDbCircle
 10
10.114266
 20
221.344786
 30
0.0
 40
46.33704978530481
100
AcDbArc
 50
304.699228
 51
306.149815
  0
ARC
  5
35C
330
1F
100
AcDbEntity
  8
0
  6
CONTINUOUS
 62
     5
100
AcDbCircle
 10
75.402462
 20
212.973182
 30
0.0
 40
48.96458158919538
100
AcDbArc
 50
216.130198
 51
217.377277
  0
ARC
  5
35D
330
1F
100
AcDbEntity
  8
0
  6
CONTINUOUS
 62
     5
100
AcDbCircle
 10
-64.906229
 20
147.980733
 30
0.0
 40
46.35487007199196
210
0.0
220
0.0
230
-1.0
100
AcDbArc
 50
51.191603
 51
52.641608
  0
ARC
  5
35E
330
1F
100
AcDbEntity
  8
0
  6
CONTINUOUS
 62
     5
100
AcDbCircle
 10
37.562065
 20
184.712574
 30
0.0
 40
2.274692507338991
100
AcDbArc
 50
139.429334
 51
294.078217
  0
ARC
  5
35F
330
1F
100
AcDbEntity
  8
0
  6
CONTINUOUS
 62
     5
100
AcDbCircle
 10
37.561921
 20
184.712119
 30
0.0
 40
2.275031004197495
100
AcDbArc
 50
36.760776
 51
114.072217
  0
ARC
  5
360
330
1F
100
AcDbEntity
  8
0
  6
CONTINUOUS
 62
     5
100
AcDbCircle
 10
-37.561632
 20
184.712563
 30
0.0
 40
2.274996668250288
210
0.0
220
0.0
230
-1.0
100
AcDbArc
 50
143.252533
 51
220.565358
  0
LINE
  5
361
330
1F
100
AcDbEntity
  8
0
  6
CONTINUOUS
 62
     5
100
AcDbLine
 10
35.834225
 20
186.192009
 30
0.0
 11
35.834872
 21
186.210495
 31
0.0
  0
LINE
  5
362
330
1F
100
AcDbEntity
  8
0
  6
CONTINUOUS
 62
     5
100
AcDbLine
 10
38.490117
 20
182.635827
 30
0.0
 11
38.508024
 21
182.6312
 31
0.0
  0
LINE
  5
363
330
1F
100
AcDbEntity
  8
0
  6
CONTINUOUS
 62
     5
100
AcDbLine
 10
36.633949
 20
186.789273
 30
0.0
 11
36.616039
 21
186.7939
 31
0.0
  0
LINE
  5
364
330
1F
100
AcDbEntity
  8
0
  6
CONTINUOUS
 62
     5
100
AcDbLine
 10
39.289841
 20
183.233091
 30
0.0
 11
39.289193
 21
183.214603
 31
0.0
  0
SPLINE
  5
365
330
1F
100
AcDbEntity
  8
0
  6
CONTINUOUS
 62
     5
100
AcDbSpline
210
0.0
220
0.0
230
1.0
 70
     8
 71
     3
 72
     9
 73
     5
 74
     0
 42
0.0
 43
0.0
 40
4.91732857459192
 40
4.91732857459192
 40
4.91732857459192
 40
4.91732857459192
 40
5.780442304740269
 40
6.48675702296981
 40
6.48675702296981
 40
6.48675702296981
 40
6.48675702296981
 10
35.91764163028539
 20
186.045486654942
 30
0.0
 10
36.06166099496286
 20
185.8335238961733
 30
0.0
 10
36.3402367693072
 20
185.4321973402583
 30
0.0
 10
36.64040140665594
 20
185.0148609360328
 30
0.0
 10
36.77814510505107
 20
184.82615579353
 30
0.0
  0
SPLINE
  5
366
330
1F
100
AcDbEntity
  8
0
  6
CONTINUOUS
 62
     5
100
AcDbSpline
210
0.0
220
0.0
230
1.0
 70
     8
 71
     3
 72
    10
 73
     6
 74
     0
 42
0.0
 43
0.0
 40
0.0
 40
0.0
 40
0.0
 40
0.0
 40
0.1392650523937432
 40
0.260610814587122
 40
0.304237796084168
 40
0.304237796084168
 40
0.304237796084168
 40
0.304237796084168
 10
35.83422467379543
 20
186.1920087642315
 30
0.0
 10
35.83401208767116
 20
186.185630488508
 30
0.0
 10
35.84622962068008
 20
186.1569877192841
 30
0.0
 10
35.88375532606265
 20
186.0958420869639
 30
0.0
 10
35.91038638872553
 20
186.0561683347922
 30
0.0
 10
35.91765579699839
 20
186.045469565158
 30
0.0
  0
SPLINE
  5
367
330
1F
100
AcDbEntity
  8
0
  6
CONTINUOUS
 62
     5
100
AcDbSpline
210
0.0
220
0.0
230
1.0
 70
     8
 71
     3
 72
     9
 73
     5
 74
     0
 42
0.0
 43
0.0
 40
7.609826795033298
 40
7.609826795033298
 40
7.609826795033298
 40
7.609826795033298
 40
8.426922285250132
 40
9.179280102982277
 40
9.179280102982277
 40
9.179280102982277
 40
9.179280102982277
 10
37.44842868611804
 20
183.9286613855876
 30
0.0
 10
37.61251201106376
 20
183.7138967470063
 30
0.0
 10
37.92744353949527
 20
183.308567763854
 30
0.0
 10
38.23179766056995
 20
182.9302065515367
 30
0.0
 10
38.37330764759157
 20
182.7574050655204
 30
0.0
  0
SPLINE
  5
368
330
1F
100
AcDbEntity
  8
0
  6
CONTINUOUS
 62
     5
100
AcDbSpline
210
0.0
220
0.0
230
1.0
 70
     8
 71
     3
 72
     9
 73
     5
 74
     0
 42
0.0
 43
0.0
 40
0.0
 40
0.0
 40
0.0
 40
0.0
 40
0.1392651465254976
 40
0.3042392384436074
 40
0.3042392384436074
 40
0.3042392384436074
 40
0.3042392384436074
 10
38.4901169142129
 20
182.6358265348907
 30
0.0
 10
38.48394070470923
 20
182.6374334182205
 30
0.0
 10
38.45619383346109
 20
182.6602043385153
 30
0.0
 10
38.40397742843723
 20
182.7199368546999
 30
0.0
 10
38.37331360892333
 20
182.757383571376
 30
0.0
  0
SPLINE
  5
369
330
1F
100
AcDbEntity
  8
0
  6
CONTINUOUS
 62
     5
100
AcDbSpline
210
0.0
220
0.0
230
1.0
 70
     8
 71
     3
 72
     9
 73
     5
 74
     0
 42
0.0
 43
0.0
 40
4.917305997971718
 40
4.917305997971718
 40
4.917305997971718
 40
4.917305997971718
 40
5.669663815703807
 40
6.486761078027563
 40
6.486761078027563
 40
6.486761078027563
 40
6.486761078027563
 10
36.75075794718711
 20
186.6676945600845
 30
0.0
 10
36.8922679342087
 20
186.4948930740683
 30
0.0
 10
37.19662239893685
 20
186.1165314345344
 30
0.0
 10
37.51155429490821
 20
185.7112019632655
 30
0.0
 10
37.67563797624646
 20
185.4964368426804
 30
0.0
  0
SPLINE
  5
36A
330
1F
100
AcDbEntity
  8
0
  6
CONTINUOUS
 62
     5
100
AcDbSpline
210
0.0
220
0.0
230
1.0
 70
     8
 71
     3
 72
     9
 73
     5
 74
     0
 42
0.0
 43
0.0
 40
0.0
 40
0.0
 40
0.0
 40
0.0
 40
0.1391534225208124
 40
0.3042364891791635
 40
0.3042364891791635
 40
0.3042364891791635
 40
0.3042364891791635
 10
36.63394868056579
 20
186.7892730907142
 30
0.0
 10
36.64012002318154
 20
186.7876674736175
 30
0.0
 10
36.66785374527521
 20
186.7649142829098
 30
0.0
 10
36.72006817543846
 20
186.7051869591675
 30
0.0
 10
36.75075198585003
 20
186.6677160542355
 30
0.0
  0
SPLINE
  5
36B
330
1F
100
AcDbEntity
  8
0
  6
CONTINUOUS
 62
     5
100
AcDbSpline
210
0.0
220
0.0
230
1.0
 70
     8
 71
     3
 72
     9
 73
     5
 74
     0
 42
0.0
 43
0.0
 40
7.609830882098102
 40
7.609830882098102
 40
7.609830882098102
 40
7.609830882098102
 40
8.316143796213701
 40
9.179257526362088
 40
9.179257526362088
 40
9.179257526362088
 40
9.179257526362088
 10
38.34592154522866
 20
184.598942386067
 30
0.0
 10
38.48366487822258
 20
184.4102377300861
 30
0.0
 10
38.78382914570425
 20
183.9929018240075
 30
0.0
 10
39.06240459981581
 20
183.5915757294317
 30
0.0
 10
39.20642396449328
 20
183.379612970663
 30
0.0
  0
SPLINE
  5
36C
330
1F
100
AcDbEntity
  8
0
  6
CONTINUOUS
 62
     5
100
AcDbSpline
210
0.0
220
0.0
230
1.0
 70
     8
 71
     3
 72
    10
 73
     6
 74
     0
 42
0.0
 43
0.0
 40
0.0
 40
0.0
 40
0.0
 40
0.0
 40
0.1391534132219165
 40
0.2604780005939917
 40
0.3042364138572717
 40
0.3042364138572717
 40
0.3042364138572717
 40
0.3042364138572717
 10
39.28984092098327
 20
183.2330908613734
 30
0.0
 10
39.29005333969143
 20
183.2394641140678
 30
0.0
 10
39.27785234716679
 20
183.2680787938611
 30
0.0
 10
39.24034724165107
 20
183.3292005660166
 30
0.0
 10
39.21370125296917
 20
183.3688988035234
 30
0.0
 10
39.20640979778105
 20
183.3796300604457
 30
0.0
  0
ENDSEC
  0
SECTION
  2
OBJECTS
  0
DICTIONARY
  5
C
330
0
100
AcDbDictionary
  3
ACAD_GROUP
350
D
  3
ACAD_LAYOUT
350
1A
  3
ACAD_MLINESTYLE
350
17
  3
ACAD_PLOTSETTINGS
350
19
  3
ACAD_TABLESTYLE
350
38D
  3
ACAD_VISUALSTYLE
350
2A
  3
ACDBHEADERROUNDTRIPXREC
350
36D
  3
ACDBVARIABLEDICTIONARY
350
38E
  0
DICTIONARY
  5
D
102
{ACAD_REACTORS
330
C
102
}
330
C
100
AcDbDictionary
  0
DICTIONARY
  5
1A
102
{ACAD_REACTORS
330
C
102
}
330
C
100
AcDbDictionary
  0
DICTIONARY
  5
17
102
{ACAD_REACTORS
330
C
102
}
330
C
100
AcDbDictionary
  3
STANDARD
350
18
  0
DICTIONARY
  5
19
102
{ACAD_REACTORS
330
C
102
}
330
C
100
AcDbDictionary
  0
DICTIONARY
  5
38D
102
{ACAD_REACTORS
330
C
102
}
330
C
100
AcDbDictionary
  0
DICTIONARY
  5
2A
102
{ACAD_REACTORS
330
C
102
}
330
C
100
AcDbDictionary
  3
2DWIREFRAME
350
2F
  3
3D_HIDDEN
350
31
  3
3DWIREFRAME
350
30
  3
BASIC
350
32
  3
BRIGHTEN
350
36
  3
COLORCHANGE
350
3A
  3
CONCEPTUAL
350
34
  3
DIM
350
35
  3
FACEPATTERN
350
39
  3
FLAT
350
2B
  3
FLATWITHEDGES
350
2C
  3
GOURAUD
350
2D
  3
GOURAUDWITHEDGES
350
2E
  3
LINEPATTERN
350
38
  3
REALISTIC
350
33
  3
THICKEN
350
37
  0
DICTIONARY
  5
36D
102
{ACAD_REACTORS
330
C
102
}
330
C
100
AcDbDictionary
  3
CEPSNTYPE
350
376
  3
DIMSTYLEDATA
350
38C
  3
FINGERPRINTGUID
350
377
  3
HYPERLINKBASE
350
370
  3
INSUNITS
350
375
  3
LAYOUTDICT
350
372
  3
LWETCUNION
350
374
  3
PLOTSETDICT
350
373
  3
PSVPSCALE
350
379
  3
PUCSBASE
350
37C
  3
PUCSORGBACK
350
382
  3
PUCSORGBOTTOM
350
37E
  3
PUCSORGFRONT
350
381
  3
PUCSORGLEFT
350
37F
  3
PUCSORGRIGHT
350
380
  3
PUCSORGTOP
350
37D
  3
PUCSORTHOREF
350
37A
  3
PUCSORTHOVIEW
350
37B
  3
STYLESHEET
350
371
  3
TSTACKALIGN
350
36E
  3
TSTACKSIZE
350
36F
  3
UCSBASE
350
385
  3
UCSORGBACK
350
38B
  3
UCSORGBOTTOM
350
387
  3
UCSORGFRONT
350
38A
  3
UCSORGLEFT
350
388
  3
UCSORGRIGHT
350
389
  3
UCSORGTOP
350
386
  3
UCSORTHOREF
350
383
  3
UCSORTHOVIEW
350
384
  3
VERSIONGUID
350
378
  0
DICTIONARY
  5
38E
102
{ACAD_REACTORS
330
C
102
}
330
C
100
AcDbDictionary
  3
PSOLHEIGHT
350
390
  3
PSOLWIDTH
350
38F
  0
MLINESTYLE
  5
18
102
{ACAD_REACTORS
330
17
102
}
330
17
100
AcDbMlineStyle
  2
Standard
 70
     0
  3

 62
   256
 51
90.0
 52
90.0
 71
     2
 49
0.5
 62
   256
  6
BYLAYER
 49
-0.5
 62
   256
  6
BYLAYER
  0
VISUALSTYLE
  5
2F
102
{ACAD_REACTORS
330
2A
102
}
330
2A
100
AcDbVisualStyle
  2
2dWireframe
 70
     4
 71
     0
 72
     2
 73
     0
 90
        0
 40
-0.6
 41
-30.0
 62
     5
 63
     7
 74
     1
 91
        4
 64
     7
 65
   257
 75
     1
175
     1
 42
1.0
 92
        0
 66
   257
 43
1.0
 76
     1
 77
     6
 78
     2
 67
     7
 79
     5
170
     0
171
     0
290
     0
174
     0
 93
        1
 44
0.0
173
     0
291
     0
 45
0.0
1001
ACAD
1000
AcDbSavedByObjectVersion
1070
     0
  0
VISUALSTYLE
  5
31
102
{ACAD_REACTORS
330
2A
102
}
330
2A
100
AcDbVisualStyle
  2
3D Hidden
 70
     6
 71
     1
 72
     2
 73
     2
 90
        0
 40
-0.6
 41
-30.0
 62
     5
 63
     7
 74
     2
 91
        2
 64
     7
 65
   257
 75
     2
175
     1
 42
40.0
 92
        0
 66
   257
 43
1.0
 76
     1
 77
     6
 78
     2
 67
     7
 79
     3
170
     0
171
     0
290
     0
174
     0
 93
        1
 44
0.0
173
     0
291
     0
 45
0.0
1001
ACAD
1000
AcDbSavedByObjectVersion
1070
     0
  0
VISUALSTYLE
  5
30
102
{ACAD_REACTORS
330
2A
102
}
330
2A
100
AcDbVisualStyle
  2
3dWireframe
 70
     5
 71
     0
 72
     2
 73
     0
 90
        0
 40
-0.6
 41
-30.0
 62
     5
 63
     7
 74
     1
 91
        4
 64
     7
 65
   257
 75
     1
175
     1
 42
1.0
 92
        0
 66
   257
 43
1.0
 76
     1
 77
     6
 78
     2
 67
     7
 79
     5
170
     0
171
     0
290
     0
174
     0
 93
        1
 44
0.0
173
     0
291
     0
 45
0.0
1001
ACAD
1000
AcDbSavedByObjectVersion
1070
     0
  0
VISUALSTYLE
  5
32
102
{ACAD_REACTORS
330
2A
102
}
330
2A
100
AcDbVisualStyle
  2
Basic
 70
     7
 71
     1
 72
     0
 73
     1
 90
        0
 40
-0.6
 41
-30.0
 62
     5
 63
     7
 74
     0
 91
        4
 64
     7
 65
   257
 75
     1
175
     1
 42
1.0
 92
        8
 66
     7
 43
1.0
 76
     1
 77
     6
 78
     2
 67
     7
 79
     5
170
     0
171
     0
290
     0
174
     0
 93
        1
 44
0.0
173
     0
291
     1
 45
0.0
1001
ACAD
1000
AcDbSavedByObjectVersion
1070
     0
  0
VISUALSTYLE
  5
36
102
{ACAD_REACTORS
330
2A
102
}
330
2A
100
AcDbVisualStyle
  2
Brighten
 70
    12
 71
     2
 72
     2
 73
     0
 90
        0
 40
-0.6
 41
-30.0
 62
     5
 63
     7
 74
     1
 91
        4
 64
     7
 65
   257
 75
     1
175
     1
 42
1.0
 92
        8
 66
     7
 43
1.0
 76
     1
 77
     6
 78
     2
 67
     7
 79
     5
170
     0
171
     0
290
     0
174
     0
 93
        1
 44
50.0
173
     0
291
     1
 45
0.0
1001
ACAD
1000
AcDbSavedByObjectVersion
1070
     0
  0
VISUALSTYLE
  5
3A
102
{ACAD_REACTORS
330
2A
102
}
330
2A
100
AcDbVisualStyle
  2
ColorChange
 70
    16
 71
     2
 72
     2
 73
     3
 90
        0
 40
-0.6
 41
-30.0
 62
     5
 63
     8
 74
     1
 91
        4
 64
     7
 65
   257
 75
     1
175
     1
 42
1.0
 92
        8
 66
     8
 43
1.0
 76
     1
 77
     6
 78
     2
 67
     7
 79
     5
170
     0
171
     0
290
     0
174
     0
 93
        1
 44
0.0
173
     0
291
     1
 45
0.0
1001
ACAD
1000
AcDbSavedByObjectVersion
1070
     0
  0
VISUALSTYLE
  5
34
102
{ACAD_REACTORS
330
2A
102
}
330
2A
100
AcDbVisualStyle
  2
Conceptual
 70
     9
 71
     3
 72
     2
 73
     0
 90
        0
 40
-0.6
 41
-30.0
 62
     5
 63
     7
 74
     2
 91
        2
 64
     7
 65
   257
 75
     1
175
     1
 42
40.0
 92
        8
 66
     7
 43
1.0
 76
     1
 77
     6
 78
     2
 67
     7
 79
     3
170
     0
171
     0
290
     0
174
     0
 93
        1
 44
0.0
173
     0
291
     0
 45
0.0
1001
ACAD
1000
AcDbSavedByObjectVersion
1070
     0
  0
VISUALSTYLE
  5
35
102
{ACAD_REACTORS
330
2A
102
}
330
2A
100
AcDbVisualStyle
  2
Dim
 70
    11
 71
     2
 72
     2
 73
     0
 90
        0
 40
-0.6
 41
-30.0
 62
     5
 63
     7
 74
     1
 91
        4
 64
     7
 65
   257
 75
     1
175
     1
 42
1.0
 92
        8
 66
     7
 43
1.0
 76
     1
 77
     6
 78
     2
 67
     7
 79
     5
170
     0
171
     0
290
     0
174
     0
 93
        1
 44
-50.0
173
     0
291
     1
 45
0.0
1001
ACAD
1000
AcDbSavedByObjectVersion
1070
     0
  0
VISUALSTYLE
  5
39
102
{ACAD_REACTORS
330
2A
102
}
330
2A
100
AcDbVisualStyle
  2
Facepattern
 70
    15
 71
     2
 72
     2
 73
     0
 90
        0
 40
-0.6
 41
-30.0
 62
     5
 63
     7
 74
     1
 91
        4
 64
     7
 65
   257
 75
     1
175
     1
 42
1.0
 92
        8
 66
     7
 43
1.0
 76
     1
 77
     6
 78
     2
 67
     7
 79
     5
170
     0
171
     0
290
     0
174
     0
 93
        1
 44
0.0
173
     0
291
     1
 45
0.0
1001
ACAD
1000
AcDbSavedByObjectVersion
1070
     0
  0
VISUALSTYLE
  5
2B
102
{ACAD_REACTORS
330
2A
102
}
330
2A
100
AcDbVisualStyle
  2
Flat
 70
     0
 71
     2
 72
     1
 73
     1
 90
        2
 40
-0.6
 41
30.0
 62
     5
 63
     7
 74
     0
 91
        4
 64
     7
 65
   257
 75
     1
175
     1
 42
1.0
 92
        8
 66
     7
 43
1.0
 76
     1
 77
     6
 78
     2
 67
     7
 79
     5
170
     0
171
     0
290
     0
174
     0
 93
       13
 44
0.0
173
     0
291
     1
 45
0.0
1001
ACAD
1000
AcDbSavedByObjectVersion
1070
     0
  0
VISUALSTYLE
  5
2C
102
{ACAD_REACTORS
330
2A
102
}
330
2A
100
AcDbVisualStyle
  2
FlatWithEdges
 70
     1
 71
     2
 72
     1
 73
     1
 90
        2
 40
-0.6
 41
30.0
 62
     5
 63
     7
 74
     1
 91
        4
 64
     7
 65
   257
 75
     1
175
     1
 42
1.0
 92
        0
 66
   257
 43
1.0
 76
     1
 77
     6
 78
     2
 67
     7
 79
     5
170
     0
171
     0
290
     0
174
     0
 93
       13
 44
0.0
173
     0
291
     1
 45
0.0
1001
ACAD
1000
AcDbSavedByObjectVersion
1070
     0
  0
VISUALSTYLE
  5
2D
102
{ACAD_REACTORS
330
2A
102
}
330
2A
100
AcDbVisualStyle
  2
Gouraud
 70
     2
 71
     2
 72
     2
 73
     1
 90
        2
 40
-0.6
 41
30.0
 62
     5
 63
     7
 74
     0
 91
        4
 64
     7
 65
   257
 75
     1
175
     1
 42
1.0
 92
        0
 66
     7
 43
1.0
 76
     1
 77
     6
 78
     2
 67
     7
 79
     5
170
     0
171
     0
290
     0
174
     0
 93
       13
 44
0.0
173
     0
291
     1
 45
0.0
1001
ACAD
1000
AcDbSavedByObjectVersion
1070
     0
  0
VISUALSTYLE
  5
2E
102
{ACAD_REACTORS
330
2A
102
}
330
2A
100
AcDbVisualStyle
  2
GouraudWithEdges
 70
     3
 71
     2
 72
     2
 73
     1
 90
        2
 40
-0.6
 41
30.0
 62
     5
 63
     7
 74
     1
 91
        4
 64
     7
 65
   257
 75
     1
175
     1
 42
1.0
 92
        0
 66
   257
 43
1.0
 76
     1
 77
     6
 78
     2
 67
     7
 79
     5
170
     0
171
     0
290
     0
174
     0
 93
       13
 44
0.0
173
     0
291
     1
 45
0.0
1001
ACAD
1000
AcDbSavedByObjectVersion
1070
     0
  0
VISUALSTYLE
  5
38
102
{ACAD_REACTORS
330
2A
102
}
330
2A
100
AcDbVisualStyle
  2
Linepattern
 70
    14
 71
     2
 72
     2
 73
     0
 90
        0
 40
-0.6
 41
-30.0
 62
     5
 63
     7
 74
     1
 91
        4
 64
     7
 65
   257
 75
     7
175
     7
 42
1.0
 92
        8
 66
     7
 43
1.0
 76
     1
 77
     6
 78
     2
 67
     7
 79
     5
170
     0
171
     0
290
     0
174
     0
 93
        1
 44
0.0
173
     0
291
     1
 45
0.0
1001
ACAD
1000
AcDbSavedByObjectVersion
1070
     0
  0
VISUALSTYLE
  5
33
102
{ACAD_REACTORS
330
2A
102
}
330
2A
100
AcDbVisualStyle
  2
Realistic
 70
     8
 71
     2
 72
     2
 73
     0
 90
        0
 40
-0.6
 41
-30.0
 62
     5
 63
     7
 74
     1
 91
        0
 64
     7
 65
   257
 75
     1
175
     1
 42
1.0
 92
        8
 66
     8
 43
1.0
 76
     1
 77
     6
 78
     2
 67
     7
 79
     5
170
     0
171
     0
290
     0
174
     0
 93
       13
 44
0.0
173
     0
291
     0
 45
0.0
1001
ACAD
1000
AcDbSavedByObjectVersion
1070
     0
  0
VISUALSTYLE
  5
37
102
{ACAD_REACTORS
330
2A
102
}
330
2A
100
AcDbVisualStyle
  2
Thicken
 70
    13
 71
     2
 72
     2
 73
     0
 90
        0
 40
-0.6
 41
-30.0
 62
     5
 63
     7
 74
     1
 91
        4
 64
     7
 65
   257
 75
     1
175
     1
 42
1.0
 92
       12
 66
     7
 43
1.0
 76
     1
 77
     6
 78
     2
 67
     7
 79
     5
170
     0
171
     0
290
     0
174
     0
 93
        1
 44
0.0
173
     0
291
     1
 45
0.0
1001
ACAD
1000
AcDbSavedByObjectVersion
1070
     0
  0
XRECORD
  5
376
102
{ACAD_REACTORS
330
36D
102
}
330
36D
100
AcDbXrecord
 90
        0
  0
XRECORD
  5
38C
102
{ACAD_REACTORS
330
36D
102
}
330
36D
100
AcDbXrecord
1000
DSTYLE
1002
{
1070
   340
340
11
1002
}
  0
XRECORD
  5
377
102
{ACAD_REACTORS
330
36D
102
}
330
36D
100
AcDbXrecord
  1
{A1517632-700D-40B3-989A-16160E434795}
  0
XRECORD
  5
370
102
{ACAD_REACTORS
330
36D
102
}
330
36D
100
AcDbXrecord
  1

  0
XRECORD
  5
375
102
{ACAD_REACTORS
330
36D
102
}
330
36D
100
AcDbXrecord
 90
        4
  0
XRECORD
  5
372
102
{ACAD_REACTORS
330
36D
102
}
330
36D
100
AcDbXrecord
340
1A
  0
XRECORD
  5
374
102
{ACAD_REACTORS
330
36D
102
}
330
36D
100
AcDbXrecord
 90
    10781
  0
XRECORD
  5
373
102
{ACAD_REACTORS
330
36D
102
}
330
36D
100
AcDbXrecord
340
19
  0
XRECORD
  5
379
102
{ACAD_REACTORS
330
36D
102
}
330
36D
100
AcDbXrecord
 40
0.0
  0
XRECORD
  5
37C
102
{ACAD_REACTORS
330
36D
102
}
330
36D
100
AcDbXrecord
340
0
  0
XRECORD
  5
382
102
{ACAD_REACTORS
330
36D
102
}
330
36D
100
AcDbXrecord
 10
0.0
 20
0.0
 30
0.0
  0
XRECORD
  5
37E
102
{ACAD_REACTORS
330
36D
102
}
330
36D
100
AcDbXrecord
 10
0.0
 20
0.0
 30
0.0
  0
XRECORD
  5
381
102
{ACAD_REACTORS
330
36D
102
}
330
36D
100
AcDbXrecord
 10
0.0
 20
0.0
 30
0.0
  0
XRECORD
  5
37F
102
{ACAD_REACTORS
330
36D
102
}
330
36D
100
AcDbXrecord
 10
0.0
 20
0.0
 30
0.0
  0
XRECORD
  5
380
102
{ACAD_REACTORS
330
36D
102
}
330
36D
100
AcDbXrecord
 10
0.0
 20
0.0
 30
0.0
  0
XRECORD
  5
37D
102
{ACAD_REACTORS
330
36D
102
}
330
36D
100
AcDbXrecord
 10
0.0
 20
0.0
 30
0.0
  0
XRECORD
  5
37A
102
{ACAD_REACTORS
330
36D
102
}
330
36D
100
AcDbXrecord
340
0
  0
XRECORD
  5
37B
102
{ACAD_REACTORS
330
36D
102
}
330
36D
100
AcDbXrecord
 70
     0
  0
XRECORD
  5
371
102
{ACAD_REACTORS
330
36D
102
}
330
36D
100
AcDbXrecord
  1

  0
XRECORD
  5
36E
102
{ACAD_REACTORS
330
36D
102
}
330
36D
100
AcDbXrecord
 90
        1
  0
XRECORD
  5
36F
102
{ACAD_REACTORS
330
36D
102
}
330
36D
100
AcDbXrecord
 90
       70
  0
XRECORD
  5
385
102
{ACAD_REACTORS
330
36D
102
}
330
36D
100
AcDbXrecord
340
0
  0
XRECORD
  5
38B
102
{ACAD_REACTORS
330
36D
102
}
330
36D
100
AcDbXrecord
 10
0.0
 20
0.0
 30
0.0
  0
XRECORD
  5
387
102
{ACAD_REACTORS
330
36D
102
}
330
36D
100
AcDbXrecord
 10
0.0
 20
0.0
 30
0.0
  0
XRECORD
  5
38A
102
{ACAD_REACTORS
330
36D
102
}
330
36D
100
AcDbXrecord
 10
0.0
 20
0.0
 30
0.0
  0
XRECORD
  5
388
102
{ACAD_REACTORS
330
36D
102
}
330
36D
100
AcDbXrecord
 10
0.0
 20
0.0
 30
0.0
  0
XRECORD
  5
389
102
{ACAD_REACTORS
330
36D
102
}
330
36D
100
AcDbXrecord
 10
0.0
 20
0.0
 30
0.0
  0
XRECORD
  5
386
102
{ACAD_REACTORS
330
36D
102
}
330
36D
100
AcDbXrecord
 10
0.0
 20
0.0
 30
0.0
  0
XRECORD
  5
383
102
{ACAD_REACTORS
330
36D
102
}
330
36D
100
AcDbXrecord
340
0
  0
XRECORD
  5
384
102
{ACAD_REACTORS
330
36D
102
}
330
36D
100
AcDbXrecord
 70
     0
  0
XRECORD
  5
378
102
{ACAD_REACTORS
330
36D
102
}
330
36D
100
AcDbXrecord
  1
{FAEB1C32-E019-11D5-929B-00C0DF256EC4}
  0
DICTIONARYVAR
  5
390
102
{ACAD_REACTORS
330
38E
102
}
330
38E
100
DictionaryVariables
280
     0
  1
80.000000
  0
DICTIONARYVAR
  5
38F
102
{ACAD_REACTORS
330
38E
102
}
330
38E
100
DictionaryVariables
280
     0
  1
5.000000
  0
ENDSEC
  0
EOF
