  0
SECTION
  2
HEADER
  9
$ACADVER
  1
AC1015
  9
$ACADMAINTVER
 70
    20
  9
$DWGCODEPAGE
  3
ANSI_1252
  9
$INSBASE
 10
0.0
 20
0.0
 30
0.0
  9
$EXTMIN
 10
99.19372667930293
 20
79.79699785471542
 30
-0.0000076288124635
  9
$EXTMAX
 10
369.2239389070589
 20
279.8106543580194
 30
0.2500076299766167
  9
$LIMMIN
 10
0.0
 20
0.0
  9
$LIMMAX
 10
420.0
 20
297.0
  9
$ORTHOMODE
 70
     0
  9
$REGENMODE
 70
     1
  9
$FILLMODE
 70
     1
  9
$QTEXTMODE
 70
     0
  9
$MIRRTEXT
 70
     0
  9
$LTSCALE
 40
1.0
  9
$ATTMODE
 70
     1
  9
$TEXTSIZE
 40
2.5
  9
$TRACEWID
 40
1.0
  9
$TEXTSTYLE
  7
Standard
  9
$CLAYER
  8
0
  9
$CELTYPE
  6
ByLayer
  9
$CECOLOR
 62
   256
  9
$CELTSCALE
 40
1.0
  9
$DISPSILH
 70
     0
  9
$DIMSCALE
 40
1.0
  9
$DIMASZ
 40
2.5
  9
$DIMEXO
 40
0.625
  9
$DIMDLI
 40
3.75
  9
$DIMRND
 40
0.0
  9
$DIMDLE
 40
0.0
  9
$DIMEXE
 40
1.25
  9
$DIMTP
 40
0.0
  9
$DIMTM
 40
0.0
  9
$DIMTXT
 40
2.5
  9
$DIMCEN
 40
2.5
  9
$DIMTSZ
 40
0.0
  9
$DIMTOL
 70
     0
  9
$DIMLIM
 70
     0
  9
$DIMTIH
 70
     0
  9
$DIMTOH
 70
     0
  9
$DIMSE1
 70
     0
  9
$DIMSE2
 70
     0
  9
$DIMTAD
 70
     1
  9
$DIMZIN
 70
     8
  9
$DIMBLK
  1

  9
$DIMASO
 70
     1
  9
$DIMSHO
 70
     1
  9
$DIMPOST
  1

  9
$DIMAPOST
  1

  9
$DIMALT
 70
     0
  9
$DIMALTD
 70
     3
  9
$DIMALTF
 40
0.03937007874016
  9
$DIMLFAC
 40
1.0
  9
$DIMTOFL
 70
     1
  9
$DIMTVP
 40
0.0
  9
$DIMTIX
 70
     0
  9
$DIMSOXD
 70
     0
  9
$DIMSAH
 70
     0
  9
$DIMBLK1
  1

  9
$DIMBLK2
  1

  9
$DIMSTYLE
  2
ISO-25
  9
$DIMCLRD
 70
     0
  9
$DIMCLRE
 70
     0
  9
$DIMCLRT
 70
     0
  9
$DIMTFAC
 40
1.0
  9
$DIMGAP
 40
0.625
  9
$DIMJUST
 70
     0
  9
$DIMSD1
 70
     0
  9
$DIMSD2
 70
     0
  9
$DIMTOLJ
 70
     0
  9
$DIMTZIN
 70
     8
  9
$DIMALTZ
 70
     0
  9
$DIMALTTZ
 70
     0
  9
$DIMUPT
 70
     0
  9
$DIMDEC
 70
     2
  9
$DIMTDEC
 70
     2
  9
$DIMALTU
 70
     2
  9
$DIMALTTD
 70
     3
  9
$DIMTXSTY
  7
Standard
  9
$DIMAUNIT
 70
     0
  9
$DIMADEC
 70
     0
  9
$DIMALTRND
 40
0.0
  9
$DIMAZIN
 70
     0
  9
$DIMDSEP
 70
    44
  9
$DIMATFIT
 70
     3
  9
$DIMFRAC
 70
     0
  9
$DIMLDRBLK
  1

  9
$DIMLUNIT
 70
     2
  9
$DIMLWD
 70
    -2
  9
$DIMLWE
 70
    -2
  9
$DIMTMOVE
 70
     0
  9
$LUNITS
 70
     2
  9
$LUPREC
 70
     2
  9
$SKETCHINC
 40
1.0
  9
$FILLETRAD
 40
10.0
  9
$AUNITS
 70
     0
  9
$AUPREC
 70
     0
  9
$MENU
  1
.
  9
$ELEVATION
 40
0.0
  9
$PELEVATION
 40
0.0
  9
$THICKNESS
 40
0.0
  9
$LIMCHECK
 70
     0
  9
$CHAMFERA
 40
10.0
  9
$CHAMFERB
 40
10.0
  9
$CHAMFERC
 40
20.0
  9
$CHAMFERD
 40
0.0
  9
$SKPOLY
 70
     0
  9
$TDCREATE
 40
2453928.282094711
  9
$TDUCREATE
 40
2453928.198761378
  9
$TDUPDATE
 40
2456491.607888415
  9
$TDUUPDATE
 40
2456491.524555081
  9
$TDINDWG
 40
0.5432859491
  9
$TDUSRTIMER
 40
0.5432722106
  9
$USRTIMER
 70
     1
  9
$ANGBASE
 50
0.0
  9
$ANGDIR
 70
     0
  9
$PDMODE
 70
     0
  9
$PDSIZE
 40
0.0
  9
$PLINEWID
 40
0.0
  9
$SPLFRAME
 70
     0
  9
$SPLINETYPE
 70
     6
  9
$SPLINESEGS
 70
     8
  9
$HANDSEED
  5
55B1
  9
$SURFTAB1
 70
     6
  9
$SURFTAB2
 70
     6
  9
$SURFTYPE
 70
     6
  9
$SURFU
 70
     6
  9
$SURFV
 70
     6
  9
$UCSBASE
  2

  9
$UCSNAME
  2

  9
$UCSORG
 10
0.0
 20
0.0
 30
0.0
  9
$UCSXDIR
 10
1.0
 20
0.0
 30
0.0
  9
$UCSYDIR
 10
0.0
 20
1.0
 30
0.0
  9
$UCSORTHOREF
  2

  9
$UCSORTHOVIEW
 70
     0
  9
$UCSORGTOP
 10
0.0
 20
0.0
 30
0.0
  9
$UCSORGBOTTOM
 10
0.0
 20
0.0
 30
0.0
  9
$UCSORGLEFT
 10
0.0
 20
0.0
 30
0.0
  9
$UCSORGRIGHT
 10
0.0
 20
0.0
 30
0.0
  9
$UCSORGFRONT
 10
0.0
 20
0.0
 30
0.0
  9
$UCSORGBACK
 10
0.0
 20
0.0
 30
0.0
  9
$PUCSBASE
  2

  9
$PUCSNAME
  2

  9
$PUCSORG
 10
0.0
 20
0.0
 30
0.0
  9
$PUCSXDIR
 10
1.0
 20
0.0
 30
0.0
  9
$PUCSYDIR
 10
0.0
 20
1.0
 30
0.0
  9
$PUCSORTHOREF
  2

  9
$PUCSORTHOVIEW
 70
     0
  9
$PUCSORGTOP
 10
0.0
 20
0.0
 30
0.0
  9
$PUCSORGBOTTOM
 10
0.0
 20
0.0
 30
0.0
  9
$PUCSORGLEFT
 10
0.0
 20
0.0
 30
0.0
  9
$PUCSORGRIGHT
 10
0.0
 20
0.0
 30
0.0
  9
$PUCSORGFRONT
 10
0.0
 20
0.0
 30
0.0
  9
$PUCSORGBACK
 10
0.0
 20
0.0
 30
0.0
  9
$USERI1
 70
     0
  9
$USERI2
 70
     0
  9
$USERI3
 70
     0
  9
$USERI4
 70
     0
  9
$USERI5
 70
     0
  9
$USERR1
 40
0.0
  9
$USERR2
 40
0.0
  9
$USERR3
 40
0.0
  9
$USERR4
 40
0.0
  9
$USERR5
 40
0.0
  9
$WORLDVIEW
 70
     1
  9
$SHADEDGE
 70
     3
  9
$SHADEDIF
 70
    70
  9
$TILEMODE
 70
     1
  9
$MAXACTVP
 70
    64
  9
$PINSBASE
 10
0.0
 20
0.0
 30
0.0
  9
$PLIMCHECK
 70
     0
  9
$PEXTMIN
 10
0.0
 20
0.0
 30
0.0
  9
$PEXTMAX
 10
0.0
 20
0.0
 30
0.0
  9
$PLIMMIN
 10
0.0
 20
0.0
  9
$PLIMMAX
 10
12.0
 20
9.0
  9
$UNITMODE
 70
     0
  9
$VISRETAIN
 70
     1
  9
$PLINEGEN
 70
     0
  9
$PSLTSCALE
 70
     1
  9
$TREEDEPTH
 70
  3020
  9
$CMLSTYLE
  2
Standard
  9
$CMLJUST
 70
     0
  9
$CMLSCALE
 40
20.0
  9
$PROXYGRAPHICS
 70
     1
  9
$MEASUREMENT
 70
     1
  9
$CELWEIGHT
370
    -1
  9
$ENDCAPS
280
     0
  9
$JOINSTYLE
280
     0
  9
$LWDISPLAY
290
     0
  9
$INSUNITS
 70
     4
  9
$HYPERLINKBASE
  1

  9
$STYLESHEET
  1

  9
$XEDIT
290
     1
  9
$CEPSNTYPE
380
     0
  9
$PSTYLEMODE
290
     1
  9
$FINGERPRINTGUID
  2
{FDEAD578-A652-11D2-9A35-0060089B3A3F}
  9
$VERSIONGUID
  2
{1A52059A-C2F6-4BC4-A816-D99A16D8BCE9}
  9
$EXTNAMES
290
     1
  9
$PSVPSCALE
 40
0.0
  9
$OLESTARTUP
290
     0
  0
ENDSEC
  0
SECTION
  2
CLASSES
  0
CLASS
  1
ACDBDICTIONARYWDFLT
  2
AcDbDictionaryWithDefault
  3
ObjectDBX Classes
 90
        0
280
     0
281
     0
  0
CLASS
  1
DICTIONARYVAR
  2
AcDbDictionaryVar
  3
ObjectDBX Classes
 90
        0
280
     0
281
     0
  0
CLASS
  1
ACDBPLACEHOLDER
  2
AcDbPlaceHolder
  3
ObjectDBX Classes
 90
        0
280
     0
281
     0
  0
CLASS
  1
LAYOUT
  2
AcDbLayout
  3
ObjectDBX Classes
 90
        0
280
     0
281
     0
  0
CLASS
  1
MATERIAL
  2
AcDbMaterial
  3
ObjectDBX Classes
 90
     1153
280
     0
281
     0
  0
CLASS
  1
VISUALSTYLE
  2
AcDbVisualStyle
  3
ObjectDBX Classes
 90
     4095
280
     0
281
     0
  0
CLASS
  1
TABLESTYLE
  2
AcDbTableStyle
  3
ObjectDBX Classes
 90
     4095
280
     0
281
     0
  0
CLASS
  1
SORTENTSTABLE
  2
AcDbSortentsTable
  3
ObjectDBX Classes
 90
        0
280
     0
281
     0
  0
CLASS
  1
DIMASSOC
  2
AcDbDimAssoc
  3
"AcDbDimAssoc|Product Desc:     AcDim ARX App For Dimension|Company:          Autodesk, Inc.|WEB Address:      www.autodesk.com"
 90
        0
280
     0
281
     0
  0
CLASS
  1
SCALE
  2
AcDbScale
  3
ObjectDBX Classes
 90
     1153
280
     0
281
     0
  0
CLASS
  1
MLEADERSTYLE
  2
AcDbMLeaderStyle
  3
ACDB_MLEADERSTYLE_CLASS
 90
     4095
280
     0
281
     0
  0
CLASS
  1
ACME_DOCUMENT
  2
AcMeDbDoc
  3
AcMeServices
 90
     1024
280
     0
281
     0
  0
CLASS
  1
ACMESCOPE
  2
AcMeScope
  3
AcMeServices
 90
     1024
280
     0
281
     0
  0
CLASS
  1
ACMECOMMANDHISTORY
  2
AcMeCommandHistory
  3
AcMeServices
 90
     1024
280
     0
281
     0
  0
CLASS
  1
ACIMSYSVARMAN
  2
AcImSysVarManager
  3
AcMeServices
 90
     1024
280
     0
281
     0
  0
CLASS
  1
ACIMINTSYSVAR
  2
AcImIntSysVar
  3
AcMeServices
 90
     1024
280
     0
281
     0
  0
CLASS
  1
ACMESTATEMGR
  2
AcMeStateMgr
  3
AcMeServices
 90
     1024
280
     0
281
     0
  0
CLASS
  1
ACDBENTITYCACHE
  2
AcMeEntityCache
  3
AcMeServices
 90
     1024
280
     0
281
     0
  0
CLASS
  1
ACGREFMASTER
  2
AcGrefMaster
  3
AcAttribServices
 90
     1024
280
     0
281
     0
  0
CLASS
  1
ACME_DATABASE
  2
AcMeDbDatabase
  3
AcMeServices
 90
     1024
280
     0
281
     0
  0
CLASS
  1
ACRFINSADJUSTERMGR
  2
AcRfInsAdjusterMgr
  3
AcMeServices
 90
     1024
280
     0
281
     0
  0
CLASS
  1
ACGREFACADMASTER
  2
AcGrefacadMaster
  3
AcGrefServices
 90
     1024
280
     0
281
     0
  0
CLASS
  1
AMDTMENUSTATEMGR
  2
AmdtMenuStateMgr
  3
McadcomServices
 90
     1024
280
     0
281
     0
  0
CLASS
  1
AMDTMCOMMENUSTATE
  2
AmdtMcomMenuState
  3
McadcomServices
 90
     1024
280
     0
281
     0
  0
CLASS
  1
AMIMASTER
  2
AmiMaster
  3
AmiServices
 90
     1024
280
     0
281
     0
  0
CLASS
  1
AMGSETTINGSOBJ
  2
AmgSettingsObj
  3
"AcadM|Product Description: AutoCAD Mechanical|Company: Autodesk, Inc."
 90
     1024
280
     0
281
     0
  0
CLASS
  1
MAPIAMMOUDLE
  2
MApiAmModule
  3
MApiAmServices
 90
     1024
280
     0
281
     0
  0
CLASS
  1
ACIMSTRSYSVAR
  2
AcImStrSysVar
  3
AcMeServices
 90
     1024
280
     0
281
     0
  0
CLASS
  1
AMDTAMMENUSTATE
  2
AmdtAmMenuState
  3
DesignerAssemblies
 90
     1024
280
     0
281
     0
  0
CLASS
  1
ACAMPROJECT
  2
AcAmProject
  3
DesignerAssemblies
 90
     1024
280
     0
281
     0
  0
CLASS
  1
ACAMGRCOMPDEF
  2
AcAmGrCompDef
  3
DesignerAssemblies
 90
     1024
280
     0
281
     0
  0
CLASS
  1
ACAMCOMPDEF
  2
AcAmCompDef
  3
DesignerAssemblies
 90
     1024
280
     0
281
     0
  0
CLASS
  1
ACAMCOMPDEFMGR
  2
AcAmCompDefMgr
  3
DesignerAssemblies
 90
     1024
280
     0
281
     0
  0
CLASS
  1
AMCONTEXTMGR
  2
AcAmContextMgr
  3
DesignerAssemblies
 90
     1024
280
     0
281
     0
  0
CLASS
  1
ACAMCONTEXTMODELER
  2
AcAmContextModeler
  3
DesignerAssemblies
 90
     1024
280
     0
281
     0
  0
CLASS
  1
ACMDATADICTIONARY
  2
AcmDataDictionary
  3
"AcmSymBB|Product Description: AutoCAD Mechanical|Company: Autodesk, Inc."
 90
     1024
280
     0
281
     0
  0
CLASS
  1
ACAMGRCOMPDEFSET
  2
AcAmGrCompDefSet
  3
DesignerAssemblies
 90
     1024
280
     0
281
     0
  0
CLASS
  1
AMDTBROWSERDBTAB
  2
AmdtBrowserDbTab
  3
McadcomServices
 90
     1024
280
     0
281
     0
  0
CLASS
  1
CBROWSERAPPOBJECT
  2
CBrowserAppObject
  3
McadcomServices
 90
     1024
280
     0
281
     0
  0
CLASS
  1
DM_PLACEHOLDER
  2
AcDmSelsetPlaceholder
  3
McadcomServices
 90
     1024
280
     0
281
     0
  0
CLASS
  1
ACMSTANDARDDIN
  2
AcmStandardDIN
  3
"Amdt_StdImp|Product Description: AutoCAD Mechanical|Company: Autodesk, Inc."
 90
     1024
280
     0
281
     0
  0
CLASS
  1
AMDTEDGESTANDARDDIN13715
  2
AmdtEdgeStdDIN13715
  3
"Amdt_StdImp|Product Description: AutoCAD Mechanical|Company: Autodesk, Inc."
 90
     1024
280
     0
281
     0
  0
CLASS
  1
ACMSURFSTANDARDDIN2002
  2
AcmSurfTextStdDIN2002
  3
"Amdt_StdImp|Product Description: AutoCAD Mechanical|Company: Autodesk, Inc."
 90
     1024
280
     0
281
     0
  0
CLASS
  1
ACMFCFSTANDARDDIN2008
  2
AcmFCFStdDIN2008
  3
"Amdt_StdImp|Product Description: AutoCAD Mechanical|Company: Autodesk, Inc."
 90
     1024
280
     0
281
     0
  0
CLASS
  1
ACMWELDSTANDARDDIN
  2
AcmWeldingStdDIN
  3
"Amdt_StdImp|Product Description: AutoCAD Mechanical|Company: Autodesk, Inc."
 90
     1024
280
     0
281
     0
  0
CLASS
  1
ACMIDSTANDARDDIN2008
  2
AcmIdStdDIN2008
  3
"Amdt_StdImp|Product Description: AutoCAD Mechanical|Company: Autodesk, Inc."
 90
     1024
280
     0
281
     0
  0
CLASS
  1
ACMDATUMSTANDARDDIN
  2
AcmDatumStdDIN
  3
"Amdt_StdImp|Product Description: AutoCAD Mechanical|Company: Autodesk, Inc."
 90
     1024
280
     0
281
     0
  0
CLASS
  1
ACMBOMSTANDARDDIN
  2
AcmBOMStdDIN
  3
"Amdt_StdImp|Product Description: AutoCAD Mechanical|Company: Autodesk, Inc."
 90
     1024
280
     0
281
     0
  0
CLASS
  1
ACMDETAILSTANDARDDIN
  2
AmdtDetailSymStdDIN
  3
"Amdt_StdImp|Product Description: AutoCAD Mechanical|Company: Autodesk, Inc."
 90
     1024
280
     0
281
     0
  0
CLASS
  1
ACMSECTIONSTANDARDDIN
  2
AmdtSectionSymStdDIN
  3
"Amdt_StdImp|Product Description: AutoCAD Mechanical|Company: Autodesk, Inc."
 90
     1024
280
     0
281
     0
  0
CLASS
  1
ACMCENTERLINESTANDARDDIN
  2
AmdtCenterLineStdDIN
  3
"Amdt_StdImp|Product Description: AutoCAD Mechanical|Company: Autodesk, Inc."
 90
     1024
280
     0
281
     0
  0
CLASS
  1
ACMTHREADLINESTANDARDDIN
  2
AmdtThreadLineStdDIN
  3
"Amdt_StdImp|Product Description: AutoCAD Mechanical|Company: Autodesk, Inc."
 90
     1024
280
     0
281
     0
  0
CLASS
  1
ACMNOTESTANDARDDIN
  2
AmdtNoteStdDIN
  3
"Amdt_StdImp|Product Description: AutoCAD Mechanical|Company: Autodesk, Inc."
 90
     1024
280
     0
281
     0
  0
CLASS
  1
ACMTAPERSTANDARDDIN
  2
AcmTaperStdDIN
  3
"Amdt_StdImp|Product Description: AutoCAD Mechanical|Company: Autodesk, Inc."
 90
     1024
280
     0
281
     0
  0
CLASS
  1
ACMANOOTATIONVIEWSTANDARDDIN
  2
AmdtAnViewStdDIN
  3
"Amdt_StdImp|Product Description: AutoCAD Mechanical|Company: Autodesk, Inc."
 90
     1024
280
     0
281
     0
  0
CLASS
  1
ACAMGLAYSTD
  2
AcAmgLayStd
  3
"AmgLay|Product Description: AutoCAD Mechanical|Company: Autodesk, Inc."
 90
     1024
280
     0
281
     0
  0
CLASS
  1
ACAMGDIMSTD
  2
AcAmgDimStd
  3
"AmgDim|Product Description: AutoCAD Mechanical|Company: Autodesk, Inc."
 90
     1024
280
     0
281
     0
  0
CLASS
  1
AMGOBJPROPCFG
  2
AmgObjPropCfg
  3
"AmgLay|Product Description: AutoCAD Mechanical|Company: Autodesk, Inc."
 90
     1025
280
     0
281
     0
  0
CLASS
  1
ACAMGHOLECHARTSTDDIN
  2
AcAmgHoleChartStdDIN
  3
AmgDim|Product Description: AutoCAD Mechanical|Company: Autodesk, Inc.
 90
     1024
280
     0
281
     0
  0
CLASS
  1
ACAMGTITLESTD
  2
AcAmgTitleStd
  3
"AmgTitle|Product Description: AutoCAD Mechanical|Company: Autodesk, Inc."
 90
     4095
280
     0
281
     0
  0
CLASS
  1
AMDTNOTETEMPLATEDB
  2
AmdtNoteTemplateDB
  3
AcmSymBB|Product Description: AutoCAD Mechanical|Company: Autodesk, Inc.
 90
     1024
280
     0
281
     0
  0
CLASS
  1
ACAMGFILTERDAT
  2
AcAmgFilterDat
  3
"AcadM|Product Description: AutoCAD Mechanical|Company: Autodesk, Inc."
 90
     1024
280
     0
281
     0
  0
CLASS
  1
CELLSTYLEMAP
  2
AcDbCellStyleMap
  3
ObjectDBX Classes
 90
     1152
280
     0
281
     0
  0
ENDSEC
  0
SECTION
  2
TABLES
  0
TABLE
  2
VPORT
  5
8
330
0
100
AcDbSymbolTable
 70
     1
  0
VPORT
  5
B14
330
8
100
AcDbSymbolTableRecord
100
AcDbViewportTableRecord
  2
*Active
 70
     0
 10
0.0
 20
0.0
 11
1.0
 21
1.0
 12
234.2088327931809
 22
179.8038261063674
 13
0.0
 23
0.0
 14
10.0
 24
10.0
 15
10.0
 25
10.0
 16
0.0
 26
0.0
 36
1.0
 17
0.0
 27
0.0
 37
0.0
 40
201.5783004915958
 41
1.580939947780678
 42
50.0
 43
0.0
 44
0.0
 50
0.0
 51
0.0
 71
     0
 72
  1000
 73
     1
 74
     3
 75
     0
 76
     0
 77
     0
 78
     0
281
     0
 65
     0
110
0.0
120
0.0
130
0.0
111
1.0
121
0.0
131
0.0
112
0.0
122
1.0
132
0.0
 79
     0
146
0.0
1001
ACAD_NAV_VCDISPLAY
1070
     3
  0
ENDTAB
  0
TABLE
  2
LTYPE
  5
5
330
0
100
AcDbSymbolTable
 70
     8
  0
LTYPE
  5
14
330
5
100
AcDbSymbolTableRecord
100
AcDbLinetypeTableRecord
  2
ByBlock
 70
     0
  3

 72
    65
 73
     0
 40
0.0
  0
LTYPE
  5
15
330
5
100
AcDbSymbolTableRecord
100
AcDbLinetypeTableRecord
  2
ByLayer
 70
     0
  3

 72
    65
 73
     0
 40
0.0
  0
LTYPE
  5
16
330
5
100
AcDbSymbolTableRecord
100
AcDbLinetypeTableRecord
  2
Continuous
 70
     0
  3
Solid line
 72
    65
 73
     0
 40
0.0
  0
LTYPE
  5
1B2
330
5
100
AcDbSymbolTableRecord
100
AcDbLinetypeTableRecord
  2
CENTER
 70
     0
  3
____ _ ____ _ ____ _ ____ _ ____ _ ____ _ ____
 72
    65
 73
     4
 40
0.6
 49
0.375
 74
     0
 49
-0.075
 74
     0
 49
0.075
 74
     0
 49
-0.075
 74
     0
  0
LTYPE
  5
54EE
330
5
100
AcDbSymbolTableRecord
100
AcDbLinetypeTableRecord
  2
HIDDEN
 70
     0
  3
Hidden __ __ __ __ __ __ __ __ __ __ __ __ __ __
 72
    65
 73
     2
 40
9.525
 49
6.349999999999999
 74
     0
 49
-3.174999999999999
 74
     0
  0
LTYPE
  5
54EF
330
5
100
AcDbSymbolTableRecord
100
AcDbLinetypeTableRecord
  2
PHANTOM2
 70
     0
  3
Phantom (.5x) ___ _ _ ___ _ _ ___ _ _ ___ _ _
 72
    65
 73
     6
 40
31.75
 49
15.875
 74
     0
 49
-3.174999999999999
 74
     0
 49
3.174999999999999
 74
     0
 49
-3.174999999999999
 74
     0
 49
3.174999999999999
 74
     0
 49
-3.174999999999999
 74
     0
  0
LTYPE
  5
553C
330
5
100
AcDbSymbolTableRecord
100
AcDbLinetypeTableRecord
  2
ACDINWELD
 70
     0
  3
_ _ _ _ _
 72
    65
 73
     2
 40
2.0
 49
2.0
 74
     0
 49
-1.0
 74
     0
  0
LTYPE
  5
553D
330
5
100
AcDbSymbolTableRecord
100
AcDbLinetypeTableRecord
  2
ACDINTGL
 70
     0
  3
_ _ _ _ _
 72
    65
 73
     2
 40
3.0
 49
2.0
 74
     0
 49
-1.0
 74
     0
  0
LTYPE
  5
553E
330
5
100
AcDbSymbolTableRecord
100
AcDbLinetypeTableRecord
  2
ACDINTGB
 70
     0
  3
__ . . __ . .
 72
    65
 73
     6
 40
9.0
 49
4.0
 74
     0
 49
-1.0
 74
     0
 49
1.0
 74
     0
 49
-1.0
 74
     0
 49
1.0
 74
     0
 49
-1.0
 74
     0
  0
ENDTAB
  0
TABLE
  2
LAYER
  5
2
102
{ACAD_XDICTIONARY
360
5488
102
}
330
0
100
AcDbSymbolTable
 70
     8
  0
LAYER
  5
10
102
{ACAD_XDICTIONARY
360
555C
102
}
330
2
100
AcDbSymbolTableRecord
100
AcDbLayerTableRecord
  2
0
 70
     0
 62
     7
  6
Continuous
370
    -3
390
F
  0
LAYER
  5
1B4
330
2
100
AcDbSymbolTableRecord
100
AcDbLayerTableRecord
  2
Defpoints
 70
     0
 62
     7
  6
Continuous
290
     0
370
    -3
390
F
  0
LAYER
  5
1B5
102
{ACAD_XDICTIONARY
360
555E
102
}
330
2
100
AcDbSymbolTableRecord
100
AcDbLayerTableRecord
  2
91000_TIP
 70
     0
 62
     7
  6
Continuous
370
    -3
390
F
  0
LAYER
  5
1B6
102
{ACAD_XDICTIONARY
360
5560
102
}
330
2
100
AcDbSymbolTableRecord
100
AcDbLayerTableRecord
  2
11000_Left
 70
     0
 62
     7
  6
Continuous
370
    -3
390
F
  0
LAYER
  5
1B7
102
{ACAD_XDICTIONARY
360
5562
102
}
330
2
100
AcDbSymbolTableRecord
100
AcDbLayerTableRecord
  2
10000_FRONT
 70
     0
 62
     7
  6
Continuous
370
    -3
390
F
  0
LAYER
  5
1B8
102
{ACAD_XDICTIONARY
360
5564
102
}
330
2
100
AcDbSymbolTableRecord
100
AcDbLayerTableRecord
  2
10100_FRONT_DIM
 70
     0
 62
     7
  6
Continuous
370
    -3
390
F
  0
LAYER
  5
1B9
102
{ACAD_XDICTIONARY
360
5566
102
}
330
2
100
AcDbSymbolTableRecord
100
AcDbLayerTableRecord
  2
90000_FRAME
 70
     0
 62
     7
  6
Continuous
370
    -3
390
F
  0
LAYER
  5
1BA
102
{ACAD_XDICTIONARY
360
5568
102
}
330
2
100
AcDbSymbolTableRecord
100
AcDbLayerTableRecord
  2
11100_LEFT_DIM
 70
     0
 62
     7
  6
Continuous
370
    -3
390
F
  0
ENDTAB
  0
TABLE
  2
STYLE
  5
3
330
0
100
AcDbSymbolTable
 70
     3
  0
STYLE
  5
11
330
3
100
AcDbSymbolTableRecord
100
AcDbTextStyleTableRecord
  2
Standard
 70
     0
 40
0.0
 41
1.0
 50
0.0
 71
     0
 42
2.5
  3
txt
  4

  0
STYLE
  5
553A
330
3
100
AcDbSymbolTableRecord
100
AcDbTextStyleTableRecord
  2
ACDINTS
 70
     0
 40
1.0
 41
1.0
 50
0.0
 71
     0
 42
2.5
  3
isocp.shx
  4

  0
STYLE
  5
553B
330
3
100
AcDbSymbolTableRecord
100
AcDbTextStyleTableRecord
  2
ACDINGDT
 70
     0
 40
0.0
 41
1.0
 50
0.0
 71
     0
 42
2.5
  3
amgdt.shx
  4

  0
ENDTAB
  0
TABLE
  2
VIEW
  5
6
330
0
100
AcDbSymbolTable
 70
     0
  0
ENDTAB
  0
TABLE
  2
UCS
  5
7
330
0
100
AcDbSymbolTable
 70
     0
  0
ENDTAB
  0
TABLE
  2
APPID
  5
9
330
0
100
AcDbSymbolTable
 70
    16
  0
APPID
  5
12
330
9
100
AcDbSymbolTableRecord
100
AcDbRegAppTableRecord
  2
ACAD
 70
     0
  0
APPID
  5
1BD
330
9
100
AcDbSymbolTableRecord
100
AcDbRegAppTableRecord
  2
AUSTER_ANSICHT
 70
     0
  0
APPID
  5
1BE
330
9
100
AcDbSymbolTableRecord
100
AcDbRegAppTableRecord
  2
AUSTER_FOLIE
 70
     0
  0
APPID
  5
52E2
330
9
100
AcDbSymbolTableRecord
100
AcDbRegAppTableRecord
  2
ACAD_EXEMPT_FROM_CAD_STANDARDS
 70
     0
  0
APPID
  5
54E7
330
9
100
AcDbSymbolTableRecord
100
AcDbRegAppTableRecord
  2
MCAD_NO_VIS
 70
     0
  0
APPID
  5
54E8
330
9
100
AcDbSymbolTableRecord
100
AcDbRegAppTableRecord
  2
ACAD_TEMP_GRAPHIC
 70
     0
  0
APPID
  5
54F4
330
9
100
AcDbSymbolTableRecord
100
AcDbRegAppTableRecord
  2
ACATTRIBSERVICES
 70
     0
  0
APPID
  5
5510
330
9
100
AcDbSymbolTableRecord
100
AcDbRegAppTableRecord
  2
DESIGNERASSEMBLIES
 70
     0
  0
APPID
  5
552B
330
9
100
AcDbSymbolTableRecord
100
AcDbRegAppTableRecord
  2
ACAD_DSTYLE_DIMJAG
 70
     0
  0
APPID
  5
552C
330
9
100
AcDbSymbolTableRecord
100
AcDbRegAppTableRecord
  2
ACAD_DSTYLE_DIMBREAK
 70
     0
  0
APPID
  5
5545
330
9
100
AcDbSymbolTableRecord
100
AcDbRegAppTableRecord
  2
ACAD_NAV_VCDISPLAY
 70
     0
  0
APPID
  5
55AC
330
9
100
AcDbSymbolTableRecord
100
AcDbRegAppTableRecord
  2
ACAD_MLEADERVER
 70
     0
  0
APPID
  5
55AD
330
9
100
AcDbSymbolTableRecord
100
AcDbRegAppTableRecord
  2
ACAD_DSTYLE_DIMJOGGED_JOGANGLE_SYMBOL
 70
     0
  0
APPID
  5
55AE
330
9
100
AcDbSymbolTableRecord
100
AcDbRegAppTableRecord
  2
ACAD_DSTYLE_DIM_LINETYPE
 70
     0
  0
APPID
  5
55AF
330
9
100
AcDbSymbolTableRecord
100
AcDbRegAppTableRecord
  2
ACAD_DSTYLE_DIM_EXT1_LINETYPE
 70
     0
  0
APPID
  5
55B0
330
9
100
AcDbSymbolTableRecord
100
AcDbRegAppTableRecord
  2
ACAD_DSTYLE_DIM_EXT2_LINETYPE
 70
     0
  0
ENDTAB
  0
TABLE
  2
DIMSTYLE
  5
A
330
0
100
AcDbSymbolTable
 70
    10
100
AcDbDimStyleTable
 71
     2
340
27
340
1BB
  0
DIMSTYLE
105
27
330
A
100
AcDbSymbolTableRecord
100
AcDbDimStyleTableRecord
  2
ISO-25
 70
     0
 41
2.5
 42
0.625
 43
3.75
 44
1.25
 73
     0
 74
     0
 77
     1
 78
     8
140
2.5
141
2.5
143
0.03937007874016
147
0.625
171
     3
172
     1
271
     2
272
     2
274
     3
278
    44
283
     0
284
     8
340
11
  0
DIMSTYLE
105
1BB
102
{ACAD_REACTORS
330
5341
330
5368
330
5329
330
53C2
330
53DA
330
53A1
102
}
330
A
100
AcDbSymbolTableRecord
100
AcDbDimStyleTableRecord
  2
DSTYLE1
 70
     0
 41
3.0
 42
0.0
 44
1.0
 73
     0
 74
     0
 77
     1
 78
     3
140
2.5
143
0.039370079
147
1.0
271
     3
272
     3
274
     0
279
     2
340
11
  0
DIMSTYLE
105
1E02
330
A
100
AcDbSymbolTableRecord
100
AcDbDimStyleTableRecord
  2
STANDARD
 70
     0
 41
0.125
 43
0.25
 44
0.125
 47
0.005
 48
-0.005
140
3.0
147
0.0625
171
     0
172
     1
271
     3
272
     3
274
     0
279
     2
340
11
  0
DIMSTYLE
105
552A
102
{ACAD_REACTORS
330
5519
102
}
330
A
100
AcDbSymbolTableRecord
100
AcDbDimStyleTableRecord
  2
AM_DIN
 70
     0
  4
"
 41
3.5
 42
1.0
 43
10.0
 44
1.0
 47
0.1
 48
0.1
 73
     0
 74
     0
 77
     1
 78
     8
 79
     2
140
3.5
141
0.0
143
0.0393701
146
0.71
147
1.5
172
     1
176
   256
177
   256
178
     2
271
     2
272
     3
274
     4
283
     0
284
     8
340
11
371
    -1
372
    -1
1001
ACAD_DSTYLE_DIMJAG
1070
   388
1040
1.5
1001
ACAD_DSTYLE_DIMBREAK
1070
   391
1040
3.75
1001
ACAD_DSTYLE_DIMJOGGED_JOGANGLE_SYMBOL
1070
   384
1040
1.570796326794896
1001
ACAD_DSTYLE_DIM_LINETYPE
1070
   380
1005
14
1001
ACAD_DSTYLE_DIM_EXT1_LINETYPE
1070
   381
1005
14
1001
ACAD_DSTYLE_DIM_EXT2_LINETYPE
1070
   382
1005
14
  0
DIMSTYLE
105
552E
330
A
100
AcDbSymbolTableRecord
100
AcDbDimStyleTableRecord
  2
AM_DIN$3
 70
     0
  4
"
 41
3.5
 42
1.0
 43
10.0
 44
1.0
 47
0.1
 48
0.1
 73
     0
 77
     1
 78
     8
 79
     2
140
3.5
141
0.0
143
0.0393701
146
0.71
147
1.5
176
   256
177
   256
178
     2
271
     2
272
     3
274
     4
283
     0
284
     8
288
     1
289
     0
340
11
371
    -1
372
    -1
1001
ACAD_DSTYLE_DIMBREAK
1070
   391
1040
3.75
1001
ACAD_DSTYLE_DIMJAG
1070
   388
1040
1.5
1001
ACAD_DSTYLE_DIMJOGGED_JOGANGLE_SYMBOL
1070
   384
1040
1.570796326794896
1001
ACAD_DSTYLE_DIM_LINETYPE
1070
   380
1005
14
1001
ACAD_DSTYLE_DIM_EXT1_LINETYPE
1070
   381
1005
14
1001
ACAD_DSTYLE_DIM_EXT2_LINETYPE
1070
   382
1005
14
  0
DIMSTYLE
105
552F
330
A
100
AcDbSymbolTableRecord
100
AcDbDimStyleTableRecord
  2
AM_DIN$4
 70
     0
  4
"
 41
3.5
 42
1.0
 43
10.0
 44
1.0
 47
0.1
 48
0.1
 73
     0
 77
     1
 78
     8
 79
     2
140
3.5
141
0.0
143
0.0393701
146
0.71
147
1.5
176
   256
177
   256
178
     2
271
     2
272
     3
274
     4
283
     0
284
     8
288
     1
289
     0
340
11
371
    -1
372
    -1
1001
ACAD_DSTYLE_DIMBREAK
1070
   391
1040
3.75
1001
ACAD_DSTYLE_DIMJAG
1070
   388
1040
1.5
1001
ACAD_DSTYLE_DIMJOGGED_JOGANGLE_SYMBOL
1070
   384
1040
1.570796326794896
1001
ACAD_DSTYLE_DIM_LINETYPE
1070
   380
1005
14
1001
ACAD_DSTYLE_DIM_EXT1_LINETYPE
1070
   381
1005
14
1001
ACAD_DSTYLE_DIM_EXT2_LINETYPE
1070
   382
1005
14
  0
DIMSTYLE
105
5530
330
A
100
AcDbSymbolTableRecord
100
AcDbDimStyleTableRecord
  2
AM_DIN$6
 70
     0
  4
"
 41
3.5
 42
1.0
 43
10.0
 44
1.0
 47
0.1
 48
0.1
 73
     0
 74
     0
 78
     8
 79
     2
140
3.5
141
0.0
143
0.0393701
146
0.71
147
1.5
172
     1
176
   256
177
   256
178
     2
271
     2
272
     3
274
     4
283
     0
284
     8
340
11
371
    -1
372
    -1
1001
ACAD_DSTYLE_DIMBREAK
1070
   391
1040
3.75
1001
ACAD_DSTYLE_DIMJAG
1070
   388
1040
1.5
1001
ACAD_DSTYLE_DIMJOGGED_JOGANGLE_SYMBOL
1070
   384
1040
1.570796326794896
1001
ACAD_DSTYLE_DIM_LINETYPE
1070
   380
1005
14
1001
ACAD_DSTYLE_DIM_EXT1_LINETYPE
1070
   381
1005
14
1001
ACAD_DSTYLE_DIM_EXT2_LINETYPE
1070
   382
1005
14
  0
DIMSTYLE
105
5531
330
A
100
AcDbSymbolTableRecord
100
AcDbDimStyleTableRecord
  2
AM_DIN$7
 70
     0
  4
"
 41
3.5
 42
1.0
 43
10.0
 44
1.0
 47
0.1
 48
0.1
 73
     0
 74
     0
 77
     1
 78
     8
 79
     2
140
3.5
141
0.0
143
0.0393701
146
0.71
147
1.5
172
     1
176
   256
177
   256
178
     2
271
     2
272
     3
274
     4
283
     0
284
     8
340
11
371
    -1
372
    -1
1001
ACAD_DSTYLE_DIMBREAK
1070
   391
1040
3.75
1001
ACAD_DSTYLE_DIMJAG
1070
   388
1040
1.5
1001
ACAD_DSTYLE_DIMJOGGED_JOGANGLE_SYMBOL
1070
   384
1040
1.570796326794896
1001
ACAD_DSTYLE_DIM_LINETYPE
1070
   380
1005
14
1001
ACAD_DSTYLE_DIM_EXT1_LINETYPE
1070
   381
1005
14
1001
ACAD_DSTYLE_DIM_EXT2_LINETYPE
1070
   382
1005
14
  0
DIMSTYLE
105
5532
330
A
100
AcDbSymbolTableRecord
100
AcDbDimStyleTableRecord
  2
AM_DIN$SF
 70
     0
  4
"
 41
3.5
 42
1.0
 43
10.0
 44
1.0
 47
0.1
 48
0.1
 73
     0
 74
     0
 75
     1
 76
     1
 77
     1
 78
     8
 79
     2
140
3.5
141
0.0
143
0.0393701
146
0.71
147
1.5
172
     1
176
   256
177
   256
178
     2
271
     2
272
     3
274
     4
283
     0
284
     8
340
11
371
    -1
372
    -1
1001
ACAD_DSTYLE_DIMBREAK
1070
   391
1040
3.75
1001
ACAD_DSTYLE_DIMJAG
1070
   388
1040
1.5
1001
ACAD_DSTYLE_DIMJOGGED_JOGANGLE_SYMBOL
1070
   384
1040
1.570796326794896
1001
ACAD_DSTYLE_DIM_LINETYPE
1070
   380
1005
14
1001
ACAD_DSTYLE_DIM_EXT1_LINETYPE
1070
   381
1005
14
1001
ACAD_DSTYLE_DIM_EXT2_LINETYPE
1070
   382
1005
14
  0
DIMSTYLE
105
5537
330
A
100
AcDbSymbolTableRecord
100
AcDbDimStyleTableRecord
  2
AM_DIN$SH
 70
     0
  4
"
 41
3.5
 42
1.0
 43
10.0
 44
1.0
 47
0.1
 48
0.1
 73
     0
 74
     0
 75
     1
 76
     1
 77
     1
 78
     8
 79
     2
140
3.5
141
0.0
143
0.0393701
144
2.0
146
0.71
147
1.5
172
     1
173
     1
176
   256
177
   256
178
     2
271
     2
272
     3
274
     4
283
     0
284
     8
340
11
343
5533
371
    -1
372
    -1
1001
ACAD_DSTYLE_DIMBREAK
1070
   391
1040
3.75
1001
ACAD_DSTYLE_DIMJAG
1070
   388
1040
1.5
1001
ACAD_DSTYLE_DIMJOGGED_JOGANGLE_SYMBOL
1070
   384
1040
1.570796326794896
1001
ACAD_DSTYLE_DIM_LINETYPE
1070
   380
1005
14
1001
ACAD_DSTYLE_DIM_EXT1_LINETYPE
1070
   381
1005
14
1001
ACAD_DSTYLE_DIM_EXT2_LINETYPE
1070
   382
1005
14
  0
ENDTAB
  0
TABLE
  2
BLOCK_RECORD
  5
1
330
0
100
AcDbSymbolTable
 70
    10
  0
BLOCK_RECORD
  5
1F
102
{ACAD_XDICTIONARY
360
1DCF
102
}
330
1
100
AcDbSymbolTableRecord
100
AcDbBlockTableRecord
  2
*Model_Space
340
22
  0
BLOCK_RECORD
  5
50
330
1
100
AcDbSymbolTableRecord
100
AcDbBlockTableRecord
  2
*Paper_Space
340
51
  0
BLOCK_RECORD
  5
55
330
1
100
AcDbSymbolTableRecord
100
AcDbBlockTableRecord
  2
*Paper_Space0
340
56
  0
BLOCK_RECORD
  5
86
330
1
100
AcDbSymbolTableRecord
100
AcDbBlockTableRecord
  2
SIEMENS_OUTLINE_BL0
340
0
102
{BLKREFS
331
59C
102
}
  0
BLOCK_RECORD
  5
532A
330
1
100
AcDbSymbolTableRecord
100
AcDbBlockTableRecord
  2
*D2
340
0
  0
BLOCK_RECORD
  5
5342
330
1
100
AcDbSymbolTableRecord
100
AcDbBlockTableRecord
  2
*D3
340
0
  0
BLOCK_RECORD
  5
5369
330
1
100
AcDbSymbolTableRecord
100
AcDbBlockTableRecord
  2
*D4
340
0
  0
BLOCK_RECORD
  5
53A2
330
1
100
AcDbSymbolTableRecord
100
AcDbBlockTableRecord
  2
*D5
340
0
  0
BLOCK_RECORD
  5
53C3
330
1
100
AcDbSymbolTableRecord
100
AcDbBlockTableRecord
  2
*D6
340
0
  0
BLOCK_RECORD
  5
53DB
330
1
100
AcDbSymbolTableRecord
100
AcDbBlockTableRecord
  2
*D7
340
0
  0
BLOCK_RECORD
  5
5533
330
1
100
AcDbSymbolTableRecord
100
AcDbBlockTableRecord
  2
GENAXEH
340
0
  0
ENDTAB
  0
ENDSEC
  0
SECTION
  2
BLOCKS
  0
BLOCK
  5
20
330
1F
100
AcDbEntity
  8
0
100
AcDbBlockBegin
  2
*Model_Space
 70
     0
 10
0.0
 20
0.0
 30
0.0
  3
*Model_Space
  1

  0
ENDBLK
  5
21
330
1F
100
AcDbEntity
  8
0
100
AcDbBlockEnd
  0
BLOCK
  5
52
330
50
100
AcDbEntity
 67
     1
  8
0
100
AcDbBlockBegin
  2
*Paper_Space
 70
     0
 10
0.0
 20
0.0
 30
0.0
  3
*Paper_Space
  1

  0
ENDBLK
  5
53
330
50
100
AcDbEntity
 67
     1
  8
0
100
AcDbBlockEnd
  0
BLOCK
  5
57
330
55
100
AcDbEntity
 67
     1
  8
0
100
AcDbBlockBegin
  2
*Paper_Space0
 70
     0
 10
0.0
 20
0.0
 30
0.0
  3
*Paper_Space0
  1

  0
ENDBLK
  5
58
330
55
100
AcDbEntity
 67
     1
  8
0
100
AcDbBlockEnd
  0
BLOCK
  5
87
330
86
100
AcDbEntity
  8
0
  6
Continuous
 62
     7
100
AcDbBlockBegin
  2
SIEMENS_OUTLINE_BL0
 70
     0
 10
0.0
 20
0.0
 30
0.0
  3
SIEMENS_OUTLINE_BL0
  1

  0
LINE
  5
88
330
86
100
AcDbEntity
  8
0
  6
Continuous
 62
     7
100
AcDbLine
 10
79.186200508
 20
21.4145478991
 30
0.0
 11
79.186200508
 21
16.6612788158
 31
0.0
  0
LINE
  5
89
330
86
100
AcDbEntity
  8
0
  6
Continuous
 62
     7
100
AcDbLine
 10
80.61218123299999
 20
21.4145478991
 30
0.0
 11
80.61218123299999
 21
16.6612788158
 31
0.0
  0
LINE
  5
8A
330
86
100
AcDbEntity
  8
0
  6
Continuous
 62
     7
100
AcDbLine
 10
79.186200508
 20
16.6612788158
 30
0.0
 11
80.61218123299999
 21
16.6612788158
 31
0.0
  0
LINE
  5
8B
330
86
100
AcDbEntity
  8
0
  6
Continuous
 62
     7
100
AcDbLine
 10
79.186200508
 20
21.4145478991
 30
0.0
 11
80.61218123299999
 21
21.4145478991
 31
0.0
  0
LINE
  5
8C
330
86
100
AcDbEntity
  8
0
  6
Continuous
 62
     7
100
AcDbLine
 10
81.7054331221
 20
21.4145478991
 30
0.0
 11
81.7054331221
 21
16.6612788158
 31
0.0
  0
LINE
  5
8D
330
86
100
AcDbEntity
  8
0
  6
Continuous
 62
     7
100
AcDbLine
 10
81.7054331221
 20
16.6612788158
 30
0.0
 11
85.2703849346
 21
16.6612788158
 31
0.0
  0
LINE
  5
8E
330
86
100
AcDbEntity
  8
0
  6
Continuous
 62
     7
100
AcDbLine
 10
85.2703849346
 20
17.56439994169999
 30
0.0
 11
83.0838811563
 21
17.56439994169999
 31
0.0
  0
LINE
  5
8F
330
86
100
AcDbEntity
  8
0
  6
Continuous
 62
     7
100
AcDbLine
 10
85.2703849346
 20
17.56439994169999
 30
0.0
 11
85.2703849346
 21
16.6612788158
 31
0.0
  0
LINE
  5
90
330
86
100
AcDbEntity
  8
0
  6
Continuous
 62
     7
100
AcDbLine
 10
85.2228522438
 20
21.4145478991
 30
0.0
 11
81.7054331221
 21
21.4145478991
 31
0.0
  0
LINE
  5
91
330
86
100
AcDbEntity
  8
0
  6
Continuous
 62
     7
100
AcDbLine
 10
85.2228522438
 20
20.5351931187
 30
0.0
 11
83.0838811563
 21
20.5351931187
 31
0.0
  0
LINE
  5
92
330
86
100
AcDbEntity
  8
0
  6
Continuous
 62
     7
100
AcDbLine
 10
85.2228522438
 20
21.4145478991
 30
0.0
 11
85.2228522438
 21
20.5351931187
 31
0.0
  0
LINE
  5
93
330
86
100
AcDbEntity
  8
0
  6
Continuous
 62
     7
100
AcDbLine
 10
84.9376560988
 20
18.68141817619999
 30
0.0
 11
83.0838811563
 21
18.68141817619999
 31
0.0
  0
LINE
  5
94
330
86
100
AcDbEntity
  8
0
  6
Continuous
 62
     7
100
AcDbLine
 10
84.9376560988
 20
19.46570757499999
 30
0.0
 11
84.9376560988
 21
18.68141817619999
 31
0.0
  0
LINE
  5
95
330
86
100
AcDbEntity
  8
0
  6
Continuous
 62
     7
100
AcDbLine
 10
84.9376560988
 20
19.46570757499999
 30
0.0
 11
83.0838811563
 21
19.46570757499999
 31
0.0
  0
LINE
  5
96
330
86
100
AcDbEntity
  8
0
  6
Continuous
 62
     7
100
AcDbLine
 10
83.0838811563
 20
20.5351931187
 30
0.0
 11
83.0838811563
 21
19.46570757499999
 31
0.0
  0
LINE
  5
97
330
86
100
AcDbEntity
  8
0
  6
Continuous
 62
     7
100
AcDbLine
 10
83.0838811563
 20
18.68141817619999
 30
0.0
 11
83.0838811563
 21
17.56439994169999
 31
0.0
  0
LINE
  5
98
330
86
100
AcDbEntity
  8
0
  6
Continuous
 62
     7
100
AcDbLine
 10
86.0784406788
 20
16.6612788158
 30
0.0
 11
86.0784406788
 21
21.4145478991
 31
0.0
  0
LINE
  5
99
330
86
100
AcDbEntity
  8
0
  6
Continuous
 62
     7
100
AcDbLine
 10
86.0784406788
 20
16.6612788158
 30
0.0
 11
87.02909449539999
 21
16.6612788158
 31
0.0
  0
LINE
  5
9A
330
86
100
AcDbEntity
  8
0
  6
Continuous
 62
     7
100
AcDbLine
 10
91.92496165120001
 20
21.4145478991
 30
0.0
 11
91.92496165120001
 21
16.6612788158
 31
0.0
  0
LINE
  5
9B
330
86
100
AcDbEntity
  8
0
  6
Continuous
 62
     7
100
AcDbLine
 10
91.92496165120001
 20
16.6612788158
 30
0.0
 11
90.54651361700001
 21
16.6612788158
 31
0.0
  0
LINE
  5
9C
330
86
100
AcDbEntity
  8
0
  6
Continuous
 62
     7
100
AcDbLine
 10
88.3600098387
 20
16.61374612499999
 30
0.0
 11
89.21559827370002
 21
16.61374612499999
 31
0.0
  0
LINE
  5
9D
330
86
100
AcDbEntity
  8
0
  6
Continuous
 62
     7
100
AcDbLine
 10
88.3600098387
 20
16.61374612499999
 30
0.0
 11
87.02909449539999
 21
19.7033710291
 31
0.0
  0
LINE
  5
9E
330
86
100
AcDbEntity
  8
0
  6
Continuous
 62
     7
100
AcDbLine
 10
87.02909449539999
 20
16.6612788158
 30
0.0
 11
87.02909449539999
 21
19.7033710291
 31
0.0
  0
LINE
  5
9F
330
86
100
AcDbEntity
  8
0
  6
Continuous
 62
     7
100
AcDbLine
 10
90.54651361700001
 20
19.75090372
 30
0.0
 11
89.21559827370002
 21
16.61374612499999
 31
0.0
  0
LINE
  5
A0
330
86
100
AcDbEntity
  8
0
  6
Continuous
 62
     7
100
AcDbLine
 10
87.78961754870001
 20
21.4145478991
 30
0.0
 11
86.0784406788
 21
21.4145478991
 31
0.0
  0
LINE
  5
A1
330
86
100
AcDbEntity
  8
0
  6
Continuous
 62
     7
100
AcDbLine
 10
91.92496165120001
 20
21.4145478991
 30
0.0
 11
90.2137847812
 21
21.4145478991
 31
0.0
  0
LINE
  5
A2
330
86
100
AcDbEntity
  8
0
  6
Continuous
 62
     7
100
AcDbLine
 10
87.78961754870001
 20
21.4145478991
 30
0.0
 11
89.0254675104
 21
18.51505375829999
 31
0.0
  0
LINE
  5
A3
330
86
100
AcDbEntity
  8
0
  6
Continuous
 62
     7
100
AcDbLine
 10
90.2137847812
 20
21.4145478991
 30
0.0
 11
89.0254675104
 21
18.51505375829999
 31
0.0
  0
LINE
  5
A4
330
86
100
AcDbEntity
  8
0
  6
Continuous
 62
     7
100
AcDbLine
 10
90.54651361700001
 20
19.75090372
 30
0.0
 11
90.54651361700001
 21
16.6612788158
 31
0.0
  0
LINE
  5
A5
330
86
100
AcDbEntity
  8
0
  6
Continuous
 62
     7
100
AcDbLine
 10
93.01821354030002
 20
21.4145478991
 30
0.0
 11
93.01821354030002
 21
16.6612788158
 31
0.0
  0
LINE
  5
A6
330
86
100
AcDbEntity
  8
0
  6
Continuous
 62
     7
100
AcDbLine
 10
93.01821354030002
 20
16.6612788158
 30
0.0
 11
96.5831653528
 21
16.6612788158
 31
0.0
  0
LINE
  5
A7
330
86
100
AcDbEntity
  8
0
  6
Continuous
 62
     7
100
AcDbLine
 10
96.5831653528
 20
17.56439994169999
 30
0.0
 11
94.3966615745
 21
17.56439994169999
 31
0.0
  0
LINE
  5
A8
330
86
100
AcDbEntity
  8
0
  6
Continuous
 62
     7
100
AcDbLine
 10
96.5831653528
 20
17.56439994169999
 30
0.0
 11
96.5831653528
 21
16.6612788158
 31
0.0
  0
LINE
  5
A9
330
86
100
AcDbEntity
  8
0
  6
Continuous
 62
     7
100
AcDbLine
 10
96.53563266200002
 20
21.4145478991
 30
0.0
 11
93.01821354030002
 21
21.4145478991
 31
0.0
  0
LINE
  5
AA
330
86
100
AcDbEntity
  8
0
  6
Continuous
 62
     7
100
AcDbLine
 10
96.53563266200002
 20
20.5351931187
 30
0.0
 11
94.3966615745
 21
20.5351931187
 31
0.0
  0
LINE
  5
AB
330
86
100
AcDbEntity
  8
0
  6
Continuous
 62
     7
100
AcDbLine
 10
96.53563266200002
 20
21.4145478991
 30
0.0
 11
96.53563266200002
 21
20.5351931187
 31
0.0
  0
LINE
  5
AC
330
86
100
AcDbEntity
  8
0
  6
Continuous
 62
     7
100
AcDbLine
 10
96.25043651700002
 20
18.68141817619999
 30
0.0
 11
94.3966615745
 21
18.68141817619999
 31
0.0
  0
LINE
  5
AD
330
86
100
AcDbEntity
  8
0
  6
Continuous
 62
     7
100
AcDbLine
 10
96.25043651700002
 20
19.46570757499999
 30
0.0
 11
96.25043651700002
 21
18.68141817619999
 31
0.0
  0
LINE
  5
AE
330
86
100
AcDbEntity
  8
0
  6
Continuous
 62
     7
100
AcDbLine
 10
96.25043651700002
 20
19.46570757499999
 30
0.0
 11
94.3966615745
 21
19.46570757499999
 31
0.0
  0
LINE
  5
AF
330
86
100
AcDbEntity
  8
0
  6
Continuous
 62
     7
100
AcDbLine
 10
94.3966615745
 20
20.5351931187
 30
0.0
 11
94.3966615745
 21
19.46570757499999
 31
0.0
  0
LINE
  5
B0
330
86
100
AcDbEntity
  8
0
  6
Continuous
 62
     7
100
AcDbLine
 10
94.3966615745
 20
18.68141817619999
 30
0.0
 11
94.3966615745
 21
17.56439994169999
 31
0.0
  0
LINE
  5
B1
330
86
100
AcDbEntity
  8
0
  6
Continuous
 62
     7
100
AcDbLine
 10
97.3674547515
 20
16.6612788158
 30
0.0
 11
97.3674547515
 21
21.4145478991
 31
0.0
  0
LINE
  5
B2
330
86
100
AcDbEntity
  8
0
  6
Continuous
 62
     7
100
AcDbLine
 10
101.5503315447999
 20
21.4145478991
 30
0.0
 11
101.5503315447999
 21
16.6612788158
 31
0.0
  0
LINE
  5
B3
330
86
100
AcDbEntity
  8
0
  6
Continuous
 62
     7
100
AcDbLine
 10
97.3674547515
 20
16.6612788158
 30
0.0
 11
98.3181085682
 21
16.6612788158
 31
0.0
  0
LINE
  5
B4
330
86
100
AcDbEntity
  8
0
  6
Continuous
 62
     7
100
AcDbLine
 10
101.5503315447999
 20
21.4145478991
 30
0.0
 11
100.5996777281999
 21
21.4145478991
 31
0.0
  0
LINE
  5
B5
330
86
100
AcDbEntity
  8
0
  6
Continuous
 62
     7
100
AcDbLine
 10
98.91226720360002
 20
21.4145478991
 30
0.0
 11
97.3674547515
 21
21.4145478991
 31
0.0
  0
LINE
  5
B6
330
86
100
AcDbEntity
  8
0
  6
Continuous
 62
     7
100
AcDbLine
 10
101.5503315447999
 20
16.6612788158
 30
0.0
 11
100.0292854381999
 21
16.6612788158
 31
0.0
  0
LINE
  5
B7
330
86
100
AcDbEntity
  8
0
  6
Continuous
 62
     7
100
AcDbLine
 10
100.0292854381999
 20
16.6612788158
 30
0.0
 11
98.3181085682
 21
19.7033710291
 31
0.0
  0
LINE
  5
B8
330
86
100
AcDbEntity
  8
0
  6
Continuous
 62
     7
100
AcDbLine
 10
98.91226720360002
 20
21.4145478991
 30
0.0
 11
100.5996777281999
 21
18.4675210675
 31
0.0
  0
LINE
  5
B9
330
86
100
AcDbEntity
  8
0
  6
Continuous
 62
     7
100
AcDbLine
 10
100.5996777281999
 20
21.4145478991
 30
0.0
 11
100.5996777281999
 21
18.4675210675
 31
0.0
  0
LINE
  5
BA
330
86
100
AcDbEntity
  8
0
  6
Continuous
 62
     7
100
AcDbLine
 10
98.3181085682
 20
16.6612788158
 30
0.0
 11
98.3181085682
 21
19.7033710291
 31
0.0
  0
LINE
  5
BB
330
86
100
AcDbEntity
  8
0
  6
Continuous
 62
     7
100
AcDbLine
 10
102.3583872889999
 20
16.75634419749999
 30
0.0
 11
102.3583872889999
 21
17.7069980142
 31
0.0
  0
LINE
  5
BC
330
86
100
AcDbEntity
  8
0
  6
Continuous
 62
     7
100
AcDbLine
 10
105.6856756473
 20
20.4163613916
 30
0.0
 11
105.6856756473
 21
21.36701520829999
 31
0.0
  0
ARC
  5
BD
330
86
100
AcDbEntity
  8
0
  6
Continuous
 62
     7
100
AcDbCircle
 10
104.063028414
 20
18.61843736089998
 30
0.0
 40
1.111619360599997
100
AcDbArc
 50
277.7099956934
 51
295.6884927745999
  0
ARC
  5
BE
330
86
100
AcDbEntity
  8
0
  6
Continuous
 62
     7
100
AcDbCircle
 10
104.3473383967
 20
17.8936115972
 30
0.0
 40
0.3401689265
100
AcDbArc
 50
305.503221255
 51
72.46528985229999
  0
ARC
  5
BF
330
86
100
AcDbEntity
  8
0
  6
Continuous
 62
     7
100
AcDbCircle
 10
103.7813445885999
 20
21.2953185068
 30
0.0
 40
4.756794641099999
100
AcDbArc
 50
252.5939200548001
 51
280.9816604255999
  0
ARC
  5
C0
330
86
100
AcDbEntity
  8
0
  6
Continuous
 62
     7
100
AcDbCircle
 10
104.2361799517
 20
18.6773047703
 30
0.0
 40
2.100726595299998
100
AcDbArc
 50
282.4058358519999
 51
311.8644433928
  0
ARC
  5
C1
330
86
100
AcDbEntity
  8
0
  6
Continuous
 62
     7
100
AcDbCircle
 10
103.9626156045999
 20
20.2856464918
 30
0.0
 40
0.3029626476
100
AcDbArc
 50
154.4400348282
 51
221.8201698800999
  0
ARC
  5
C2
330
86
100
AcDbEntity
  8
0
  6
Continuous
 62
     7
100
AcDbCircle
 10
104.0418367559
 20
20.2064253405
 30
0.0
 40
0.4103089737
100
AcDbArc
 50
102.8287828680999
 51
149.2259639003
  0
ARC
  5
C3
330
86
100
AcDbEntity
  8
0
  6
Continuous
 62
     7
100
AcDbCircle
 10
104.4588635915999
 20
18.46409001059999
 30
0.0
 40
2.201836557
100
AcDbArc
 50
84.0400061857
 51
103.3427657870999
  0
ARC
  5
C4
330
86
100
AcDbEntity
  8
0
  6
Continuous
 62
     7
100
AcDbCircle
 10
104.1178997669
 20
16.0467260867
 30
0.0
 40
4.642373736499997
100
AcDbArc
 50
70.2625858546
 51
82.95241863799999
  0
ARC
  5
C5
330
86
100
AcDbEntity
  8
0
  6
Continuous
 62
     7
100
AcDbCircle
 10
103.6038815646999
 20
20.7183489764
 30
0.0
 40
3.258755990899997
100
AcDbArc
 50
247.5300206145
 51
280.7579522143
  0
ARC
  5
C6
330
86
100
AcDbEntity
  8
0
  6
Continuous
 62
     7
100
AcDbCircle
 10
97.21891509270001
 20
2.4668290159
 30
0.0
 40
17.3316084133
100
AcDbArc
 50
65.34146746500001
 51
67.39977707359999
  0
ARC
  5
C7
330
86
100
AcDbEntity
  8
0
  6
Continuous
 62
     7
100
AcDbCircle
 10
108.0147774981
 20
28.259255379
 30
0.0
 40
10.6291642039
100
AcDbArc
 50
242.8620101252001
 51
247.1042029186
  0
ARC
  5
C8
330
86
100
AcDbEntity
  8
0
  6
Continuous
 62
     7
100
AcDbCircle
 10
104.1598762715
 20
20.725323882
 30
0.0
 40
2.166291629199998
100
AcDbArc
 50
227.3119280793999
 51
242.7040315235
  0
ARC
  5
C9
330
86
100
AcDbEntity
  8
0
  6
Continuous
 62
     7
100
AcDbCircle
 10
103.5558454618999
 20
20.0196462412
 30
0.0
 40
1.238521734
100
AcDbArc
 50
194.7952194236
 51
225.7176549047
  0
ARC
  5
CA
330
86
100
AcDbEntity
  8
0
  6
Continuous
 62
     7
100
AcDbCircle
 10
103.6180035961
 20
20.05986621039999
 30
0.0
 40
1.309092072899999
100
AcDbArc
 50
164.1974860461
 51
195.8025139539
  0
ARC
  5
CB
330
86
100
AcDbEntity
  8
0
  6
Continuous
 62
     7
100
AcDbCircle
 10
104.1750273167
 20
19.1715990505
 30
0.0
 40
2.366924815299999
100
AcDbArc
 50
86.22180229280001
 51
120.4272602309
  0
ARC
  5
CC
330
86
100
AcDbEntity
  8
0
  6
Continuous
 62
     7
100
AcDbCircle
 10
103.9061705341999
 20
12.4754312294
 30
0.0
 40
9.0679051661
100
AcDbArc
 50
78.68270492259998
 51
87.3147599624
  0
ARC
  5
CD
330
86
100
AcDbEntity
  8
0
  6
Continuous
 62
     7
100
AcDbCircle
 10
103.4501013557999
 20
20.1673739729
 30
0.0
 40
1.119747444
100
AcDbArc
 50
142.8139179029999
 51
167.1522951416999
  0
ARC
  5
CE
330
86
100
AcDbEntity
  8
0
  6
Continuous
 62
     7
100
AcDbCircle
 10
103.7954106973999
 20
19.86079227619999
 30
0.0
 40
1.580546684499998
100
AcDbArc
 50
121.2140948535
 51
141.5254768286
  0
ARC
  5
CF
330
86
100
AcDbEntity
  8
0
  6
Continuous
 62
     7
100
AcDbCircle
 10
104.372585063
 20
20.6718496049
 30
0.0
 40
0.8661276051999998
100
AcDbArc
 50
222.7760387596
 51
239.0362434679
  0
ARC
  5
D0
330
86
100
AcDbEntity
  8
0
  6
Continuous
 62
     7
100
AcDbCircle
 10
101.8658754847
 20
13.3415774063
 30
0.0
 40
6.858773576299999
100
AcDbArc
 50
59.90202725599999
 51
68.2036481279
  0
ARC
  5
D1
330
86
100
AcDbEntity
  8
0
  6
Continuous
 62
     7
100
AcDbCircle
 10
105.2743699785
 20
22.26746391349999
 30
0.0
 40
2.698741017099999
100
AcDbArc
 50
240.0481997804
 51
251.3779673736999
  0
ARC
  5
D2
330
86
100
AcDbEntity
  8
0
  6
Continuous
 62
     7
100
AcDbCircle
 10
104.6089128116999
 20
18.1105652982
 30
0.0
 40
1.4334474881
100
AcDbArc
 50
315.8904553224
 51
333.5229264372999
  0
ARC
  5
D3
330
86
100
AcDbEntity
  8
0
  6
Continuous
 62
     7
100
AcDbCircle
 10
104.6135510555
 20
18.057158148
 30
0.0
 40
1.406228711899998
100
AcDbArc
 50
335.3867972702
 51
24.39151194019999
  0
ARC
  5
D4
330
86
100
AcDbEntity
  8
0
  6
Continuous
 62
     7
100
AcDbCircle
 10
104.5413461519
 20
17.97930145619999
 30
0.0
 40
1.504702514799999
100
AcDbArc
 50
25.95629166050001
 51
59.4834829668
  0
LINE
  5
D5
330
86
100
AcDbEntity
  8
0
  6
Continuous
 62
     7
100
AcDbLine
 10
74.7656602606
 20
16.75634419749999
 30
0.0
 11
74.7656602606
 21
17.7069980142
 31
0.0
  0
LINE
  5
D6
330
86
100
AcDbEntity
  8
0
  6
Continuous
 62
     7
100
AcDbLine
 10
78.09294861879997
 20
20.4163613916
 30
0.0
 11
78.09294861879997
 21
21.36701520829999
 31
0.0
  0
ARC
  5
D7
330
86
100
AcDbEntity
  8
0
  6
Continuous
 62
     7
100
AcDbCircle
 10
76.4703013855
 20
18.61843736089998
 30
0.0
 40
1.111619360599997
100
AcDbArc
 50
277.7099956934
 51
295.6884927745999
  0
ARC
  5
D8
330
86
100
AcDbEntity
  8
0
  6
Continuous
 62
     7
100
AcDbCircle
 10
76.7546113683
 20
17.8936115972
 30
0.0
 40
0.3401689265
100
AcDbArc
 50
305.5032212556
 51
72.4652898515
  0
ARC
  5
D9
330
86
100
AcDbEntity
  8
0
  6
Continuous
 62
     7
100
AcDbCircle
 10
76.1886175602
 20
21.2953185068
 30
0.0
 40
4.756794641099999
100
AcDbArc
 50
252.5939200545
 51
280.9816604253
  0
ARC
  5
DA
330
86
100
AcDbEntity
  8
0
  6
Continuous
 62
     7
100
AcDbCircle
 10
76.64345292330001
 20
18.6773047703
 30
0.0
 40
2.100726595299998
100
AcDbArc
 50
282.4058358513
 51
311.8644433923
  0
ARC
  5
DB
330
86
100
AcDbEntity
  8
0
  6
Continuous
 62
     7
100
AcDbCircle
 10
76.3698885762
 20
20.2856464918
 30
0.0
 40
0.3029626476
100
AcDbArc
 50
154.4400348282
 51
221.8201698800999
  0
ARC
  5
DC
330
86
100
AcDbEntity
  8
0
  6
Continuous
 62
     7
100
AcDbCircle
 10
76.4491097276
 20
20.2064253405
 30
0.0
 40
0.4103089737
100
AcDbArc
 50
102.8287828727
 51
149.2259639027
  0
ARC
  5
DD
330
86
100
AcDbEntity
  8
0
  6
Continuous
 62
     7
100
AcDbCircle
 10
76.8661365632
 20
18.46409001059999
 30
0.0
 40
2.201836557
100
AcDbArc
 50
84.0400061859
 51
103.3427657871999
  0
ARC
  5
DE
330
86
100
AcDbEntity
  8
0
  6
Continuous
 62
     7
100
AcDbCircle
 10
76.5251727384
 20
16.0467260867
 30
0.0
 40
4.642373736499997
100
AcDbArc
 50
70.2625858546
 51
82.9524186379
  0
ARC
  5
DF
330
86
100
AcDbEntity
  8
0
  6
Continuous
 62
     7
100
AcDbCircle
 10
76.0111545363
 20
20.7183489764
 30
0.0
 40
3.258755990899997
100
AcDbArc
 50
247.5300206148
 51
280.7579522145
  0
ARC
  5
E0
330
86
100
AcDbEntity
  8
0
  6
Continuous
 62
     7
100
AcDbCircle
 10
69.6261880643
 20
2.4668290159
 30
0.0
 40
17.3316084133
100
AcDbArc
 50
65.34146746500001
 51
67.39977707359999
  0
ARC
  5
E1
330
86
100
AcDbEntity
  8
0
  6
Continuous
 62
     7
100
AcDbCircle
 10
80.4220504697
 20
28.259255379
 30
0.0
 40
10.6291642039
100
AcDbArc
 50
242.8620101252001
 51
247.1042029184999
  0
ARC
  5
E2
330
86
100
AcDbEntity
  8
0
  6
Continuous
 62
     7
100
AcDbCircle
 10
76.56714924310001
 20
20.725323882
 30
0.0
 40
2.166291629199998
100
AcDbArc
 50
227.3119280793999
 51
242.7040315235
  0
ARC
  5
E3
330
86
100
AcDbEntity
  8
0
  6
Continuous
 62
     7
100
AcDbCircle
 10
75.9631184335
 20
20.0196462412
 30
0.0
 40
1.238521734
100
AcDbArc
 50
194.7952194234
 51
225.7176549041999
  0
ARC
  5
E4
330
86
100
AcDbEntity
  8
0
  6
Continuous
 62
     7
100
AcDbCircle
 10
76.58230028830002
 20
19.1715990505
 30
0.0
 40
2.366924815299999
100
AcDbArc
 50
86.22180229280001
 51
120.4272602309
  0
ARC
  5
E5
330
86
100
AcDbEntity
  8
0
  6
Continuous
 62
     7
100
AcDbCircle
 10
76.3134435058
 20
12.4754312294
 30
0.0
 40
9.0679051661
100
AcDbArc
 50
78.68270492259998
 51
87.3147599624
  0
ARC
  5
E6
330
86
100
AcDbEntity
  8
0
  6
Continuous
 62
     7
100
AcDbCircle
 10
76.20268366899998
 20
19.86079227619999
 30
0.0
 40
1.580546684599998
100
AcDbArc
 50
121.2140948540999
 51
141.5254768289999
  0
ARC
  5
E7
330
86
100
AcDbEntity
  8
0
  6
Continuous
 62
     7
100
AcDbCircle
 10
76.7798580346
 20
20.6718496049
 30
0.0
 40
0.8661276051999998
100
AcDbArc
 50
222.7760387596
 51
239.0362434679
  0
ARC
  5
E8
330
86
100
AcDbEntity
  8
0
  6
Continuous
 62
     7
100
AcDbCircle
 10
74.2731484563
 20
13.3415774063
 30
0.0
 40
6.858773576299999
100
AcDbArc
 50
59.90202725620001
 51
68.20364812820002
  0
ARC
  5
E9
330
86
100
AcDbEntity
  8
0
  6
Continuous
 62
     7
100
AcDbCircle
 10
77.6816429501
 20
22.26746391349999
 30
0.0
 40
2.698741017099999
100
AcDbArc
 50
240.0481997804
 51
251.3779673734
  0
ARC
  5
EA
330
86
100
AcDbEntity
  8
0
  6
Continuous
 62
     7
100
AcDbCircle
 10
77.0161857833
 20
18.1105652982
 30
0.0
 40
1.4334474881
100
AcDbArc
 50
315.8904553225998
 51
333.5229264375
  0
ARC
  5
EB
330
86
100
AcDbEntity
  8
0
  6
Continuous
 62
     7
100
AcDbCircle
 10
77.020824027
 20
18.057158148
 30
0.0
 40
1.406228711899998
100
AcDbArc
 50
335.3867972703
 51
24.3915119403
  0
ARC
  5
EC
330
86
100
AcDbEntity
  8
0
  6
Continuous
 62
     7
100
AcDbCircle
 10
76.94861912350001
 20
17.97930145619999
 30
0.0
 40
1.504702514699999
100
AcDbArc
 50
25.9562916611
 51
59.4834829676
  0
LINE
  5
ED
330
86
100
AcDbEntity
  8
0
  6
Continuous
 62
     7
100
AcDbLine
 10
74.9574888499
 20
20.8337423583
 30
0.0
 11
75.2315546745
 21
21.10781543579999
 31
0.0
  0
ARC
  5
EE
330
86
100
AcDbEntity
  8
0
  6
Continuous
 62
     7
100
AcDbCircle
 10
76.0252765676
 20
20.05986621039999
 30
0.0
 40
1.309092072899999
100
AcDbArc
 50
164.1974860461
 51
195.8025139539
  0
ARC
  5
EF
330
86
100
AcDbEntity
  8
0
  6
Continuous
 62
     7
100
AcDbCircle
 10
75.8573743274
 20
20.1673739729
 30
0.0
 40
1.119747444
100
AcDbArc
 50
142.8139179029999
 51
167.1522951416999
  0
ENDBLK
  5
F0
330
86
100
AcDbEntity
  8
0
100
AcDbBlockEnd
  0
BLOCK
  5
5334
330
532A
100
AcDbEntity
  8
0
100
AcDbBlockBegin
  2
*D2
 70
     1
 10
0.0
 20
0.0
 30
0.0
  3
*D2
  1

  0
LINE
  5
5464
330
532A
100
AcDbEntity
  8
10000_FRONT
  6
Continuous
 62
     0
370
    -2
100
AcDbLine
 10
179.8273918311091
 20
177.6383660877001
 30
0.0
 11
179.8273918311091
 21
160.7652675677471
 31
0.0
  0
LINE
  5
5465
330
532A
100
AcDbEntity
  8
10000_FRONT
  6
Continuous
 62
     0
370
    -2
100
AcDbLine
 10
224.4500199211304
 20
178.2069459198328
 30
0.0
 11
224.4500199211304
 21
160.7652675677471
 31
0.0
  0
LINE
  5
5466
330
532A
100
AcDbEntity
  8
10000_FRONT
  6
Continuous
 62
     0
370
    -2
100
AcDbLine
 10
181.827391831109
 20
161.7652675677471
 30
0.0
 11
198.2220392094531
 21
161.7652675677471
 31
0.0
  0
LINE
  5
5467
330
532A
100
AcDbEntity
  8
10000_FRONT
  6
Continuous
 62
     0
370
    -2
100
AcDbLine
 10
222.4500199211304
 20
161.7652675677471
 30
0.0
 11
206.0553725427864
 21
161.7652675677471
 31
0.0
  0
SOLID
  5
5468
330
532A
100
AcDbEntity
  8
10000_FRONT
  6
Continuous
 62
     0
100
AcDbTrace
 10
181.827391831109
 20
162.0986009010804
 30
0.0
 11
181.827391831109
 21
161.4319342344138
 31
0.0
 12
179.8273918311091
 22
161.7652675677471
 32
0.0
 13
179.8273918311091
 23
161.7652675677471
 33
0.0
  0
SOLID
  5
5469
330
532A
100
AcDbEntity
  8
10000_FRONT
  6
Continuous
 62
     0
100
AcDbTrace
 10
222.4500199211304
 20
162.0986009010804
 30
0.0
 11
222.4500199211304
 21
161.4319342344138
 31
0.0
 12
224.4500199211304
 22
161.7652675677471
 32
0.0
 13
224.4500199211304
 23
161.7652675677471
 33
0.0
  0
MTEXT
  5
546A
330
532A
100
AcDbEntity
  8
10000_FRONT
  6
Continuous
 62
     0
370
    15
100
AcDbMText
 10
202.1387058761198
 20
161.7652675677471
 30
0.0
 40
3.5
 41
0.0
 71
     5
 72
     1
  1
\A1;45
 73
     1
 44
1.0
1001
ACAD
1000
MTEXTBEGIN
1070
    73
1070
     1
1070
    44
1040
1.0
1070
    74
1070
     0
1000
MTEXTEND
  0
POINT
  5
546B
330
532A
100
AcDbEntity
  8
Defpoints
  6
Continuous
 62
     0
100
AcDbPoint
 10
179.8273918311091
 20
178.6383660877001
 30
0.0
  0
POINT
  5
546C
330
532A
100
AcDbEntity
  8
Defpoints
  6
Continuous
 62
     0
100
AcDbPoint
 10
224.4500199211304
 20
179.2069459198328
 30
0.0
  0
POINT
  5
546D
330
532A
100
AcDbEntity
  8
Defpoints
  6
Continuous
 62
     0
100
AcDbPoint
 10
224.4500199211304
 20
161.7652675677471
 30
0.0
  0
ENDBLK
  5
5335
330
532A
100
AcDbEntity
  8
0
100
AcDbBlockEnd
  0
BLOCK
  5
534E
330
5342
100
AcDbEntity
  8
0
100
AcDbBlockBegin
  2
*D3
 70
     1
 10
0.0
 20
0.0
 30
0.0
  3
*D3
  1

  0
LINE
  5
5431
330
5342
100
AcDbEntity
  8
10100_FRONT_DIM
  6
Continuous
 62
     0
370
    -2
100
AcDbLine
 10
179.6501356072556
 20
177.5667354343927
 30
0.0
 11
179.6501356072556
 21
168.7836052186252
 31
0.0
  0
LINE
  5
5432
330
5342
100
AcDbEntity
  8
10100_FRONT_DIM
  6
Continuous
 62
     0
370
    -2
100
AcDbLine
 10
184.8676581186385
 20
183.6169340995205
 30
0.0
 11
184.8676581186385
 21
168.7836052186252
 31
0.0
  0
LINE
  5
5433
330
5342
100
AcDbEntity
  8
10100_FRONT_DIM
  6
Continuous
 62
     0
370
    -2
100
AcDbLine
 10
186.8676581186385
 20
169.7836052186252
 30
0.0
 11
188.8676581186384
 21
169.7836052186252
 31
0.0
  0
LINE
  5
5434
330
5342
100
AcDbEntity
  8
10100_FRONT_DIM
  6
Continuous
 62
     0
370
    -2
100
AcDbLine
 10
177.6501356072556
 20
169.7836052186252
 30
0.0
 11
172.2334689405889
 21
169.7836052186252
 31
0.0
  0
LINE
  5
5435
330
5342
100
AcDbEntity
  8
10100_FRONT_DIM
  6
Continuous
 62
     0
370
    -2
100
AcDbLine
 10
184.8676581186385
 20
169.7836052186252
 30
0.0
 11
179.6501356072556
 21
169.7836052186252
 31
0.0
  0
SOLID
  5
5436
330
5342
100
AcDbEntity
  8
10100_FRONT_DIM
  6
Continuous
 62
     0
100
AcDbTrace
 10
186.8676581186385
 20
170.1169385519585
 30
0.0
 11
186.8676581186385
 21
169.4502718852918
 31
0.0
 12
184.8676581186385
 22
169.7836052186252
 32
0.0
 13
184.8676581186385
 23
169.7836052186252
 33
0.0
  0
SOLID
  5
5437
330
5342
100
AcDbEntity
  8
10100_FRONT_DIM
  6
Continuous
 62
     0
100
AcDbTrace
 10
177.6501356072556
 20
170.1169385519585
 30
0.0
 11
177.6501356072556
 21
169.4502718852918
 31
0.0
 12
179.6501356072556
 22
169.7836052186252
 32
0.0
 13
179.6501356072556
 23
169.7836052186252
 33
0.0
  0
MTEXT
  5
5438
330
5342
100
AcDbEntity
  8
10100_FRONT_DIM
  6
Continuous
 62
     0
370
    13
100
AcDbMText
 10
170.0668022739223
 20
169.7836052186252
 30
0.0
 40
3.5
 41
0.0
 71
     5
 72
     1
  1
\A1;5
 73
     1
 44
1.0
1001
ACAD
1000
MTEXTBEGIN
1070
    73
1070
     1
1070
    44
1040
1.0
1070
    74
1070
     0
1000
MTEXTEND
  0
POINT
  5
5439
330
5342
100
AcDbEntity
  8
Defpoints
  6
Continuous
 62
     0
100
AcDbPoint
 10
179.6501356072556
 20
178.5667354343927
 30
0.0
  0
POINT
  5
543A
330
5342
100
AcDbEntity
  8
Defpoints
  6
Continuous
 62
     0
100
AcDbPoint
 10
184.8676581186385
 20
184.6169340995205
 30
0.0
  0
POINT
  5
543B
330
5342
100
AcDbEntity
  8
Defpoints
  6
Continuous
 62
     0
100
AcDbPoint
 10
184.8676581186385
 20
169.7836052186252
 30
0.0
  0
ENDBLK
  5
534F
330
5342
100
AcDbEntity
  8
0
100
AcDbBlockEnd
  0
BLOCK
  5
5374
330
5369
100
AcDbEntity
  8
0
100
AcDbBlockBegin
  2
*D4
 70
     1
 10
0.0
 20
0.0
 30
0.0
  3
*D4
  1

  0
LINE
  5
543C
330
5369
100
AcDbEntity
  8
10100_FRONT_DIM
  6
Continuous
 62
     0
370
    -2
100
AcDbLine
 10
184.8676581186385
 20
182.9919340995205
 30
0.0
 11
184.8676581186385
 21
168.7836052186252
 31
0.0
  0
LINE
  5
543D
330
5369
100
AcDbEntity
  8
10100_FRONT_DIM
  6
Continuous
 62
     0
370
    -2
100
AcDbLine
 10
193.4593605850185
 20
183.5805408187871
 30
0.0
 11
193.4593605850185
 21
168.7836052186252
 31
0.0
  0
LINE
  5
543E
330
5369
100
AcDbEntity
  8
10100_FRONT_DIM
  6
Continuous
 62
     0
370
    -2
100
AcDbLine
 10
186.8676581186385
 20
169.7836052186252
 30
0.0
 11
191.4593605850186
 21
169.7836052186252
 31
0.0
  0
LINE
  5
543F
330
5369
100
AcDbEntity
  8
10100_FRONT_DIM
  6
Continuous
 62
     0
370
    -2
100
AcDbLine
 10
193.4593605850185
 20
169.7836052186252
 30
0.0
 11
195.4593605850186
 21
169.7836052186252
 31
0.0
  0
SOLID
  5
5440
330
5369
100
AcDbEntity
  8
10100_FRONT_DIM
  6
Continuous
 62
     0
100
AcDbTrace
 10
186.8676581186385
 20
170.1169385519585
 30
0.0
 11
186.8676581186385
 21
169.4502718852918
 31
0.0
 12
184.8676581186385
 22
169.7836052186252
 32
0.0
 13
184.8676581186385
 23
169.7836052186252
 33
0.0
  0
SOLID
  5
5441
330
5369
100
AcDbEntity
  8
10100_FRONT_DIM
  6
Continuous
 62
     0
100
AcDbTrace
 10
191.4593605850186
 20
170.1169385519585
 30
0.0
 11
191.4593605850186
 21
169.4502718852918
 31
0.0
 12
193.4593605850185
 22
169.7836052186252
 32
0.0
 13
193.4593605850185
 23
169.7836052186252
 33
0.0
  0
MTEXT
  5
5442
330
5369
100
AcDbEntity
  8
10100_FRONT_DIM
  6
Continuous
 62
     0
370
    13
100
AcDbMText
 10
197.6260272516853
 20
169.7836052186252
 30
0.0
 40
3.5
 41
0.0
 71
     5
 72
     1
  1
\A1;9
 73
     1
 44
1.0
1001
ACAD
1000
MTEXTBEGIN
1070
    73
1070
     1
1070
    44
1040
1.0
1070
    74
1070
     0
1000
MTEXTEND
  0
POINT
  5
5443
330
5369
100
AcDbEntity
  8
Defpoints
  6
Continuous
 62
     0
100
AcDbPoint
 10
184.8676581186385
 20
183.9919340995205
 30
0.0
  0
POINT
  5
5444
330
5369
100
AcDbEntity
  8
Defpoints
  6
Continuous
 62
     0
100
AcDbPoint
 10
193.4593605850185
 20
184.5805408187871
 30
0.0
  0
POINT
  5
5445
330
5369
100
AcDbEntity
  8
Defpoints
  6
Continuous
 62
     0
100
AcDbPoint
 10
193.4593605850185
 20
169.7836052186252
 30
0.0
  0
ENDBLK
  5
5375
330
5369
100
AcDbEntity
  8
0
100
AcDbBlockEnd
  0
BLOCK
  5
53AC
330
53A2
100
AcDbEntity
  8
0
100
AcDbBlockBegin
  2
*D5
 70
     1
 10
0.0
 20
0.0
 30
0.0
  3
*D5
  1

  0
LINE
  5
5446
330
53A2
100
AcDbEntity
  8
11100_LEFT_DIM
  6
Continuous
 62
     0
370
    -2
100
AcDbLine
 10
255.3540567507901
 20
177.2069459198328
 30
0.0
 11
255.3540567507901
 21
168.7836052186252
 31
0.0
  0
LINE
  5
5447
330
53A2
100
AcDbEntity
  8
11100_LEFT_DIM
  6
Continuous
 62
     0
370
    -2
100
AcDbLine
 10
320.7378985070489
 20
182.1259611008401
 30
0.0
 11
320.7378985070489
 21
168.7836052186252
 31
0.0
  0
LINE
  5
5448
330
53A2
100
AcDbEntity
  8
11100_LEFT_DIM
  6
Continuous
 62
     0
370
    -2
100
AcDbLine
 10
257.3540567507901
 20
169.7836052186252
 30
0.0
 11
284.1293109622528
 21
169.7836052186252
 31
0.0
  0
LINE
  5
5449
330
53A2
100
AcDbEntity
  8
11100_LEFT_DIM
  6
Continuous
 62
     0
370
    -2
100
AcDbLine
 10
318.7378985070489
 20
169.7836052186252
 30
0.0
 11
291.9626442955862
 21
169.7836052186252
 31
0.0
  0
SOLID
  5
544A
330
53A2
100
AcDbEntity
  8
11100_LEFT_DIM
  6
Continuous
 62
     0
100
AcDbTrace
 10
257.3540567507901
 20
170.1169385519585
 30
0.0
 11
257.3540567507901
 21
169.4502718852918
 31
0.0
 12
255.3540567507901
 22
169.7836052186252
 32
0.0
 13
255.3540567507901
 23
169.7836052186252
 33
0.0
  0
SOLID
  5
544B
330
53A2
100
AcDbEntity
  8
11100_LEFT_DIM
  6
Continuous
 62
     0
100
AcDbTrace
 10
318.7378985070489
 20
170.1169385519585
 30
0.0
 11
318.7378985070489
 21
169.4502718852918
 31
0.0
 12
320.7378985070489
 22
169.7836052186252
 32
0.0
 13
320.7378985070489
 23
169.7836052186252
 33
0.0
  0
MTEXT
  5
544C
330
53A2
100
AcDbEntity
  8
11100_LEFT_DIM
  6
Continuous
 62
     0
370
    13
100
AcDbMText
 10
288.0459776289195
 20
169.7836052186252
 30
0.0
 40
3.5
 41
0.0
 71
     5
 72
     1
  1
\A1;65
 73
     1
 44
1.0
1001
ACAD
1000
MTEXTBEGIN
1070
    73
1070
     1
1070
    44
1040
1.0
1070
    74
1070
     0
1000
MTEXTEND
  0
POINT
  5
544D
330
53A2
100
AcDbEntity
  8
Defpoints
  6
Continuous
 62
     0
100
AcDbPoint
 10
255.3540567507901
 20
178.2069459198328
 30
0.0
  0
POINT
  5
544E
330
53A2
100
AcDbEntity
  8
Defpoints
  6
Continuous
 62
     0
100
AcDbPoint
 10
320.7378985070489
 20
183.1259611008401
 30
0.0
  0
POINT
  5
544F
330
53A2
100
AcDbEntity
  8
Defpoints
  6
Continuous
 62
     0
100
AcDbPoint
 10
320.7378985070489
 20
169.7836052186252
 30
0.0
  0
ENDBLK
  5
53AD
330
53A2
100
AcDbEntity
  8
0
100
AcDbBlockEnd
  0
BLOCK
  5
53CD
330
53C3
100
AcDbEntity
  8
0
100
AcDbBlockBegin
  2
*D6
 70
     1
 10
0.0
 20
0.0
 30
0.0
  3
*D6
  1

  0
LINE
  5
5450
330
53C3
100
AcDbEntity
  8
10000_FRONT
  6
Continuous
 62
     0
370
    -2
100
AcDbLine
 10
224.4500199211304
 20
178.2069459198328
 30
0.0
 11
233.3930580051868
 21
178.2069459198328
 31
0.0
  0
LINE
  5
5451
330
53C3
100
AcDbEntity
  8
10000_FRONT
  6
Continuous
 62
     0
370
    -2
100
AcDbLine
 10
224.4500199211304
 20
218.2069459198328
 30
0.0
 11
233.3930580051868
 21
218.2069459198328
 31
0.0
  0
LINE
  5
5452
330
53C3
100
AcDbEntity
  8
10000_FRONT
  6
Continuous
 62
     0
370
    -2
100
AcDbLine
 10
232.3930580051868
 20
180.2069459198328
 30
0.0
 11
232.3930580051869
 21
194.5819459198328
 31
0.0
  0
LINE
  5
5453
330
53C3
100
AcDbEntity
  8
10000_FRONT
  6
Continuous
 62
     0
370
    -2
100
AcDbLine
 10
232.3930580051869
 20
216.2069459198328
 30
0.0
 11
232.3930580051869
 21
201.8319459198328
 31
0.0
  0
SOLID
  5
5454
330
53C3
100
AcDbEntity
  8
10000_FRONT
  6
Continuous
 62
     0
100
AcDbTrace
 10
232.0597246718535
 20
180.2069459198328
 30
0.0
 11
232.7263913385201
 21
180.2069459198328
 31
0.0
 12
232.3930580051868
 22
178.2069459198328
 32
0.0
 13
232.3930580051868
 23
178.2069459198328
 33
0.0
  0
SOLID
  5
5455
330
53C3
100
AcDbEntity
  8
10000_FRONT
  6
Continuous
 62
     0
100
AcDbTrace
 10
232.0597246718535
 20
216.2069459198328
 30
0.0
 11
232.7263913385202
 21
216.2069459198328
 31
0.0
 12
232.3930580051869
 22
218.2069459198328
 32
0.0
 13
232.3930580051869
 23
218.2069459198328
 33
0.0
  0
MTEXT
  5
5456
330
53C3
100
AcDbEntity
  8
10000_FRONT
  6
Continuous
 62
     0
370
    15
100
AcDbMText
 10
232.3930580051868
 20
198.2069459198328
 30
0.0
 40
3.5
 41
0.0
 71
     5
 72
     1
  1
\A1;40
 11
0.0000000000000001
 21
1.0
 31
0.0
 73
     1
 44
1.0
1001
ACAD
1000
MTEXTBEGIN
1070
    73
1070
     1
1070
    44
1040
1.0
1070
    74
1070
     0
1000
MTEXTEND
  0
POINT
  5
5457
330
53C3
100
AcDbEntity
  8
Defpoints
  6
Continuous
 62
     0
100
AcDbPoint
 10
223.4500199211304
 20
178.2069459198328
 30
0.0
  0
POINT
  5
5458
330
53C3
100
AcDbEntity
  8
Defpoints
  6
Continuous
 62
     0
100
AcDbPoint
 10
223.4500199211304
 20
218.2069459198328
 30
0.0
  0
POINT
  5
5459
330
53C3
100
AcDbEntity
  8
Defpoints
  6
Continuous
 62
     0
100
AcDbPoint
 10
232.3930580051869
 20
218.2069459198328
 30
0.0
  0
ENDBLK
  5
53CE
330
53C3
100
AcDbEntity
  8
0
100
AcDbBlockEnd
  0
BLOCK
  5
53E5
330
53DB
100
AcDbEntity
  8
0
100
AcDbBlockBegin
  2
*D7
 70
     1
 10
0.0
 20
0.0
 30
0.0
  3
*D7
  1

  0
LINE
  5
554D
330
53DB
100
AcDbEntity
  8
10000_FRONT
  6
Continuous
 62
     0
370
    -2
100
AcDbLine
 10
224.4500199211304
 20
178.2069459198328
 30
0.0
 11
239.7759200119303
 21
178.2069459198328
 31
0.0
  0
LINE
  5
554E
330
53DB
100
AcDbEntity
  8
10000_FRONT
  6
Continuous
 62
     0
370
    -2
100
AcDbLine
 10
223.2000199211304
 20
232.7069459198328
 30
0.0
 11
239.7759200119303
 21
232.7069459198328
 31
0.0
  0
LINE
  5
554F
330
53DB
100
AcDbEntity
  8
10000_FRONT
  6
Continuous
 62
     0
370
    -2
100
AcDbLine
 10
238.7759200119303
 20
180.2069459198328
 30
0.0
 11
238.7759200119303
 21
201.5402792531661
 31
0.0
  0
LINE
  5
5550
330
53DB
100
AcDbEntity
  8
10000_FRONT
  6
Continuous
 62
     0
370
    -2
100
AcDbLine
 10
238.7759200119303
 20
230.7069459198328
 30
0.0
 11
238.7759200119303
 21
209.3736125864995
 31
0.0
  0
SOLID
  5
5551
330
53DB
100
AcDbEntity
  8
10000_FRONT
  6
Continuous
 62
     0
100
AcDbTrace
 10
238.4425866785969
 20
180.2069459198328
 30
0.0
 11
239.1092533452636
 21
180.2069459198328
 31
0.0
 12
238.7759200119303
 22
178.2069459198328
 32
0.0
 13
238.7759200119303
 23
178.2069459198328
 33
0.0
  0
SOLID
  5
5552
330
53DB
100
AcDbEntity
  8
10000_FRONT
  6
Continuous
 62
     0
100
AcDbTrace
 10
238.442586678597
 20
230.7069459198328
 30
0.0
 11
239.1092533452637
 21
230.7069459198328
 31
0.0
 12
238.7759200119303
 22
232.7069459198328
 32
0.0
 13
238.7759200119303
 23
232.7069459198328
 33
0.0
  0
MTEXT
  5
5553
330
53DB
100
AcDbEntity
  8
10000_FRONT
  6
Continuous
 62
     0
370
    15
100
AcDbMText
 10
238.7759200119302
 20
205.4569459198329
 30
0.0
 40
3.5
 41
0.0
 71
     5
 72
     1
  1
\A1;54
 11
0.0000000000000001
 21
1.0
 31
0.0
 73
     1
 44
1.0
1001
ACAD
1000
MTEXTBEGIN
1070
    73
1070
     1
1070
    44
1040
1.0
1070
    74
1070
     0
1000
MTEXTEND
  0
POINT
  5
5554
330
53DB
100
AcDbEntity
  8
Defpoints
  6
Continuous
 62
     0
100
AcDbPoint
 10
223.4500199211304
 20
178.2069459198328
 30
0.0
  0
POINT
  5
5555
330
53DB
100
AcDbEntity
  8
Defpoints
  6
Continuous
 62
     0
100
AcDbPoint
 10
222.2000199211304
 20
232.7069459198328
 30
0.0
  0
POINT
  5
5556
330
53DB
100
AcDbEntity
  8
Defpoints
  6
Continuous
 62
     0
100
AcDbPoint
 10
238.7759200119303
 20
232.7069459198328
 30
0.0
  0
ENDBLK
  5
53E6
330
53DB
100
AcDbEntity
  8
0
100
AcDbBlockEnd
  0
BLOCK
  5
5535
330
5533
100
AcDbEntity
  8
0
100
AcDbBlockBegin
  2
GENAXEH
 70
     0
 10
0.0
 20
0.0
 30
0.0
  3
GENAXEH
  1

  0
LINE
  5
5534
330
5533
100
AcDbEntity
  8
0
100
AcDbLine
 10
-1.0
 20
0.0
 30
0.0
 11
1.0
 21
0.0
 31
0.0
  0
ENDBLK
  5
5536
330
5533
100
AcDbEntity
  8
0
100
AcDbBlockEnd
  0
ENDSEC
  0
SECTION
  2
ENTITIES
  0
INSERT
  5
59C
330
1F
100
AcDbEntity
  8
90000_FRAME
  6
Continuous
 62
     7
100
AcDbBlockReference
  2
SIEMENS_OUTLINE_BL0
 10
156.8406489849853
 20
79.4714707072352
 30
0.0
  0
LINE
  5
59D
330
1F
100
AcDbEntity
  8
90000_FRAME
  6
Continuous
 62
     7
100
AcDbLine
 10
224.1947516010643
 20
89.80972993483852
 30
0.0
 11
359.1947516010642
 21
89.80972993483852
 31
0.0
  0
LINE
  5
59E
330
1F
100
AcDbEntity
  8
90000_FRAME
  6
Continuous
 62
     7
100
AcDbLine
 10
224.1947516010643
 20
89.80972993483852
 30
0.0
 11
224.1947516010643
 21
107.8097299348385
 31
0.0
  0
LINE
  5
59F
330
1F
100
AcDbEntity
  8
90000_FRAME
  6
Continuous
 62
     7
100
AcDbLine
 10
274.1947516010642
 20
95.80972993483852
 30
0.0
 11
359.1947516010642
 21
95.80972993483852
 31
0.0
  0
LINE
  5
5A0
330
1F
100
AcDbEntity
  8
90000_FRAME
  6
Continuous
 62
     7
100
AcDbLine
 10
224.1947516010643
 20
107.8097299348385
 30
0.0
 11
359.1947516010642
 21
107.8097299348385
 31
0.0
  0
LINE
  5
5A1
330
1F
100
AcDbEntity
  8
90000_FRAME
  6
Continuous
 62
     7
100
AcDbLine
 10
274.1947516010642
 20
89.80972993483852
 30
0.0
 11
274.1947516010642
 21
107.8097299348385
 31
0.0
  0
LINE
  5
5A2
330
1F
100
AcDbEntity
  8
90000_FRAME
  6
Continuous
 62
     7
100
AcDbLine
 10
316.6947516010643
 20
89.80972993483852
 30
0.0
 11
316.6947516010643
 21
95.80972993483852
 31
0.0
  0
LINE
  5
5A3
330
1F
100
AcDbEntity
  8
90000_FRAME
  6
Continuous
 62
     7
100
AcDbLine
 10
359.1947516010642
 20
89.80972993483852
 30
0.0
 11
359.1947516010642
 21
107.8097299348385
 31
0.0
  0
TEXT
  5
5A4
330
1F
100
AcDbEntity
  8
90000_FRAME
  6
Continuous
 62
     7
100
AcDbText
 10
274.8547516010642
 20
91.70972993483848
 30
0.0
 40
2.2
  1
Format / Size: DIN A4
 41
0.7994987468660261
 72
     5
 11
308.2737992200641
 21
91.70972993483848
 31
0.0
100
AcDbText
  0
TEXT
  5
5A5
330
1F
100
AcDbEntity
  8
90000_FRAME
  6
Continuous
 62
     7
100
AcDbText
 10
317.3547516010642
 20
91.70972993483848
 30
0.0
 40
2.2
  1
Massstab / Scale: 1:1
 41
0.7732634338148432
 72
     5
 11
348.2595135058641
 21
91.70972993483848
 31
0.0
100
AcDbText
  0
TEXT
  5
5A6
330
1F
100
AcDbEntity
  8
90000_FRAME
  6
Continuous
 62
     7
100
AcDbText
 10
287.500676125015
 20
97.69735039829264
 30
0.0
 40
3.5
  1
EMV Bedämpfungsmodul S00
 41
0.689564317605548
 72
     5
 11
343.4128495441982
 21
97.69735039829264
 31
0.0
100
AcDbText
  0
LINE
  5
5A7
330
1F
100
AcDbEntity
  8
90000_FRAME
  6
Continuous
 62
     7
100
AcDbLine
 10
99.19475160106529
 20
79.80972993483852
 30
0.0
 11
369.1947516010653
 21
79.80972993483852
 31
0.0
  0
LINE
  5
5A8
330
1F
100
AcDbEntity
  8
90000_FRAME
  6
Continuous
 62
     7
100
AcDbLine
 10
369.1947516010653
 20
79.80972993483852
 30
0.0
 11
369.1947516010653
 21
279.8097299348384
 31
0.0
  0
TEXT
  5
5A9
330
1F
100
AcDbEntity
  8
91000_TIP
  6
Continuous
 62
     7
100
AcDbText
 10
103.2481013837291
 20
88.54196655651511
 30
0.0
 40
2.5
  1
Alle Bemassungswerte sind in Millimeter (mm) angegeben.
 41
0.6056311217924572
 72
     5
 11
176.9332212018114
 21
88.54196655651511
 31
0.0
100
AcDbText
  0
TEXT
  5
5AA
330
1F
100
AcDbEntity
  8
91000_TIP
  6
Continuous
 62
     7
100
AcDbText
 10
103.2481013837291
 20
83.29196655651513
 30
0.0
 40
2.5
  1
All dimensions are in millimeters (mm).
 41
0.7513350295680242
 72
     5
 11
163.3549037491711
 21
83.29196655651513
 31
0.0
100
AcDbText
  0
LINE
  5
5AB
330
1F
100
AcDbEntity
  8
91000_TIP
  6
Continuous
 62
     7
100
AcDbLine
 10
199.0094217050901
 20
101.1334674572091
 30
0.0
 11
209.0094215008903
 21
103.6334674062091
 31
0.0
  0
LINE
  5
5AC
330
1F
100
AcDbEntity
  8
91000_TIP
  6
CENTER
 62
     7
100
AcDbLine
 10
197.7299112330893
 20
98.63346750830912
 30
0.0
 11
221.3319004971893
 21
98.63346750830912
 31
0.0
  0
LINE
  5
5AD
330
1F
100
AcDbEntity
  8
91000_TIP
  6
Continuous
 62
     7
100
AcDbLine
 10
199.0094217050901
 20
96.13346755940909
 30
0.0
 11
209.0094215008903
 21
93.63346761040899
 31
0.0
  0
LINE
  5
5AE
330
1F
100
AcDbEntity
  8
91000_TIP
  6
Continuous
 62
     7
100
AcDbLine
 10
199.0094217050901
 20
101.1334674572091
 30
0.0
 11
199.0094217050901
 21
96.13346755940909
 31
0.0
  0
LINE
  5
5AF
330
1F
100
AcDbEntity
  8
91000_TIP
  6
Continuous
 62
     7
100
AcDbLine
 10
209.0094215008903
 20
103.6334674062091
 30
0.0
 11
209.0094215008903
 21
93.63346761040899
 31
0.0
  0
LINE
  5
5B0
330
1F
100
AcDbEntity
  8
91000_TIP
  6
CENTER
 62
     7
100
AcDbLine
 10
215.5094213680901
 20
92.91198630190908
 30
0.0
 11
215.5094213680901
 21
104.195372301909
 31
0.0
  0
CIRCLE
  5
5B1
330
1F
100
AcDbEntity
  8
91000_TIP
  6
Continuous
 62
     7
100
AcDbCircle
 10
215.5094213680901
 20
98.63346750830912
 30
0.0
 40
4.9999998979
  0
CIRCLE
  5
5B2
330
1F
100
AcDbEntity
  8
91000_TIP
  6
Continuous
 62
     7
100
AcDbCircle
 10
215.5094213680901
 20
98.63346750830912
 30
0.0
 40
2.499999948899997
  0
LINE
  5
5B3
330
1F
100
AcDbEntity
  8
90000_FRAME
  6
Continuous
 62
     7
100
AcDbLine
 10
99.19475160106529
 20
79.80972993483852
 30
0.0
 11
99.19475160106529
 21
279.8097299348384
 31
0.0
  0
LINE
  5
5B4
330
1F
100
AcDbEntity
  8
90000_FRAME
  6
Continuous
 62
     7
100
AcDbLine
 10
99.19475160106529
 20
279.8097299348384
 30
0.0
 11
369.1947516010653
 21
279.8097299348384
 31
0.0
  0
TEXT
  5
1D27
330
1F
100
AcDbEntity
  8
90000_FRAME
  6
Continuous
 62
     7
100
AcDbText
 10
287.500676125015
 20
102.6845973194856
 30
0.0
 40
3.5
  1
3RT1916-1PA1_001_ALL
 41
0.9042400013884074
 72
     5
 11
343.4128495441982
 21
102.6845973194856
 31
0.0
100
AcDbText
  0
LINE
  5
3978
330
1F
100
AcDbEntity
  8
10000_FRONT
  6
Continuous
 62
     7
370
    15
100
AcDbLine
 39
0.25
 10
202.1000199211304
 20
206.2380759198329
 30
0.0
 11
202.1000199211304
 21
213.0380759198329
 31
0.0
  0
LINE
  5
3A57
330
1F
100
AcDbEntity
  8
10000_FRONT
  6
Continuous
 62
     7
370
    15
100
AcDbLine
 39
0.25
 10
202.1000199211304
 20
213.0380759198329
 30
0.0
 11
182.3000199211303
 21
213.0380759198329
 31
0.0
  0
LINE
  5
3AC7
330
1F
100
AcDbEntity
  8
10000_FRONT
  6
Continuous
 62
     7
370
    15
100
AcDbLine
 39
0.25
 10
182.3000199211303
 20
213.0380759198329
 30
0.0
 11
182.3000199211303
 21
206.2380759198329
 31
0.0
  0
LINE
  5
3B37
330
1F
100
AcDbEntity
  8
10000_FRONT
  6
Continuous
 62
     7
370
    15
100
AcDbLine
 39
0.25
 10
182.3000199211303
 20
206.2380759198329
 30
0.0
 11
202.1000199211304
 21
206.2380759198329
 31
0.0
  0
LINE
  5
3B38
330
1F
100
AcDbEntity
  8
10000_FRONT
  6
Continuous
 62
     7
370
    15
100
AcDbLine
 39
0.25
 10
182.4500199211304
 20
217.0069459198329
 30
0.0
 11
182.4500199211304
 21
214.4069459198329
 31
0.0
  0
LINE
  5
3B3E
330
1F
100
AcDbEntity
  8
10000_FRONT
  6
Continuous
 62
     7
370
    50
100
AcDbLine
 10
224.4500199211304
 20
217.5069459198329
 30
0.0
 11
224.4500199211304
 21
179.2069459198328
 31
0.0
  0
LINE
  5
3B3F
102
{ACAD_REACTORS
330
53D9
102
}
330
1F
100
AcDbEntity
  8
10000_FRONT
  6
Continuous
 62
     7
370
    50
100
AcDbLine
 10
180.3500199211304
 20
218.2069459198328
 30
0.0
 11
223.7500199211304
 21
218.2069459198328
 31
0.0
  0
LINE
  5
3B40
330
1F
100
AcDbEntity
  8
10000_FRONT
  6
Continuous
 62
     7
370
    50
100
AcDbLine
 10
179.6500199211303
 20
179.2069459198328
 30
0.0
 11
179.6500199211303
 21
217.5069459198329
 31
0.0
  0
ARC
  5
3B41
102
{ACAD_REACTORS
330
5340
102
}
330
1F
100
AcDbEntity
  8
10000_FRONT
  6
Continuous
 62
     7
370
    50
100
AcDbCircle
 10
223.4500199211304
 20
179.2069459198328
 30
0.0
 40
1.0
100
AcDbArc
 50
270.0
 51
0.0
  0
LINE
  5
3B42
102
{ACAD_REACTORS
330
53D9
330
53F1
102
}
330
1F
100
AcDbEntity
  8
10000_FRONT
  6
Continuous
 62
     7
370
    50
100
AcDbLine
 10
223.4500199211304
 20
178.2069459198328
 30
0.0
 11
180.6500199211303
 21
178.2069459198328
 31
0.0
  0
ARC
  5
3B43
102
{ACAD_REACTORS
330
5340
102
}
330
1F
100
AcDbEntity
  8
10000_FRONT
  6
Continuous
 62
     7
370
    50
100
AcDbCircle
 10
180.6500199211303
 20
179.2069459198328
 30
0.0
 40
1.0
100
AcDbArc
 50
180.0
 51
270.0
  0
ARC
  5
3B44
330
1F
100
AcDbEntity
  8
10000_FRONT
  6
Continuous
 62
     7
370
    50
100
AcDbCircle
 10
223.7500199211304
 20
217.5069459198329
 30
0.0
 40
0.7
100
AcDbArc
 50
0.0
 51
90.0
  0
ARC
  5
3B45
330
1F
100
AcDbEntity
  8
10000_FRONT
  6
Continuous
 62
     7
370
    50
100
AcDbCircle
 10
180.3500199211304
 20
217.5069459198329
 30
0.0
 40
0.7
100
AcDbArc
 50
90.0
 51
180.0
  0
LINE
  5
3B46
330
1F
100
AcDbEntity
  8
10000_FRONT
  6
Continuous
 62
     7
370
    15
100
AcDbLine
 39
0.25
 10
222.9500199211305
 20
217.0069459198329
 30
0.0
 11
222.9500199211305
 21
214.4069459198329
 31
0.0
  0
LINE
  5
3B47
330
1F
100
AcDbEntity
  8
10000_FRONT
  6
Continuous
 62
     7
370
    15
100
AcDbLine
 39
0.25
 10
222.9500199211305
 20
214.4069459198329
 30
0.0
 11
221.6500199211304
 21
214.4069459198329
 31
0.0
  0
LINE
  5
3B48
330
1F
100
AcDbEntity
  8
10000_FRONT
  6
Continuous
 62
     7
370
    15
100
AcDbLine
 39
0.25
 10
221.6500199211304
 20
214.4069459198329
 30
0.0
 11
221.6500199211304
 21
217.0069459198329
 31
0.0
  0
LINE
  5
3B49
330
1F
100
AcDbEntity
  8
10000_FRONT
  6
Continuous
 62
     7
370
    15
100
AcDbLine
 39
0.25
 10
182.4500199211304
 20
214.4069459198329
 30
0.0
 11
181.1500199211304
 21
214.4069459198329
 31
0.0
  0
LINE
  5
3B4A
330
1F
100
AcDbEntity
  8
10000_FRONT
  6
Continuous
 62
     7
370
    15
100
AcDbLine
 39
0.25
 10
181.1500199211304
 20
214.4069459198329
 30
0.0
 11
181.1500199211304
 21
217.0069459198329
 31
0.0
  0
LINE
  5
3B4B
330
1F
100
AcDbEntity
  8
10000_FRONT
  6
Continuous
 62
     7
370
    15
100
AcDbLine
 39
0.25
 10
182.4500199211304
 20
217.0069459198329
 30
0.0
 11
181.1500199211304
 21
217.0069459198329
 31
0.0
  0
LINE
  5
3B4C
330
1F
100
AcDbEntity
  8
10000_FRONT
  6
Continuous
 62
     7
370
    15
100
AcDbLine
 39
0.25
 10
222.9500199211305
 20
217.0069459198329
 30
0.0
 11
221.6500199211304
 21
217.0069459198329
 31
0.0
  0
LINE
  5
409B
330
1F
100
AcDbEntity
  8
10000_FRONT
  6
Continuous
 62
     7
370
    15
100
AcDbLine
 39
0.25
 10
192.2000199211304
 20
221.4825659198329
 30
0.0
 11
192.2000199211304
 21
218.2069459198328
 31
0.0
  0
LINE
  5
40A3
330
1F
100
AcDbEntity
  8
10000_FRONT
  6
Continuous
 62
     7
370
    15
100
AcDbLine
 39
0.25
 10
209.4000199211304
 20
218.2069459198328
 30
0.0
 11
209.4000199211304
 21
221.4825659198329
 31
0.0
  0
LINE
  5
40A5
330
1F
100
AcDbEntity
  8
10000_FRONT
  6
Continuous
 62
     7
370
    15
100
AcDbLine
 39
0.25
 10
185.0900199211304
 20
218.4069459198329
 30
0.0
 11
185.5000199211304
 21
218.4069459198329
 31
0.0
  0
LINE
  5
40A6
330
1F
100
AcDbEntity
  8
10000_FRONT
  6
Continuous
 62
     7
370
    15
100
AcDbLine
 39
0.25
 10
194.5000199211304
 20
218.8069459198329
 30
0.0
 11
194.5000199211304
 21
222.5069459198329
 31
0.0
  0
LINE
  5
40A7
330
1F
100
AcDbEntity
  8
10000_FRONT
  6
Continuous
 62
     7
370
    15
100
AcDbLine
 39
0.25
 10
193.8000199211303
 20
218.4069459198329
 30
0.0
 11
194.1000199211304
 21
218.4069459198329
 31
0.0
  0
LINE
  5
40A8
330
1F
100
AcDbEntity
  8
10000_FRONT
  6
Continuous
 62
     7
370
    15
100
AcDbLine
 39
0.25
 10
197.7000199211304
 20
218.4069459198329
 30
0.0
 11
197.5000199211304
 21
218.4069459198329
 31
0.0
  0
LINE
  5
40A9
330
1F
100
AcDbEntity
  8
10000_FRONT
  6
Continuous
 62
     7
370
    15
100
AcDbLine
 39
0.25
 10
197.5000199211304
 20
218.4069459198329
 30
0.0
 11
197.4000199211303
 21
218.4069459198329
 31
0.0
  0
LINE
  5
40AA
330
1F
100
AcDbEntity
  8
10000_FRONT
  6
Continuous
 62
     7
370
    15
100
AcDbLine
 39
0.25
 10
197.0000199211304
 20
218.8069459198329
 30
0.0
 11
197.0000199211304
 21
222.5069459198329
 31
0.0
  0
LINE
  5
40AB
330
1F
100
AcDbEntity
  8
10000_FRONT
  6
Continuous
 62
     7
370
    15
100
AcDbLine
 39
0.25
 10
185.9000199211303
 20
218.8069459198329
 30
0.0
 11
185.9000199211303
 21
222.5069459198329
 31
0.0
  0
LINE
  5
40AC
330
1F
100
AcDbEntity
  8
10000_FRONT
  6
Continuous
 62
     7
370
    15
100
AcDbLine
 39
0.25
 10
189.1000199211304
 20
218.4069459198329
 30
0.0
 11
188.9000199211303
 21
218.4069459198329
 31
0.0
  0
LINE
  5
40AD
330
1F
100
AcDbEntity
  8
10000_FRONT
  6
Continuous
 62
     7
370
    15
100
AcDbLine
 39
0.25
 10
188.9000199211303
 20
218.4069459198329
 30
0.0
 11
188.8000199211303
 21
218.4069459198329
 31
0.0
  0
LINE
  5
40AE
330
1F
100
AcDbEntity
  8
10000_FRONT
  6
Continuous
 62
     7
370
    15
100
AcDbLine
 39
0.25
 10
188.4000199211303
 20
218.8069459198329
 30
0.0
 11
188.4000199211303
 21
222.5069459198329
 31
0.0
  0
LINE
  5
40AF
330
1F
100
AcDbEntity
  8
10000_FRONT
  6
Continuous
 62
     7
370
    15
100
AcDbLine
 39
0.25
 10
206.3000199211304
 20
218.4069459198329
 30
0.0
 11
206.0000199211304
 21
218.4069459198329
 31
0.0
  0
LINE
  5
40B0
330
1F
100
AcDbEntity
  8
10000_FRONT
  6
Continuous
 62
     7
370
    15
100
AcDbLine
 39
0.25
 10
205.6000199211304
 20
218.8069459198329
 30
0.0
 11
205.6000199211304
 21
222.5069459198329
 31
0.0
  0
LINE
  5
40B1
330
1F
100
AcDbEntity
  8
10000_FRONT
  6
Continuous
 62
     7
370
    15
100
AcDbLine
 39
0.25
 10
203.1000199211304
 20
218.8069459198329
 30
0.0
 11
203.1000199211304
 21
222.5069459198329
 31
0.0
  0
LINE
  5
40B2
330
1F
100
AcDbEntity
  8
10000_FRONT
  6
Continuous
 62
     7
370
    15
100
AcDbLine
 39
0.25
 10
202.4000199211303
 20
218.4069459198329
 30
0.0
 11
202.6000199211304
 21
218.4069459198329
 31
0.0
  0
LINE
  5
40B3
330
1F
100
AcDbEntity
  8
10000_FRONT
  6
Continuous
 62
     7
370
    15
100
AcDbLine
 39
0.25
 10
202.6000199211304
 20
218.4069459198329
 30
0.0
 11
202.7000199211304
 21
218.4069459198329
 31
0.0
  0
LINE
  5
40B4
330
1F
100
AcDbEntity
  8
10000_FRONT
  6
Continuous
 62
     7
370
    15
100
AcDbLine
 39
0.25
 10
214.9000199211304
 20
218.4069459198329
 30
0.0
 11
214.7000199211305
 21
218.4069459198329
 31
0.0
  0
LINE
  5
40B5
330
1F
100
AcDbEntity
  8
10000_FRONT
  6
Continuous
 62
     7
370
    15
100
AcDbLine
 39
0.25
 10
214.7000199211305
 20
218.4069459198329
 30
0.0
 11
214.6000199211304
 21
218.4069459198329
 31
0.0
  0
LINE
  5
40B6
330
1F
100
AcDbEntity
  8
10000_FRONT
  6
Continuous
 62
     7
370
    15
100
AcDbLine
 39
0.25
 10
214.2000199211304
 20
218.8069459198329
 30
0.0
 11
214.2000199211304
 21
222.5069459198329
 31
0.0
  0
LINE
  5
40B7
330
1F
100
AcDbEntity
  8
10000_FRONT
  6
Continuous
 62
     7
370
    15
100
AcDbLine
 39
0.25
 10
211.7000199211304
 20
218.8069459198329
 30
0.0
 11
211.7000199211304
 21
222.5069459198329
 31
0.0
  0
LINE
  5
40B8
330
1F
100
AcDbEntity
  8
10000_FRONT
  6
Continuous
 62
     7
370
    15
100
AcDbLine
 39
0.25
 10
211.0000199211304
 20
218.4069459198329
 30
0.0
 11
211.2000199211304
 21
218.4069459198329
 31
0.0
  0
LINE
  5
40B9
330
1F
100
AcDbEntity
  8
10000_FRONT
  6
Continuous
 62
     7
370
    15
100
AcDbLine
 39
0.25
 10
211.2000199211304
 20
218.4069459198329
 30
0.0
 11
211.3000199211303
 21
218.4069459198329
 31
0.0
  0
LINE
  5
40BA
330
1F
100
AcDbEntity
  8
10000_FRONT
  6
Continuous
 62
     7
370
    15
100
AcDbLine
 39
0.25
 10
220.2500199211304
 20
218.8069459198329
 30
0.0
 11
220.2500199211304
 21
222.5069459198329
 31
0.0
  0
LINE
  5
40BB
330
1F
100
AcDbEntity
  8
10000_FRONT
  6
Continuous
 62
     7
370
    15
100
AcDbLine
 39
0.25
 10
219.5500199211303
 20
218.4069459198329
 30
0.0
 11
219.7500199211304
 21
218.4069459198329
 31
0.0
  0
LINE
  5
40BC
330
1F
100
AcDbEntity
  8
10000_FRONT
  6
Continuous
 62
     7
370
    15
100
AcDbLine
 39
0.25
 10
219.7500199211304
 20
218.4069459198329
 30
0.0
 11
219.8500199211304
 21
218.4069459198329
 31
0.0
  0
LINE
  5
40BD
330
1F
100
AcDbEntity
  8
10000_FRONT
  6
Continuous
 62
     7
370
    15
100
AcDbLine
 39
0.25
 10
194.8000199211303
 20
222.8069459198329
 30
0.0
 11
196.7000199211304
 21
222.8069459198329
 31
0.0
  0
LINE
  5
40BE
330
1F
100
AcDbEntity
  8
10000_FRONT
  6
Continuous
 62
     7
370
    15
100
AcDbLine
 39
0.25
 10
186.2000199211304
 20
222.8069459198329
 30
0.0
 11
188.1000199211304
 21
222.8069459198329
 31
0.0
  0
LINE
  5
40BF
330
1F
100
AcDbEntity
  8
10000_FRONT
  6
Continuous
 62
     7
370
    15
100
AcDbLine
 39
0.25
 10
203.4000199211304
 20
222.8069459198329
 30
0.0
 11
205.3000199211303
 21
222.8069459198329
 31
0.0
  0
LINE
  5
40C0
330
1F
100
AcDbEntity
  8
10000_FRONT
  6
Continuous
 62
     7
370
    15
100
AcDbLine
 39
0.25
 10
212.0000199211304
 20
222.8069459198329
 30
0.0
 11
213.9000199211304
 21
222.8069459198329
 31
0.0
  0
LINE
  5
40C1
330
1F
100
AcDbEntity
  8
10000_FRONT
  6
Continuous
 62
     7
370
    15
100
AcDbLine
 39
0.25
 10
222.8500199211304
 20
218.6069459198329
 30
0.0
 11
222.8500199211304
 21
222.5069459198329
 31
0.0
  0
ARC
  5
40C2
330
1F
100
AcDbEntity
  8
10000_FRONT
  6
Continuous
 62
     7
370
    15
100
AcDbCircle
 39
0.25
 10
185.0900199211304
 20
218.2169459198328
 30
0.0
 40
0.19
100
AcDbArc
 50
90.0
 51
180.0
  0
ARC
  5
40C3
330
1F
100
AcDbEntity
  8
10000_FRONT
  6
Continuous
 62
     7
370
    15
100
AcDbCircle
 39
0.25
 10
194.1000199211304
 20
218.8069459198329
 30
0.0
 40
0.4
100
AcDbArc
 50
270.0
 51
0.0
  0
ARC
  5
40C4
330
1F
100
AcDbEntity
  8
10000_FRONT
  6
Continuous
 62
     7
370
    15
100
AcDbCircle
 39
0.25
 10
197.4000199211303
 20
218.8069459198329
 30
0.0
 40
0.4
100
AcDbArc
 50
180.0
 51
270.0
  0
ARC
  5
40C5
330
1F
100
AcDbEntity
  8
10000_FRONT
  6
Continuous
 62
     7
370
    15
100
AcDbCircle
 39
0.25
 10
185.5000199211304
 20
218.8069459198329
 30
0.0
 40
0.4
100
AcDbArc
 50
270.0
 51
0.0
  0
ARC
  5
40C6
330
1F
100
AcDbEntity
  8
10000_FRONT
  6
Continuous
 62
     7
370
    15
100
AcDbCircle
 39
0.25
 10
188.8000199211303
 20
218.8069459198329
 30
0.0
 40
0.4
100
AcDbArc
 50
180.0
 51
270.0
  0
ARC
  5
40C7
330
1F
100
AcDbEntity
  8
10000_FRONT
  6
Continuous
 62
     7
370
    15
100
AcDbCircle
 39
0.25
 10
206.0000199211304
 20
218.8069459198329
 30
0.0
 40
0.4
100
AcDbArc
 50
180.0
 51
270.0
  0
ARC
  5
40C8
330
1F
100
AcDbEntity
  8
10000_FRONT
  6
Continuous
 62
     7
370
    15
100
AcDbCircle
 39
0.25
 10
202.7000199211304
 20
218.8069459198329
 30
0.0
 40
0.4
100
AcDbArc
 50
270.0
 51
0.0
  0
ARC
  5
40C9
330
1F
100
AcDbEntity
  8
10000_FRONT
  6
Continuous
 62
     7
370
    15
100
AcDbCircle
 39
0.25
 10
214.6000199211304
 20
218.8069459198329
 30
0.0
 40
0.4
100
AcDbArc
 50
180.0
 51
270.0
  0
ARC
  5
40CA
330
1F
100
AcDbEntity
  8
10000_FRONT
  6
Continuous
 62
     7
370
    15
100
AcDbCircle
 39
0.25
 10
211.3000199211303
 20
218.8069459198329
 30
0.0
 40
0.4
100
AcDbArc
 50
270.0
 51
0.0
  0
ARC
  5
40CB
330
1F
100
AcDbEntity
  8
10000_FRONT
  6
Continuous
 62
     7
370
    15
100
AcDbCircle
 39
0.25
 10
219.8500199211304
 20
218.8069459198329
 30
0.0
 40
0.4
100
AcDbArc
 50
270.0
 51
0.0
  0
ARC
  5
40CC
330
1F
100
AcDbEntity
  8
10000_FRONT
  6
Continuous
 62
     7
370
    15
100
AcDbCircle
 39
0.25
 10
197.7000199211304
 20
218.1069459198329
 30
0.0
 40
0.3
100
AcDbArc
 50
19.47122100000157
 51
90.0
  0
ARC
  5
40CD
330
1F
100
AcDbEntity
  8
10000_FRONT
  6
Continuous
 62
     7
370
    15
100
AcDbCircle
 39
0.25
 10
193.8000199211303
 20
218.1069459198329
 30
0.0
 40
0.3
100
AcDbArc
 50
90.0
 51
160.5286799999997
  0
ARC
  5
40CE
330
1F
100
AcDbEntity
  8
10000_FRONT
  6
Continuous
 62
     7
370
    15
100
AcDbCircle
 39
0.25
 10
189.1000199211304
 20
218.1069459198329
 30
0.0
 40
0.3
100
AcDbArc
 50
19.47122100000157
 51
90.0
  0
ARC
  5
40CF
330
1F
100
AcDbEntity
  8
10000_FRONT
  6
Continuous
 62
     7
370
    15
100
AcDbCircle
 39
0.25
 10
202.4000199211303
 20
218.1069459198329
 30
0.0
 40
0.3
100
AcDbArc
 50
90.0
 51
160.5287799999999
  0
ARC
  5
40D0
330
1F
100
AcDbEntity
  8
10000_FRONT
  6
Continuous
 62
     7
370
    15
100
AcDbCircle
 39
0.25
 10
206.3000199211304
 20
218.1069459198329
 30
0.0
 40
0.3
100
AcDbArc
 50
19.47131599999882
 51
90.0
  0
ARC
  5
40D1
330
1F
100
AcDbEntity
  8
10000_FRONT
  6
Continuous
 62
     7
370
    15
100
AcDbCircle
 39
0.25
 10
211.0000199211304
 20
218.1069459198329
 30
0.0
 40
0.3
100
AcDbArc
 50
90.0
 51
160.5287799999999
  0
ARC
  5
40D2
330
1F
100
AcDbEntity
  8
10000_FRONT
  6
Continuous
 62
     7
370
    15
100
AcDbCircle
 39
0.25
 10
214.9000199211304
 20
218.1069459198329
 30
0.0
 40
0.3
100
AcDbArc
 50
19.47122100000157
 51
90.0
  0
ARC
  5
40D3
330
1F
100
AcDbEntity
  8
10000_FRONT
  6
Continuous
 62
     7
370
    15
100
AcDbCircle
 39
0.25
 10
219.5500199211303
 20
218.1069459198329
 30
0.0
 40
0.3
100
AcDbArc
 50
90.0
 51
160.5287799999999
  0
ARC
  5
40D4
330
1F
100
AcDbEntity
  8
10000_FRONT
  6
Continuous
 62
     7
370
    15
100
AcDbCircle
 39
0.25
 10
194.8000199211303
 20
222.5069459198329
 30
0.0
 40
0.3
100
AcDbArc
 50
90.0
 51
180.0
  0
ARC
  5
40D5
330
1F
100
AcDbEntity
  8
10000_FRONT
  6
Continuous
 62
     7
370
    15
100
AcDbCircle
 39
0.25
 10
196.7000199211304
 20
222.5069459198329
 30
0.0
 40
0.3
100
AcDbArc
 50
0.0
 51
90.0
  0
ARC
  5
40D6
330
1F
100
AcDbEntity
  8
10000_FRONT
  6
Continuous
 62
     7
370
    15
100
AcDbCircle
 39
0.25
 10
186.2000199211304
 20
222.5069459198329
 30
0.0
 40
0.3
100
AcDbArc
 50
90.0
 51
180.0
  0
ARC
  5
40D7
330
1F
100
AcDbEntity
  8
10000_FRONT
  6
Continuous
 62
     7
370
    15
100
AcDbCircle
 39
0.25
 10
188.1000199211304
 20
222.5069459198329
 30
0.0
 40
0.3
100
AcDbArc
 50
0.0
 51
90.0
  0
ARC
  5
40D8
330
1F
100
AcDbEntity
  8
10000_FRONT
  6
Continuous
 62
     7
370
    15
100
AcDbCircle
 39
0.25
 10
205.3000199211303
 20
222.5069459198329
 30
0.0
 40
0.3
100
AcDbArc
 50
0.0
 51
90.0
  0
ARC
  5
40D9
330
1F
100
AcDbEntity
  8
10000_FRONT
  6
Continuous
 62
     7
370
    15
100
AcDbCircle
 39
0.25
 10
203.4000199211304
 20
222.5069459198329
 30
0.0
 40
0.3
100
AcDbArc
 50
90.0
 51
180.0
  0
ARC
  5
40DA
330
1F
100
AcDbEntity
  8
10000_FRONT
  6
Continuous
 62
     7
370
    15
100
AcDbCircle
 39
0.25
 10
213.9000199211304
 20
222.5069459198329
 30
0.0
 40
0.3
100
AcDbArc
 50
0.0
 51
90.0
  0
ARC
  5
40DB
330
1F
100
AcDbEntity
  8
10000_FRONT
  6
Continuous
 62
     7
370
    15
100
AcDbCircle
 39
0.25
 10
212.0000199211304
 20
222.5069459198329
 30
0.0
 40
0.3
100
AcDbArc
 50
90.0
 51
180.0
  0
ARC
  5
40DC
330
1F
100
AcDbEntity
  8
10000_FRONT
  6
Continuous
 62
     7
370
    15
100
AcDbCircle
 39
0.25
 10
220.5500199211304
 20
222.5069459198329
 30
0.0
 40
0.3
100
AcDbArc
 50
90.0
 51
180.0
  0
ARC
  5
40DD
330
1F
100
AcDbEntity
  8
10000_FRONT
  6
Continuous
 62
     7
370
    15
100
AcDbCircle
 39
0.25
 10
222.5500199211303
 20
222.5069459198329
 30
0.0
 40
0.3
100
AcDbArc
 50
0.0
 51
90.0
  0
LINE
  5
40DE
330
1F
100
AcDbEntity
  8
10000_FRONT
  6
Continuous
 62
     7
370
    15
100
AcDbLine
 39
0.25
 10
220.5500199211304
 20
222.8069459198329
 30
0.0
 11
222.5500199211303
 21
222.8069459198329
 31
0.0
  0
LINE
  5
40E1
330
1F
100
AcDbEntity
  8
10000_FRONT
  6
Continuous
 62
     7
370
    15
100
AcDbLine
 39
0.25
 10
223.2375799211304
 20
218.3069459198328
 30
0.0
 11
223.2953199211304
 21
218.2069459198328
 31
0.0
  0
ARC
  5
40E2
330
1F
100
AcDbEntity
  8
10000_FRONT
  6
Continuous
 62
     7
370
    15
100
AcDbCircle
 39
0.25
 10
223.0500199211304
 20
218.6069459198329
 30
0.0
 40
0.2
100
AcDbArc
 50
180.0
 51
270.0
  0
ARC
  5
40E3
330
1F
100
AcDbEntity
  8
10000_FRONT
  6
Continuous
 62
     7
370
    15
100
AcDbCircle
 39
0.25
 10
223.0634136407249
 20
218.2059796394274
 30
0.0
 40
0.2013202742598484
100
AcDbArc
 50
30.10065833531073
 51
93.7849376522274
  0
LINE
  5
40E4
330
1F
100
AcDbEntity
  8
10000_FRONT
  6
Continuous
 62
     7
370
    15
100
AcDbLine
 39
0.25
 10
187.8000199211303
 20
232.7069459198328
 30
0.0
 11
186.5000199211304
 21
232.7069459198328
 31
0.0
  0
LINE
  5
40E5
330
1F
100
AcDbEntity
  8
10000_FRONT
  6
Continuous
 62
     7
370
    15
100
AcDbLine
 39
0.25
 10
196.4000199211303
 20
232.7069459198328
 30
0.0
 11
195.1000199211304
 21
232.7069459198328
 31
0.0
  0
LINE
  5
40E6
330
1F
100
AcDbEntity
  8
10000_FRONT
  6
Continuous
 62
     7
370
    15
100
AcDbLine
 39
0.25
 10
205.0000199211304
 20
232.7069459198328
 30
0.0
 11
203.7000199211304
 21
232.7069459198328
 31
0.0
  0
LINE
  5
40E7
330
1F
100
AcDbEntity
  8
10000_FRONT
  6
Continuous
 62
     7
370
    15
100
AcDbLine
 39
0.25
 10
213.6000199211304
 20
232.7069459198328
 30
0.0
 11
212.3000199211304
 21
232.7069459198328
 31
0.0
  0
LINE
  5
40E8
330
1F
100
AcDbEntity
  8
10000_FRONT
  6
Continuous
 62
     7
370
    15
100
AcDbLine
 39
0.25
 10
222.2000199211304
 20
232.7069459198328
 30
0.0
 11
220.9000199211303
 21
232.7069459198328
 31
0.0
  0
LINE
  5
40EC
330
1F
100
AcDbEntity
  8
10000_FRONT
  6
Continuous
 62
     7
370
    15
100
AcDbLine
 39
0.25
 10
194.2000199211304
 20
221.9932959198329
 30
0.0
 11
192.7000199211304
 21
221.9932959198329
 31
0.0
  0
POLYLINE
  5
412C
330
1F
100
AcDbEntity
  8
10000_FRONT
  6
Continuous
 62
     7
370
    15
100
AcDb2dPolyline
 66
     1
 10
0.0
 20
0.0
 30
0.0
 39
0.25
 70
     2
  0
VERTEX
  5
412D
330
412C
100
AcDbEntity
  8
10000_FRONT
  6
Continuous
 62
     7
370
    15
100
AcDbVertex
100
AcDb2dVertex
 10
194.5000199211304
 20
221.8897459198329
 30
0.0
  0
VERTEX
  5
412E
330
412C
100
AcDbEntity
  8
10000_FRONT
  6
Continuous
 62
     7
370
    15
100
AcDbVertex
100
AcDb2dVertex
 10
194.4937599211304
 20
221.8944759198329
 30
0.0
 42
0.003889863
 70
     1
  0
VERTEX
  5
412F
330
412C
100
AcDbEntity
  8
10000_FRONT
  6
Continuous
 62
     7
370
    15
100
AcDbVertex
100
AcDb2dVertex
 10
194.4874299211303
 20
221.8991259198328
 30
0.0
 42
0.0038829857
  0
VERTEX
  5
4130
330
412C
100
AcDbEntity
  8
10000_FRONT
  6
Continuous
 62
     7
370
    15
100
AcDbVertex
100
AcDb2dVertex
 10
194.4810199211304
 20
221.9036659198329
 30
0.0
 42
0.0038833713
 70
     1
  0
VERTEX
  5
4131
330
412C
100
AcDbEntity
  8
10000_FRONT
  6
Continuous
 62
     7
370
    15
100
AcDbVertex
100
AcDb2dVertex
 10
194.4745399211304
 20
221.9081159198329
 30
0.0
 42
0.0038954341
  0
VERTEX
  5
4132
330
412C
100
AcDbEntity
  8
10000_FRONT
  6
Continuous
 62
     7
370
    15
100
AcDbVertex
100
AcDb2dVertex
 10
194.4679899211304
 20
221.9124559198328
 30
0.0
 42
0.003903557
 70
     1
  0
VERTEX
  5
4133
330
412C
100
AcDbEntity
  8
10000_FRONT
  6
Continuous
 62
     7
370
    15
100
AcDbVertex
100
AcDb2dVertex
 10
194.4613599211303
 20
221.9167059198329
 30
0.0
 42
0.0039107563
  0
VERTEX
  5
4134
330
412C
100
AcDbEntity
  8
10000_FRONT
  6
Continuous
 62
     7
370
    15
100
AcDbVertex
100
AcDb2dVertex
 10
194.4546599211304
 20
221.9208459198329
 30
0.0
 42
0.003917002
 70
     1
  0
VERTEX
  5
4135
330
412C
100
AcDbEntity
  8
10000_FRONT
  6
Continuous
 62
     7
370
    15
100
AcDbVertex
100
AcDb2dVertex
 10
194.4478999211303
 20
221.9248859198328
 30
0.0
 42
0.0039261211
  0
VERTEX
  5
4136
330
412C
100
AcDbEntity
  8
10000_FRONT
  6
Continuous
 62
     7
370
    15
100
AcDbVertex
100
AcDb2dVertex
 10
194.4410599211304
 20
221.9288259198329
 30
0.0
 42
0.0039330986
 70
     1
  0
VERTEX
  5
4137
330
412C
100
AcDbEntity
  8
10000_FRONT
  6
Continuous
 62
     7
370
    15
100
AcDbVertex
100
AcDb2dVertex
 10
194.4341499211303
 20
221.9326559198329
 30
0.0
 42
0.0039420968
  0
VERTEX
  5
4138
330
412C
100
AcDbEntity
  8
10000_FRONT
  6
Continuous
 62
     7
370
    15
100
AcDbVertex
100
AcDb2dVertex
 10
194.4271799211303
 20
221.9363859198329
 30
0.0
 42
0.0039489644
 70
     1
  0
VERTEX
  5
4139
330
412C
100
AcDbEntity
  8
10000_FRONT
  6
Continuous
 62
     7
370
    15
100
AcDbVertex
100
AcDb2dVertex
 10
194.4201399211303
 20
221.9400059198329
 30
0.0
 42
0.0039583012
  0
VERTEX
  5
413A
330
412C
100
AcDbEntity
  8
10000_FRONT
  6
Continuous
 62
     7
370
    15
100
AcDbVertex
100
AcDb2dVertex
 10
194.4130399211303
 20
221.9435159198329
 30
0.0
 42
0.003965161
 70
     1
  0
VERTEX
  5
413B
330
412C
100
AcDbEntity
  8
10000_FRONT
  6
Continuous
 62
     7
370
    15
100
AcDbVertex
100
AcDb2dVertex
 10
194.4058699211304
 20
221.9469159198329
 30
0.0
 42
0.0039745613
  0
VERTEX
  5
413C
330
412C
100
AcDbEntity
  8
10000_FRONT
  6
Continuous
 62
     7
370
    15
100
AcDbVertex
100
AcDb2dVertex
 10
194.3986399211304
 20
221.9502059198329
 30
0.0
 42
0.0039812803
 70
     1
  0
VERTEX
  5
413D
330
412C
100
AcDbEntity
  8
10000_FRONT
  6
Continuous
 62
     7
370
    15
100
AcDbVertex
100
AcDb2dVertex
 10
194.3913399211303
 20
221.9533859198328
 30
0.0
 42
0.0039907568
  0
VERTEX
  5
413E
330
412C
100
AcDbEntity
  8
10000_FRONT
  6
Continuous
 62
     7
370
    15
100
AcDbVertex
100
AcDb2dVertex
 10
194.3839899211304
 20
221.9564559198329
 30
0.0
 42
0.0039971344
 70
     1
  0
VERTEX
  5
413F
330
412C
100
AcDbEntity
  8
10000_FRONT
  6
Continuous
 62
     7
370
    15
100
AcDbVertex
100
AcDb2dVertex
 10
194.3765699211303
 20
221.9594059198329
 30
0.0
 42
0.0040062813
  0
VERTEX
  5
4140
330
412C
100
AcDbEntity
  8
10000_FRONT
  6
Continuous
 62
     7
370
    15
100
AcDbVertex
100
AcDb2dVertex
 10
194.3690899211303
 20
221.9622459198329
 30
0.0
 42
0.0040125837
 70
     1
  0
VERTEX
  5
4141
330
412C
100
AcDbEntity
  8
10000_FRONT
  6
Continuous
 62
     7
370
    15
100
AcDbVertex
100
AcDb2dVertex
 10
194.3615599211304
 20
221.9649659198329
 30
0.0
 42
0.0040222966
  0
VERTEX
  5
4142
330
412C
100
AcDbEntity
  8
10000_FRONT
  6
Continuous
 62
     7
370
    15
100
AcDbVertex
100
AcDb2dVertex
 10
194.3539699211303
 20
221.9675759198328
 30
0.0
 42
0.0040270183
 70
     1
  0
VERTEX
  5
4143
330
412C
100
AcDbEntity
  8
10000_FRONT
  6
Continuous
 62
     7
370
    15
100
AcDbVertex
100
AcDb2dVertex
 10
194.3463199211304
 20
221.9700559198329
 30
0.0
 42
0.0040335931
  0
VERTEX
  5
4144
330
412C
100
AcDbEntity
  8
10000_FRONT
  6
Continuous
 62
     7
370
    15
100
AcDbVertex
100
AcDb2dVertex
 10
194.3386099211301
 20
221.9724259198329
 30
0.0
 42
0.0040415672
 70
     1
  0
VERTEX
  5
4145
330
412C
100
AcDbEntity
  8
10000_FRONT
  6
Continuous
 62
     7
370
    15
100
AcDbVertex
100
AcDb2dVertex
 10
194.3308499211304
 20
221.9746759198329
 30
0.0
 42
0.0040574176
  0
VERTEX
  5
4146
330
412C
100
AcDbEntity
  8
10000_FRONT
  6
Continuous
 62
     7
370
    15
100
AcDbVertex
100
AcDb2dVertex
 10
194.3230399211304
 20
221.9767959198328
 30
0.0
 42
0.0040510556
 70
     1
  0
VERTEX
  5
4147
330
412C
100
AcDbEntity
  8
10000_FRONT
  6
Continuous
 62
     7
370
    15
100
AcDbVertex
100
AcDb2dVertex
 10
194.3151699211304
 20
221.9787959198329
 30
0.0
 42
0.0040329259
  0
VERTEX
  5
4148
330
412C
100
AcDbEntity
  8
10000_FRONT
  6
Continuous
 62
     7
370
    15
100
AcDbVertex
100
AcDb2dVertex
 10
194.3072599211303
 20
221.9806759198328
 30
0.0
 42
0.004072774
 70
     1
  0
VERTEX
  5
4149
330
412C
100
AcDbEntity
  8
10000_FRONT
  6
Continuous
 62
     7
370
    15
100
AcDbVertex
100
AcDb2dVertex
 10
194.2992799211303
 20
221.9824259198329
 30
0.0
 42
0.0041654967
  0
VERTEX
  5
414A
330
412C
100
AcDbEntity
  8
10000_FRONT
  6
Continuous
 62
     7
370
    15
100
AcDbVertex
100
AcDb2dVertex
 10
194.2912399211303
 20
221.9840559198328
 30
0.0
 42
0.004045044
 70
     1
  0
VERTEX
  5
414B
330
412C
100
AcDbEntity
  8
10000_FRONT
  6
Continuous
 62
     7
370
    15
100
AcDbVertex
100
AcDb2dVertex
 10
194.2831899211304
 20
221.9855559198329
 30
0.0
 42
0.0037741574
  0
VERTEX
  5
414C
330
412C
100
AcDbEntity
  8
10000_FRONT
  6
Continuous
 62
     7
370
    15
100
AcDbVertex
100
AcDb2dVertex
 10
194.2751399211304
 20
221.9869159198329
 30
0.0
 42
0.004180995
 70
     1
  0
VERTEX
  5
414D
330
412C
100
AcDbEntity
  8
10000_FRONT
  6
Continuous
 62
     7
370
    15
100
AcDbVertex
100
AcDb2dVertex
 10
194.2669099211304
 20
221.9881659198329
 30
0.0
 42
0.005009304
  0
VERTEX
  5
414E
330
412C
100
AcDbEntity
  8
10000_FRONT
  6
Continuous
 62
     7
370
    15
100
AcDbVertex
100
AcDb2dVertex
 10
194.2584299211304
 20
221.9892759198328
 30
0.0
 42
0.0037755164
 70
     1
  0
VERTEX
  5
414F
330
412C
100
AcDbEntity
  8
10000_FRONT
  6
Continuous
 62
     7
370
    15
100
AcDbVertex
100
AcDb2dVertex
 10
194.2504499211304
 20
221.9902559198329
 30
0.0
 42
0.0012410364
  0
VERTEX
  5
4150
330
412C
100
AcDbEntity
  8
10000_FRONT
  6
Continuous
 62
     7
370
    15
100
AcDbVertex
100
AcDb2dVertex
 10
194.2431999211304
 20
221.9910659198329
 30
0.0
 42
0.005377194
 70
     1
  0
VERTEX
  5
4151
330
412C
100
AcDbEntity
  8
10000_FRONT
  6
Continuous
 62
     7
370
    15
100
AcDbVertex
100
AcDb2dVertex
 10
194.2337999211304
 20
221.9918059198329
 30
0.0
 42
0.0092583741
  0
VERTEX
  5
4152
330
412C
100
AcDbEntity
  8
10000_FRONT
  6
Continuous
 62
     7
370
    15
100
AcDbVertex
100
AcDb2dVertex
 10
194.2192099211304
 20
221.9925559198328
 30
0.0
 42
0.0044756489
 70
     1
  0
VERTEX
  5
4153
330
412C
100
AcDbEntity
  8
10000_FRONT
  6
Continuous
 62
     7
370
    15
100
AcDbVertex
100
AcDb2dVertex
 10
194.2000199211304
 20
221.9932959198329
 30
0.0
 42
0.0023489288
  0
SEQEND
  5
4154
330
412C
100
AcDbEntity
  8
10000_FRONT
  6
Continuous
 62
     7
370
    15
  0
POLYLINE
  5
4192
330
1F
100
AcDbEntity
  8
10000_FRONT
  6
Continuous
 62
     7
370
    15
100
AcDb2dPolyline
 66
     1
 10
0.0
 20
0.0
 30
0.0
 39
0.25
 70
     2
  0
VERTEX
  5
4193
330
4192
100
AcDbEntity
  8
10000_FRONT
  6
Continuous
 62
     7
370
    15
100
AcDbVertex
100
AcDb2dVertex
 10
192.7000199211304
 20
221.9932959198329
 30
0.0
  0
VERTEX
  5
4194
330
4192
100
AcDbEntity
  8
10000_FRONT
  6
Continuous
 62
     7
370
    15
100
AcDbVertex
100
AcDb2dVertex
 10
192.6789699211304
 20
221.9926259198329
 30
0.0
 42
0.0098494392
 70
     1
  0
VERTEX
  5
4195
330
4192
100
AcDbEntity
  8
10000_FRONT
  6
Continuous
 62
     7
370
    15
100
AcDbVertex
100
AcDb2dVertex
 10
192.6581899211304
 20
221.9911359198329
 30
0.0
 42
0.010149418
  0
VERTEX
  5
4196
330
4192
100
AcDbEntity
  8
10000_FRONT
  6
Continuous
 62
     7
370
    15
100
AcDbVertex
100
AcDb2dVertex
 10
192.6376799211303
 20
221.9888059198329
 30
0.0
 42
0.010253298
 70
     1
  0
VERTEX
  5
4197
330
4192
100
AcDbEntity
  8
10000_FRONT
  6
Continuous
 62
     7
370
    15
100
AcDbVertex
100
AcDb2dVertex
 10
192.6174399211304
 20
221.9856859198329
 30
0.0
 42
0.010147366
  0
VERTEX
  5
4198
330
4192
100
AcDbEntity
  8
10000_FRONT
  6
Continuous
 62
     7
370
    15
100
AcDbVertex
100
AcDb2dVertex
 10
192.5975099211304
 20
221.9817459198329
 30
0.0
 42
0.010113863
 70
     1
  0
VERTEX
  5
4199
330
4192
100
AcDbEntity
  8
10000_FRONT
  6
Continuous
 62
     7
370
    15
100
AcDbVertex
100
AcDb2dVertex
 10
192.5778899211303
 20
221.9770559198329
 30
0.0
 42
0.010084954
  0
VERTEX
  5
419A
330
4192
100
AcDbEntity
  8
10000_FRONT
  6
Continuous
 62
     7
370
    15
100
AcDbVertex
100
AcDb2dVertex
 10
192.5585999211304
 20
221.9715959198329
 30
0.0
 42
0.010062516
 70
     1
  0
VERTEX
  5
419B
330
4192
100
AcDbEntity
  8
10000_FRONT
  6
Continuous
 62
     7
370
    15
100
AcDbVertex
100
AcDb2dVertex
 10
192.5396399211304
 20
221.9654059198329
 30
0.0
 42
0.01000121
  0
VERTEX
  5
419C
330
4192
100
AcDbEntity
  8
10000_FRONT
  6
Continuous
 62
     7
370
    15
100
AcDbVertex
100
AcDb2dVertex
 10
192.5210499211304
 20
221.9584859198329
 30
0.0
 42
0.0099612666
 70
     1
  0
VERTEX
  5
419D
330
4192
100
AcDbEntity
  8
10000_FRONT
  6
Continuous
 62
     7
370
    15
100
AcDbVertex
100
AcDb2dVertex
 10
192.5028199211303
 20
221.9508659198329
 30
0.0
 42
0.0098993702
  0
VERTEX
  5
419E
330
4192
100
AcDbEntity
  8
10000_FRONT
  6
Continuous
 62
     7
370
    15
100
AcDbVertex
100
AcDb2dVertex
 10
192.4849799211304
 20
221.9425559198329
 30
0.0
 42
0.0098544317
 70
     1
  0
VERTEX
  5
419F
330
4192
100
AcDbEntity
  8
10000_FRONT
  6
Continuous
 62
     7
370
    15
100
AcDbVertex
100
AcDb2dVertex
 10
192.4675399211304
 20
221.9335959198329
 30
0.0
 42
0.0097905731
  0
VERTEX
  5
41A0
330
4192
100
AcDbEntity
  8
10000_FRONT
  6
Continuous
 62
     7
370
    15
100
AcDbVertex
100
AcDb2dVertex
 10
192.4505099211303
 20
221.9239559198329
 30
0.0
 42
0.0097435132
 70
     1
  0
VERTEX
  5
41A1
330
4192
100
AcDbEntity
  8
10000_FRONT
  6
Continuous
 62
     7
370
    15
100
AcDbVertex
100
AcDb2dVertex
 10
192.4339099211304
 20
221.9137059198329
 30
0.0
 42
0.0096833621
  0
VERTEX
  5
41A2
330
4192
100
AcDbEntity
  8
10000_FRONT
  6
Continuous
 62
     7
370
    15
100
AcDbVertex
100
AcDb2dVertex
 10
192.4177599211303
 20
221.9028259198329
 30
0.0
 42
0.0096386416
 70
     1
  0
VERTEX
  5
41A3
330
4192
100
AcDbEntity
  8
10000_FRONT
  6
Continuous
 62
     7
370
    15
100
AcDbVertex
100
AcDb2dVertex
 10
192.4020499211303
 20
221.8913659198329
 30
0.0
 42
0.00958573
  0
VERTEX
  5
41A4
330
4192
100
AcDbEntity
  8
10000_FRONT
  6
Continuous
 62
     7
370
    15
100
AcDbVertex
100
AcDb2dVertex
 10
192.3868299211303
 20
221.8793059198329
 30
0.0
 42
0.0095464052
 70
     1
  0
VERTEX
  5
41A5
330
4192
100
AcDbEntity
  8
10000_FRONT
  6
Continuous
 62
     7
370
    15
100
AcDbVertex
100
AcDb2dVertex
 10
192.3720799211304
 20
221.8667059198328
 30
0.0
 42
0.0095031341
  0
VERTEX
  5
41A6
330
4192
100
AcDbEntity
  8
10000_FRONT
  6
Continuous
 62
     7
370
    15
100
AcDbVertex
100
AcDb2dVertex
 10
192.3578499211304
 20
221.8535359198329
 30
0.0
 42
0.0094725977
 70
     1
  0
VERTEX
  5
41A7
330
4192
100
AcDbEntity
  8
10000_FRONT
  6
Continuous
 62
     7
370
    15
100
AcDbVertex
100
AcDb2dVertex
 10
192.3441199211304
 20
221.8398559198329
 30
0.0
 42
0.0094432669
  0
VERTEX
  5
41A8
330
4192
100
AcDbEntity
  8
10000_FRONT
  6
Continuous
 62
     7
370
    15
100
AcDbVertex
100
AcDb2dVertex
 10
192.3309299211304
 20
221.8256559198329
 30
0.0
 42
0.009420332
 70
     1
  0
VERTEX
  5
41A9
330
4192
100
AcDbEntity
  8
10000_FRONT
  6
Continuous
 62
     7
370
    15
100
AcDbVertex
100
AcDb2dVertex
 10
192.3182699211304
 20
221.8109759198329
 30
0.0
 42
0.0093984143
  0
VERTEX
  5
41AA
330
4192
100
AcDbEntity
  8
10000_FRONT
  6
Continuous
 62
     7
370
    15
100
AcDbVertex
100
AcDb2dVertex
 10
192.3061799211303
 20
221.7958059198329
 30
0.0
 42
0.0093948301
 70
     1
  0
VERTEX
  5
41AB
330
4192
100
AcDbEntity
  8
10000_FRONT
  6
Continuous
 62
     7
370
    15
100
AcDbVertex
100
AcDb2dVertex
 10
192.2946499211303
 20
221.7801959198329
 30
0.0
 42
0.0094089106
  0
VERTEX
  5
41AC
330
4192
100
AcDbEntity
  8
10000_FRONT
  6
Continuous
 62
     7
370
    15
100
AcDbVertex
100
AcDb2dVertex
 10
192.2837199211303
 20
221.7641359198328
 30
0.0
 42
0.0093861337
 70
     1
  0
VERTEX
  5
41AD
330
4192
100
AcDbEntity
  8
10000_FRONT
  6
Continuous
 62
     7
370
    15
100
AcDbVertex
100
AcDb2dVertex
 10
192.2733899211304
 20
221.7476559198328
 30
0.0
 42
0.0093379181
  0
VERTEX
  5
41AE
330
4192
100
AcDbEntity
  8
10000_FRONT
  6
Continuous
 62
     7
370
    15
100
AcDbVertex
100
AcDb2dVertex
 10
192.2636799211303
 20
221.7307859198329
 30
0.0
 42
0.009432201
 70
     1
  0
VERTEX
  5
41AF
330
4192
100
AcDbEntity
  8
10000_FRONT
  6
Continuous
 62
     7
370
    15
100
AcDbVertex
100
AcDb2dVertex
 10
192.2545899211303
 20
221.7135059198329
 30
0.0
 42
0.009655318
  0
VERTEX
  5
41B0
330
4192
100
AcDbEntity
  8
10000_FRONT
  6
Continuous
 62
     7
370
    15
100
AcDbVertex
100
AcDb2dVertex
 10
192.2461499211303
 20
221.6958259198328
 30
0.0
 42
0.0093922494
 70
     1
  0
VERTEX
  5
41B1
330
4192
100
AcDbEntity
  8
10000_FRONT
  6
Continuous
 62
     7
370
    15
100
AcDbVertex
100
AcDb2dVertex
 10
192.2383699211303
 20
221.6778859198329
 30
0.0
 42
0.0087753544
  0
VERTEX
  5
41B2
330
4192
100
AcDbEntity
  8
10000_FRONT
  6
Continuous
 62
     7
370
    15
100
AcDbVertex
100
AcDb2dVertex
 10
192.2312699211304
 20
221.6597159198329
 30
0.0
 42
0.0097515246
 70
     1
  0
VERTEX
  5
41B3
330
4192
100
AcDbEntity
  8
10000_FRONT
  6
Continuous
 62
     7
370
    15
100
AcDbVertex
100
AcDb2dVertex
 10
192.2248399211304
 20
221.6409259198329
 30
0.0
 42
0.01175524
  0
VERTEX
  5
41B4
330
4192
100
AcDbEntity
  8
10000_FRONT
  6
Continuous
 62
     7
370
    15
100
AcDbVertex
100
AcDb2dVertex
 10
192.2191099211304
 20
221.6213359198329
 30
0.0
 42
0.0088631212
 70
     1
  0
VERTEX
  5
41B5
330
4192
100
AcDbEntity
  8
10000_FRONT
  6
Continuous
 62
     7
370
    15
100
AcDbVertex
100
AcDb2dVertex
 10
192.2141299211304
 20
221.6027659198329
 30
0.0
 42
0.002826877
  0
VERTEX
  5
41B6
330
4192
100
AcDbEntity
  8
10000_FRONT
  6
Continuous
 62
     7
370
    15
100
AcDbVertex
100
AcDb2dVertex
 10
192.2099699211304
 20
221.5858259198329
 30
0.0
 42
0.012737707
 70
     1
  0
VERTEX
  5
41B7
330
4192
100
AcDbEntity
  8
10000_FRONT
  6
Continuous
 62
     7
370
    15
100
AcDbVertex
100
AcDb2dVertex
 10
192.2063399211304
 20
221.5635659198329
 30
0.0
 42
0.022184308
  0
VERTEX
  5
41B8
330
4192
100
AcDbEntity
  8
10000_FRONT
  6
Continuous
 62
     7
370
    15
100
AcDbVertex
100
AcDb2dVertex
 10
192.2030199211303
 20
221.5286559198329
 30
0.0
 42
0.010684782
 70
     1
  0
VERTEX
  5
41B9
330
4192
100
AcDbEntity
  8
10000_FRONT
  6
Continuous
 62
     7
370
    15
100
AcDbVertex
100
AcDb2dVertex
 10
192.2000199211304
 20
221.4825659198329
 30
0.0
 42
0.005559655
  0
SEQEND
  5
41BA
330
4192
100
AcDbEntity
  8
10000_FRONT
  6
Continuous
 62
     7
370
    15
  0
LINE
  5
42F6
330
1F
100
AcDbEntity
  8
10000_FRONT
  6
Continuous
 62
     7
370
    15
100
AcDbLine
 39
0.25
 10
211.4000199211304
 20
221.9932959198329
 30
0.0
 11
209.9000199211304
 21
221.9932959198329
 31
0.0
  0
POLYLINE
  5
42F9
330
1F
100
AcDbEntity
  8
10000_FRONT
  6
Continuous
 62
     7
370
    15
100
AcDb2dPolyline
 66
     1
 10
0.0
 20
0.0
 30
0.0
 39
0.25
 70
     2
  0
VERTEX
  5
42FA
330
42F9
100
AcDbEntity
  8
10000_FRONT
  6
Continuous
 62
     7
370
    15
100
AcDbVertex
100
AcDb2dVertex
 10
211.7000199211304
 20
221.8897959198329
 30
0.0
  0
VERTEX
  5
42FB
330
42F9
100
AcDbEntity
  8
10000_FRONT
  6
Continuous
 62
     7
370
    15
100
AcDbVertex
100
AcDb2dVertex
 10
211.6937599211304
 20
221.8945459198329
 30
0.0
 42
0.0038936027
 70
     1
  0
VERTEX
  5
42FC
330
42F9
100
AcDbEntity
  8
10000_FRONT
  6
Continuous
 62
     7
370
    15
100
AcDbVertex
100
AcDb2dVertex
 10
211.6874299211304
 20
221.8991959198329
 30
0.0
 42
0.0038867111
  0
VERTEX
  5
42FD
330
42F9
100
AcDbEntity
  8
10000_FRONT
  6
Continuous
 62
     7
370
    15
100
AcDbVertex
100
AcDb2dVertex
 10
211.6810199211304
 20
221.9037459198329
 30
0.0
 42
0.0038875558
 70
     1
  0
VERTEX
  5
42FE
330
42F9
100
AcDbEntity
  8
10000_FRONT
  6
Continuous
 62
     7
370
    15
100
AcDbVertex
100
AcDb2dVertex
 10
211.6745399211304
 20
221.9081959198329
 30
0.0
 42
0.0039006174
  0
VERTEX
  5
42FF
330
42F9
100
AcDbEntity
  8
10000_FRONT
  6
Continuous
 62
     7
370
    15
100
AcDbVertex
100
AcDb2dVertex
 10
211.6679899211304
 20
221.9125559198329
 30
0.0
 42
0.0039095608
 70
     1
  0
VERTEX
  5
4300
330
42F9
100
AcDbEntity
  8
10000_FRONT
  6
Continuous
 62
     7
370
    15
100
AcDbVertex
100
AcDb2dVertex
 10
211.6613599211304
 20
221.9168059198329
 30
0.0
 42
0.0039175238
  0
VERTEX
  5
4301
330
42F9
100
AcDbEntity
  8
10000_FRONT
  6
Continuous
 62
     7
370
    15
100
AcDbVertex
100
AcDb2dVertex
 10
211.6546699211304
 20
221.9209559198329
 30
0.0
 42
0.0039245191
 70
     1
  0
VERTEX
  5
4302
330
42F9
100
AcDbEntity
  8
10000_FRONT
  6
Continuous
 62
     7
370
    15
100
AcDbVertex
100
AcDb2dVertex
 10
211.6478999211304
 20
221.9250059198329
 30
0.0
 42
0.0039344847
  0
VERTEX
  5
4303
330
42F9
100
AcDbEntity
  8
10000_FRONT
  6
Continuous
 62
     7
370
    15
100
AcDbVertex
100
AcDb2dVertex
 10
211.6410599211304
 20
221.9289459198329
 30
0.0
 42
0.0039422464
 70
     1
  0
VERTEX
  5
4304
330
42F9
100
AcDbEntity
  8
10000_FRONT
  6
Continuous
 62
     7
370
    15
100
AcDbVertex
100
AcDb2dVertex
 10
211.6341599211304
 20
221.9327859198329
 30
0.0
 42
0.0039520844
  0
VERTEX
  5
4305
330
42F9
100
AcDbEntity
  8
10000_FRONT
  6
Continuous
 62
     7
370
    15
100
AcDbVertex
100
AcDb2dVertex
 10
211.6271799211304
 20
221.9365159198329
 30
0.0
 42
0.0039597369
 70
     1
  0
VERTEX
  5
4306
330
42F9
100
AcDbEntity
  8
10000_FRONT
  6
Continuous
 62
     7
370
    15
100
AcDbVertex
100
AcDb2dVertex
 10
211.6201499211304
 20
221.9401359198329
 30
0.0
 42
0.0039699229
  0
VERTEX
  5
4307
330
42F9
100
AcDbEntity
  8
10000_FRONT
  6
Continuous
 62
     7
370
    15
100
AcDbVertex
100
AcDb2dVertex
 10
211.6130399211304
 20
221.9436559198328
 30
0.0
 42
0.0039775689
 70
     1
  0
VERTEX
  5
4308
330
42F9
100
AcDbEntity
  8
10000_FRONT
  6
Continuous
 62
     7
370
    15
100
AcDbVertex
100
AcDb2dVertex
 10
211.6058699211304
 20
221.9470559198329
 30
0.0
 42
0.0039878162
  0
VERTEX
  5
4309
330
42F9
100
AcDbEntity
  8
10000_FRONT
  6
Continuous
 62
     7
370
    15
100
AcDbVertex
100
AcDb2dVertex
 10
211.5986399211304
 20
221.9503559198329
 30
0.0
 42
0.0039953148
 70
     1
  0
VERTEX
  5
430A
330
42F9
100
AcDbEntity
  8
10000_FRONT
  6
Continuous
 62
     7
370
    15
100
AcDbVertex
100
AcDb2dVertex
 10
211.5913499211304
 20
221.9535359198329
 30
0.0
 42
0.0040056314
  0
VERTEX
  5
430B
330
42F9
100
AcDbEntity
  8
10000_FRONT
  6
Continuous
 62
     7
370
    15
100
AcDbVertex
100
AcDb2dVertex
 10
211.5839899211304
 20
221.9566059198329
 30
0.0
 42
0.0040127752
 70
     1
  0
VERTEX
  5
430C
330
42F9
100
AcDbEntity
  8
10000_FRONT
  6
Continuous
 62
     7
370
    15
100
AcDbVertex
100
AcDb2dVertex
 10
211.5765699211304
 20
221.9595559198328
 30
0.0
 42
0.004022747
  0
VERTEX
  5
430D
330
42F9
100
AcDbEntity
  8
10000_FRONT
  6
Continuous
 62
     7
370
    15
100
AcDbVertex
100
AcDb2dVertex
 10
211.5690999211304
 20
221.9623959198328
 30
0.0
 42
0.004029797
 70
     1
  0
VERTEX
  5
430E
330
42F9
100
AcDbEntity
  8
10000_FRONT
  6
Continuous
 62
     7
370
    15
100
AcDbVertex
100
AcDb2dVertex
 10
211.5615599211304
 20
221.9651159198329
 30
0.0
 42
0.0040403184
  0
VERTEX
  5
430F
330
42F9
100
AcDbEntity
  8
10000_FRONT
  6
Continuous
 62
     7
370
    15
100
AcDbVertex
100
AcDb2dVertex
 10
211.5539699211304
 20
221.9677259198329
 30
0.0
 42
0.0040457546
 70
     1
  0
VERTEX
  5
4310
330
42F9
100
AcDbEntity
  8
10000_FRONT
  6
Continuous
 62
     7
370
    15
100
AcDbVertex
100
AcDb2dVertex
 10
211.5463199211303
 20
221.9702059198329
 30
0.0
 42
0.0040530934
  0
VERTEX
  5
4311
330
42F9
100
AcDbEntity
  8
10000_FRONT
  6
Continuous
 62
     7
370
    15
100
AcDbVertex
100
AcDb2dVertex
 10
211.5386199211303
 20
221.9725759198329
 30
0.0
 42
0.0040617701
 70
     1
  0
VERTEX
  5
4312
330
42F9
100
AcDbEntity
  8
10000_FRONT
  6
Continuous
 62
     7
370
    15
100
AcDbVertex
100
AcDb2dVertex
 10
211.5308599211304
 20
221.9748159198328
 30
0.0
 42
0.0040784098
  0
VERTEX
  5
4313
330
42F9
100
AcDbEntity
  8
10000_FRONT
  6
Continuous
 62
     7
370
    15
100
AcDbVertex
100
AcDb2dVertex
 10
211.5230399211303
 20
221.9769359198328
 30
0.0
 42
0.0040726263
 70
     1
  0
VERTEX
  5
4314
330
42F9
100
AcDbEntity
  8
10000_FRONT
  6
Continuous
 62
     7
370
    15
100
AcDbVertex
100
AcDb2dVertex
 10
211.5151699211303
 20
221.9789359198329
 30
0.0
 42
0.0040550318
  0
VERTEX
  5
4315
330
42F9
100
AcDbEntity
  8
10000_FRONT
  6
Continuous
 62
     7
370
    15
100
AcDbVertex
100
AcDb2dVertex
 10
211.5072599211304
 20
221.9808059198328
 30
0.0
 42
0.0040957046
 70
     1
  0
VERTEX
  5
4316
330
42F9
100
AcDbEntity
  8
10000_FRONT
  6
Continuous
 62
     7
370
    15
100
AcDbVertex
100
AcDb2dVertex
 10
211.4992799211304
 20
221.9825559198329
 30
0.0
 42
0.0041896401
  0
VERTEX
  5
4317
330
42F9
100
AcDbEntity
  8
10000_FRONT
  6
Continuous
 62
     7
370
    15
100
AcDbVertex
100
AcDb2dVertex
 10
211.4912499211304
 20
221.9841759198329
 30
0.0
 42
0.004068931
 70
     1
  0
VERTEX
  5
4318
330
42F9
100
AcDbEntity
  8
10000_FRONT
  6
Continuous
 62
     7
370
    15
100
AcDbVertex
100
AcDb2dVertex
 10
211.4831999211304
 20
221.9856659198328
 30
0.0
 42
0.0037967896
  0
VERTEX
  5
4319
330
42F9
100
AcDbEntity
  8
10000_FRONT
  6
Continuous
 62
     7
370
    15
100
AcDbVertex
100
AcDb2dVertex
 10
211.4751499211304
 20
221.9870259198328
 30
0.0
 42
0.0042067888
 70
     1
  0
VERTEX
  5
431A
330
42F9
100
AcDbEntity
  8
10000_FRONT
  6
Continuous
 62
     7
370
    15
100
AcDbVertex
100
AcDb2dVertex
 10
211.4669099211304
 20
221.9882659198329
 30
0.0
 42
0.0050412181
  0
VERTEX
  5
431B
330
42F9
100
AcDbEntity
  8
10000_FRONT
  6
Continuous
 62
     7
370
    15
100
AcDbVertex
100
AcDb2dVertex
 10
211.4584399211304
 20
221.9893659198328
 30
0.0
 42
0.0037995261
 70
     1
  0
VERTEX
  5
431C
330
42F9
100
AcDbEntity
  8
10000_FRONT
  6
Continuous
 62
     7
370
    15
100
AcDbVertex
100
AcDb2dVertex
 10
211.4504499211304
 20
221.9903359198329
 30
0.0
 42
0.0012480704
  0
VERTEX
  5
431D
330
42F9
100
AcDbEntity
  8
10000_FRONT
  6
Continuous
 62
     7
370
    15
100
AcDbVertex
100
AcDb2dVertex
 10
211.4431999211304
 20
221.9911359198329
 30
0.0
 42
0.0054128582
 70
     1
  0
VERTEX
  5
431E
330
42F9
100
AcDbEntity
  8
10000_FRONT
  6
Continuous
 62
     7
370
    15
100
AcDbVertex
100
AcDb2dVertex
 10
211.4337999211303
 20
221.9918659198329
 30
0.0
 42
0.0093212678
  0
VERTEX
  5
431F
330
42F9
100
AcDbEntity
  8
10000_FRONT
  6
Continuous
 62
     7
370
    15
100
AcDbVertex
100
AcDb2dVertex
 10
211.4192099211304
 20
221.9925859198329
 30
0.0
 42
0.004505809
 70
     1
  0
VERTEX
  5
4320
330
42F9
100
AcDbEntity
  8
10000_FRONT
  6
Continuous
 62
     7
370
    15
100
AcDbVertex
100
AcDb2dVertex
 10
211.4000199211304
 20
221.9932959198329
 30
0.0
 42
0.0023645413
  0
SEQEND
  5
4321
330
42F9
100
AcDbEntity
  8
10000_FRONT
  6
Continuous
 62
     7
370
    15
  0
POLYLINE
  5
435F
330
1F
100
AcDbEntity
  8
10000_FRONT
  6
Continuous
 62
     7
370
    15
100
AcDb2dPolyline
 66
     1
 10
0.0
 20
0.0
 30
0.0
 39
0.25
 70
     2
  0
VERTEX
  5
4360
330
435F
100
AcDbEntity
  8
10000_FRONT
  6
Continuous
 62
     7
370
    15
100
AcDbVertex
100
AcDb2dVertex
 10
209.9000199211304
 20
221.9932959198329
 30
0.0
  0
VERTEX
  5
4361
330
435F
100
AcDbEntity
  8
10000_FRONT
  6
Continuous
 62
     7
370
    15
100
AcDbVertex
100
AcDb2dVertex
 10
209.8790299211304
 20
221.9926759198329
 30
0.0
 42
0.0099290819
 70
     1
  0
VERTEX
  5
4362
330
435F
100
AcDbEntity
  8
10000_FRONT
  6
Continuous
 62
     7
370
    15
100
AcDbVertex
100
AcDb2dVertex
 10
209.8582999211304
 20
221.9912359198329
 30
0.0
 42
0.010229719
  0
VERTEX
  5
4363
330
435F
100
AcDbEntity
  8
10000_FRONT
  6
Continuous
 62
     7
370
    15
100
AcDbVertex
100
AcDb2dVertex
 10
209.8378399211303
 20
221.9889459198329
 30
0.0
 42
0.01033027
 70
     1
  0
VERTEX
  5
4364
330
435F
100
AcDbEntity
  8
10000_FRONT
  6
Continuous
 62
     7
370
    15
100
AcDbVertex
100
AcDb2dVertex
 10
209.8176399211304
 20
221.9858559198328
 30
0.0
 42
0.010217468
  0
VERTEX
  5
4365
330
435F
100
AcDbEntity
  8
10000_FRONT
  6
Continuous
 62
     7
370
    15
100
AcDbVertex
100
AcDb2dVertex
 10
209.7977499211304
 20
221.9819459198329
 30
0.0
 42
0.010177935
 70
     1
  0
VERTEX
  5
4366
330
435F
100
AcDbEntity
  8
10000_FRONT
  6
Continuous
 62
     7
370
    15
100
AcDbVertex
100
AcDb2dVertex
 10
209.7781599211304
 20
221.9772859198329
 30
0.0
 42
0.010143171
  0
VERTEX
  5
4367
330
435F
100
AcDbEntity
  8
10000_FRONT
  6
Continuous
 62
     7
370
    15
100
AcDbVertex
100
AcDb2dVertex
 10
209.7588999211303
 20
221.9718459198328
 30
0.0
 42
0.010114685
 70
     1
  0
VERTEX
  5
4368
330
435F
100
AcDbEntity
  8
10000_FRONT
  6
Continuous
 62
     7
370
    15
100
AcDbVertex
100
AcDb2dVertex
 10
209.7399599211304
 20
221.9656759198329
 30
0.0
 42
0.010046969
  0
VERTEX
  5
4369
330
435F
100
AcDbEntity
  8
10000_FRONT
  6
Continuous
 62
     7
370
    15
100
AcDbVertex
100
AcDb2dVertex
 10
209.7213899211304
 20
221.9587659198329
 30
0.0
 42
0.010000772
 70
     1
  0
VERTEX
  5
436A
330
435F
100
AcDbEntity
  8
10000_FRONT
  6
Continuous
 62
     7
370
    15
100
AcDbVertex
100
AcDb2dVertex
 10
209.7031799211304
 20
221.9511659198329
 30
0.0
 42
0.0099326412
  0
VERTEX
  5
436B
330
435F
100
AcDbEntity
  8
10000_FRONT
  6
Continuous
 62
     7
370
    15
100
AcDbVertex
100
AcDb2dVertex
 10
209.6853599211304
 20
221.9428559198328
 30
0.0
 42
0.0098816491
 70
     1
  0
VERTEX
  5
436C
330
435F
100
AcDbEntity
  8
10000_FRONT
  6
Continuous
 62
     7
370
    15
100
AcDbVertex
100
AcDb2dVertex
 10
209.6679199211304
 20
221.9338959198329
 30
0.0
 42
0.0098118944
  0
VERTEX
  5
436D
330
435F
100
AcDbEntity
  8
10000_FRONT
  6
Continuous
 62
     7
370
    15
100
AcDbVertex
100
AcDb2dVertex
 10
209.6509099211304
 20
221.9242659198329
 30
0.0
 42
0.0097592
 70
     1
  0
VERTEX
  5
436E
330
435F
100
AcDbEntity
  8
10000_FRONT
  6
Continuous
 62
     7
370
    15
100
AcDbVertex
100
AcDb2dVertex
 10
209.6343099211304
 20
221.9140159198329
 30
0.0
 42
0.0096937114
  0
VERTEX
  5
436F
330
435F
100
AcDbEntity
  8
10000_FRONT
  6
Continuous
 62
     7
370
    15
100
AcDbVertex
100
AcDb2dVertex
 10
209.6181599211304
 20
221.9031259198329
 30
0.0
 42
0.009643965
 70
     1
  0
VERTEX
  5
4370
330
435F
100
AcDbEntity
  8
10000_FRONT
  6
Continuous
 62
     7
370
    15
100
AcDbVertex
100
AcDb2dVertex
 10
209.6024499211304
 20
221.8916559198328
 30
0.0
 42
0.0095864167
  0
VERTEX
  5
4371
330
435F
100
AcDbEntity
  8
10000_FRONT
  6
Continuous
 62
     7
370
    15
100
AcDbVertex
100
AcDb2dVertex
 10
209.5872299211304
 20
221.8795959198329
 30
0.0
 42
0.009542806
 70
     1
  0
VERTEX
  5
4372
330
435F
100
AcDbEntity
  8
10000_FRONT
  6
Continuous
 62
     7
370
    15
100
AcDbVertex
100
AcDb2dVertex
 10
209.5724699211304
 20
221.8669759198328
 30
0.0
 42
0.0094956997
  0
VERTEX
  5
4373
330
435F
100
AcDbEntity
  8
10000_FRONT
  6
Continuous
 62
     7
370
    15
100
AcDbVertex
100
AcDb2dVertex
 10
209.5582299211304
 20
221.8537959198329
 30
0.0
 42
0.0094617049
 70
     1
  0
VERTEX
  5
4374
330
435F
100
AcDbEntity
  8
10000_FRONT
  6
Continuous
 62
     7
370
    15
100
AcDbVertex
100
AcDb2dVertex
 10
209.5444899211304
 20
221.8401059198329
 30
0.0
 42
0.0094293983
  0
VERTEX
  5
4375
330
435F
100
AcDbEntity
  8
10000_FRONT
  6
Continuous
 62
     7
370
    15
100
AcDbVertex
100
AcDb2dVertex
 10
209.5312899211303
 20
221.8258859198329
 30
0.0
 42
0.0094038929
 70
     1
  0
VERTEX
  5
4376
330
435F
100
AcDbEntity
  8
10000_FRONT
  6
Continuous
 62
     7
370
    15
100
AcDbVertex
100
AcDb2dVertex
 10
209.5186199211304
 20
221.8111859198328
 30
0.0
 42
0.0093799121
  0
VERTEX
  5
4377
330
435F
100
AcDbEntity
  8
10000_FRONT
  6
Continuous
 62
     7
370
    15
100
AcDbVertex
100
AcDb2dVertex
 10
209.5065099211304
 20
221.7960059198329
 30
0.0
 42
0.0093746548
 70
     1
  0
VERTEX
  5
4378
330
435F
100
AcDbEntity
  8
10000_FRONT
  6
Continuous
 62
     7
370
    15
100
AcDbVertex
100
AcDb2dVertex
 10
209.4949699211304
 20
221.7803759198329
 30
0.0
 42
0.0093875414
  0
VERTEX
  5
4379
330
435F
100
AcDbEntity
  8
10000_FRONT
  6
Continuous
 62
     7
370
    15
100
AcDbVertex
100
AcDb2dVertex
 10
209.4840199211304
 20
221.7642959198329
 30
0.0
 42
0.00936409
 70
     1
  0
VERTEX
  5
437A
330
435F
100
AcDbEntity
  8
10000_FRONT
  6
Continuous
 62
     7
370
    15
100
AcDbVertex
100
AcDb2dVertex
 10
209.4736699211304
 20
221.7478059198329
 30
0.0
 42
0.0093157722
  0
VERTEX
  5
437B
330
435F
100
AcDbEntity
  8
10000_FRONT
  6
Continuous
 62
     7
370
    15
100
AcDbVertex
100
AcDb2dVertex
 10
209.4639399211304
 20
221.7309059198329
 30
0.0
 42
0.0094100763
 70
     1
  0
VERTEX
  5
437C
330
435F
100
AcDbEntity
  8
10000_FRONT
  6
Continuous
 62
     7
370
    15
100
AcDbVertex
100
AcDb2dVertex
 10
209.4548299211303
 20
221.7136159198329
 30
0.0
 42
0.0096335111
  0
VERTEX
  5
437D
330
435F
100
AcDbEntity
  8
10000_FRONT
  6
Continuous
 62
     7
370
    15
100
AcDbVertex
100
AcDb2dVertex
 10
209.4463699211305
 20
221.6959159198328
 30
0.0
 42
0.0093721512
 70
     1
  0
VERTEX
  5
437E
330
435F
100
AcDbEntity
  8
10000_FRONT
  6
Continuous
 62
     7
370
    15
100
AcDbVertex
100
AcDb2dVertex
 10
209.4385599211304
 20
221.6779559198329
 30
0.0
 42
0.0087578273
  0
VERTEX
  5
437F
330
435F
100
AcDbEntity
  8
10000_FRONT
  6
Continuous
 62
     7
370
    15
100
AcDbVertex
100
AcDb2dVertex
 10
209.4314499211304
 20
221.6597759198329
 30
0.0
 42
0.0097344132
 70
     1
  0
VERTEX
  5
4380
330
435F
100
AcDbEntity
  8
10000_FRONT
  6
Continuous
 62
     7
370
    15
100
AcDbVertex
100
AcDb2dVertex
 10
209.4249999211304
 20
221.6409659198329
 30
0.0
 42
0.011738827
  0
VERTEX
  5
4381
330
435F
100
AcDbEntity
  8
10000_FRONT
  6
Continuous
 62
     7
370
    15
100
AcDbVertex
100
AcDb2dVertex
 10
209.4192399211304
 20
221.6213759198329
 30
0.0
 42
0.0088530398
 70
     1
  0
VERTEX
  5
4382
330
435F
100
AcDbEntity
  8
10000_FRONT
  6
Continuous
 62
     7
370
    15
100
AcDbVertex
100
AcDb2dVertex
 10
209.4142399211304
 20
221.6027959198328
 30
0.0
 42
0.0028221773
  0
VERTEX
  5
4383
330
435F
100
AcDbEntity
  8
10000_FRONT
  6
Continuous
 62
     7
370
    15
100
AcDbVertex
100
AcDb2dVertex
 10
209.4100599211304
 20
221.5858459198329
 30
0.0
 42
0.012729962
 70
     1
  0
VERTEX
  5
4384
330
435F
100
AcDbEntity
  8
10000_FRONT
  6
Continuous
 62
     7
370
    15
100
AcDbVertex
100
AcDb2dVertex
 10
209.4064099211304
 20
221.5635759198328
 30
0.0
 42
0.022189507
  0
VERTEX
  5
4385
330
435F
100
AcDbEntity
  8
10000_FRONT
  6
Continuous
 62
     7
370
    15
100
AcDbVertex
100
AcDb2dVertex
 10
209.4030599211304
 20
221.5286559198329
 30
0.0
 42
0.010693665
 70
     1
  0
VERTEX
  5
4386
330
435F
100
AcDbEntity
  8
10000_FRONT
  6
Continuous
 62
     7
370
    15
100
AcDbVertex
100
AcDb2dVertex
 10
209.4000199211304
 20
221.4825659198329
 30
0.0
 42
0.005565327
  0
SEQEND
  5
4387
330
435F
100
AcDbEntity
  8
10000_FRONT
  6
Continuous
 62
     7
370
    15
  0
LINE
  5
4BE6
330
1F
100
AcDbEntity
  8
10000_FRONT
  6
Continuous
 62
     7
370
    15
100
AcDbLine
 39
0.25
 10
186.5000199211304
 20
232.7069459198328
 30
0.0
 11
186.5000199211304
 21
222.8069459198329
 31
0.0
  0
LINE
  5
4BE7
330
1F
100
AcDbEntity
  8
10000_FRONT
  6
Continuous
 62
     7
370
    15
100
AcDbLine
 39
0.25
 10
187.8000199211303
 20
222.8069459198329
 30
0.0
 11
187.8000199211303
 21
232.7069459198328
 31
0.0
  0
LINE
  5
4BE8
330
1F
100
AcDbEntity
  8
10000_FRONT
  6
Continuous
 62
     7
370
    15
100
AcDbLine
 39
0.25
 10
195.1000199211304
 20
232.7069459198328
 30
0.0
 11
195.1000199211304
 21
222.8069459198329
 31
0.0
  0
LINE
  5
4BE9
330
1F
100
AcDbEntity
  8
10000_FRONT
  6
Continuous
 62
     7
370
    15
100
AcDbLine
 39
0.25
 10
196.4000199211303
 20
222.8069459198329
 30
0.0
 11
196.4000199211303
 21
232.7069459198328
 31
0.0
  0
LINE
  5
4BEA
330
1F
100
AcDbEntity
  8
10000_FRONT
  6
Continuous
 62
     7
370
    15
100
AcDbLine
 39
0.25
 10
203.7000199211304
 20
232.7069459198328
 30
0.0
 11
203.7000199211304
 21
222.8069459198329
 31
0.0
  0
LINE
  5
4BEB
330
1F
100
AcDbEntity
  8
10000_FRONT
  6
Continuous
 62
     7
370
    15
100
AcDbLine
 39
0.25
 10
205.0000199211304
 20
222.8069459198329
 30
0.0
 11
205.0000199211304
 21
232.7069459198328
 31
0.0
  0
LINE
  5
4BEC
330
1F
100
AcDbEntity
  8
10000_FRONT
  6
Continuous
 62
     7
370
    15
100
AcDbLine
 39
0.25
 10
212.3000199211304
 20
232.7069459198328
 30
0.0
 11
212.3000199211304
 21
222.8069459198329
 31
0.0
  0
LINE
  5
4BED
330
1F
100
AcDbEntity
  8
10000_FRONT
  6
Continuous
 62
     7
370
    15
100
AcDbLine
 39
0.25
 10
213.6000199211304
 20
222.8069459198329
 30
0.0
 11
213.6000199211304
 21
232.7069459198328
 31
0.0
  0
LINE
  5
4BEE
330
1F
100
AcDbEntity
  8
10000_FRONT
  6
Continuous
 62
     7
370
    15
100
AcDbLine
 39
0.25
 10
220.9000199211303
 20
232.7069459198328
 30
0.0
 11
220.9000199211303
 21
222.8069459198329
 31
0.0
  0
LINE
  5
4BEF
102
{ACAD_REACTORS
330
53F1
102
}
330
1F
100
AcDbEntity
  8
10000_FRONT
  6
Continuous
 62
     7
370
    15
100
AcDbLine
 39
0.25
 10
222.2000199211304
 20
222.8069459198329
 30
0.0
 11
222.2000199211304
 21
232.7069459198328
 31
0.0
  0
ARC
  5
4BFE
330
1F
100
AcDbEntity
  8
11000_Left
  6
Continuous
 62
     7
370
    50
100
AcDbCircle
 10
319.2029770390153
 20
178.9079138465857
 30
0.0
 40
0.700968029597068
100
AcDbArc
 50
270.0310369122103
 51
357.8713265131686
  0
ARC
  5
4BFF
330
1F
100
AcDbEntity
  8
11000_Left
  6
Continuous
 62
     7
370
    50
100
AcDbCircle
 10
319.6234067507902
 20
217.5069459198329
 30
0.0
 40
0.7
100
AcDbArc
 50
3.073970000003165
 51
90.0
  0
ARC
  5
4C04
330
1F
100
AcDbEntity
  8
11000_Left
  6
Continuous
 62
     7
370
    50
100
AcDbCircle
 10
20.75405675079208
 20
201.456945919833
 30
0.0
 40
299.9999999999981
100
AcDbArc
 50
355.6843999999996
 51
3.073970000003165
  0
ARC
  5
4D9D
330
1F
100
AcDbEntity
  8
11000_Left
  6
Continuous
 62
     7
370
    15
100
AcDbCircle
 10
314.2540567507902
 20
217.7069459198328
 30
0.0
 40
0.5
100
AcDbArc
 50
90.0
 51
180.0
  0
ARC
  5
4D9E
330
1F
100
AcDbEntity
  8
11000_Left
  6
Continuous
 62
     7
370
    15
100
AcDbCircle
 10
312.7540567507902
 20
214.5069459198329
 30
0.0
 40
1.0
100
AcDbArc
 50
270.0
 51
0.0
  0
LINE
  5
4DA0
330
1F
100
AcDbEntity
  8
11000_Left
  6
Continuous
 62
     7
370
    15
100
AcDbLine
 10
313.7540567507902
 20
217.7069459198328
 30
0.0
 11
313.7540567507902
 21
214.5069459198329
 31
0.0
  0
LINE
  5
4DA1
330
1F
100
AcDbEntity
  8
11000_Left
  6
Continuous
 62
     7
370
    15
100
AcDbLine
 10
270.2540567507902
 20
211.0069459198329
 30
0.0
 11
264.4529867507902
 21
211.0069459198329
 31
0.0
  0
ARC
  5
4DA2
330
1F
100
AcDbEntity
  8
11000_Left
  6
Continuous
 62
     7
370
    15
100
AcDbCircle
 10
264.4529867507902
 20
213.0069459198329
 30
0.0
 40
2.0
100
AcDbArc
 50
198.4107399999972
 51
270.0
  0
LINE
  5
4DA3
330
1F
100
AcDbEntity
  8
11000_Left
  6
Continuous
 62
     7
370
    15
100
AcDbLine
 10
262.5553567507902
 20
212.3752859198329
 30
0.0
 11
259.4540567507902
 21
221.6923159198328
 31
0.0
  0
LINE
  5
4DA4
330
1F
100
AcDbEntity
  8
11000_Left
  6
Continuous
 62
     7
370
    15
100
AcDbLine
 10
277.1227467507902
 20
213.5069459198329
 30
0.0
 11
270.2540567507902
 21
211.0069459198329
 31
0.0
  0
ARC
  5
4DAA
330
1F
100
AcDbEntity
  8
11000_Left
  6
Continuous
 62
     7
370
    15
100
AcDbCircle
 10
253.9540567507902
 20
219.4491859198329
 30
0.0
 40
0.8
100
AcDbArc
 50
180.0
 51
265.7108499999993
  0
LINE
  5
4DAB
330
1F
100
AcDbEntity
  8
11000_Left
  6
Continuous
 62
     7
370
    15
100
AcDbLine
 10
253.8942267507902
 20
218.6514259198328
 30
0.0
 11
256.6914467507902
 21
218.4416359198328
 31
0.0
  0
LINE
  5
4DAC
330
1F
100
AcDbEntity
  8
11000_Left
  6
Continuous
 62
     7
370
    15
100
AcDbLine
 10
253.1540567507902
 20
220.9441259198329
 30
0.0
 11
253.1540567507902
 21
219.4491859198329
 31
0.0
  0
LINE
  5
4DAD
330
1F
100
AcDbEntity
  8
11000_Left
  6
Continuous
 62
     7
370
    15
100
AcDbLine
 10
259.1607367507902
 20
221.9929759198329
 30
0.0
 11
253.9160067507902
 21
221.7432259198329
 31
0.0
  0
ARC
  5
4DAE
330
1F
100
AcDbEntity
  8
11000_Left
  6
Continuous
 62
     7
370
    15
100
AcDbCircle
 10
259.1740567507902
 20
221.7132959198328
 30
0.0
 40
0.28
100
AcDbArc
 50
0.0
 51
92.72631100000021
  0
ARC
  5
4DAF
330
1F
100
AcDbEntity
  8
11000_Left
  6
Continuous
 62
     7
370
    15
100
AcDbCircle
 10
253.9540567507902
 20
220.9441259198329
 30
0.0
 40
0.8
100
AcDbArc
 50
92.7263100000003
 51
180.0
  0
LINE
  5
4DB0
330
1F
100
AcDbEntity
  8
11000_Left
  6
Continuous
 62
     7
370
    15
100
AcDbLine
 10
259.4540567507902
 20
221.7132959198328
 30
0.0
 11
259.4540567507902
 21
209.5069459198329
 31
0.0
  0
LINE
  5
4DB2
330
1F
100
AcDbEntity
  8
11000_Left
  6
Continuous
 62
     7
370
    15
100
AcDbLine
 10
310.3540567507902
 20
213.5069459198329
 30
0.0
 11
310.3540567507902
 21
218.2069459198328
 31
0.0
  0
LINE
  5
4DB5
330
1F
100
AcDbEntity
  8
11000_Left
  6
Continuous
 62
     7
370
    15
100
AcDbLine
 10
310.3540567507902
 20
218.2069459198329
 30
0.0
 11
307.9131451791874
 21
218.2069459198328
 31
0.0
  0
LINE
  5
4DB6
330
1F
100
AcDbEntity
  8
11000_Left
  6
Continuous
 62
     7
370
    15
100
AcDbLine
 10
306.7540567507902
 20
213.0069459198329
 30
0.0
 11
306.7540567507902
 21
213.5069459198329
 31
0.0
  0
LINE
  5
4DB7
330
1F
100
AcDbEntity
  8
11000_Left
  6
Continuous
 62
     7
370
    15
100
AcDbLine
 10
306.7540567507902
 20
209.5069459198329
 30
0.0
 11
306.7540567507902
 21
213.0069459198329
 31
0.0
  0
LINE
  5
4DBC
330
1F
100
AcDbEntity
  8
11000_Left
  6
Continuous
 62
     7
370
    50
100
AcDbLine
 10
319.6234067507902
 20
218.2069459198329
 30
0.0
 11
315.8540567507902
 21
218.2069459198328
 31
0.0
  0
LINE
  5
4DBD
330
1F
100
AcDbEntity
  8
11000_Left
  6
Continuous
 62
     7
370
    15
100
AcDbLine
 10
257.1540567507902
 20
217.9430359198328
 30
0.0
 11
257.1540567507902
 21
209.5069459198329
 31
0.0
  0
ARC
  5
4DBE
330
1F
100
AcDbEntity
  8
11000_Left
  6
Continuous
 62
     7
370
    15
100
AcDbCircle
 10
256.6540567507902
 20
217.9430359198328
 30
0.0
 40
0.5
100
AcDbArc
 50
0.0
 51
85.71084699999914
  0
LINE
  5
4DC3
330
1F
100
AcDbEntity
  8
11000_Left
  6
Continuous
 62
     7
370
    15
100
AcDbLine
 10
301.3540567507902
 20
218.4069459198329
 30
0.0
 11
301.3540567507902
 21
213.8069459198328
 31
0.0
  0
LINE
  5
4DC6
330
1F
100
AcDbEntity
  8
11000_Left
  6
Continuous
 62
     7
370
    15
100
AcDbLine
 10
307.9131451791874
 20
218.2069459198328
 30
0.0
 11
306.6175767507902
 21
222.5919459198328
 31
0.0
  0
LINE
  5
4DC7
330
1F
100
AcDbEntity
  8
11000_Left
  6
Continuous
 62
     7
370
    15
100
AcDbLine
 10
303.5138267507902
 20
222.5540759198328
 30
0.0
 11
303.0767867507902
 21
219.8069459198328
 31
0.0
  0
LINE
  5
4DC9
330
1F
100
AcDbEntity
  8
11000_Left
  6
Continuous
 62
     7
370
    15
100
AcDbLine
 10
301.8313267507902
 20
219.8069459198328
 30
0.0
 11
301.3540567507902
 21
218.4069459198329
 31
0.0
  0
LINE
  5
4DCA
330
1F
100
AcDbEntity
  8
11000_Left
  6
Continuous
 62
     7
370
    15
100
AcDbLine
 10
301.8313267507902
 20
219.8069459198328
 30
0.0
 11
302.1482767507901
 21
219.8069459198328
 31
0.0
  0
LINE
  5
4DCB
330
1F
100
AcDbEntity
  8
11000_Left
  6
Continuous
 62
     7
370
    15
100
AcDbLine
 10
303.0767867507902
 20
219.8069459198328
 30
0.0
 11
302.1482767507901
 21
219.8069459198328
 31
0.0
  0
LINE
  5
4DCD
330
1F
100
AcDbEntity
  8
11000_Left
  6
Continuous
 62
     7
370
    15
100
AcDbLine
 10
301.0540567507902
 20
213.5069459198329
 30
0.0
 11
277.1227467507902
 21
213.5069459198329
 31
0.0
  0
LINE
  5
4DCE
330
1F
100
AcDbEntity
  8
11000_Left
  6
Continuous
 62
     7
370
    15
100
AcDbLine
 10
312.7540567507902
 20
213.5069459198329
 30
0.0
 11
310.3540567507902
 21
213.5069459198329
 31
0.0
  0
ARC
  5
4DD3
330
1F
100
AcDbEntity
  8
11000_Left
  6
Continuous
 62
     7
370
    15
100
AcDbCircle
 10
306.3298667507902
 20
222.5069459198329
 30
0.0
 40
0.3
100
AcDbArc
 50
16.46000999999888
 51
90.0
  0
ARC
  5
4DD4
330
1F
100
AcDbEntity
  8
11000_Left
  6
Continuous
 62
     7
370
    15
100
AcDbCircle
 10
303.8100967507902
 20
222.5069459198329
 30
0.0
 40
0.3
100
AcDbArc
 50
90.0
 51
170.9605172000018
  0
ARC
  5
4DD5
330
1F
100
AcDbEntity
  8
11000_Left
  6
Continuous
 62
     7
370
    15
100
AcDbCircle
 10
301.0540567507902
 20
213.8069459198328
 30
0.0
 40
0.3
100
AcDbArc
 50
270.0
 51
0.0
  0
LINE
  5
4DD7
330
1F
100
AcDbEntity
  8
11000_Left
  6
Continuous
 62
     7
370
    15
100
AcDbLine
 10
306.3298667507902
 20
222.8069459198329
 30
0.0
 11
303.8100967507902
 21
222.8069459198329
 31
0.0
  0
LINE
  5
52D5
330
1F
100
AcDbEntity
  8
11000_Left
  6
Continuous
 62
     7
370
    15
100
AcDbLine
 10
305.8906067507902
 20
232.7069459198328
 30
0.0
 11
305.8906067507902
 21
222.8069459198329
 31
0.0
  0
LINE
  5
52D6
330
1F
100
AcDbEntity
  8
11000_Left
  6
Continuous
 62
     7
370
    15
100
AcDbLine
 10
304.5906067507902
 20
232.7069459198328
 30
0.0
 11
304.5906067507902
 21
222.8069459198329
 31
0.0
  0
LINE
  5
52D8
330
1F
100
AcDbEntity
  8
11000_Left
  6
Continuous
 62
     7
370
    50
100
AcDbLine
 10
255.3540567507901
 20
178.2069459198328
 30
0.0
 11
255.3540567507901
 21
209.5069459198329
 31
0.0
  0
LINE
  5
52D9
330
1F
100
AcDbEntity
  8
11000_Left
  6
Continuous
 62
     7
370
    50
100
AcDbLine
 10
310.7540567507902
 20
212.5069459198329
 30
0.0
 11
315.8540567507902
 21
212.5069459198329
 31
0.0
  0
LINE
  5
52DA
330
1F
100
AcDbEntity
  8
11000_Left
  6
Continuous
 62
     7
370
    50
100
AcDbLine
 10
308.2540567507902
 20
210.0069459198329
 30
0.0
 11
310.7540567507902
 21
212.5069459198329
 31
0.0
  0
LINE
  5
52DB
330
1F
100
AcDbEntity
  8
11000_Left
  6
Continuous
 62
     7
370
    50
100
AcDbLine
 10
308.2540567507902
 20
209.5069459198329
 30
0.0
 11
308.2540567507902
 21
210.0069459198329
 31
0.0
  0
LINE
  5
52DC
330
1F
100
AcDbEntity
  8
11000_Left
  6
Continuous
 62
     7
370
    50
100
AcDbLine
 10
255.3540567507901
 20
209.5069459198329
 30
0.0
 11
308.2540567507902
 21
209.5069459198329
 31
0.0
  0
LINE
  5
52DE
330
1F
100
AcDbEntity
  8
11000_Left
  6
Continuous
 62
     7
370
    50
100
AcDbLine
 10
315.8540567507902
 20
218.2069459198328
 30
0.0
 11
315.8540567507902
 21
212.5069459198329
 31
0.0
  0
LINE
  5
52DF
102
{ACAD_REACTORS
330
53B8
102
}
330
1F
100
AcDbEntity
  8
11000_Left
  6
Continuous
 62
     7
370
    50
100
AcDbLine
 10
255.3540567507901
 20
178.2069459198328
 30
0.0
 11
257.8540567507901
 21
178.2069459198328
 31
0.0
  0
LINE
  5
52E8
330
1F
100
AcDbEntity
  8
10000_FRONT
  6
Continuous
 62
     7
370
    15
100
AcDbLine
 39
0.25
 10
182.0819581186382
 20
187.1126340995206
 30
0.0
 11
184.3526581186384
 21
187.1126340995206
 31
0.0
1001
AUSTER_ANSICHT
1002
{
1000
Det03
1002
}
1001
AUSTER_FOLIE
1002
{
1000
NSB01341_3RS10_24POL
1002
}
  0
LINE
  5
52E9
330
1F
100
AcDbEntity
  8
10000_FRONT
  6
Continuous
 62
     7
370
    15
100
AcDbLine
 39
0.25
 10
185.3826581186386
 20
187.1126340995206
 30
0.0
 11
187.6533581186386
 21
187.1126340995206
 31
0.0
1001
AUSTER_ANSICHT
1002
{
1000
Det03
1002
}
1001
AUSTER_FOLIE
1002
{
1000
NSB01341_3RS10_24POL
1002
}
  0
LINE
  5
52EA
330
1F
100
AcDbEntity
  8
10000_FRONT
  6
Continuous
 62
     7
370
    15
100
AcDbLine
 39
0.25
 10
187.6533581186386
 20
188.3213340995206
 30
0.0
 11
185.3826581186386
 21
188.3213340995206
 31
0.0
1001
AUSTER_ANSICHT
1002
{
1000
Det03
1002
}
1001
AUSTER_FOLIE
1002
{
1000
NSB01341_3RS10_24POL
1002
}
  0
LINE
  5
52EB
330
1F
100
AcDbEntity
  8
10000_FRONT
  6
Continuous
 62
     7
370
    15
100
AcDbLine
 39
0.25
 10
184.3526581186384
 20
188.3213340995206
 30
0.0
 11
182.0819581186382
 21
188.3213340995206
 31
0.0
1001
AUSTER_ANSICHT
1002
{
1000
Det03
1002
}
1001
AUSTER_FOLIE
1002
{
1000
NSB01341_3RS10_24POL
1002
}
  0
LINE
  5
52EC
330
1F
100
AcDbEntity
  8
10000_FRONT
  6
Continuous
 62
     7
370
    15
100
AcDbLine
 39
0.25
 10
184.3526581186384
 20
189.4938340995204
 30
0.0
 11
184.3526581186384
 21
188.3213340995206
 31
0.0
1001
AUSTER_ANSICHT
1002
{
1000
Det03
1002
}
1001
AUSTER_FOLIE
1002
{
1000
NSB01341_3RS10_24POL
1002
}
  0
LINE
  5
52ED
330
1F
100
AcDbEntity
  8
10000_FRONT
  6
Continuous
 62
     7
370
    15
100
AcDbLine
 39
0.25
 10
185.3826581186386
 20
188.3213340995206
 30
0.0
 11
185.3826581186386
 21
189.4938340995204
 31
0.0
1001
AUSTER_ANSICHT
1002
{
1000
Det03
1002
}
1001
AUSTER_FOLIE
1002
{
1000
NSB01341_3RS10_24POL
1002
}
  0
LINE
  5
52EE
330
1F
100
AcDbEntity
  8
10000_FRONT
  6
Continuous
 62
     7
370
    15
100
AcDbLine
 39
0.25
 10
185.3826581186386
 20
185.9401340995206
 30
0.0
 11
185.3826581186386
 21
187.1126340995206
 31
0.0
1001
AUSTER_ANSICHT
1002
{
1000
Det03
1002
}
1001
AUSTER_FOLIE
1002
{
1000
NSB01341_3RS10_24POL
1002
}
  0
LINE
  5
52EF
330
1F
100
AcDbEntity
  8
10000_FRONT
  6
Continuous
 62
     7
370
    15
100
AcDbLine
 39
0.25
 10
184.3526581186384
 20
187.1126340995205
 30
0.0
 11
184.3526581186384
 21
185.9401340995206
 31
0.0
1001
AUSTER_ANSICHT
1002
{
1000
Det03
1002
}
1001
AUSTER_FOLIE
1002
{
1000
NSB01341_3RS10_24POL
1002
}
  0
CIRCLE
  5
52F0
102
{ACAD_REACTORS
330
535C
102
}
330
1F
100
AcDbEntity
  8
10000_FRONT
  6
Continuous
 62
     7
370
    15
100
AcDbCircle
 39
0.25
 10
184.8676581186385
 20
187.7169340995206
 30
0.0
 40
3.1
1001
AUSTER_ANSICHT
1002
{
1000
Det03
1002
}
1001
AUSTER_FOLIE
1002
{
1000
NSB01341_3RS10_24POL
1002
}
  0
ARC
  5
52F1
330
1F
100
AcDbEntity
  8
10000_FRONT
  6
Continuous
 62
     7
370
    15
100
AcDbCircle
 39
0.25
 10
184.8676581186385
 20
187.7169340995206
 30
0.0
 40
1.85
100
AcDbArc
 50
73.83654999999698
 51
106.1633999999997
1001
AUSTER_ANSICHT
1002
{
1000
Det03
1002
}
1001
AUSTER_FOLIE
1002
{
1000
NSB01341_3RS10_24POL
1002
}
  0
ARC
  5
52F2
330
1F
100
AcDbEntity
  8
10000_FRONT
  6
Continuous
 62
     7
370
    15
100
AcDbCircle
 39
0.25
 10
184.8676581186385
 20
187.7169340995206
 30
0.0
 40
1.85
100
AcDbArc
 50
253.8365999999996
 51
286.1633999999999
1001
AUSTER_ANSICHT
1002
{
1000
Det03
1002
}
1001
AUSTER_FOLIE
1002
{
1000
NSB01341_3RS10_24POL
1002
}
  0
ARC
  5
52F3
330
1F
100
AcDbEntity
  8
10000_FRONT
  6
Continuous
 62
     7
370
    15
100
AcDbCircle
 39
0.25
 10
184.8676581186385
 20
187.7169340995206
 30
0.0
 40
2.850490999999998
100
AcDbArc
 50
347.7603999999987
 51
12.2396000000013
1001
AUSTER_ANSICHT
1002
{
1000
Det03
1002
}
1001
AUSTER_FOLIE
1002
{
1000
NSB01341_3RS10_24POL
1002
}
  0
ARC
  5
52F4
330
1F
100
AcDbEntity
  8
10000_FRONT
  6
Continuous
 62
     7
370
    15
100
AcDbCircle
 39
0.25
 10
184.8676581186385
 20
187.7169340995206
 30
0.0
 40
2.850490999999998
100
AcDbArc
 50
167.7603999999987
 51
192.2396000000013
1001
AUSTER_ANSICHT
1002
{
1000
Det03
1002
}
1001
AUSTER_FOLIE
1002
{
1000
NSB01341_3RS10_24POL
1002
}
  0
LINE
  5
52F5
330
1F
100
AcDbEntity
  8
10000_FRONT
  6
Continuous
 62
     7
370
    15
100
AcDbLine
 39
0.25
 10
190.6736605850184
 20
187.0762408187871
 30
0.0
 11
192.9443605850185
 21
187.0762408187871
 31
0.0
1001
AUSTER_ANSICHT
1002
{
1000
Det03
1002
}
1001
AUSTER_FOLIE
1002
{
1000
NSB01341_3RS10_24POL
1002
}
  0
LINE
  5
52F6
330
1F
100
AcDbEntity
  8
10000_FRONT
  6
Continuous
 62
     7
370
    15
100
AcDbLine
 39
0.25
 10
193.9743605850188
 20
187.0762408187871
 30
0.0
 11
196.2450605850187
 21
187.0762408187871
 31
0.0
1001
AUSTER_ANSICHT
1002
{
1000
Det03
1002
}
1001
AUSTER_FOLIE
1002
{
1000
NSB01341_3RS10_24POL
1002
}
  0
LINE
  5
52F7
330
1F
100
AcDbEntity
  8
10000_FRONT
  6
Continuous
 62
     7
370
    15
100
AcDbLine
 39
0.25
 10
196.2450605850187
 20
188.2849408187871
 30
0.0
 11
193.9743605850188
 21
188.2849408187871
 31
0.0
1001
AUSTER_ANSICHT
1002
{
1000
Det03
1002
}
1001
AUSTER_FOLIE
1002
{
1000
NSB01341_3RS10_24POL
1002
}
  0
LINE
  5
52F8
330
1F
100
AcDbEntity
  8
10000_FRONT
  6
Continuous
 62
     7
370
    15
100
AcDbLine
 39
0.25
 10
192.9443605850185
 20
188.2849408187871
 30
0.0
 11
190.6736605850184
 21
188.2849408187871
 31
0.0
1001
AUSTER_ANSICHT
1002
{
1000
Det03
1002
}
1001
AUSTER_FOLIE
1002
{
1000
NSB01341_3RS10_24POL
1002
}
  0
LINE
  5
52F9
330
1F
100
AcDbEntity
  8
10000_FRONT
  6
Continuous
 62
     7
370
    15
100
AcDbLine
 39
0.25
 10
192.9443605850185
 20
189.457440818787
 30
0.0
 11
192.9443605850185
 21
188.2849408187871
 31
0.0
1001
AUSTER_ANSICHT
1002
{
1000
Det03
1002
}
1001
AUSTER_FOLIE
1002
{
1000
NSB01341_3RS10_24POL
1002
}
  0
LINE
  5
52FA
330
1F
100
AcDbEntity
  8
10000_FRONT
  6
Continuous
 62
     7
370
    15
100
AcDbLine
 39
0.25
 10
193.9743605850188
 20
188.2849408187871
 30
0.0
 11
193.9743605850188
 21
189.457440818787
 31
0.0
1001
AUSTER_ANSICHT
1002
{
1000
Det03
1002
}
1001
AUSTER_FOLIE
1002
{
1000
NSB01341_3RS10_24POL
1002
}
  0
LINE
  5
52FB
330
1F
100
AcDbEntity
  8
10000_FRONT
  6
Continuous
 62
     7
370
    15
100
AcDbLine
 39
0.25
 10
193.9743605850188
 20
185.903740818787
 30
0.0
 11
193.9743605850188
 21
187.0762408187871
 31
0.0
1001
AUSTER_ANSICHT
1002
{
1000
Det03
1002
}
1001
AUSTER_FOLIE
1002
{
1000
NSB01341_3RS10_24POL
1002
}
  0
LINE
  5
52FC
330
1F
100
AcDbEntity
  8
10000_FRONT
  6
Continuous
 62
     7
370
    15
100
AcDbLine
 39
0.25
 10
192.9443605850185
 20
187.0762408187871
 30
0.0
 11
192.9443605850185
 21
185.903740818787
 31
0.0
1001
AUSTER_ANSICHT
1002
{
1000
Det03
1002
}
1001
AUSTER_FOLIE
1002
{
1000
NSB01341_3RS10_24POL
1002
}
  0
CIRCLE
  5
52FD
102
{ACAD_REACTORS
330
5381
102
}
330
1F
100
AcDbEntity
  8
10000_FRONT
  6
Continuous
 62
     7
370
    15
100
AcDbCircle
 39
0.25
 10
193.4593605850185
 20
187.6805408187872
 30
0.0
 40
3.1
1001
AUSTER_ANSICHT
1002
{
1000
Det03
1002
}
1001
AUSTER_FOLIE
1002
{
1000
NSB01341_3RS10_24POL
1002
}
  0
ARC
  5
52FE
330
1F
100
AcDbEntity
  8
10000_FRONT
  6
Continuous
 62
     7
370
    15
100
AcDbCircle
 39
0.25
 10
193.4593605850185
 20
187.6805408187872
 30
0.0
 40
1.85
100
AcDbArc
 50
73.83654999999698
 51
106.1633999999997
1001
AUSTER_ANSICHT
1002
{
1000
Det03
1002
}
1001
AUSTER_FOLIE
1002
{
1000
NSB01341_3RS10_24POL
1002
}
  0
ARC
  5
52FF
330
1F
100
AcDbEntity
  8
10000_FRONT
  6
Continuous
 62
     7
370
    15
100
AcDbCircle
 39
0.25
 10
193.4593605850185
 20
187.6805408187872
 30
0.0
 40
1.85
100
AcDbArc
 50
253.8365999999996
 51
286.1633999999999
1001
AUSTER_ANSICHT
1002
{
1000
Det03
1002
}
1001
AUSTER_FOLIE
1002
{
1000
NSB01341_3RS10_24POL
1002
}
  0
ARC
  5
5300
330
1F
100
AcDbEntity
  8
10000_FRONT
  6
Continuous
 62
     7
370
    15
100
AcDbCircle
 39
0.25
 10
193.4593605850185
 20
187.6805408187872
 30
0.0
 40
2.850490999999998
100
AcDbArc
 50
347.7603999999987
 51
12.2396000000013
1001
AUSTER_ANSICHT
1002
{
1000
Det03
1002
}
1001
AUSTER_FOLIE
1002
{
1000
NSB01341_3RS10_24POL
1002
}
  0
ARC
  5
5301
330
1F
100
AcDbEntity
  8
10000_FRONT
  6
Continuous
 62
     7
370
    15
100
AcDbCircle
 39
0.25
 10
193.4593605850185
 20
187.6805408187872
 30
0.0
 40
2.850490999999998
100
AcDbArc
 50
167.7603999999987
 51
192.2396000000013
1001
AUSTER_ANSICHT
1002
{
1000
Det03
1002
}
1001
AUSTER_FOLIE
1002
{
1000
NSB01341_3RS10_24POL
1002
}
  0
LINE
  5
5302
330
1F
100
AcDbEntity
  8
10000_FRONT
  6
Continuous
 62
     7
370
    15
100
AcDbLine
 39
0.25
 10
199.2371994823651
 20
187.1257833045765
 30
0.0
 11
201.5078994823653
 21
187.1257833045765
 31
0.0
1001
AUSTER_ANSICHT
1002
{
1000
Det03
1002
}
1001
AUSTER_FOLIE
1002
{
1000
NSB01341_3RS10_24POL
1002
}
  0
LINE
  5
5303
330
1F
100
AcDbEntity
  8
10000_FRONT
  6
Continuous
 62
     7
370
    15
100
AcDbLine
 39
0.25
 10
202.5378994823655
 20
187.1257833045765
 30
0.0
 11
204.8085994823655
 21
187.1257833045765
 31
0.0
1001
AUSTER_ANSICHT
1002
{
1000
Det03
1002
}
1001
AUSTER_FOLIE
1002
{
1000
NSB01341_3RS10_24POL
1002
}
  0
LINE
  5
5304
330
1F
100
AcDbEntity
  8
10000_FRONT
  6
Continuous
 62
     7
370
    15
100
AcDbLine
 39
0.25
 10
204.8085994823655
 20
188.3344833045765
 30
0.0
 11
202.5378994823655
 21
188.3344833045765
 31
0.0
1001
AUSTER_ANSICHT
1002
{
1000
Det03
1002
}
1001
AUSTER_FOLIE
1002
{
1000
NSB01341_3RS10_24POL
1002
}
  0
LINE
  5
5305
330
1F
100
AcDbEntity
  8
10000_FRONT
  6
Continuous
 62
     7
370
    15
100
AcDbLine
 39
0.25
 10
201.5078994823653
 20
188.3344833045765
 30
0.0
 11
199.2371994823651
 21
188.3344833045765
 31
0.0
1001
AUSTER_ANSICHT
1002
{
1000
Det03
1002
}
1001
AUSTER_FOLIE
1002
{
1000
NSB01341_3RS10_24POL
1002
}
  0
LINE
  5
5306
330
1F
100
AcDbEntity
  8
10000_FRONT
  6
Continuous
 62
     7
370
    15
100
AcDbLine
 39
0.25
 10
201.5078994823653
 20
189.5069833045764
 30
0.0
 11
201.5078994823653
 21
188.3344833045765
 31
0.0
1001
AUSTER_ANSICHT
1002
{
1000
Det03
1002
}
1001
AUSTER_FOLIE
1002
{
1000
NSB01341_3RS10_24POL
1002
}
  0
LINE
  5
5307
330
1F
100
AcDbEntity
  8
10000_FRONT
  6
Continuous
 62
     7
370
    15
100
AcDbLine
 39
0.25
 10
202.5378994823655
 20
188.3344833045765
 30
0.0
 11
202.5378994823655
 21
189.5069833045764
 31
0.0
1001
AUSTER_ANSICHT
1002
{
1000
Det03
1002
}
1001
AUSTER_FOLIE
1002
{
1000
NSB01341_3RS10_24POL
1002
}
  0
LINE
  5
5308
330
1F
100
AcDbEntity
  8
10000_FRONT
  6
Continuous
 62
     7
370
    15
100
AcDbLine
 39
0.25
 10
202.5378994823655
 20
185.9532833045765
 30
0.0
 11
202.5378994823655
 21
187.1257833045765
 31
0.0
1001
AUSTER_ANSICHT
1002
{
1000
Det03
1002
}
1001
AUSTER_FOLIE
1002
{
1000
NSB01341_3RS10_24POL
1002
}
  0
LINE
  5
5309
330
1F
100
AcDbEntity
  8
10000_FRONT
  6
Continuous
 62
     7
370
    15
100
AcDbLine
 39
0.25
 10
201.5078994823653
 20
187.1257833045765
 30
0.0
 11
201.5078994823653
 21
185.9532833045765
 31
0.0
1001
AUSTER_ANSICHT
1002
{
1000
Det03
1002
}
1001
AUSTER_FOLIE
1002
{
1000
NSB01341_3RS10_24POL
1002
}
  0
CIRCLE
  5
530A
330
1F
100
AcDbEntity
  8
10000_FRONT
  6
Continuous
 62
     7
370
    15
100
AcDbCircle
 39
0.25
 10
202.0228994823654
 20
187.7300833045764
 30
0.0
 40
3.1
1001
AUSTER_ANSICHT
1002
{
1000
Det03
1002
}
1001
AUSTER_FOLIE
1002
{
1000
NSB01341_3RS10_24POL
1002
}
  0
ARC
  5
530B
330
1F
100
AcDbEntity
  8
10000_FRONT
  6
Continuous
 62
     7
370
    15
100
AcDbCircle
 39
0.25
 10
202.0228994823654
 20
187.7300833045764
 30
0.0
 40
1.85
100
AcDbArc
 50
73.83654999999679
 51
106.1633999999997
1001
AUSTER_ANSICHT
1002
{
1000
Det03
1002
}
1001
AUSTER_FOLIE
1002
{
1000
NSB01341_3RS10_24POL
1002
}
  0
ARC
  5
530C
330
1F
100
AcDbEntity
  8
10000_FRONT
  6
Continuous
 62
     7
370
    15
100
AcDbCircle
 39
0.25
 10
202.0228994823654
 20
187.7300833045764
 30
0.0
 40
1.85
100
AcDbArc
 50
253.8365999999996
 51
286.1633999999999
1001
AUSTER_ANSICHT
1002
{
1000
Det03
1002
}
1001
AUSTER_FOLIE
1002
{
1000
NSB01341_3RS10_24POL
1002
}
  0
ARC
  5
530D
330
1F
100
AcDbEntity
  8
10000_FRONT
  6
Continuous
 62
     7
370
    15
100
AcDbCircle
 39
0.25
 10
202.0228994823654
 20
187.7300833045764
 30
0.0
 40
2.850490999999998
100
AcDbArc
 50
347.7603999999987
 51
12.2396000000013
1001
AUSTER_ANSICHT
1002
{
1000
Det03
1002
}
1001
AUSTER_FOLIE
1002
{
1000
NSB01341_3RS10_24POL
1002
}
  0
ARC
  5
530E
330
1F
100
AcDbEntity
  8
10000_FRONT
  6
Continuous
 62
     7
370
    15
100
AcDbCircle
 39
0.25
 10
202.0228994823654
 20
187.7300833045764
 30
0.0
 40
2.850490999999998
100
AcDbArc
 50
167.7603999999987
 51
192.2396000000013
1001
AUSTER_ANSICHT
1002
{
1000
Det03
1002
}
1001
AUSTER_FOLIE
1002
{
1000
NSB01341_3RS10_24POL
1002
}
  0
LINE
  5
530F
330
1F
100
AcDbEntity
  8
10000_FRONT
  6
Continuous
 62
     7
370
    15
100
AcDbLine
 39
0.25
 10
207.8811194596781
 20
187.0839725674898
 30
0.0
 11
210.1518194596783
 21
187.0839725674898
 31
0.0
1001
AUSTER_ANSICHT
1002
{
1000
Det03
1002
}
1001
AUSTER_FOLIE
1002
{
1000
NSB01341_3RS10_24POL
1002
}
  0
LINE
  5
5310
330
1F
100
AcDbEntity
  8
10000_FRONT
  6
Continuous
 62
     7
370
    15
100
AcDbLine
 39
0.25
 10
211.1818194596785
 20
187.0839725674898
 30
0.0
 11
213.4525194596784
 21
187.0839725674898
 31
0.0
1001
AUSTER_ANSICHT
1002
{
1000
Det03
1002
}
1001
AUSTER_FOLIE
1002
{
1000
NSB01341_3RS10_24POL
1002
}
  0
LINE
  5
5311
330
1F
100
AcDbEntity
  8
10000_FRONT
  6
Continuous
 62
     7
370
    15
100
AcDbLine
 39
0.25
 10
213.4525194596784
 20
188.2926725674898
 30
0.0
 11
211.1818194596785
 21
188.2926725674898
 31
0.0
1001
AUSTER_ANSICHT
1002
{
1000
Det03
1002
}
1001
AUSTER_FOLIE
1002
{
1000
NSB01341_3RS10_24POL
1002
}
  0
LINE
  5
5312
330
1F
100
AcDbEntity
  8
10000_FRONT
  6
Continuous
 62
     7
370
    15
100
AcDbLine
 39
0.25
 10
210.1518194596783
 20
188.2926725674898
 30
0.0
 11
207.8811194596781
 21
188.2926725674898
 31
0.0
1001
AUSTER_ANSICHT
1002
{
1000
Det03
1002
}
1001
AUSTER_FOLIE
1002
{
1000
NSB01341_3RS10_24POL
1002
}
  0
LINE
  5
5313
330
1F
100
AcDbEntity
  8
10000_FRONT
  6
Continuous
 62
     7
370
    15
100
AcDbLine
 39
0.25
 10
210.1518194596783
 20
189.4651725674895
 30
0.0
 11
210.1518194596783
 21
188.2926725674898
 31
0.0
1001
AUSTER_ANSICHT
1002
{
1000
Det03
1002
}
1001
AUSTER_FOLIE
1002
{
1000
NSB01341_3RS10_24POL
1002
}
  0
LINE
  5
5314
330
1F
100
AcDbEntity
  8
10000_FRONT
  6
Continuous
 62
     7
370
    15
100
AcDbLine
 39
0.25
 10
211.1818194596785
 20
188.2926725674898
 30
0.0
 11
211.1818194596785
 21
189.4651725674895
 31
0.0
1001
AUSTER_ANSICHT
1002
{
1000
Det03
1002
}
1001
AUSTER_FOLIE
1002
{
1000
NSB01341_3RS10_24POL
1002
}
  0
LINE
  5
5315
330
1F
100
AcDbEntity
  8
10000_FRONT
  6
Continuous
 62
     7
370
    15
100
AcDbLine
 39
0.25
 10
211.1818194596785
 20
185.9114725674898
 30
0.0
 11
211.1818194596785
 21
187.0839725674898
 31
0.0
1001
AUSTER_ANSICHT
1002
{
1000
Det03
1002
}
1001
AUSTER_FOLIE
1002
{
1000
NSB01341_3RS10_24POL
1002
}
  0
LINE
  5
5316
330
1F
100
AcDbEntity
  8
10000_FRONT
  6
Continuous
 62
     7
370
    15
100
AcDbLine
 39
0.25
 10
210.1518194596783
 20
187.0839725674898
 30
0.0
 11
210.1518194596783
 21
185.9114725674898
 31
0.0
1001
AUSTER_ANSICHT
1002
{
1000
Det03
1002
}
1001
AUSTER_FOLIE
1002
{
1000
NSB01341_3RS10_24POL
1002
}
  0
CIRCLE
  5
5317
330
1F
100
AcDbEntity
  8
10000_FRONT
  6
Continuous
 62
     7
370
    15
100
AcDbCircle
 39
0.25
 10
210.6668194596783
 20
187.6882725674898
 30
0.0
 40
3.1
1001
AUSTER_ANSICHT
1002
{
1000
Det03
1002
}
1001
AUSTER_FOLIE
1002
{
1000
NSB01341_3RS10_24POL
1002
}
  0
ARC
  5
5318
330
1F
100
AcDbEntity
  8
10000_FRONT
  6
Continuous
 62
     7
370
    15
100
AcDbCircle
 39
0.25
 10
210.6668194596783
 20
187.6882725674898
 30
0.0
 40
1.85
100
AcDbArc
 50
73.83654999999679
 51
106.1633999999997
1001
AUSTER_ANSICHT
1002
{
1000
Det03
1002
}
1001
AUSTER_FOLIE
1002
{
1000
NSB01341_3RS10_24POL
1002
}
  0
ARC
  5
5319
330
1F
100
AcDbEntity
  8
10000_FRONT
  6
Continuous
 62
     7
370
    15
100
AcDbCircle
 39
0.25
 10
210.6668194596783
 20
187.6882725674898
 30
0.0
 40
1.85
100
AcDbArc
 50
253.8365999999996
 51
286.1633999999999
1001
AUSTER_ANSICHT
1002
{
1000
Det03
1002
}
1001
AUSTER_FOLIE
1002
{
1000
NSB01341_3RS10_24POL
1002
}
  0
ARC
  5
531A
330
1F
100
AcDbEntity
  8
10000_FRONT
  6
Continuous
 62
     7
370
    15
100
AcDbCircle
 39
0.25
 10
210.6668194596783
 20
187.6882725674898
 30
0.0
 40
2.850490999999998
100
AcDbArc
 50
347.7603999999987
 51
12.2396000000013
1001
AUSTER_ANSICHT
1002
{
1000
Det03
1002
}
1001
AUSTER_FOLIE
1002
{
1000
NSB01341_3RS10_24POL
1002
}
  0
ARC
  5
531B
330
1F
100
AcDbEntity
  8
10000_FRONT
  6
Continuous
 62
     7
370
    15
100
AcDbCircle
 39
0.25
 10
210.6668194596783
 20
187.6882725674898
 30
0.0
 40
2.850490999999998
100
AcDbArc
 50
167.7603999999987
 51
192.2396000000013
1001
AUSTER_ANSICHT
1002
{
1000
Det03
1002
}
1001
AUSTER_FOLIE
1002
{
1000
NSB01341_3RS10_24POL
1002
}
  0
LINE
  5
531C
330
1F
100
AcDbEntity
  8
10000_FRONT
  6
Continuous
 62
     7
370
    15
100
AcDbLine
 39
0.25
 10
216.4643199211301
 20
187.1026459198328
 30
0.0
 11
218.7350199211303
 21
187.1026459198328
 31
0.0
1001
AUSTER_ANSICHT
1002
{
1000
Det03
1002
}
1001
AUSTER_FOLIE
1002
{
1000
NSB01341_3RS10_24POL
1002
}
  0
LINE
  5
531D
330
1F
100
AcDbEntity
  8
10000_FRONT
  6
Continuous
 62
     7
370
    15
100
AcDbLine
 39
0.25
 10
219.7650199211305
 20
187.1026459198328
 30
0.0
 11
222.0357199211305
 21
187.1026459198328
 31
0.0
1001
AUSTER_ANSICHT
1002
{
1000
Det03
1002
}
1001
AUSTER_FOLIE
1002
{
1000
NSB01341_3RS10_24POL
1002
}
  0
LINE
  5
531E
330
1F
100
AcDbEntity
  8
10000_FRONT
  6
Continuous
 62
     7
370
    15
100
AcDbLine
 39
0.25
 10
222.0357199211305
 20
188.3113459198328
 30
0.0
 11
219.7650199211305
 21
188.3113459198328
 31
0.0
1001
AUSTER_ANSICHT
1002
{
1000
Det03
1002
}
1001
AUSTER_FOLIE
1002
{
1000
NSB01341_3RS10_24POL
1002
}
  0
LINE
  5
531F
330
1F
100
AcDbEntity
  8
10000_FRONT
  6
Continuous
 62
     7
370
    15
100
AcDbLine
 39
0.25
 10
218.7350199211303
 20
188.3113459198328
 30
0.0
 11
216.4643199211301
 21
188.3113459198328
 31
0.0
1001
AUSTER_ANSICHT
1002
{
1000
Det03
1002
}
1001
AUSTER_FOLIE
1002
{
1000
NSB01341_3RS10_24POL
1002
}
  0
LINE
  5
5320
330
1F
100
AcDbEntity
  8
10000_FRONT
  6
Continuous
 62
     7
370
    15
100
AcDbLine
 39
0.25
 10
218.7350199211303
 20
189.4838459198327
 30
0.0
 11
218.7350199211303
 21
188.3113459198328
 31
0.0
1001
AUSTER_ANSICHT
1002
{
1000
Det03
1002
}
1001
AUSTER_FOLIE
1002
{
1000
NSB01341_3RS10_24POL
1002
}
  0
LINE
  5
5321
330
1F
100
AcDbEntity
  8
10000_FRONT
  6
Continuous
 62
     7
370
    15
100
AcDbLine
 39
0.25
 10
219.7650199211305
 20
188.3113459198328
 30
0.0
 11
219.7650199211305
 21
189.4838459198327
 31
0.0
1001
AUSTER_ANSICHT
1002
{
1000
Det03
1002
}
1001
AUSTER_FOLIE
1002
{
1000
NSB01341_3RS10_24POL
1002
}
  0
LINE
  5
5322
330
1F
100
AcDbEntity
  8
10000_FRONT
  6
Continuous
 62
     7
370
    15
100
AcDbLine
 39
0.25
 10
219.7650199211305
 20
185.9301459198328
 30
0.0
 11
219.7650199211305
 21
187.1026459198328
 31
0.0
1001
AUSTER_ANSICHT
1002
{
1000
Det03
1002
}
1001
AUSTER_FOLIE
1002
{
1000
NSB01341_3RS10_24POL
1002
}
  0
LINE
  5
5323
330
1F
100
AcDbEntity
  8
10000_FRONT
  6
Continuous
 62
     7
370
    15
100
AcDbLine
 39
0.25
 10
218.7350199211303
 20
187.1026459198328
 30
0.0
 11
218.7350199211303
 21
185.9301459198328
 31
0.0
1001
AUSTER_ANSICHT
1002
{
1000
Det03
1002
}
1001
AUSTER_FOLIE
1002
{
1000
NSB01341_3RS10_24POL
1002
}
  0
CIRCLE
  5
5324
330
1F
100
AcDbEntity
  8
10000_FRONT
  6
Continuous
 62
     7
370
    15
100
AcDbCircle
 39
0.25
 10
219.2500199211304
 20
187.7069459198328
 30
0.0
 40
3.1
1001
AUSTER_ANSICHT
1002
{
1000
Det03
1002
}
1001
AUSTER_FOLIE
1002
{
1000
NSB01341_3RS10_24POL
1002
}
  0
ARC
  5
5325
330
1F
100
AcDbEntity
  8
10000_FRONT
  6
Continuous
 62
     7
370
    15
100
AcDbCircle
 39
0.25
 10
219.2500199211304
 20
187.7069459198328
 30
0.0
 40
1.85
100
AcDbArc
 50
73.83654999999679
 51
106.1633999999998
1001
AUSTER_ANSICHT
1002
{
1000
Det03
1002
}
1001
AUSTER_FOLIE
1002
{
1000
NSB01341_3RS10_24POL
1002
}
  0
ARC
  5
5326
330
1F
100
AcDbEntity
  8
10000_FRONT
  6
Continuous
 62
     7
370
    15
100
AcDbCircle
 39
0.25
 10
219.2500199211304
 20
187.7069459198328
 30
0.0
 40
1.85
100
AcDbArc
 50
253.8365999999996
 51
286.1633999999999
1001
AUSTER_ANSICHT
1002
{
1000
Det03
1002
}
1001
AUSTER_FOLIE
1002
{
1000
NSB01341_3RS10_24POL
1002
}
  0
ARC
  5
5327
330
1F
100
AcDbEntity
  8
10000_FRONT
  6
Continuous
 62
     7
370
    15
100
AcDbCircle
 39
0.25
 10
219.2500199211304
 20
187.7069459198328
 30
0.0
 40
2.850490999999998
100
AcDbArc
 50
347.7603999999987
 51
12.2396000000013
1001
AUSTER_ANSICHT
1002
{
1000
Det03
1002
}
1001
AUSTER_FOLIE
1002
{
1000
NSB01341_3RS10_24POL
1002
}
  0
ARC
  5
5328
330
1F
100
AcDbEntity
  8
10000_FRONT
  6
Continuous
 62
     7
370
    15
100
AcDbCircle
 39
0.25
 10
219.2500199211304
 20
187.7069459198328
 30
0.0
 40
2.850490999999998
100
AcDbArc
 50
167.7603999999987
 51
192.2396000000013
1001
AUSTER_ANSICHT
1002
{
1000
Det03
1002
}
1001
AUSTER_FOLIE
1002
{
1000
NSB01341_3RS10_24POL
1002
}
  0
DIMENSION
  5
5329
102
{ACAD_XDICTIONARY
360
5336
102
}
102
{ACAD_REACTORS
330
5340
102
}
330
1F
100
AcDbEntity
  8
10000_FRONT
  6
Continuous
 62
     7
370
    15
100
AcDbDimension
  2
*D2
 10
224.4500199211304
 20
161.7652675677471
 30
0.0
 11
202.1387058761198
 21
161.7652675677471
 31
0.0
 70
    32
 71
     5
 42
44.62262809002123
  3
DSTYLE1
100
AcDbAlignedDimension
 13
179.8273918311091
 23
178.6383660877001
 33
0.0
 14
224.4500199211304
 24
179.2069459198328
 34
0.0
100
AcDbRotatedDimension
1001
ACAD
1000
DSTYLE
1002
{
1070
    41
1040
2.0
1070
    42
1040
1.0
1070
    43
1040
1.0
1070
    47
1040
0.005
1070
    48
1040
-0.005
1070
    77
1070
     0
1070
    78
1070
     0
1070
   140
1040
3.5
1070
   143
1040
25.4
1070
   171
1070
     0
1070
   172
1070
     1
1070
   271
1070
     0
1070
   272
1070
     1
1070
   277
1070
     6
1070
   279
1070
     0
1002
}
  0
DIMENSION
  5
5341
102
{ACAD_XDICTIONARY
360
5350
102
}
102
{ACAD_REACTORS
330
535C
102
}
330
1F
100
AcDbEntity
  8
10100_FRONT_DIM
  6
Continuous
 62
     7
370
    13
100
AcDbDimension
  2
*D3
 10
184.8676581186385
 20
169.7836052186252
 30
0.0
 11
170.0668022739223
 21
169.7836052186252
 31
0.0
 70
   160
 71
     5
 42
5.217522511382808
  3
DSTYLE1
100
AcDbAlignedDimension
 13
179.6501356072556
 23
178.5667354343927
 33
0.0
 14
184.8676581186385
 24
184.6169340995205
 34
0.0
100
AcDbRotatedDimension
1001
ACAD
1000
DSTYLE
1002
{
1070
    41
1040
2.0
1070
    42
1040
1.0
1070
    43
1040
1.0
1070
    47
1040
0.005
1070
    48
1040
-0.005
1070
    77
1070
     0
1070
    78
1070
     0
1070
   140
1040
3.5
1070
   143
1040
25.4
1070
   171
1070
     0
1070
   172
1070
     1
1070
   271
1070
     0
1070
   272
1070
     1
1070
   277
1070
     6
1070
   279
1070
     0
1002
}
  0
DIMENSION
  5
5368
102
{ACAD_XDICTIONARY
360
5376
102
}
102
{ACAD_REACTORS
330
5381
102
}
330
1F
100
AcDbEntity
  8
10100_FRONT_DIM
  6
Continuous
 62
     7
370
    13
100
AcDbDimension
  2
*D4
 10
193.4593605850185
 20
169.7836052186252
 30
0.0
 11
197.6260272516853
 21
169.7836052186252
 31
0.0
 70
    32
 71
     5
 42
8.591702466380155
  3
DSTYLE1
100
AcDbAlignedDimension
 13
184.8676581186385
 23
183.9919340995205
 33
0.0
 14
193.4593605850185
 24
184.5805408187871
 34
0.0
100
AcDbRotatedDimension
1001
ACAD
1000
DSTYLE
1002
{
1070
    41
1040
2.0
1070
    42
1040
1.0
1070
    43
1040
1.0
1070
    47
1040
0.005
1070
    48
1040
-0.005
1070
    77
1070
     0
1070
    78
1070
     0
1070
   140
1040
3.5
1070
   143
1040
25.4
1070
   171
1070
     0
1070
   172
1070
     1
1070
   271
1070
     0
1070
   272
1070
     1
1070
   277
1070
     6
1070
   279
1070
     0
1002
}
  0
DIMENSION
  5
53A1
102
{ACAD_XDICTIONARY
360
53AE
102
}
102
{ACAD_REACTORS
330
53B8
102
}
330
1F
100
AcDbEntity
  8
11100_LEFT_DIM
  6
Continuous
 62
     7
370
    13
100
AcDbDimension
  2
*D5
 10
320.7378985070489
 20
169.7836052186252
 30
0.0
 11
288.0459776289195
 21
169.7836052186252
 31
0.0
 70
    32
 71
     5
 42
65.38384175625868
  3
DSTYLE1
100
AcDbAlignedDimension
 13
255.3540567507901
 23
178.2069459198328
 33
0.0
 14
320.7378985070489
 24
183.1259611008401
 34
0.0
100
AcDbRotatedDimension
1001
ACAD
1000
DSTYLE
1002
{
1070
    41
1040
2.0
1070
    42
1040
1.0
1070
    43
1040
1.0
1070
    47
1040
0.005
1070
    48
1040
-0.005
1070
    77
1070
     0
1070
    78
1070
     0
1070
   140
1040
3.5
1070
   143
1040
25.4
1070
   171
1070
     0
1070
   172
1070
     1
1070
   271
1070
     0
1070
   272
1070
     1
1070
   277
1070
     6
1070
   279
1070
     0
1002
}
  0
DIMENSION
  5
53C2
102
{ACAD_XDICTIONARY
360
53CF
102
}
102
{ACAD_REACTORS
330
53D9
102
}
330
1F
100
AcDbEntity
  8
10000_FRONT
  6
Continuous
 62
     7
370
    15
100
AcDbDimension
  2
*D6
 10
232.3930580051869
 20
218.2069459198328
 30
0.0
 11
232.3930580051868
 21
198.2069459198328
 31
0.0
 70
    32
 71
     5
 42
40.0
  3
DSTYLE1
100
AcDbAlignedDimension
 13
223.4500199211304
 23
178.2069459198328
 33
0.0
 14
223.4500199211304
 24
218.2069459198328
 34
0.0
 50
90.0
100
AcDbRotatedDimension
1001
ACAD
1000
DSTYLE
1002
{
1070
    41
1040
2.0
1070
    42
1040
1.0
1070
    43
1040
1.0
1070
    47
1040
0.005
1070
    48
1040
-0.005
1070
    77
1070
     0
1070
    78
1070
     0
1070
   140
1040
3.5
1070
   143
1040
25.4
1070
   171
1070
     0
1070
   172
1070
     1
1070
   271
1070
     0
1070
   272
1070
     1
1070
   277
1070
     6
1070
   279
1070
     0
1002
}
  0
DIMENSION
  5
53DA
102
{ACAD_XDICTIONARY
360
53E7
102
}
102
{ACAD_REACTORS
330
53F1
102
}
330
1F
100
AcDbEntity
  8
10000_FRONT
  6
Continuous
 62
     7
370
    15
100
AcDbDimension
  2
*D7
 10
238.7759200119303
 20
232.7069459198328
 30
0.0
 11
238.7759200119302
 21
205.4569459198329
 31
0.0
 70
    32
  1
54
 71
     5
 42
54.5
  3
DSTYLE1
100
AcDbAlignedDimension
 13
223.4500199211304
 23
178.2069459198328
 33
0.0
 14
222.2000199211304
 24
232.7069459198328
 34
0.0
 50
90.0
100
AcDbRotatedDimension
1001
ACAD
1000
DSTYLE
1002
{
1070
    41
1040
2.0
1070
    42
1040
1.0
1070
    43
1040
1.0
1070
    47
1040
0.005
1070
    48
1040
-0.005
1070
    77
1070
     0
1070
    78
1070
     0
1070
   140
1040
3.5
1070
   143
1040
25.4
1070
   171
1070
     0
1070
   172
1070
     1
1070
   271
1070
     0
1070
   272
1070
     1
1070
   277
1070
     6
1070
   279
1070
     0
1002
}
  0
LINE
  5
53F2
330
1F
100
AcDbEntity
  8
11000_Left
  6
Continuous
 62
     7
370
    15
100
AcDbLine
 10
310.3540567507902
 20
213.5069459198329
 30
0.0
 11
306.7540567507902
 21
213.5069459198329
 31
0.0
  0
LINE
  5
53F3
330
1F
100
AcDbEntity
  8
11000_Left
  6
Continuous
 62
     7
370
    15
100
AcDbLine
 10
315.8540567507902
 20
218.2069459198328
 30
0.0
 11
314.2540567507902
 21
218.2069459198328
 31
0.0
  0
LINE
  5
53F4
330
1F
100
AcDbEntity
  8
11000_Left
  6
Continuous
 62
     7
370
    15
100
AcDbLine
 10
315.8540567507902
 20
212.5069459198329
 30
0.0
 11
315.8540567507902
 21
178.2069459198328
 31
0.0
  0
LINE
  5
5557
330
1F
100
AcDbEntity
  8
11000_Left
  6
Continuous
 62
     7
370
    50
100
AcDbLine
 10
257.8540567507901
 20
178.2069459198328
 30
0.0
 11
257.8540567507901
 21
183.0069459198328
 31
0.0
  0
LINE
  5
5558
102
{ACAD_REACTORS
330
53B8
102
}
330
1F
100
AcDbEntity
  8
11000_Left
  6
Continuous
 62
     7
370
    50
100
AcDbLine
 10
257.8540567507901
 20
183.0069459198328
 30
0.0
 11
297.5540567507901
 21
183.0069459198329
 31
0.0
  0
LINE
  5
5559
330
1F
100
AcDbEntity
  8
11000_Left
  6
Continuous
 62
     7
370
    50
100
AcDbLine
 10
297.5540567507901
 20
178.2069459198328
 30
0.0
 11
297.5540567507901
 21
183.0069459198329
 31
0.0
  0
LINE
  5
555A
330
1F
100
AcDbEntity
  8
11000_Left
  6
Continuous
 62
     7
370
    50
100
AcDbLine
 10
297.5540567507901
 20
178.2069459198328
 30
0.0
 11
319.2033567507902
 21
178.2069459198329
 31
0.0
  0
ENDSEC
  0
SECTION
  2
OBJECTS
  0
DICTIONARY
  5
C
330
0
100
AcDbDictionary
281
     1
  3
ACAD_CIP_PREVIOUS_PRODUCT_INFO
350
54E5
  3
ACAD_COLOR
350
6B
  3
ACAD_GROUP
350
D
  3
ACAD_LAYOUT
350
1A
  3
ACAD_MATERIAL
350
6A
  3
ACAD_MLEADERSTYLE
350
54E2
  3
ACAD_MLINESTYLE
350
17
  3
ACAD_PLOTSETTINGS
350
19
  3
ACAD_PLOTSTYLENAME
350
E
  3
ACAD_SCALELIST
350
54D0
  3
ACAD_TABLESTYLE
350
B36
  3
ACAD_VISUALSTYLE
350
B25
  3
ACDB_RECOMPOSE_DATA
350
556F
  3
AcDbVariableDictionary
350
5E
  3
AcmDictionary
350
5511
  3
AMG
350
54F9
  3
AMGSNAPSETTINGS
350
5546
  3
DWGPROPS
350
5570
  0
DICTIONARY
  5
5488
330
2
100
AcDbDictionary
280
     1
281
     1
  3
ACAD_LAYERFILTERS
360
5497
  3
ACLYDICTIONARY
360
5496
  0
DICTIONARY
  5
555C
330
10
100
AcDbDictionary
280
     1
281
     1
  3
ADSK_XREC_LAYER_RECONCILED
360
555D
  0
DICTIONARY
  5
555E
330
1B5
100
AcDbDictionary
280
     1
281
     1
  3
ADSK_XREC_LAYER_RECONCILED
360
555F
  0
DICTIONARY
  5
5560
330
1B6
100
AcDbDictionary
280
     1
281
     1
  3
ADSK_XREC_LAYER_RECONCILED
360
5561
  0
DICTIONARY
  5
5562
330
1B7
100
AcDbDictionary
280
     1
281
     1
  3
ADSK_XREC_LAYER_RECONCILED
360
5563
  0
DICTIONARY
  5
5564
330
1B8
100
AcDbDictionary
280
     1
281
     1
  3
ADSK_XREC_LAYER_RECONCILED
360
5565
  0
DICTIONARY
  5
5566
330
1B9
100
AcDbDictionary
280
     1
281
     1
  3
ADSK_XREC_LAYER_RECONCILED
360
5567
  0
DICTIONARY
  5
5568
330
1BA
100
AcDbDictionary
280
     1
281
     1
  3
ADSK_XREC_LAYER_RECONCILED
360
5569
  0
DICTIONARY
  5
1DCF
330
1F
100
AcDbDictionary
280
     1
281
     1
  3
ACAD_SORTENTS
360
1DD0
  0
DICTIONARY
  5
5336
330
5329
100
AcDbDictionary
280
     1
281
     1
  3
ACAD_DIMASSOC
360
5340
  0
DICTIONARY
  5
5350
330
5341
100
AcDbDictionary
280
     1
281
     1
  3
ACAD_DIMASSOC
360
535C
  0
DICTIONARY
  5
5376
330
5368
100
AcDbDictionary
280
     1
281
     1
  3
ACAD_DIMASSOC
360
5381
  0
DICTIONARY
  5
53AE
330
53A1
100
AcDbDictionary
280
     1
281
     1
  3
ACAD_DIMASSOC
360
53B8
  0
DICTIONARY
  5
53CF
330
53C2
100
AcDbDictionary
280
     1
281
     1
  3
ACAD_DIMASSOC
360
53D9
  0
DICTIONARY
  5
53E7
330
53DA
100
AcDbDictionary
280
     1
281
     1
  3
ACAD_DIMASSOC
360
53F1
  0
XRECORD
  5
54E5
102
{ACAD_REACTORS
330
C
102
}
330
C
100
AcDbXrecord
280
     1
300
AMECH_PP
300
2012
300
85795PDSP_2012_0F
  0
DICTIONARY
  5
6B
102
{ACAD_REACTORS
330
C
102
}
330
C
100
AcDbDictionary
281
     1
  0
DICTIONARY
  5
D
102
{ACAD_REACTORS
330
C
102
}
330
C
100
AcDbDictionary
281
     1
  0
DICTIONARY
  5
1A
102
{ACAD_REACTORS
330
C
102
}
330
C
100
AcDbDictionary
281
     1
  3
Layout1
350
51
  3
Layout2
350
56
  3
Model
350
22
  0
DICTIONARY
  5
6A
102
{ACAD_REACTORS
330
C
102
}
330
C
100
AcDbDictionary
281
     1
  3
ByBlock
350
B23
  3
ByLayer
350
B22
  3
Global
350
B24
  0
DICTIONARY
  5
54E2
102
{ACAD_REACTORS
330
C
102
}
330
C
100
AcDbDictionary
281
     1
  3
Standard
350
54E3
  0
DICTIONARY
  5
17
102
{ACAD_REACTORS
330
C
102
}
330
C
100
AcDbDictionary
281
     1
  3
Standard
350
18
  0
DICTIONARY
  5
19
102
{ACAD_REACTORS
330
C
102
}
330
C
100
AcDbDictionary
281
     1
  0
ACDBDICTIONARYWDFLT
  5
E
102
{ACAD_REACTORS
330
C
102
}
330
C
100
AcDbDictionary
281
     1
  3
Normal
350
F
100
AcDbDictionaryWithDefault
340
F
  0
DICTIONARY
  5
54D0
102
{ACAD_REACTORS
330
C
102
}
330
C
100
AcDbDictionary
281
     1
  3
A0
350
54D1
  3
A1
350
54D2
  3
A2
350
54D3
  3
A3
350
54D4
  3
A4
350
54D5
  3
A5
350
54D6
  3
A6
350
54D7
  3
A7
350
54D8
  3
A8
350
54D9
  3
A9
350
54DA
  3
B0
350
54DB
  3
B1
350
54DC
  3
B2
350
54DD
  3
B3
350
54DE
  3
B4
350
54DF
  3
B5
350
54E0
  3
B6
350
54E1
  0
DICTIONARY
  5
B36
102
{ACAD_REACTORS
330
C
102
}
330
C
100
AcDbDictionary
281
     1
  3
Standard
350
B37
  0
DICTIONARY
  5
B25
102
{ACAD_REACTORS
330
C
102
}
330
C
100
AcDbDictionary
281
     1
  3
2dWireframe
350
B2B
  3
3D Hidden
350
1DFB
  3
3dWireframe
350
1DFA
  3
Basic
350
B2A
  3
Brighten
350
B31
  3
ColorChange
350
B35
  3
Conceptual
350
1DFC
  3
Dim
350
B30
  3
EdgeColorOff
350
54CF
  3
Facepattern
350
B34
  3
Flat
350
B26
  3
FlatWithEdges
350
B27
  3
Gouraud
350
B28
  3
GouraudWithEdges
350
B29
  3
Hidden
350
54C7
  3
JitterOff
350
54CD
  3
Linepattern
350
B33
  3
OverhangOff
350
54CE
  3
Realistic
350
1DFD
  3
Shaded
350
54CC
  3
Shaded with edges
350
54CB
  3
Shades of Gray
350
54C8
  3
Sketchy
350
54C9
  3
Thicken
350
B32
  3
Wireframe
350
54C6
  3
X-Ray
350
54CA
  0
XRECORD
  5
556F
102
{ACAD_REACTORS
330
C
102
}
330
C
100
AcDbXrecord
280
     1
 90
        1
330
B37
  0
DICTIONARY
  5
5E
102
{ACAD_REACTORS
330
C
102
}
330
C
100
AcDbDictionary
281
     1
  3
CANNOSCALE
350
556B
  3
CMLEADERSTYLE
350
556A
  3
CTABLESTYLE
350
B39
  3
DIMASSOC
350
5F
  3
HIDETEXT
350
63
  3
INDEXCTL
350
1D29
  3
PROJECTNAME
350
B07
  3
SORTENTS
350
1D28
  3
XCLIPFRAME
350
556C
  0
DICTIONARY
  5
5511
102
{ACAD_REACTORS
330
C
102
}
330
C
100
AcDbDictionary
281
     1
  3
AcmStdDictionary
350
5518
  0
DICTIONARY
  5
54F9
102
{ACAD_REACTORS
330
C
102
}
330
C
100
AcDbDictionary
281
     1
  0
DICTIONARY
  5
5546
102
{ACAD_REACTORS
330
C
102
}
330
C
100
AcDbDictionary
281
     1
  0
XRECORD
  5
5570
102
{ACAD_REACTORS
330
C
102
}
330
C
100
AcDbXrecord
280
     1
  1
DWGPROPS COOKIE
  2

  3

  4

  6

  7

  8
chpf
  9

300
=
301
=
302
=
303
=
304
=
305
=
306
=
307
=
308
=
309
=
 40
0.5432854050925926
 41
2453928.282094711
 42
2456491.607888415
  1

 90
        0
  0
DICTIONARY
  5
5497
102
{ACAD_REACTORS
330
5488
102
}
330
5488
100
AcDbDictionary
281
     1
  0
DICTIONARY
  5
5496
102
{ACAD_REACTORS
330
5488
102
}
330
5488
100
AcDbDictionary
281
     1
1001
ACAD
1000
<All
  0
XRECORD
  5
555D
102
{ACAD_REACTORS
330
555C
102
}
330
555C
100
AcDbXrecord
280
     1
290
     1
  0
XRECORD
  5
555F
102
{ACAD_REACTORS
330
555E
102
}
330
555E
100
AcDbXrecord
280
     1
290
     1
  0
XRECORD
  5
5561
102
{ACAD_REACTORS
330
5560
102
}
330
5560
100
AcDbXrecord
280
     1
290
     1
  0
XRECORD
  5
5563
102
{ACAD_REACTORS
330
5562
102
}
330
5562
100
AcDbXrecord
280
     1
290
     1
  0
XRECORD
  5
5565
102
{ACAD_REACTORS
330
5564
102
}
330
5564
100
AcDbXrecord
280
     1
290
     1
  0
XRECORD
  5
5567
102
{ACAD_REACTORS
330
5566
102
}
330
5566
100
AcDbXrecord
280
     1
290
     1
  0
XRECORD
  5
5569
102
{ACAD_REACTORS
330
5568
102
}
330
5568
100
AcDbXrecord
280
     1
290
     1
  0
SORTENTSTABLE
  5
1DD0
102
{ACAD_REACTORS
330
1DCF
102
}
330
1DCF
100
AcDbSortentsTable
330
1F
331
40AF
  5
40AF
331
40AB
  5
40AB
331
40E6
  5
40E6
331
4D9E
  5
4D9E
331
40E2
  5
40E2
331
4DD5
  5
4DF7
331
52FC
  5
5303
331
52F8
  5
52FF
331
59E
  5
59E
331
40A7
  5
40A7
331
555A
  5
52ED
331
40A3
  5
40A3
331
40DE
  5
40DE
331
40DA
  5
40DA
331
409B
  5
409B
331
3978
  5
3978
331
435F
  5
435F
331
40D6
  5
40D6
331
4BFE
  5
4BFE
331
4DCD
  5
4DCE
331
40D2
  5
40D2
331
52F4
  5
52FB
331
4DC9
  5
4DCA
331
5327
  5
53DA
331
52F0
  5
52F7
331
4BEE
  5
4BEE
331
5323
  5
5341
331
4BEA
  5
4BEA
331
3B4B
  5
3B4B
331
40CE
  5
40CE
331
5B4
  5
5B4
331
40CA
  5
40CA
331
53F3
  5
4DBD
331
5B0
  5
5B0
331
40C6
  5
40C6
331
531F
  5
5326
331
4BE6
  5
4BE6
331
4DBD
  5
4DBE
331
40C2
  5
40C2
331
531B
  5
5322
331
52EC
  5
52F3
331
5317
  5
531E
331
52E8
  5
52EF
331
4DB5
  5
4DB5
331
5313
  5
531A
331
3B47
  5
3B47
331
5AC
  5
5AC
331
3B43
  5
3B43
331
3B3F
  5
3B3F
331
40BE
  5
40BE
331
5A8
  5
5A8
331
5A4
  5
5A4
331
40BA
  5
40BA
331
5A0
  5
5A0
331
40B6
  5
40B6
331
530F
  5
5316
331
4DAD
  5
4DAD
331
40B2
  5
40B2
331
530B
  5
5312
331
52DC
  5
52E9
331
5307
  5
530E
331
52D8
  5
52DA
331
5303
  5
530A
331
4DA1
  5
4DA1
331
3B37
  5
3B37
331
3AC7
  5
3AC7
331
40AE
  5
40AE
331
40AA
  5
40AA
331
40E5
  5
40E5
331
40E1
  5
40E1
331
4D9D
  5
4D9D
331
52FF
  5
5306
331
4DD4
  5
4DD7
331
52FB
  5
5302
331
59D
  5
59D
331
53DA
  5
555A
331
3A57
  5
3A57
331
40A6
  5
40A6
331
5559
  5
52DC
331
40DD
  5
40DD
331
40D9
  5
40D9
331
40D5
  5
40D5
331
52F7
  5
52FE
331
40D1
  5
40D1
331
52F3
  5
52FA
331
5326
  5
53C2
331
4BED
  5
4BED
331
5322
  5
5329
331
4BE9
  5
4BE9
331
53C2
  5
5559
331
1D27
  5
1D63
331
3B4A
  5
3B4A
331
40CD
  5
40CD
331
5B3
  5
5B3
331
40C9
  5
40C9
331
53F2
  5
4DD4
331
40C5
  5
40C5
331
531E
  5
5325
331
52EF
  5
52F6
331
4DBC
  5
4DBC
331
40C1
  5
40C1
331
531A
  5
5321
331
52EB
  5
52F2
331
5316
  5
531D
331
5312
  5
5319
331
4DB0
  5
4DB0
331
5AF
  5
5AF
331
3B46
  5
3B46
331
5AB
  5
5AB
331
3B42
  5
3B42
331
3B3E
  5
3B3E
331
40BD
  5
40BD
331
5A7
  5
5A7
331
5A3
  5
5A3
331
40B9
  5
40B9
331
40B5
  5
40B5
331
412C
  5
412C
331
530E
  5
5315
331
52DF
  5
52EC
331
4DAC
  5
4DAC
331
40B1
  5
40B1
331
530A
  5
5311
331
52DB
  5
52E8
331
5306
  5
530D
331
4DA4
  5
4DA4
331
5302
  5
5309
331
4DA0
  5
4DA0
331
40EC
  5
40EC
331
40AD
  5
40AD
331
40E8
  5
40E8
331
40A9
  5
40A9
331
40E4
  5
40E4
331
4DD7
  5
52D5
331
52FE
  5
5305
331
4C04
  5
4C04
331
4DD3
  5
4DD5
331
52FA
  5
5301
331
53A1
  5
5558
331
59C
  5
59C
331
40A5
  5
40A5
331
5558
  5
52EE
331
40DC
  5
40DC
331
42F6
  5
42F6
331
40D8
  5
40D8
331
40D4
  5
40D4
331
40D0
  5
40D0
331
52F6
  5
52FD
331
4DCB
  5
4DCD
331
52F2
  5
52F9
331
4DC7
  5
4DC9
331
4DC3
  5
4DC6
331
5325
  5
53A1
331
4BEC
  5
4BEC
331
5321
  5
5328
331
4BE8
  5
4BE8
331
5329
  5
53F3
331
3B49
  5
3B49
331
40CC
  5
40CC
331
5B2
  5
5B2
331
40C8
  5
40C8
331
40C4
  5
40C4
331
531D
  5
5324
331
52EE
  5
52F5
331
40C0
  5
40C0
331
5319
  5
5320
331
52EA
  5
52F1
331
4DB7
  5
4DB7
331
5315
  5
531C
331
5311
  5
5318
331
5341
  5
53F4
331
5AE
  5
5AE
331
3B45
  5
3B45
331
3B41
  5
3B41
331
5AA
  5
5AA
331
40BC
  5
40BC
331
5A6
  5
5A6
331
5A2
  5
5A2
331
40B8
  5
40B8
331
4DAF
  5
4DAF
331
40B4
  5
40B4
331
530D
  5
5314
331
52DE
  5
52EA
331
4DAB
  5
4DAB
331
40B0
  5
40B0
331
5309
  5
5310
331
52DA
  5
52DF
331
5305
  5
530C
331
4DA3
  5
4DA3
331
52D6
  5
52D9
331
5301
  5
5308
331
40AC
  5
40AC
331
40E7
  5
40E7
331
40A8
  5
40A8
331
4192
  5
4192
331
40E3
  5
40E3
331
42F9
  5
42F9
331
52FD
  5
5304
331
52F9
  5
5300
331
59F
  5
59F
331
5557
  5
52DB
331
40DB
  5
40DB
331
40D7
  5
40D7
331
4BFF
  5
4BFF
331
4DCE
  5
4DD3
331
40D3
  5
40D3
331
52F5
  5
52FC
331
4DCA
  5
4DCB
331
4DC6
  5
4DC7
331
52F1
  5
52F8
331
4BEF
  5
4BEF
331
5324
  5
5368
331
4BEB
  5
4BEB
331
5320
  5
5327
331
5328
  5
53F2
331
3B4C
  5
3B4C
331
40CF
  5
40CF
331
3B48
  5
3B48
331
53F4
  5
52EB
331
40CB
  5
40CB
331
5B1
  5
5B1
331
40C7
  5
40C7
331
4BE7
  5
4BE7
331
4DBE
  5
4DC3
331
40C3
  5
40C3
331
531C
  5
5323
331
52ED
  5
52F4
331
5318
  5
531F
331
52E9
  5
52F0
331
4DB6
  5
4DB6
331
5314
  5
531B
331
4DB2
  5
4DB2
331
5310
  5
5317
331
5368
  5
5557
331
5AD
  5
5AD
331
3B44
  5
3B44
331
3B40
  5
3B40
331
40BF
  5
40BF
331
5A9
  5
5A9
331
5A5
  5
5A5
331
40BB
  5
40BB
331
5A1
  5
5A1
331
40B7
  5
40B7
331
3B38
  5
3B38
331
4DAE
  5
4DAE
331
40B3
  5
40B3
331
530C
  5
5313
331
4DAA
  5
4DAA
331
5308
  5
530F
331
52D9
  5
52DE
331
5304
  5
530B
331
4DA2
  5
4DA2
331
52D5
  5
52D8
331
5300
  5
5307
  0
DIMASSOC
  5
5340
102
{ACAD_REACTORS
330
5336
102
}
330
5336
100
AcDbDimAssoc
330
5329
 90
        3
 70
     0
 71
     0
  1
AcDbOsnapPointRef
 72
     8
331
3B43
 73
     2
 91
        0
 40
3.156803725604403
 10
0.0
 20
0.0
 30
0.0
 75
     1
  1
AcDbOsnapPointRef
 72
     0
 40
0.0
 10
403.4756504465708
 20
333.2184137214771
 30
0.0
 75
     0
  1
AcDbOsnapPointRef
 72
     1
331
3B41
 73
     2
 91
        0
 40
6.283185307179584
 10
0.0
 20
0.0
 30
2.000000000000000E+50
 75
     0
  0
DIMASSOC
  5
535C
102
{ACAD_REACTORS
330
5350
102
}
330
5350
100
AcDbDimAssoc
330
5341
 90
        2
 70
     0
 71
     0
  1
AcDbOsnapPointRef
 72
     5
331
52F0
 73
     2
 91
        0
 40
4.712388980384688
 10
0.0
 20
0.0
 30
0.0
 75
     0
  0
DIMASSOC
  5
5381
102
{ACAD_REACTORS
330
5376
102
}
330
5376
100
AcDbDimAssoc
330
5368
 90
        2
 70
     0
 71
     0
  1
AcDbOsnapPointRef
 72
     5
331
52FD
 73
     2
 91
        0
 40
4.712388980384688
 10
0.0
 20
0.0
 30
0.0
 75
     0
  0
DIMASSOC
  5
53B8
102
{ACAD_REACTORS
330
53AE
102
}
330
53AE
100
AcDbDimAssoc
330
53A1
 90
        1
 70
     0
 71
     0
  1
AcDbOsnapPointRef
 72
    13
331
52DF
 73
     2
 91
        0
 40
0.0
 10
0.0
 20
0.0
 30
2.000000000000000E+50
 75
     0
  0
DIMASSOC
  5
53D9
102
{ACAD_REACTORS
330
53CF
102
}
330
53CF
100
AcDbDimAssoc
330
53C2
 90
        3
 70
     0
 71
     0
  1
AcDbOsnapPointRef
 72
    13
331
3B42
 73
     2
 91
        0
 40
0.0
 10
0.0
 20
0.0
 30
2.000000000000000E+50
 75
     0
  1
AcDbOsnapPointRef
 72
     8
331
3B3F
 73
     2
 91
        0
 40
0.9930875576036875
 10
0.0
 20
0.0
 30
0.0
 75
     1
  1
AcDbOsnapPointRef
 72
    13
331
3B42
 73
     2
 91
        0
 40
0.0
 10
0.0
 20
0.0
 30
2.000000000000000E+50
 75
     0
  0
DIMASSOC
  5
53F1
102
{ACAD_REACTORS
330
53E7
102
}
330
53E7
100
AcDbDimAssoc
330
53DA
 90
        3
 70
     0
 71
     0
  1
AcDbOsnapPointRef
 72
    13
331
3B42
 73
     2
 91
        0
 40
0.0
 10
0.0
 20
0.0
 30
2.000000000000000E+50
 75
     0
  1
AcDbOsnapPointRef
 72
     1
331
4BEF
 73
     2
 91
        0
 40
1.0
 10
0.0
 20
0.0
 30
2.000000000000000E+50
 75
     0
  0
LAYOUT
  5
51
102
{ACAD_XDICTIONARY
360
5573
102
}
102
{ACAD_REACTORS
330
1A
102
}
330
1A
100
AcDbPlotSettings
  1

  2
None
  4

  6

 40
0.0
 41
0.0
 42
0.0
 43
0.0
 44
0.0
 45
0.0
 46
0.0
 47
0.0
 48
0.0
 49
0.0
140
0.0
141
0.0
142
1.0
143
1.0
 70
   688
 72
     0
 73
     0
 74
     5
  7

 75
    16
147
1.0
148
0.0
149
0.0
100
AcDbLayout
  1
Layout1
 70
     1
 71
     1
 10
0.0
 20
0.0
 11
12.0
 21
9.0
 12
0.0
 22
0.0
 32
0.0
 14
0.0
 24
0.0
 34
0.0
 15
0.0
 25
0.0
 35
0.0
146
0.0
 13
0.0
 23
0.0
 33
0.0
 16
1.0
 26
0.0
 36
0.0
 17
0.0
 27
1.0
 37
0.0
 76
     0
330
50
  0
LAYOUT
  5
56
102
{ACAD_XDICTIONARY
360
5575
102
}
102
{ACAD_REACTORS
330
1A
102
}
330
1A
100
AcDbPlotSettings
  1

  2
None
  4

  6

 40
0.0
 41
0.0
 42
0.0
 43
0.0
 44
0.0
 45
0.0
 46
0.0
 47
0.0
 48
0.0
 49
0.0
140
0.0
141
0.0
142
1.0
143
1.0
 70
   688
 72
     0
 73
     0
 74
     5
  7

 75
    16
147
1.0
148
0.0
149
0.0
100
AcDbLayout
  1
Layout2
 70
     1
 71
     2
 10
0.0
 20
0.0
 11
12.0
 21
9.0
 12
0.0
 22
0.0
 32
0.0
 14
0.0
 24
0.0
 34
0.0
 15
0.0
 25
0.0
 35
0.0
146
0.0
 13
0.0
 23
0.0
 33
0.0
 16
1.0
 26
0.0
 36
0.0
 17
0.0
 27
1.0
 37
0.0
 76
     0
330
55
  0
LAYOUT
  5
22
102
{ACAD_XDICTIONARY
360
5571
102
}
102
{ACAD_REACTORS
330
1A
102
}
330
1A
100
AcDbPlotSettings
  1

  2
\\ambd016a\A_P00390
  4
A4
  6

 40
6.011333465576169
 41
4.233341693878172
 42
6.011322021484375
 43
4.23333740234375
 44
209.9733276367186
 45
296.9259948730469
 46
0.0
 47
0.0
 48
0.0
 49
0.0
140
0.0
141
0.0
142
1.0
143
1.120478845573932
 70
 11952
 72
     1
 73
     1
 74
     0
  7

 75
     0
147
0.8924755732338514
148
-72.60255222484921
149
-79.17712082009773
100
AcDbLayout
  1
Model
 70
     1
 71
     0
 10
0.0
 20
0.0
 11
12.0
 21
9.0
 12
0.0
 22
0.0
 32
0.0
 14
0.0
 24
0.0
 34
0.0
 15
0.0
 25
0.0
 35
0.0
146
0.0
 13
0.0
 23
0.0
 33
0.0
 16
1.0
 26
0.0
 36
0.0
 17
0.0
 27
1.0
 37
0.0
 76
     0
330
1F
331
B14
  0
MATERIAL
  5
B23
102
{ACAD_XDICTIONARY
360
1DF1
102
}
102
{ACAD_REACTORS
330
6A
102
}
330
6A
100
AcDbMaterial
  1
ByBlock
  0
MATERIAL
  5
B22
102
{ACAD_XDICTIONARY
360
1DEF
102
}
102
{ACAD_REACTORS
330
6A
102
}
330
6A
100
AcDbMaterial
  1
ByLayer
  0
MATERIAL
  5
B24
102
{ACAD_XDICTIONARY
360
1DF3
102
}
102
{ACAD_REACTORS
330
6A
102
}
330
6A
100
AcDbMaterial
  1
Global
  0
MLEADERSTYLE
  5
54E3
102
{ACAD_REACTORS
330
54E2
102
}
330
54E2
100
AcDbMLeaderStyle
170
     2
171
     1
172
     0
 90
        2
 40
0.0
 41
0.0
173
     1
 91
-1056964608
340
14
 92
       -2
290
     1
 42
2.0
291
     1
 43
0.36
  3
Standard
 44
4.0
300

342
11
174
     1
178
     6
175
     1
176
     0
 93
-1056964608
 45
4.0
292
     0
297
     0
 46
4.0
 94
-1056964608
 47
1.0
 49
1.0
140
1.0
293
     1
141
0.0
294
     1
177
     0
142
1.0
295
     0
296
     0
143
0.125
1001
ACAD_MLEADERVER
1070
     2
  0
MLINESTYLE
  5
18
102
{ACAD_REACTORS
330
17
102
}
330
17
100
AcDbMlineStyle
  2
STANDARD
 70
     0
  3

 62
   256
 51
90.0
 52
90.0
 71
     2
 49
0.5
 62
   256
  6
BYLAYER
 49
-0.5
 62
   256
  6
BYLAYER
  0
ACDBPLACEHOLDER
  5
F
102
{ACAD_REACTORS
330
E
102
}
330
E
  0
SCALE
  5
54D1
102
{ACAD_REACTORS
330
54D0
102
}
330
54D0
100
AcDbScale
 70
     0
300
1:1
140
1.0
141
1.0
290
     1
  0
SCALE
  5
54D2
102
{ACAD_REACTORS
330
54D0
102
}
330
54D0
100
AcDbScale
 70
     0
300
1:2
140
1.0
141
2.0
290
     0
  0
SCALE
  5
54D3
102
{ACAD_REACTORS
330
54D0
102
}
330
54D0
100
AcDbScale
 70
     0
300
1:4
140
1.0
141
4.0
290
     0
  0
SCALE
  5
54D4
102
{ACAD_REACTORS
330
54D0
102
}
330
54D0
100
AcDbScale
 70
     0
300
1:5
140
1.0
141
5.0
290
     0
  0
SCALE
  5
54D5
102
{ACAD_REACTORS
330
54D0
102
}
330
54D0
100
AcDbScale
 70
     0
300
1:8
140
1.0
141
8.0
290
     0
  0
SCALE
  5
54D6
102
{ACAD_REACTORS
330
54D0
102
}
330
54D0
100
AcDbScale
 70
     0
300
1:10
140
1.0
141
10.0
290
     0
  0
SCALE
  5
54D7
102
{ACAD_REACTORS
330
54D0
102
}
330
54D0
100
AcDbScale
 70
     0
300
1:16
140
1.0
141
16.0
290
     0
  0
SCALE
  5
54D8
102
{ACAD_REACTORS
330
54D0
102
}
330
54D0
100
AcDbScale
 70
     0
300
1:20
140
1.0
141
20.0
290
     0
  0
SCALE
  5
54D9
102
{ACAD_REACTORS
330
54D0
102
}
330
54D0
100
AcDbScale
 70
     0
300
1:30
140
1.0
141
30.0
290
     0
  0
SCALE
  5
54DA
102
{ACAD_REACTORS
330
54D0
102
}
330
54D0
100
AcDbScale
 70
     0
300
1:40
140
1.0
141
40.0
290
     0
  0
SCALE
  5
54DB
102
{ACAD_REACTORS
330
54D0
102
}
330
54D0
100
AcDbScale
 70
     0
300
1:50
140
1.0
141
50.0
290
     0
  0
SCALE
  5
54DC
102
{ACAD_REACTORS
330
54D0
102
}
330
54D0
100
AcDbScale
 70
     0
300
1:100
140
1.0
141
100.0
290
     0
  0
SCALE
  5
54DD
102
{ACAD_REACTORS
330
54D0
102
}
330
54D0
100
AcDbScale
 70
     0
300
2:1
140
2.0
141
1.0
290
     0
  0
SCALE
  5
54DE
102
{ACAD_REACTORS
330
54D0
102
}
330
54D0
100
AcDbScale
 70
     0
300
4:1
140
4.0
141
1.0
290
     0
  0
SCALE
  5
54DF
102
{ACAD_REACTORS
330
54D0
102
}
330
54D0
100
AcDbScale
 70
     0
300
8:1
140
8.0
141
1.0
290
     0
  0
SCALE
  5
54E0
102
{ACAD_REACTORS
330
54D0
102
}
330
54D0
100
AcDbScale
 70
     0
300
10:1
140
10.0
141
1.0
290
     0
  0
SCALE
  5
54E1
102
{ACAD_REACTORS
330
54D0
102
}
330
54D0
100
AcDbScale
 70
     0
300
100:1
140
100.0
141
1.0
290
     0
  0
TABLESTYLE
  5
B37
102
{ACAD_XDICTIONARY
360
556D
102
}
102
{ACAD_REACTORS
330
B36
102
}
330
B36
100
AcDbTableStyle
  3
Standard
 70
     0
 71
     0
 40
1.5
 41
1.5
280
     0
281
     0
  7
Standard
140
4.5
170
     2
 62
     0
 63
     7
283
     0
274
    -2
284
     1
 64
     0
275
    -2
285
     1
 65
     0
276
    -2
286
     1
 66
     0
277
    -2
287
     1
 67
     0
278
    -2
288
     1
 68
     0
279
    -2
289
     1
 69
     0
  7
Standard
140
6.0
170
     5
 62
     0
 63
     7
283
     0
274
    -2
284
     1
 64
     0
275
    -2
285
     1
 65
     0
276
    -2
286
     1
 66
     0
277
    -2
287
     1
 67
     0
278
    -2
288
     1
 68
     0
279
    -2
289
     1
 69
     0
  7
Standard
140
4.5
170
     5
 62
     0
 63
     7
283
     0
274
    -2
284
     1
 64
     0
275
    -2
285
     1
 65
     0
276
    -2
286
     1
 66
     0
277
    -2
287
     1
 67
     0
278
    -2
288
     1
 68
     0
279
    -2
289
     1
 69
     0
  0
VISUALSTYLE
  5
B2B
102
{ACAD_XDICTIONARY
360
5581
102
}
102
{ACAD_REACTORS
330
B25
102
}
330
B25
100
AcDbVisualStyle
  2

 70
     4
 71
     0
 72
     2
 73
     0
 90
        0
 40
-0.6
 41
-30.0
 62
     5
 63
     7
 74
     1
 91
        4
 64
     7
 65
   257
 75
     1
175
     1
 42
1.0
 92
        0
 66
   257
 43
1.0
 76
     1
 77
     6
 78
     2
 67
     7
 79
     5
170
     0
171
     0
290
     0
174
     0
 93
        1
 44
0.0
173
     0
291
     0
 45
0.0
1001
ACAD
1000
AcDbSavedByObjectVersion
1070
     0
  0
VISUALSTYLE
  5
1DFB
102
{ACAD_XDICTIONARY
360
5592
102
}
102
{ACAD_REACTORS
330
B25
102
}
330
B25
100
AcDbVisualStyle
  2

 70
     6
 71
     1
 72
     2
 73
     2
 90
        0
 40
-0.6
 41
-30.0
 62
     5
 63
     7
 74
     2
 91
        2
 64
     7
 65
   257
 75
     2
175
     1
 42
40.0
 92
        0
 66
   257
 43
1.0
 76
     1
 77
     6
 78
     2
 67
     7
 79
     3
170
     0
171
     0
290
     0
174
     0
 93
        1
 44
0.0
173
     0
291
     0
 45
0.0
1001
ACAD
1000
AcDbSavedByObjectVersion
1070
     0
  0
VISUALSTYLE
  5
1DFA
102
{ACAD_XDICTIONARY
360
5590
102
}
102
{ACAD_REACTORS
330
B25
102
}
330
B25
100
AcDbVisualStyle
  2

 70
     5
 71
     0
 72
     2
 73
     0
 90
        0
 40
-0.6
 41
-30.0
 62
     5
 63
     7
 74
     1
 91
        4
 64
     7
 65
   257
 75
     1
175
     1
 42
1.0
 92
        0
 66
   257
 43
1.0
 76
     1
 77
     6
 78
     2
 67
     7
 79
     5
170
     0
171
     0
290
     0
174
     0
 93
        1
 44
0.0
173
     0
291
     0
 45
0.0
1001
ACAD
1000
AcDbSavedByObjectVersion
1070
     0
  0
VISUALSTYLE
  5
B2A
102
{ACAD_XDICTIONARY
360
557F
102
}
102
{ACAD_REACTORS
330
B25
102
}
330
B25
100
AcDbVisualStyle
  2

 70
     7
 71
     1
 72
     0
 73
     1
 90
        0
 40
-0.6
 41
-30.0
 62
     5
 63
     7
 74
     0
 91
        4
 64
     7
 65
   257
 75
     1
175
     1
 42
1.0
 92
        8
 66
     7
 43
1.0
 76
     1
 77
     6
 78
     2
 67
     7
 79
     5
170
     0
171
     0
290
     0
174
     0
 93
        1
 44
0.0
173
     0
291
     1
 45
0.0
1001
ACAD
1000
AcDbSavedByObjectVersion
1070
     0
  0
VISUALSTYLE
  5
B31
102
{ACAD_XDICTIONARY
360
5585
102
}
102
{ACAD_REACTORS
330
B25
102
}
330
B25
100
AcDbVisualStyle
  2

 70
    12
 71
     2
 72
     2
 73
     0
 90
        0
 40
-0.6
 41
-30.0
 62
     5
 63
     7
 74
     1
 91
        4
 64
     7
 65
   257
 75
     1
175
     1
 42
1.0
 92
        8
 66
     7
 43
1.0
 76
     1
 77
     6
 78
     2
 67
     7
 79
     5
170
     0
171
     0
290
     0
174
     0
 93
        1
 44
50.0
173
     0
291
     1
 45
0.0
1001
ACAD
1000
AcDbSavedByObjectVersion
1070
     0
  0
VISUALSTYLE
  5
B35
102
{ACAD_XDICTIONARY
360
558D
102
}
102
{ACAD_REACTORS
330
B25
102
}
330
B25
100
AcDbVisualStyle
  2

 70
    16
 71
     2
 72
     2
 73
     3
 90
        0
 40
-0.6
 41
-30.0
 62
     5
 63
     8
 74
     1
 91
        4
 64
     7
 65
   257
 75
     1
175
     1
 42
1.0
 92
        8
 66
     8
 43
1.0
 76
     1
 77
     6
 78
     2
 67
     7
 79
     5
170
     0
171
     0
290
     0
174
     0
 93
        1
 44
0.0
173
     0
291
     1
 45
0.0
1001
ACAD
1000
AcDbSavedByObjectVersion
1070
     0
  0
VISUALSTYLE
  5
1DFC
102
{ACAD_XDICTIONARY
360
5594
102
}
102
{ACAD_REACTORS
330
B25
102
}
330
B25
100
AcDbVisualStyle
  2

 70
     9
 71
     3
 72
     2
 73
     0
 90
        0
 40
-0.6
 41
-30.0
 62
     5
 63
     7
 74
     2
 91
        2
 64
     7
 65
   257
 75
     1
175
     1
 42
40.0
 92
        8
 66
     7
 43
1.0
 76
     1
 77
     6
 78
     2
 67
     7
 79
     3
170
     0
171
     0
290
     0
174
     0
 93
        1
 44
0.0
173
     0
291
     0
 45
0.0
1001
ACAD
1000
AcDbSavedByObjectVersion
1070
     0
  0
VISUALSTYLE
  5
B30
102
{ACAD_XDICTIONARY
360
5583
102
}
102
{ACAD_REACTORS
330
B25
102
}
330
B25
100
AcDbVisualStyle
  2

 70
    11
 71
     2
 72
     2
 73
     0
 90
        0
 40
-0.6
 41
-30.0
 62
     5
 63
     7
 74
     1
 91
        4
 64
     7
 65
   257
 75
     1
175
     1
 42
1.0
 92
        8
 66
     7
 43
1.0
 76
     1
 77
     6
 78
     2
 67
     7
 79
     5
170
     0
171
     0
290
     0
174
     0
 93
        1
 44
-50.0
173
     0
291
     1
 45
0.0
1001
ACAD
1000
AcDbSavedByObjectVersion
1070
     0
  0
VISUALSTYLE
  5
54CF
102
{ACAD_XDICTIONARY
360
55AA
102
}
102
{ACAD_REACTORS
330
B25
102
}
330
B25
100
AcDbVisualStyle
  2
EdgeColorOff
 70
    22
 71
     2
 72
     2
 73
     0
 90
        0
 40
-0.6
 41
-30.0
 62
     5
 63
     7
 74
     1
 91
        4
 64
     7
 65
   257
 75
     1
175
     1
 42
1.0
 92
        8
 66
     7
 43
1.0
 76
     1
 77
     6
 78
     2
 67
     7
 79
     5
170
     0
171
     0
290
     0
174
     0
 93
        1
 44
0.0
173
     0
291
     1
 45
0.0
1001
ACAD
1000
AcDbSavedByObjectVersion
1070
     0
  0
VISUALSTYLE
  5
B34
102
{ACAD_XDICTIONARY
360
558B
102
}
102
{ACAD_REACTORS
330
B25
102
}
330
B25
100
AcDbVisualStyle
  2

 70
    15
 71
     2
 72
     2
 73
     0
 90
        0
 40
-0.6
 41
-30.0
 62
     5
 63
     7
 74
     1
 91
        4
 64
     7
 65
   257
 75
     1
175
     1
 42
1.0
 92
        8
 66
     7
 43
1.0
 76
     1
 77
     6
 78
     2
 67
     7
 79
     5
170
     0
171
     0
290
     0
174
     0
 93
        1
 44
0.0
173
     0
291
     1
 45
0.0
1001
ACAD
1000
AcDbSavedByObjectVersion
1070
     0
  0
VISUALSTYLE
  5
B26
102
{ACAD_XDICTIONARY
360
5577
102
}
102
{ACAD_REACTORS
330
B25
102
}
330
B25
100
AcDbVisualStyle
  2

 70
     0
 71
     2
 72
     1
 73
     1
 90
        2
 40
-0.6
 41
30.0
 62
     5
 63
     7
 74
     0
 91
        4
 64
     7
 65
   257
 75
     1
175
     1
 42
1.0
 92
        8
 66
     7
 43
1.0
 76
     1
 77
     6
 78
     2
 67
     7
 79
     5
170
     0
171
     0
290
     0
174
     0
 93
       13
 44
0.0
173
     0
291
     1
 45
0.0
1001
ACAD
1000
AcDbSavedByObjectVersion
1070
     0
  0
VISUALSTYLE
  5
B27
102
{ACAD_XDICTIONARY
360
5579
102
}
102
{ACAD_REACTORS
330
B25
102
}
330
B25
100
AcDbVisualStyle
  2

 70
     1
 71
     2
 72
     1
 73
     1
 90
        2
 40
-0.6
 41
30.0
 62
     5
 63
     7
 74
     1
 91
        4
 64
     7
 65
   257
 75
     1
175
     1
 42
1.0
 92
        0
 66
   257
 43
1.0
 76
     1
 77
     6
 78
     2
 67
     7
 79
     5
170
     0
171
     0
290
     0
174
     0
 93
       13
 44
0.0
173
     0
291
     1
 45
0.0
1001
ACAD
1000
AcDbSavedByObjectVersion
1070
     0
  0
VISUALSTYLE
  5
B28
102
{ACAD_XDICTIONARY
360
557B
102
}
102
{ACAD_REACTORS
330
B25
102
}
330
B25
100
AcDbVisualStyle
  2

 70
     2
 71
     2
 72
     2
 73
     1
 90
        2
 40
-0.6
 41
30.0
 62
     5
 63
     7
 74
     0
 91
        4
 64
     7
 65
   257
 75
     1
175
     1
 42
1.0
 92
        0
 66
     7
 43
1.0
 76
     1
 77
     6
 78
     2
 67
     7
 79
     5
170
     0
171
     0
290
     0
174
     0
 93
       13
 44
0.0
173
     0
291
     1
 45
0.0
1001
ACAD
1000
AcDbSavedByObjectVersion
1070
     0
  0
VISUALSTYLE
  5
B29
102
{ACAD_XDICTIONARY
360
557D
102
}
102
{ACAD_REACTORS
330
B25
102
}
330
B25
100
AcDbVisualStyle
  2

 70
     3
 71
     2
 72
     2
 73
     1
 90
        2
 40
-0.6
 41
30.0
 62
     5
 63
     7
 74
     1
 91
        4
 64
     7
 65
   257
 75
     1
175
     1
 42
1.0
 92
        0
 66
   257
 43
1.0
 76
     1
 77
     6
 78
     2
 67
     7
 79
     5
170
     0
171
     0
290
     0
174
     0
 93
       13
 44
0.0
173
     0
291
     1
 45
0.0
1001
ACAD
1000
AcDbSavedByObjectVersion
1070
     0
  0
VISUALSTYLE
  5
54C7
102
{ACAD_XDICTIONARY
360
559A
102
}
102
{ACAD_REACTORS
330
B25
102
}
330
B25
100
AcDbVisualStyle
  2
Hidden
 70
     6
 71
     1
 72
     2
 73
     2
 90
        0
 40
-0.6
 41
-30.0
 62
     5
 63
     7
 74
     2
 91
        2
 64
     7
 65
   257
 75
     2
175
     1
 42
40.0
 92
        0
 66
   257
 43
1.0
 76
     1
 77
     6
 78
     2
 67
     7
 79
     3
170
     0
171
     0
290
     0
174
     0
 93
        1
 44
0.0
173
     0
291
     0
 45
0.0
1001
ACAD
1000
AcDbSavedByObjectVersion
1070
     0
  0
VISUALSTYLE
  5
54CD
102
{ACAD_XDICTIONARY
360
55A6
102
}
102
{ACAD_REACTORS
330
B25
102
}
330
B25
100
AcDbVisualStyle
  2
JitterOff
 70
    20
 71
     2
 72
     2
 73
     0
 90
        0
 40
-0.6
 41
-30.0
 62
     5
 63
     7
 74
     1
 91
        4
 64
     7
 65
   257
 75
     1
175
     1
 42
1.0
 92
       10
 66
     7
 43
1.0
 76
     1
 77
     6
 78
     2
 67
     7
 79
     5
170
     0
171
     0
290
     0
174
     0
 93
        1
 44
0.0
173
     0
291
     1
 45
0.0
1001
ACAD
1000
AcDbSavedByObjectVersion
1070
     0
  0
VISUALSTYLE
  5
B33
102
{ACAD_XDICTIONARY
360
5589
102
}
102
{ACAD_REACTORS
330
B25
102
}
330
B25
100
AcDbVisualStyle
  2

 70
    14
 71
     2
 72
     2
 73
     0
 90
        0
 40
-0.6
 41
-30.0
 62
     5
 63
     7
 74
     1
 91
        4
 64
     7
 65
   257
 75
     7
175
     7
 42
1.0
 92
        8
 66
     7
 43
1.0
 76
     1
 77
     6
 78
     2
 67
     7
 79
     5
170
     0
171
     0
290
     0
174
     0
 93
        1
 44
0.0
173
     0
291
     1
 45
0.0
1001
ACAD
1000
AcDbSavedByObjectVersion
1070
     0
  0
VISUALSTYLE
  5
54CE
102
{ACAD_XDICTIONARY
360
55A8
102
}
102
{ACAD_REACTORS
330
B25
102
}
330
B25
100
AcDbVisualStyle
  2
OverhangOff
 70
    21
 71
     2
 72
     2
 73
     0
 90
        0
 40
-0.6
 41
-30.0
 62
     5
 63
     7
 74
     1
 91
        4
 64
     7
 65
   257
 75
     1
175
     1
 42
1.0
 92
        9
 66
     7
 43
1.0
 76
     1
 77
     6
 78
     2
 67
     7
 79
     5
170
     0
171
     0
290
     0
174
     0
 93
        1
 44
0.0
173
     0
291
     1
 45
0.0
1001
ACAD
1000
AcDbSavedByObjectVersion
1070
     0
  0
VISUALSTYLE
  5
1DFD
102
{ACAD_XDICTIONARY
360
5596
102
}
102
{ACAD_REACTORS
330
B25
102
}
330
B25
100
AcDbVisualStyle
  2

 70
     8
 71
     2
 72
     2
 73
     0
 90
        0
 40
-0.6
 41
-30.0
 62
     5
 63
     7
 74
     1
 91
        0
 64
     7
 65
   257
 75
     1
175
     1
 42
1.0
 92
        8
 66
     8
 43
1.0
 76
     1
 77
     6
 78
     2
 67
     7
 79
     5
170
     0
171
     0
290
     0
174
     0
 93
       13
 44
0.0
173
     0
291
     0
 45
0.0
1001
ACAD
1000
AcDbSavedByObjectVersion
1070
     0
  0
VISUALSTYLE
  5
54CC
102
{ACAD_XDICTIONARY
360
55A4
102
}
102
{ACAD_REACTORS
330
B25
102
}
330
B25
100
AcDbVisualStyle
  2
Shaded
 70
    27
 71
     2
 72
     2
 73
     1
 90
        2
 40
-0.6
 41
30.0
 62
     5
 63
     7
 74
     0
 91
        4
 64
     7
 65
   257
 75
     1
175
     1
 42
1.0
 92
        8
 66
   257
 43
1.0
 76
     1
 77
     6
 78
     2
 67
     8
 79
     3
170
     0
171
     0
290
     0
174
     0
 93
        5
 44
0.0
173
     0
291
     0
 45
0.0
1001
ACAD
1000
AcDbSavedByObjectVersion
1070
     0
  0
VISUALSTYLE
  5
54CB
102
{ACAD_XDICTIONARY
360
55A2
102
}
102
{ACAD_REACTORS
330
B25
102
}
330
B25
100
AcDbVisualStyle
  2
Shaded with edges
 70
    26
 71
     2
 72
     2
 73
     1
 90
        2
 40
-0.6
 41
30.0
 62
     5
 63
     7
 74
     1
 91
       10
 64
     7
 65
   257
 75
     2
175
     1
 42
1.0
 92
        8
 66
   257
 43
1.0
 76
     1
 77
     6
 78
     2
 67
     7
 79
     3
170
     0
171
     0
290
     0
174
     0
 93
        5
 44
0.0
173
     0
291
     0
 45
0.0
1001
ACAD
1000
AcDbSavedByObjectVersion
1070
     0
  0
VISUALSTYLE
  5
54C8
102
{ACAD_XDICTIONARY
360
559C
102
}
102
{ACAD_REACTORS
330
B25
102
}
330
B25
100
AcDbVisualStyle
  2
Shades of Gray
 70
    23
 71
     2
 72
     2
 73
     3
 90
        0
 40
-0.6
 41
-30.0
 62
     5
 63
     7
 74
     2
 91
        2
 64
     7
 65
     7
 75
     1
175
     1
 42
40.0
 92
        8
 66
     7
 43
1.0
 76
     1
 77
     6
 78
     2
 67
     7
 79
     3
170
     0
171
     0
290
     0
174
     0
 93
        1
 44
0.0
173
     0
291
     0
 45
0.0
1001
ACAD
1000
AcDbSavedByObjectVersion
1070
     0
  0
VISUALSTYLE
  5
54C9
102
{ACAD_XDICTIONARY
360
559E
102
}
102
{ACAD_REACTORS
330
B25
102
}
330
B25
100
AcDbVisualStyle
  2
Sketchy
 70
    24
 71
     1
 72
     2
 73
     2
 90
        0
 40
-0.6
 41
-30.0
 62
     5
 63
     7
 74
     2
 91
        2
 64
     7
 65
     7
 75
     1
175
     1
 42
40.0
 92
       11
 66
     7
 43
1.0
 76
     1
 77
     6
 78
     2
 67
     7
 79
     6
170
     0
171
     0
290
     0
174
     0
 93
        1
 44
0.0
173
     0
291
     0
 45
0.0
1001
ACAD
1000
AcDbSavedByObjectVersion
1070
     0
  0
VISUALSTYLE
  5
B32
102
{ACAD_XDICTIONARY
360
5587
102
}
102
{ACAD_REACTORS
330
B25
102
}
330
B25
100
AcDbVisualStyle
  2

 70
    13
 71
     2
 72
     2
 73
     0
 90
        0
 40
-0.6
 41
-30.0
 62
     5
 63
     7
 74
     1
 91
        4
 64
     7
 65
   257
 75
     1
175
     1
 42
1.0
 92
       12
 66
     7
 43
1.0
 76
     1
 77
     6
 78
     2
 67
     7
 79
     5
170
     0
171
     0
290
     0
174
     0
 93
        1
 44
0.0
173
     0
291
     1
 45
0.0
1001
ACAD
1000
AcDbSavedByObjectVersion
1070
     0
  0
VISUALSTYLE
  5
54C6
102
{ACAD_XDICTIONARY
360
5598
102
}
102
{ACAD_REACTORS
330
B25
102
}
330
B25
100
AcDbVisualStyle
  2
Wireframe
 70
     5
 71
     0
 72
     2
 73
     0
 90
        0
 40
-0.6
 41
-30.0
 62
     5
 63
     7
 74
     1
 91
        4
 64
     7
 65
   257
 75
     1
175
     1
 42
1.0
 92
        0
 66
   257
 43
1.0
 76
     1
 77
     6
 78
     2
 67
     7
 79
     3
170
     0
171
     0
290
     0
174
     0
 93
        1
 44
0.0
173
     0
291
     0
 45
0.0
1001
ACAD
1000
AcDbSavedByObjectVersion
1070
     0
  0
VISUALSTYLE
  5
54CA
102
{ACAD_XDICTIONARY
360
55A0
102
}
102
{ACAD_REACTORS
330
B25
102
}
330
B25
100
AcDbVisualStyle
  2
X-Ray
 70
    25
 71
     2
 72
     2
 73
     1
 90
        1
 40
0.5
 41
-30.0
 62
     5
 63
     7
 74
     1
 91
        0
 64
     7
 65
   257
 75
     1
175
     1
 42
1.0
 92
        8
 66
     7
 43
1.0
 76
     1
 77
     6
 78
     2
 67
     7
 79
     3
170
     0
171
     0
290
     0
174
     0
 93
       13
 44
0.0
173
     0
291
     0
 45
0.0
1001
ACAD
1000
AcDbSavedByObjectVersion
1070
     0
  0
DICTIONARYVAR
  5
556B
102
{ACAD_REACTORS
330
5E
102
}
330
5E
100
DictionaryVariables
280
     0
  1
1:1
  0
DICTIONARYVAR
  5
556A
102
{ACAD_REACTORS
330
5E
102
}
330
5E
100
DictionaryVariables
280
     0
  1
STANDARD
  0
DICTIONARYVAR
  5
B39
102
{ACAD_REACTORS
330
5E
102
}
330
5E
100
DictionaryVariables
280
     0
  1
STANDARD
  0
DICTIONARYVAR
  5
5F
102
{ACAD_REACTORS
330
5E
102
}
330
5E
100
DictionaryVariables
280
     0
  1
2
  0
DICTIONARYVAR
  5
63
102
{ACAD_REACTORS
330
5E
102
}
330
5E
100
DictionaryVariables
280
     0
  1
1
  0
DICTIONARYVAR
  5
1D29
102
{ACAD_REACTORS
330
5E
102
}
330
5E
100
DictionaryVariables
280
     0
  1
0
  0
DICTIONARYVAR
  5
B07
102
{ACAD_REACTORS
330
5E
102
}
330
5E
100
DictionaryVariables
280
     0
  1

  0
DICTIONARYVAR
  5
1D28
102
{ACAD_REACTORS
330
5E
102
}
330
5E
100
DictionaryVariables
280
     0
  1
127
  0
DICTIONARYVAR
  5
556C
102
{ACAD_REACTORS
330
5E
102
}
330
5E
100
DictionaryVariables
280
     0
  1
2
  0
DICTIONARY
  5
5518
102
{ACAD_REACTORS
330
5511
102
}
330
5511
100
AcDbDictionary
281
     1
  0
DICTIONARY
  5
5573
330
51
100
AcDbDictionary
280
     1
281
     1
  3
ACAD_XREC_ROUNDTRIP
360
5574
  0
DICTIONARY
  5
5575
330
56
100
AcDbDictionary
280
     1
281
     1
  3
ACAD_XREC_ROUNDTRIP
360
5576
  0
DICTIONARY
  5
5571
330
22
100
AcDbDictionary
280
     1
281
     1
  3
ACAD_XREC_ROUNDTRIP
360
5572
  0
DICTIONARY
  5
1DF1
330
B23
100
AcDbDictionary
280
     1
281
     1
  3
ACAD_XREC_ROUNDTRIP
360
1DF2
  0
DICTIONARY
  5
1DEF
330
B22
100
AcDbDictionary
280
     1
281
     1
  3
ACAD_XREC_ROUNDTRIP
360
1DF0
  0
DICTIONARY
  5
1DF3
330
B24
100
AcDbDictionary
280
     1
281
     1
  3
ACAD_XREC_ROUNDTRIP
360
1DF4
  0
DICTIONARY
  5
556D
330
B37
100
AcDbDictionary
280
     1
281
     1
  3
ACAD_ROUNDTRIP_2008_TABLESTYLE_CELLSTYLEMAP
360
556E
  3
ACAD_XREC_ROUNDTRIP
360
558F
  0
DICTIONARY
  5
5581
330
B2B
100
AcDbDictionary
280
     1
281
     1
  3
ACAD_XREC_ROUNDTRIP
360
5582
  0
DICTIONARY
  5
5592
330
1DFB
100
AcDbDictionary
280
     1
281
     1
  3
ACAD_XREC_ROUNDTRIP
360
5593
  0
DICTIONARY
  5
5590
330
1DFA
100
AcDbDictionary
280
     1
281
     1
  3
ACAD_XREC_ROUNDTRIP
360
5591
  0
DICTIONARY
  5
557F
330
B2A
100
AcDbDictionary
280
     1
281
     1
  3
ACAD_XREC_ROUNDTRIP
360
5580
  0
DICTIONARY
  5
5585
330
B31
100
AcDbDictionary
280
     1
281
     1
  3
ACAD_XREC_ROUNDTRIP
360
5586
  0
DICTIONARY
  5
558D
330
B35
100
AcDbDictionary
280
     1
281
     1
  3
ACAD_XREC_ROUNDTRIP
360
558E
  0
DICTIONARY
  5
5594
330
1DFC
100
AcDbDictionary
280
     1
281
     1
  3
ACAD_XREC_ROUNDTRIP
360
5595
  0
DICTIONARY
  5
5583
330
B30
100
AcDbDictionary
280
     1
281
     1
  3
ACAD_XREC_ROUNDTRIP
360
5584
  0
DICTIONARY
  5
55AA
330
54CF
100
AcDbDictionary
280
     1
281
     1
  3
ACAD_XREC_ROUNDTRIP
360
55AB
  0
DICTIONARY
  5
558B
330
B34
100
AcDbDictionary
280
     1
281
     1
  3
ACAD_XREC_ROUNDTRIP
360
558C
  0
DICTIONARY
  5
5577
330
B26
100
AcDbDictionary
280
     1
281
     1
  3
ACAD_XREC_ROUNDTRIP
360
5578
  0
DICTIONARY
  5
5579
330
B27
100
AcDbDictionary
280
     1
281
     1
  3
ACAD_XREC_ROUNDTRIP
360
557A
  0
DICTIONARY
  5
557B
330
B28
100
AcDbDictionary
280
     1
281
     1
  3
ACAD_XREC_ROUNDTRIP
360
557C
  0
DICTIONARY
  5
557D
330
B29
100
AcDbDictionary
280
     1
281
     1
  3
ACAD_XREC_ROUNDTRIP
360
557E
  0
DICTIONARY
  5
559A
330
54C7
100
AcDbDictionary
280
     1
281
     1
  3
ACAD_XREC_ROUNDTRIP
360
559B
  0
DICTIONARY
  5
55A6
330
54CD
100
AcDbDictionary
280
     1
281
     1
  3
ACAD_XREC_ROUNDTRIP
360
55A7
  0
DICTIONARY
  5
5589
330
B33
100
AcDbDictionary
280
     1
281
     1
  3
ACAD_XREC_ROUNDTRIP
360
558A
  0
DICTIONARY
  5
55A8
330
54CE
100
AcDbDictionary
280
     1
281
     1
  3
ACAD_XREC_ROUNDTRIP
360
55A9
  0
DICTIONARY
  5
5596
330
1DFD
100
AcDbDictionary
280
     1
281
     1
  3
ACAD_XREC_ROUNDTRIP
360
5597
  0
DICTIONARY
  5
55A4
330
54CC
100
AcDbDictionary
280
     1
281
     1
  3
ACAD_XREC_ROUNDTRIP
360
55A5
  0
DICTIONARY
  5
55A2
330
54CB
100
AcDbDictionary
280
     1
281
     1
  3
ACAD_XREC_ROUNDTRIP
360
55A3
  0
DICTIONARY
  5
559C
330
54C8
100
AcDbDictionary
280
     1
281
     1
  3
ACAD_XREC_ROUNDTRIP
360
559D
  0
DICTIONARY
  5
559E
330
54C9
100
AcDbDictionary
280
     1
281
     1
  3
ACAD_XREC_ROUNDTRIP
360
559F
  0
DICTIONARY
  5
5587
330
B32
100
AcDbDictionary
280
     1
281
     1
  3
ACAD_XREC_ROUNDTRIP
360
5588
  0
DICTIONARY
  5
5598
330
54C6
100
AcDbDictionary
280
     1
281
     1
  3
ACAD_XREC_ROUNDTRIP
360
5599
  0
DICTIONARY
  5
55A0
330
54CA
100
AcDbDictionary
280
     1
281
     1
  3
ACAD_XREC_ROUNDTRIP
360
55A1
  0
XRECORD
  5
5574
102
{ACAD_REACTORS
330
5573
102
}
330
5573
100
AcDbXrecord
280
     1
102
SHADEPLOT
 70
     0
102
SHADEPLOTRESLEVEL
 70
     2
102
SHADEPLOTCUSTOMDPI
 70
   300
  0
XRECORD
  5
5576
102
{ACAD_REACTORS
330
5575
102
}
330
5575
100
AcDbXrecord
280
     1
102
SHADEPLOT
 70
     0
102
SHADEPLOTRESLEVEL
 70
     2
102
SHADEPLOTCUSTOMDPI
 70
   300
  0
XRECORD
  5
5572
102
{ACAD_REACTORS
330
5571
102
}
330
5571
100
AcDbXrecord
280
     1
102
SHADEPLOT
 70
     0
102
SHADEPLOTRESLEVEL
 70
     2
102
SHADEPLOTCUSTOMDPI
 70
   300
  0
XRECORD
  5
1DF2
102
{ACAD_REACTORS
330
1DF1
102
}
330
1DF1
100
AcDbXrecord
280
     1
102
MATERIAL
148
0.0
149
0.0
149
0.0
 93
        0
 94
      127
282
     0
 72
     1
 77
     1
171
     1
175
     1
179
     1
273
     0
  0
XRECORD
  5
1DF0
102
{ACAD_REACTORS
330
1DEF
102
}
330
1DEF
100
AcDbXrecord
280
     1
102
MATERIAL
148
0.0
149
0.0
149
0.0
 93
        0
 94
      127
282
     0
 72
     1
 77
     1
171
     1
175
     1
179
     1
273
     0
  0
XRECORD
  5
1DF4
102
{ACAD_REACTORS
330
1DF3
102
}
330
1DF3
100
AcDbXrecord
280
     1
102
MATERIAL
148
0.0
149
0.0
149
0.0
 93
        0
 94
      127
282
     0
 72
     1
 77
     1
171
     1
175
     1
179
     1
273
     0
  0
CELLSTYLEMAP
  5
556E
102
{ACAD_REACTORS
330
556D
102
}
330
556D
100
AcDbCellStyleMap
 90
        3
300
CELLSTYLE
  1
TABLEFORMAT_BEGIN
 90
        5
170
     1
 91
        0
 92
    32768
 62
   257
 93
        1
300
CONTENTFORMAT
  1
CONTENTFORMAT_BEGIN
 90
        0
 91
        0
 92
      512
 93
        0
300

 40
0.0
140
1.0
 94
        5
 62
     0
340
11
144
6.0
309
CONTENTFORMAT_END
171
     1
301
MARGIN
  1
CELLMARGIN_BEGIN
 40
1.5
 40
1.5
 40
1.5
 40
1.5
 40
0.18
 40
0.18
309
CELLMARGIN_END
 94
        6
 95
        1
302
GRIDFORMAT
  1
GRIDFORMAT_BEGIN
 90
        0
 91
        1
 62
     0
 92
       -2
340
0
 93
        0
 40
0.045
309
GRIDFORMAT_END
 95
        2
302
GRIDFORMAT
  1
GRIDFORMAT_BEGIN
 90
        0
 91
        1
 62
     0
 92
       -2
340
0
 93
        0
 40
0.045
309
GRIDFORMAT_END
 95
        4
302
GRIDFORMAT
  1
GRIDFORMAT_BEGIN
 90
        0
 91
        1
 62
     0
 92
       -2
340
0
 93
        0
 40
0.045
309
GRIDFORMAT_END
 95
        8
302
GRIDFORMAT
  1
GRIDFORMAT_BEGIN
 90
        0
 91
        1
 62
     0
 92
       -2
340
0
 93
        0
 40
0.045
309
GRIDFORMAT_END
 95
       16
302
GRIDFORMAT
  1
GRIDFORMAT_BEGIN
 90
        0
 91
        1
 62
     0
 92
       -2
340
0
 93
        0
 40
0.045
309
GRIDFORMAT_END
 95
       32
302
GRIDFORMAT
  1
GRIDFORMAT_BEGIN
 90
        0
 91
        1
 62
     0
 92
       -2
340
0
 93
        0
 40
0.045
309
GRIDFORMAT_END
309
TABLEFORMAT_END
  1
CELLSTYLE_BEGIN
 90
        1
 91
        1
300
_TITLE
309
CELLSTYLE_END
300
CELLSTYLE
  1
TABLEFORMAT_BEGIN
 90
        5
170
     1
 91
        0
 92
        0
 62
   257
 93
        1
300
CONTENTFORMAT
  1
CONTENTFORMAT_BEGIN
 90
        0
 91
        0
 92
      512
 93
        0
300

 40
0.0
140
1.0
 94
        5
 62
     0
340
11
144
4.5
309
CONTENTFORMAT_END
171
     1
301
MARGIN
  1
CELLMARGIN_BEGIN
 40
1.5
 40
1.5
 40
1.5
 40
1.5
 40
0.18
 40
0.18
309
CELLMARGIN_END
 94
        6
 95
        1
302
GRIDFORMAT
  1
GRIDFORMAT_BEGIN
 90
        0
 91
        1
 62
     0
 92
       -2
340
0
 93
        0
 40
0.045
309
GRIDFORMAT_END
 95
        2
302
GRIDFORMAT
  1
GRIDFORMAT_BEGIN
 90
        0
 91
        1
 62
     0
 92
       -2
340
0
 93
        0
 40
0.045
309
GRIDFORMAT_END
 95
        4
302
GRIDFORMAT
  1
GRIDFORMAT_BEGIN
 90
        0
 91
        1
 62
     0
 92
       -2
340
0
 93
        0
 40
0.045
309
GRIDFORMAT_END
 95
        8
302
GRIDFORMAT
  1
GRIDFORMAT_BEGIN
 90
        0
 91
        1
 62
     0
 92
       -2
340
0
 93
        0
 40
0.045
309
GRIDFORMAT_END
 95
       16
302
GRIDFORMAT
  1
GRIDFORMAT_BEGIN
 90
        0
 91
        1
 62
     0
 92
       -2
340
0
 93
        0
 40
0.045
309
GRIDFORMAT_END
 95
       32
302
GRIDFORMAT
  1
GRIDFORMAT_BEGIN
 90
        0
 91
        1
 62
     0
 92
       -2
340
0
 93
        0
 40
0.045
309
GRIDFORMAT_END
309
TABLEFORMAT_END
  1
CELLSTYLE_BEGIN
 90
        2
 91
        1
300
_HEADER
309
CELLSTYLE_END
300
CELLSTYLE
  1
TABLEFORMAT_BEGIN
 90
        5
170
     1
 91
        0
 92
        0
 62
   257
 93
        1
300
CONTENTFORMAT
  1
CONTENTFORMAT_BEGIN
 90
        0
 91
        0
 92
      512
 93
        0
300

 40
0.0
140
1.0
 94
        2
 62
     0
340
11
144
4.5
309
CONTENTFORMAT_END
171
     1
301
MARGIN
  1
CELLMARGIN_BEGIN
 40
1.5
 40
1.5
 40
1.5
 40
1.5
 40
0.18
 40
0.18
309
CELLMARGIN_END
 94
        6
 95
        1
302
GRIDFORMAT
  1
GRIDFORMAT_BEGIN
 90
        0
 91
        1
 62
     0
 92
       -2
340
0
 93
        0
 40
0.045
309
GRIDFORMAT_END
 95
        2
302
GRIDFORMAT
  1
GRIDFORMAT_BEGIN
 90
        0
 91
        1
 62
     0
 92
       -2
340
0
 93
        0
 40
0.045
309
GRIDFORMAT_END
 95
        4
302
GRIDFORMAT
  1
GRIDFORMAT_BEGIN
 90
        0
 91
        1
 62
     0
 92
       -2
340
0
 93
        0
 40
0.045
309
GRIDFORMAT_END
 95
        8
302
GRIDFORMAT
  1
GRIDFORMAT_BEGIN
 90
        0
 91
        1
 62
     0
 92
       -2
340
0
 93
        0
 40
0.045
309
GRIDFORMAT_END
 95
       16
302
GRIDFORMAT
  1
GRIDFORMAT_BEGIN
 90
        0
 91
        1
 62
     0
 92
       -2
340
0
 93
        0
 40
0.045
309
GRIDFORMAT_END
 95
       32
302
GRIDFORMAT
  1
GRIDFORMAT_BEGIN
 90
        0
 91
        1
 62
     0
 92
       -2
340
0
 93
        0
 40
0.045
309
GRIDFORMAT_END
309
TABLEFORMAT_END
  1
CELLSTYLE_BEGIN
 90
        3
 91
        2
300
_DATA
309
CELLSTYLE_END
  0
XRECORD
  5
558F
102
{ACAD_REACTORS
330
556D
102
}
330
556D
100
AcDbXrecord
280
     1
102
ACAD_ROUNDTRIP_PRE2007_TABLESTYLE
 90
      512
 91
        0
  1

 92
      512
 93
        0
  2

 94
      512
 95
        0
  3

  0
XRECORD
  5
5582
102
{ACAD_REACTORS
330
5581
102
}
330
5581
100
AcDbXrecord
280
     1
102
RTVSPropertyOp0
 70
     1
102
RTVSPropertyOp1
 70
     1
102
RTVSPropertyOp2
 70
     1
102
RTVSPropertyOp3
 70
     1
102
RTVSPropertyOp4
 70
     1
102
RTVSPropertyOp5
 70
     1
102
RTVSPropertyOp6
 70
     1
102
RTVSPropertyOp7
 70
     1
102
RTVSPropertyOp8
 70
     1
102
RTVSPropertyOp9
 70
     1
102
RTVSPropertyOp10
 70
     1
102
RTVSPropertyOp11
 70
     1
102
RTVSPropertyOp12
 70
     1
102
RTVSPropertyOp13
 70
     1
102
RTVSPropertyOp14
 70
     1
102
RTVSPropertyOp15
 70
     1
102
RTVSPropertyOp16
 70
     1
102
RTVSPropertyOp17
 70
     1
102
RTVSPropertyOp18
 70
     1
102
RTVSPropertyOp19
 70
     1
102
RTVSPropertyOp20
 70
     1
102
RTVSPropertyOp21
 70
     1
102
RTVSPropertyOp22
 70
     1
102
RTVSPropertyOp23
 70
     1
102
RTVSPropertyOp24
 70
     1
102
RTVSPropertyOp25
 70
     1
102
RTVSPropertyOp26
 70
     1
102
RTVSPropertyOp27
 70
     1
102
RTVSPropertyOp28
 70
     1
102
RTVSPropertyOp29
 70
     1
102
RTVSPropertyOp30
 70
     1
102
RTVSPropertyOp31
 70
     1
102
RTVSPropertyOp32
 70
     1
  0
XRECORD
  5
5593
102
{ACAD_REACTORS
330
5592
102
}
330
5592
100
AcDbXrecord
280
     1
102
RTVSPropertyOp0
 70
     1
102
RTVSPropertyOp1
 70
     1
102
RTVSPropertyOp2
 70
     1
102
RTVSPropertyOp3
 70
     1
102
RTVSPropertyOp4
 70
     1
102
RTVSPropertyOp5
 70
     1
102
RTVSPropertyOp6
 70
     1
102
RTVSPropertyOp7
 70
     1
102
RTVSPropertyOp8
 70
     1
102
RTVSPropertyOp9
 70
     1
102
RTVSPropertyOp10
 70
     1
102
RTVSPropertyOp11
 70
     1
102
RTVSPropertyOp12
 70
     1
102
RTVSPropertyOp13
 70
     1
102
RTVSPropertyOp14
 70
     1
102
RTVSPropertyOp15
 70
     1
102
RTVSPropertyOp16
 70
     1
102
RTVSPropertyOp17
 70
     1
102
RTVSPropertyOp18
 70
     1
102
RTVSPropertyOp19
 70
     1
102
RTVSPropertyOp20
 70
     1
102
RTVSPropertyOp21
 70
     1
102
RTVSPropertyOp22
 70
     1
102
RTVSPropertyOp23
 70
     1
102
RTVSPropertyOp24
 70
     1
102
RTVSPropertyOp25
 70
     1
102
RTVSPropertyOp26
 70
     1
102
RTVSPropertyOp27
 70
     1
102
RTVSPropertyOp28
 70
     1
102
RTVSPropertyOp29
 70
     1
102
RTVSPropertyOp30
 70
     1
102
RTVSPropertyOp31
 70
     1
102
RTVSPropertyOp32
 70
     1
  0
XRECORD
  5
5591
102
{ACAD_REACTORS
330
5590
102
}
330
5590
100
AcDbXrecord
280
     1
102
RTVSPropertyOp0
 70
     1
102
RTVSPropertyOp1
 70
     1
102
RTVSPropertyOp2
 70
     1
102
RTVSPropertyOp3
 70
     1
102
RTVSPropertyOp4
 70
     1
102
RTVSPropertyOp5
 70
     1
102
RTVSPropertyOp6
 70
     1
102
RTVSPropertyOp7
 70
     1
102
RTVSPropertyOp8
 70
     1
102
RTVSPropertyOp9
 70
     1
102
RTVSPropertyOp10
 70
     1
102
RTVSPropertyOp11
 70
     1
102
RTVSPropertyOp12
 70
     1
102
RTVSPropertyOp13
 70
     1
102
RTVSPropertyOp14
 70
     1
102
RTVSPropertyOp15
 70
     1
102
RTVSPropertyOp16
 70
     1
102
RTVSPropertyOp17
 70
     1
102
RTVSPropertyOp18
 70
     1
102
RTVSPropertyOp19
 70
     1
102
RTVSPropertyOp20
 70
     1
102
RTVSPropertyOp21
 70
     1
102
RTVSPropertyOp22
 70
     1
102
RTVSPropertyOp23
 70
     1
102
RTVSPropertyOp24
 70
     1
102
RTVSPropertyOp25
 70
     1
102
RTVSPropertyOp26
 70
     1
102
RTVSPropertyOp27
 70
     1
102
RTVSPropertyOp28
 70
     1
102
RTVSPropertyOp29
 70
     1
102
RTVSPropertyOp30
 70
     1
102
RTVSPropertyOp31
 70
     1
102
RTVSPropertyOp32
 70
     1
  0
XRECORD
  5
5580
102
{ACAD_REACTORS
330
557F
102
}
330
557F
100
AcDbXrecord
280
     1
102
RTVSPropertyOp0
 70
     1
102
RTVSPropertyOp1
 70
     1
102
RTVSPropertyOp2
 70
     1
102
RTVSPropertyOp3
 70
     1
102
RTVSPropertyOp4
 70
     1
102
RTVSPropertyOp5
 70
     1
102
RTVSPropertyOp6
 70
     1
102
RTVSPropertyOp7
 70
     1
102
RTVSPropertyOp8
 70
     1
102
RTVSPropertyOp9
 70
     1
102
RTVSPropertyOp10
 70
     1
102
RTVSPropertyOp11
 70
     1
102
RTVSPropertyOp12
 70
     1
102
RTVSPropertyOp13
 70
     1
102
RTVSPropertyOp14
 70
     1
102
RTVSPropertyOp15
 70
     1
102
RTVSPropertyOp16
 70
     1
102
RTVSPropertyOp17
 70
     1
102
RTVSPropertyOp18
 70
     1
102
RTVSPropertyOp19
 70
     1
102
RTVSPropertyOp20
 70
     1
102
RTVSPropertyOp21
 70
     1
102
RTVSPropertyOp22
 70
     1
102
RTVSPropertyOp23
 70
     1
102
RTVSPropertyOp24
 70
     1
102
RTVSPropertyOp25
 70
     1
102
RTVSPropertyOp26
 70
     1
102
RTVSPropertyOp27
 70
     1
102
RTVSPropertyOp28
 70
     1
102
RTVSPropertyOp29
 70
     1
102
RTVSPropertyOp30
 70
     1
102
RTVSPropertyOp31
 70
     1
102
RTVSPropertyOp32
 70
     1
  0
XRECORD
  5
5586
102
{ACAD_REACTORS
330
5585
102
}
330
5585
100
AcDbXrecord
280
     1
102
RTVSPropertyOp0
 70
     1
102
RTVSPropertyOp1
 70
     1
102
RTVSPropertyOp2
 70
     1
102
RTVSPropertyOp3
 70
     1
102
RTVSPropertyOp4
 70
     1
102
RTVSPropertyOp5
 70
     1
102
RTVSPropertyOp6
 70
     1
102
RTVSPropertyOp7
 70
     1
102
RTVSPropertyOp8
 70
     1
102
RTVSPropertyOp9
 70
     1
102
RTVSPropertyOp10
 70
     1
102
RTVSPropertyOp11
 70
     1
102
RTVSPropertyOp12
 70
     1
102
RTVSPropertyOp13
 70
     1
102
RTVSPropertyOp14
 70
     1
102
RTVSPropertyOp15
 70
     1
102
RTVSPropertyOp16
 70
     1
102
RTVSPropertyOp17
 70
     1
102
RTVSPropertyOp18
 70
     1
102
RTVSPropertyOp19
 70
     1
102
RTVSPropertyOp20
 70
     1
102
RTVSPropertyOp21
 70
     1
102
RTVSPropertyOp22
 70
     1
102
RTVSPropertyOp23
 70
     1
102
RTVSPropertyOp24
 70
     1
102
RTVSPropertyOp25
 70
     1
102
RTVSPropertyOp26
 70
     1
102
RTVSPropertyOp27
 70
     1
102
RTVSPropertyOp28
 70
     1
102
RTVSPropertyOp29
 70
     1
102
RTVSPropertyOp30
 70
     1
102
RTVSPropertyOp31
 70
     1
102
RTVSPropertyOp32
 70
     1
  0
XRECORD
  5
558E
102
{ACAD_REACTORS
330
558D
102
}
330
558D
100
AcDbXrecord
280
     1
102
RTVSPropertyOp0
 70
     1
102
RTVSPropertyOp1
 70
     1
102
RTVSPropertyOp2
 70
     1
102
RTVSPropertyOp3
 70
     1
102
RTVSPropertyOp4
 70
     1
102
RTVSPropertyOp5
 70
     1
102
RTVSPropertyOp6
 70
     1
102
RTVSPropertyOp7
 70
     1
102
RTVSPropertyOp8
 70
     1
102
RTVSPropertyOp9
 70
     1
102
RTVSPropertyOp10
 70
     1
102
RTVSPropertyOp11
 70
     1
102
RTVSPropertyOp12
 70
     1
102
RTVSPropertyOp13
 70
     1
102
RTVSPropertyOp14
 70
     1
102
RTVSPropertyOp15
 70
     1
102
RTVSPropertyOp16
 70
     1
102
RTVSPropertyOp17
 70
     1
102
RTVSPropertyOp18
 70
     1
102
RTVSPropertyOp19
 70
     1
102
RTVSPropertyOp20
 70
     1
102
RTVSPropertyOp21
 70
     1
102
RTVSPropertyOp22
 70
     1
102
RTVSPropertyOp23
 70
     1
102
RTVSPropertyOp24
 70
     1
102
RTVSPropertyOp25
 70
     1
102
RTVSPropertyOp26
 70
     1
102
RTVSPropertyOp27
 70
     1
102
RTVSPropertyOp28
 70
     1
102
RTVSPropertyOp29
 70
     1
102
RTVSPropertyOp30
 70
     1
102
RTVSPropertyOp31
 70
     1
102
RTVSPropertyOp32
 70
     1
  0
XRECORD
  5
5595
102
{ACAD_REACTORS
330
5594
102
}
330
5594
100
AcDbXrecord
280
     1
102
RTVSPropertyOp0
 70
     1
102
RTVSPropertyOp1
 70
     1
102
RTVSPropertyOp2
 70
     1
102
RTVSPropertyOp3
 70
     1
102
RTVSPropertyOp4
 70
     1
102
RTVSPropertyOp5
 70
     1
102
RTVSPropertyOp6
 70
     1
102
RTVSPropertyOp7
 70
     1
102
RTVSPropertyOp8
 70
     1
102
RTVSPropertyOp9
 70
     1
102
RTVSPropertyOp10
 70
     1
102
RTVSPropertyOp11
 70
     1
102
RTVSPropertyOp12
 70
     1
102
RTVSPropertyOp13
 70
     1
102
RTVSPropertyOp14
 70
     1
102
RTVSPropertyOp15
 70
     1
102
RTVSPropertyOp16
 70
     1
102
RTVSPropertyOp17
 70
     1
102
RTVSPropertyOp18
 70
     1
102
RTVSPropertyOp19
 70
     1
102
RTVSPropertyOp20
 70
     1
102
RTVSPropertyOp21
 70
     1
102
RTVSPropertyOp22
 70
     1
102
RTVSPropertyOp23
 70
     1
102
RTVSPropertyOp24
 70
     1
102
RTVSPropertyOp25
 70
     1
102
RTVSPropertyOp26
 70
     1
102
RTVSPropertyOp27
 70
     1
102
RTVSPropertyOp28
 70
     1
102
RTVSPropertyOp29
 70
     1
102
RTVSPropertyOp30
 70
     1
102
RTVSPropertyOp31
 70
     1
102
RTVSPropertyOp32
 70
     1
  0
XRECORD
  5
5584
102
{ACAD_REACTORS
330
5583
102
}
330
5583
100
AcDbXrecord
280
     1
102
RTVSPropertyOp0
 70
     1
102
RTVSPropertyOp1
 70
     1
102
RTVSPropertyOp2
 70
     1
102
RTVSPropertyOp3
 70
     1
102
RTVSPropertyOp4
 70
     1
102
RTVSPropertyOp5
 70
     1
102
RTVSPropertyOp6
 70
     1
102
RTVSPropertyOp7
 70
     1
102
RTVSPropertyOp8
 70
     1
102
RTVSPropertyOp9
 70
     1
102
RTVSPropertyOp10
 70
     1
102
RTVSPropertyOp11
 70
     1
102
RTVSPropertyOp12
 70
     1
102
RTVSPropertyOp13
 70
     1
102
RTVSPropertyOp14
 70
     1
102
RTVSPropertyOp15
 70
     1
102
RTVSPropertyOp16
 70
     1
102
RTVSPropertyOp17
 70
     1
102
RTVSPropertyOp18
 70
     1
102
RTVSPropertyOp19
 70
     1
102
RTVSPropertyOp20
 70
     1
102
RTVSPropertyOp21
 70
     1
102
RTVSPropertyOp22
 70
     1
102
RTVSPropertyOp23
 70
     1
102
RTVSPropertyOp24
 70
     1
102
RTVSPropertyOp25
 70
     1
102
RTVSPropertyOp26
 70
     1
102
RTVSPropertyOp27
 70
     1
102
RTVSPropertyOp28
 70
     1
102
RTVSPropertyOp29
 70
     1
102
RTVSPropertyOp30
 70
     1
102
RTVSPropertyOp31
 70
     1
102
RTVSPropertyOp32
 70
     1
  0
XRECORD
  5
55AB
102
{ACAD_REACTORS
330
55AA
102
}
330
55AA
100
AcDbXrecord
280
     1
102
RTVSPropertyOp0
 70
     0
102
RTVSPropertyOp1
 70
     0
102
RTVSPropertyOp2
 70
     0
102
RTVSPropertyOp3
 70
     0
102
RTVSPropertyOp4
 70
     0
102
RTVSPropertyOp5
 70
     0
102
RTVSPropertyOp6
 70
     0
102
RTVSPropertyOp7
 70
     0
102
RTVSPropertyOp8
 70
     0
102
RTVSPropertyOp9
 70
     0
102
RTVSPropertyOp10
 70
     0
102
RTVSPropertyOp11
 70
     0
102
RTVSPropertyOp12
 70
     0
102
RTVSPropertyOp13
 70
     0
102
RTVSPropertyOp14
 70
     2
102
RTVSPropertyOp15
 70
     0
102
RTVSPropertyOp16
 70
     0
102
RTVSPropertyOp17
 70
     0
102
RTVSPropertyOp18
 70
     0
102
RTVSPropertyOp19
 70
     0
102
RTVSPropertyOp20
 70
     0
102
RTVSPropertyOp21
 70
     0
102
RTVSPropertyOp22
 70
     0
102
RTVSPropertyOp23
 70
     0
102
RTVSPropertyOp24
 70
     0
102
RTVSPropertyOp25
 70
     0
102
RTVSPropertyOp26
 70
     0
102
RTVSPropertyOp27
 70
     0
102
RTVSPropertyOp28
 70
     0
102
RTVSPropertyOp29
 70
     0
102
RTVSPropertyOp30
 70
     0
102
RTVSPropertyOp31
 70
     0
102
RTVSPropertyOp32
 70
     0
  0
XRECORD
  5
558C
102
{ACAD_REACTORS
330
558B
102
}
330
558B
100
AcDbXrecord
280
     1
102
RTVSPropertyOp0
 70
     1
102
RTVSPropertyOp1
 70
     1
102
RTVSPropertyOp2
 70
     1
102
RTVSPropertyOp3
 70
     1
102
RTVSPropertyOp4
 70
     1
102
RTVSPropertyOp5
 70
     1
102
RTVSPropertyOp6
 70
     1
102
RTVSPropertyOp7
 70
     1
102
RTVSPropertyOp8
 70
     1
102
RTVSPropertyOp9
 70
     1
102
RTVSPropertyOp10
 70
     1
102
RTVSPropertyOp11
 70
     1
102
RTVSPropertyOp12
 70
     1
102
RTVSPropertyOp13
 70
     1
102
RTVSPropertyOp14
 70
     1
102
RTVSPropertyOp15
 70
     1
102
RTVSPropertyOp16
 70
     1
102
RTVSPropertyOp17
 70
     1
102
RTVSPropertyOp18
 70
     1
102
RTVSPropertyOp19
 70
     1
102
RTVSPropertyOp20
 70
     1
102
RTVSPropertyOp21
 70
     1
102
RTVSPropertyOp22
 70
     1
102
RTVSPropertyOp23
 70
     1
102
RTVSPropertyOp24
 70
     1
102
RTVSPropertyOp25
 70
     1
102
RTVSPropertyOp26
 70
     1
102
RTVSPropertyOp27
 70
     1
102
RTVSPropertyOp28
 70
     1
102
RTVSPropertyOp29
 70
     1
102
RTVSPropertyOp30
 70
     1
102
RTVSPropertyOp31
 70
     1
102
RTVSPropertyOp32
 70
     1
  0
XRECORD
  5
5578
102
{ACAD_REACTORS
330
5577
102
}
330
5577
100
AcDbXrecord
280
     1
102
RTVSPropertyOp0
 70
     1
102
RTVSPropertyOp1
 70
     1
102
RTVSPropertyOp2
 70
     1
102
RTVSPropertyOp3
 70
     1
102
RTVSPropertyOp4
 70
     1
102
RTVSPropertyOp5
 70
     1
102
RTVSPropertyOp6
 70
     1
102
RTVSPropertyOp7
 70
     1
102
RTVSPropertyOp8
 70
     1
102
RTVSPropertyOp9
 70
     1
102
RTVSPropertyOp10
 70
     1
102
RTVSPropertyOp11
 70
     1
102
RTVSPropertyOp12
 70
     1
102
RTVSPropertyOp13
 70
     1
102
RTVSPropertyOp14
 70
     1
102
RTVSPropertyOp15
 70
     1
102
RTVSPropertyOp16
 70
     1
102
RTVSPropertyOp17
 70
     1
102
RTVSPropertyOp18
 70
     1
102
RTVSPropertyOp19
 70
     1
102
RTVSPropertyOp20
 70
     1
102
RTVSPropertyOp21
 70
     1
102
RTVSPropertyOp22
 70
     1
102
RTVSPropertyOp23
 70
     1
102
RTVSPropertyOp24
 70
     1
102
RTVSPropertyOp25
 70
     1
102
RTVSPropertyOp26
 70
     1
102
RTVSPropertyOp27
 70
     1
102
RTVSPropertyOp28
 70
     1
102
RTVSPropertyOp29
 70
     1
102
RTVSPropertyOp30
 70
     1
102
RTVSPropertyOp31
 70
     1
102
RTVSPropertyOp32
 70
     1
  0
XRECORD
  5
557A
102
{ACAD_REACTORS
330
5579
102
}
330
5579
100
AcDbXrecord
280
     1
102
RTVSPropertyOp0
 70
     1
102
RTVSPropertyOp1
 70
     1
102
RTVSPropertyOp2
 70
     1
102
RTVSPropertyOp3
 70
     1
102
RTVSPropertyOp4
 70
     1
102
RTVSPropertyOp5
 70
     1
102
RTVSPropertyOp6
 70
     1
102
RTVSPropertyOp7
 70
     1
102
RTVSPropertyOp8
 70
     1
102
RTVSPropertyOp9
 70
     1
102
RTVSPropertyOp10
 70
     1
102
RTVSPropertyOp11
 70
     1
102
RTVSPropertyOp12
 70
     1
102
RTVSPropertyOp13
 70
     1
102
RTVSPropertyOp14
 70
     1
102
RTVSPropertyOp15
 70
     1
102
RTVSPropertyOp16
 70
     1
102
RTVSPropertyOp17
 70
     1
102
RTVSPropertyOp18
 70
     1
102
RTVSPropertyOp19
 70
     1
102
RTVSPropertyOp20
 70
     1
102
RTVSPropertyOp21
 70
     1
102
RTVSPropertyOp22
 70
     1
102
RTVSPropertyOp23
 70
     1
102
RTVSPropertyOp24
 70
     1
102
RTVSPropertyOp25
 70
     1
102
RTVSPropertyOp26
 70
     1
102
RTVSPropertyOp27
 70
     1
102
RTVSPropertyOp28
 70
     1
102
RTVSPropertyOp29
 70
     1
102
RTVSPropertyOp30
 70
     1
102
RTVSPropertyOp31
 70
     1
102
RTVSPropertyOp32
 70
     1
  0
XRECORD
  5
557C
102
{ACAD_REACTORS
330
557B
102
}
330
557B
100
AcDbXrecord
280
     1
102
RTVSPropertyOp0
 70
     1
102
RTVSPropertyOp1
 70
     1
102
RTVSPropertyOp2
 70
     1
102
RTVSPropertyOp3
 70
     1
102
RTVSPropertyOp4
 70
     1
102
RTVSPropertyOp5
 70
     1
102
RTVSPropertyOp6
 70
     1
102
RTVSPropertyOp7
 70
     1
102
RTVSPropertyOp8
 70
     1
102
RTVSPropertyOp9
 70
     1
102
RTVSPropertyOp10
 70
     1
102
RTVSPropertyOp11
 70
     1
102
RTVSPropertyOp12
 70
     1
102
RTVSPropertyOp13
 70
     1
102
RTVSPropertyOp14
 70
     1
102
RTVSPropertyOp15
 70
     1
102
RTVSPropertyOp16
 70
     1
102
RTVSPropertyOp17
 70
     1
102
RTVSPropertyOp18
 70
     1
102
RTVSPropertyOp19
 70
     1
102
RTVSPropertyOp20
 70
     1
102
RTVSPropertyOp21
 70
     1
102
RTVSPropertyOp22
 70
     1
102
RTVSPropertyOp23
 70
     1
102
RTVSPropertyOp24
 70
     1
102
RTVSPropertyOp25
 70
     1
102
RTVSPropertyOp26
 70
     1
102
RTVSPropertyOp27
 70
     1
102
RTVSPropertyOp28
 70
     1
102
RTVSPropertyOp29
 70
     1
102
RTVSPropertyOp30
 70
     1
102
RTVSPropertyOp31
 70
     1
102
RTVSPropertyOp32
 70
     1
  0
XRECORD
  5
557E
102
{ACAD_REACTORS
330
557D
102
}
330
557D
100
AcDbXrecord
280
     1
102
RTVSPropertyOp0
 70
     1
102
RTVSPropertyOp1
 70
     1
102
RTVSPropertyOp2
 70
     1
102
RTVSPropertyOp3
 70
     1
102
RTVSPropertyOp4
 70
     1
102
RTVSPropertyOp5
 70
     1
102
RTVSPropertyOp6
 70
     1
102
RTVSPropertyOp7
 70
     1
102
RTVSPropertyOp8
 70
     1
102
RTVSPropertyOp9
 70
     1
102
RTVSPropertyOp10
 70
     1
102
RTVSPropertyOp11
 70
     1
102
RTVSPropertyOp12
 70
     1
102
RTVSPropertyOp13
 70
     1
102
RTVSPropertyOp14
 70
     1
102
RTVSPropertyOp15
 70
     1
102
RTVSPropertyOp16
 70
     1
102
RTVSPropertyOp17
 70
     1
102
RTVSPropertyOp18
 70
     1
102
RTVSPropertyOp19
 70
     1
102
RTVSPropertyOp20
 70
     1
102
RTVSPropertyOp21
 70
     1
102
RTVSPropertyOp22
 70
     1
102
RTVSPropertyOp23
 70
     1
102
RTVSPropertyOp24
 70
     1
102
RTVSPropertyOp25
 70
     1
102
RTVSPropertyOp26
 70
     1
102
RTVSPropertyOp27
 70
     1
102
RTVSPropertyOp28
 70
     1
102
RTVSPropertyOp29
 70
     1
102
RTVSPropertyOp30
 70
     1
102
RTVSPropertyOp31
 70
     1
102
RTVSPropertyOp32
 70
     1
  0
XRECORD
  5
559B
102
{ACAD_REACTORS
330
559A
102
}
330
559A
100
AcDbXrecord
280
     1
102
RTVSPropertyOp0
 70
     1
102
RTVSPropertyOp1
 70
     1
102
RTVSPropertyOp2
 70
     1
102
RTVSPropertyOp3
 70
     1
102
RTVSPropertyOp4
 70
     1
102
RTVSPropertyOp5
 70
     1
102
RTVSPropertyOp6
 70
     1
102
RTVSPropertyOp7
 70
     1
102
RTVSPropertyOp8
 70
     1
102
RTVSPropertyOp9
 70
     1
102
RTVSPropertyOp10
 70
     1
102
RTVSPropertyOp11
 70
     1
102
RTVSPropertyOp12
 70
     1
102
RTVSPropertyOp13
 70
     1
102
RTVSPropertyOp14
 70
     1
102
RTVSPropertyOp15
 70
     1
102
RTVSPropertyOp16
 70
     1
102
RTVSPropertyOp17
 70
     1
102
RTVSPropertyOp18
 70
     1
102
RTVSPropertyOp19
 70
     1
102
RTVSPropertyOp20
 70
     1
102
RTVSPropertyOp21
 70
     1
102
RTVSPropertyOp22
 70
     1
102
RTVSPropertyOp23
 70
     1
102
RTVSPropertyOp24
 70
     1
102
RTVSPropertyOp25
 70
     1
102
RTVSPropertyOp26
 70
     1
102
RTVSPropertyOp27
 70
     1
102
RTVSPropertyOp28
 70
     1
102
RTVSPropertyOp29
 70
     1
102
RTVSPropertyOp30
 70
     1
102
RTVSPropertyOp31
 70
     1
102
RTVSPropertyOp32
 70
     1
  0
XRECORD
  5
55A7
102
{ACAD_REACTORS
330
55A6
102
}
330
55A6
100
AcDbXrecord
280
     1
102
RTVSPropertyOp0
 70
     0
102
RTVSPropertyOp1
 70
     0
102
RTVSPropertyOp2
 70
     0
102
RTVSPropertyOp3
 70
     0
102
RTVSPropertyOp4
 70
     0
102
RTVSPropertyOp5
 70
     0
102
RTVSPropertyOp6
 70
     0
102
RTVSPropertyOp7
 70
     0
102
RTVSPropertyOp8
 70
     0
102
RTVSPropertyOp9
 70
     0
102
RTVSPropertyOp10
 70
     0
102
RTVSPropertyOp11
 70
     0
102
RTVSPropertyOp12
 70
     0
102
RTVSPropertyOp13
 70
     0
102
RTVSPropertyOp14
 70
     2
102
RTVSPropertyOp15
 70
     0
102
RTVSPropertyOp16
 70
     0
102
RTVSPropertyOp17
 70
     0
102
RTVSPropertyOp18
 70
     0
102
RTVSPropertyOp19
 70
     0
102
RTVSPropertyOp20
 70
     0
102
RTVSPropertyOp21
 70
     0
102
RTVSPropertyOp22
 70
     0
102
RTVSPropertyOp23
 70
     0
102
RTVSPropertyOp24
 70
     0
102
RTVSPropertyOp25
 70
     0
102
RTVSPropertyOp26
 70
     0
102
RTVSPropertyOp27
 70
     0
102
RTVSPropertyOp28
 70
     0
102
RTVSPropertyOp29
 70
     0
102
RTVSPropertyOp30
 70
     0
102
RTVSPropertyOp31
 70
     0
102
RTVSPropertyOp32
 70
     0
  0
XRECORD
  5
558A
102
{ACAD_REACTORS
330
5589
102
}
330
5589
100
AcDbXrecord
280
     1
102
RTVSPropertyOp0
 70
     1
102
RTVSPropertyOp1
 70
     1
102
RTVSPropertyOp2
 70
     1
102
RTVSPropertyOp3
 70
     1
102
RTVSPropertyOp4
 70
     1
102
RTVSPropertyOp5
 70
     1
102
RTVSPropertyOp6
 70
     1
102
RTVSPropertyOp7
 70
     1
102
RTVSPropertyOp8
 70
     1
102
RTVSPropertyOp9
 70
     1
102
RTVSPropertyOp10
 70
     1
102
RTVSPropertyOp11
 70
     1
102
RTVSPropertyOp12
 70
     1
102
RTVSPropertyOp13
 70
     1
102
RTVSPropertyOp14
 70
     1
102
RTVSPropertyOp15
 70
     1
102
RTVSPropertyOp16
 70
     1
102
RTVSPropertyOp17
 70
     1
102
RTVSPropertyOp18
 70
     1
102
RTVSPropertyOp19
 70
     1
102
RTVSPropertyOp20
 70
     1
102
RTVSPropertyOp21
 70
     1
102
RTVSPropertyOp22
 70
     1
102
RTVSPropertyOp23
 70
     1
102
RTVSPropertyOp24
 70
     1
102
RTVSPropertyOp25
 70
     1
102
RTVSPropertyOp26
 70
     1
102
RTVSPropertyOp27
 70
     1
102
RTVSPropertyOp28
 70
     1
102
RTVSPropertyOp29
 70
     1
102
RTVSPropertyOp30
 70
     1
102
RTVSPropertyOp31
 70
     1
102
RTVSPropertyOp32
 70
     1
  0
XRECORD
  5
55A9
102
{ACAD_REACTORS
330
55A8
102
}
330
55A8
100
AcDbXrecord
280
     1
102
RTVSPropertyOp0
 70
     0
102
RTVSPropertyOp1
 70
     0
102
RTVSPropertyOp2
 70
     0
102
RTVSPropertyOp3
 70
     0
102
RTVSPropertyOp4
 70
     0
102
RTVSPropertyOp5
 70
     0
102
RTVSPropertyOp6
 70
     0
102
RTVSPropertyOp7
 70
     0
102
RTVSPropertyOp8
 70
     0
102
RTVSPropertyOp9
 70
     0
102
RTVSPropertyOp10
 70
     0
102
RTVSPropertyOp11
 70
     0
102
RTVSPropertyOp12
 70
     0
102
RTVSPropertyOp13
 70
     0
102
RTVSPropertyOp14
 70
     2
102
RTVSPropertyOp15
 70
     0
102
RTVSPropertyOp16
 70
     0
102
RTVSPropertyOp17
 70
     0
102
RTVSPropertyOp18
 70
     0
102
RTVSPropertyOp19
 70
     0
102
RTVSPropertyOp20
 70
     0
102
RTVSPropertyOp21
 70
     0
102
RTVSPropertyOp22
 70
     0
102
RTVSPropertyOp23
 70
     0
102
RTVSPropertyOp24
 70
     0
102
RTVSPropertyOp25
 70
     0
102
RTVSPropertyOp26
 70
     0
102
RTVSPropertyOp27
 70
     0
102
RTVSPropertyOp28
 70
     0
102
RTVSPropertyOp29
 70
     0
102
RTVSPropertyOp30
 70
     0
102
RTVSPropertyOp31
 70
     0
102
RTVSPropertyOp32
 70
     0
  0
XRECORD
  5
5597
102
{ACAD_REACTORS
330
5596
102
}
330
5596
100
AcDbXrecord
280
     1
102
RTVSPropertyOp0
 70
     1
102
RTVSPropertyOp1
 70
     1
102
RTVSPropertyOp2
 70
     1
102
RTVSPropertyOp3
 70
     1
102
RTVSPropertyOp4
 70
     1
102
RTVSPropertyOp5
 70
     1
102
RTVSPropertyOp6
 70
     1
102
RTVSPropertyOp7
 70
     1
102
RTVSPropertyOp8
 70
     1
102
RTVSPropertyOp9
 70
     1
102
RTVSPropertyOp10
 70
     1
102
RTVSPropertyOp11
 70
     1
102
RTVSPropertyOp12
 70
     1
102
RTVSPropertyOp13
 70
     1
102
RTVSPropertyOp14
 70
     1
102
RTVSPropertyOp15
 70
     1
102
RTVSPropertyOp16
 70
     1
102
RTVSPropertyOp17
 70
     1
102
RTVSPropertyOp18
 70
     1
102
RTVSPropertyOp19
 70
     1
102
RTVSPropertyOp20
 70
     1
102
RTVSPropertyOp21
 70
     1
102
RTVSPropertyOp22
 70
     1
102
RTVSPropertyOp23
 70
     1
102
RTVSPropertyOp24
 70
     1
102
RTVSPropertyOp25
 70
     1
102
RTVSPropertyOp26
 70
     1
102
RTVSPropertyOp27
 70
     1
102
RTVSPropertyOp28
 70
     1
102
RTVSPropertyOp29
 70
     1
102
RTVSPropertyOp30
 70
     1
102
RTVSPropertyOp31
 70
     1
102
RTVSPropertyOp32
 70
     1
  0
XRECORD
  5
55A5
102
{ACAD_REACTORS
330
55A4
102
}
330
55A4
100
AcDbXrecord
280
     1
102
RTVSPropertyOp0
 70
     1
102
RTVSPropertyOp1
 70
     1
102
RTVSPropertyOp2
 70
     1
102
RTVSPropertyOp3
 70
     1
102
RTVSPropertyOp4
 70
     1
102
RTVSPropertyOp5
 70
     1
102
RTVSPropertyOp6
 70
     1
102
RTVSPropertyOp7
 70
     1
102
RTVSPropertyOp8
 70
     1
102
RTVSPropertyOp9
 70
     1
102
RTVSPropertyOp10
 70
     1
102
RTVSPropertyOp11
 70
     1
102
RTVSPropertyOp12
 70
     1
102
RTVSPropertyOp13
 70
     1
102
RTVSPropertyOp14
 70
     1
102
RTVSPropertyOp15
 70
     1
102
RTVSPropertyOp16
 70
     1
102
RTVSPropertyOp17
 70
     1
102
RTVSPropertyOp18
 70
     1
102
RTVSPropertyOp19
 70
     1
102
RTVSPropertyOp20
 70
     1
102
RTVSPropertyOp21
 70
     1
102
RTVSPropertyOp22
 70
     1
102
RTVSPropertyOp23
 70
     1
102
RTVSPropertyOp24
 70
     1
102
RTVSPropertyOp25
 70
     1
102
RTVSPropertyOp26
 70
     1
102
RTVSPropertyOp27
 70
     1
102
RTVSPropertyOp28
 70
     1
102
RTVSPropertyOp29
 70
     1
102
RTVSPropertyOp30
 70
     1
102
RTVSPropertyOp31
 70
     1
102
RTVSPropertyOp32
 70
     1
  0
XRECORD
  5
55A3
102
{ACAD_REACTORS
330
55A2
102
}
330
55A2
100
AcDbXrecord
280
     1
102
RTVSPropertyOp0
 70
     1
102
RTVSPropertyOp1
 70
     1
102
RTVSPropertyOp2
 70
     1
102
RTVSPropertyOp3
 70
     1
102
RTVSPropertyOp4
 70
     1
102
RTVSPropertyOp5
 70
     1
102
RTVSPropertyOp6
 70
     1
102
RTVSPropertyOp7
 70
     1
102
RTVSPropertyOp8
 70
     1
102
RTVSPropertyOp9
 70
     1
102
RTVSPropertyOp10
 70
     1
102
RTVSPropertyOp11
 70
     1
102
RTVSPropertyOp12
 70
     1
102
RTVSPropertyOp13
 70
     1
102
RTVSPropertyOp14
 70
     1
102
RTVSPropertyOp15
 70
     1
102
RTVSPropertyOp16
 70
     1
102
RTVSPropertyOp17
 70
     1
102
RTVSPropertyOp18
 70
     1
102
RTVSPropertyOp19
 70
     1
102
RTVSPropertyOp20
 70
     1
102
RTVSPropertyOp21
 70
     1
102
RTVSPropertyOp22
 70
     1
102
RTVSPropertyOp23
 70
     1
102
RTVSPropertyOp24
 70
     1
102
RTVSPropertyOp25
 70
     1
102
RTVSPropertyOp26
 70
     1
102
RTVSPropertyOp27
 70
     1
102
RTVSPropertyOp28
 70
     1
102
RTVSPropertyOp29
 70
     1
102
RTVSPropertyOp30
 70
     1
102
RTVSPropertyOp31
 70
     1
102
RTVSPropertyOp32
 70
     1
  0
XRECORD
  5
559D
102
{ACAD_REACTORS
330
559C
102
}
330
559C
100
AcDbXrecord
280
     1
102
RTVSPropertyOp0
 70
     1
102
RTVSPropertyOp1
 70
     1
102
RTVSPropertyOp2
 70
     1
102
RTVSPropertyOp3
 70
     1
102
RTVSPropertyOp4
 70
     1
102
RTVSPropertyOp5
 70
     1
102
RTVSPropertyOp6
 70
     1
102
RTVSPropertyOp7
 70
     1
102
RTVSPropertyOp8
 70
     1
102
RTVSPropertyOp9
 70
     1
102
RTVSPropertyOp10
 70
     1
102
RTVSPropertyOp11
 70
     1
102
RTVSPropertyOp12
 70
     1
102
RTVSPropertyOp13
 70
     1
102
RTVSPropertyOp14
 70
     1
102
RTVSPropertyOp15
 70
     1
102
RTVSPropertyOp16
 70
     1
102
RTVSPropertyOp17
 70
     1
102
RTVSPropertyOp18
 70
     1
102
RTVSPropertyOp19
 70
     1
102
RTVSPropertyOp20
 70
     1
102
RTVSPropertyOp21
 70
     1
102
RTVSPropertyOp22
 70
     1
102
RTVSPropertyOp23
 70
     1
102
RTVSPropertyOp24
 70
     1
102
RTVSPropertyOp25
 70
     1
102
RTVSPropertyOp26
 70
     1
102
RTVSPropertyOp27
 70
     1
102
RTVSPropertyOp28
 70
     1
102
RTVSPropertyOp29
 70
     1
102
RTVSPropertyOp30
 70
     1
102
RTVSPropertyOp31
 70
     1
102
RTVSPropertyOp32
 70
     1
  0
XRECORD
  5
559F
102
{ACAD_REACTORS
330
559E
102
}
330
559E
100
AcDbXrecord
280
     1
102
RTVSPropertyOp0
 70
     1
102
RTVSPropertyOp1
 70
     1
102
RTVSPropertyOp2
 70
     1
102
RTVSPropertyOp3
 70
     1
102
RTVSPropertyOp4
 70
     1
102
RTVSPropertyOp5
 70
     1
102
RTVSPropertyOp6
 70
     1
102
RTVSPropertyOp7
 70
     1
102
RTVSPropertyOp8
 70
     1
102
RTVSPropertyOp9
 70
     1
102
RTVSPropertyOp10
 70
     1
102
RTVSPropertyOp11
 70
     1
102
RTVSPropertyOp12
 70
     1
102
RTVSPropertyOp13
 70
     1
102
RTVSPropertyOp14
 70
     1
102
RTVSPropertyOp15
 70
     1
102
RTVSPropertyOp16
 70
     1
102
RTVSPropertyOp17
 70
     1
102
RTVSPropertyOp18
 70
     1
102
RTVSPropertyOp19
 70
     1
102
RTVSPropertyOp20
 70
     1
102
RTVSPropertyOp21
 70
     1
102
RTVSPropertyOp22
 70
     1
102
RTVSPropertyOp23
 70
     1
102
RTVSPropertyOp24
 70
     1
102
RTVSPropertyOp25
 70
     1
102
RTVSPropertyOp26
 70
     1
102
RTVSPropertyOp27
 70
     1
102
RTVSPropertyOp28
 70
     1
102
RTVSPropertyOp29
 70
     1
102
RTVSPropertyOp30
 70
     1
102
RTVSPropertyOp31
 70
     1
102
RTVSPropertyOp32
 70
     1
  0
XRECORD
  5
5588
102
{ACAD_REACTORS
330
5587
102
}
330
5587
100
AcDbXrecord
280
     1
102
RTVSPropertyOp0
 70
     1
102
RTVSPropertyOp1
 70
     1
102
RTVSPropertyOp2
 70
     1
102
RTVSPropertyOp3
 70
     1
102
RTVSPropertyOp4
 70
     1
102
RTVSPropertyOp5
 70
     1
102
RTVSPropertyOp6
 70
     1
102
RTVSPropertyOp7
 70
     1
102
RTVSPropertyOp8
 70
     1
102
RTVSPropertyOp9
 70
     1
102
RTVSPropertyOp10
 70
     1
102
RTVSPropertyOp11
 70
     1
102
RTVSPropertyOp12
 70
     1
102
RTVSPropertyOp13
 70
     1
102
RTVSPropertyOp14
 70
     1
102
RTVSPropertyOp15
 70
     1
102
RTVSPropertyOp16
 70
     1
102
RTVSPropertyOp17
 70
     1
102
RTVSPropertyOp18
 70
     1
102
RTVSPropertyOp19
 70
     1
102
RTVSPropertyOp20
 70
     1
102
RTVSPropertyOp21
 70
     1
102
RTVSPropertyOp22
 70
     1
102
RTVSPropertyOp23
 70
     1
102
RTVSPropertyOp24
 70
     1
102
RTVSPropertyOp25
 70
     1
102
RTVSPropertyOp26
 70
     1
102
RTVSPropertyOp27
 70
     1
102
RTVSPropertyOp28
 70
     1
102
RTVSPropertyOp29
 70
     1
102
RTVSPropertyOp30
 70
     1
102
RTVSPropertyOp31
 70
     1
102
RTVSPropertyOp32
 70
     1
  0
XRECORD
  5
5599
102
{ACAD_REACTORS
330
5598
102
}
330
5598
100
AcDbXrecord
280
     1
102
RTVSPropertyOp0
 70
     1
102
RTVSPropertyOp1
 70
     1
102
RTVSPropertyOp2
 70
     1
102
RTVSPropertyOp3
 70
     1
102
RTVSPropertyOp4
 70
     1
102
RTVSPropertyOp5
 70
     1
102
RTVSPropertyOp6
 70
     1
102
RTVSPropertyOp7
 70
     1
102
RTVSPropertyOp8
 70
     1
102
RTVSPropertyOp9
 70
     1
102
RTVSPropertyOp10
 70
     1
102
RTVSPropertyOp11
 70
     1
102
RTVSPropertyOp12
 70
     1
102
RTVSPropertyOp13
 70
     1
102
RTVSPropertyOp14
 70
     1
102
RTVSPropertyOp15
 70
     1
102
RTVSPropertyOp16
 70
     1
102
RTVSPropertyOp17
 70
     1
102
RTVSPropertyOp18
 70
     1
102
RTVSPropertyOp19
 70
     1
102
RTVSPropertyOp20
 70
     1
102
RTVSPropertyOp21
 70
     1
102
RTVSPropertyOp22
 70
     1
102
RTVSPropertyOp23
 70
     1
102
RTVSPropertyOp24
 70
     1
102
RTVSPropertyOp25
 70
     1
102
RTVSPropertyOp26
 70
     1
102
RTVSPropertyOp27
 70
     1
102
RTVSPropertyOp28
 70
     1
102
RTVSPropertyOp29
 70
     1
102
RTVSPropertyOp30
 70
     1
102
RTVSPropertyOp31
 70
     1
102
RTVSPropertyOp32
 70
     1
  0
XRECORD
  5
55A1
102
{ACAD_REACTORS
330
55A0
102
}
330
55A0
100
AcDbXrecord
280
     1
102
RTVSPropertyOp0
 70
     1
102
RTVSPropertyOp1
 70
     1
102
RTVSPropertyOp2
 70
     1
102
RTVSPropertyOp3
 70
     1
102
RTVSPropertyOp4
 70
     1
102
RTVSPropertyOp5
 70
     1
102
RTVSPropertyOp6
 70
     1
102
RTVSPropertyOp7
 70
     1
102
RTVSPropertyOp8
 70
     1
102
RTVSPropertyOp9
 70
     1
102
RTVSPropertyOp10
 70
     1
102
RTVSPropertyOp11
 70
     1
102
RTVSPropertyOp12
 70
     1
102
RTVSPropertyOp13
 70
     1
102
RTVSPropertyOp14
 70
     1
102
RTVSPropertyOp15
 70
     1
102
RTVSPropertyOp16
 70
     1
102
RTVSPropertyOp17
 70
     1
102
RTVSPropertyOp18
 70
     1
102
RTVSPropertyOp19
 70
     1
102
RTVSPropertyOp20
 70
     1
102
RTVSPropertyOp21
 70
     1
102
RTVSPropertyOp22
 70
     1
102
RTVSPropertyOp23
 70
     1
102
RTVSPropertyOp24
 70
     1
102
RTVSPropertyOp25
 70
     1
102
RTVSPropertyOp26
 70
     1
102
RTVSPropertyOp27
 70
     1
102
RTVSPropertyOp28
 70
     1
102
RTVSPropertyOp29
 70
     1
102
RTVSPropertyOp30
 70
     1
102
RTVSPropertyOp31
 70
     1
102
RTVSPropertyOp32
 70
     1
  0
ENDSEC
  0
EOF
