  0
SECTION
  2
HEADER
  9
$ACADVER
  1
AC1012
  9
$DWGCODEPAGE
  3
ANSI_1252
  9
$INSBASE
 10
0.0
 20
0.0
 30
0.0
  9
$EXTMIN
 10
4.992371100225
 20
4.981812218415825
 30
-0.0000000000112498
  9
$EXTMAX
 10
205.0076298776636
 20
292.0118415048484
 30
0.0000000000002956
  9
$LIMMIN
 10
0.0
 20
0.0
  9
$LIMMAX
 10
210.0
 20
296.0
  9
$ORTHOMODE
 70
     0
  9
$REGENMODE
 70
     1
  9
$FILLMODE
 70
     1
  9
$QTEXTMODE
 70
     0
  9
$MIRRTEXT
 70
     1
  9
$DRAGMODE
 70
     2
  9
$LTSCALE
 40
0.5
  9
$OSMODE
 70
   167
  9
$ATTMODE
 70
     1
  9
$TEXTSIZE
 40
0.2
  9
$TRACEWID
 40
0.05
  9
$TEXTSTYLE
  7
FINDER
  9
$CLAYER
  8
DIM
  9
$CELTYPE
  6
CONTINUOUS
  9
$CECOLOR
 62
   256
  9
$CELTSCALE
 40
1.0
  9
$DELOBJ
 70
     1
  9
$DISPSILH
 70
     0
  9
$DIMSCALE
 40
1.0
  9
$DIMASZ
 40
2.5
  9
$DIMEXO
 40
2.0
  9
$DIMDLI
 40
6.5
  9
$DIMRND
 40
0.0
  9
$DIMDLE
 40
0.0
  9
$DIMEXE
 40
1.25
  9
$DIMTP
 40
0.0
  9
$DIMTM
 40
0.0
  9
$DIMTXT
 40
3.5
  9
$DIMCEN
 40
2.5
  9
$DIMTSZ
 40
0.0
  9
$DIMTOL
 70
     0
  9
$DIMLIM
 70
     0
  9
$DIMTIH
 70
     0
  9
$DIMTOH
 70
     0
  9
$DIMSE1
 70
     0
  9
$DIMSE2
 70
     0
  9
$DIMTAD
 70
     1
  9
$DIMZIN
 70
     8
  9
$DIMBLK
  1

  9
$DIMASO
 70
     1
  9
$DIMSHO
 70
     1
  9
$DIMPOST
  1

  9
$DIMAPOST
  1

  9
$DIMALT
 70
     0
  9
$DIMALTD
 70
     3
  9
$DIMALTF
 40
0.0393701
  9
$DIMLFAC
 40
1.0
  9
$DIMTOFL
 70
     1
  9
$DIMTVP
 40
0.0
  9
$DIMTIX
 70
     0
  9
$DIMSOXD
 70
     0
  9
$DIMSAH
 70
     0
  9
$DIMBLK1
  1

  9
$DIMBLK2
  1

  9
$DIMSTYLE
  2
FINDER
  9
$DIMCLRD
 70
   256
  9
$DIMCLRE
 70
   256
  9
$DIMCLRT
 70
     2
  9
$DIMTFAC
 40
1.0
  9
$DIMGAP
 40
0.625
  9
$DIMJUST
 70
     0
  9
$DIMSD1
 70
     0
  9
$DIMSD2
 70
     0
  9
$DIMTOLJ
 70
     0
  9
$DIMTZIN
 70
     8
  9
$DIMALTZ
 70
     0
  9
$DIMALTTZ
 70
     0
  9
$DIMFIT
 70
     3
  9
$DIMUPT
 70
     0
  9
$DIMUNIT
 70
     2
  9
$DIMDEC
 70
     2
  9
$DIMTDEC
 70
     2
  9
$DIMALTU
 70
     2
  9
$DIMALTTD
 70
     3
  9
$DIMTXSTY
  7
FINDER
  9
$DIMAUNIT
 70
     0
  9
$LUNITS
 70
     2
  9
$LUPREC
 70
     4
  9
$SKETCHINC
 40
0.1
  9
$FILLETRAD
 40
0.25
  9
$AUNITS
 70
     0
  9
$AUPREC
 70
     3
  9
$MENU
  1
acad
  9
$ELEVATION
 40
0.0
  9
$PELEVATION
 40
0.0
  9
$THICKNESS
 40
0.0
  9
$LIMCHECK
 70
     0
  9
$BLIPMODE
 70
     0
  9
$CHAMFERA
 40
0.0
  9
$CHAMFERB
 40
0.0
  9
$CHAMFERC
 40
0.0
  9
$CHAMFERD
 40
0.0
  9
$SKPOLY
 70
     0
  9
$TDCREATE
 40
2451901.420981018
  9
$TDUPDATE
 40
2453031.468306793
  9
$TDINDWG
 40
0.2793907292
  9
$TDUSRTIMER
 40
0.2793907292
  9
$USRTIMER
 70
     1
  9
$ANGBASE
 50
0.0
  9
$ANGDIR
 70
     0
  9
$PDMODE
 70
     0
  9
$PDSIZE
 40
0.0
  9
$PLINEWID
 40
0.0
  9
$COORDS
 70
     0
  9
$SPLFRAME
 70
     0
  9
$SPLINETYPE
 70
     6
  9
$SPLINESEGS
 70
     8
  9
$ATTDIA
 70
     0
  9
$ATTREQ
 70
     1
  9
$HANDLING
 70
 22529
  9
$HANDSEED
  5
3447
  9
$SURFTAB1
 70
     6
  9
$SURFTAB2
 70
     6
  9
$SURFTYPE
 70
     6
  9
$SURFU
 70
     6
  9
$SURFV
 70
     6
  9
$UCSNAME
  2

  9
$UCSORG
 10
0.0
 20
0.0
 30
0.0
  9
$UCSXDIR
 10
1.0
 20
0.0
 30
0.0
  9
$UCSYDIR
 10
0.0
 20
1.0
 30
0.0
  9
$PUCSNAME
  2

  9
$PUCSORG
 10
0.0
 20
0.0
 30
0.0
  9
$PUCSXDIR
 10
1.0
 20
0.0
 30
0.0
  9
$PUCSYDIR
 10
0.0
 20
1.0
 30
0.0
  9
$USERI1
 70
     0
  9
$USERI2
 70
     0
  9
$USERI3
 70
     0
  9
$USERI4
 70
     0
  9
$USERI5
 70
     0
  9
$USERR1
 40
0.0
  9
$USERR2
 40
0.0
  9
$USERR3
 40
0.0
  9
$USERR4
 40
0.0
  9
$USERR5
 40
0.0
  9
$WORLDVIEW
 70
     1
  9
$SHADEDGE
 70
     3
  9
$SHADEDIF
 70
    70
  9
$TILEMODE
 70
     1
  9
$MAXACTVP
 70
    16
  9
$PINSBASE
 10
0.0
 20
0.0
 30
0.0
  9
$PLIMCHECK
 70
     0
  9
$PEXTMIN
 10
1.000000000000000E+20
 20
1.000000000000000E+20
 30
1.000000000000000E+20
  9
$PEXTMAX
 10
-1.000000000000000E+20
 20
-1.000000000000000E+20
 30
-1.000000000000000E+20
  9
$PLIMMIN
 10
0.0
 20
0.0
  9
$PLIMMAX
 10
100.0
 20
100.0
  9
$UNITMODE
 70
     0
  9
$VISRETAIN
 70
     0
  9
$PLINEGEN
 70
     1
  9
$PSLTSCALE
 70
     0
  9
$TREEDEPTH
 70
  3020
  9
$PICKSTYLE
 70
     1
  9
$CMLSTYLE
  2
STANDARD
  9
$CMLJUST
 70
     0
  9
$CMLSCALE
 40
1.0
  9
$SAVEIMAGES
 70
     0
  0
ENDSEC
  0
SECTION
  2
CLASSES
  0
CLASS
  1
LWPOLYLINE
  2
AcDbPolyline
  3
AutoCAD 2000
 90
    32768
280
     0
281
     1
  0
CLASS
  1
IMAGE
  2
AcDbRasterImage
  3
ISM
 90
    32895
280
     0
281
     1
  0
CLASS
  1
OLE2FRAME
  2
AcDbOle2Frame
  3
AutoCAD 2000
 90
    32768
280
     0
281
     1
  0
CLASS
  1
HATCH
  2
AcDbHatch
  3
AutoCAD 2000
 90
    32768
280
     0
281
     1
  0
CLASS
  1
DICTIONARYVAR
  2
AcDbDictionaryVar
  3
AutoCAD 2000
 90
    32768
280
     0
281
     0
  0
CLASS
  1
RASTERVARIABLES
  2
AcDbRasterVariables
  3
ISM
 90
    32768
280
     0
281
     0
  0
CLASS
  1
IMAGEDEF
  2
AcDbRasterImageDef
  3
ISM
 90
    32768
280
     0
281
     0
  0
CLASS
  1
IMAGEDEF_REACTOR
  2
AcDbRasterImageDefReactor
  3
ISM
 90
    32769
280
     0
281
     0
  0
CLASS
  1
IDBUFFER
  2
AcDbIdBuffer
  3
AutoCAD 2000
 90
    32768
280
     0
281
     0
  0
CLASS
  1
SPATIAL_FILTER
  2
AcDbSpatialFilter
  3
AutoCAD 2000
 90
    32768
280
     0
281
     0
  0
CLASS
  1
XRECORD
  2
AcDbXrecord
  3
AutoCAD 2000
 90
    32768
280
     0
281
     0
  0
CLASS
  1
SORTENTSTABLE
  2
AcDbSortentsTable
  3
AutoCAD 2000
 90
    32768
280
     0
281
     0
  0
CLASS
  1
LAYER_INDEX
  2
AcDbLayerIndex
  3
AutoCAD 2000
 90
    32768
280
     0
281
     0
  0
CLASS
  1
SPATIAL_INDEX
  2
AcDbSpatialIndex
  3
AutoCAD 2000
 90
    32768
280
     0
281
     0
  0
CLASS
  1
OBJECT_PTR
  2
CAseDLPNTableRecord
  3
ASE-LPNTableRecord
 90
    32769
280
     0
281
     0
  0
CLASS
  1
LAYOUT
  2
AcDbLayout
  3
AutoCAD 2000
 90
    32768
280
     0
281
     0
  0
CLASS
  1
PLOTSETTINGS
  2
AcDbPlotSettings
  3
AutoCAD 2000
 90
    32768
280
     0
281
     0
  0
CLASS
  1
ACDBDICTIONARYWDFLT
  2
AcDbDictionaryWithDefault
  3
AutoCAD 2000
 90
    32768
280
     0
281
     0
  0
CLASS
  1
ACDBPLACEHOLDER
  2
AcDbPlaceHolder
  3
AutoCAD 2000
 90
    32768
280
     0
281
     0
  0
CLASS
  1
VBA_PROJECT
  2
AcDbVbaProject
  3
"acadvba"
 90
    32769
280
     0
281
     0
  0
CLASS
  1
WIPEOUT
  2
AcDbWipeout
  3
WipeOut|AutoCAD Express Tool|expresstools@autodesk.com
 90
    32895
280
     0
281
     1
  0
CLASS
  1
WIPEOUTVARIABLES
  2
AcDbWipeoutVariables
  3
WipeOut|AutoCAD Express Tool|expresstools@autodesk.com
 90
    32768
280
     0
281
     0
  0
CLASS
  1
RTEXT
  2
RText
  3
RText|AutoCAD Express Tool|expresstools@autodesk.com
 90
    32768
280
     0
281
     1
  0
CLASS
  1
ARCALIGNEDTEXT
  2
AcDbArcAlignedText
  3
ATEXT|AutoCAD Express Tool|expresstools@autodesk.com
 90
    32768
280
     0
281
     1
  0
CLASS
  1
LONG_TRANSACTION
  2
AcDbLongTransaction
  3
AutoCAD 2000
 90
    32768
280
     0
281
     0
  0
CLASS
  1
LWPOLYLINE
  2
AcDbPolyline
  3
AutoCAD 2000
 90
    32768
280
     0
281
     1
  0
CLASS
  1
HATCH
  2
AcDbHatch
  3
AutoCAD 2000
 90
    32768
280
     0
281
     1
  0
CLASS
  1
XRECORD
  2
AcDbXrecord
  3
AutoCAD 2000
 90
    32768
280
     0
281
     0
  0
CLASS
  1
LONG_TRANSACTION
  2
AcDbLongTransaction
  3
AutoCAD 2000
 90
    32768
280
     0
281
     0
  0
CLASS
  1
LWPOLYLINE
  2
AcDbPolyline
  3
AutoCAD 2000
 90
    32768
280
     0
281
     1
  0
CLASS
  1
HATCH
  2
AcDbHatch
  3
AutoCAD 2000
 90
    32768
280
     0
281
     1
  0
CLASS
  1
XRECORD
  2
AcDbXrecord
  3
AutoCAD 2000
 90
    32768
280
     0
281
     0
  0
ENDSEC
  0
SECTION
  2
TABLES
  0
TABLE
  2
VPORT
  5
7
330
0
100
AcDbSymbolTable
 70
     4
  0
VPORT
  5
32BA
330
7
100
AcDbSymbolTableRecord
100
AcDbViewportTableRecord
  2
*ACTIVE
 70
     0
 10
0.0
 20
0.0
 11
1.0
 21
1.0
 12
104.9999999999999
 22
148.0
 13
0.0
 23
0.0
 14
1.0
 24
1.0
 15
2.0
 25
2.0
 16
0.0
 26
0.0
 36
1.0
 17
0.0
 27
0.0
 37
0.0
 40
299.5806451612903
 41
1.89090909090909
 42
50.0
 43
0.0
 44
0.0
 50
0.0
 51
0.0
 71
     0
 72
   100
 73
     1
 74
     1
 75
     0
 76
     0
 77
     0
 78
     0
  0
ENDTAB
  0
TABLE
  2
LTYPE
  5
4
330
0
100
AcDbSymbolTable
 70
     1
  0
LTYPE
  5
11
330
4
100
AcDbSymbolTableRecord
100
AcDbLinetypeTableRecord
  2
BYBLOCK
 70
     0
  3

 72
    65
 73
     0
 40
0.0
  0
LTYPE
  5
12
330
4
100
AcDbSymbolTableRecord
100
AcDbLinetypeTableRecord
  2
BYLAYER
 70
     0
  3

 72
    65
 73
     0
 40
0.0
  0
LTYPE
  5
13
330
4
100
AcDbSymbolTableRecord
100
AcDbLinetypeTableRecord
  2
CONTINUOUS
 70
     0
  3
Solid line
 72
    65
 73
     0
 40
0.0
  0
ENDTAB
  0
TABLE
  2
LAYER
  5
2
330
0
100
AcDbSymbolTable
 70
     6
  0
LAYER
  5
14
330
2
100
AcDbSymbolTableRecord
100
AcDbLayerTableRecord
  2
0
 70
     0
 62
     7
  6
CONTINUOUS
  0
LAYER
  5
B1
330
2
100
AcDbSymbolTableRecord
100
AcDbLayerTableRecord
  2
DIM
 70
     0
 62
     3
  6
CONTINUOUS
  0
LAYER
  5
B2
330
2
100
AcDbSymbolTableRecord
100
AcDbLayerTableRecord
  2
DRAW
 70
     0
 62
     7
  6
CONTINUOUS
  0
LAYER
  5
B3
330
2
100
AcDbSymbolTableRecord
100
AcDbLayerTableRecord
  2
CARTOUCHE
 70
     0
 62
     7
  6
CONTINUOUS
  0
LAYER
  5
B4
330
2
100
AcDbSymbolTableRecord
100
AcDbLayerTableRecord
  2
DRAW-TEXT
 70
     0
 62
     1
  6
CONTINUOUS
  0
LAYER
  5
1EF1
330
2
100
AcDbSymbolTableRecord
100
AcDbLayerTableRecord
  2
DEFPOINTS
 70
     0
 62
     7
  6
CONTINUOUS
  0
ENDTAB
  0
TABLE
  2
STYLE
  5
3
330
0
100
AcDbSymbolTable
 70
     2
  0
STYLE
  5
17
330
3
100
AcDbSymbolTableRecord
100
AcDbTextStyleTableRecord
  2
STANDARD
 70
     0
 40
0.0
 41
1.0
 50
0.0
 71
     0
 42
0.2
  3
txt
  4

  0
STYLE
  5
BE
330
3
100
AcDbSymbolTableRecord
100
AcDbTextStyleTableRecord
  2
FINDER
 70
     0
 40
1.8
 41
1.0
 50
0.0
 71
     0
 42
0.2
  3
ARIAL.TTF
  4

1001
ACAD
1000
Arial
1071
       34
  0
ENDTAB
  0
TABLE
  2
VIEW
  5
5
330
0
100
AcDbSymbolTable
 70
     0
  0
ENDTAB
  0
TABLE
  2
UCS
  5
6
330
0
100
AcDbSymbolTable
 70
     0
  0
ENDTAB
  0
TABLE
  2
APPID
  5
8
330
0
100
AcDbSymbolTable
 70
     1
  0
APPID
  5
16
330
8
100
AcDbSymbolTableRecord
100
AcDbRegAppTableRecord
  2
ACAD
 70
     0
  0
ENDTAB
  0
TABLE
  2
DIMSTYLE
  5
9
330
0
100
AcDbSymbolTable
 70
     2
  0
DIMSTYLE
105
18
330
9
100
AcDbSymbolTableRecord
100
AcDbDimStyleTableRecord
  2
STANDARD
 70
     0
  3

  4

  5

  6

  7

 40
1.0
 41
0.18
 42
0.0625
 43
0.38
 44
0.18
 45
0.0
 46
0.0
 47
0.0
 48
0.0
140
0.18
141
0.09
142
0.0
143
25.4
144
1.0
145
0.0
146
1.0
147
0.09
 71
     0
 72
     0
 73
     1
 74
     1
 75
     0
 76
     0
 77
     0
 78
     0
170
     0
171
     2
172
     0
173
     0
174
     0
175
     0
176
     0
177
     0
178
     0
270
     2
271
     4
272
     4
273
     2
274
     2
340
17
275
     0
280
     0
281
     0
282
     0
283
     1
284
     0
285
     0
286
     0
287
     0
288
     0
  0
DIMSTYLE
105
D1
102
{ACAD_REACTORS
330
3116
330
2EE2
330
2E5B
330
2EA2
330
2EA3
330
2EA4
102
}
330
9
100
AcDbSymbolTableRecord
100
AcDbDimStyleTableRecord
  2
FINDER
 70
     0
  3

  4

  5

  6

  7

 40
1.0
 41
2.5
 42
2.0
 43
6.5
 44
1.25
 45
0.0
 46
0.0
 47
0.0
 48
0.0
140
3.5
141
2.5
142
0.0
143
0.0393701
144
1.0
145
0.0
146
1.0
147
0.625
 71
     0
 72
     0
 73
     0
 74
     0
 75
     0
 76
     0
 77
     1
 78
     8
170
     0
171
     3
172
     1
173
     0
174
     0
175
     0
176
   256
177
   256
178
     2
270
     2
271
     2
272
     2
273
     2
274
     3
340
BE
275
     0
280
     0
281
     0
282
     0
283
     0
284
     8
285
     0
286
     0
287
     3
288
     0
  0
ENDTAB
  0
TABLE
  2
BLOCK_RECORD
  5
1
330
0
100
AcDbSymbolTable
 70
    26
  0
BLOCK_RECORD
  5
A
102
{ACAD_XDICTIONARY
360
2588
102
}
330
1
100
AcDbSymbolTableRecord
100
AcDbBlockTableRecord
  2
*MODEL_SPACE
  0
BLOCK_RECORD
  5
B
102
{ACAD_XDICTIONARY
360
258A
102
}
330
1
100
AcDbSymbolTableRecord
100
AcDbBlockTableRecord
  2
*PAPER_SPACE
  0
BLOCK_RECORD
  5
31C8
330
1
100
AcDbSymbolTableRecord
100
AcDbBlockTableRecord
  2
*D12
  0
BLOCK_RECORD
  5
31D4
330
1
100
AcDbSymbolTableRecord
100
AcDbBlockTableRecord
  2
*D13
  0
BLOCK_RECORD
  5
31E0
330
1
100
AcDbSymbolTableRecord
100
AcDbBlockTableRecord
  2
*D14
  0
BLOCK_RECORD
  5
31EC
330
1
100
AcDbSymbolTableRecord
100
AcDbBlockTableRecord
  2
*D15
  0
BLOCK_RECORD
  5
31F8
330
1
100
AcDbSymbolTableRecord
100
AcDbBlockTableRecord
  2
*D16
  0
BLOCK_RECORD
  5
3204
330
1
100
AcDbSymbolTableRecord
100
AcDbBlockTableRecord
  2
*D17
  0
BLOCK_RECORD
  5
32BD
330
1
100
AcDbSymbolTableRecord
100
AcDbBlockTableRecord
  2
*X18
  0
BLOCK_RECORD
  5
334E
330
1
100
AcDbSymbolTableRecord
100
AcDbBlockTableRecord
  2
*X19
  0
BLOCK_RECORD
  5
336E
330
1
100
AcDbSymbolTableRecord
100
AcDbBlockTableRecord
  2
*X20
  0
BLOCK_RECORD
  5
337B
330
1
100
AcDbSymbolTableRecord
100
AcDbBlockTableRecord
  2
*X21
  0
BLOCK_RECORD
  5
3392
330
1
100
AcDbSymbolTableRecord
100
AcDbBlockTableRecord
  2
*X22
  0
BLOCK_RECORD
  5
33BC
330
1
100
AcDbSymbolTableRecord
100
AcDbBlockTableRecord
  2
*X23
  0
BLOCK_RECORD
  5
33EB
330
1
100
AcDbSymbolTableRecord
100
AcDbBlockTableRecord
  2
*X24
  0
BLOCK_RECORD
  5
341E
330
1
100
AcDbSymbolTableRecord
100
AcDbBlockTableRecord
  2
*X25
  0
ENDTAB
  0
ENDSEC
  0
SECTION
  2
BLOCKS
  0
BLOCK
  5
D
330
A
100
AcDbEntity
  8
0
100
AcDbBlockBegin
  2
*MODEL_SPACE
 70
     0
 10
0.0
 20
0.0
 30
0.0
  3
*MODEL_SPACE
  1

  0
ENDBLK
  5
E
330
A
100
AcDbEntity
  8
0
100
AcDbBlockEnd
  0
BLOCK
  5
F
330
B
100
AcDbEntity
 67
     1
  8
0
100
AcDbBlockBegin
  2
*PAPER_SPACE
 70
     0
 10
0.0
 20
0.0
 30
0.0
  3
*PAPER_SPACE
  1

  0
ENDBLK
  5
10
330
B
100
AcDbEntity
 67
     1
  8
0
100
AcDbBlockEnd
  0
BLOCK
  5
31D2
330
31C8
100
AcDbEntity
  8
0
100
AcDbBlockBegin
  2
*D12
 70
     1
 10
0.0
 20
0.0
 30
0.0
  3
*D12
  1

  0
LINE
  5
32A1
330
31C8
100
AcDbEntity
  8
DIM
  6
CONTINUOUS
100
AcDbLine
 10
150.5983999464468
 20
213.2149535470459
 30
0.0
 11
150.5983999464468
 21
221.5000266821974
 31
0.0
  0
LINE
  5
32A2
330
31C8
100
AcDbEntity
  8
DIM
  6
CONTINUOUS
100
AcDbLine
 10
168.0983999464468
 20
213.2149535470459
 30
0.0
 11
168.0983999464468
 21
221.5000266821974
 31
0.0
  0
LINE
  5
32A3
330
31C8
100
AcDbEntity
  8
DIM
  6
CONTINUOUS
100
AcDbLine
 10
153.0983999464468
 20
220.2500266821974
 30
0.0
 11
165.5983999464468
 21
220.2500266821974
 31
0.0
  0
SOLID
  5
32A4
330
31C8
100
AcDbEntity
  8
DIM
  6
CONTINUOUS
100
AcDbTrace
 10
153.0983999464468
 20
220.666693348864
 30
0.0
 11
153.0983999464468
 21
219.8333600155307
 31
0.0
 12
150.5983999464468
 22
220.2500266821974
 32
0.0
 13
150.5983999464468
 23
220.2500266821974
 33
0.0
  0
SOLID
  5
32A5
330
31C8
100
AcDbEntity
  8
DIM
  6
CONTINUOUS
100
AcDbTrace
 10
165.5983999464468
 20
220.666693348864
 30
0.0
 11
165.5983999464468
 21
219.8333600155307
 31
0.0
 12
168.0983999464468
 22
220.2500266821974
 32
0.0
 13
168.0983999464468
 23
220.2500266821974
 33
0.0
  0
MTEXT
  5
32A6
330
31C8
100
AcDbEntity
  8
DIM
  6
CONTINUOUS
 62
     2
100
AcDbMText
 10
159.3483999464468
 20
221.7940580600964
 30
0.0
 40
1.8
 41
0.0
 71
     5
 72
     1
  1
17.5
  7
FINDER
1001
ACAD
1000
MTEXTBEGIN
1070
    73
1070
     1
1070
    44
1040
1.0
1070
    74
1070
     0
1000
MTEXTEND
  0
POINT
  5
32A7
330
31C8
100
AcDbEntity
  8
DEFPOINTS
  6
CONTINUOUS
 62
     0
100
AcDbPoint
 10
150.5983999464468
 20
211.2149535470459
 30
0.0
  0
POINT
  5
32A8
330
31C8
100
AcDbEntity
  8
DEFPOINTS
  6
CONTINUOUS
 62
     0
100
AcDbPoint
 10
168.0983999464468
 20
211.2149535470459
 30
0.0
  0
POINT
  5
32A9
330
31C8
100
AcDbEntity
  8
DEFPOINTS
  6
CONTINUOUS
 62
     0
100
AcDbPoint
 10
168.0983999464468
 20
220.2500266821974
 30
0.0
  0
ENDBLK
  5
31D3
330
31C8
100
AcDbEntity
  8
0
100
AcDbBlockEnd
  0
BLOCK
  5
31DE
330
31D4
100
AcDbEntity
  8
0
100
AcDbBlockBegin
  2
*D13
 70
     1
 10
0.0
 20
0.0
 30
0.0
  3
*D13
  1

  0
LINE
  5
32AA
330
31D4
100
AcDbEntity
  8
DIM
  6
CONTINUOUS
100
AcDbLine
 10
169.8984001333894
 20
209.2262963196696
 30
0.0
 11
184.0344772518803
 21
209.2262963196696
 31
0.0
  0
LINE
  5
32AB
330
31D4
100
AcDbEntity
  8
DIM
  6
CONTINUOUS
100
AcDbLine
 10
169.8984001332543
 20
125.2262963196696
 30
0.0
 11
184.0344772518803
 21
125.2262963196696
 31
0.0
  0
LINE
  5
32AC
330
31D4
100
AcDbEntity
  8
DIM
  6
CONTINUOUS
100
AcDbLine
 10
182.7844772518803
 20
206.7262963196696
 30
0.0
 11
182.7844772518803
 21
127.7262963196696
 31
0.0
  0
SOLID
  5
32AD
330
31D4
100
AcDbEntity
  8
DIM
  6
CONTINUOUS
100
AcDbTrace
 10
182.3678105852136
 20
206.7262963196696
 30
0.0
 11
183.201143918547
 21
206.7262963196696
 31
0.0
 12
182.7844772518803
 22
209.2262963196696
 32
0.0
 13
182.7844772518803
 23
209.2262963196696
 33
0.0
  0
SOLID
  5
32AE
330
31D4
100
AcDbEntity
  8
DIM
  6
CONTINUOUS
100
AcDbTrace
 10
182.3678105852136
 20
127.7262963196696
 30
0.0
 11
183.2011439185469
 21
127.7262963196696
 31
0.0
 12
182.7844772518803
 22
125.2262963196696
 32
0.0
 13
182.7844772518803
 23
125.2262963196696
 33
0.0
  0
MTEXT
  5
32AF
330
31D4
100
AcDbEntity
  8
DIM
  6
CONTINUOUS
 62
     2
100
AcDbMText
 10
181.2404458739812
 20
167.2262963196696
 30
0.0
 40
1.8
 41
0.0
 71
     5
 72
     1
  1
84
  7
FINDER
 11
0.0000000000000001
 21
1.0
 31
0.0
1001
ACAD
1000
MTEXTBEGIN
1070
    73
1070
     1
1070
    44
1040
1.0
1070
    74
1070
     0
1000
MTEXTEND
  0
POINT
  5
32B0
330
31D4
100
AcDbEntity
  8
DEFPOINTS
  6
CONTINUOUS
 62
     0
100
AcDbPoint
 10
167.8984001333894
 20
209.2262963196696
 30
0.0
  0
POINT
  5
32B1
330
31D4
100
AcDbEntity
  8
DEFPOINTS
  6
CONTINUOUS
 62
     0
100
AcDbPoint
 10
167.8984001332543
 20
125.2262963196696
 30
0.0
  0
POINT
  5
32B2
330
31D4
100
AcDbEntity
  8
DEFPOINTS
  6
CONTINUOUS
 62
     0
100
AcDbPoint
 10
182.7844772518803
 20
125.2262963196696
 30
0.0
  0
ENDBLK
  5
31DF
330
31D4
100
AcDbEntity
  8
0
100
AcDbBlockEnd
  0
BLOCK
  5
31EA
330
31E0
100
AcDbEntity
  8
0
100
AcDbBlockBegin
  2
*D14
 70
     1
 10
0.0
 20
0.0
 30
0.0
  3
*D14
  1

  0
LINE
  5
3298
330
31E0
100
AcDbEntity
  8
DIM
  6
CONTINUOUS
100
AcDbLine
 10
100.0513366464172
 20
189.7263005999278
 30
0.0
 11
117.0561342495957
 21
189.7263005999278
 31
0.0
  0
LINE
  5
3299
330
31E0
100
AcDbEntity
  8
DIM
  6
CONTINUOUS
100
AcDbLine
 10
99.43284626234937
 20
144.7262963545884
 30
0.0
 11
117.0561342495957
 21
144.7262963545884
 31
0.0
  0
LINE
  5
329A
330
31E0
100
AcDbEntity
  8
DIM
  6
CONTINUOUS
100
AcDbLine
 10
115.8061342495957
 20
187.2263005999278
 30
0.0
 11
115.8061342495957
 21
147.2262963545884
 31
0.0
  0
SOLID
  5
329B
330
31E0
100
AcDbEntity
  8
DIM
  6
CONTINUOUS
100
AcDbTrace
 10
115.389467582929
 20
187.2263005999278
 30
0.0
 11
116.2228009162624
 21
187.2263005999278
 31
0.0
 12
115.8061342495957
 22
189.7263005999278
 32
0.0
 13
115.8061342495957
 23
189.7263005999278
 33
0.0
  0
SOLID
  5
329C
330
31E0
100
AcDbEntity
  8
DIM
  6
CONTINUOUS
100
AcDbTrace
 10
115.389467582929
 20
147.2262963545884
 30
0.0
 11
116.2228009162623
 21
147.2262963545884
 31
0.0
 12
115.8061342495957
 22
144.7262963545884
 32
0.0
 13
115.8061342495957
 23
144.7262963545884
 33
0.0
  0
MTEXT
  5
329D
330
31E0
100
AcDbEntity
  8
DIM
  6
CONTINUOUS
 62
     2
100
AcDbMText
 10
114.2657863641932
 20
167.2262984772581
 30
0.0
 40
1.8
 41
0.0
 71
     5
 72
     1
  1
45
  7
FINDER
 11
0.0000000000000001
 21
1.0
 31
0.0
1001
ACAD
1000
MTEXTBEGIN
1070
    73
1070
     1
1070
    44
1040
1.0
1070
    74
1070
     0
1000
MTEXTEND
  0
POINT
  5
329E
330
31E0
100
AcDbEntity
  8
DEFPOINTS
  6
CONTINUOUS
 62
     0
100
AcDbPoint
 10
98.05133664641722
 20
189.7263005999278
 30
0.0
  0
POINT
  5
329F
330
31E0
100
AcDbEntity
  8
DEFPOINTS
  6
CONTINUOUS
 62
     0
100
AcDbPoint
 10
97.43284626234938
 20
144.7262963545884
 30
0.0
  0
POINT
  5
32A0
330
31E0
100
AcDbEntity
  8
DEFPOINTS
  6
CONTINUOUS
 62
     0
100
AcDbPoint
 10
115.8061342495957
 20
144.7262963545884
 30
0.0
  0
ENDBLK
  5
31EB
330
31E0
100
AcDbEntity
  8
0
100
AcDbBlockEnd
  0
BLOCK
  5
31F6
330
31EC
100
AcDbEntity
  8
0
100
AcDbBlockBegin
  2
*D15
 70
     1
 10
0.0
 20
0.0
 30
0.0
  3
*D15
  1

  0
LINE
  5
327D
330
31EC
100
AcDbEntity
  8
DIM
  6
CONTINUOUS
100
AcDbLine
 10
39.37017425535677
 20
212.1849625649246
 30
0.0
 11
39.37017425535677
 21
236.2860174948483
 31
0.0
  0
LINE
  5
327E
330
31EC
100
AcDbEntity
  8
DIM
  6
CONTINUOUS
100
AcDbLine
 10
95.87017423588658
 20
193.6451167921509
 30
0.0
 11
95.87017423588658
 21
236.2860174948483
 31
0.0
  0
LINE
  5
327F
330
31EC
100
AcDbEntity
  8
DIM
  6
CONTINUOUS
100
AcDbLine
 10
41.87017425535677
 20
235.0360174948483
 30
0.0
 11
93.37017423588658
 21
235.0360174948483
 31
0.0
  0
SOLID
  5
3280
330
31EC
100
AcDbEntity
  8
DIM
  6
CONTINUOUS
100
AcDbTrace
 10
41.87017425535677
 20
235.4526841615149
 30
0.0
 11
41.87017425535677
 21
234.6193508281816
 31
0.0
 12
39.37017425535677
 22
235.0360174948483
 32
0.0
 13
39.37017425535677
 23
235.0360174948483
 33
0.0
  0
SOLID
  5
3281
330
31EC
100
AcDbEntity
  8
DIM
  6
CONTINUOUS
100
AcDbTrace
 10
93.37017423588658
 20
235.4526841615149
 30
0.0
 11
93.37017423588658
 21
234.6193508281816
 31
0.0
 12
95.87017423588658
 22
235.0360174948483
 32
0.0
 13
95.87017423588658
 23
235.0360174948483
 33
0.0
  0
MTEXT
  5
3282
330
31EC
100
AcDbEntity
  8
DIM
  6
CONTINUOUS
 62
     2
100
AcDbMText
 10
67.62017424562168
 20
236.5800488727473
 30
0.0
 40
1.8
 41
0.0
 71
     5
 72
     1
  1
56.5
  7
FINDER
1001
ACAD
1000
MTEXTBEGIN
1070
    73
1070
     1
1070
    44
1040
1.0
1070
    74
1070
     0
1000
MTEXTEND
  0
POINT
  5
3283
330
31EC
100
AcDbEntity
  8
DEFPOINTS
  6
CONTINUOUS
 62
     0
100
AcDbPoint
 10
39.37017425535677
 20
210.1849625649246
 30
0.0
  0
POINT
  5
3284
330
31EC
100
AcDbEntity
  8
DEFPOINTS
  6
CONTINUOUS
 62
     0
100
AcDbPoint
 10
95.87017423588658
 20
191.6451167921509
 30
0.0
  0
POINT
  5
3285
330
31EC
100
AcDbEntity
  8
DEFPOINTS
  6
CONTINUOUS
 62
     0
100
AcDbPoint
 10
95.87017423588658
 20
235.0360174948483
 30
0.0
  0
ENDBLK
  5
31F7
330
31EC
100
AcDbEntity
  8
0
100
AcDbBlockEnd
  0
BLOCK
  5
3202
330
31F8
100
AcDbEntity
  8
0
100
AcDbBlockBegin
  2
*D16
 70
     1
 10
0.0
 20
0.0
 30
0.0
  3
*D16
  1

  0
LINE
  5
3286
330
31F8
100
AcDbEntity
  8
DIM
  6
CONTINUOUS
100
AcDbLine
 10
39.37017425535677
 20
212.1849625649246
 30
0.0
 11
39.37017425535677
 21
229.7860174948483
 31
0.0
  0
LINE
  5
3287
330
31F8
100
AcDbEntity
  8
DIM
  6
CONTINUOUS
100
AcDbLine
 10
82.87017401430073
 20
201.4730514941089
 30
0.0
 11
82.87017401430073
 21
229.7860174948483
 31
0.0
  0
LINE
  5
3288
330
31F8
100
AcDbEntity
  8
DIM
  6
CONTINUOUS
100
AcDbLine
 10
41.87017425535677
 20
228.5360174948483
 30
0.0
 11
80.37017401430073
 21
228.5360174948483
 31
0.0
  0
SOLID
  5
3289
330
31F8
100
AcDbEntity
  8
DIM
  6
CONTINUOUS
100
AcDbTrace
 10
41.87017425535677
 20
228.9526841615149
 30
0.0
 11
41.87017425535677
 21
228.1193508281816
 31
0.0
 12
39.37017425535677
 22
228.5360174948483
 32
0.0
 13
39.37017425535677
 23
228.5360174948483
 33
0.0
  0
SOLID
  5
328A
330
31F8
100
AcDbEntity
  8
DIM
  6
CONTINUOUS
100
AcDbTrace
 10
80.37017401430073
 20
228.9526841615149
 30
0.0
 11
80.37017401430073
 21
228.1193508281816
 31
0.0
 12
82.87017401430073
 22
228.5360174948483
 32
0.0
 13
82.87017401430073
 23
228.5360174948483
 33
0.0
  0
MTEXT
  5
328B
330
31F8
100
AcDbEntity
  8
DIM
  6
CONTINUOUS
 62
     2
100
AcDbMText
 10
61.12017413482875
 20
230.0806627881634
 30
0.0
 40
1.8
 41
0.0
 71
     5
 72
     1
  1
43.5
  7
FINDER
1001
ACAD
1000
MTEXTBEGIN
1070
    73
1070
     1
1070
    44
1040
1.0
1070
    74
1070
     0
1000
MTEXTEND
  0
POINT
  5
328C
330
31F8
100
AcDbEntity
  8
DEFPOINTS
  6
CONTINUOUS
 62
     0
100
AcDbPoint
 10
39.37017425535677
 20
210.1849625649246
 30
0.0
  0
POINT
  5
328D
330
31F8
100
AcDbEntity
  8
DEFPOINTS
  6
CONTINUOUS
 62
     0
100
AcDbPoint
 10
82.87017401430073
 20
199.4730514941089
 30
0.0
  0
POINT
  5
328E
330
31F8
100
AcDbEntity
  8
DEFPOINTS
  6
CONTINUOUS
 62
     0
100
AcDbPoint
 10
82.87017401430073
 20
228.5360174948483
 30
0.0
  0
ENDBLK
  5
3203
330
31F8
100
AcDbEntity
  8
0
100
AcDbBlockEnd
  0
BLOCK
  5
320E
330
3204
100
AcDbEntity
  8
0
100
AcDbBlockBegin
  2
*D17
 70
     1
 10
0.0
 20
0.0
 30
0.0
  3
*D17
  1

  0
LINE
  5
328F
330
3204
100
AcDbEntity
  8
DIM
  6
CONTINUOUS
100
AcDbLine
 10
39.37017425535677
 20
212.1849625649246
 30
0.0
 11
39.37017425535677
 21
223.2860174948483
 31
0.0
  0
LINE
  5
3290
330
3204
100
AcDbEntity
  8
DIM
  6
CONTINUOUS
100
AcDbLine
 10
65.87017449235266
 20
212.3909604915291
 30
0.0
 11
65.87017449235266
 21
223.2860174948483
 31
0.0
  0
LINE
  5
3291
330
3204
100
AcDbEntity
  8
DIM
  6
CONTINUOUS
100
AcDbLine
 10
41.87017425535677
 20
222.0360174948483
 30
0.0
 11
63.37017449235266
 21
222.0360174948483
 31
0.0
  0
SOLID
  5
3292
330
3204
100
AcDbEntity
  8
DIM
  6
CONTINUOUS
100
AcDbTrace
 10
41.87017425535677
 20
222.452684161515
 30
0.0
 11
41.87017425535677
 21
221.6193508281816
 31
0.0
 12
39.37017425535677
 22
222.0360174948483
 32
0.0
 13
39.37017425535677
 23
222.0360174948483
 33
0.0
  0
SOLID
  5
3293
330
3204
100
AcDbEntity
  8
DIM
  6
CONTINUOUS
100
AcDbTrace
 10
63.37017449235266
 20
222.452684161515
 30
0.0
 11
63.37017449235266
 21
221.6193508281816
 31
0.0
 12
65.87017449235266
 22
222.0360174948483
 32
0.0
 13
65.87017449235266
 23
222.0360174948483
 33
0.0
  0
MTEXT
  5
3294
330
3204
100
AcDbEntity
  8
DIM
  6
CONTINUOUS
 62
     2
100
AcDbMText
 10
52.62017437385472
 20
223.5800488727473
 30
0.0
 40
1.8
 41
0.0
 71
     5
 72
     1
  1
26.5
  7
FINDER
1001
ACAD
1000
MTEXTBEGIN
1070
    73
1070
     1
1070
    44
1040
1.0
1070
    74
1070
     0
1000
MTEXTEND
  0
POINT
  5
3295
330
3204
100
AcDbEntity
  8
DEFPOINTS
  6
CONTINUOUS
 62
     0
100
AcDbPoint
 10
39.37017425535677
 20
210.1849625649246
 30
0.0
  0
POINT
  5
3296
330
3204
100
AcDbEntity
  8
DEFPOINTS
  6
CONTINUOUS
 62
     0
100
AcDbPoint
 10
65.87017449235266
 20
210.3909604915291
 30
0.0
  0
POINT
  5
3297
330
3204
100
AcDbEntity
  8
DEFPOINTS
  6
CONTINUOUS
 62
     0
100
AcDbPoint
 10
65.87017449235266
 20
222.0360174948483
 30
0.0
  0
ENDBLK
  5
320F
330
3204
100
AcDbEntity
  8
0
100
AcDbBlockEnd
  0
BLOCK
  5
334C
330
32BD
100
AcDbEntity
  8
0
100
AcDbBlockBegin
  2
*X18
 70
     1
 10
0.0
 20
0.0
 30
0.0
  3
*X18
  1

  0
LINE
  5
32BE
330
32BD
100
AcDbEntity
  8
0
  6
CONTINUOUS
 62
     0
100
AcDbLine
 10
14.98946714318631
 20
20.30887437873807
 30
0.0
 11
15.51619307571112
 21
20.83560031126288
 31
0.0
  0
LINE
  5
32BF
330
32BD
100
AcDbEntity
  8
0
  6
CONTINUOUS
 62
     0
100
AcDbLine
 10
14.11251745253288
 20
19.71476740477394
 30
0.0
 11
16.11030004967524
 21
21.7125500019163
 31
0.0
  0
LINE
  5
32C0
330
32BD
100
AcDbEntity
  8
0
  6
CONTINUOUS
 62
     0
100
AcDbLine
 10
13.59659465958662
 20
19.48168732851699
 30
0.0
 11
16.34338012593219
 21
22.22847279486256
 31
0.0
  0
LINE
  5
32C1
330
32BD
100
AcDbEntity
  8
0
  6
CONTINUOUS
 62
     0
100
AcDbLine
 10
13.1748939473581
 20
19.34282933297777
 30
0.0
 11
16.48223812147141
 21
22.65017350709108
 31
0.0
  0
LINE
  5
32C2
330
32BD
100
AcDbEntity
  8
0
  6
CONTINUOUS
 62
     0
100
AcDbLine
 10
12.80484418404001
 20
19.25562228634899
 30
0.0
 11
16.5694451681002
 21
23.02022327040917
 31
0.0
  0
LINE
  5
32C3
330
32BD
100
AcDbEntity
  8
0
  6
CONTINUOUS
 62
     0
100
AcDbLine
 10
14.79535208722197
 20
21.52897290622026
 30
0.0
 11
16.62213341977443
 21
23.35575423877271
 31
0.0
  0
LINE
  5
32C4
330
32BD
100
AcDbEntity
  8
0
  6
CONTINUOUS
 62
     0
100
AcDbLine
 10
12.46931321567648
 20
19.20293403467476
 30
0.0
 11
14.2960945904291
 21
21.02971540942739
 31
0.0
  0
LINE
  5
32C5
330
32BD
100
AcDbEntity
  8
0
  6
CONTINUOUS
 62
     0
100
AcDbLine
 10
15.29353583996729
 20
22.30999937565488
 30
0.0
 11
16.64927471651913
 21
23.66573825220672
 31
0.0
  0
LINE
  5
32C6
330
32BD
100
AcDbEntity
  8
0
  6
CONTINUOUS
 62
     0
100
AcDbLine
 10
12.15932920224247
 20
19.17579273793005
 30
0.0
 11
13.51506812099447
 21
20.53153165668206
 31
0.0
  0
LINE
  5
32C7
330
32BD
100
AcDbEntity
  8
0
  6
CONTINUOUS
 62
     0
100
AcDbLine
 10
15.47908751263477
 20
22.77839376501166
 30
0.0
 11
16.65627284793247
 21
23.95557910030935
 31
0.0
  0
LINE
  5
32C8
330
32BD
100
AcDbEntity
  8
0
  6
CONTINUOUS
 62
     0
100
AcDbLine
 10
11.86948835413983
 20
19.16879460651672
 30
0.0
 11
13.04667373163769
 21
20.34597998401458
 31
0.0
  0
LINE
  5
32C9
330
32BD
100
AcDbEntity
  8
0
  6
CONTINUOUS
 62
     0
100
AcDbLine
 10
15.58008243066611
 20
23.16223139973229
 30
0.0
 11
16.64668204742011
 21
24.2288310164863
 31
0.0
  0
LINE
  5
32CA
330
32BD
100
AcDbEntity
  8
0
  6
CONTINUOUS
 62
     0
100
AcDbLine
 10
11.59623643796288
 20
19.17838540702908
 30
0.0
 11
12.66283609691706
 21
20.24498506598324
 31
0.0
  0
LINE
  5
32CB
330
32BD
100
AcDbEntity
  8
0
  6
CONTINUOUS
 62
     0
100
AcDbLine
 10
12.65453085014504
 20
20.51952253590054
 30
0.0
 11
13.32322297621252
 21
21.18821466196801
 31
0.0
  0
LINE
  5
32CC
330
32BD
100
AcDbEntity
  8
0
  6
CONTINUOUS
 62
     0
100
AcDbLine
 10
15.63412492981957
 20
23.49911661557506
 30
0.0
 11
16.62298585552361
 21
24.48797754127911
 31
0.0
  0
LINE
  5
32CD
330
32BD
100
AcDbEntity
  8
0
  6
CONTINUOUS
 62
     0
100
AcDbLine
 10
11.33708991317008
 20
19.20208159892557
 30
0.0
 11
12.32595088107429
 21
20.19094256682979
 31
0.0
  0
LINE
  5
32CE
330
32BD
100
AcDbEntity
  8
0
  6
CONTINUOUS
 62
     0
100
AcDbLine
 10
12.40434667647494
 20
20.55218107891974
 30
0.0
 11
13.32322297621251
 21
21.47105737865731
 31
0.0
  0
LINE
  5
32CF
330
32BD
100
AcDbEntity
  8
0
  6
CONTINUOUS
 62
     0
100
AcDbLine
 10
15.65642462945329
 20
23.80425903189809
 30
0.0
 11
16.5869974570198
 21
24.7348318594646
 31
0.0
  0
LINE
  5
32D0
330
32BD
100
AcDbEntity
  8
0
  6
CONTINUOUS
 62
     0
100
AcDbLine
 10
11.09023559498458
 20
19.23806999742937
 30
0.0
 11
12.02080846475126
 21
20.16864286719606
 31
0.0
  0
LINE
  5
32D1
330
32BD
100
AcDbEntity
  8
0
  6
CONTINUOUS
 62
     0
100
AcDbLine
 10
12.21255257375408
 20
20.64322969288818
 30
0.0
 11
13.3232229762125
 21
21.7539000953466
 31
0.0
  0
LINE
  5
32D2
330
32BD
100
AcDbEntity
  8
0
  6
CONTINUOUS
 62
     0
100
AcDbLine
 10
15.65496140644842
 20
24.08563852558253
 30
0.0
 11
16.54008480751749
 21
24.97076192665159
 31
0.0
  0
LINE
  5
32D3
330
32BD
100
AcDbEntity
  8
0
  6
CONTINUOUS
 62
     0
100
AcDbLine
 10
10.8543055277976
 20
19.2849826469317
 30
0.0
 11
11.73942897106682
 21
20.17010609020093
 31
0.0
  0
LINE
  5
32D4
330
32BD
100
AcDbEntity
  8
0
  6
CONTINUOUS
 62
     0
100
AcDbLine
 10
12.06321284180218
 20
20.77673267762559
 30
0.0
 11
13.32322297621251
 21
22.03674281203592
 31
0.0
  0
LINE
  5
32D5
330
32BD
100
AcDbEntity
  8
0
  6
CONTINUOUS
 62
     0
100
AcDbLine
 10
15.6345405082318
 20
24.34806034405521
 30
0.0
 11
16.48330609191417
 21
25.19682592773758
 31
0.0
  0
LINE
  5
32D6
330
32BD
100
AcDbEntity
  8
0
  6
CONTINUOUS
 62
     0
100
AcDbLine
 10
10.62824152671161
 20
19.34176136253502
 30
0.0
 11
11.47700715259414
 21
20.19052698841755
 31
0.0
  0
LINE
  5
32D7
330
32BD
100
AcDbEntity
  8
0
  6
CONTINUOUS
 62
     0
100
AcDbLine
 10
11.92044664236979
 20
20.91680919488251
 30
0.0
 11
13.32322297621251
 21
22.31958552872522
 31
0.0
  0
LINE
  5
32D8
330
32BD
100
AcDbEntity
  8
0
  6
CONTINUOUS
 62
     0
100
AcDbLine
 10
15.59831520922672
 20
24.59467776173942
 30
0.0
 11
16.41749564198165
 21
25.41385819449436
 31
0.0
  0
LINE
  5
32D9
330
32BD
100
AcDbEntity
  8
0
  6
CONTINUOUS
 62
     0
100
AcDbLine
 10
10.41120925995482
 20
19.40757181246754
 30
0.0
 11
11.23038973490992
 21
20.22675228742263
 31
0.0
  0
LINE
  5
32DA
330
32BD
100
AcDbEntity
  8
0
  6
CONTINUOUS
 62
     0
100
AcDbLine
 10
11.77768044293741
 20
21.05688571213943
 30
0.0
 11
13.32322297621251
 21
22.60242824541453
 31
0.0
  0
LINE
  5
32DB
330
32BD
100
AcDbEntity
  8
0
  6
CONTINUOUS
 62
     0
100
AcDbLine
 10
15.54847842647961
 20
24.82768369568162
 30
0.0
 11
16.34332077222384
 21
25.62252604142585
 31
0.0
  0
LINE
  5
32DC
330
32BD
100
AcDbEntity
  8
0
  6
CONTINUOUS
 62
     0
100
AcDbLine
 10
10.20254141302334
 20
19.48174668222535
 30
0.0
 11
10.99738380096773
 21
20.27658907016975
 31
0.0
  0
LINE
  5
32DD
330
32BD
100
AcDbEntity
  8
0
  6
CONTINUOUS
 62
     0
100
AcDbLine
 10
12.36292297621249
 20
21.92497096210381
 30
0.0
 11
13.32322297621251
 21
22.88527096210383
 31
0.0
  0
LINE
  5
32DE
330
32BD
100
AcDbEntity
  8
0
  6
CONTINUOUS
 62
     0
100
AcDbLine
 10
11.63491424350503
 20
21.19696222939635
 30
0.0
 11
12.30787686507163
 21
21.86992485096295
 31
0.0
  0
LINE
  5
32DF
330
32BD
100
AcDbEntity
  8
0
  6
CONTINUOUS
 62
     0
100
AcDbLine
 10
15.48661865024844
 20
25.04866663613976
 30
0.0
 11
16.26132067781356
 21
25.82336866370488
 31
0.0
  0
LINE
  5
32E0
330
32BD
100
AcDbEntity
  8
0
  6
CONTINUOUS
 62
     0
100
AcDbLine
 10
10.00169879074431
 20
19.56374677663563
 30
0.0
 11
10.77640086050959
 21
20.33844884640091
 31
0.0
  0
LINE
  5
32E1
330
32BD
100
AcDbEntity
  8
0
  6
CONTINUOUS
 62
     0
100
AcDbLine
 10
12.36292297621249
 20
22.20781367879312
 30
0.0
 11
13.32322297621252
 21
23.16811367879314
 31
0.0
  0
LINE
  5
32E2
330
32BD
100
AcDbEntity
  8
0
  6
CONTINUOUS
 62
     0
100
AcDbLine
 10
11.49214804407264
 20
21.33703874665326
 30
0.0
 11
12.17222822932802
 21
22.01711893190865
 31
0.0
  0
LINE
  5
32E3
330
32BD
100
AcDbEntity
  8
0
  6
CONTINUOUS
 62
     0
100
AcDbLine
 10
15.41392012378507
 20
25.25881082636569
 30
0.0
 11
16.17193379938753
 21
26.01682450196816
 31
0.0
  0
LINE
  5
32E4
330
32BD
100
AcDbEntity
  8
0
  6
CONTINUOUS
 62
     0
100
AcDbLine
 10
9.80824295248103
 20
19.65313365506165
 30
0.0
 11
10.56625667028367
 21
20.41114737286429
 31
0.0
  0
LINE
  5
32E5
330
32BD
100
AcDbEntity
  8
0
  6
CONTINUOUS
 62
     0
100
AcDbLine
 10
12.36292297621249
 20
22.49065639548241
 30
0.0
 11
13.32322297621252
 21
23.45095639548244
 31
0.0
  0
LINE
  5
32E6
330
32BD
100
AcDbEntity
  8
0
  6
CONTINUOUS
 62
     0
100
AcDbLine
 10
14.38066018784676
 20
24.50839360711668
 30
0.0
 11
14.90394340251921
 21
25.03167682178913
 31
0.0
  0
LINE
  5
32E7
330
32BD
100
AcDbEntity
  8
0
  6
CONTINUOUS
 62
     0
100
AcDbLine
 10
11.34938184464026
 20
21.47711526391019
 30
0.0
 11
12.03657959358442
 21
22.16431301285435
 31
0.0
  0
LINE
  5
32E8
330
32BD
100
AcDbEntity
  8
0
  6
CONTINUOUS
 62
     0
100
AcDbLine
 10
15.33128311277797
 20
25.4590165320479
 30
0.0
 11
16.07551750282127
 21
26.20325092209119
 31
0.0
  0
LINE
  5
32E9
330
32BD
100
AcDbEntity
  8
0
  6
CONTINUOUS
 62
     0
100
AcDbLine
 10
9.621816532358003
 20
19.74954995162792
 30
0.0
 11
10.36605096460146
 21
20.49378438387138
 31
0.0
  0
LINE
  5
32EA
330
32BD
100
AcDbEntity
  8
0
  6
CONTINUOUS
 62
     0
100
AcDbLine
 10
12.36292297621249
 20
22.77349911217172
 30
0.0
 11
13.32322297621252
 21
23.73379911217174
 31
0.0
  0
LINE
  5
32EB
330
32BD
100
AcDbEntity
  8
0
  6
CONTINUOUS
 62
     0
100
AcDbLine
 10
14.09781747115746
 20
24.50839360711668
 30
0.0
 11
14.84041341550277
 21
25.250989551462
 31
0.0
  0
LINE
  5
32EC
330
32BD
100
AcDbEntity
  8
0
  6
CONTINUOUS
 62
     0
100
AcDbLine
 10
11.20661564520789
 20
21.61719178116711
 30
0.0
 11
11.90093095784082
 21
22.31150709380004
 31
0.0
  0
LINE
  5
32ED
330
32BD
100
AcDbEntity
  8
0
  6
CONTINUOUS
 62
     0
100
AcDbLine
 10
15.23939988217547
 20
25.6499760181347
 30
0.0
 11
15.97236247310275
 21
26.38293860906198
 31
0.0
  0
LINE
  5
32EE
330
32BD
100
AcDbEntity
  8
0
  6
CONTINUOUS
 62
     0
100
AcDbLine
 10
9.442128845387209
 20
19.85270498134644
 30
0.0
 11
10.17509147851465
 21
20.58566761447388
 31
0.0
  0
LINE
  5
32EF
330
32BD
100
AcDbEntity
  8
0
  6
CONTINUOUS
 62
     0
100
AcDbLine
 10
12.36292297621248
 20
23.05634182886102
 30
0.0
 11
13.3232229762125
 21
24.01664182886104
 31
0.0
  0
LINE
  5
32F0
330
32BD
100
AcDbEntity
  8
0
  6
CONTINUOUS
 62
     0
100
AcDbLine
 10
13.81497475446815
 20
24.50839360711669
 30
0.0
 11
14.70908708311424
 21
25.40250593576278
 31
0.0
  0
LINE
  5
32F1
330
32BD
100
AcDbEntity
  8
0
  6
CONTINUOUS
 62
     0
100
AcDbLine
 10
11.06384944577548
 20
21.75726829842403
 30
0.0
 11
11.7652823220972
 21
22.45870117474574
 31
0.0
  0
LINE
  5
32F2
330
32BD
100
AcDbEntity
  8
0
  6
CONTINUOUS
 62
     0
100
AcDbLine
 10
15.1388045456285
 20
25.83222339827704
 30
0.0
 11
15.8627033646577
 21
26.55612221730624
 31
0.0
  0
LINE
  5
32F3
330
32BD
100
AcDbEntity
  8
0
  6
CONTINUOUS
 62
     0
100
AcDbLine
 10
9.268945237142943
 20
19.96236408979148
 30
0.0
 11
9.992844098372309
 21
20.68626295102084
 31
0.0
  0
LINE
  5
32F4
330
32BD
100
AcDbEntity
  8
0
  6
CONTINUOUS
 62
     0
100
AcDbLine
 10
12.36292297621248
 20
23.33918454555032
 30
0.0
 11
13.3232229762125
 21
24.29948454555034
 31
0.0
  0
LINE
  5
32F5
330
32BD
100
AcDbEntity
  8
0
  6
CONTINUOUS
 62
     0
100
AcDbLine
 10
13.53213203777884
 20
24.50839360711669
 30
0.0
 11
14.51689263385999
 21
25.49315420319783
 31
0.0
  0
LINE
  5
32F6
330
32BD
100
AcDbEntity
  8
0
  6
CONTINUOUS
 62
     0
100
AcDbLine
 10
10.9210832463431
 20
21.89734481568094
 30
0.0
 11
11.6296336863536
 21
22.60589525569145
 31
0.0
  0
LINE
  5
32F7
330
32BD
100
AcDbEntity
  8
0
  6
CONTINUOUS
 62
     0
100
AcDbLine
 10
15.02990666914595
 20
26.00616823848379
 30
0.0
 11
15.74672672460261
 21
26.72298829394045
 31
0.0
  0
LINE
  5
32F8
330
32BD
100
AcDbEntity
  8
0
  6
CONTINUOUS
 62
     0
100
AcDbLine
 10
9.102079160508736
 20
20.07834072984657
 30
0.0
 11
9.818899258165565
 21
20.7951608275034
 31
0.0
  0
LINE
  5
32F9
330
32BD
100
AcDbEntity
  8
0
  6
CONTINUOUS
 62
     0
100
AcDbLine
 10
12.36292297621248
 20
23.62202726223963
 30
0.0
 11
14.24423932108955
 21
25.50334360711669
 31
0.0
  0
LINE
  5
32FA
330
32BD
100
AcDbEntity
  8
0
  6
CONTINUOUS
 62
     0
100
AcDbLine
 10
10.77831704691072
 20
22.03742133293787
 30
0.0
 11
11.49398505061
 21
22.75308933663715
 31
0.0
  0
LINE
  5
32FB
330
32BD
100
AcDbEntity
  8
0
  6
CONTINUOUS
 62
     0
100
AcDbLine
 10
14.91301428310674
 20
26.17211856913388
 30
0.0
 11
15.62457687138681
 21
26.88368115741396
 31
0.0
  0
LINE
  5
32FC
330
32BD
100
AcDbEntity
  8
0
  6
CONTINUOUS
 62
     0
100
AcDbLine
 10
8.941386297035229
 20
20.20049058306237
 30
0.0
 11
9.652948927515474
 21
20.91205321354261
 31
0.0
  0
LINE
  5
32FD
330
32BD
100
AcDbEntity
  8
0
  6
CONTINUOUS
 62
     0
100
AcDbLine
 10
12.36292297621248
 20
23.90486997892894
 30
0.0
 11
13.96139660440025
 21
25.50334360711669
 31
0.0
  0
LINE
  5
32FE
330
32BD
100
AcDbEntity
  8
0
  6
CONTINUOUS
 62
     0
100
AcDbLine
 10
10.63555084747833
 20
22.17749785019477
 30
0.0
 11
11.3583364148664
 21
22.90028341758284
 31
0.0
  0
LINE
  5
32FF
330
32BD
100
AcDbEntity
  8
0
  6
CONTINUOUS
 62
     0
100
AcDbLine
 10
14.7883496628495
 20
26.33029666556595
 30
0.0
 11
15.49636019197527
 21
27.03830719469171
 31
0.0
  0
LINE
  5
3300
330
32BD
100
AcDbEntity
  8
0
  6
CONTINUOUS
 62
     0
100
AcDbLine
 10
8.786760259757475
 20
20.32870726247392
 30
0.0
 11
9.494770831083407
 21
21.03671783379985
 31
0.0
  0
LINE
  5
3301
330
32BD
100
AcDbEntity
  8
0
  6
CONTINUOUS
 62
     0
100
AcDbLine
 10
12.36292297621249
 20
24.18771269561824
 30
0.0
 11
13.67855388771094
 21
25.50334360711669
 31
0.0
  0
LINE
  5
3302
330
32BD
100
AcDbEntity
  8
0
  6
CONTINUOUS
 62
     0
100
AcDbLine
 10
10.49278464804595
 20
22.31757436745171
 30
0.0
 11
11.22268777912279
 21
23.04747749852853
 31
0.0
  0
LINE
  5
3303
330
32BD
100
AcDbEntity
  8
0
  6
CONTINUOUS
 62
     0
100
AcDbLine
 10
14.65605992219868
 20
26.48084964160442
 30
0.0
 11
15.36214817160475
 21
27.1869378910105
 31
0.0
  0
LINE
  5
3304
330
32BD
100
AcDbEntity
  8
0
  6
CONTINUOUS
 62
     0
100
AcDbLine
 10
8.638129563438688
 20
20.46291928284443
 30
0.0
 11
9.344217855044931
 21
21.16900757445067
 31
0.0
  0
LINE
  5
3305
330
32BD
100
AcDbEntity
  8
0
  6
CONTINUOUS
 62
     0
100
AcDbLine
 10
12.36292297621249
 20
24.47055541230755
 30
0.0
 11
13.39571117102164
 21
25.50334360711669
 31
0.0
  0
LINE
  5
3306
330
32BD
100
AcDbEntity
  8
0
  6
CONTINUOUS
 62
     0
100
AcDbLine
 10
10.35001844861356
 20
22.45765088470862
 30
0.0
 11
11.08703914337918
 21
23.19467157947423
 31
0.0
  0
LINE
  5
3307
330
32BD
100
AcDbEntity
  8
0
  6
CONTINUOUS
 62
     0
100
AcDbLine
 10
14.51622366572999
 20
26.62385610182504
 30
0.0
 11
15.22197936453198
 21
27.32961180062705
 31
0.0
  0
LINE
  5
3308
330
32BD
100
AcDbEntity
  8
0
  6
CONTINUOUS
 62
     0
100
AcDbLine
 10
8.495455653822148
 20
20.6030880899172
 30
0.0
 11
9.201211394824305
 21
21.30884383091936
 31
0.0
  0
LINE
  5
3309
330
32BD
100
AcDbEntity
  8
0
  6
CONTINUOUS
 62
     0
100
AcDbLine
 10
11.02036845433233
 20
23.41084360711668
 30
0.0
 11
11.41387297621249
 21
23.80434812899685
 31
0.0
  0
LINE
  5
330A
330
32BD
100
AcDbEntity
  8
0
  6
CONTINUOUS
 62
     0
100
AcDbLine
 10
12.36292297621249
 20
24.75339812899685
 30
0.0
 11
13.32322297621252
 21
25.71369812899687
 31
0.0
  0
LINE
  5
330B
330
32BD
100
AcDbEntity
  8
0
  6
CONTINUOUS
 62
     0
100
AcDbLine
 10
10.20725224918118
 20
22.59772740196554
 30
0.0
 11
10.95139050763558
 21
23.34186566041994
 31
0.0
  0
LINE
  5
330C
330
32BD
100
AcDbEntity
  8
0
  6
CONTINUOUS
 62
     0
100
AcDbLine
 10
14.36885442740246
 20
26.75932958018681
 30
0.0
 11
15.07586043537989
 21
27.46633558816425
 31
0.0
  0
LINE
  5
330D
330
32BD
100
AcDbEntity
  8
0
  6
CONTINUOUS
 62
     0
100
AcDbLine
 10
8.358731866284948
 20
20.7492070190693
 30
0.0
 11
9.065737916462545
 21
21.45621306924689
 31
0.0
  0
LINE
  5
330E
330
32BD
100
AcDbEntity
  8
0
  6
CONTINUOUS
 62
     0
100
AcDbLine
 10
12.36292297621249
 20
25.03624084568615
 30
0.0
 11
13.32322297621252
 21
25.99654084568618
 31
0.0
  0
LINE
  5
330F
330
32BD
100
AcDbEntity
  8
0
  6
CONTINUOUS
 62
     0
100
AcDbLine
 10
10.0644860497488
 20
22.73780391922245
 30
0.0
 11
11.41387297621249
 21
24.08719084568616
 31
0.0
  0
LINE
  5
3310
330
32BD
100
AcDbEntity
  8
0
  6
CONTINUOUS
 62
     0
100
AcDbLine
 10
14.21390125453573
 20
26.88721912400939
 30
0.0
 11
14.92376633762453
 21
27.59708420709819
 31
0.0
  0
LINE
  5
3311
330
32BD
100
AcDbEntity
  8
0
  6
CONTINUOUS
 62
     0
100
AcDbLine
 10
8.227983247350998
 20
20.90130111682465
 30
0.0
 11
8.937848372639969
 21
21.61116624211362
 31
0.0
  0
LINE
  5
3312
330
32BD
100
AcDbEntity
  8
0
  6
CONTINUOUS
 62
     0
100
AcDbLine
 10
12.36292297621249
 20
25.31908356237545
 30
0.0
 11
13.3232229762125
 21
26.27938356237547
 31
0.0
  0
LINE
  5
3313
330
32BD
100
AcDbEntity
  8
0
  6
CONTINUOUS
 62
     0
100
AcDbLine
 10
9.921719850316421
 20
22.87788043647938
 30
0.0
 11
11.41387297621249
 21
24.37003356237546
 31
0.0
  0
LINE
  5
3314
330
32BD
100
AcDbEntity
  8
0
  6
CONTINUOUS
 62
     0
100
AcDbLine
 10
14.05124649691411
 20
27.00740708307707
 30
0.0
 11
14.76563964049162
 21
27.72180022665458
 31
0.0
  0
LINE
  5
3315
330
32BD
100
AcDbEntity
  8
0
  6
CONTINUOUS
 62
     0
100
AcDbLine
 10
8.10326722779461
 20
21.05942781395757
 30
0.0
 11
8.817660413572284
 21
21.77382099973524
 31
0.0
  0
LINE
  5
3316
330
32BD
100
AcDbEntity
  8
0
  6
CONTINUOUS
 62
     0
100
AcDbLine
 10
12.36292297621248
 20
25.60192627906475
 30
0.0
 11
13.3232229762125
 21
26.56222627906478
 31
0.0
  0
LINE
  5
3317
330
32BD
100
AcDbEntity
  8
0
  6
CONTINUOUS
 62
     0
100
AcDbLine
 10
9.778953650884027
 20
23.0179569537363
 30
0.0
 11
11.41387297621249
 21
24.65287627906477
 31
0.0
  0
LINE
  5
3318
330
32BD
100
AcDbEntity
  8
0
  6
CONTINUOUS
 62
     0
100
AcDbLine
 10
13.88070057287115
 20
27.11970387572343
 30
0.0
 11
14.6013889615565
 21
27.84039226440878
 31
0.0
  0
LINE
  5
3319
330
32BD
100
AcDbEntity
  8
0
  6
CONTINUOUS
 62
     0
100
AcDbLine
 10
7.984675190040405
 20
21.22367849289268
 30
0.0
 11
8.705363620925929
 21
21.9443669237782
 31
0.0
  0
LINE
  5
331A
330
32BD
100
AcDbEntity
  8
0
  6
CONTINUOUS
 62
     0
100
AcDbLine
 10
12.36292297621249
 20
25.88476899575407
 30
0.0
 11
13.32322297621251
 21
26.84506899575408
 31
0.0
  0
LINE
  5
331B
330
32BD
100
AcDbEntity
  8
0
  6
CONTINUOUS
 62
     0
100
AcDbLine
 10
9.636187451451647
 20
23.15803347099322
 30
0.0
 11
11.41387297621249
 21
24.93571899575407
 31
0.0
  0
LINE
  5
331C
330
32BD
100
AcDbEntity
  8
0
  6
CONTINUOUS
 62
     0
100
AcDbLine
 10
13.70199315281168
 20
27.22383917235326
 30
0.0
 11
14.43088640341356
 21
27.95273242295513
 31
0.0
  0
LINE
  5
331D
330
32BD
100
AcDbEntity
  8
0
  6
CONTINUOUS
 62
     0
100
AcDbLine
 10
7.87233503149406
 20
21.39418105103563
 30
0.0
 11
8.601228324296094
 21
22.12307434383766
 31
0.0
  0
LINE
  5
331E
330
32BD
100
AcDbEntity
  8
0
  6
CONTINUOUS
 62
     0
100
AcDbLine
 10
12.36292297621248
 20
26.16761171244336
 30
0.0
 11
13.32322297621251
 21
27.12791171244338
 31
0.0
  0
LINE
  5
331F
330
32BD
100
AcDbEntity
  8
0
  6
CONTINUOUS
 62
     0
100
AcDbLine
 10
9.49342125201926
 20
23.29810998825013
 30
0.0
 11
11.41387297621249
 21
25.21856171244337
 31
0.0
  0
LINE
  5
3320
330
32BD
100
AcDbEntity
  8
0
  6
CONTINUOUS
 62
     0
100
AcDbLine
 10
13.51475975757465
 20
27.31944849380552
 30
0.0
 11
14.25396382172501
 21
28.05865255795589
 31
0.0
  0
LINE
  5
3321
330
32BD
100
AcDbEntity
  8
0
  6
CONTINUOUS
 62
     0
100
AcDbLine
 10
7.766414896493301
 20
21.57110363272417
 30
0.0
 11
8.505619002843829
 21
22.3103077390747
 31
0.0
  0
LINE
  5
3322
330
32BD
100
AcDbEntity
  8
0
  6
CONTINUOUS
 62
     0
100
AcDbLine
 10
10.46482297621248
 20
24.55235442913267
 30
0.0
 11
11.4138729762125
 21
25.50140442913268
 31
0.0
  0
LINE
  5
3323
330
32BD
100
AcDbEntity
  8
0
  6
CONTINUOUS
 62
     0
100
AcDbLine
 10
9.323312154196514
 20
23.41084360711669
 30
0.0
 11
10.3412121541965
 21
24.42874360711669
 31
0.0
  0
LINE
  5
3324
330
32BD
100
AcDbEntity
  8
0
  6
CONTINUOUS
 62
     0
100
AcDbLine
 10
12.36292297621249
 20
26.45045442913267
 30
0.0
 11
14.07040765927055
 21
28.15793911219072
 31
0.0
  0
LINE
  5
3325
330
32BD
100
AcDbEntity
  8
0
  6
CONTINUOUS
 62
     0
100
AcDbLine
 10
7.667128342258457
 20
21.75465979517864
 30
0.0
 11
8.419013934164127
 21
22.5065453870843
 31
0.0
  0
LINE
  5
3326
330
32BD
100
AcDbEntity
  8
0
  6
CONTINUOUS
 62
     0
100
AcDbLine
 10
10.46482297621248
 20
24.83519714582197
 30
0.0
 11
11.41387297621249
 21
25.78424714582197
 31
0.0
  0
LINE
  5
3327
330
32BD
100
AcDbEntity
  8
0
  6
CONTINUOUS
 62
     0
100
AcDbLine
 10
9.040469437507212
 20
23.41084360711669
 30
0.0
 11
10.0583694375072
 21
24.42874360711668
 31
0.0
  0
LINE
  5
3328
330
32BD
100
AcDbEntity
  8
0
  6
CONTINUOUS
 62
     0
100
AcDbLine
 10
12.36292297621249
 20
26.73329714582197
 30
0.0
 11
13.87995195237009
 21
28.25032612197958
 31
0.0
  0
LINE
  5
3329
330
32BD
100
AcDbEntity
  8
0
  6
CONTINUOUS
 62
     0
100
AcDbLine
 10
7.574741332469606
 20
21.94511550207908
 30
0.0
 11
8.342033811074408
 21
22.71240798068388
 31
0.0
  0
LINE
  5
332A
330
32BD
100
AcDbEntity
  8
0
  6
CONTINUOUS
 62
     0
100
AcDbLine
 10
10.46482297621248
 20
25.11803986251127
 30
0.0
 11
11.41387297621249
 21
26.06708986251128
 31
0.0
  0
LINE
  5
332B
330
32BD
100
AcDbEntity
  8
0
  6
CONTINUOUS
 62
     0
100
AcDbLine
 10
8.75762672081791
 20
23.41084360711669
 30
0.0
 11
9.7755267208179
 21
24.42874360711668
 31
0.0
  0
LINE
  5
332C
330
32BD
100
AcDbEntity
  8
0
  6
CONTINUOUS
 62
     0
100
AcDbLine
 10
12.36292297621249
 20
27.01613986251128
 30
0.0
 11
13.6822689304656
 21
28.33548581676439
 31
0.0
  0
LINE
  5
332D
330
32BD
100
AcDbEntity
  8
0
  6
CONTINUOUS
 62
     0
100
AcDbLine
 10
7.4895816376848
 20
22.14279852398358
 30
0.0
 11
8.275483850239361
 21
22.92870073653814
 31
0.0
  0
LINE
  5
332E
330
32BD
100
AcDbEntity
  8
0
  6
CONTINUOUS
 62
     0
100
AcDbLine
 10
10.46482297621249
 20
25.40088257920058
 30
0.0
 11
11.41387297621249
 21
26.34993257920058
 31
0.0
  0
LINE
  5
332F
330
32BD
100
AcDbEntity
  8
0
  6
CONTINUOUS
 62
     0
100
AcDbLine
 10
8.474784004128608
 20
23.41084360711669
 30
0.0
 11
9.492684004128598
 21
24.42874360711668
 31
0.0
  0
LINE
  5
3330
330
32BD
100
AcDbEntity
  8
0
  6
CONTINUOUS
 62
     0
100
AcDbLine
 10
12.36292297621249
 20
27.29898257920058
 30
0.0
 11
13.47695635100713
 21
28.41301595399523
 31
0.0
  0
LINE
  5
3331
330
32BD
100
AcDbEntity
  8
0
  6
CONTINUOUS
 62
     0
100
AcDbLine
 10
7.412051500453969
 20
22.34811110344205
 30
0.0
 11
8.220417161622158
 21
23.15647676461024
 31
0.0
  0
LINE
  5
3332
330
32BD
100
AcDbEntity
  8
0
  6
CONTINUOUS
 62
     0
100
AcDbLine
 10
10.46482297621249
 20
25.68372529588988
 30
0.0
 11
11.41387297621249
 21
26.63277529588989
 31
0.0
  0
LINE
  5
3333
330
32BD
100
AcDbEntity
  8
0
  6
CONTINUOUS
 62
     0
100
AcDbLine
 10
8.191941287439298
 20
23.41084360711668
 30
0.0
 11
9.209841287439296
 21
24.42874360711668
 31
0.0
  0
LINE
  5
3334
330
32BD
100
AcDbEntity
  8
0
  6
CONTINUOUS
 62
     0
100
AcDbLine
 10
12.36292297621249
 20
27.58182529588988
 30
0.0
 11
13.26352027917741
 21
28.4824225988548
 31
0.0
  0
LINE
  5
3335
330
32BD
100
AcDbEntity
  8
0
  6
CONTINUOUS
 62
     0
100
AcDbLine
 10
7.342644855594386
 20
22.56154717527177
 30
0.0
 11
8.178233337739143
 21
23.39713565741653
 31
0.0
  0
LINE
  5
3336
330
32BD
100
AcDbEntity
  8
0
  6
CONTINUOUS
 62
     0
100
AcDbLine
 10
10.46482297621249
 20
25.96656801257918
 30
0.0
 11
11.4138729762125
 21
26.91561801257919
 31
0.0
  0
LINE
  5
3337
330
32BD
100
AcDbEntity
  8
0
  6
CONTINUOUS
 62
     0
100
AcDbLine
 10
12.17248361102626
 20
27.67422864739295
 30
0.0
 11
13.0413513274458
 21
28.54309636381249
 31
0.0
  0
LINE
  5
3338
330
32BD
100
AcDbEntity
  8
0
  6
CONTINUOUS
 62
     0
100
AcDbLine
 10
7.281971090636695
 20
22.78371612700339
 30
0.0
 11
8.926998570749994
 21
24.42874360711668
 31
0.0
  0
LINE
  5
3339
330
32BD
100
AcDbEntity
  8
0
  6
CONTINUOUS
 62
     0
100
AcDbLine
 10
10.46482297621248
 20
26.24941072926849
 30
0.0
 11
11.41387297621249
 21
27.1984607292685
 31
0.0
  0
LINE
  5
333A
330
32BD
100
AcDbEntity
  8
0
  6
CONTINUOUS
 62
     0
100
AcDbLine
 10
11.89955595892624
 20
27.68414371198225
 30
0.0
 11
12.80969121422386
 21
28.59427896727986
 31
0.0
  0
LINE
  5
333B
330
32BD
100
AcDbEntity
  8
0
  6
CONTINUOUS
 62
     0
100
AcDbLine
 10
7.23078848716932
 20
23.01537624022532
 30
0.0
 11
8.644155854060684
 21
24.42874360711669
 31
0.0
  0
LINE
  5
333C
330
32BD
100
AcDbEntity
  8
0
  6
CONTINUOUS
 62
     0
100
AcDbLine
 10
10.46482297621249
 20
26.5322534459578
 30
0.0
 11
11.41387297621249
 21
27.4813034459578
 31
0.0
  0
LINE
  5
333D
330
32BD
100
AcDbEntity
  8
0
  6
CONTINUOUS
 62
     0
100
AcDbLine
 10
11.60515893817368
 20
27.67258940791899
 30
0.0
 11
12.56758449922934
 21
28.63501496897464
 31
0.0
  0
LINE
  5
333E
330
32BD
100
AcDbEntity
  8
0
  6
CONTINUOUS
 62
     0
100
AcDbLine
 10
7.190052485474545
 20
23.25748295521985
 30
0.0
 11
8.361313137371382
 21
24.42874360711669
 31
0.0
  0
LINE
  5
333F
330
32BD
100
AcDbEntity
  8
0
  6
CONTINUOUS
 62
     0
100
AcDbLine
 10
10.46482297621249
 20
26.8150961626471
 30
0.0
 11
12.3138067227184
 21
28.66407990915301
 31
0.0
  0
LINE
  5
3340
330
32BD
100
AcDbEntity
  8
0
  6
CONTINUOUS
 62
     0
100
AcDbLine
 10
7.160987545296173
 20
23.51126073173078
 30
0.0
 11
8.191863730195372
 21
24.54213691662998
 31
0.0
  0
LINE
  5
3341
330
32BD
100
AcDbEntity
  8
0
  6
CONTINUOUS
 62
     0
100
AcDbLine
 10
10.46482297621249
 20
27.0979388793364
 30
0.0
 11
12.04675322306042
 21
28.67986912618434
 31
0.0
  0
LINE
  5
3342
330
32BD
100
AcDbEntity
  8
0
  6
CONTINUOUS
 62
     0
100
AcDbLine
 10
7.145198328264847
 20
23.77831423138875
 30
0.0
 11
8.270420866999273
 21
24.90353677012318
 31
0.0
  0
LINE
  5
3343
330
32BD
100
AcDbEntity
  8
0
  6
CONTINUOUS
 62
     0
100
AcDbLine
 10
10.46482297621249
 20
27.3807815960257
 30
0.0
 11
11.76425868915726
 21
28.68021730897048
 31
0.0
  0
LINE
  5
3344
330
32BD
100
AcDbEntity
  8
0
  6
CONTINUOUS
 62
     0
100
AcDbLine
 10
7.144850145478706
 20
24.06080876529192
 30
0.0
 11
8.412672403383361
 21
25.32863102319658
 31
0.0
  0
LINE
  5
3345
330
32BD
100
AcDbEntity
  8
0
  6
CONTINUOUS
 62
     0
100
AcDbLine
 10
9.9246398068098
 20
27.12344114331232
 30
0.0
 11
11.46328597187034
 21
28.66208730837286
 31
0.0
  0
LINE
  5
3346
330
32BD
100
AcDbEntity
  8
0
  6
CONTINUOUS
 62
     0
100
AcDbLine
 10
7.162980146076328
 20
24.36178148257885
 30
0.0
 11
8.701626353337033
 21
25.90042768983956
 31
0.0
  0
LINE
  5
3347
330
32BD
100
AcDbEntity
  8
0
  6
CONTINUOUS
 62
     0
100
AcDbLine
 10
7.204078281230074
 20
24.6857223344219
 30
0.0
 11
11.1393451200273
 21
28.62098917321912
 31
0.0
  0
LINE
  5
3348
330
32BD
100
AcDbEntity
  8
0
  6
CONTINUOUS
 62
     0
100
AcDbLine
 10
7.27529604137107
 20
25.03978281125219
 30
0.0
 11
10.78528464319699
 21
28.54977141307812
 31
0.0
  0
LINE
  5
3349
330
32BD
100
AcDbEntity
  8
0
  6
CONTINUOUS
 62
     0
100
AcDbLine
 10
7.38939283603053
 20
25.43672232260095
 30
0.0
 11
10.38834513184824
 21
28.43567461841866
 31
0.0
  0
LINE
  5
334A
330
32BD
100
AcDbEntity
  8
0
  6
CONTINUOUS
 62
     0
100
AcDbLine
 10
7.574054068911337
 20
25.90422627217108
 30
0.0
 11
9.92084118227811
 21
28.25101338553785
 31
0.0
  0
LINE
  5
334B
330
32BD
100
AcDbEntity
  8
0
  6
CONTINUOUS
 62
     0
100
AcDbLine
 10
7.923914723298132
 20
26.53692964324717
 30
0.0
 11
9.288137811202012
 21
27.90115273115106
 31
0.0
  0
ENDBLK
  5
334D
330
32BD
100
AcDbEntity
  8
0
100
AcDbBlockEnd
  0
BLOCK
  5
336C
330
334E
100
AcDbEntity
  8
0
100
AcDbBlockBegin
  2
*X19
 70
     1
 10
0.0
 20
0.0
 30
0.0
  3
*X19
  1

  0
LINE
  5
334F
330
334E
100
AcDbEntity
  8
0
  6
CONTINUOUS
 62
     0
100
AcDbLine
 10
20.40385527197239
 20
20.63209360711668
 30
0.0
 11
20.4701229762125
 21
20.6983613113568
 31
0.0
  0
LINE
  5
3350
330
334E
100
AcDbEntity
  8
0
  6
CONTINUOUS
 62
     0
100
AcDbLine
 10
20.12101255528309
 20
20.63209360711668
 30
0.0
 11
20.47012297621249
 21
20.98120402804609
 31
0.0
  0
LINE
  5
3351
330
334E
100
AcDbEntity
  8
0
  6
CONTINUOUS
 62
     0
100
AcDbLine
 10
19.83816983859378
 20
20.63209360711668
 30
0.0
 11
20.47012297621249
 21
21.26404674473539
 31
0.0
  0
LINE
  5
3352
330
334E
100
AcDbEntity
  8
0
  6
CONTINUOUS
 62
     0
100
AcDbLine
 10
19.55532712190448
 20
20.63209360711669
 30
0.0
 11
20.47012297621249
 21
21.5468894614247
 31
0.0
  0
LINE
  5
3353
330
334E
100
AcDbEntity
  8
0
  6
CONTINUOUS
 62
     0
100
AcDbLine
 10
19.27248440521518
 20
20.63209360711669
 30
0.0
 11
20.47012297621249
 21
21.829732178114
 31
0.0
  0
LINE
  5
3354
330
334E
100
AcDbEntity
  8
0
  6
CONTINUOUS
 62
     0
100
AcDbLine
 10
18.98964168852588
 20
20.63209360711669
 30
0.0
 11
20.47012297621249
 21
22.11257489480331
 31
0.0
  0
LINE
  5
3355
330
334E
100
AcDbEntity
  8
0
  6
CONTINUOUS
 62
     0
100
AcDbLine
 10
18.70679897183657
 20
20.63209360711669
 30
0.0
 11
20.4701229762125
 21
22.39541761149261
 31
0.0
  0
LINE
  5
3356
330
334E
100
AcDbEntity
  8
0
  6
CONTINUOUS
 62
     0
100
AcDbLine
 10
18.67462297621249
 20
20.8827603281819
 30
0.0
 11
20.4701229762125
 21
22.67826032818192
 31
0.0
  0
LINE
  5
3357
330
334E
100
AcDbEntity
  8
0
  6
CONTINUOUS
 62
     0
100
AcDbLine
 10
20.91986353845797
 20
23.41084360711669
 30
0.0
 11
21.08752297621251
 21
23.57850304487123
 31
0.0
  0
LINE
  5
3358
330
334E
100
AcDbEntity
  8
0
  6
CONTINUOUS
 62
     0
100
AcDbLine
 10
18.67462297621249
 20
21.16560304487121
 30
0.0
 11
20.4701229762125
 21
22.96110304487123
 31
0.0
  0
LINE
  5
3359
330
334E
100
AcDbEntity
  8
0
  6
CONTINUOUS
 62
     0
100
AcDbLine
 10
20.63702082176867
 20
23.41084360711669
 30
0.0
 11
21.08752297621251
 21
23.86134576156053
 31
0.0
  0
LINE
  5
335A
330
334E
100
AcDbEntity
  8
0
  6
CONTINUOUS
 62
     0
100
AcDbLine
 10
18.67462297621249
 20
21.44844576156051
 30
0.0
 11
20.4701229762125
 21
23.24394576156052
 31
0.0
  0
LINE
  5
335B
330
334E
100
AcDbEntity
  8
0
  6
CONTINUOUS
 62
     0
100
AcDbLine
 10
18.67462297621248
 20
21.73128847824981
 30
0.0
 11
21.0875229762125
 21
24.14418847824983
 31
0.0
  0
LINE
  5
335C
330
334E
100
AcDbEntity
  8
0
  6
CONTINUOUS
 62
     0
100
AcDbLine
 10
18.67462297621249
 20
22.01413119493912
 30
0.0
 11
21.0875229762125
 21
24.42703119493913
 31
0.0
  0
LINE
  5
335D
330
334E
100
AcDbEntity
  8
0
  6
CONTINUOUS
 62
     0
100
AcDbLine
 10
18.67462297621249
 20
22.29697391162843
 30
0.0
 11
20.88604267170075
 21
24.50839360711669
 31
0.0
  0
LINE
  5
335E
330
334E
100
AcDbEntity
  8
0
  6
CONTINUOUS
 62
     0
100
AcDbLine
 10
21.02664995501144
 20
24.93184360711669
 30
0.0
 11
21.0875229762125
 21
24.99271662831775
 31
0.0
  0
LINE
  5
335F
330
334E
100
AcDbEntity
  8
0
  6
CONTINUOUS
 62
     0
100
AcDbLine
 10
18.67462297621248
 20
22.57981662831773
 30
0.0
 11
20.60319995501143
 21
24.50839360711669
 31
0.0
  0
LINE
  5
3360
330
334E
100
AcDbEntity
  8
0
  6
CONTINUOUS
 62
     0
100
AcDbLine
 10
20.74380723832214
 20
24.93184360711669
 30
0.0
 11
21.0875229762125
 21
25.27555934500705
 31
0.0
  0
LINE
  5
3361
330
334E
100
AcDbEntity
  8
0
  6
CONTINUOUS
 62
     0
100
AcDbLine
 10
18.67462297621249
 20
22.86265934500704
 30
0.0
 11
20.43397690248405
 21
24.62201327127861
 31
0.0
  0
LINE
  5
3362
330
334E
100
AcDbEntity
  8
0
  6
CONTINUOUS
 62
     0
100
AcDbLine
 10
18.67462297621249
 20
23.14550206169634
 30
0.0
 11
21.0875229762125
 21
25.55840206169636
 31
0.0
  0
LINE
  5
3363
330
334E
100
AcDbEntity
  8
0
  6
CONTINUOUS
 62
     0
100
AcDbLine
 10
18.65712180494354
 20
23.41084360711669
 30
0.0
 11
21.08127180494354
 21
25.83499360711669
 31
0.0
  0
LINE
  5
3364
330
334E
100
AcDbEntity
  8
0
  6
CONTINUOUS
 62
     0
100
AcDbLine
 10
18.37427908825423
 20
23.41084360711668
 30
0.0
 11
20.79842908825423
 21
25.83499360711669
 31
0.0
  0
LINE
  5
3365
330
334E
100
AcDbEntity
  8
0
  6
CONTINUOUS
 62
     0
100
AcDbLine
 10
18.13732297621251
 20
23.45673021176427
 30
0.0
 11
20.51558637156492
 21
25.83499360711668
 31
0.0
  0
LINE
  5
3366
330
334E
100
AcDbEntity
  8
0
  6
CONTINUOUS
 62
     0
100
AcDbLine
 10
18.13732297621251
 20
23.73957292845357
 30
0.0
 11
20.23274365487563
 21
25.83499360711669
 31
0.0
  0
LINE
  5
3367
330
334E
100
AcDbEntity
  8
0
  6
CONTINUOUS
 62
     0
100
AcDbLine
 10
18.67462297621249
 20
24.55971564514285
 30
0.0
 11
19.94990093818632
 21
25.83499360711669
 31
0.0
  0
LINE
  5
3368
330
334E
100
AcDbEntity
  8
0
  6
CONTINUOUS
 62
     0
100
AcDbLine
 10
18.13732297621251
 20
24.02241564514287
 30
0.0
 11
18.62330093818632
 21
24.50839360711668
 31
0.0
  0
LINE
  5
3369
330
334E
100
AcDbEntity
  8
0
  6
CONTINUOUS
 62
     0
100
AcDbLine
 10
18.67462297621249
 20
24.84255836183216
 30
0.0
 11
19.66705822149701
 21
25.83499360711669
 31
0.0
  0
LINE
  5
336A
330
334E
100
AcDbEntity
  8
0
  6
CONTINUOUS
 62
     0
100
AcDbLine
 10
18.13732297621251
 20
24.30525836183218
 30
0.0
 11
18.34045822149701
 21
24.50839360711669
 31
0.0
  0
LINE
  5
336B
330
334E
100
AcDbEntity
  8
0
  6
CONTINUOUS
 62
     0
100
AcDbLine
 10
18.70280531180699
 20
25.15358341411596
 30
0.0
 11
19.35607675113877
 21
25.80685485344774
 31
0.0
  0
ENDBLK
  5
336D
330
334E
100
AcDbEntity
  8
0
100
AcDbBlockEnd
  0
BLOCK
  5
3379
330
336E
100
AcDbEntity
  8
0
100
AcDbBlockBegin
  2
*X20
 70
     1
 10
0.0
 20
0.0
 30
0.0
  3
*X20
  1

  0
LINE
  5
336F
330
336E
100
AcDbEntity
  8
0
  6
CONTINUOUS
 62
     0
100
AcDbLine
 10
23.58348440521518
 20
24.94309360711669
 30
0.0
 11
23.6259729762125
 21
24.98558217811401
 31
0.0
  0
LINE
  5
3370
330
336E
100
AcDbEntity
  8
0
  6
CONTINUOUS
 62
     0
100
AcDbLine
 10
23.30064168852588
 20
24.94309360711669
 30
0.0
 11
23.6259729762125
 21
25.26842489480332
 31
0.0
  0
LINE
  5
3371
330
336E
100
AcDbEntity
  8
0
  6
CONTINUOUS
 62
     0
100
AcDbLine
 10
23.01779897183657
 20
24.94309360711669
 30
0.0
 11
23.6259729762125
 21
25.55126761149262
 31
0.0
  0
LINE
  5
3372
330
336E
100
AcDbEntity
  8
0
  6
CONTINUOUS
 62
     0
100
AcDbLine
 10
22.73495625514727
 20
24.94309360711669
 30
0.0
 11
23.6259729762125
 21
25.83411032818192
 31
0.0
  0
LINE
  5
3373
330
336E
100
AcDbEntity
  8
0
  6
CONTINUOUS
 62
     0
100
AcDbLine
 10
22.45211353845797
 20
24.94309360711669
 30
0.0
 11
23.34401353845797
 21
25.83499360711669
 31
0.0
  0
LINE
  5
3374
330
336E
100
AcDbEntity
  8
0
  6
CONTINUOUS
 62
     0
100
AcDbLine
 10
22.16927082176867
 20
24.94309360711669
 30
0.0
 11
23.06117082176866
 21
25.83499360711668
 31
0.0
  0
LINE
  5
3375
330
336E
100
AcDbEntity
  8
0
  6
CONTINUOUS
 62
     0
100
AcDbLine
 10
21.88642810507935
 20
24.94309360711669
 30
0.0
 11
22.77832810507936
 21
25.83499360711669
 31
0.0
  0
LINE
  5
3376
330
336E
100
AcDbEntity
  8
0
  6
CONTINUOUS
 62
     0
100
AcDbLine
 10
21.8079729762125
 20
25.14748119493914
 30
0.0
 11
22.49548538839006
 21
25.83499360711669
 31
0.0
  0
LINE
  5
3377
330
336E
100
AcDbEntity
  8
0
  6
CONTINUOUS
 62
     0
100
AcDbLine
 10
21.8079729762125
 20
25.43032391162844
 30
0.0
 11
22.21264267170075
 21
25.8349936071167
 31
0.0
  0
LINE
  5
3378
330
336E
100
AcDbEntity
  8
0
  6
CONTINUOUS
 62
     0
100
AcDbLine
 10
21.8079729762125
 20
25.71316662831774
 30
0.0
 11
21.92979995501144
 21
25.83499360711669
 31
0.0
  0
ENDBLK
  5
337A
330
336E
100
AcDbEntity
  8
0
100
AcDbBlockEnd
  0
BLOCK
  5
3390
330
337B
100
AcDbEntity
  8
0
100
AcDbBlockBegin
  2
*X21
 70
     1
 10
0.0
 20
0.0
 30
0.0
  3
*X21
  1

  0
LINE
  5
337C
330
337B
100
AcDbEntity
  8
0
  6
CONTINUOUS
 62
     0
100
AcDbLine
 10
23.51512515555474
 20
20.63209360711669
 30
0.0
 11
23.6259729762125
 21
20.74294142777445
 31
0.0
  0
LINE
  5
337D
330
337B
100
AcDbEntity
  8
0
  6
CONTINUOUS
 62
     0
100
AcDbLine
 10
23.23228243886543
 20
20.63209360711669
 30
0.0
 11
23.6259729762125
 21
21.02578414446375
 31
0.0
  0
LINE
  5
337E
330
337B
100
AcDbEntity
  8
0
  6
CONTINUOUS
 62
     0
100
AcDbLine
 10
22.94943972217613
 20
20.63209360711668
 30
0.0
 11
23.6259729762125
 21
21.30862686115305
 31
0.0
  0
LINE
  5
337F
330
337B
100
AcDbEntity
  8
0
  6
CONTINUOUS
 62
     0
100
AcDbLine
 10
22.66659700548682
 20
20.63209360711668
 30
0.0
 11
23.62597297621249
 21
21.59146957784236
 31
0.0
  0
LINE
  5
3380
330
337B
100
AcDbEntity
  8
0
  6
CONTINUOUS
 62
     0
100
AcDbLine
 10
22.38375428879752
 20
20.63209360711668
 30
0.0
 11
23.62597297621249
 21
21.87431229453166
 31
0.0
  0
LINE
  5
3381
330
337B
100
AcDbEntity
  8
0
  6
CONTINUOUS
 62
     0
100
AcDbLine
 10
22.10091157210821
 20
20.63209360711669
 30
0.0
 11
23.62597297621249
 21
22.15715501122097
 31
0.0
  0
LINE
  5
3382
330
337B
100
AcDbEntity
  8
0
  6
CONTINUOUS
 62
     0
100
AcDbLine
 10
21.81806885541891
 20
20.63209360711669
 30
0.0
 11
23.6259729762125
 21
22.43999772791027
 31
0.0
  0
LINE
  5
3383
330
337B
100
AcDbEntity
  8
0
  6
CONTINUOUS
 62
     0
100
AcDbLine
 10
21.8079729762125
 20
20.90484044459958
 30
0.0
 11
23.6259729762125
 21
22.72284044459957
 31
0.0
  0
LINE
  5
3384
330
337B
100
AcDbEntity
  8
0
  6
CONTINUOUS
 62
     0
100
AcDbLine
 10
21.8079729762125
 20
21.18768316128889
 30
0.0
 11
23.6259729762125
 21
23.00568316128888
 31
0.0
  0
LINE
  5
3385
330
337B
100
AcDbEntity
  8
0
  6
CONTINUOUS
 62
     0
100
AcDbLine
 10
21.8079729762125
 20
21.47052587797819
 30
0.0
 11
23.6259729762125
 21
23.28852587797818
 31
0.0
  0
LINE
  5
3386
330
337B
100
AcDbEntity
  8
0
  6
CONTINUOUS
 62
     0
100
AcDbLine
 10
21.8079729762125
 20
21.75336859466749
 30
0.0
 11
23.6259729762125
 21
23.57136859466749
 31
0.0
  0
LINE
  5
3387
330
337B
100
AcDbEntity
  8
0
  6
CONTINUOUS
 62
     0
100
AcDbLine
 10
21.8079729762125
 20
22.03621131135679
 30
0.0
 11
23.6259729762125
 21
23.85421131135679
 31
0.0
  0
LINE
  5
3388
330
337B
100
AcDbEntity
  8
0
  6
CONTINUOUS
 62
     0
100
AcDbLine
 10
21.80797297621249
 20
22.31905402804609
 30
0.0
 11
23.62597297621249
 21
24.13705402804609
 31
0.0
  0
LINE
  5
3389
330
337B
100
AcDbEntity
  8
0
  6
CONTINUOUS
 62
     0
100
AcDbLine
 10
21.80797297621249
 20
22.6018967447354
 30
0.0
 11
23.62597297621249
 21
24.4198967447354
 31
0.0
  0
LINE
  5
338A
330
337B
100
AcDbEntity
  8
0
  6
CONTINUOUS
 62
     0
100
AcDbLine
 10
21.8079729762125
 20
22.88473946142471
 30
0.0
 11
23.43162712190448
 21
24.50839360711669
 31
0.0
  0
LINE
  5
338B
330
337B
100
AcDbEntity
  8
0
  6
CONTINUOUS
 62
     0
100
AcDbLine
 10
21.8079729762125
 20
23.16758217811401
 30
0.0
 11
23.14878440521518
 21
24.50839360711669
 31
0.0
  0
LINE
  5
338C
330
337B
100
AcDbEntity
  8
0
  6
CONTINUOUS
 62
     0
100
AcDbLine
 10
21.8079729762125
 20
23.45042489480332
 30
0.0
 11
22.86594168852587
 21
24.50839360711669
 31
0.0
  0
LINE
  5
338D
330
337B
100
AcDbEntity
  8
0
  6
CONTINUOUS
 62
     0
100
AcDbLine
 10
21.8079729762125
 20
23.73326761149262
 30
0.0
 11
22.58309897183657
 21
24.50839360711668
 31
0.0
  0
LINE
  5
338E
330
337B
100
AcDbEntity
  8
0
  6
CONTINUOUS
 62
     0
100
AcDbLine
 10
21.8079729762125
 20
24.01611032818192
 30
0.0
 11
22.30025625514727
 21
24.50839360711668
 31
0.0
  0
LINE
  5
338F
330
337B
100
AcDbEntity
  8
0
  6
CONTINUOUS
 62
     0
100
AcDbLine
 10
21.8079729762125
 20
24.29895304487122
 30
0.0
 11
22.01741353845796
 21
24.50839360711668
 31
0.0
  0
ENDBLK
  5
3391
330
337B
100
AcDbEntity
  8
0
100
AcDbBlockEnd
  0
BLOCK
  5
33BA
330
3392
100
AcDbEntity
  8
0
100
AcDbBlockBegin
  2
*X22
 70
     1
 10
0.0
 20
0.0
 30
0.0
  3
*X22
  1

  0
LINE
  5
3393
330
3392
100
AcDbEntity
  8
0
  6
CONTINUOUS
 62
     0
100
AcDbLine
 10
29.73766492271942
 20
20.63209360711669
 30
0.0
 11
29.8922229762125
 21
20.78665166060976
 31
0.0
  0
LINE
  5
3394
330
3392
100
AcDbEntity
  8
0
  6
CONTINUOUS
 62
     0
100
AcDbLine
 10
29.45482220603011
 20
20.63209360711669
 30
0.0
 11
29.89222297621249
 21
21.06949437729907
 31
0.0
  0
LINE
  5
3395
330
3392
100
AcDbEntity
  8
0
  6
CONTINUOUS
 62
     0
100
AcDbLine
 10
29.17197948934081
 20
20.63209360711669
 30
0.0
 11
29.8922229762125
 21
21.35233709398837
 31
0.0
  0
LINE
  5
3396
330
3392
100
AcDbEntity
  8
0
  6
CONTINUOUS
 62
     0
100
AcDbLine
 10
28.88913677265151
 20
20.63209360711669
 30
0.0
 11
29.8922229762125
 21
21.63517981067768
 31
0.0
  0
LINE
  5
3397
330
3392
100
AcDbEntity
  8
0
  6
CONTINUOUS
 62
     0
100
AcDbLine
 10
28.6062940559622
 20
20.63209360711669
 30
0.0
 11
29.8922229762125
 21
21.91802252736698
 31
0.0
  0
LINE
  5
3398
330
3392
100
AcDbEntity
  8
0
  6
CONTINUOUS
 62
     0
100
AcDbLine
 10
28.3234513392729
 20
20.63209360711669
 30
0.0
 11
29.8922229762125
 21
22.20086524405628
 31
0.0
  0
LINE
  5
3399
330
3392
100
AcDbEntity
  8
0
  6
CONTINUOUS
 62
     0
100
AcDbLine
 10
28.1084229762125
 20
20.69990796074559
 30
0.0
 11
29.8922229762125
 21
22.48370796074559
 31
0.0
  0
LINE
  5
339A
330
3392
100
AcDbEntity
  8
0
  6
CONTINUOUS
 62
     0
100
AcDbLine
 10
28.10842297621249
 20
20.98275067743489
 30
0.0
 11
29.8922229762125
 21
22.7665506774349
 31
0.0
  0
LINE
  5
339B
330
3392
100
AcDbEntity
  8
0
  6
CONTINUOUS
 62
     0
100
AcDbLine
 10
28.10842297621249
 20
21.26559339412419
 30
0.0
 11
29.8922229762125
 21
23.04939339412419
 31
0.0
  0
LINE
  5
339C
330
3392
100
AcDbEntity
  8
0
  6
CONTINUOUS
 62
     0
100
AcDbLine
 10
28.10842297621249
 20
21.5484361108135
 30
0.0
 11
29.89184294464031
 21
23.33185607924131
 31
0.0
  0
LINE
  5
339D
330
3392
100
AcDbEntity
  8
0
  6
CONTINUOUS
 62
     0
100
AcDbLine
 10
28.1084229762125
 20
21.83127882750281
 30
0.0
 11
29.85326765992761
 21
23.57612351121792
 31
0.0
  0
LINE
  5
339E
330
3392
100
AcDbEntity
  8
0
  6
CONTINUOUS
 62
     0
100
AcDbLine
 10
28.1084229762125
 20
22.11412154419211
 30
0.0
 11
29.7778145719578
 21
23.78351313993741
 31
0.0
  0
LINE
  5
339F
330
3392
100
AcDbEntity
  8
0
  6
CONTINUOUS
 62
     0
100
AcDbLine
 10
28.1084229762125
 20
22.39696426088142
 30
0.0
 11
29.67412964984317
 21
23.96267093451208
 31
0.0
  0
LINE
  5
33A0
330
3392
100
AcDbEntity
  8
0
  6
CONTINUOUS
 62
     0
100
AcDbLine
 10
28.08408741851916
 20
22.65547141987738
 30
0.0
 11
29.54593010449247
 21
24.11731410585069
 31
0.0
  0
LINE
  5
33A1
330
3392
100
AcDbEntity
  8
0
  6
CONTINUOUS
 62
     0
100
AcDbLine
 10
26.06070960575847
 20
20.63209360711669
 30
0.0
 11
26.2899729762125
 21
20.86135697757072
 31
0.0
  0
LINE
  5
33A2
330
3392
100
AcDbEntity
  8
0
  6
CONTINUOUS
 62
     0
100
AcDbLine
 10
27.993800251453
 20
22.84802696950052
 30
0.0
 11
29.39435863885448
 21
24.248585356902
 31
0.0
  0
LINE
  5
33A3
330
3392
100
AcDbEntity
  8
0
  6
CONTINUOUS
 62
     0
100
AcDbLine
 10
25.77786688906916
 20
20.63209360711669
 30
0.0
 11
26.2899729762125
 21
21.14419969426002
 31
0.0
  0
LINE
  5
33A4
330
3392
100
AcDbEntity
  8
0
  6
CONTINUOUS
 62
     0
100
AcDbLine
 10
27.85643124454681
 20
22.99350067928364
 30
0.0
 11
29.21854476173636
 21
24.35561419647318
 31
0.0
  0
LINE
  5
33A5
330
3392
100
AcDbEntity
  8
0
  6
CONTINUOUS
 62
     0
100
AcDbLine
 10
25.49502417237986
 20
20.63209360711668
 30
0.0
 11
26.2899729762125
 21
21.42704241094932
 31
0.0
  0
LINE
  5
33A6
330
3392
100
AcDbEntity
  8
0
  6
CONTINUOUS
 62
     0
100
AcDbLine
 10
27.67336145621951
 20
23.09327360764564
 30
0.0
 11
29.00873242055444
 21
24.42864457198057
 31
0.0
  0
LINE
  5
33A7
330
3392
100
AcDbEntity
  8
0
  6
CONTINUOUS
 62
     0
100
AcDbLine
 10
25.21218145569056
 20
20.63209360711668
 30
0.0
 11
26.2899729762125
 21
21.70988512763862
 31
0.0
  0
LINE
  5
33A8
330
3392
100
AcDbEntity
  8
0
  6
CONTINUOUS
 62
     0
100
AcDbLine
 10
27.42668159597107
 20
23.1294364640865
 30
0.0
 11
28.78111137615865
 21
24.48386624427408
 31
0.0
  0
LINE
  5
33A9
330
3392
100
AcDbEntity
  8
0
  6
CONTINUOUS
 62
     0
100
AcDbLine
 10
24.92933873900125
 20
20.63209360711668
 30
0.0
 11
26.2899729762125
 21
21.99272784432793
 31
0.0
  0
LINE
  5
33AA
330
3392
100
AcDbEntity
  8
0
  6
CONTINUOUS
 62
     0
100
AcDbLine
 10
27.09337871134729
 20
23.07897629615202
 30
0.0
 11
28.53965784556285
 21
24.52525543036758
 31
0.0
  0
LINE
  5
33AB
330
3392
100
AcDbEntity
  8
0
  6
CONTINUOUS
 62
     0
100
AcDbLine
 10
24.64649602231195
 20
20.63209360711668
 30
0.0
 11
26.2899729762125
 21
22.27557056101724
 31
0.0
  0
LINE
  5
33AC
330
3392
100
AcDbEntity
  8
0
  6
CONTINUOUS
 62
     0
100
AcDbLine
 10
24.49492297621249
 20
20.76336327770653
 30
0.0
 11
28.28214143765219
 21
24.55058173914623
 31
0.0
  0
LINE
  5
33AD
330
3392
100
AcDbEntity
  8
0
  6
CONTINUOUS
 62
     0
100
AcDbLine
 10
24.49492297621249
 20
21.04620599439583
 30
0.0
 11
28.00532133716157
 21
24.55660435534491
 31
0.0
  0
LINE
  5
33AE
330
3392
100
AcDbEntity
  8
0
  6
CONTINUOUS
 62
     0
100
AcDbLine
 10
24.49492297621249
 20
21.32904871108514
 30
0.0
 11
27.70419502338755
 21
24.5383207582602
 31
0.0
  0
LINE
  5
33AF
330
3392
100
AcDbEntity
  8
0
  6
CONTINUOUS
 62
     0
100
AcDbLine
 10
24.49492297621249
 20
21.61189142777444
 30
0.0
 11
27.37030343271159
 21
24.48727188427354
 31
0.0
  0
LINE
  5
33B0
330
3392
100
AcDbEntity
  8
0
  6
CONTINUOUS
 62
     0
100
AcDbLine
 10
24.49492297621249
 20
21.89473414446374
 30
0.0
 11
26.98703511483339
 21
24.38684628308465
 31
0.0
  0
LINE
  5
33B1
330
3392
100
AcDbEntity
  8
0
  6
CONTINUOUS
 62
     0
100
AcDbLine
 10
24.49492297621249
 20
22.17757686115305
 30
0.0
 11
26.51056620292166
 21
24.19322008786221
 31
0.0
  0
LINE
  5
33B2
330
3392
100
AcDbEntity
  8
0
  6
CONTINUOUS
 62
     0
100
AcDbLine
 10
24.49492297621249
 20
22.46041957784235
 30
0.0
 11
26.2899729762125
 21
24.25546957784236
 31
0.0
  0
LINE
  5
33B3
330
3392
100
AcDbEntity
  8
0
  6
CONTINUOUS
 62
     0
100
AcDbLine
 10
24.49492297621249
 20
22.74326229453166
 30
0.0
 11
26.26005428879752
 21
24.50839360711668
 31
0.0
  0
LINE
  5
33B4
330
3392
100
AcDbEntity
  8
0
  6
CONTINUOUS
 62
     0
100
AcDbLine
 10
24.49492297621249
 20
23.02610501122096
 30
0.0
 11
25.97721157210822
 21
24.50839360711669
 31
0.0
  0
LINE
  5
33B5
330
3392
100
AcDbEntity
  8
0
  6
CONTINUOUS
 62
     0
100
AcDbLine
 10
24.49492297621249
 20
23.30894772791026
 30
0.0
 11
25.69436885541891
 21
24.50839360711669
 31
0.0
  0
LINE
  5
33B6
330
3392
100
AcDbEntity
  8
0
  6
CONTINUOUS
 62
     0
100
AcDbLine
 10
24.49492297621249
 20
23.59179044459957
 30
0.0
 11
25.41152613872961
 21
24.50839360711669
 31
0.0
  0
LINE
  5
33B7
330
3392
100
AcDbEntity
  8
0
  6
CONTINUOUS
 62
     0
100
AcDbLine
 10
24.49492297621249
 20
23.87463316128887
 30
0.0
 11
25.1286834220403
 21
24.50839360711668
 31
0.0
  0
LINE
  5
33B8
330
3392
100
AcDbEntity
  8
0
  6
CONTINUOUS
 62
     0
100
AcDbLine
 10
24.49492297621249
 20
24.15747587797818
 30
0.0
 11
24.845840705351
 21
24.50839360711668
 31
0.0
  0
LINE
  5
33B9
330
3392
100
AcDbEntity
  8
0
  6
CONTINUOUS
 62
     0
100
AcDbLine
 10
24.49492297621249
 20
24.44031859466748
 30
0.0
 11
24.5629979886617
 21
24.50839360711668
 31
0.0
  0
ENDBLK
  5
33BB
330
3392
100
AcDbEntity
  8
0
100
AcDbBlockEnd
  0
BLOCK
  5
33E9
330
33BC
100
AcDbEntity
  8
0
100
AcDbBlockBegin
  2
*X23
 70
     1
 10
0.0
 20
0.0
 30
0.0
  3
*X23
  1

  0
LINE
  5
33BD
330
33BC
100
AcDbEntity
  8
0
  6
CONTINUOUS
 62
     0
100
AcDbLine
 10
35.94895468988411
 20
20.6208436071167
 30
0.0
 11
35.9865729762125
 21
20.65846189344508
 31
0.0
  0
LINE
  5
33BE
330
33BC
100
AcDbEntity
  8
0
  6
CONTINUOUS
 62
     0
100
AcDbLine
 10
35.6661119731948
 20
20.62084360711669
 30
0.0
 11
35.9865729762125
 21
20.94130461013438
 31
0.0
  0
LINE
  5
33BF
330
33BC
100
AcDbEntity
  8
0
  6
CONTINUOUS
 62
     0
100
AcDbLine
 10
35.3832692565055
 20
20.62084360711669
 30
0.0
 11
35.9865729762125
 21
21.22414732682369
 31
0.0
  0
LINE
  5
33C0
330
33BC
100
AcDbEntity
  8
0
  6
CONTINUOUS
 62
     0
100
AcDbLine
 10
35.10042653981621
 20
20.6208436071167
 30
0.0
 11
35.9865729762125
 21
21.506990043513
 31
0.0
  0
LINE
  5
33C1
330
33BC
100
AcDbEntity
  8
0
  6
CONTINUOUS
 62
     0
100
AcDbLine
 10
34.8175838231269
 20
20.6208436071167
 30
0.0
 11
35.9865729762125
 21
21.7898327602023
 31
0.0
  0
LINE
  5
33C2
330
33BC
100
AcDbEntity
  8
0
  6
CONTINUOUS
 62
     0
100
AcDbLine
 10
34.53474110643759
 20
20.6208436071167
 30
0.0
 11
35.9865729762125
 21
22.07267547689161
 31
0.0
  0
LINE
  5
33C3
330
33BC
100
AcDbEntity
  8
0
  6
CONTINUOUS
 62
     0
100
AcDbLine
 10
34.25189838974829
 20
20.6208436071167
 30
0.0
 11
35.9865729762125
 21
22.35551819358091
 31
0.0
  0
LINE
  5
33C4
330
33BC
100
AcDbEntity
  8
0
  6
CONTINUOUS
 62
     0
100
AcDbLine
 10
34.19152297621249
 20
20.8433109102702
 30
0.0
 11
35.9865729762125
 21
22.63836091027021
 31
0.0
  0
LINE
  5
33C5
330
33BC
100
AcDbEntity
  8
0
  6
CONTINUOUS
 62
     0
100
AcDbLine
 10
33.76931006849532
 20
20.70394071924233
 30
0.0
 11
35.9865729762125
 21
22.92120362695951
 31
0.0
  0
LINE
  5
33C6
330
33BC
100
AcDbEntity
  8
0
  6
CONTINUOUS
 62
     0
100
AcDbLine
 10
33.39236634668884
 20
20.60983971412515
 30
0.0
 11
35.9865729762125
 21
23.20404634364881
 31
0.0
  0
LINE
  5
33C7
330
33BC
100
AcDbEntity
  8
0
  6
CONTINUOUS
 62
     0
100
AcDbLine
 10
33.08101349676572
 20
20.58132958089135
 30
0.0
 11
35.9865729762125
 21
23.48688906033812
 31
0.0
  0
LINE
  5
33C8
330
33BC
100
AcDbEntity
  8
0
  6
CONTINUOUS
 62
     0
100
AcDbLine
 10
32.78812179433337
 20
20.5712805951483
 30
0.0
 11
35.9865729762125
 21
23.76973177702743
 31
0.0
  0
LINE
  5
33C9
330
33BC
100
AcDbEntity
  8
0
  6
CONTINUOUS
 62
     0
100
AcDbLine
 10
32.50752380447832
 20
20.57352532198255
 30
0.0
 11
35.9865729762125
 21
24.05257449371673
 31
0.0
  0
LINE
  5
33CA
330
33BC
100
AcDbEntity
  8
0
  6
CONTINUOUS
 62
     0
100
AcDbLine
 10
34.17881428393366
 20
22.52765851812719
 30
0.0
 11
35.9865729762125
 21
24.33541721040603
 31
0.0
  0
LINE
  5
33CB
330
33BC
100
AcDbEntity
  8
0
  6
CONTINUOUS
 62
     0
100
AcDbLine
 10
32.24308330320312
 20
20.59192753739665
 30
0.0
 11
33.5947915553251
 21
21.94363578951862
 31
0.0
  0
LINE
  5
33CC
330
33BC
100
AcDbEntity
  8
0
  6
CONTINUOUS
 62
     0
100
AcDbLine
 10
34.18164288181293
 20
22.81332983269576
 30
0.0
 11
35.9865729762125
 21
24.61825992709534
 31
0.0
  0
LINE
  5
33CD
330
33BC
100
AcDbEntity
  8
0
  6
CONTINUOUS
 62
     0
100
AcDbLine
 10
32.00051587262909
 20
20.63220282351193
 30
0.0
 11
33.24755471239335
 21
21.87924166327619
 31
0.0
  0
LINE
  5
33CE
330
33BC
100
AcDbEntity
  8
0
  6
CONTINUOUS
 62
     0
100
AcDbLine
 10
34.10028732459351
 20
23.01481699216565
 30
0.0
 11
35.9865729762125
 21
24.90110264378464
 31
0.0
  0
LINE
  5
33CF
330
33BC
100
AcDbEntity
  8
0
  6
CONTINUOUS
 62
     0
100
AcDbLine
 10
31.77752155152184
 20
20.69205121909399
 30
0.0
 11
32.98807784516069
 21
21.90260751273283
 31
0.0
  0
LINE
  5
33D0
330
33BC
100
AcDbEntity
  8
0
  6
CONTINUOUS
 62
     0
100
AcDbLine
 10
33.96946103525296
 20
23.1668334195144
 30
0.0
 11
35.9865729762125
 21
25.18394536047394
 31
0.0
  0
LINE
  5
33D1
330
33BC
100
AcDbEntity
  8
0
  6
CONTINUOUS
 62
     0
100
AcDbLine
 10
31.57735655266627
 20
20.77472893692771
 30
0.0
 11
32.76916056716867
 21
21.96653295143011
 31
0.0
  0
LINE
  5
33D2
330
33BC
100
AcDbEntity
  8
0
  6
CONTINUOUS
 62
     0
100
AcDbLine
 10
33.79869139168887
 20
23.27890649263963
 30
0.0
 11
35.9865729762125
 21
25.46678807716325
 31
0.0
  0
LINE
  5
33D3
330
33BC
100
AcDbEntity
  8
0
  6
CONTINUOUS
 62
     0
100
AcDbLine
 10
31.39462786403553
 20
20.87484296498628
 30
0.0
 11
32.57878095327255
 21
22.0589960542233
 31
0.0
  0
LINE
  5
33D4
330
33BC
100
AcDbEntity
  8
0
  6
CONTINUOUS
 62
     0
100
AcDbLine
 10
33.59506660797613
 20
23.35812442561617
 30
0.0
 11
35.9865729762125
 21
25.74963079385255
 31
0.0
  0
LINE
  5
33D5
330
33BC
100
AcDbEntity
  8
0
  6
CONTINUOUS
 62
     0
100
AcDbLine
 10
31.22313095771962
 20
20.98618877535967
 30
0.0
 11
32.42473321158667
 21
22.18779102922672
 31
0.0
  0
LINE
  5
33D6
330
33BC
100
AcDbEntity
  8
0
  6
CONTINUOUS
 62
     0
100
AcDbLine
 10
33.37303685143528
 20
23.41893738576464
 30
0.0
 11
35.77784307278734
 21
25.8237436071167
 31
0.0
  0
LINE
  5
33D7
330
33BC
100
AcDbEntity
  8
0
  6
CONTINUOUS
 62
     0
100
AcDbLine
 10
31.06703655932743
 20
21.11293709365678
 30
0.0
 11
32.30780348735248
 21
22.35370402168184
 31
0.0
  0
LINE
  5
33D8
330
33BC
100
AcDbEntity
  8
0
  6
CONTINUOUS
 62
     0
100
AcDbLine
 10
33.11599510872116
 20
23.44473835973982
 30
0.0
 11
34.07794507158477
 21
24.40668832260344
 31
0.0
  0
LINE
  5
33D9
330
33BC
100
AcDbEntity
  8
0
  6
CONTINUOUS
 62
     0
100
AcDbLine
 10
34.19152297621249
 20
24.52026622723115
 30
0.0
 11
35.49500035609803
 21
25.8237436071167
 31
0.0
  0
LINE
  5
33DA
330
33BC
100
AcDbEntity
  8
0
  6
CONTINUOUS
 62
     0
100
AcDbLine
 10
30.92289119341729
 20
21.25163444443595
 30
0.0
 11
32.23358530622347
 21
22.56232855724213
 31
0.0
  0
LINE
  5
33DB
330
33BC
100
AcDbEntity
  8
0
  6
CONTINUOUS
 62
     0
100
AcDbLine
 10
32.7481736096376
 20
23.35975957734556
 30
0.0
 11
33.88591149297755
 21
24.49749746068552
 31
0.0
  0
LINE
  5
33DC
330
33BC
100
AcDbEntity
  8
0
  6
CONTINUOUS
 62
     0
100
AcDbLine
 10
34.19152297621249
 20
24.80310894392045
 30
0.0
 11
35.21215763940872
 21
25.8237436071167
 31
0.0
  0
LINE
  5
33DD
330
33BC
100
AcDbEntity
  8
0
  6
CONTINUOUS
 62
     0
100
AcDbLine
 10
30.79573641207614
 20
21.4073223797841
 30
0.0
 11
32.26604065428763
 21
22.8776266219956
 31
0.0
  0
LINE
  5
33DE
330
33BC
100
AcDbEntity
  8
0
  6
CONTINUOUS
 62
     0
100
AcDbLine
 10
34.19152297621249
 20
25.08595166060977
 30
0.0
 11
34.92931492271942
 21
25.8237436071167
 31
0.0
  0
LINE
  5
33DF
330
33BC
100
AcDbEntity
  8
0
  6
CONTINUOUS
 62
     0
100
AcDbLine
 10
30.68486213057575
 20
21.57929081497302
 30
0.0
 11
33.65908040447928
 21
24.55350908887655
 31
0.0
  0
LINE
  5
33E0
330
33BC
100
AcDbEntity
  8
0
  6
CONTINUOUS
 62
     0
100
AcDbLine
 10
34.19152297621249
 20
25.36879437729907
 30
0.0
 11
34.64647220603012
 21
25.8237436071167
 31
0.0
  0
LINE
  5
33E1
330
33BC
100
AcDbEntity
  8
0
  6
CONTINUOUS
 62
     0
100
AcDbLine
 10
30.59117900796042
 20
21.76845040904699
 30
0.0
 11
33.41812710058627
 21
24.59539850167285
 31
0.0
  0
LINE
  5
33E2
330
33BC
100
AcDbEntity
  8
0
  6
CONTINUOUS
 62
     0
100
AcDbLine
 10
34.19152297621249
 20
25.65163709398837
 30
0.0
 11
34.36362948934082
 21
25.8237436071167
 31
0.0
  0
LINE
  5
33E3
330
33BC
100
AcDbEntity
  8
0
  6
CONTINUOUS
 62
     0
100
AcDbLine
 10
30.5171401026012
 20
21.97725422037708
 30
0.0
 11
33.17224949320045
 21
24.63236361097633
 31
0.0
  0
LINE
  5
33E4
330
33BC
100
AcDbEntity
  8
0
  6
CONTINUOUS
 62
     0
100
AcDbLine
 10
30.45912583106565
 20
22.20208266553082
 30
0.0
 11
32.90592647138441
 21
24.64888330584959
 31
0.0
  0
LINE
  5
33E5
330
33BC
100
AcDbEntity
  8
0
  6
CONTINUOUS
 62
     0
100
AcDbLine
 10
30.42369368109809
 20
22.44949323225257
 30
0.0
 11
32.62147513128882
 21
24.64727468244331
 31
0.0
  0
LINE
  5
33E6
330
33BC
100
AcDbEntity
  8
0
  6
CONTINUOUS
 62
     0
100
AcDbLine
 10
30.42431842749477
 20
22.73296069533856
 30
0.0
 11
32.32111378987424
 21
24.62975605771803
 31
0.0
  0
LINE
  5
33E7
330
33BC
100
AcDbEntity
  8
0
  6
CONTINUOUS
 62
     0
100
AcDbLine
 10
30.48456014727226
 20
23.07604513180535
 30
0.0
 11
31.97893133461656
 21
24.57041631914965
 31
0.0
  0
LINE
  5
33E8
330
33BC
100
AcDbEntity
  8
0
  6
CONTINUOUS
 62
     0
100
AcDbLine
 10
30.66709573670678
 20
23.54142343792917
 30
0.0
 11
31.51624097783787
 21
24.39056867906026
 31
0.0
  0
ENDBLK
  5
33EA
330
33BC
100
AcDbEntity
  8
0
100
AcDbBlockEnd
  0
BLOCK
  5
341C
330
33EB
100
AcDbEntity
  8
0
100
AcDbBlockBegin
  2
*X24
 70
     1
 10
0.0
 20
0.0
 30
0.0
  3
*X24
  1

  0
LINE
  5
33EC
330
33EB
100
AcDbEntity
  8
0
  6
CONTINUOUS
 62
     0
100
AcDbLine
 10
41.23382443163126
 20
20.81454444845637
 30
0.0
 11
42.03852064718826
 21
21.61924066401338
 31
0.0
  0
LINE
  5
33ED
330
33EB
100
AcDbEntity
  8
0
  6
CONTINUOUS
 62
     0
100
AcDbLine
 10
40.761924316934
 20
20.62548705044843
 30
0.0
 11
41.99208087360227
 21
21.85564360711669
 31
0.0
  0
LINE
  5
33EE
330
33EB
100
AcDbEntity
  8
0
  6
CONTINUOUS
 62
     0
100
AcDbLine
 10
42.10936425852561
 20
22.25576970872933
 30
0.0
 11
42.23468802862376
 21
22.38109347882748
 31
0.0
  0
LINE
  5
33EF
330
33EB
100
AcDbEntity
  8
0
  6
CONTINUOUS
 62
     0
100
AcDbLine
 10
40.38714372147003
 20
20.53354917167375
 30
0.0
 11
41.70923815691296
 21
21.85564360711669
 31
0.0
  0
LINE
  5
33F0
330
33EB
100
AcDbEntity
  8
0
  6
CONTINUOUS
 62
     0
100
AcDbLine
 10
41.82543336328735
 20
22.25468153018038
 30
0.0
 11
42.24862438405333
 21
22.67787255094635
 31
0.0
  0
LINE
  5
33F1
330
33EB
100
AcDbEntity
  8
0
  6
CONTINUOUS
 62
     0
100
AcDbLine
 10
40.0527804866274
 20
20.48202865352042
 30
0.0
 11
41.42639544022366
 21
21.85564360711669
 31
0.0
  0
LINE
  5
33F2
330
33EB
100
AcDbEntity
  8
0
  6
CONTINUOUS
 62
     0
100
AcDbLine
 10
41.54150246804907
 20
22.2535933516314
 30
0.0
 11
42.21409021783318
 21
22.92618110141551
 31
0.0
  0
LINE
  5
33F3
330
33EB
100
AcDbEntity
  8
0
  6
CONTINUOUS
 62
     0
100
AcDbLine
 10
39.74394012551539
 20
20.45603100909772
 30
0.0
 11
41.14355272353435
 21
21.85564360711669
 31
0.0
  0
LINE
  5
33F4
330
33EB
100
AcDbEntity
  8
0
  6
CONTINUOUS
 62
     0
100
AcDbLine
 10
41.25757157281079
 20
22.25250517308243
 30
0.0
 11
42.1560324540612
 21
23.15096605433283
 31
0.0
  0
LINE
  5
33F5
330
33EB
100
AcDbEntity
  8
0
  6
CONTINUOUS
 62
     0
100
AcDbLine
 10
39.44878816058276
 20
20.4437217608544
 30
0.0
 11
40.86071000684505
 21
21.85564360711669
 31
0.0
  0
LINE
  5
33F6
330
33EB
100
AcDbEntity
  8
0
  6
CONTINUOUS
 62
     0
100
AcDbLine
 10
40.97364067757253
 20
22.25141699453347
 30
0.0
 11
42.08269660975441
 21
23.36047292671535
 31
0.0
  0
LINE
  5
33F7
330
33EB
100
AcDbEntity
  8
0
  6
CONTINUOUS
 62
     0
100
AcDbLine
 10
39.16676589738567
 20
20.44454221434661
 30
0.0
 11
40.57786729015575
 21
21.85564360711669
 31
0.0
  0
LINE
  5
33F8
330
33EB
100
AcDbEntity
  8
0
  6
CONTINUOUS
 62
     0
100
AcDbLine
 10
40.68970978233426
 20
22.25032881598449
 30
0.0
 11
41.99226190333589
 21
23.55288093698613
 31
0.0
  0
LINE
  5
33F9
330
33EB
100
AcDbEntity
  8
0
  6
CONTINUOUS
 62
     0
100
AcDbLine
 10
38.90253497223048
 20
20.46315400588072
 30
0.0
 11
40.17887150097073
 21
21.73949053462098
 31
0.0
  0
LINE
  5
33FA
330
33EB
100
AcDbEntity
  8
0
  6
CONTINUOUS
 62
     0
100
AcDbLine
 10
40.40577888709599
 20
22.24924063743553
 30
0.0
 11
41.88575764934264
 21
23.72921939968218
 31
0.0
  0
LINE
  5
33FB
330
33EB
100
AcDbEntity
  8
0
  6
CONTINUOUS
 62
     0
100
AcDbLine
 10
38.65076933945138
 20
20.49423108979092
 30
0.0
 11
39.71113473632248
 21
21.55459648666203
 31
0.0
  0
LINE
  5
33FC
330
33EB
100
AcDbEntity
  8
0
  6
CONTINUOUS
 62
     0
100
AcDbLine
 10
40.12184799185771
 20
22.24815245888656
 30
0.0
 11
41.76313160843945
 21
23.88943607546831
 31
0.0
  0
LINE
  5
33FD
330
33EB
100
AcDbEntity
  8
0
  6
CONTINUOUS
 62
     0
100
AcDbLine
 10
38.40769348166068
 20
20.53399794868953
 30
0.0
 11
39.41154543156577
 21
21.53784989859462
 31
0.0
  0
LINE
  5
33FE
330
33EB
100
AcDbEntity
  8
0
  6
CONTINUOUS
 62
     0
100
AcDbLine
 10
39.83791709661943
 20
22.24706428033758
 30
0.0
 11
41.62484932044399
 21
24.03399650416214
 31
0.0
  0
LINE
  5
33FF
330
33EB
100
AcDbEntity
  8
0
  6
CONTINUOUS
 62
     0
100
AcDbLine
 10
38.18012839871428
 20
20.58927558243244
 30
0.0
 11
39.1623236792862
 21
21.57147086300435
 31
0.0
  0
LINE
  5
3400
330
33EB
100
AcDbEntity
  8
0
  6
CONTINUOUS
 62
     0
100
AcDbLine
 10
39.55398620138117
 20
22.24597610178863
 30
0.0
 11
41.47049606392519
 21
24.16248596433264
 31
0.0
  0
LINE
  5
3401
330
33EB
100
AcDbEntity
  8
0
  6
CONTINUOUS
 62
     0
100
AcDbLine
 10
37.96719003858655
 20
20.659179938994
 30
0.0
 11
38.94359023101842
 21
21.63558013142588
 31
0.0
  0
LINE
  5
3402
330
33EB
100
AcDbEntity
  8
0
  6
CONTINUOUS
 62
     0
100
AcDbLine
 10
39.27005530614289
 20
22.24488792323966
 30
0.0
 11
40.10436099001994
 21
23.07919360711669
 31
0.0
  0
LINE
  5
3403
330
33EB
100
AcDbEntity
  8
0
  6
CONTINUOUS
 62
     0
100
AcDbLine
 10
40.29675631659836
 20
23.27158893369511
 30
0.0
 11
41.30607525588014
 21
24.2809078729769
 31
0.0
  0
LINE
  5
3404
330
33EB
100
AcDbEntity
  8
0
  6
CONTINUOUS
 62
     0
100
AcDbLine
 10
37.76212663821223
 20
20.736959255309
 30
0.0
 11
38.75166696582754
 21
21.7264995829243
 31
0.0
  0
LINE
  5
3405
330
33EB
100
AcDbEntity
  8
0
  6
CONTINUOUS
 62
     0
100
AcDbLine
 10
38.98676827333064
 20
22.24444360711669
 30
0.0
 11
39.82151827333064
 21
23.07919360711669
 31
0.0
  0
LINE
  5
3406
330
33EB
100
AcDbEntity
  8
0
  6
CONTINUOUS
 62
     0
100
AcDbLine
 10
40.18585519244889
 20
23.44353052623496
 30
0.0
 11
41.12716214713813
 21
24.38483748092419
 31
0.0
  0
LINE
  5
3407
330
33EB
100
AcDbEntity
  8
0
  6
CONTINUOUS
 62
     0
100
AcDbLine
 10
37.56707697671666
 20
20.82475231050272
 30
0.0
 11
38.58724192642089
 21
21.84491726020695
 31
0.0
  0
LINE
  5
3408
330
33EB
100
AcDbEntity
  8
0
  6
CONTINUOUS
 62
     0
100
AcDbLine
 10
38.70392555664134
 20
22.2444436071167
 30
0.0
 11
39.53867555664134
 21
23.0791936071167
 31
0.0
  0
LINE
  5
3409
330
33EB
100
AcDbEntity
  8
0
  6
CONTINUOUS
 62
     0
100
AcDbLine
 10
40.03559926541862
 20
23.576117315894
 30
0.0
 11
40.93254152617326
 21
24.47305957664864
 31
0.0
  0
LINE
  5
340A
330
33EB
100
AcDbEntity
  8
0
  6
CONTINUOUS
 62
     0
100
AcDbLine
 10
37.38616166485813
 20
20.9266797153335
 30
0.0
 11
38.458813829234
 21
21.99933187970937
 31
0.0
  0
LINE
  5
340B
330
33EB
100
AcDbEntity
  8
0
  6
CONTINUOUS
 62
     0
100
AcDbLine
 10
38.42108283995202
 20
22.2444436071167
 30
0.0
 11
39.25583283995202
 21
23.0791936071167
 31
0.0
  0
LINE
  5
340C
330
33EB
100
AcDbEntity
  8
0
  6
CONTINUOUS
 62
     0
100
AcDbLine
 10
39.8536624306423
 20
23.67702319780697
 30
0.0
 11
40.72194545099562
 21
24.54530621816029
 31
0.0
  0
LINE
  5
340D
330
33EB
100
AcDbEntity
  8
0
  6
CONTINUOUS
 62
     0
100
AcDbLine
 10
37.22184984512831
 20
21.04521061229298
 30
0.0
 11
38.375638430372
 21
22.19899919753668
 31
0.0
  0
LINE
  5
340E
330
33EB
100
AcDbEntity
  8
0
  6
CONTINUOUS
 62
     0
100
AcDbLine
 10
39.63845355989358
 20
23.74465704374755
 30
0.0
 11
40.5012357738023
 21
24.60743925765628
 31
0.0
  0
LINE
  5
340F
330
33EB
100
AcDbEntity
  8
0
  6
CONTINUOUS
 62
     0
100
AcDbLine
 10
37.07655956159225
 20
21.18276304544623
 30
0.0
 11
38.97299012326272
 21
23.0791936071167
 31
0.0
  0
LINE
  5
3410
330
33EB
100
AcDbEntity
  8
0
  6
CONTINUOUS
 62
     0
100
AcDbLine
 10
39.38487978059393
 20
23.77392598113722
 30
0.0
 11
40.26957641099243
 21
24.65862261153572
 31
0.0
  0
LINE
  5
3411
330
33EB
100
AcDbEntity
  8
0
  6
CONTINUOUS
 62
     0
100
AcDbLine
 10
36.94605200688531
 20
21.33509820742859
 30
0.0
 11
38.69014740657342
 21
23.0791936071167
 31
0.0
  0
LINE
  5
3412
330
33EB
100
AcDbEntity
  8
0
  6
CONTINUOUS
 62
     0
100
AcDbLine
 10
39.06924509432824
 20
23.74113401156083
 30
0.0
 11
40.02610276084062
 21
24.69799167807321
 31
0.0
  0
LINE
  5
3413
330
33EB
100
AcDbEntity
  8
0
  6
CONTINUOUS
 62
     0
100
AcDbLine
 10
36.82592221508353
 20
21.49781113231611
 30
0.0
 11
38.40730468988412
 21
23.07919360711669
 31
0.0
  0
LINE
  5
3414
330
33EB
100
AcDbEntity
  8
0
  6
CONTINUOUS
 62
     0
100
AcDbLine
 10
36.72204470147373
 20
21.67677633539562
 30
0.0
 11
39.76916940185159
 21
24.72390103577348
 31
0.0
  0
LINE
  5
3415
330
33EB
100
AcDbEntity
  8
0
  6
CONTINUOUS
 62
     0
100
AcDbLine
 10
36.63367221868488
 20
21.87124656929607
 30
0.0
 11
39.49239259327073
 21
24.72996694388192
 31
0.0
  0
LINE
  5
3416
330
33EB
100
AcDbEntity
  8
0
  6
CONTINUOUS
 62
     0
100
AcDbLine
 10
36.55872697385153
 20
22.07914404115202
 30
0.0
 11
39.21488928388358
 21
24.73530635118407
 31
0.0
  0
LINE
  5
3417
330
33EB
100
AcDbEntity
  8
0
  6
CONTINUOUS
 62
     0
100
AcDbLine
 10
36.50347549367967
 20
22.30673527766947
 30
0.0
 11
38.91033768825782
 21
24.71359747224762
 31
0.0
  0
LINE
  5
3418
330
33EB
100
AcDbEntity
  8
0
  6
CONTINUOUS
 62
     0
100
AcDbLine
 10
36.47892411431334
 20
22.56502661499244
 30
0.0
 11
38.59996447924426
 21
24.68606697992337
 31
0.0
  0
LINE
  5
3419
330
33EB
100
AcDbEntity
  8
0
  6
CONTINUOUS
 62
     0
100
AcDbLine
 10
36.49730619074715
 20
22.86625140811556
 30
0.0
 11
38.25254582337645
 21
24.62149104074486
 31
0.0
  0
LINE
  5
341A
330
33EB
100
AcDbEntity
  8
0
  6
CONTINUOUS
 62
     0
100
AcDbLine
 10
36.58207047382975
 20
23.23385840788746
 30
0.0
 11
37.8616737342633
 21
24.51346166832101
 31
0.0
  0
LINE
  5
341B
330
33EB
100
AcDbEntity
  8
0
  6
CONTINUOUS
 62
     0
100
AcDbLine
 10
36.87895768640204
 20
23.81358833714906
 30
0.0
 11
37.28993357936131
 21
24.22456423010832
 31
0.0
  0
ENDBLK
  5
341D
330
33EB
100
AcDbEntity
  8
0
100
AcDbBlockEnd
  0
BLOCK
  5
343F
330
341E
100
AcDbEntity
  8
0
100
AcDbBlockBegin
  2
*X25
 70
     1
 10
0.0
 20
0.0
 30
0.0
  3
*X25
  1

  0
LINE
  5
341F
330
341E
100
AcDbEntity
  8
0
  6
CONTINUOUS
 62
     0
100
AcDbLine
 10
47.24971434063112
 20
22.58779360711668
 30
0.0
 11
47.28795659173517
 21
22.62603585822073
 31
0.0
  0
LINE
  5
3420
330
341E
100
AcDbEntity
  8
0
  6
CONTINUOUS
 62
     0
100
AcDbLine
 10
46.96687162394181
 20
22.58779360711668
 30
0.0
 11
47.30766242413531
 21
22.92858440731017
 31
0.0
  0
LINE
  5
3421
330
341E
100
AcDbEntity
  8
0
  6
CONTINUOUS
 62
     0
100
AcDbLine
 10
46.68402890725251
 20
22.58779360711668
 30
0.0
 11
47.29611504099408
 21
23.19987974085824
 31
0.0
  0
LINE
  5
3422
330
341E
100
AcDbEntity
  8
0
  6
CONTINUOUS
 62
     0
100
AcDbLine
 10
46.40118619056321
 20
22.58779360711668
 30
0.0
 11
47.26153315523016
 21
23.44814057178364
 31
0.0
  0
LINE
  5
3423
330
341E
100
AcDbEntity
  8
0
  6
CONTINUOUS
 62
     0
100
AcDbLine
 10
44.44548619056321
 20
20.63209360711669
 30
0.0
 11
44.45962297621249
 21
20.64623039276595
 31
0.0
  0
LINE
  5
3424
330
341E
100
AcDbEntity
  8
0
  6
CONTINUOUS
 62
     0
100
AcDbLine
 10
46.1183434738739
 20
22.58779360711668
 30
0.0
 11
47.20921446605053
 21
23.6786645992933
 31
0.0
  0
LINE
  5
3425
330
341E
100
AcDbEntity
  8
0
  6
CONTINUOUS
 62
     0
100
AcDbLine
 10
44.1626434738739
 20
20.63209360711668
 30
0.0
 11
44.45962297621249
 21
20.92907310945526
 31
0.0
  0
LINE
  5
3426
330
341E
100
AcDbEntity
  8
0
  6
CONTINUOUS
 62
     0
100
AcDbLine
 10
45.8355007571846
 20
22.58779360711668
 30
0.0
 11
47.13201133898738
 21
23.88430418891946
 31
0.0
  0
LINE
  5
3427
330
341E
100
AcDbEntity
  8
0
  6
CONTINUOUS
 62
     0
100
AcDbLine
 10
43.8798007571846
 20
20.63209360711668
 30
0.0
 11
44.45962297621249
 21
21.21191582614456
 31
0.0
  0
LINE
  5
3428
330
341E
100
AcDbEntity
  8
0
  6
CONTINUOUS
 62
     0
100
AcDbLine
 10
45.5526580404953
 20
22.58779360711668
 30
0.0
 11
47.02930284680043
 21
24.06443841342182
 31
0.0
  0
LINE
  5
3429
330
341E
100
AcDbEntity
  8
0
  6
CONTINUOUS
 62
     0
100
AcDbLine
 10
43.5969580404953
 20
20.63209360711668
 30
0.0
 11
44.45962297621249
 21
21.49475854283387
 31
0.0
  0
LINE
  5
342A
330
341E
100
AcDbEntity
  8
0
  6
CONTINUOUS
 62
     0
100
AcDbLine
 10
45.4545729762125
 20
22.77255125952319
 30
0.0
 11
46.90089549976312
 21
24.21887378307381
 31
0.0
  0
LINE
  5
342B
330
341E
100
AcDbEntity
  8
0
  6
CONTINUOUS
 62
     0
100
AcDbLine
 10
43.31411532380601
 20
20.63209360711669
 30
0.0
 11
44.45962297621249
 21
21.77760125952318
 31
0.0
  0
LINE
  5
342C
330
341E
100
AcDbEntity
  8
0
  6
CONTINUOUS
 62
     0
100
AcDbLine
 10
45.41819881762309
 20
23.01901981762308
 30
0.0
 11
46.74470971389381
 21
24.3455307138938
 31
0.0
  0
LINE
  5
342D
330
341E
100
AcDbEntity
  8
0
  6
CONTINUOUS
 62
     0
100
AcDbLine
 10
43.03127260711669
 20
20.63209360711668
 30
0.0
 11
44.4596229762125
 21
22.06044397621248
 31
0.0
  0
LINE
  5
342E
330
341E
100
AcDbEntity
  8
0
  6
CONTINUOUS
 62
     0
100
AcDbLine
 10
45.29461390127502
 20
23.17827761796431
 30
0.0
 11
46.55878408076631
 21
24.44244779745559
 31
0.0
  0
LINE
  5
342F
330
341E
100
AcDbEntity
  8
0
  6
CONTINUOUS
 62
     0
100
AcDbLine
 10
42.74842989042738
 20
20.63209360711668
 30
0.0
 11
44.45962297621249
 21
22.34328669290178
 31
0.0
  0
LINE
  5
3430
330
341E
100
AcDbEntity
  8
0
  6
CONTINUOUS
 62
     0
100
AcDbLine
 10
45.10254687639092
 20
23.26905330976953
 30
0.0
 11
46.34635704299881
 21
24.5128634763774
 31
0.0
  0
LINE
  5
3431
330
341E
100
AcDbEntity
  8
0
  6
CONTINUOUS
 62
     0
100
AcDbLine
 10
42.73297297621249
 20
20.89947940959109
 30
0.0
 11
44.45962297621249
 21
22.62612940959108
 31
0.0
  0
LINE
  5
3432
330
341E
100
AcDbEntity
  8
0
  6
CONTINUOUS
 62
     0
100
AcDbLine
 10
44.79762211486146
 20
23.24697126492937
 30
0.0
 11
46.11516596148556
 21
24.56451511155345
 31
0.0
  0
LINE
  5
3433
330
341E
100
AcDbEntity
  8
0
  6
CONTINUOUS
 62
     0
100
AcDbLine
 10
42.7329729762125
 20
21.18232212628039
 30
0.0
 11
44.49250552681683
 21
22.94185467688474
 31
0.0
  0
LINE
  5
3434
330
341E
100
AcDbEntity
  8
0
  6
CONTINUOUS
 62
     0
100
AcDbLine
 10
42.7329729762125
 20
21.46516484296971
 30
0.0
 11
45.8577145844811
 21
24.58990645123831
 31
0.0
  0
LINE
  5
3435
330
341E
100
AcDbEntity
  8
0
  6
CONTINUOUS
 62
     0
100
AcDbLine
 10
42.7329729762125
 20
21.74800755965902
 30
0.0
 11
45.56309255672949
 21
24.578127140176
 31
0.0
  0
LINE
  5
3436
330
341E
100
AcDbEntity
  8
0
  6
CONTINUOUS
 62
     0
100
AcDbLine
 10
42.7329729762125
 20
22.03085027634832
 30
0.0
 11
45.22227722723954
 21
24.52015452737535
 31
0.0
  0
LINE
  5
3437
330
341E
100
AcDbEntity
  8
0
  6
CONTINUOUS
 62
     0
100
AcDbLine
 10
42.7329729762125
 20
22.31369299303762
 30
0.0
 11
44.77708856439911
 21
24.35780858122422
 31
0.0
  0
LINE
  5
3438
330
341E
100
AcDbEntity
  8
0
  6
CONTINUOUS
 62
     0
100
AcDbLine
 10
42.73297297621251
 20
22.59653570972692
 30
0.0
 11
44.45962297621249
 21
24.32318570972691
 31
0.0
  0
LINE
  5
3439
330
341E
100
AcDbEntity
  8
0
  6
CONTINUOUS
 62
     0
100
AcDbLine
 10
42.73297297621251
 20
22.87937842641623
 30
0.0
 11
44.36198815691297
 21
24.50839360711668
 31
0.0
  0
LINE
  5
343A
330
341E
100
AcDbEntity
  8
0
  6
CONTINUOUS
 62
     0
100
AcDbLine
 10
42.7329729762125
 20
23.16222114310552
 30
0.0
 11
44.07914544022366
 21
24.50839360711668
 31
0.0
  0
LINE
  5
343B
330
341E
100
AcDbEntity
  8
0
  6
CONTINUOUS
 62
     0
100
AcDbLine
 10
42.73297297621249
 20
23.44506385979483
 30
0.0
 11
43.79630272353435
 21
24.50839360711668
 31
0.0
  0
LINE
  5
343C
330
341E
100
AcDbEntity
  8
0
  6
CONTINUOUS
 62
     0
100
AcDbLine
 10
42.7329729762125
 20
23.72790657648413
 30
0.0
 11
43.51346000684505
 21
24.50839360711669
 31
0.0
  0
LINE
  5
343D
330
341E
100
AcDbEntity
  8
0
  6
CONTINUOUS
 62
     0
100
AcDbLine
 10
42.7329729762125
 20
24.01074929317345
 30
0.0
 11
43.23061729015575
 21
24.50839360711669
 31
0.0
  0
LINE
  5
343E
330
341E
100
AcDbEntity
  8
0
  6
CONTINUOUS
 62
     0
100
AcDbLine
 10
42.7329729762125
 20
24.29359200986275
 30
0.0
 11
42.94777457346644
 21
24.50839360711669
 31
0.0
  0
ENDBLK
  5
3440
330
341E
100
AcDbEntity
  8
0
100
AcDbBlockEnd
  0
ENDSEC
  0
SECTION
  2
ENTITIES
  0
LINE
  5
29
330
A
100
AcDbEntity
  8
CARTOUCHE
  6
CONTINUOUS
 62
     7
100
AcDbLine
 10
205.0000369999999
 20
10.00079299999999
 30
0.0
 11
5.0
 21
10.00106799999999
 31
0.0
  0
LINE
  5
2A
330
A
100
AcDbEntity
  8
CARTOUCHE
  6
CONTINUOUS
 62
     7
100
AcDbLine
 10
50.000001
 20
36.845393
 30
0.0
 11
50.000001
 21
5.000041000000003
 31
0.0
  0
TEXT
  5
2B
330
A
100
AcDbEntity
  8
CARTOUCHE
  6
CONTINUOUS
 62
     7
100
AcDbText
 10
119.7224188765448
 20
32.43596648846941
 30
0.0
 40
1.8
  1
PRODUCT TYPE
 50
359.9999079999999
 41
0.8
  7
FINDER
 72
     1
 11
127.4999904999999
 21
32.435954
 31
0.0
100
AcDbText
  0
TEXT
  5
2D
330
A
100
AcDbEntity
  8
CARTOUCHE
  6
CONTINUOUS
 62
     2
100
AcDbText
 10
19.49392955867334
 20
6.600974855371421
 30
0.0
 40
1.8
  1
MOD. UT 902
 50
359.9999079999999
 41
1.05
  7
FINDER
 72
     1
 11
27.5000005
 21
6.600961999999995
 31
0.0
100
AcDbText
  0
LINE
  5
2E
330
A
100
AcDbEntity
  8
CARTOUCHE
  6
CONTINUOUS
 62
     7
100
AcDbLine
 10
205.0000079999999
 20
20.002808
 30
0.0
 11
49.999973
 21
20.00304499999999
 31
0.0
  0
TEXT
  5
31
330
A
100
AcDbEntity
  8
CARTOUCHE
  6
CONTINUOUS
 62
     7
100
AcDbText
 10
73.49406286516899
 20
16.62430475616189
 30
0.0
 40
1.8
  1
REV.
 50
359.9999079999999
 41
0.8
  7
FINDER
 72
     1
 11
75.83332616666665
 21
16.62430099999999
 31
0.0
100
AcDbText
  0
TEXT
  5
32
330
A
100
AcDbEntity
  8
CARTOUCHE
  6
CONTINUOUS
 62
     1
100
AcDbText
 10
75.18814199204266
 20
11.7762790359741
 30
0.0
 40
2.1
  1
0
 50
359.9999079999999
 41
0.8
  7
FINDER
 72
     1
 11
75.83332616666665
 21
11.77627799999999
 31
0.0
100
AcDbText
  0
LINE
  5
33
330
A
100
AcDbEntity
  8
CARTOUCHE
  6
CONTINUOUS
 62
     7
100
AcDbLine
 10
101.6666513333333
 20
20.00296599999999
 30
0.0
 11
101.6666513333333
 21
10.001024
 31
0.0
  0
LINE
  5
37
330
A
100
AcDbEntity
  8
CARTOUCHE
  6
CONTINUOUS
 62
     4
100
AcDbLine
 10
12.362923
 20
27.65548499999999
 30
0.0
 11
12.362923
 21
21.81019399999999
 31
0.0
  0
LINE
  5
38
330
A
100
AcDbEntity
  8
CARTOUCHE
  6
CONTINUOUS
 62
     4
100
AcDbLine
 10
12.362923
 20
21.81019399999999
 30
0.0
 11
10.88782299999999
 21
23.41084399999999
 31
0.0
  0
LINE
  5
39
330
A
100
AcDbEntity
  8
CARTOUCHE
  6
CONTINUOUS
 62
     4
100
AcDbLine
 10
10.88782299999999
 20
23.41084399999999
 30
0.0
 11
11.11642299999999
 21
23.41084399999999
 31
0.0
  0
LINE
  5
3A
330
A
100
AcDbEntity
  8
CARTOUCHE
  6
CONTINUOUS
 62
     4
100
AcDbLine
 10
11.413873
 20
23.766514
 30
0.0
 11
11.413873
 21
27.65262099999999
 31
0.0
  0
LINE
  5
3B
330
A
100
AcDbEntity
  8
CARTOUCHE
  6
CONTINUOUS
 62
     4
100
AcDbLine
 10
10.46482299999999
 20
27.399506
 30
0.0
 11
10.46482299999999
 21
24.428744
 31
0.0
  0
LINE
  5
3C
330
A
100
AcDbEntity
  8
CARTOUCHE
  6
CONTINUOUS
 62
     4
100
AcDbLine
 10
10.46482299999999
 20
24.428744
 30
0.0
 11
8.174775999999999
 21
24.428744
 31
0.0
  0
LINE
  5
3D
330
A
100
AcDbEntity
  8
CARTOUCHE
  6
CONTINUOUS
 62
     4
100
AcDbLine
 10
8.176312999999998
 20
23.41084399999999
 30
0.0
 11
9.378522999999999
 21
23.41084399999999
 31
0.0
  0
LINE
  5
3E
330
A
100
AcDbEntity
  8
CARTOUCHE
  6
CONTINUOUS
 62
     4
100
AcDbLine
 10
9.378522999999999
 20
23.41084399999999
 30
0.0
 11
12.173699
 21
20.668328
 31
0.0
  0
LINE
  5
3F
330
A
100
AcDbEntity
  8
CARTOUCHE
  6
CONTINUOUS
 62
     4
100
AcDbLine
 10
13.323223
 20
21.16984399999999
 30
0.0
 11
13.323223
 21
24.508394
 31
0.0
  0
LINE
  5
40
330
A
100
AcDbEntity
  8
CARTOUCHE
  6
CONTINUOUS
 62
     4
100
AcDbLine
 10
13.323223
 20
24.508394
 30
0.0
 11
14.45542299999999
 21
24.508394
 31
0.0
  0
LINE
  5
41
330
A
100
AcDbEntity
  8
CARTOUCHE
  6
CONTINUOUS
 62
     4
100
AcDbLine
 10
14.35365599999999
 20
25.503344
 30
0.0
 11
13.323223
 21
25.503344
 31
0.0
  0
LINE
  5
42
330
A
100
AcDbEntity
  8
CARTOUCHE
  6
CONTINUOUS
 62
     4
100
AcDbLine
 10
13.323223
 20
25.503344
 30
0.0
 11
13.323223
 21
27.40413399999999
 31
0.0
  0
LINE
  5
43
330
A
100
AcDbEntity
  8
CARTOUCHE
  6
CONTINUOUS
 62
     4
100
AcDbLine
 10
28.108423
 20
22.47903399999999
 30
0.0
 11
28.108423
 21
20.63209399999999
 31
0.0
  0
LINE
  5
44
330
A
100
AcDbEntity
  8
CARTOUCHE
  6
CONTINUOUS
 62
     4
100
AcDbLine
 10
28.108423
 20
20.63209399999999
 30
0.0
 11
29.892223
 21
20.63209399999999
 31
0.0
  0
LINE
  5
45
330
A
100
AcDbEntity
  8
CARTOUCHE
  6
CONTINUOUS
 62
     4
100
AcDbLine
 10
29.892223
 20
20.63209399999999
 30
0.0
 11
29.892223
 21
23.324553
 31
0.0
  0
LINE
  5
46
330
A
100
AcDbEntity
  8
CARTOUCHE
  6
CONTINUOUS
 62
     4
100
AcDbLine
 10
26.289973
 20
24.074144
 30
0.0
 11
26.289973
 21
24.508394
 31
0.0
  0
LINE
  5
47
330
A
100
AcDbEntity
  8
CARTOUCHE
  6
CONTINUOUS
 62
     4
100
AcDbLine
 10
26.289973
 20
24.508394
 30
0.0
 11
24.494923
 21
24.508394
 31
0.0
  0
LINE
  5
48
330
A
100
AcDbEntity
  8
CARTOUCHE
  6
CONTINUOUS
 62
     4
100
AcDbLine
 10
24.494923
 20
24.508394
 30
0.0
 11
24.494923
 21
20.63209399999999
 31
0.0
  0
LINE
  5
49
330
A
100
AcDbEntity
  8
CARTOUCHE
  6
CONTINUOUS
 62
     4
100
AcDbLine
 10
24.494923
 20
20.63209399999999
 30
0.0
 11
26.289973
 21
20.63209399999999
 31
0.0
  0
LINE
  5
4A
330
A
100
AcDbEntity
  8
CARTOUCHE
  6
CONTINUOUS
 62
     4
100
AcDbLine
 10
26.289973
 20
20.63209399999999
 30
0.0
 11
26.289973
 21
22.43349899999999
 31
0.0
  0
LINE
  5
4B
330
A
100
AcDbEntity
  8
CARTOUCHE
  6
CONTINUOUS
 62
     4
100
AcDbLine
 10
35.986573
 20
25.823744
 30
0.0
 11
35.986573
 21
20.62084399999999
 31
0.0
  0
LINE
  5
4C
330
A
100
AcDbEntity
  8
CARTOUCHE
  6
CONTINUOUS
 62
     4
100
AcDbLine
 10
35.986573
 20
20.62084399999999
 30
0.0
 11
34.191523
 21
20.62084399999999
 31
0.0
  0
LINE
  5
4D
330
A
100
AcDbEntity
  8
CARTOUCHE
  6
CONTINUOUS
 62
     4
100
AcDbLine
 10
34.191523
 20
24.319904
 30
0.0
 11
34.191523
 21
25.823744
 31
0.0
  0
LINE
  5
4E
330
A
100
AcDbEntity
  8
CARTOUCHE
  6
CONTINUOUS
 62
     4
100
AcDbLine
 10
34.191523
 20
25.823744
 30
0.0
 11
35.986573
 21
25.823744
 31
0.0
  0
LINE
  5
4F
330
A
100
AcDbEntity
  8
CARTOUCHE
  6
CONTINUOUS
 62
     4
100
AcDbLine
 10
42.732973
 20
24.508394
 30
0.0
 11
44.459623
 21
24.508394
 31
0.0
  0
LINE
  5
50
330
A
100
AcDbEntity
  8
CARTOUCHE
  6
CONTINUOUS
 62
     4
100
AcDbLine
 10
44.459623
 20
24.508394
 30
0.0
 11
44.459623
 21
24.165494
 31
0.0
  0
LINE
  5
51
330
A
100
AcDbEntity
  8
CARTOUCHE
  6
CONTINUOUS
 62
     4
100
AcDbLine
 10
47.283823
 20
22.58779399999999
 30
0.0
 11
45.454573
 21
22.58779399999999
 31
0.0
  0
LINE
  5
52
330
A
100
AcDbEntity
  8
CARTOUCHE
  6
CONTINUOUS
 62
     4
100
AcDbLine
 10
45.454573
 20
22.58779399999999
 30
0.0
 11
45.454573
 21
22.827644
 31
0.0
  0
LINE
  5
53
330
A
100
AcDbEntity
  8
CARTOUCHE
  6
CONTINUOUS
 62
     4
100
AcDbLine
 10
44.459623
 20
22.78219399999999
 30
0.0
 11
44.459623
 21
20.63209399999999
 31
0.0
  0
LINE
  5
54
330
A
100
AcDbEntity
  8
CARTOUCHE
  6
CONTINUOUS
 62
     4
100
AcDbLine
 10
44.459623
 20
20.63209399999999
 30
0.0
 11
42.732973
 21
20.63209399999999
 31
0.0
  0
LINE
  5
55
330
A
100
AcDbEntity
  8
CARTOUCHE
  6
CONTINUOUS
 62
     4
100
AcDbLine
 10
42.732973
 20
20.63209399999999
 30
0.0
 11
42.732973
 21
24.508394
 31
0.0
  0
LINE
  5
56
330
A
100
AcDbEntity
  8
CARTOUCHE
  6
CONTINUOUS
 62
     4
100
AcDbLine
 10
39.15412299999999
 20
22.24444399999999
 30
0.0
 11
39.051073
 21
22.24444399999999
 31
0.0
  0
LINE
  5
57
330
A
100
AcDbEntity
  8
CARTOUCHE
  6
CONTINUOUS
 62
     4
100
AcDbLine
 10
39.051073
 20
22.24444399999999
 30
0.0
 11
38.364823
 21
22.24444399999999
 31
0.0
  0
LINE
  5
58
330
A
100
AcDbEntity
  8
CARTOUCHE
  6
CONTINUOUS
 62
     4
100
AcDbLine
 10
40.343023
 20
21.855644
 30
0.0
 11
42.10387299999999
 21
21.855644
 31
0.0
  0
LINE
  5
59
330
A
100
AcDbEntity
  8
CARTOUCHE
  6
CONTINUOUS
 62
     4
100
AcDbLine
 10
42.206923
 20
22.25614399999999
 30
0.0
 11
39.15412299999999
 21
22.24444399999999
 31
0.0
  0
LINE
  5
5A
330
A
100
AcDbEntity
  8
CARTOUCHE
  6
CONTINUOUS
 62
     4
100
AcDbLine
 10
39.15412299999999
 20
23.07919399999999
 30
0.0
 11
40.343023
 21
23.07919399999999
 31
0.0
  0
LINE
  5
5B
330
A
100
AcDbEntity
  8
CARTOUCHE
  6
CONTINUOUS
 62
     4
100
AcDbLine
 10
38.364823
 20
23.07919399999999
 30
0.0
 11
39.15412299999999
 21
23.07919399999999
 31
0.0
  0
LINE
  5
5C
330
A
100
AcDbEntity
  8
CARTOUCHE
  6
CONTINUOUS
 62
     4
100
AcDbLine
 10
21.08752299999999
 20
24.931844
 30
0.0
 11
21.08752299999999
 21
25.834994
 31
0.0
  0
LINE
  5
5D
330
A
100
AcDbEntity
  8
CARTOUCHE
  6
CONTINUOUS
 62
     4
100
AcDbLine
 10
21.08752299999999
 20
25.834994
 30
0.0
 11
19.58947299999999
 21
25.834994
 31
0.0
  0
LINE
  5
5E
330
A
100
AcDbEntity
  8
CARTOUCHE
  6
CONTINUOUS
 62
     4
100
AcDbLine
 10
18.67462299999999
 20
24.931844
 30
0.0
 11
18.67462299999999
 21
24.508394
 31
0.0
  0
LINE
  5
5F
330
A
100
AcDbEntity
  8
CARTOUCHE
  6
CONTINUOUS
 62
     4
100
AcDbLine
 10
18.67462299999999
 20
24.508394
 30
0.0
 11
18.137323
 21
24.508394
 31
0.0
  0
LINE
  5
60
330
A
100
AcDbEntity
  8
CARTOUCHE
  6
CONTINUOUS
 62
     4
100
AcDbLine
 10
18.137323
 20
24.508394
 30
0.0
 11
18.137323
 21
23.41084399999999
 31
0.0
  0
LINE
  5
61
330
A
100
AcDbEntity
  8
CARTOUCHE
  6
CONTINUOUS
 62
     4
100
AcDbLine
 10
18.137323
 20
23.41084399999999
 30
0.0
 11
18.67462299999999
 21
23.41084399999999
 31
0.0
  0
LINE
  5
62
330
A
100
AcDbEntity
  8
CARTOUCHE
  6
CONTINUOUS
 62
     4
100
AcDbLine
 10
18.67462299999999
 20
23.41084399999999
 30
0.0
 11
18.67462299999999
 21
20.63209399999999
 31
0.0
  0
LINE
  5
63
330
A
100
AcDbEntity
  8
CARTOUCHE
  6
CONTINUOUS
 62
     4
100
AcDbLine
 10
18.67462299999999
 20
20.63209399999999
 30
0.0
 11
20.470123
 21
20.63209399999999
 31
0.0
  0
LINE
  5
64
330
A
100
AcDbEntity
  8
CARTOUCHE
  6
CONTINUOUS
 62
     4
100
AcDbLine
 10
20.470123
 20
20.63209399999999
 30
0.0
 11
20.470123
 21
23.41084399999999
 31
0.0
  0
LINE
  5
65
330
A
100
AcDbEntity
  8
CARTOUCHE
  6
CONTINUOUS
 62
     4
100
AcDbLine
 10
20.470123
 20
23.41084399999999
 30
0.0
 11
21.08752299999999
 21
23.41084399999999
 31
0.0
  0
LINE
  5
66
330
A
100
AcDbEntity
  8
CARTOUCHE
  6
CONTINUOUS
 62
     4
100
AcDbLine
 10
21.08752299999999
 20
23.41084399999999
 30
0.0
 11
21.08752299999999
 21
24.508394
 31
0.0
  0
LINE
  5
67
330
A
100
AcDbEntity
  8
CARTOUCHE
  6
CONTINUOUS
 62
     4
100
AcDbLine
 10
21.08752299999999
 20
24.508394
 30
0.0
 11
20.412973
 21
24.508394
 31
0.0
  0
LINE
  5
68
330
A
100
AcDbEntity
  8
CARTOUCHE
  6
CONTINUOUS
 62
     4
100
AcDbLine
 10
20.412973
 20
24.508394
 30
0.0
 11
20.46107899999999
 21
24.76862199999999
 31
0.0
  0
LINE
  5
69
330
A
100
AcDbEntity
  8
CARTOUCHE
  6
CONTINUOUS
 62
     4
100
AcDbLine
 10
20.67905299999999
 20
24.931844
 30
0.0
 11
21.08752299999999
 21
24.931844
 31
0.0
  0
LINE
  5
6A
330
A
100
AcDbEntity
  8
CARTOUCHE
  6
CONTINUOUS
 62
     4
100
AcDbLine
 10
21.80797299999999
 20
20.63209399999999
 30
0.0
 11
21.80797299999999
 21
24.508394
 31
0.0
  0
LINE
  5
6B
330
A
100
AcDbEntity
  8
CARTOUCHE
  6
CONTINUOUS
 62
     4
100
AcDbLine
 10
21.80797299999999
 20
24.508394
 30
0.0
 11
23.625973
 21
24.508394
 31
0.0
  0
LINE
  5
6C
330
A
100
AcDbEntity
  8
CARTOUCHE
  6
CONTINUOUS
 62
     4
100
AcDbLine
 10
23.625973
 20
24.508394
 30
0.0
 11
23.625973
 21
20.63209399999999
 31
0.0
  0
LINE
  5
6D
330
A
100
AcDbEntity
  8
CARTOUCHE
  6
CONTINUOUS
 62
     4
100
AcDbLine
 10
23.625973
 20
20.63209399999999
 30
0.0
 11
21.80797299999999
 21
20.63209399999999
 31
0.0
  0
LINE
  5
6E
330
A
100
AcDbEntity
  8
CARTOUCHE
  6
CONTINUOUS
 62
     4
100
AcDbLine
 10
21.80797299999999
 20
24.943094
 30
0.0
 11
21.80797299999999
 21
25.834994
 31
0.0
  0
LINE
  5
6F
330
A
100
AcDbEntity
  8
CARTOUCHE
  6
CONTINUOUS
 62
     4
100
AcDbLine
 10
21.80797299999999
 20
25.834994
 30
0.0
 11
23.625973
 21
25.834994
 31
0.0
  0
LINE
  5
70
330
A
100
AcDbEntity
  8
CARTOUCHE
  6
CONTINUOUS
 62
     4
100
AcDbLine
 10
23.625973
 20
25.834994
 30
0.0
 11
23.625973
 21
24.943094
 31
0.0
  0
LINE
  5
71
330
A
100
AcDbEntity
  8
CARTOUCHE
  6
CONTINUOUS
 62
     4
100
AcDbLine
 10
23.625973
 20
24.943094
 30
0.0
 11
21.80797299999999
 21
24.943094
 31
0.0
  0
ARC
  5
72
330
A
100
AcDbEntity
  8
CARTOUCHE
  6
CONTINUOUS
 62
     4
100
AcDbCircle
 10
19.58025899999999
 20
24.929401
 30
0.0
 40
0.905639
100
AcDbArc
 50
90.0
 51
180.0
  0
ARC
  5
73
330
A
100
AcDbEntity
  8
CARTOUCHE
  6
CONTINUOUS
 62
     4
100
AcDbCircle
 10
20.70598799999999
 20
24.668716
 30
0.0
 40
0.264503
100
AcDbArc
 50
95.84467300000001
 51
157.807812
  0
ARC
  5
74
330
A
100
AcDbEntity
  8
CARTOUCHE
  6
CONTINUOUS
 62
     4
100
AcDbCircle
 10
28.675028
 20
23.26487299999999
 30
0.0
 40
1.218658
100
AcDbArc
 50
2.806996999999999
 51
66.54578100000001
  0
ARC
  5
75
330
A
100
AcDbEntity
  8
CARTOUCHE
  6
CONTINUOUS
 62
     4
100
AcDbCircle
 10
28.06740299999999
 20
21.04526099999999
 30
0.0
 40
3.511892
100
AcDbArc
 50
71.872392
 51
120.4055569999999
  0
ARC
  5
76
330
A
100
AcDbEntity
  8
CARTOUCHE
  6
CONTINUOUS
 62
     4
100
AcDbCircle
 10
27.457324
 20
22.47903399999999
 30
0.0
 40
0.6511239999999999
100
AcDbArc
 50
0.0
 51
97.15068299999998
  0
ARC
  5
77
330
A
100
AcDbEntity
  8
CARTOUCHE
  6
CONTINUOUS
 62
     4
100
AcDbCircle
 10
27.44381
 20
21.82007899999999
 30
0.0
 40
1.306761
100
AcDbArc
 50
92.96251299999999
 51
152.003324
  0
CIRCLE
  5
78
330
A
100
AcDbEntity
  8
CARTOUCHE
  6
CONTINUOUS
 62
     4
100
AcDbCircle
 10
11.89964599999999
 20
23.92542199999999
 30
0.0
 40
4.756723
  0
ARC
  5
79
330
A
100
AcDbEntity
  8
CARTOUCHE
  6
CONTINUOUS
 62
     4
100
AcDbCircle
 10
11.899651
 20
23.925417
 30
0.0
 40
3.758726999999999
100
AcDbArc
 50
112.441032
 51
172.30447
  0
ARC
  5
7A
330
A
100
AcDbEntity
  8
CARTOUCHE
  6
CONTINUOUS
 62
     4
100
AcDbCircle
 10
11.899651
 20
23.925417
 30
0.0
 40
3.758726999999999
100
AcDbArc
 50
82.92015400000002
 51
97.425676
  0
ARC
  5
7B
330
A
100
AcDbEntity
  8
CARTOUCHE
  6
CONTINUOUS
 62
     4
100
AcDbCircle
 10
11.899651
 20
23.925417
 30
0.0
 40
3.758726999999999
100
AcDbArc
 50
187.868554
 51
67.74447600000001
  0
SPLINE
  5
7C
330
A
100
AcDbEntity
  8
CARTOUCHE
  6
CONTINUOUS
 62
     4
100
AcDbSpline
210
0.0
220
0.0
230
1.0
 70
     8
 71
     3
 72
    36
 73
    32
 74
    30
 42
0.0000000001
 43
0.0000000001
 44
0.000001
 12
-0.7486966541787443
 22
0.6629127544568397
 32
0.0
 13
0.8109899424984487
 23
0.5850600936368528
 33
0.0
 40
0.0
 40
0.0
 40
0.0
 40
0.0
 40
0.1780761553060592
 40
0.3550416348689643
 40
0.534344865884214
 40
0.7146560387434039
 40
1.07096908972023
 40
1.425796663898011
 40
1.782601001142078
 40
2.138603895040087
 40
2.494665093696489
 40
2.851054396920104
 40
3.206893011134885
 40
3.5633758813569
 40
3.919393765629757
 40
4.275489247209685
 40
4.63181002055742
 40
4.987968836485984
 40
5.344081360419369
 40
5.700398584840188
 40
6.056403071275475
 40
6.412685561611947
 40
6.768553833375488
 40
7.124993908020175
 40
7.480918575954272
 40
7.837064891658398
 40
8.193226462040996
 40
8.549153485654635
 40
8.905927656882475
 40
9.261828075226134
 40
9.97055756363208
 40
9.97055756363208
 40
9.97055756363208
 40
9.97055756363208
 10
34.19152297621249
 20
24.31990419713182
 30
0.0
 10
34.1470813023236
 20
24.35925384867083
 30
0.0
 10
34.05217195696811
 20
24.43173618392171
 30
0.0
 10
33.88702575613148
 20
24.50226791579084
 30
0.0
 10
33.71305223761583
 20
24.54495714766014
 30
0.0
 10
33.47834937114383
 20
24.58798310564187
 30
0.0
 10
33.18518211493349
 20
24.63800747804683
 30
0.0
 10
32.82899744348545
 20
24.659369294718
 30
0.0
 10
32.47326771695627
 20
24.6462139008177
 30
0.0
 10
32.11757591555201
 20
24.6124287086089
 30
0.0
 10
31.77299300510801
 20
24.51557088414889
 30
0.0
 10
31.44749964423073
 20
24.36660655392596
 30
0.0
 10
31.1577579438396
 20
24.15567801072958
 30
0.0
 10
30.90609576518012
 20
23.90204674026736
 30
0.0
 10
30.69450218406408
 20
23.61346834211755
 30
0.0
 10
30.53862681297709
 20
23.29089603959583
 30
0.0
 10
30.44277781548908
 20
22.9462329884785
 30
0.0
 10
30.40515987073752
 20
22.58968062292321
 30
0.0
 10
30.44352427876861
 20
22.23351817132073
 30
0.0
 10
30.53308941867978
 20
21.88748886639843
 30
0.0
 10
30.68157947778859
 20
21.56148506227443
 30
0.0
 10
30.88917782139148
 20
21.26919473918138
 30
0.0
 10
31.15221374974196
 20
21.02575919463755
 30
0.0
 10
31.4509261633181
 20
20.8297348790022
 30
0.0
 10
31.77615975633121
 20
20.68002671318712
 30
0.0
 10
32.1245992018452
 20
20.59680895475905
 30
0.0
 10
32.48036308610931
 20
20.56921458872082
 30
0.0
 10
32.83672042951042
 20
20.56880350163354
 30
0.0
 10
33.19288790635217
 20
20.58096018875885
 30
0.0
 10
33.66419152145323
 20
20.63797084694976
 30
0.0
 10
33.99993214719606
 20
20.7886271601667
 30
0.0
 10
34.19152297621249
 20
20.92684360711669
 30
0.0
 11
34.19152297621249
 21
24.31990419713182
 31
0.0
 11
34.04814564948316
 21
24.42551803537496
 31
0.0
 11
33.886414432493
 21
24.49734946038967
 31
0.0
 11
33.71305596481814
 21
24.54313679053143
 31
0.0
 11
33.53598457982956
 21
24.57716399139704
 31
0.0
 11
33.18386096308204
 21
24.63164336554592
 31
0.0
 11
32.8297140010732
 21
24.65361067318905
 31
0.0
 11
32.47307470160767
 21
24.6427593690914
 31
0.0
 11
32.11942187052807
 21
24.60192152108414
 31
0.0
 11
31.77626880985488
 21
24.50691864896159
 31
0.0
 11
31.45331806594562
 21
24.35619987525168
 31
0.0
 11
31.16425081659299
 21
24.14868782982736
 31
0.0
 11
30.91268311986691
 21
23.89611360248224
 31
0.0
 11
30.70379325220439
 21
23.60781901266322
 31
0.0
 11
30.54866063637869
 21
23.28729150751013
 31
0.0
 11
30.45247328846812
 21
22.94419894098582
 31
0.0
 11
30.4178204424804
 21
22.58972989255913
 31
0.0
 11
30.4520470898832
 21
22.23526594311771
 31
0.0
 11
30.54294059487364
 21
21.89073675637875
 31
0.0
 11
30.691396483504
 21
21.56716285752306
 31
0.0
 11
30.89849041843911
 21
21.27725022136696
 31
0.0
 11
31.15802450035081
 21
21.03376654019861
 31
0.0
 11
31.45548308742885
 21
20.83737935540596
 31
0.0
 11
31.77997022332717
 21
20.69112453447919
 31
0.0
 11
32.12581407620214
 21
20.60608206244056
 31
0.0
 11
32.48050427697165
 21
20.57374147270578
 31
0.0
 11
32.83641989969535
 21
20.57089422013113
 31
0.0
 11
33.19286980656467
 21
20.58610182742617
 31
0.0
 11
33.54527140198384
 21
20.63588357412756
 31
0.0
 11
34.19152297621249
 21
20.92684360711669
 31
0.0
  0
SPLINE
  5
7D
330
A
100
AcDbEntity
  8
CARTOUCHE
  6
CONTINUOUS
 62
     4
100
AcDbSpline
210
0.0
220
0.0
230
1.0
 70
     8
 71
     3
 72
    32
 73
    28
 74
    26
 42
0.0000000001
 43
0.0000000001
 44
0.000001
 12
-0.1341089932713914
 22
0.9909665876929121
 32
0.0
 13
0.0921211275959058
 23
0.9957478083583508
 33
0.0
 40
0.0
 40
0.0
 40
0.0
 40
0.0
 40
0.1932870726990442
 40
0.3866792452096369
 40
0.5800716448723918
 40
0.7723331336887302
 40
0.9658517963207579
 40
1.15936832472225
 40
1.351211885861727
 40
1.544293516073681
 40
1.738458265495977
 40
1.931764420786823
 40
2.315247530488627
 40
2.698534125382553
 40
2.891496493449492
 40
3.086239187656826
 40
3.279346076389813
 40
3.471494617804942
 40
3.665361350852587
 40
3.858866209618604
 40
4.051424456358013
 40
4.244517019109064
 40
4.629047421486941
 40
4.822526074880362
 40
5.015998230668782
 40
5.208856307653513
 40
5.402319509587266
 40
5.402319509587266
 40
5.402319509587266
 40
5.402319509587266
 10
34.19152297621249
 20
22.75924360711669
 30
0.0
 10
34.18288246463514
 20
22.82309061740926
 30
0.0
 10
34.14699032504411
 20
22.94923083584773
 30
0.0
 10
34.0386311915935
 20
23.11295856749962
 30
0.0
 10
33.88808692217448
 20
23.2375052632015
 30
0.0
 10
33.71390333686501
 20
23.32349595013639
 30
0.0
 10
33.52952374823402
 20
23.38166664627401
 30
0.0
 10
33.34290576820264
 20
23.43125923522332
 30
0.0
 10
33.15005934454871
 20
23.45345638096766
 30
0.0
 10
32.9567662653034
 20
23.43192402229584
 30
0.0
 10
32.77056094954621
 20
23.37588613719518
 30
0.0
 10
32.54005643000672
 20
23.25927875203682
 30
0.0
 10
32.30432080538978
 20
23.02895627192544
 30
0.0
 10
32.19918324728944
 20
22.70410853072549
 30
0.0
 10
32.25560999955026
 20
22.44863361631263
 30
0.0
 10
32.34552926468555
 20
22.27538547462596
 30
0.0
 10
32.47312191827225
 20
22.12730573798492
 30
0.0
 10
32.63483114160579
 20
22.01829644309
 30
0.0
 10
32.81426091781527
 20
21.94472694998748
 30
0.0
 10
33.00144386925829
 20
21.89441488480765
 30
0.0
 10
33.1942829819659
 20
21.87304334806435
 30
0.0
 10
33.45148795617318
 20
21.88934820105486
 30
0.0
 10
33.70119762619981
 20
21.97262952139333
 30
0.0
 10
33.91655360502459
 20
22.11456126477983
 30
0.0
 10
34.05836119423948
 20
22.24858589816442
 30
0.0
 10
34.15639851653419
 20
22.41858974007392
 30
0.0
 10
34.18558229344234
 20
22.54608008734217
 30
0.0
 10
34.19152297621249
 20
22.61029360711668
 30
0.0
 11
34.19152297621249
 21
22.75924360711669
 31
0.0
 11
34.13791895137521
 21
22.94494973500174
 31
0.0
 11
34.03155373353056
 21
23.10646429401779
 31
0.0
 11
33.88383915758775
 21
23.2312882243935
 31
0.0
 11
33.71260018090836
 21
23.31870497950504
 31
0.0
 11
33.52912571204567
 21
23.38024026476581
 31
0.0
 11
33.34129541646134
 21
23.4268066350183
 31
0.0
 11
33.15043306379559
 21
23.44618483007101
 31
0.0
 11
32.95838311054932
 21
23.42625160056325
 31
0.0
 11
32.77240099875644
 21
23.37047876932411
 31
0.0
 11
32.6003783004499
 21
23.2823001555606
 31
0.0
 11
32.3303531106979
 21
23.01000300398824
 31
0.0
 11
32.22491909320101
 21
22.64150286445184
 31
0.0
 11
32.26331822628609
 21
22.45239971642014
 31
0.0
 11
32.35215412813562
 21
22.27909964132739
 31
0.0
 11
32.4790661567678
 21
22.13355370124998
 31
0.0
 11
32.63725672616545
 21
22.02448118124886
 31
0.0
 11
32.81564788989768
 21
21.94858052993354
 31
0.0
 11
33.00273750412712
 21
21.89916786421673
 31
0.0
 11
33.19419909206249
 21
21.87864610808738
 31
0.0
 11
33.38690243953788
 21
21.89090007892743
 31
0.0
 11
33.7516338226573
 21
22.01269765064039
 31
0.0
 11
33.91321018639743
 21
22.11912633605072
 31
0.0
 11
34.05119662359747
 21
22.25474052514756
 31
0.0
 11
34.14728879489485
 21
22.42195449774152
 31
0.0
 11
34.19152297621249
 21
22.61029360711668
 31
0.0
  0
LINE
  5
7E
330
A
100
AcDbEntity
  8
CARTOUCHE
  6
CONTINUOUS
 62
     4
100
AcDbLine
 10
34.191523
 20
22.61029399999999
 30
0.0
 11
34.191523
 21
22.75924399999999
 31
0.0
  0
LINE
  5
7F
330
A
100
AcDbEntity
  8
CARTOUCHE
  6
CONTINUOUS
 62
     4
100
AcDbLine
 10
34.191523
 20
20.62084399999999
 30
0.0
 11
34.191523
 21
20.92684399999999
 31
0.0
  0
SPLINE
  5
80
330
A
100
AcDbEntity
  8
CARTOUCHE
  6
CONTINUOUS
 62
     4
100
AcDbSpline
210
0.0
220
0.0
230
1.0
 70
     8
 71
     3
 72
    46
 73
    42
 74
    40
 42
0.0000000001
 43
0.0000000001
 44
0.000001
 12
0.2679235453433934
 22
0.9634401765811029
 32
0.0
 13
0.1610223945668763
 23
0.9869507527977013
 33
0.0
 40
0.0
 40
0.0
 40
0.0
 40
0.0
 40
0.2811755879610205
 40
0.5640894598527197
 40
0.8489967500744224
 40
1.131204584902198
 40
1.693847130716202
 40
2.25688272553264
 40
2.539006562895577
 40
2.820696627709168
 40
3.102988313571604
 40
3.385254961394738
 40
3.94853705967111
 40
4.51259487957146
 40
5.076290929579045
 40
5.639938991368811
 40
6.203885292827621
 40
6.766738024232006
 40
7.329350602228585
 40
7.892323292363498
 40
8.455148072837019
 40
8.737354674731138
 40
9.018966275430827
 40
9.581780957923617
 40
9.864038410179498
 40
10.14660875455178
 40
10.42765626274299
 40
10.71044466815239
 40
11.27439702776554
 40
11.83782171874065
 40
12.40154952919085
 40
12.96488070414784
 40
13.53013628041458
 40
13.81230340811157
 40
14.09372867187361
 40
14.37575650341838
 40
14.65756953458365
 40
14.93943539145296
 40
15.2212008302244
 40
15.50299648006999
 40
15.78483841467691
 40
15.78483841467691
 40
15.78483841467691
 40
15.78483841467691
 10
42.2069229762125
 20
22.2561436071167
 30
0.0
 10
42.23203416300934
 20
22.34644222648852
 30
0.0
 10
42.26336600835234
 20
22.53399302707784
 30
0.0
 10
42.24149685064985
 20
22.81801354893512
 30
0.0
 10
42.17836809953296
 20
23.09483432895953
 30
0.0
 10
42.05825188604775
 20
23.45212616882764
 30
0.0
 10
41.8230668006803
 20
23.86725004625181
 30
0.0
 10
41.46781676949065
 20
24.18453380611619
 30
0.0
 10
41.14761161207628
 20
24.38196283172969
 30
0.0
 10
40.88897553118341
 20
24.49665789401903
 30
0.0
 10
40.61969386966782
 20
24.58173362530224
 30
0.0
 10
40.25431496432636
 20
24.67112545926651
 30
0.0
 10
39.78717039719532
 20
24.73491722666181
 30
0.0
 10
39.22286209832438
 20
24.74314592079586
 30
0.0
 10
38.65912089182815
 20
24.707767262888
 30
0.0
 10
38.10430973138447
 20
24.60055473365942
 30
0.0
 10
37.56703419814676
 20
24.41975302663697
 30
0.0
 10
37.09128412027334
 20
24.10132431889457
 30
0.0
 10
36.74193897991701
 20
23.6494135573821
 30
0.0
 10
36.52262166512313
 20
23.12465092262864
 30
0.0
 10
36.46286239872553
 20
22.6523743754689
 30
0.0
 10
36.49897197569239
 20
22.27677357904617
 30
0.0
 10
36.60138550967333
 20
21.91447847594101
 30
0.0
 10
36.76185476285072
 20
21.56953949794035
 30
0.0
 10
36.99184531701846
 20
21.27135446443551
 30
0.0
 10
37.18412183917007
 20
21.0637297758158
 30
0.0
 10
37.41499114147043
 20
20.89810995063151
 30
0.0
 10
37.75233275177086
 20
20.73107999541952
 30
0.0
 10
38.19505514432215
 20
20.56630095377483
 30
0.0
 10
38.75227472239757
 20
20.4684543647121
 30
0.0
 10
39.31516450875555
 20
20.42686251213917
 30
0.0
 10
39.87978566121683
 20
20.45310413897527
 30
0.0
 10
40.34636221788836
 20
20.51793252236163
 30
0.0
 10
40.71317022013404
 20
20.60361845862006
 30
0.0
 10
40.98020793552477
 20
20.69575648453573
 30
0.0
 10
41.23634112546803
 20
20.81337071306749
 30
0.0
 10
41.48756204304269
 20
20.94257872732798
 30
0.0
 10
41.71131198312713
 20
21.11779586997518
 30
0.0
 10
41.89210410379195
 20
21.33577447260693
 30
0.0
 10
42.03705455831309
 20
21.5796883241839
 30
0.0
 10
42.0887453551459
 20
21.76292223727327
 30
0.0
 10
42.10387297621249
 20
21.85564360711669
 30
0.0
 11
42.2069229762125
 21
22.2561436071167
 31
0.0
 11
42.25187369928078
 21
22.53370336692195
 31
0.0
 11
42.23470970538826
 21
22.81609604661632
 31
0.0
 11
42.1735788783549
 21
23.0943678180467
 31
0.0
 11
42.08234233059616
 21
23.36142053588839
 31
0.0
 11
41.79914459059214
 21
23.84759505388021
 31
0.0
 11
41.38499580886721
 21
24.22902637720731
 31
0.0
 11
41.1444496714726
 21
24.37644216492157
 31
0.0
 11
40.88739588735783
 21
24.49164913231013
 31
0.0
 11
40.61887239332167
 21
24.57873375105808
 31
0.0
 11
40.34465192624326
 21
24.64564860681681
 31
0.0
 11
39.78677780416955
 21
24.72351512572941
 31
0.0
 11
39.22285539283774
 21
24.73587418697074
 31
0.0
 11
38.66058598489463
 21
24.6957948090196
 31
0.0
 11
38.10728319880826
 21
24.58829981854138
 31
0.0
 11
37.57690963109762
 21
24.3966247732279
 31
0.0
 11
37.1122433036989
 21
24.07899538626728
 31
0.0
 11
36.76366857941348
 21
23.63737494458054
 31
0.0
 11
36.54722159336241
 21
23.11767406956402
 31
0.0
 11
36.47887604508949
 21
22.55901436160784
 31
0.0
 11
36.50730298839907
 21
22.27824312562695
 31
0.0
 11
36.58066141679664
 21
22.00635409419069
 31
0.0
 11
36.82487619371594
 21
21.49928452588675
 31
0.0
 11
36.99507455897878
 21
21.27411393911514
 31
0.0
 11
37.19090624714094
 21
21.07040837833609
 31
0.0
 11
37.41820717151092
 21
20.90511471530929
 31
0.0
 11
37.66963145788086
 21
20.77567317677089
 31
0.0
 11
38.1996064863776
 21
20.58288122875969
 31
0.0
 11
38.75315260795133
 21
20.4778380326807
 31
0.0
 11
39.3154824739789
 21
20.43816227630538
 31
0.0
 11
39.87832438970059
 21
20.46163547548925
 31
0.0
 11
40.43780417420945
 21
20.54223471097222
 31
0.0
 11
40.71211753370237
 21
20.60834422386486
 31
0.0
 11
40.97822189579761
 21
20.69993377525822
 31
0.0
 11
41.23556355576588
 21
20.81532426148599
 31
0.0
 11
41.48298030283661
 21
20.95024471011851
 31
0.0
 11
41.70417597333143
 21
21.12494680466518
 31
0.0
 11
41.88612496759311
 21
21.3400893433574
 31
0.0
 11
42.02581025553314
 21
21.58482751880403
 31
0.0
 11
42.10387297621249
 21
21.85564360711669
 31
0.0
  0
SPLINE
  5
81
330
A
100
AcDbEntity
  8
CARTOUCHE
  6
CONTINUOUS
 62
     4
100
AcDbSpline
210
0.0
220
0.0
230
1.0
 70
     8
 71
     3
 72
    15
 73
    11
 74
     9
 42
0.0000000001
 43
0.0000000001
 44
0.000001
 12
0.1873467659221653
 22
-0.9822938406090642
 32
0.0
 13
0.7770129286964091
 23
0.6294846373332945
 33
0.0
 40
0.0
 40
0.0
 40
0.0
 40
0.0
 40
0.3371520882962238
 40
0.6743124420665318
 40
1.011741231949301
 40
1.348773281046484
 40
1.687274393511964
 40
1.856092886460975
 40
2.024671668997265
 40
2.361713795269132
 40
2.361713795269132
 40
2.361713795269132
 40
2.361713795269132
 10
38.3648229762125
 20
22.24444360711669
 30
0.0
 10
38.3858777606679
 20
22.13404946722274
 30
0.0
 10
38.4790882392058
 20
21.91720258641543
 30
0.0
 10
38.75430841965681
 20
21.70644962175585
 30
0.0
 10
39.06998579026009
 20
21.58181024957577
 30
0.0
 10
39.40539428132957
 20
21.52556294079901
 30
0.0
 10
39.68949383633029
 20
21.54062590043178
 30
0.0
 10
39.90812614741166
 20
21.59887432412625
 30
0.0
 10
40.11328190683267
 20
21.69222629120342
 30
0.0
 10
40.25572761300298
 20
21.7849226602426
 30
0.0
 10
40.3430229762125
 20
21.85564360711669
 30
0.0
 11
38.3648229762125
 21
22.24444360711669
 31
0.0
 11
38.50164219830394
 21
21.93629966675314
 31
0.0
 11
38.76098099155704
 21
21.72084551731241
 31
0.0
 11
39.07332908880515
 21
21.59318639542836
 31
0.0
 11
39.40580907592665
 21
21.53798084006903
 31
0.0
 11
39.7436513990388
 21
21.55908759838489
 31
0.0
 11
39.90657573481705
 21
21.60330661466393
 31
0.0
 11
40.06077578326683
 21
21.67143258943228
 31
0.0
 11
40.3430229762125
 21
21.85564360711669
 31
0.0
  0
SPLINE
  5
82
330
A
100
AcDbEntity
  8
CARTOUCHE
  6
CONTINUOUS
 62
     4
100
AcDbSpline
210
0.0
220
0.0
230
1.0
 70
     8
 71
     3
 72
    21
 73
    17
 74
    15
 42
0.0000000001
 43
0.0000000001
 44
0.000001
 12
-0.0762450288998757
 22
0.9970891111470715
 32
0.0
 13
-0.2154301143740796
 23
-0.9765192603429648
 33
0.0
 40
0.0
 40
0.0
 40
0.0
 40
0.0
 40
0.1868552501291099
 40
0.3735743240415363
 40
0.5613842212537195
 40
0.7484489381161498
 40
0.9355884385827966
 40
1.123112064008595
 40
1.311428189761292
 40
1.500242138341776
 40
1.686443726256273
 40
1.873057604711222
 40
2.059520215358873
 40
2.246467675506937
 40
2.434628543455337
 40
2.621193756753846
 40
2.621193756753846
 40
2.621193756753846
 40
2.621193756753846
 10
40.3430229762125
 20
23.07919360711669
 30
0.0
 10
40.33827404823044
 20
23.14129738553816
 30
0.0
 10
40.31098607120404
 20
23.26532099804101
 30
0.0
 10
40.21176993964344
 20
23.42743856410385
 30
0.0
 10
40.07410542495197
 20
23.55667636729545
 30
0.0
 10
39.9138014685594
 20
23.65566279649367
 30
0.0
 10
39.73873495456709
 20
23.72452138799518
 30
0.0
 10
39.55490004271078
 20
23.76544088796556
 30
0.0
 10
39.36639757169171
 20
23.77885750750729
 30
0.0
 10
39.1790224559892
 20
23.76782182101864
 30
0.0
 10
38.99274814414789
 20
23.72745913194854
 30
0.0
 10
38.83748760469036
 20
23.62068056673371
 30
0.0
 10
38.66640559987162
 20
23.54392780516535
 30
0.0
 10
38.52524863854353
 20
23.41621618712655
 30
0.0
 10
38.42100518625729
 20
23.258923243242
 30
0.0
 10
38.37822023129222
 20
23.13992178181537
 30
0.0
 10
38.36482297621251
 20
23.0791936071167
 30
0.0
 11
40.3430229762125
 21
23.07919360711669
 31
0.0
 11
40.30128482007762
 21
23.26132867168497
 31
0.0
 11
40.20559522220136
 21
23.42166431604199
 31
0.0
 11
40.07014905358668
 21
23.55176773224803
 31
0.0
 11
39.91135088271828
 21
23.6506431736504
 31
0.0
 11
39.7374628559249
 21
23.71981068462436
 31
0.0
 11
39.55447534379333
 21
23.76080659501808
 31
0.0
 11
39.36667772831406
 21
23.77477007425147
 31
0.0
 11
39.17824365086322
 21
23.76280187157366
 31
0.0
 11
38.99791204207538
 21
23.71641788353441
 31
0.0
 11
38.83484335052719
 21
23.62568105970969
 31
0.0
 11
38.6715939776077
 21
23.53558123947115
 31
0.0
 11
38.53168126994678
 21
23.41159000587155
 31
0.0
 11
38.42745670868595
 21
23.25493190905037
 31
0.0
 11
38.36482297621251
 21
23.0791936071167
 31
0.0
  0
SPLINE
  5
83
330
A
100
AcDbEntity
  8
CARTOUCHE
  6
CONTINUOUS
 62
     4
100
AcDbSpline
210
0.0
220
0.0
230
1.0
 70
     8
 71
     3
 72
    14
 73
    10
 74
     8
 42
0.0000000001
 43
0.0000000001
 44
0.000001
 12
0.0554704849890784
 22
0.9984603273516063
 32
0.0
 13
-0.0466631639368038
 23
-0.9989106812580427
 33
0.0
 40
0.0
 40
0.0
 40
0.0
 40
0.0
 40
0.2162139074022184
 40
0.4333924847994317
 40
0.6499495281904898
 40
0.8697428518080903
 40
1.087237595645033
 40
1.304827608132222
 40
1.522315904263415
 40
1.522315904263415
 40
1.522315904263415
 40
1.522315904263415
 10
45.4545729762125
 20
22.82764360711668
 30
0.0
 10
45.45857080631416
 20
22.89960394337094
 30
0.0
 10
45.42640845178715
 20
23.04880719341104
 30
0.0
 10
45.27439530019221
 20
23.21580479327942
 30
0.0
 10
45.06187441261873
 20
23.29256560222702
 30
0.0
 10
44.83996045298546
 20
23.27349163465662
 30
0.0
 10
44.63539403875084
 20
23.17927816693098
 30
0.0
 10
44.50069250367363
 20
22.99887923670178
 30
0.0
 10
44.46300587355137
 20
22.85461073446804
 30
0.0
 10
44.45962297621247
 20
22.78219360711668
 30
0.0
 11
45.4545729762125
 21
22.82764360711668
 31
0.0
 11
45.40925657835891
 21
23.03905624439607
 31
0.0
 11
45.2643208173426
 21
23.20079736409237
 31
0.0
 11
45.06139949806013
 21
23.27642755731508
 31
0.0
 11
44.84216559415751
 21
23.2607549970325
 31
0.0
 11
44.64694347697346
 21
23.16487840855711
 31
0.0
 11
44.51370731348553
 21
22.99285063220138
 31
0.0
 11
44.45962297621247
 21
22.78219360711668
 31
0.0
  0
SPLINE
  5
84
330
A
100
AcDbEntity
  8
CARTOUCHE
  6
CONTINUOUS
 62
     4
100
AcDbSpline
210
0.0
220
0.0
230
1.0
 70
     8
 71
     3
 72
    20
 73
    16
 74
    14
 42
0.0000000001
 43
0.0000000001
 44
0.000001
 12
0.1358608544273129
 22
0.9907279284618359
 32
0.0
 13
-0.8123777522852272
 23
-0.583131535412039
 33
0.0
 40
0.0
 40
0.0
 40
0.0
 40
0.0
 40
0.3099167376574449
 40
0.6201162120086089
 40
0.9308832229227101
 40
1.240782580369534
 40
1.550958571056
 40
1.86184147292939
 40
2.170989032701104
 40
2.482794313402607
 40
2.792566681426349
 40
3.102412009711692
 40
3.41342341835682
 40
3.723770860918002
 40
4.342414092774922
 40
4.342414092774922
 40
4.342414092774922
 40
4.342414092774922
 10
47.28382297621251
 20
22.58779360711669
 30
0.0
 10
47.29785816047233
 20
22.69014132961503
 30
0.0
 10
47.31442324043969
 20
22.89676966285278
 30
0.0
 10
47.30092965568099
 20
23.20747621588525
 30
0.0
 10
47.25565430040701
 20
23.51474442121904
 30
0.0
 10
47.17620425041043
 20
23.81641651325382
 30
0.0
 10
47.02732817013801
 20
24.09240856669955
 30
0.0
 10
46.81020864916885
 20
24.32073910349872
 30
0.0
 10
46.53096591325815
 20
24.46673549232283
 30
0.0
 10
46.23076181269933
 20
24.54812138519136
 30
0.0
 10
45.9230282829723
 20
24.59724610143176
 30
0.0
 10
45.61155007781773
 20
24.58971042935069
 30
0.0
 10
45.30365677773262
 20
24.54593296501846
 30
0.0
 10
44.90384925448966
 20
24.43649405403212
 30
0.0
 10
44.62714697559995
 20
24.28574373300502
 30
0.0
 10
44.45962297621249
 20
24.16549360711669
 30
0.0
 11
47.28382297621251
 21
22.58779360711669
 31
0.0
 11
47.3080338234398
 21
22.8967638790771
 31
0.0
 11
47.29564801913904
 21
23.20671600883972
 31
0.0
 11
47.24989999164073
 21
23.51409730955235
 31
0.0
 11
47.16468005782961
 21
23.81204898160464
 31
0.0
 11
47.01605698726017
 21
24.08429955967585
 31
0.0
 11
46.79947591694869
 21
24.30732619143858
 31
0.0
 11
46.52824151124928
 21
24.45566419975128
 31
0.0
 11
46.22887996193932
 21
24.5428722112578
 31
0.0
 11
45.92238599753447
 21
24.58782115591738
 31
0.0
 11
45.61256799206709
 21
24.58370341795764
 31
0.0
 11
45.3047164351297
 21
24.53948194901727
 31
0.0
 11
45.00579935951135
 21
24.45603046599671
 31
0.0
 11
44.45962297621249
 21
24.16549360711669
 31
0.0
  0
ARC
  5
85
330
A
100
AcDbEntity
  8
CARTOUCHE
  6
CONTINUOUS
 62
     4
100
AcDbCircle
 10
10.95095399999999
 20
23.851493
 30
0.0
 40
0.4706070000000001
100
AcDbArc
 50
290.581791
 51
349.597912
  0
SPLINE
  5
86
330
A
100
AcDbEntity
  8
CARTOUCHE
  6
CONTINUOUS
 62
     4
100
AcDbSpline
210
0.0
220
0.0
230
1.0
 70
     8
 71
     3
 72
    14
 73
    10
 74
     8
 42
0.0000000001
 43
0.0000000001
 44
0.000001
 12
-0.0678904074543379
 22
-0.9976927846665446
 32
0.0
 13
-0.8200536786282524
 23
0.5722866101598663
 33
0.0
 40
0.0
 40
0.0
 40
0.0
 40
0.0
 40
0.2180606789005075
 40
0.4363602626287939
 40
0.6537280242066189
 40
0.8729546411850181
 40
1.089088005528229
 40
1.305403373828848
 40
1.523279715932534
 40
1.523279715932534
 40
1.523279715932534
 40
1.523279715932534
 10
13.32322297621251
 20
21.16984360711669
 30
0.0
 10
13.3182882334324
 20
21.09732441846385
 30
0.0
 10
13.28444048343501
 20
20.95301317401817
 30
0.0
 10
13.16948288538595
 20
20.76307428830322
 30
0.0
 10
12.99638521645118
 20
20.62406333344731
 30
0.0
 10
12.79557455913801
 20
20.53568047568411
 30
0.0
 10
12.57604688222646
 20
20.50360657412561
 30
0.0
 10
12.36194585198925
 20
20.55796217058827
 30
0.0
 10
12.23325574438505
 20
20.6267655025048
 30
0.0
 10
12.17369897910899
 20
20.66832807359032
 30
0.0
 11
13.32322297621251
 21
21.16984360711669
 31
0.0
 11
13.27374961772985
 21
20.95746843688553
 31
0.0
 11
13.15964273339541
 21
20.77136537381492
 31
0.0
 11
12.99218699760145
 21
20.63277473124213
 31
0.0
 11
12.79139755994316
 21
20.54477508934442
 31
0.0
 11
12.57693403206401
 21
20.51795972590457
 31
0.0
 11
12.36599789339048
 21
20.56590052451097
 31
0.0
 11
12.17369897910899
 21
20.66832807359032
 31
0.0
  0
ARC
  5
87
330
A
100
AcDbEntity
  8
CARTOUCHE
  6
CONTINUOUS
 62
     4
100
AcDbCircle
 10
14.40453899999999
 20
25.005869
 30
0.0
 40
0.5000710000000001
100
AcDbArc
 50
275.8401249999999
 51
95.840125
  0
INSERT
  5
88
330
A
100
AcDbEntity
  8
CARTOUCHE
  6
CONTINUOUS
 62
     4
100
AcDbBlockReference
  2
*X18
 10
0.0
 20
0.0
 30
0.0
1001
ACAD
1000
HATCH
1002
{
1070
    19
1000
ANSI31
1040
0.062992
1040
0.0
1000
R14_HATCH_DATA
1000
88
1011
1.0
1021
0.0
1031
0.0
1011
0.0
1021
1.0
1031
0.0
1011
0.0
1021
0.0
1031
1.0
1040
0.0
1010
0.0
1020
0.0
1030
1.0
1000
ANSI31
1070
     0
1070
     0
1071
        1
1071
        1
1071
       50
1070
     1
1040
10.46482297621249
1040
24.42874360711669
1040
10.46482297621249
1040
27.39950620338089
1070
     1
1040
8.174776197285117
1040
24.42874360711669
1040
10.46482297621249
1040
24.42874360711669
1070
     1
1040
11.41387297621249
1040
27.65262056693448
1040
11.41387297621249
1040
23.76651350370063
1070
     1
1040
11.11642297621249
1040
23.41084360711669
1040
10.88782297621249
1040
23.41084360711669
1070
     1
1040
10.88782297621249
1040
23.41084360711669
1040
12.36292297621249
1040
21.81019360711669
1070
     1
1040
12.36292297621249
1040
21.81019360711669
1040
12.36292297621249
1040
27.65548474905463
1070
     1
1040
9.378522976212499
1040
23.41084360711669
1040
8.176313141344726
1040
23.41084360711669
1070
     1
1040
13.32322297621251
1040
27.40413356412171
1040
13.32322297621251
1040
25.50334360711669
1070
     1
1040
13.32322297621251
1040
25.50334360711669
1040
14.35365561804984
1040
25.50334360711669
1070
     1
1040
14.45542297620991
1040
24.50839360711669
1040
13.32322297621251
1040
24.50839360711669
1070
     1
1040
13.32322297621251
1040
24.50839360711669
1040
13.32322297621251
1040
21.16984360711669
1070
     1
1040
13.32322297621251
1040
21.16984360711669
1040
13.31883473362851
1040
21.12641207783193
1070
     1
1040
13.31883473362851
1040
21.12641207783193
1040
13.31163234261353
1040
21.08326802947578
1070
     1
1040
13.31163234261353
1040
21.08326802947578
1040
13.30167673704228
1040
21.04060222873889
1070
     1
1040
13.30167673704228
1040
21.04060222873889
1040
13.28902885078948
1040
20.99860544231192
1070
     1
1040
13.28902885078948
1040
20.99860544231192
1040
13.27374961772985
1040
20.95746843688553
1070
     1
1040
13.27374961772985
1040
20.95746843688553
1040
13.25587736440904
1040
20.91734035839061
1070
     1
1040
13.25587736440904
1040
20.91734035839061
1040
13.23547981538517
1040
20.87846556800614
1070
     1
1040
13.23547981538517
1040
20.87846556800614
1040
13.21260770458825
1040
20.84104451056206
1070
     1
1040
13.21260770458825
1040
20.84104451056206
1040
13.18731176594832
1040
20.80527763088834
1070
     1
1040
13.18731176594832
1040
20.80527763088834
1040
13.15964273339541
1040
20.77136537381492
1070
     1
1040
13.15964273339541
1040
20.77136537381492
1040
13.12981510363878
1040
20.73960515208204
1070
     1
1040
13.12981510363878
1040
20.73960515208204
1040
13.09792030592154
1040
20.70987423443825
1070
     1
1040
13.09792030592154
1040
20.70987423443825
1040
13.06419374950322
1040
20.68216436340364
1070
     1
1040
13.06419374950322
1040
20.68216436340364
1040
13.02887084364335
1040
20.65646728149825
1070
     1
1040
13.02887084364335
1040
20.65646728149825
1040
12.99218699760145
1040
20.63277473124213
1070
     1
1040
12.99218699760145
1040
20.63277473124213
1040
12.91478675188543
1040
20.59112910905729
1070
     1
1040
12.91478675188543
1040
20.59112910905729
1040
12.87455471295311
1040
20.57347859798428
1070
     1
1040
12.87455471295311
1040
20.57347859798428
1040
12.83340026517213
1040
20.55801039718216
1070
     1
1040
12.83340026517213
1040
20.55801039718216
1040
12.79139755994316
1040
20.54477508934442
1070
     1
1040
12.79139755994316
1040
20.54477508934442
1040
12.74924920374652
1040
20.53399436824628
1070
     1
1040
12.74924920374652
1040
20.53399436824628
1040
12.7065385525372
1040
20.52567780520202
1070
     1
1040
12.7065385525372
1040
20.52567780520202
1040
12.66345572663828
1040
20.52007006636281
1070
     1
1040
12.66345572663828
1040
20.52007006636281
1040
12.62019084637286
1040
20.51741581787993
1070
     1
1040
12.62019084637286
1040
20.51741581787993
1040
12.57693403206401
1040
20.51795972590457
1070
     1
1040
12.57693403206401
1040
20.51795972590457
1040
12.53382920534852
1040
20.52186005993909
1070
     1
1040
12.53382920534852
1040
20.52186005993909
1040
12.4910530384767
1040
20.52890666207177
1070
     1
1040
12.4910530384767
1040
20.52890666207177
1040
12.44873567109528
1040
20.53879717704784
1070
     1
1040
12.44873567109528
1040
20.53879717704784
1040
12.40700724285096
1040
20.55122924961249
1070
     1
1040
12.40700724285096
1040
20.55122924961249
1040
12.36599789339048
1040
20.56590052451097
1070
     1
1040
12.36599789339048
1040
20.56590052451097
1040
12.2860134057736
1040
20.60136338170921
1070
     1
1040
12.2860134057736
1040
20.60136338170921
1040
12.22861677966269
1040
20.63285264645903
1070
     1
1040
12.22861677966269
1040
20.63285264645903
1040
12.17369897910899
1040
20.66832807359032
1070
     1
1040
12.17369897910892
1040
20.66832807359026
1040
9.378522976212499
1040
23.41084360711669
1070
     2
1040
11.89964574585572
1040
23.92542170859346
1040
4.756722701239384
1040
0.0
1040
6.283185307179586
1070
     1
1070
     2
1040
11.89965080003961
1040
23.92541669660974
1040
3.758727016569031
1040
1.962466222740304
1040
3.007280317403794
1070
     1
1070
     2
1040
10.95095374319995
1040
23.85149252383617
1040
0.4706066881870569
1040
5.071608999292026
1040
6.101634622497394
1070
     1
1070
     2
1040
11.89965080003961
1040
23.92541669660974
1040
3.758727016569031
1040
1.447229703560746
1040
1.700398822181218
1070
     1
1070
     2
1040
11.89965080003961
1040
23.92541669660974
1040
3.758727016569031
1040
3.278924828260763
1040
7.465549463417864
1070
     1
1070
     2
1040
14.40453929713244
1040
25.00586860711695
1040
0.5000705194487285
1040
4.814318390362723
1040
7.955911043952516
1070
     1
1071
        0
1070
     0
1070
     1
1040
0.0
1040
0.062992
1070
     0
1070
     1
1040
0.7853981633974483
1040
-6.22517
1040
-28.624349
1040
-0.1414213583446519
1040
0.1414213583446519
1070
     0
1071
        1
1040
-6.22517
1040
-28.624349
1040
0.0
1002
}
  0
INSERT
  5
89
330
A
100
AcDbEntity
  8
CARTOUCHE
  6
CONTINUOUS
 62
     4
100
AcDbBlockReference
  2
*X19
 10
0.0
 20
0.0
 30
0.0
1001
ACAD
1000
HATCH
1002
{
1070
    19
1000
ANSI31
1040
0.062992
1040
0.0
1000
R14_HATCH_DATA
1000
89
1011
1.0
1021
0.0
1031
0.0
1011
0.0
1021
1.0
1031
0.0
1011
0.0
1021
0.0
1031
1.0
1040
0.0
1010
0.0
1020
0.0
1030
1.0
1000
ANSI31
1070
     0
1070
     0
1071
        1
1071
        1
1071
       16
1070
     1
1040
18.67462297621249
1040
24.50839360711669
1040
18.67462297621249
1040
24.92940137843239
1070
     1
1040
19.58025878682235
1040
25.83499360711669
1040
21.0875229762125
1040
25.83499360711669
1070
     1
1040
21.0875229762125
1040
25.83499360711669
1040
21.0875229762125
1040
24.93184360711669
1070
     1
1040
21.0875229762125
1040
24.93184360711669
1040
20.67905333190206
1040
24.93184360711669
1070
     1
1040
20.46107932853862
1040
24.76862245788874
1040
20.41297297621249
1040
24.50839360711669
1070
     1
1040
20.41297297621248
1040
24.50839360711669
1040
21.0875229762125
1040
24.50839360711669
1070
     1
1040
21.0875229762125
1040
24.50839360711669
1040
21.0875229762125
1040
23.41084360711669
1070
     1
1040
21.0875229762125
1040
23.41084360711669
1040
20.4701229762125
1040
23.41084360711669
1070
     1
1040
20.4701229762125
1040
23.41084360711669
1040
20.4701229762125
1040
20.63209360711669
1070
     1
1040
20.47012297621249
1040
20.63209360711669
1040
18.67462297621248
1040
20.63209360711669
1070
     1
1040
18.67462297621249
1040
20.63209360711669
1040
18.67462297621249
1040
23.41084360711669
1070
     1
1040
18.67462297621249
1040
23.41084360711669
1040
18.13732297621251
1040
23.41084360711669
1070
     1
1040
18.13732297621251
1040
23.41084360711669
1040
18.13732297621251
1040
24.50839360711669
1070
     1
1040
18.13732297621251
1040
24.50839360711669
1040
18.67462297621248
1040
24.50839360711669
1070
     2
1040
19.58025878682235
1040
24.92940137843239
1040
0.9056391035836327
1040
1.570796326794896
1040
3.141592653589793
1070
     1
1070
     2
1040
20.70598815405769
1040
24.66871596669092
1040
0.2645026272092472
1040
1.672805114347311
1040
2.754265904768217
1070
     1
1071
        0
1070
     0
1070
     1
1040
0.0
1040
0.062992
1070
     0
1070
     1
1040
0.7853981633974483
1040
-6.22517
1040
-28.624349
1040
-0.1414213583446519
1040
0.1414213583446519
1070
     0
1071
        1
1040
-6.22517
1040
-28.624349
1040
0.0
1002
}
  0
INSERT
  5
8A
330
A
100
AcDbEntity
  8
CARTOUCHE
  6
CONTINUOUS
 62
     4
100
AcDbBlockReference
  2
*X20
 10
0.0
 20
0.0
 30
0.0
1001
ACAD
1000
HATCH
1002
{
1070
    19
1000
ANSI31
1040
0.062992
1040
0.0
1000
R14_HATCH_DATA
1000
8A
1011
1.0
1021
0.0
1031
0.0
1011
0.0
1021
1.0
1031
0.0
1011
0.0
1021
0.0
1031
1.0
1040
0.0
1010
0.0
1020
0.0
1030
1.0
1000
ANSI31
1070
     0
1070
     0
1071
        1
1071
        1
1071
        4
1070
     1
1040
21.8079729762125
1040
25.83499360711669
1040
21.8079729762125
1040
24.94309360711669
1070
     1
1040
21.8079729762125
1040
24.94309360711669
1040
23.6259729762125
1040
24.94309360711669
1070
     1
1040
23.6259729762125
1040
24.94309360711668
1040
23.6259729762125
1040
25.83499360711669
1070
     1
1040
23.6259729762125
1040
25.83499360711669
1040
21.8079729762125
1040
25.83499360711669
1071
        0
1070
     0
1070
     1
1040
0.0
1040
0.062992
1070
     0
1070
     1
1040
0.7853981633974483
1040
-6.22517
1040
-28.624349
1040
-0.1414213583446519
1040
0.1414213583446519
1070
     0
1071
        1
1040
-6.22517
1040
-28.624349
1040
0.0
1002
}
  0
INSERT
  5
8B
330
A
100
AcDbEntity
  8
CARTOUCHE
  6
CONTINUOUS
 62
     4
100
AcDbBlockReference
  2
*X21
 10
0.0
 20
0.0
 30
0.0
1001
ACAD
1000
HATCH
1002
{
1070
    19
1000
ANSI31
1040
0.062992
1040
0.0
1000
R14_HATCH_DATA
1000
8B
1011
1.0
1021
0.0
1031
0.0
1011
0.0
1021
1.0
1031
0.0
1011
0.0
1021
0.0
1031
1.0
1040
0.0
1010
0.0
1020
0.0
1030
1.0
1000
ANSI31
1070
     0
1070
     0
1071
        1
1071
        1
1071
        4
1070
     1
1040
21.8079729762125
1040
24.50839360711669
1040
21.8079729762125
1040
20.63209360711669
1070
     1
1040
21.8079729762125
1040
20.63209360711669
1040
23.6259729762125
1040
20.63209360711669
1070
     1
1040
23.6259729762125
1040
20.63209360711669
1040
23.6259729762125
1040
24.50839360711669
1070
     1
1040
23.6259729762125
1040
24.50839360711669
1040
21.8079729762125
1040
24.50839360711669
1071
        0
1070
     0
1070
     1
1040
0.0
1040
0.062992
1070
     0
1070
     1
1040
0.7853981633974483
1040
-6.22517
1040
-28.624349
1040
-0.1414213583446519
1040
0.1414213583446519
1070
     0
1071
        1
1040
-6.22517
1040
-28.624349
1040
0.0
1002
}
  0
INSERT
  5
8C
330
A
100
AcDbEntity
  8
CARTOUCHE
  6
CONTINUOUS
 62
     4
100
AcDbBlockReference
  2
*X22
 10
0.0
 20
0.0
 30
0.0
1001
ACAD
1000
HATCH
1002
{
1070
    19
1000
ANSI31
1040
0.062992
1040
0.0
1000
R14_HATCH_DATA
1000
8C
1011
1.0
1021
0.0
1031
0.0
1011
0.0
1021
1.0
1031
0.0
1011
0.0
1021
0.0
1031
1.0
1040
0.0
1010
0.0
1020
0.0
1030
1.0
1000
ANSI31
1070
     0
1070
     0
1071
        1
1071
        1
1071
       12
1070
     1
1040
26.2899729762125
1040
24.50839360711669
1040
26.2899729762125
1040
24.0741436071167
1070
     1
1040
29.8922229762125
1040
23.32455319801141
1040
29.8922229762125
1040
20.63209360711669
1070
     1
1040
29.8922229762125
1040
20.63209360711669
1040
28.1084229762125
1040
20.63209360711669
1070
     1
1040
28.1084229762125
1040
20.63209360711669
1040
28.1084229762125
1040
22.47903425384608
1070
     1
1040
26.2899729762125
1040
22.43349938746982
1040
26.2899729762125
1040
20.63209360711669
1070
     1
1040
26.2899729762125
1040
20.63209360711669
1040
24.49492297621249
1040
20.63209360711669
1070
     1
1040
24.49492297621249
1040
20.63209360711669
1040
24.49492297621249
1040
24.50839360711669
1070
     1
1040
24.49492297621249
1040
24.50839360711669
1040
26.2899729762125
1040
24.50839360711669
1070
     2
1040
28.06740262422222
1040
21.04526125288079
1040
3.51189186471132
1040
1.254409881684032
1040
2.101473407347706
1070
     1
1070
     2
1040
28.67502750890198
1040
23.26487340256417
1040
1.218657656450693
1040
0.0489913397436033
1040
1.161442981761084
1070
     1
1070
     2
1040
27.45732435316137
1040
22.47903425384608
1040
0.6511236546569659
1040
0.0
1040
1.695599288911282
1070
     1
1070
     2
1040
27.44380973637427
1040
21.82007935996339
1040
1.306760651093609
1040
1.622501932778031
1040
2.652958477775717
1070
     1
1071
        0
1070
     0
1070
     1
1040
0.0
1040
0.062992
1070
     0
1070
     1
1040
0.7853981633974483
1040
-6.22517
1040
-28.624349
1040
-0.1414213583446519
1040
0.1414213583446519
1070
     0
1071
        1
1040
-6.22517
1040
-28.624349
1040
0.0
1002
}
  0
INSERT
  5
8D
330
A
100
AcDbEntity
  8
CARTOUCHE
  6
CONTINUOUS
 62
     4
100
AcDbBlockReference
  2
*X23
 10
0.0
 20
0.0
 30
0.0
1001
ACAD
1000
HATCH
1002
{
1070
    19
1000
ANSI31
1040
0.062992
1040
0.0
1000
R14_HATCH_DATA
1000
8D
1011
1.0
1021
0.0
1031
0.0
1011
0.0
1021
1.0
1031
0.0
1011
0.0
1021
0.0
1031
1.0
1040
0.0
1010
0.0
1020
0.0
1030
1.0
1000
ANSI31
1070
     0
1070
     0
1071
        1
1071
        1
1071
      154
1070
     1
1040
34.19152297621249
1040
24.31990419713182
1040
34.13663886743906
1040
24.36546535202642
1070
     1
1040
34.13663886743906
1040
24.36546535202642
1040
34.09335300453609
1040
24.39695233004338
1070
     1
1040
34.09335300453609
1040
24.39695233004338
1040
34.04814564948316
1040
24.42551803537496
1070
     1
1040
34.04814564948316
1040
24.42551803537496
1040
33.9853148771282
1040
24.45824326889328
1070
     1
1040
33.9853148771282
1040
24.45824326889328
1040
33.93641481696294
1040
24.4791830661683
1070
     1
1040
33.93641481696294
1040
24.4791830661683
1040
33.886414432493
1040
24.49734946038967
1070
     1
1040
33.886414432493
1040
24.49734946038967
1040
33.80036916880801
1040
24.52267004883189
1070
     1
1040
33.80036916880801
1040
24.52267004883189
1040
33.71305596481814
1040
24.54313679053143
1070
     1
1040
33.71305596481814
1040
24.54313679053143
1040
33.53598457982956
1040
24.57716399139704
1070
     1
1040
33.53598457982956
1040
24.57716399139704
1040
33.18386096308204
1040
24.63164336554592
1070
     1
1040
33.18386096308204
1040
24.63164336554592
1040
32.8297140010732
1040
24.65361067318905
1070
     1
1040
32.8297140010732
1040
24.65361067318905
1040
32.47307470160767
1040
24.6427593690914
1070
     1
1040
32.47307470160767
1040
24.6427593690914
1040
32.29553494834803
1040
24.62756727352911
1070
     1
1040
32.29553494834803
1040
24.62756727352911
1040
32.11942187052807
1040
24.60192152108414
1070
     1
1040
32.11942187052807
1040
24.60192152108414
1040
31.98039318439711
1040
24.57087434194068
1070
     1
1040
31.98039318439711
1040
24.57087434194068
1040
31.77626880985488
1040
24.50691864896159
1070
     1
1040
31.77626880985488
1040
24.50691864896159
1040
31.64385690583681
1040
24.45344206025171
1070
     1
1040
31.64385690583681
1040
24.45344206025171
1040
31.54719857995649
1040
24.407477873527
1070
     1
1040
31.54719857995649
1040
24.407477873527
1040
31.45331806594562
1040
24.35619987525168
1070
     1
1040
31.45331806594562
1040
24.35619987525168
1040
31.33327592488072
1040
24.27954096136778
1070
     1
1040
31.33327592488072
1040
24.27954096136778
1040
31.16425081659299
1040
24.14868782982736
1070
     1
1040
31.16425081659299
1040
24.14868782982736
1040
31.0589378780202
1040
24.05235758471281
1070
     1
1040
31.0589378780202
1040
24.05235758471281
1040
30.91268311986691
1040
23.89611360248224
1070
     1
1040
30.91268311986691
1040
23.89611360248224
1040
30.82344491669815
1040
23.78493111348759
1070
     1
1040
30.82344491669815
1040
23.78493111348759
1040
30.70379325220439
1040
23.60781901266322
1070
     1
1040
30.70379325220439
1040
23.60781901266322
1040
30.63481574159435
1040
23.48302033355442
1070
     1
1040
30.63481574159435
1040
23.48302033355442
1040
30.58909607880861
1040
23.38630952682728
1070
     1
1040
30.58909607880861
1040
23.38630952682728
1040
30.54866063637869
1040
23.28729150751013
1070
     1
1040
30.54866063637869
1040
23.28729150751013
1040
30.50307718886284
1040
23.15213239899057
1070
     1
1040
30.50307718886284
1040
23.15213239899057
1040
30.45247328846812
1040
22.94419894098582
1070
     1
1040
30.45247328846812
1040
22.94419894098582
1040
30.43063168033315
1040
22.80314986265371
1070
     1
1040
30.43063168033315
1040
22.80314986265371
1040
30.42104684068462
1040
22.696588010784
1070
     1
1040
30.42104684068462
1040
22.696588010784
1040
30.4178204424804
1040
22.58972989255913
1070
     1
1040
30.4178204424804
1040
22.58972989255913
1040
30.42378322889166
1040
22.44735507912694
1070
     1
1040
30.42378322889166
1040
22.44735507912694
1040
30.4520470898832
1040
22.23526594311771
1070
     1
1040
30.4520470898832
1040
22.23526594311771
1040
30.48182324188058
1040
22.09568317102136
1070
     1
1040
30.48182324188058
1040
22.09568317102136
1040
30.54294059487364
1040
21.89073675637875
1070
     1
1040
30.54294059487364
1040
21.89073675637875
1040
30.59524458124375
1040
21.75814401472731
1070
     1
1040
30.59524458124375
1040
21.75814401472731
1040
30.64066312551954
1040
21.66132551045659
1070
     1
1040
30.64066312551954
1040
21.66132551045659
1040
30.691396483504
1040
21.56716285752306
1070
     1
1040
30.691396483504
1040
21.56716285752306
1040
30.76734088927042
1040
21.44630187745565
1070
     1
1040
30.76734088927042
1040
21.44630187745565
1040
30.83037096957592
1040
21.35977834748524
1070
     1
1040
30.83037096957592
1040
21.35977834748524
1040
30.89849041843911
1040
21.27725022136696
1070
     1
1040
30.89849041843911
1040
21.27725022136696
1040
30.9967667597747
1040
21.17408034911913
1070
     1
1040
30.9967667597747
1040
21.17408034911913
1040
31.15802450035081
1040
21.03376654019861
1070
     1
1040
31.15802450035081
1040
21.03376654019861
1040
31.27323180799477
1040
20.94957663934497
1070
     1
1040
31.27323180799477
1040
20.94957663934497
1040
31.45548308742885
1040
20.83737935540596
1070
     1
1040
31.45548308742885
1040
20.83737935540596
1040
31.58228464331514
1040
20.77219559678803
1070
     1
1040
31.58228464331514
1040
20.77219559678803
1040
31.68003783957309
1040
20.72894332356438
1070
     1
1040
31.68003783957309
1040
20.72894332356438
1040
31.77997022332717
1040
20.69112453447919
1070
     1
1040
31.77997022332717
1040
20.69112453447919
1040
31.91640621679791
1040
20.64973705912834
1070
     1
1040
31.91640621679791
1040
20.64973705912834
1040
32.12581407620214
1040
20.60608206244056
1070
     1
1040
32.12581407620214
1040
20.60608206244056
1040
32.3026773089029
1040
20.58473447517807
1070
     1
1040
32.3026773089029
1040
20.58473447517807
1040
32.48050427697165
1040
20.57374147270578
1070
     1
1040
32.48050427697165
1040
20.57374147270578
1040
32.83641989969535
1040
20.57089422013113
1070
     1
1040
32.83641989969535
1040
20.57089422013113
1040
33.19286980656467
1040
20.58610182742617
1070
     1
1040
33.19286980656467
1040
20.58610182742617
1040
33.33459654960583
1040
20.59999995765213
1070
     1
1040
33.33459654960583
1040
20.59999995765213
1040
33.54527140198384
1040
20.63588357412756
1070
     1
1040
33.54527140198384
1040
20.63588357412756
1040
33.68285267363335
1040
20.67301572521217
1070
     1
1040
33.68285267363335
1040
20.67301572521217
1040
33.81743305695801
1040
20.72115385795995
1070
     1
1040
33.81743305695801
1040
20.72115385795995
1040
33.94784796188077
1040
20.77982191846434
1070
     1
1040
33.94784796188077
1040
20.77982191846434
1040
34.0729327983246
1040
20.84854385281878
1070
     1
1040
34.0729327983246
1040
20.84854385281878
1040
34.19152297621249
1040
20.92684360711669
1070
     1
1040
34.19152297621249
1040
20.92684360711669
1040
34.19152297621249
1040
20.6208436071167
1070
     1
1040
34.19152297621249
1040
20.6208436071167
1040
35.9865729762125
1040
20.6208436071167
1070
     1
1040
35.9865729762125
1040
20.6208436071167
1040
35.9865729762125
1040
25.8237436071167
1070
     1
1040
35.9865729762125
1040
25.8237436071167
1040
34.19152297621249
1040
25.8237436071167
1070
     1
1040
34.19152297621249
1040
25.8237436071167
1040
34.19152297621249
1040
24.31990419713182
1070
     1
1040
34.19152297621249
1040
22.75924360711669
1040
34.18522427602212
1040
22.79742902286496
1070
     1
1040
34.18522427602212
1040
22.79742902286496
1040
34.17670390504242
1040
22.83525808906735
1070
     1
1040
34.17670390504242
1040
22.83525808906735
1040
34.16597248167421
1040
22.87256506018414
1070
     1
1040
34.16597248167421
1040
22.87256506018414
1040
34.1530406243182
1040
22.90918419067553
1070
     1
1040
34.1530406243182
1040
22.90918419067553
1040
34.13791895137521
1040
22.94494973500174
1070
     1
1040
34.13791895137521
1040
22.94494973500174
1040
34.12062248577393
1040
22.97972412972832
1070
     1
1040
34.12062248577393
1040
22.97972412972832
1040
34.10124110014737
1040
23.01337043735117
1070
     1
1040
34.10124110014737
1040
23.01337043735117
1040
34.07987142553699
1040
23.04578100351233
1070
     1
1040
34.07987142553699
1040
23.04578100351233
1040
34.05661009298424
1040
23.07684817385388
1070
     1
1040
34.05661009298424
1040
23.07684817385388
1040
34.03155373353056
1040
23.10646429401779
1070
     1
1040
34.03155373353056
1040
23.10646429401779
1040
34.00480782842281
1040
23.13453995989881
1070
     1
1040
34.00480782842281
1040
23.13453995989881
1040
33.97651347065819
1040
23.16105855153512
1070
     1
1040
33.97651347065819
1040
23.16105855153512
1040
33.93149659569063
1040
23.19792049990339
1070
     1
1040
33.93149659569063
1040
23.19792049990339
1040
33.88383915758775
1040
23.2312882243935
1070
     1
1040
33.88383915758775
1040
23.2312882243935
1040
33.81740830033322
1040
23.2702539875106
1070
     1
1040
33.81740830033322
1040
23.2702539875106
1040
33.71260018090836
1040
23.31870497950504
1070
     1
1040
33.71260018090836
1040
23.31870497950504
1040
33.52912571204567
1040
23.38024026476581
1070
     1
1040
33.52912571204567
1040
23.38024026476581
1040
33.34129541646134
1040
23.4268066350183
1070
     1
1040
33.34129541646134
1040
23.4268066350183
1040
33.26536709065413
1040
23.43871980520695
1070
     1
1040
33.26536709065413
1040
23.43871980520695
1040
33.20799245339293
1040
23.44418358333277
1070
     1
1040
33.20799245339293
1040
23.44418358333277
1040
33.15043306379559
1040
23.44618483007101
1070
     1
1040
33.15043306379559
1040
23.44618483007101
1040
33.073205774121
1040
23.44294111298528
1070
     1
1040
33.073205774121
1040
23.44294111298528
1040
33.01556012610554
1040
23.43626883784902
1070
     1
1040
33.01556012610554
1040
23.43626883784902
1040
32.95838311054932
1040
23.42625160056325
1070
     1
1040
32.95838311054932
1040
23.42625160056325
1040
32.88279130539605
1040
23.40794999318988
1070
     1
1040
32.88279130539605
1040
23.40794999318988
1040
32.82709324452985
1040
23.39068869542821
1070
     1
1040
32.82709324452985
1040
23.39068869542821
1040
32.77240099875644
1040
23.37047876932411
1070
     1
1040
32.77240099875644
1040
23.37047876932411
1040
32.70162295371041
1040
23.33916365530199
1070
     1
1040
32.70162295371041
1040
23.33916365530199
1040
32.65017627897317
1040
23.31224485443584
1070
     1
1040
32.65017627897317
1040
23.31224485443584
1040
32.6003783004499
1040
23.2823001555606
1070
     1
1040
32.6003783004499
1040
23.2823001555606
1040
32.53744100048406
1040
23.23798016409065
1070
     1
1040
32.53744100048406
1040
23.23798016409065
1040
32.4783720173184
1040
23.18841304210749
1070
     1
1040
32.4783720173184
1040
23.18841304210749
1040
32.42376916516049
1040
23.13377620070204
1070
     1
1040
32.42376916516049
1040
23.13377620070204
1040
32.37423025821781
1040
23.07424705096529
1070
     1
1040
32.37423025821781
1040
23.07424705096529
1040
32.3303531106979
1040
23.01000300398824
1070
     1
1040
32.3303531106979
1040
23.01000300398824
1040
32.29281787773375
1040
22.94139393368274
1070
     1
1040
32.29281787773375
1040
22.94139393368274
1040
32.26252133259767
1040
22.86924570514724
1070
     1
1040
32.26252133259767
1040
22.86924570514724
1040
32.25039554512275
1040
22.83215493136484
1070
     1
1040
32.25039554512275
1040
22.83215493136484
1040
32.24044900219397
1040
22.79455199781086
1070
     1
1040
32.24044900219397
1040
22.79455199781086
1040
32.23280489467436
1040
22.75656111441393
1070
     1
1040
32.23280489467436
1040
22.75656111441393
1040
32.22758641342698
1040
22.7183064911027
1070
     1
1040
32.22758641342698
1040
22.7183064911027
1040
32.22491674931485
1040
22.67991233780578
1070
     1
1040
32.22491674931485
1040
22.67991233780578
1040
32.22491909320101
1040
22.64150286445184
1070
     1
1040
32.22491909320101
1040
22.64150286445184
1040
32.22769315985367
1040
22.60293992315524
1070
     1
1040
32.22769315985367
1040
22.60293992315524
1040
32.23311057136401
1040
22.5646177567803
1070
     1
1040
32.23311057136401
1040
22.5646177567803
1040
32.24098086285654
1040
22.52666674625049
1070
     1
1040
32.24098086285654
1040
22.52666674625049
1040
32.25111356945575
1040
22.48921727248927
1070
     1
1040
32.25111356945575
1040
22.48921727248927
1040
32.26331822628609
1040
22.45239971642014
1070
     1
1040
32.26331822628609
1040
22.45239971642014
1040
32.29364520888784
1040
22.38042545227397
1070
     1
1040
32.29364520888784
1040
22.38042545227397
1040
32.32104847285927
1040
22.32870628189326
1070
     1
1040
32.32104847285927
1040
22.32870628189326
1040
32.35215412813562
1040
22.27909964132739
1070
     1
1040
32.35215412813562
1040
22.27909964132739
1040
32.39858603635965
1040
22.21711302746509
1070
     1
1040
32.39858603635965
1040
22.21711302746509
1040
32.43723474843396
1040
22.17377153999965
1070
     1
1040
32.43723474843396
1040
22.17377153999965
1040
32.4790661567678
1040
22.13355370124998
1070
     1
1040
32.4790661567678
1040
22.13355370124998
1040
32.53918564534263
1040
22.08548667717685
1070
     1
1040
32.53918564534263
1040
22.08548667717685
1040
32.58721199952906
1040
22.05335539427741
1070
     1
1040
32.58721199952906
1040
22.05335539427741
1040
32.63725672616545
1040
22.02448118124886
1070
     1
1040
32.63725672616545
1040
22.02448118124886
1040
32.70704840391081
1040
21.99051935609724
1070
     1
1040
32.70704840391081
1040
21.99051935609724
1040
32.81564788989768
1040
21.94858052993354
1070
     1
1040
32.81564788989768
1040
21.94858052993354
1040
32.88966328774721
1040
21.92569887434945
1070
     1
1040
32.88966328774721
1040
21.92569887434945
1040
33.00273750412712
1040
21.89916786421673
1070
     1
1040
33.00273750412712
1040
21.89916786421673
1040
33.07891412932522
1040
21.88724451800207
1070
     1
1040
33.07891412932522
1040
21.88724451800207
1040
33.19419909206249
1040
21.87864610808738
1070
     1
1040
33.19419909206249
1040
21.87864610808738
1040
33.27146321562465
1040
21.87950852987933
1070
     1
1040
33.27146321562465
1040
21.87950852987933
1040
33.38690243953788
1040
21.89090007892743
1070
     1
1040
33.38690243953788
1040
21.89090007892743
1040
33.46278968411079
1040
21.90512653207653
1070
     1
1040
33.46278968411079
1040
21.90512653207653
1040
33.53763085249445
1040
21.92455361531234
1070
     1
1040
33.53763085249445
1040
21.92455361531234
1040
33.61100153690361
1040
21.94904722914488
1070
     1
1040
33.61100153690361
1040
21.94904722914488
1040
33.68247732955298
1040
21.97847327408422
1070
     1
1040
33.68247732955298
1040
21.97847327408422
1040
33.7516338226573
1040
22.01269765064039
1070
     1
1040
33.7516338226573
1040
22.01269765064039
1040
33.81849942445664
1040
22.05184622470257
1070
     1
1040
33.81849942445664
1040
22.05184622470257
1040
33.91321018639743
1040
22.11912633605072
1070
     1
1040
33.91321018639743
1040
22.11912633605072
1040
33.97214635988498
1040
22.16959904888181
1070
     1
1040
33.97214635988498
1040
22.16959904888181
1040
34.01332469417972
1040
22.21066362568218
1070
     1
1040
34.01332469417972
1040
22.21066362568218
1040
34.05119662359747
1040
22.25474052514756
1070
     1
1040
34.05119662359747
1040
22.25474052514756
1040
34.07423731840943
1040
22.28578232487433
1070
     1
1040
34.07423731840943
1040
22.28578232487433
1040
34.09545033830772
1040
22.31814137644631
1070
     1
1040
34.09545033830772
1040
22.31814137644631
1040
34.11475222792979
1040
22.35170092541428
1070
     1
1040
34.11475222792979
1040
22.35170092541428
1040
34.13205953191303
1040
22.38634421732908
1070
     1
1040
34.13205953191303
1040
22.38634421732908
1040
34.14728879489485
1040
22.42195449774152
1070
     1
1040
34.14728879489485
1040
22.42195449774152
1040
34.16041126870771
1040
22.45852484543253
1070
     1
1040
34.16041126870771
1040
22.45852484543253
1040
34.1713772837539
1040
22.4957973539745
1070
     1
1040
34.1713772837539
1040
22.4957973539745
1040
34.1802054800254
1040
22.53361859960848
1070
     1
1040
34.1802054800254
1040
22.53361859960848
1040
34.18691449751426
1040
22.57183515857553
1070
     1
1040
34.18691449751426
1040
22.57183515857553
1040
34.19152297621249
1040
22.61029360711668
1070
     1
1040
34.19152297621249
1040
22.61029360711669
1040
34.19152297621249
1040
22.75924360711669
1071
        0
1070
     0
1070
     1
1040
0.0
1040
0.062992
1070
     0
1070
     1
1040
0.7853981633974483
1040
-6.22517
1040
-28.624349
1040
-0.1414213583446519
1040
0.1414213583446519
1070
     0
1071
        1
1040
-6.22517
1040
-28.624349
1040
0.0
1002
}
  0
INSERT
  5
8E
330
A
100
AcDbEntity
  8
CARTOUCHE
  6
CONTINUOUS
 62
     4
100
AcDbBlockReference
  2
*X24
 10
0.0
 20
0.0
 30
0.0
1001
ACAD
1000
HATCH
1002
{
1070
    19
1000
ANSI31
1040
0.062992
1040
0.0
1000
R14_HATCH_DATA
1000
8E
1011
1.0
1021
0.0
1031
0.0
1011
0.0
1021
1.0
1031
0.0
1011
0.0
1021
0.0
1031
1.0
1040
0.0
1010
0.0
1020
0.0
1030
1.0
1000
ANSI31
1070
     0
1070
     0
1071
        1
1071
        1
1071
      165
1070
     1
1040
39.0510729762125
1040
22.24444360711669
1040
39.1541229762125
1040
22.24444360711669
1070
     1
1040
39.1541229762125
1040
22.24444360711669
1040
42.2069229762125
1040
22.2561436071167
1070
     1
1040
42.2069229762125
1040
22.2561436071167
1040
42.23237762185878
1040
22.36584671807226
1070
     1
1040
42.23237762185878
1040
22.36584671807226
1040
42.24504827300029
1040
22.44946246465666
1070
     1
1040
42.24504827300029
1040
22.44946246465666
1040
42.25187369928078
1040
22.53370336692195
1070
     1
1040
42.25187369928078
1040
22.53370336692195
1040
42.25173537908569
1040
22.64696902678046
1070
     1
1040
42.25173537908569
1040
22.64696902678046
1040
42.23470970538826
1040
22.81609604661632
1070
     1
1040
42.23470970538826
1040
22.81609604661632
1040
42.20846517089046
1040
22.95621257524745
1070
     1
1040
42.20846517089046
1040
22.95621257524745
1040
42.1735788783549
1040
23.0943678180467
1070
     1
1040
42.1735788783549
1040
23.0943678180467
1040
42.1317953513426
1040
23.22914592982182
1070
     1
1040
42.1317953513426
1040
23.22914592982182
1040
42.08234233059616
1040
23.36142053588839
1070
     1
1040
42.08234233059616
1040
23.36142053588839
1040
42.03686170536565
1040
23.46471631345355
1070
     1
1040
42.03686170536565
1040
23.46471631345355
1040
41.98586075982514
1040
23.56553467942711
1070
     1
1040
41.98586075982514
1040
23.56553467942711
1040
41.9292803528995
1040
23.66332260841728
1070
     1
1040
41.9292803528995
1040
23.66332260841728
1040
41.86706134351354
1040
23.75752707503225
1070
     1
1040
41.86706134351354
1040
23.75752707503225
1040
41.79914459059214
1040
23.84759505388021
1070
     1
1040
41.79914459059214
1040
23.84759505388021
1040
41.72552403227461
1040
23.93312974680929
1070
     1
1040
41.72552403227461
1040
23.93312974680929
1040
41.646718709121
1040
24.01400429896925
1070
     1
1040
41.646718709121
1040
24.01400429896925
1040
41.56330878695366
1040
24.0902546369974
1070
     1
1040
41.56330878695366
1040
24.0902546369974
1040
41.38499580886721
1040
24.22902637720731
1070
     1
1040
41.38499580886721
1040
24.22902637720731
1040
41.26698552360454
1040
24.30660502920468
1070
     1
1040
41.26698552360454
1040
24.30660502920468
1040
41.1444496714726
1040
24.37644216492157
1070
     1
1040
41.1444496714726
1040
24.37644216492157
1040
41.01771944247007
1040
24.43798598686956
1070
     1
1040
41.01771944247007
1040
24.43798598686956
1040
40.88739588735783
1040
24.49164913231013
1070
     1
1040
40.88739588735783
1040
24.49164913231013
1040
40.61887239332167
1040
24.57873375105808
1070
     1
1040
40.61887239332167
1040
24.57873375105808
1040
40.34465192624326
1040
24.64564860681681
1070
     1
1040
40.34465192624326
1040
24.64564860681681
1040
40.06700470098034
1040
24.69362958168881
1070
     1
1040
40.06700470098034
1040
24.69362958168881
1040
39.78677780416955
1040
24.72351512572941
1070
     1
1040
39.78677780416955
1040
24.72351512572941
1040
39.22285539283774
1040
24.73587418697074
1070
     1
1040
39.22285539283774
1040
24.73587418697074
1040
38.66058598489463
1040
24.6957948090196
1070
     1
1040
38.66058598489463
1040
24.6957948090196
1040
38.38230020586061
1040
24.65113876708679
1070
     1
1040
38.38230020586061
1040
24.65113876708679
1040
38.10728319880826
1040
24.58829981854138
1070
     1
1040
38.10728319880826
1040
24.58829981854138
1040
37.89059274430329
1040
24.52407995067682
1070
     1
1040
37.89059274430329
1040
24.52407995067682
1040
37.73158560950747
1040
24.46569680922368
1070
     1
1040
37.73158560950747
1040
24.46569680922368
1040
37.57690963109762
1040
24.3966247732279
1070
     1
1040
37.57690963109762
1040
24.3966247732279
1040
37.47700594046573
1040
24.34397907058795
1070
     1
1040
37.47700594046573
1040
24.34397907058795
1040
37.38006697776783
1040
24.28586263277782
1070
     1
1040
37.38006697776783
1040
24.28586263277782
1040
37.28661322764598
1040
24.2223061075916
1070
     1
1040
37.28661322764598
1040
24.2223061075916
1040
37.19716517474233
1040
24.15334014282338
1070
     1
1040
37.19716517474233
1040
24.15334014282338
1040
37.1122433036989
1040
24.07899538626728
1070
     1
1040
37.1122433036989
1040
24.07899538626728
1040
37.03231956115444
1040
23.99941355886845
1070
     1
1040
37.03231956115444
1040
23.99941355886845
1040
36.9574691985834
1040
23.91497437553553
1070
     1
1040
36.9574691985834
1040
23.91497437553553
1040
36.88772323485606
1040
23.82616406173335
1070
     1
1040
36.88772323485606
1040
23.82616406173335
1040
36.82311268884266
1040
23.73346884292673
1070
     1
1040
36.82311268884266
1040
23.73346884292673
1040
36.76366857941348
1040
23.63737494458054
1070
     1
1040
36.76366857941348
1040
23.63737494458054
1040
36.66049084556013
1040
23.43648932775315
1070
     1
1040
36.66049084556013
1040
23.43648932775315
1040
36.61706050465457
1040
23.33229860733602
1070
     1
1040
36.61706050465457
1040
23.33229860733602
1040
36.57925710602354
1040
23.22594333946835
1070
     1
1040
36.57925710602354
1040
23.22594333946835
1040
36.54722159336241
1040
23.11767406956402
1070
     1
1040
36.54722159336241
1040
23.11767406956402
1040
36.52110405484771
1040
23.00779024093529
1070
     1
1040
36.52110405484771
1040
23.00779024093529
1040
36.50105148618125
1040
22.89661309273046
1070
     1
1040
36.50105148618125
1040
22.89661309273046
1040
36.48722313194486
1040
22.78451188804436
1070
     1
1040
36.48722313194486
1040
22.78451188804436
1040
36.47977823672034
1040
22.67185588997187
1070
     1
1040
36.47977823672034
1040
22.67185588997187
1040
36.47887604508949
1040
22.55901436160784
1070
     1
1040
36.47887604508949
1040
22.55901436160784
1040
36.48475774395981
1040
22.44607158248759
1070
     1
1040
36.48475774395981
1040
22.44607158248759
1040
36.50730298839907
1040
22.27824312562695
1070
     1
1040
36.50730298839907
1040
22.27824312562695
1040
36.53184176454268
1040
22.16836321870454
1070
     1
1040
36.53184176454268
1040
22.16836321870454
1040
36.58066141679664
1040
22.00635409419069
1070
     1
1040
36.58066141679664
1040
22.00635409419069
1040
36.66317612048025
1040
21.79605059028197
1070
     1
1040
36.66317612048025
1040
21.79605059028197
1040
36.73810157655724
1040
21.64424333087827
1070
     1
1040
36.73810157655724
1040
21.64424333087827
1040
36.82487619371594
1040
21.49928452588675
1070
     1
1040
36.82487619371594
1040
21.49928452588675
1040
36.90656479578137
1040
21.38422047002156
1070
     1
1040
36.90656479578137
1040
21.38422047002156
1040
36.99507455897878
1040
21.27411393911514
1070
     1
1040
36.99507455897878
1040
21.27411393911514
1040
37.06997592170736
1040
21.18923199261414
1070
     1
1040
37.06997592170736
1040
21.18923199261414
1040
37.19090624714094
1040
21.07040837833609
1070
     1
1040
37.19090624714094
1040
21.07040837833609
1040
37.27814005089745
1040
20.99937278063336
1070
     1
1040
37.27814005089745
1040
20.99937278063336
1040
37.41820717151092
1040
20.90511471530929
1070
     1
1040
37.41820717151092
1040
20.90511471530929
1040
37.54199232876573
1040
20.83675698136081
1070
     1
1040
37.54199232876573
1040
20.83675698136081
1040
37.66963145788086
1040
20.77567317677089
1070
     1
1040
37.66963145788086
1040
20.77567317677089
1040
37.8780081581552
1040
20.68845696528821
1070
     1
1040
37.8780081581552
1040
20.68845696528821
1040
38.1996064863776
1040
20.58288122875969
1070
     1
1040
38.1996064863776
1040
20.58288122875969
1040
38.41901473591617
1040
20.5313383877604
1070
     1
1040
38.41901473591617
1040
20.5313383877604
1040
38.75315260795133
1040
20.4778380326807
1070
     1
1040
38.75315260795133
1040
20.4778380326807
1040
39.03388002407347
1040
20.45024301554652
1070
     1
1040
39.03388002407347
1040
20.45024301554652
1040
39.3154824739789
1040
20.43816227630538
1070
     1
1040
39.3154824739789
1040
20.43816227630538
1040
39.87832438970059
1040
20.46163547548925
1070
     1
1040
39.87832438970059
1040
20.46163547548925
1040
40.15919163958635
1040
20.49446766611456
1070
     1
1040
40.15919163958635
1040
20.49446766611456
1040
40.43780417420945
1040
20.54223471097222
1070
     1
1040
40.43780417420945
1040
20.54223471097222
1040
40.71211753370237
1040
20.60834422386486
1070
     1
1040
40.71211753370237
1040
20.60834422386486
1040
40.97822189579761
1040
20.69993377525822
1070
     1
1040
40.97822189579761
1040
20.69993377525822
1040
41.23556355576588
1040
20.81532426148599
1070
     1
1040
41.23556355576588
1040
20.81532426148599
1040
41.36129896456578
1040
20.87918642113991
1070
     1
1040
41.36129896456578
1040
20.87918642113991
1040
41.48298030283661
1040
20.95024471011851
1070
     1
1040
41.48298030283661
1040
20.95024471011851
1040
41.57561849499816
1040
21.01478183487384
1070
     1
1040
41.57561849499816
1040
21.01478183487384
1040
41.64162067797335
1040
21.06789487373303
1070
     1
1040
41.64162067797335
1040
21.06789487373303
1040
41.70417597333143
1040
21.12494680466518
1070
     1
1040
41.70417597333143
1040
21.12494680466518
1040
41.7817101714212
1040
21.20681530143447
1070
     1
1040
41.7817101714212
1040
21.20681530143447
1040
41.88612496759311
1040
21.3400893433574
1070
     1
1040
41.88612496759311
1040
21.3400893433574
1040
41.94806769779654
1040
21.43459300621544
1070
     1
1040
41.94806769779654
1040
21.43459300621544
1040
41.98954620943113
1040
21.50838618886258
1070
     1
1040
41.98954620943113
1040
21.50838618886258
1040
42.02581025553314
1040
21.58482751880403
1070
     1
1040
42.02581025553314
1040
21.58482751880403
1040
42.06495311335439
1040
21.69080606664596
1070
     1
1040
42.06495311335439
1040
21.69080606664596
1040
42.08734956124508
1040
21.7725999887287
1070
     1
1040
42.08734956124508
1040
21.7725999887287
1040
42.10387297621249
1040
21.85564360711669
1070
     1
1040
42.1038729762125
1040
21.85564360711669
1040
40.3430229762125
1040
21.85564360711669
1070
     1
1040
40.3430229762125
1040
21.85564360711669
1040
40.23476024848425
1040
21.77513923010117
1070
     1
1040
40.23476024848425
1040
21.77513923010117
1040
40.14934213166021
1040
21.72065519582548
1070
     1
1040
40.14934213166021
1040
21.72065519582548
1040
40.06077578326683
1040
21.67143258943228
1070
     1
1040
40.06077578326683
1040
21.67143258943228
1040
39.9847582806153
1040
21.63477293281268
1070
     1
1040
39.9847582806153
1040
21.63477293281268
1040
39.90657573481703
1040
21.60330661466393
1070
     1
1040
39.90657573481703
1040
21.60330661466393
1040
39.84227684043671
1040
21.58263477145073
1070
     1
1040
39.84227684043671
1040
21.58263477145073
1040
39.74365139903882
1040
21.55908759838492
1070
     1
1040
39.74365139903882
1040
21.55908759838492
1040
39.60933694828439
1040
21.54053645709474
1070
     1
1040
39.60933694828439
1040
21.54053645709474
1040
39.50763922715866
1040
21.53565640431556
1070
     1
1040
39.50763922715866
1040
21.53565640431556
1040
39.40580907592665
1040
21.53798084006903
1070
     1
1040
39.40580907592665
1040
21.53798084006903
1040
39.27139248316182
1040
21.55149592366054
1070
     1
1040
39.27139248316182
1040
21.55149592366054
1040
39.17168098959246
1040
21.56918758966989
1070
     1
1040
39.17168098959246
1040
21.56918758966989
1040
39.07332908880515
1040
21.59318639542836
1070
     1
1040
39.07332908880515
1040
21.59318639542836
1040
38.94488412919865
1040
21.63503670912596
1070
     1
1040
38.94488412919865
1040
21.63503670912596
1040
38.85139509395393
1040
21.67430102476285
1070
     1
1040
38.85139509395393
1040
21.67430102476285
1040
38.76098099155707
1040
21.72084551731241
1070
     1
1040
38.76098099155707
1040
21.72084551731241
1040
38.70284010572697
1040
21.75613985649101
1070
     1
1040
38.70284010572697
1040
21.75613985649101
1040
38.64707685719372
1040
21.79510415864196
1070
     1
1040
38.64707685719372
1040
21.79510415864196
1040
38.59445017225021
1040
21.83796670614767
1070
     1
1040
38.59445017225021
1040
21.83796670614767
1040
38.54571897718932
1040
21.88495578139061
1070
     1
1040
38.54571897718932
1040
21.88495578139061
1040
38.50164219830395
1040
21.93629966675315
1070
     1
1040
38.50164219830395
1040
21.93629966675315
1040
38.46287701718852
1040
21.99205035339784
1070
     1
1040
38.46287701718852
1040
21.99205035339784
1040
38.42966872450979
1040
22.05156201261892
1070
     1
1040
38.42966872450979
1040
22.05156201261892
1040
38.40216110017965
1040
22.11401272255397
1070
     1
1040
38.40216110017965
1040
22.11401272255397
1040
38.38049792410992
1040
22.17858056134068
1070
     1
1040
38.38049792410992
1040
22.17858056134068
1040
38.36482297621251
1040
22.24444360711671
1070
     1
1040
38.3648229762125
1040
22.24444360711669
1040
39.0510729762125
1040
22.24444360711669
1070
     1
1040
38.3648229762125
1040
23.07919360711669
1040
39.1541229762125
1040
23.07919360711669
1070
     1
1040
39.1541229762125
1040
23.07919360711669
1040
40.3430229762125
1040
23.07919360711669
1070
     1
1040
40.3430229762125
1040
23.07919360711669
1040
40.33909926301454
1040
23.11641599550353
1070
     1
1040
40.33909926301454
1040
23.11641599550353
1040
40.33300155668256
1040
23.15343121688127
1070
     1
1040
40.33300155668256
1040
23.15343121688127
1040
40.32469189133606
1040
23.19004875052245
1070
     1
1040
40.32469189133606
1040
23.19004875052245
1040
40.31413230109458
1040
23.22607807569952
1070
     1
1040
40.31413230109458
1040
23.22607807569952
1040
40.30128482007762
1040
23.26132867168497
1070
     1
1040
40.30128482007762
1040
23.26132867168497
1040
40.2861562754215
1040
23.29560552113762
1070
     1
1040
40.2861562754215
1040
23.29560552113762
1040
40.26886416528138
1040
23.32884602666271
1070
     1
1040
40.26886416528138
1040
23.32884602666271
1040
40.24956736768168
1040
23.36098167189717
1070
     1
1040
40.24956736768168
1040
23.36098167189717
1040
40.22842476064687
1040
23.39194394047795
1070
     1
1040
40.22842476064687
1040
23.39194394047795
1040
40.20559522220136
1040
23.42166431604199
1070
     1
1040
40.20559522220136
1040
23.42166431604199
1040
40.15515801785679
1040
23.47753406525592
1070
     1
1040
40.15515801785679
1040
23.47753406525592
1040
40.11388839399304
1040
23.51605862117359
1070
     1
1040
40.11388839399304
1040
23.51605862117359
1040
40.07014905358668
1040
23.55176773224803
1070
     1
1040
40.07014905358668
1040
23.55176773224803
1040
40.00889746141838
1040
23.59493589176599
1070
     1
1040
40.00889746141838
1040
23.59493589176599
1040
39.96089441895125
1040
23.62414416847377
1070
     1
1040
39.96089441895125
1040
23.62414416847377
1040
39.91135088271828
1040
23.6506431736504
1070
     1
1040
39.91135088271828
1040
23.6506431736504
1040
39.84321277515286
1040
23.6818016613351
1070
     1
1040
39.84321277515286
1040
23.6818016613351
1040
39.7374628559249
1040
23.71981068462436
1070
     1
1040
39.7374628559249
1040
23.71981068462436
1040
39.66503365624778
1040
23.73954552020273
1070
     1
1040
39.66503365624778
1040
23.73954552020273
1040
39.55447534379333
1040
23.76080659501808
1070
     1
1040
39.55447534379333
1040
23.76080659501808
1040
39.47958224634176
1040
23.76953429507831
1070
     1
1040
39.47958224634176
1040
23.76953429507831
1040
39.36667772831406
1040
23.77477007425147
1070
     1
1040
39.36667772831406
1040
23.77477007425147
1040
39.29122949187705
1040
23.77322624991531
1070
     1
1040
39.29122949187705
1040
23.77322624991531
1040
39.17824365086322
1040
23.76280187157366
1070
     1
1040
39.17824365086322
1040
23.76280187157366
1040
39.10438801088995
1040
23.74982437023361
1070
     1
1040
39.10438801088995
1040
23.74982437023361
1040
39.06808459709384
1040
23.74084703659711
1070
     1
1040
39.06808459709384
1040
23.74084703659711
1040
39.03251357680947
1040
23.72981136235449
1070
     1
1040
39.03251357680947
1040
23.72981136235449
1040
38.99791204207538
1040
23.71641788353441
1070
     1
1040
38.99791204207538
1040
23.71641788353441
1040
38.96434370672354
1040
23.70050789086009
1070
     1
1040
38.96434370672354
1040
23.70050789086009
1040
38.83484335052719
1040
23.62568105970969
1070
     1
1040
38.83484335052719
1040
23.62568105970969
1040
38.6715939776077
1040
23.53558123947115
1070
     1
1040
38.6715939776077
1040
23.53558123947115
1040
38.64097585888165
1040
23.51416025014972
1070
     1
1040
38.64097585888165
1040
23.51416025014972
1040
38.61162458828315
1040
23.49088000691659
1070
     1
1040
38.61162458828315
1040
23.49088000691659
1040
38.5835911062816
1040
23.4659111349842
1070
     1
1040
38.5835911062816
1040
23.4659111349842
1040
38.53168126994678
1040
23.41159000587155
1070
     1
1040
38.53168126994678
1040
23.41159000587155
1040
38.48534058579902
1040
23.35202538560785
1070
     1
1040
38.48534058579902
1040
23.35202538560785
1040
38.45462052922736
1040
23.30455107675152
1070
     1
1040
38.45462052922736
1040
23.30455107675152
1040
38.42745670868595
1040
23.25493190905037
1070
     1
1040
38.42745670868595
1040
23.25493190905037
1040
38.39720008793944
1040
23.18647261641375
1070
     1
1040
38.39720008793944
1040
23.18647261641375
1040
38.37898034260687
1040
23.13339531126972
1070
     1
1040
38.37898034260687
1040
23.13339531126972
1040
38.36482297621251
1040
23.0791936071167
1071
        0
1070
     0
1070
     1
1040
0.0
1040
0.062992
1070
     0
1070
     1
1040
0.7853981633974483
1040
-6.22517
1040
-28.624349
1040
-0.1414213583446519
1040
0.1414213583446519
1070
     0
1071
        1
1040
-6.22517
1040
-28.624349
1040
0.0
1002
}
  0
INSERT
  5
8F
330
A
100
AcDbEntity
  8
CARTOUCHE
  6
CONTINUOUS
 62
     4
100
AcDbBlockReference
  2
*X25
 10
0.0
 20
0.0
 30
0.0
1001
ACAD
1000
HATCH
1002
{
1070
    19
1000
ANSI31
1040
0.062992
1040
0.0
1000
R14_HATCH_DATA
1000
8F
1011
1.0
1021
0.0
1031
0.0
1011
0.0
1021
1.0
1031
0.0
1011
0.0
1021
0.0
1031
1.0
1040
0.0
1010
0.0
1020
0.0
1030
1.0
1000
ANSI31
1070
     0
1070
     0
1071
        1
1071
        1
1071
       78
1070
     1
1040
42.7329729762125
1040
24.50839360711669
1040
42.7329729762125
1040
20.63209360711669
1070
     1
1040
42.73297297621249
1040
20.63209360711669
1040
44.45962297621249
1040
20.63209360711669
1070
     1
1040
44.45962297621249
1040
20.63209360711669
1040
44.45962297621249
1040
22.7821936071167
1070
     1
1040
44.45962297621249
1040
22.7821936071167
1040
44.46348794510234
1040
22.8255625145897
1070
     1
1040
44.46348794510234
1040
22.8255625145897
1040
44.47094556156601
1040
22.86858609211488
1070
     1
1040
44.47094556156601
1040
22.86858609211488
1040
44.48187912731205
1040
22.91099091841204
1070
     1
1040
44.48187912731205
1040
22.91099091841204
1040
44.49617194404904
1040
22.95250357220095
1070
     1
1040
44.49617194404904
1040
22.95250357220095
1040
44.51370731348553
1040
22.99285063220139
1070
     1
1040
44.51370731348553
1040
22.99285063220139
1040
44.53438626348421
1040
23.0317545945469
1070
     1
1040
44.53438626348421
1040
23.0317545945469
1040
44.55812166299893
1040
23.06881377931527
1070
     1
1040
44.55812166299893
1040
23.06881377931527
1040
44.58484120386311
1040
23.10362376054641
1070
     1
1040
44.58484120386311
1040
23.10362376054641
1040
44.61447257791014
1040
23.13578011228038
1070
     1
1040
44.61447257791014
1040
23.13578011228038
1040
44.64694347697346
1040
23.1648784085571
1070
     1
1040
44.64694347697346
1040
23.1648784085571
1040
44.68210883840074
1040
23.19058719493143
1070
     1
1040
44.68210883840074
1040
23.19058719493143
1040
44.71962636284679
1040
23.21293288857709
1070
     1
1040
44.71962636284679
1040
23.21293288857709
1040
44.75908341829764
1040
23.23201184788313
1070
     1
1040
44.75908341829764
1040
23.23201184788313
1040
44.80006737273921
1040
23.24792043123857
1070
     1
1040
44.80006737273921
1040
23.24792043123857
1040
44.84216559415751
1040
23.26075499703252
1070
     1
1040
44.84216559415751
1040
23.26075499703252
1040
44.88545455273231
1040
23.270655442047
1070
     1
1040
44.88545455273231
1040
23.270655442047
1040
44.92924123868192
1040
23.2773439388539
1070
     1
1040
44.92924123868192
1040
23.2773439388539
1040
44.97330683573443
1040
23.28064946918181
1070
     1
1040
44.97330683573443
1040
23.28064946918181
1040
45.01743252761782
1040
23.28040101475933
1070
     1
1040
45.01743252761782
1040
23.28040101475933
1040
45.06139949806012
1040
23.27642755731508
1070
     1
1040
45.06139949806012
1040
23.27642755731508
1040
45.10431902475496
1040
23.26873571333316
1070
     1
1040
45.10431902475496
1040
23.26873571333316
1040
45.14647148487028
1040
23.2572942532064
1070
     1
1040
45.14647148487028
1040
23.2572942532064
1040
45.1874563135664
1040
23.24213569574835
1070
     1
1040
45.1874563135664
1040
23.24213569574835
1040
45.22687294600372
1040
23.22329255977249
1070
     1
1040
45.22687294600372
1040
23.22329255977249
1040
45.26432081734258
1040
23.20079736409236
1070
     1
1040
45.26432081734258
1040
23.20079736409236
1040
45.29950399260581
1040
23.17464234545267
1070
     1
1040
45.29950399260581
1040
23.17464234545267
1040
45.3319466893692
1040
23.14511885198865
1070
     1
1040
45.3319466893692
1040
23.14511885198865
1040
45.36129137460258
1040
23.11249875587486
1070
     1
1040
45.36129137460258
1040
23.11249875587486
1040
45.38718051527586
1040
23.07705392928583
1070
     1
1040
45.38718051527586
1040
23.07705392928583
1040
45.40925657835891
1040
23.03905624439609
1070
     1
1040
45.40925657835891
1040
23.03905624439609
1040
45.42712855451241
1040
22.99901140429402
1070
     1
1040
45.42712855451241
1040
22.99901140429402
1040
45.44073151771931
1040
22.95727674897495
1070
     1
1040
45.44073151771931
1040
22.95727674897495
1040
45.44993013263485
1040
22.91442324997896
1070
     1
1040
45.44993013263485
1040
22.91442324997896
1040
45.45458906391417
1040
22.87102187884616
1070
     1
1040
45.45458906391417
1040
22.87102187884616
1040
45.45517385589502
1040
22.84929416983477
1070
     1
1040
45.45517385589502
1040
22.84929416983477
1040
45.4545729762125
1040
22.8276436071167
1070
     1
1040
45.4545729762125
1040
22.82764360711668
1040
45.4545729762125
1040
22.58779360711669
1070
     1
1040
45.4545729762125
1040
22.58779360711669
1040
47.28382297621251
1040
22.58779360711669
1070
     1
1040
47.28382297621251
1040
22.58779360711669
1040
47.3004804936556
1040
22.74190106131424
1070
     1
1040
47.3004804936556
1040
22.74190106131424
1040
47.3080338234398
1040
22.8967638790771
1070
     1
1040
47.3080338234398
1040
22.8967638790771
1040
47.30622287525522
1040
23.05192121819743
1070
     1
1040
47.30622287525522
1040
23.05192121819743
1040
47.29564801913904
1040
23.20671600883972
1070
     1
1040
47.29564801913904
1040
23.20671600883972
1040
47.27690756459471
1040
23.36097203168621
1070
     1
1040
47.27690756459471
1040
23.36097203168621
1040
47.24989999164073
1040
23.51409730955235
1070
     1
1040
47.24989999164073
1040
23.51409730955235
1040
47.22187384806168
1040
23.63507228911501
1070
     1
1040
47.22187384806168
1040
23.63507228911501
1040
47.19591979102985
1040
23.72444452731119
1070
     1
1040
47.19591979102985
1040
23.72444452731119
1040
47.16468005782961
1040
23.81204898160464
1070
     1
1040
47.16468005782961
1040
23.81204898160464
1040
47.11349871924234
1040
23.92524957107785
1070
     1
1040
47.11349871924234
1040
23.92524957107785
1040
47.06786670375861
1040
24.00661487989895
1070
     1
1040
47.06786670375861
1040
24.00661487989895
1040
47.01605698726017
1040
24.08429955967585
1070
     1
1040
47.01605698726017
1040
24.08429955967585
1040
46.97801762216911
1040
24.13384773491677
1070
     1
1040
46.97801762216911
1040
24.13384773491677
1040
46.93728662108015
1040
24.18120785118272
1070
     1
1040
46.93728662108015
1040
24.18120785118272
1040
46.89391719550556
1040
24.22609654300447
1070
     1
1040
46.89391719550556
1040
24.22609654300447
1040
46.84796255695764
1040
24.26823044491285
1070
     1
1040
46.84796255695764
1040
24.26823044491285
1040
46.79947591694869
1040
24.30732619143858
1070
     1
1040
46.79947591694869
1040
24.30732619143858
1040
46.7488465724848
1040
24.34298114654168
1070
     1
1040
46.7488465724848
1040
24.34298114654168
1040
46.69608724688365
1040
24.37549699186584
1070
     1
1040
46.69608724688365
1040
24.37549699186584
1040
46.61365719684794
1040
24.41870306383236
1070
     1
1040
46.61365719684794
1040
24.41870306383236
1040
46.52824151124928
1040
24.45566419975128
1070
     1
1040
46.52824151124928
1040
24.45566419975128
1040
46.41028459037802
1040
24.49653361183229
1070
     1
1040
46.41028459037802
1040
24.49653361183229
1040
46.22887996193932
1040
24.5428722112578
1070
     1
1040
46.22887996193932
1040
24.5428722112578
1040
46.10697132102439
1040
24.56607477690471
1070
     1
1040
46.10697132102439
1040
24.56607477690471
1040
45.92238599753447
1040
24.58782115591738
1070
     1
1040
45.92238599753447
1040
24.58782115591738
1040
45.79850421157131
1040
24.59181565822406
1070
     1
1040
45.79850421157131
1040
24.59181565822406
1040
45.61256799206709
1040
24.58370341795764
1070
     1
1040
45.61256799206709
1040
24.58370341795764
1040
45.45792565313361
1040
24.56627398792206
1070
     1
1040
45.45792565313361
1040
24.56627398792206
1040
45.3047164351297
1040
24.53948194901727
1070
     1
1040
45.3047164351297
1040
24.53948194901727
1040
45.18380461446541
1040
24.5111348336182
1070
     1
1040
45.18380461446541
1040
24.5111348336182
1040
45.00579935951135
1040
24.45603046599671
1070
     1
1040
45.00579935951135
1040
24.45603046599671
1040
44.89043442943742
1040
24.4105183218836
1070
     1
1040
44.89043442943742
1040
24.4105183218836
1040
44.77781671686114
1040
24.3581981890036
1070
     1
1040
44.77781671686114
1040
24.3581981890036
1040
44.66826383099194
1040
24.29958044229217
1070
     1
1040
44.66826383099194
1040
24.29958044229217
1040
44.45962297621249
1040
24.16549360711669
1070
     1
1040
44.45962297621249
1040
24.16549360711669
1040
44.45962297621249
1040
24.50839360711669
1070
     1
1040
44.45962297621249
1040
24.50839360711669
1040
42.7329729762125
1040
24.50839360711669
1071
        0
1070
     0
1070
     1
1040
0.0
1040
0.062992
1070
     0
1070
     1
1040
0.7853981633974483
1040
-6.22517
1040
-28.624349
1040
-0.1414213583446519
1040
0.1414213583446519
1070
     0
1071
        1
1040
-6.22517
1040
-28.624349
1040
0.0
1002
}
  0
LINE
  5
90
330
A
100
AcDbEntity
  8
CARTOUCHE
  6
CONTINUOUS
 62
     7
100
AcDbLine
 10
205.0000369999999
 20
36.84515599999999
 30
0.0
 11
5.0
 21
36.84546199999999
 31
0.0
  0
LINE
  5
91
330
A
100
AcDbEntity
  8
CARTOUCHE
  6
CONTINUOUS
 62
     7
100
AcDbLine
 10
153.3333296666666
 20
20.002887
 30
0.0
 11
153.3333296666666
 21
10.000945
 31
0.0
  0
TEXT
  5
94
330
A
100
AcDbEntity
  8
CARTOUCHE
  6
CONTINUOUS
 62
     2
100
AcDbText
 10
16.19094183698592
 20
14.30878215898842
 30
0.0
 40
1.8
  1
www.findernet.com
 50
359.9999079999999
 41
1.05
  7
FINDER
 72
     1
 11
27.5000005
 21
14.30876399999999
 31
0.0
100
AcDbText
  0
POLYLINE
  5
9B
330
A
100
AcDbEntity
  8
CARTOUCHE
  6
CONTINUOUS
 62
     7
100
AcDb2dPolyline
 66
     1
 10
0.0
 20
0.0
 30
0.0
 70
   129
  0
VERTEX
  5
3441
330
9B
100
AcDbEntity
  8
CARTOUCHE
  6
CONTINUOUS
 62
     7
100
AcDbVertex
100
AcDb2dVertex
 10
205.0000369999999
 20
292.0001829999999
 30
0.0
  0
VERTEX
  5
3442
330
9B
100
AcDbEntity
  8
CARTOUCHE
  6
CONTINUOUS
 62
     7
100
AcDbVertex
100
AcDb2dVertex
 10
205.0000369999999
 20
5.000182999999999
 30
0.0
  0
VERTEX
  5
3443
330
9B
100
AcDbEntity
  8
CARTOUCHE
  6
CONTINUOUS
 62
     7
100
AcDbVertex
100
AcDb2dVertex
 10
5.0
 20
5.0
 30
0.0
  0
VERTEX
  5
3444
330
9B
100
AcDbEntity
  8
CARTOUCHE
  6
CONTINUOUS
 62
     7
100
AcDbVertex
100
AcDb2dVertex
 10
5.0
 20
292.0
 30
0.0
  0
VERTEX
  5
3445
330
9B
100
AcDbEntity
  8
CARTOUCHE
  6
CONTINUOUS
 62
     7
100
AcDbVertex
100
AcDb2dVertex
 10
204.999774
 20
292.0001829999999
 30
0.0
  0
SEQEND
  5
3446
330
9B
100
AcDbEntity
  8
CARTOUCHE
  6
CONTINUOUS
 62
     7
  0
TEXT
  5
AA
330
A
100
AcDbEntity
  8
CARTOUCHE
  6
CONTINUOUS
 62
     7
100
AcDbText
 10
124.9195672230592
 20
16.62422614341349
 30
0.0
 40
1.8
  1
DATE
 50
359.9999079999999
 41
0.8
  7
FINDER
 72
     1
 11
127.4999765
 21
16.6242220000428
 31
0.0
100
AcDbText
  0
TEXT
  5
AB
330
A
100
AcDbEntity
  8
CARTOUCHE
  6
CONTINUOUS
 62
     1
100
AcDbText
 10
121.6268523526678
 20
11.77620843053535
 30
0.0
 40
2.1
  1
26/01/2004
 50
359.9999079999999
 41
0.8
  7
FINDER
 72
     1
 11
127.4999765
 21
11.7761990000428
 31
0.0
100
AcDbText
  0
TEXT
  5
AC
330
A
100
AcDbEntity
  8
CARTOUCHE
  6
CONTINUOUS
 62
     7
100
AcDbText
 10
175.8770504677168
 20
16.62414828217011
 30
0.0
 40
1.8
  1
SCALE
 50
359.9999079999999
 41
0.8
  7
FINDER
 72
     1
 11
179.1666548333333
 21
16.6241430000428
 31
0.0
100
AcDbText
  0
TEXT
  5
AD
330
A
100
AcDbEntity
  8
CARTOUCHE
  6
CONTINUOUS
 62
     1
100
AcDbText
 10
177.6230259110979
 20
11.77612247865226
 30
0.0
 40
2.1
  1
1:1
 50
359.9999079999999
 41
0.8
  7
FINDER
 72
     1
 11
179.1666548333333
 21
11.7761200000428
 31
0.0
100
AcDbText
  0
TEXT
  5
AE
330
A
100
AcDbEntity
  8
CARTOUCHE
  6
CONTINUOUS
 62
     1
100
AcDbText
 10
123.77065898568
 20
22.43595998819847
 30
0.0
 40
3.0
  1
8061
 50
359.9999079999999
 41
0.8
  7
FINDER
 72
     1
 11
127.4999904999999
 21
22.435954
 31
0.0
100
AcDbText
  0
DIMENSION
  5
2E5B
330
A
100
AcDbEntity
  8
DIM
  6
CONTINUOUS
100
AcDbDimension
  2
*D14
 10
115.8061342495957
 20
144.7262963545884
 30
0.0
 11
114.2657863641932
 21
167.2262984772581
 31
0.0
 70
    32
  3
FINDER
100
AcDbAlignedDimension
 13
98.05133664641722
 23
189.7263005999278
 33
0.0
 14
97.43284626234938
 24
144.7262963545884
 34
0.0
 50
90.0
100
AcDbRotatedDimension
  0
LINE
  5
2E5C
330
A
100
AcDbEntity
  8
DRAW
  6
CONTINUOUS
100
AcDbLine
 10
35.07017527360494
 20
149.2263001529448
 30
0.0
 11
35.07017533476296
 21
142.5728110381885
 31
0.0
  0
LINE
  5
2E5D
330
A
100
AcDbEntity
  8
DRAW
  6
CONTINUOUS
100
AcDbLine
 10
34.87017320093966
 20
141.1262960045181
 30
0.0
 11
34.87017327952351
 21
149.5811417553684
 31
0.0
  0
LINE
  5
2E5E
330
A
100
AcDbEntity
  8
DRAW
  6
CONTINUOUS
100
AcDbLine
 10
95.87017394659417
 20
145.7262962895266
 30
0.0
 11
95.87017406974677
 21
158.9762941640356
 31
0.0
  0
LINE
  5
2E5F
330
A
100
AcDbEntity
  8
DRAW
  6
CONTINUOUS
100
AcDbLine
 10
41.37017455317903
 20
187.7263039288339
 30
0.0
 11
41.37017483238508
 21
146.7262967960786
 31
0.0
  0
LINE
  5
2E60
330
A
100
AcDbEntity
  8
DRAW
  6
CONTINUOUS
100
AcDbLine
 10
93.87017396550442
 20
187.7263023545518
 30
0.0
 11
93.87017358442845
 21
146.7262963081153
 31
0.0
  0
LINE
  5
2E61
330
A
100
AcDbEntity
  8
DRAW
  6
CONTINUOUS
100
AcDbLine
 10
37.07017566839608
 20
138.2262968360453
 30
0.0
 11
60.37017388689791
 21
138.2262966194825
 31
0.0
  0
LINE
  5
2E62
330
A
100
AcDbEntity
  8
DRAW
  6
CONTINUOUS
100
AcDbLine
 10
65.87017387426605
 20
136.2262965683623
 30
0.0
 11
37.07017568201589
 21
136.2262968360449
 31
0.0
  0
LINE
  5
2E63
330
A
100
AcDbEntity
  8
DRAW
  6
CONTINUOUS
100
AcDbLine
 10
39.77017321365837
 20
122.2214814420705
 30
0.0
 11
37.77016666734293
 21
122.3262973489893
 31
0.0
  0
LINE
  5
2E64
330
A
100
AcDbEntity
  8
DRAW
  6
CONTINUOUS
100
AcDbLine
 10
37.97017378465512
 20
127.2262960775713
 30
0.0
 11
65.87017379061528
 21
127.2262992820562
 31
0.0
  0
LINE
  5
2E65
330
A
100
AcDbEntity
  8
DRAW
  6
CONTINUOUS
100
AcDbLine
 10
64.37017376201673
 20
125.2262965823044
 30
0.0
 11
39.37017546462186
 21
125.2262931631692
 31
0.0
  0
LINE
  5
2E66
330
A
100
AcDbEntity
  8
DRAW
  6
CONTINUOUS
100
AcDbLine
 10
82.87017356583941
 20
144.7262964103553
 30
0.0
 11
37.07017562413172
 21
144.7262968360449
 31
0.0
  0
LINE
  5
2E67
330
A
100
AcDbEntity
  8
DRAW
  6
CONTINUOUS
100
AcDbLine
 10
34.87017302620242
 20
122.3262981388828
 30
0.0
 11
34.87017317491496
 21
138.3262958272023
 31
0.0
  0
LINE
  5
2E68
330
A
100
AcDbEntity
  8
DRAW
  6
CONTINUOUS
100
AcDbLine
 10
35.07017569704606
 20
121.7262945631402
 30
0.0
 11
37.77017645998552
 21
121.7262947294664
 31
0.0
  0
LINE
  5
2E69
330
A
100
AcDbEntity
  8
DRAW
  6
CONTINUOUS
100
AcDbLine
 10
34.87017302620242
 20
122.3262981388828
 30
0.0
 11
37.77016666734294
 21
122.3262981119287
 31
0.0
  0
LINE
  5
2E6A
330
A
100
AcDbEntity
  8
DRAW
  6
CONTINUOUS
100
AcDbLine
 10
35.07017570262281
 20
122.3262981269397
 30
0.0
 11
35.07017569704606
 21
121.7262945631402
 31
0.0
  0
LINE
  5
2E6B
330
A
100
AcDbEntity
  8
DRAW
  6
CONTINUOUS
100
AcDbLine
 10
37.77017645998552
 20
121.7262947294664
 30
0.0
 11
37.77017646556225
 21
122.3262973489892
 31
0.0
  0
LINE
  5
2E6C
330
A
100
AcDbEntity
  8
DRAW
  6
CONTINUOUS
100
AcDbLine
 10
37.07017568201588
 20
136.2262968360449
 30
0.0
 11
37.07017573649512
 21
128.2262930583204
 31
0.0
  0
LINE
  5
2E6D
330
A
100
AcDbEntity
  8
DRAW
  6
CONTINUOUS
100
AcDbLine
 10
35.07017535308253
 20
140.5797919213413
 30
0.0
 11
35.07017546663433
 21
128.2262930399371
 31
0.0
  0
LINE
  5
2E6E
330
A
100
AcDbEntity
  8
DRAW
  6
CONTINUOUS
100
AcDbLine
 10
35.07017546663433
 20
128.2262930399371
 30
0.0
 11
37.07017572648569
 21
128.2262930583209
 31
0.0
  0
LINE
  5
2E6F
330
A
100
AcDbEntity
  8
DRAW
  6
CONTINUOUS
100
AcDbLine
 10
37.07017573649512
 20
128.2262930583204
 30
0.0
 11
37.97017379394963
 21
128.2262930665932
 31
0.0
  0
LINE
  5
2E70
330
A
100
AcDbEntity
  8
DRAW
  6
CONTINUOUS
100
AcDbLine
 10
37.97017346864248
 20
128.226293012993
 30
0.0
 11
37.77017299702576
 21
128.1228446769842
 31
0.0
  0
LINE
  5
2E71
330
A
100
AcDbEntity
  8
DRAW
  6
CONTINUOUS
100
AcDbLine
 10
37.97017379394963
 20
128.2262930924742
 30
0.0
 11
37.97017378465512
 21
127.2262960775713
 31
0.0
  0
LINE
  5
2E72
330
A
100
AcDbEntity
  8
DRAW
  6
CONTINUOUS
100
AcDbLine
 10
37.97017376999842
 20
126.726296827681
 30
0.0
 11
37.97017377464568
 21
127.2262960775716
 31
0.0
  0
LINE
  5
2E73
330
A
100
AcDbEntity
  8
DRAW
  6
CONTINUOUS
100
AcDbLine
 10
39.37017376999843
 20
126.7262968146686
 30
0.0
 11
37.97017376999842
 21
126.726296827681
 31
0.0
  0
LINE
  5
2E74
330
A
100
AcDbEntity
  8
DRAW
  6
CONTINUOUS
100
AcDbLine
 10
37.77017305315655
 20
125.2262964821522
 30
0.0
 11
39.37017527229298
 21
125.2262964672809
 31
0.0
  0
LINE
  5
2E75
330
A
100
AcDbEntity
  8
DRAW
  6
CONTINUOUS
100
AcDbLine
 10
39.37017546462186
 20
125.2262931631692
 30
0.0
 11
39.37017376999843
 21
126.7262968146686
 31
0.0
  0
LINE
  5
2E76
330
A
100
AcDbEntity
  8
DRAW
  6
CONTINUOUS
100
AcDbLine
 10
37.77017305315655
 20
125.2262964821522
 30
0.0
 11
37.77017308104012
 21
128.2262930647548
 31
0.0
  0
LINE
  5
2E77
330
A
100
AcDbEntity
  8
DRAW
  6
CONTINUOUS
100
AcDbLine
 10
37.77017370138358
 20
142.4977542771367
 30
0.0
 11
35.07017512024971
 21
142.4977542444655
 31
0.0
  0
LINE
  5
2E78
330
A
100
AcDbEntity
  8
DRAW
  6
CONTINUOUS
100
AcDbLine
 10
35.07017533476297
 20
142.5728110381885
 30
0.0
 11
37.0701756287873
 21
142.5728095288176
 31
0.0
  0
LINE
  5
2E79
330
A
100
AcDbEntity
  8
DRAW
  6
CONTINUOUS
100
AcDbLine
 10
35.07017515421047
 20
140.6489311516345
 30
0.0
 11
37.77017370116627
 21
140.6489311762995
 31
0.0
  0
LINE
  5
2E7A
330
A
100
AcDbEntity
  8
DRAW
  6
CONTINUOUS
100
AcDbLine
 10
35.07017535308253
 20
140.5797919213413
 30
0.0
 11
37.07017564235955
 21
140.579791939725
 31
0.0
  0
LINE
  5
2E7B
330
A
100
AcDbEntity
  8
DRAW
  6
CONTINUOUS
100
AcDbLine
 10
34.87016738495854
 20
140.8262959733057
 30
0.0
 11
37.77016738495622
 21
140.8262959463513
 31
0.0
  0
LINE
  5
2E7C
330
A
100
AcDbEntity
  8
DRAW
  6
CONTINUOUS
100
AcDbLine
 10
34.8701677665317
 20
141.1262960045181
 30
0.0
 11
37.77016776652939
 21
141.1262959775636
 31
0.0
  0
LINE
  5
2E7D
330
A
100
AcDbEntity
  8
DRAW
  6
CONTINUOUS
100
AcDbLine
 10
35.07017535308253
 20
140.5797919213413
 30
0.0
 11
35.07017515421047
 21
140.6489311516345
 31
0.0
  0
LINE
  5
2E7E
330
A
100
AcDbEntity
  8
DRAW
  6
CONTINUOUS
100
AcDbLine
 10
34.87016774050738
 20
138.3262958272023
 30
0.0
 11
34.87016738495854
 21
140.8262959733057
 31
0.0
  0
LINE
  5
2E7F
330
A
100
AcDbEntity
  8
DRAW
  6
CONTINUOUS
100
AcDbLine
 10
34.87016774050738
 20
138.3262958272023
 30
0.0
 11
35.07017518146744
 21
138.3262958253433
 31
0.0
  0
LINE
  5
2E80
330
A
100
AcDbEntity
  8
DRAW
  6
CONTINUOUS
100
AcDbLine
 10
34.87016776374354
 20
140.8262959733056
 30
0.0
 11
34.87016776653187
 21
141.1262960045181
 31
0.0
  0
LINE
  5
2E81
330
A
100
AcDbEntity
  8
DRAW
  6
CONTINUOUS
100
AcDbLine
 10
35.07017512024971
 20
142.4977542444655
 30
0.0
 11
35.07017533476297
 21
142.5728110381885
 31
0.0
  0
LINE
  5
2E82
330
A
100
AcDbEntity
  8
DRAW
  6
CONTINUOUS
100
AcDbLine
 10
39.37017534474038
 20
142.5763021088656
 30
0.0
 11
39.37017536312414
 21
140.5763009339004
 31
0.0
  0
LINE
  5
2E83
330
A
100
AcDbEntity
  8
DRAW
  6
CONTINUOUS
100
AcDbLine
 10
37.77017320093965
 20
141.1262959775636
 30
0.0
 11
37.77017321368669
 21
142.4977527346334
 31
0.0
  0
LINE
  5
2E84
330
A
100
AcDbEntity
  8
DRAW
  6
CONTINUOUS
100
AcDbLine
 10
37.07017565239287
 20
140.5763009127591
 30
0.0
 11
39.37017536312413
 21
140.5763009339004
 31
0.0
  0
LINE
  5
2E85
330
A
100
AcDbEntity
  8
DRAW
  6
CONTINUOUS
100
AcDbLine
 10
37.07017565239279
 20
140.5763009127591
 30
0.0
 11
37.07017566839608
 21
138.2262968360453
 31
0.0
  0
LINE
  5
2E86
330
A
100
AcDbEntity
  8
DRAW
  6
CONTINUOUS
100
AcDbLine
 10
37.07017565239279
 20
140.5763009127591
 30
0.0
 11
37.07017564235957
 21
140.579791939725
 31
0.0
  0
LINE
  5
2E87
330
A
100
AcDbEntity
  8
DRAW
  6
CONTINUOUS
100
AcDbLine
 10
37.77016741018095
 20
140.6489311762986
 30
0.0
 11
37.77016738495622
 21
140.8262959463513
 31
0.0
  0
LINE
  5
2E88
330
A
100
AcDbEntity
  8
DRAW
  6
CONTINUOUS
100
AcDbLine
 10
37.77016776374124
 20
140.8262959463513
 30
0.0
 11
37.77016776652957
 21
141.1262959775638
 31
0.0
  0
LINE
  5
2E89
330
A
100
AcDbEntity
  8
DRAW
  6
CONTINUOUS
100
AcDbLine
 10
37.77017358448459
 20
140.6897585438878
 30
0.0
 11
39.37017503677403
 21
140.6897585585948
 31
0.0
  0
LINE
  5
2E8A
330
A
100
AcDbEntity
  8
DRAW
  6
CONTINUOUS
100
AcDbLine
 10
37.07017563877306
 20
142.5763020877244
 30
0.0
 11
39.37017534474038
 21
142.5763021088656
 31
0.0
  0
LINE
  5
2E8B
330
A
100
AcDbEntity
  8
DRAW
  6
CONTINUOUS
100
AcDbLine
 10
37.07017562413172
 20
144.7262968360449
 30
0.0
 11
37.07017563877296
 21
142.5763020877244
 31
0.0
  0
LINE
  5
2E8C
330
A
100
AcDbEntity
  8
DRAW
  6
CONTINUOUS
100
AcDbLine
 10
37.07017563877297
 20
142.5763020877244
 30
0.0
 11
37.0701756287873
 21
142.5728095288176
 31
0.0
  0
LINE
  5
2E8D
330
A
100
AcDbEntity
  8
DRAW
  6
CONTINUOUS
100
AcDbLine
 10
37.77017360096458
 20
142.4628443738263
 30
0.0
 11
39.37017502047606
 21
142.4628443885334
 31
0.0
  0
LINE
  5
2E8E
330
A
100
AcDbEntity
  8
DRAW
  6
CONTINUOUS
100
AcDbLine
 10
81.37017347682643
 20
136.2262964242973
 30
0.0
 11
65.87017386425661
 21
136.2262965683626
 31
0.0
  0
LINE
  5
2E8F
330
A
100
AcDbEntity
  8
DRAW
  6
CONTINUOUS
100
AcDbLine
 10
63.3701738868914
 20
138.2262965915989
 30
0.0
 11
82.87017350542489
 21
138.2262964103553
 31
0.0
  0
LINE
  5
2E90
330
A
100
AcDbEntity
  8
DRAW
  6
CONTINUOUS
100
AcDbLine
 10
41.37017483238508
 20
146.7262967960786
 30
0.0
 11
93.87017358442845
 21
146.7262963081153
 31
0.0
  0
LINE
  5
2E91
330
A
100
AcDbEntity
  8
DRAW
  6
CONTINUOUS
100
AcDbLine
 10
39.77017305315655
 20
125.2262964635632
 30
0.0
 11
39.77017321365837
 21
122.2214814420705
 31
0.0
  0
ARC
  5
2E92
330
A
100
AcDbEntity
  8
DRAW
  6
CONTINUOUS
100
AcDbCircle
 10
61.87017390548373
 20
140.2262966055431
 30
0.0
 40
2.5
100
AcDbArc
 50
306.8698971132141
 51
233.1301018217101
  0
POINT
  5
2E93
330
A
100
AcDbEntity
  8
DRAW
  6
CONTINUOUS
100
AcDbPoint
 10
63.87017487563149
 20
125.2262950638753
 30
0.0
  0
CIRCLE
  5
2E94
330
A
100
AcDbEntity
  8
DRAW
  6
CONTINUOUS
100
AcDbCircle
 10
61.8701752602917
 20
140.2262931565265
 30
0.0
 40
1.25
  0
CIRCLE
  5
2E95
330
A
100
AcDbEntity
  8
DRAW
  6
CONTINUOUS
100
AcDbCircle
 10
61.87017386794831
 20
140.2262966055443
 30
0.0
 40
1.35
  0
ARC
  5
2E96
330
A
100
AcDbEntity
  8
DRAW
  6
CONTINUOUS
100
AcDbCircle
 10
61.87017389547428
 20
140.2262966055434
 30
0.0
 40
2.5
100
AcDbArc
 50
269.999999467463
 51
306.8698971132141
  0
CIRCLE
  5
2E97
330
A
100
AcDbEntity
  8
DRAW
  6
CONTINUOUS
100
AcDbCircle
 10
61.8701752602917
 20
140.2262931565265
 30
0.0
 40
0.75
  0
ARC
  5
2E98
330
A
100
AcDbEntity
  8
DRAW
  6
CONTINUOUS
100
AcDbCircle
 10
61.87017389547428
 20
140.2262966055434
 30
0.0
 40
2.5
100
AcDbArc
 50
233.1301018217101
 51
269.999999467463
  0
LINE
  5
2E99
330
A
100
AcDbEntity
  8
DRAW
  6
CONTINUOUS
100
AcDbLine
 10
65.87017379061528
 20
127.2262992820561
 30
0.0
 11
65.87017387426605
 21
136.2262965683623
 31
0.0
  0
ARC
  5
2E9A
330
A
100
AcDbEntity
  8
DRAW
  6
CONTINUOUS
100
AcDbCircle
 10
64.37017377595855
 20
126.7262965823044
 30
0.0
 40
1.5
100
AcDbArc
 50
269.999999467463
 51
359.9999994674621
  0
LINE
  5
2E9B
330
A
100
AcDbEntity
  8
DRAW
  6
CONTINUOUS
100
AcDbLine
 10
65.87017378060584
 20
127.2262992820564
 30
0.0
 11
65.87017377595855
 21
126.7262965683626
 31
0.0
  0
LINE
  5
2E9C
330
A
100
AcDbEntity
  8
DRAW
  6
CONTINUOUS
100
AcDbLine
 10
94.87017393729967
 20
144.7262962988212
 30
0.0
 11
82.87017355582994
 21
144.7262964103556
 31
0.0
  0
LINE
  5
2E9D
330
A
100
AcDbEntity
  8
DRAW
  6
CONTINUOUS
100
AcDbLine
 10
82.87017350542489
 20
138.2262964103553
 30
0.0
 11
82.87017356583941
 21
144.7262964103552
 31
0.0
  0
ARC
  5
2E9E
330
A
100
AcDbEntity
  8
DRAW
  6
CONTINUOUS
100
AcDbCircle
 10
81.3701734907682
 20
137.7262964242973
 30
0.0
 40
1.5
100
AcDbArc
 50
269.999999467463
 51
359.9999994674621
  0
POINT
  5
2E9F
330
A
100
AcDbEntity
  8
DRAW
  6
CONTINUOUS
100
AcDbPoint
 10
80.8701748756315
 20
136.2262950638753
 30
0.0
  0
LINE
  5
2EA0
330
A
100
AcDbEntity
  8
DRAW
  6
CONTINUOUS
100
AcDbLine
 10
82.87017349541548
 20
138.2262964103556
 30
0.0
 11
82.87017349076821
 21
137.7262964103554
 31
0.0
  0
ARC
  5
2EA1
330
A
100
AcDbEntity
  8
DRAW
  6
CONTINUOUS
100
AcDbCircle
 10
94.87017394659417
 20
145.7262962988211
 30
0.0
 40
1.0
100
AcDbArc
 50
269.999999467463
 51
359.9999994674621
  0
DIMENSION
  5
2EA2
330
A
100
AcDbEntity
  8
DIM
  6
CONTINUOUS
100
AcDbDimension
  2
*D15
 10
95.87017423588658
 20
235.0360174948483
 30
0.0
 11
67.62017424562168
 21
236.5800488727473
 31
0.0
 70
    32
  3
FINDER
100
AcDbAlignedDimension
 13
39.37017425535677
 23
210.1849625649246
 33
0.0
 14
95.87017423588658
 24
191.6451167921509
 34
0.0
100
AcDbRotatedDimension
  0
DIMENSION
  5
2EA3
330
A
100
AcDbEntity
  8
DIM
  6
CONTINUOUS
100
AcDbDimension
  2
*D16
 10
82.87017401430073
 20
228.5360174948483
 30
0.0
 11
61.12017413482875
 21
230.0806627881634
 31
0.0
 70
    32
  3
FINDER
100
AcDbAlignedDimension
 13
39.37017425535677
 23
210.1849625649246
 33
0.0
 14
82.87017401430073
 24
199.4730514941089
 34
0.0
100
AcDbRotatedDimension
  0
DIMENSION
  5
2EA4
330
A
100
AcDbEntity
  8
DIM
  6
CONTINUOUS
100
AcDbDimension
  2
*D17
 10
65.87017449235266
 20
222.0360174948483
 30
0.0
 11
52.62017437385472
 21
223.5800488727473
 31
0.0
 70
    32
  3
FINDER
100
AcDbAlignedDimension
 13
39.37017425535677
 23
210.1849625649246
 33
0.0
 14
65.87017449235266
 24
210.3909604915291
 34
0.0
100
AcDbRotatedDimension
  0
LINE
  5
2EA5
330
A
100
AcDbEntity
  8
DRAW
  6
CONTINUOUS
100
AcDbLine
 10
65.87017453417807
 20
207.2262984303405
 30
0.0
 11
38.86430263450256
 21
207.2262997989471
 31
0.0
  0
LINE
  5
2EA6
330
A
100
AcDbEntity
  8
DRAW
  6
CONTINUOUS
100
AcDbLine
 10
37.27735883200711
 20
198.2262987414679
 30
0.0
 11
65.87017445052724
 21
198.2262984757109
 31
0.0
  0
LINE
  5
2EA7
330
A
100
AcDbEntity
  8
DRAW
  6
CONTINUOUS
100
AcDbLine
 10
60.37018342798971
 20
196.2263033709622
 30
0.0
 11
37.0701752734239
 21
196.2263040696439
 31
0.0
  0
LINE
  5
2EA8
330
A
100
AcDbEntity
  8
DRAW
  6
CONTINUOUS
100
AcDbLine
 10
64.37017454275768
 20
209.2262965823044
 30
0.0
 11
37.1861033735018
 21
209.2262968349676
 31
0.0
  0
LINE
  5
2EA9
330
A
100
AcDbEntity
  8
DRAW
  6
CONTINUOUS
100
AcDbLine
 10
37.07017531768641
 20
189.7263021532191
 30
0.0
 11
82.87017398409361
 21
189.7263007798455
 31
0.0
  0
LINE
  5
2EAA
330
A
100
AcDbEntity
  8
DRAW
  6
CONTINUOUS
100
AcDbLine
 10
37.07017527342391
 20
196.2263040696439
 30
0.0
 11
37.07017531768643
 21
189.7263021532191
 31
0.0
  0
LINE
  5
2EAB
330
A
100
AcDbEntity
  8
DRAW
  6
CONTINUOUS
100
AcDbLine
 10
35.0701744252626
 20
197.226273584817
 30
0.0
 11
35.0701743137284
 21
185.2262973066294
 31
0.0
  0
LINE
  5
2EAC
330
A
100
AcDbEntity
  8
DRAW
  6
CONTINUOUS
100
AcDbLine
 10
39.37017431372872
 20
185.2262972666629
 30
0.0
 11
39.37017424532973
 21
149.2263001924699
 31
0.0
  0
LINE
  5
2EAD
330
A
100
AcDbEntity
  8
DRAW
  6
CONTINUOUS
100
AcDbLine
 10
35.07017527360494
 20
149.2263001529448
 30
0.0
 11
39.37017424532973
 21
149.2263001924699
 31
0.0
  0
LINE
  5
2EAE
330
A
100
AcDbEntity
  8
DRAW
  6
CONTINUOUS
100
AcDbLine
 10
34.87017327952351
 20
149.5811417553684
 30
0.0
 11
36.67017326065662
 21
151.7262981221526
 31
0.0
  0
LINE
  5
2EAF
330
A
100
AcDbEntity
  8
DRAW
  6
CONTINUOUS
100
AcDbLine
 10
36.67017326065662
 20
151.7262981221526
 30
0.0
 11
37.77017329946173
 21
151.7262981119286
 31
0.0
  0
LINE
  5
2EB0
330
A
100
AcDbEntity
  8
DRAW
  6
CONTINUOUS
100
AcDbLine
 10
37.77017328737882
 20
150.4262958231103
 30
0.0
 11
37.77017329946174
 21
151.7262981119286
 31
0.0
  0
LINE
  5
2EB1
330
A
100
AcDbEntity
  8
DRAW
  6
CONTINUOUS
100
AcDbLine
 10
37.77017332722626
 20
150.4262958278723
 30
0.0
 11
38.97017332722625
 21
150.4262958167189
 31
0.0
  0
LINE
  5
2EB2
330
A
100
AcDbEntity
  8
DRAW
  6
CONTINUOUS
100
AcDbLine
 10
37.77017332722626
 20
150.4262958278723
 30
0.0
 11
37.77017331607285
 21
149.2263001777674
 31
0.0
  0
LINE
  5
2EB3
330
A
100
AcDbEntity
  8
DRAW
  6
CONTINUOUS
100
AcDbLine
 10
38.97017332722625
 20
150.4262958167189
 30
0.0
 11
38.97017331607285
 21
149.2263001887931
 31
0.0
  0
LINE
  5
2EB4
330
A
100
AcDbEntity
  8
DRAW
  6
CONTINUOUS
100
AcDbLine
 10
39.37017429212425
 20
180.2263002312989
 30
0.0
 11
38.92017226340462
 21
182.2263003560393
 31
0.0
  0
LINE
  5
2EB5
330
A
100
AcDbEntity
  8
DRAW
  6
CONTINUOUS
100
AcDbLine
 10
35.0701743137284
 20
185.2262973066294
 30
0.0
 11
39.37017431372872
 21
185.2262972666629
 31
0.0
  0
LINE
  5
2EB6
330
A
100
AcDbEntity
  8
DRAW
  6
CONTINUOUS
100
AcDbLine
 10
37.63427328125786
 20
183.2262959611203
 30
0.0
 11
37.12486965120847
 21
183.2262959903466
 31
0.0
  0
LINE
  5
2EB7
330
A
100
AcDbEntity
  8
DRAW
  6
CONTINUOUS
100
AcDbLine
 10
35.97016813375026
 20
185.2262972354125
 30
0.0
 11
37.12486965120847
 21
183.2262959903466
 31
0.0
  0
LINE
  5
2EB8
330
A
100
AcDbEntity
  8
DRAW
  6
CONTINUOUS
100
AcDbLine
 10
38.17017177199268
 20
185.2262972556347
 30
0.0
 11
37.63427328125786
 21
183.2262959611203
 31
0.0
  0
POINT
  5
2EB9
330
A
100
AcDbEntity
  8
DRAW
  6
CONTINUOUS
100
AcDbPoint
 10
39.37017487563149
 20
185.2262969712239
 30
0.0
  0
POINT
  5
2EBA
330
A
100
AcDbEntity
  8
DRAW
  6
CONTINUOUS
100
AcDbPoint
 10
39.37017487563149
 20
185.2262969712239
 30
0.0
  0
POINT
  5
2EBB
330
A
100
AcDbEntity
  8
DRAW
  6
CONTINUOUS
100
AcDbPoint
 10
39.37017487563149
 20
185.2262969712239
 30
0.0
  0
POINT
  5
2EBC
330
A
100
AcDbEntity
  8
DRAW
  6
CONTINUOUS
100
AcDbPoint
 10
39.37017487563149
 20
185.2262969712239
 30
0.0
  0
LINE
  5
2EBD
330
A
100
AcDbEntity
  8
DRAW
  6
CONTINUOUS
100
AcDbLine
 10
39.37017425535677
 20
184.2263004353588
 30
0.0
 11
38.92017226340462
 21
182.2263003560393
 31
0.0
  0
LINE
  5
2EBE
330
A
100
AcDbEntity
  8
DRAW
  6
CONTINUOUS
100
AcDbLine
 10
38.86430263450253
 20
207.2262997989471
 30
0.0
 11
37.27735883200711
 21
198.2262987414678
 31
0.0
  0
LINE
  5
2EBF
330
A
100
AcDbEntity
  8
DRAW
  6
CONTINUOUS
100
AcDbLine
 10
37.1861033735018
 20
209.2262968349676
 30
0.0
 11
35.0701744252626
 21
197.226273584817
 31
0.0
  0
POINT
  5
2EC0
330
A
100
AcDbEntity
  8
DRAW
  6
CONTINUOUS
100
AcDbPoint
 10
35.07017563857094
 20
197.2262740830403
 30
0.0
  0
POINT
  5
2EC1
330
A
100
AcDbEntity
  8
DRAW
  6
CONTINUOUS
100
AcDbPoint
 10
35.07017563857094
 20
197.2262740830403
 30
0.0
  0
LINE
  5
2EC2
330
A
100
AcDbEntity
  8
DRAW
  6
CONTINUOUS
100
AcDbLine
 10
65.8701744405178
 20
198.2262984757113
 30
0.0
 11
81.3701740530876
 21
198.2262983316459
 31
0.0
  0
LINE
  5
2EC3
330
A
100
AcDbEntity
  8
DRAW
  6
CONTINUOUS
100
AcDbLine
 10
82.870174044508
 20
196.22630269627
 30
0.0
 11
63.37016550673324
 21
196.2263032810038
 31
0.0
  0
LINE
  5
2EC4
330
A
100
AcDbEntity
  8
DRAW
  6
CONTINUOUS
100
AcDbLine
 10
93.87017396550445
 20
187.7263023545516
 30
0.0
 11
41.37017455317903
 21
187.7263039288339
 31
0.0
  0
CIRCLE
  5
2EC5
330
A
100
AcDbEntity
  8
DRAW
  6
CONTINUOUS
100
AcDbCircle
 10
61.8701752602917
 20
194.2262931565266
 30
0.0
 40
1.25
  0
ARC
  5
2EC6
330
A
100
AcDbEntity
  8
DRAW
  6
CONTINUOUS
100
AcDbCircle
 10
61.87017440738863
 20
194.226296605543
 30
0.0
 40
2.5
100
AcDbArc
 50
269.999999467463
 51
53.13035733872641
  0
CIRCLE
  5
2EC7
330
A
100
AcDbEntity
  8
DRAW
  6
CONTINUOUS
100
AcDbCircle
 10
61.87017436985319
 20
194.2262966055443
 30
0.0
 40
1.35
  0
ARC
  5
2EC8
330
A
100
AcDbEntity
  8
DRAW
  6
CONTINUOUS
100
AcDbCircle
 10
61.87017440738863
 20
194.226296605543
 30
0.0
 40
2.5
100
AcDbArc
 50
126.8696392250949
 51
269.999999467463
  0
CIRCLE
  5
2EC9
330
A
100
AcDbEntity
  8
DRAW
  6
CONTINUOUS
100
AcDbCircle
 10
61.8701752602917
 20
194.2262931565266
 30
0.0
 40
0.75
  0
ARC
  5
2ECA
330
A
100
AcDbEntity
  8
DRAW
  6
CONTINUOUS
100
AcDbCircle
 10
61.87017439737915
 20
194.2262966055434
 30
0.0
 40
2.5
100
AcDbArc
 50
53.13035733872641
 51
126.8696392250937
  0
LINE
  5
2ECB
330
A
100
AcDbEntity
  8
DRAW
  6
CONTINUOUS
100
AcDbLine
 10
65.87017445052724
 20
198.2262965683623
 30
0.0
 11
65.87017453417807
 21
207.2262984303405
 31
0.0
  0
ARC
  5
2ECC
330
A
100
AcDbEntity
  8
DRAW
  6
CONTINUOUS
100
AcDbCircle
 10
64.37017452881587
 20
207.7262965823044
 30
0.0
 40
1.5
100
AcDbArc
 50
359.999999467463
 51
89.99999946746298
  0
LINE
  5
2ECD
330
A
100
AcDbEntity
  8
DRAW
  6
CONTINUOUS
100
AcDbLine
 10
65.8701745241686
 20
207.2262984303408
 30
0.0
 11
65.87017452881586
 21
207.7262965683626
 31
0.0
  0
POINT
  5
2ECE
330
A
100
AcDbEntity
  8
DRAW
  6
CONTINUOUS
100
AcDbPoint
 10
65.87017487563149
 20
207.2262988785726
 30
0.0
  0
POINT
  5
2ECF
330
A
100
AcDbEntity
  8
DRAW
  6
CONTINUOUS
100
AcDbPoint
 10
64.37017487563149
 20
209.2262950638753
 30
0.0
  0
LINE
  5
2ED0
330
A
100
AcDbEntity
  8
DRAW
  6
CONTINUOUS
100
AcDbLine
 10
82.87017398409346
 20
189.7262964103551
 30
0.0
 11
82.870174044508
 21
196.22630269627
 31
0.0
  0
LINE
  5
2ED1
330
A
100
AcDbEntity
  8
DRAW
  6
CONTINUOUS
100
AcDbLine
 10
82.8701739740841
 20
189.7263007798458
 30
0.0
 11
94.87017435555381
 21
189.7263004200098
 31
0.0
  0
LINE
  5
2ED2
330
A
100
AcDbEntity
  8
DRAW
  6
CONTINUOUS
100
AcDbLine
 10
95.87017412551393
 20
164.9762907856191
 30
0.0
 11
95.8701743462592
 21
188.7262962895265
 31
0.0
  0
LINE
  5
2ED3
330
A
100
AcDbEntity
  8
DRAW
  6
CONTINUOUS
100
AcDbLine
 10
93.87017177860478
 20
158.7262924934184
 30
0.0
 11
94.9701740674231
 21
158.7262924831944
 31
0.0
  0
LINE
  5
2ED4
330
A
100
AcDbEntity
  8
DRAW
  6
CONTINUOUS
100
AcDbLine
 10
94.970174074394
 20
159.4762915295201
 30
0.0
 11
95.58149838469674
 21
159.4762915238381
 31
0.0
  0
LINE
  5
2ED5
330
A
100
AcDbEntity
  8
DRAW
  6
CONTINUOUS
100
AcDbLine
 10
94.9701740674231
 20
158.7262924831944
 30
0.0
 11
94.970174074394
 21
159.4762915295201
 31
0.0
  0
LINE
  5
2ED6
330
A
100
AcDbEntity
  8
DRAW
  6
CONTINUOUS
100
AcDbLine
 10
95.87017406974677
 20
158.9762941640356
 30
0.0
 11
95.58149838469674
 21
159.4762915238381
 31
0.0
  0
LINE
  5
2ED7
330
A
100
AcDbEntity
  8
DRAW
  6
CONTINUOUS
100
AcDbLine
 10
93.87016993167057
 20
165.2262922549998
 30
0.0
 11
94.97017412783756
 21
165.2262922447758
 31
0.0
  0
LINE
  5
2ED8
330
A
100
AcDbEntity
  8
DRAW
  6
CONTINUOUS
100
AcDbLine
 10
95.58149843116941
 20
164.476292715931
 30
0.0
 11
94.97017412086671
 21
164.476292721613
 31
0.0
  0
LINE
  5
2ED9
330
A
100
AcDbEntity
  8
DRAW
  6
CONTINUOUS
100
AcDbLine
 10
95.87017412551393
 20
164.9762907856191
 30
0.0
 11
95.58149843116941
 21
164.476292715931
 31
0.0
  0
LINE
  5
2EDA
330
A
100
AcDbEntity
  8
DRAW
  6
CONTINUOUS
100
AcDbLine
 10
94.97017412086671
 20
164.476292721613
 30
0.0
 11
94.97017412783756
 21
165.2262922447758
 31
0.0
  0
ARC
  5
2EDB
330
A
100
AcDbEntity
  8
DRAW
  6
CONTINUOUS
100
AcDbCircle
 10
94.87017434625917
 20
188.726296298821
 30
0.0
 40
1.0
100
AcDbArc
 50
359.999999467463
 51
89.99999946745809
  0
POINT
  5
2EDC
330
A
100
AcDbEntity
  8
DRAW
  6
CONTINUOUS
100
AcDbPoint
 10
95.8701748756315
 20
188.7262969712239
 30
0.0
  0
POINT
  5
2EDD
330
A
100
AcDbEntity
  8
DRAW
  6
CONTINUOUS
100
AcDbPoint
 10
95.8701748756315
 20
188.7262969712239
 30
0.0
  0
ARC
  5
2EDE
330
A
100
AcDbEntity
  8
DRAW
  6
CONTINUOUS
100
AcDbCircle
 10
81.37017403914574
 20
196.7262964242973
 30
0.0
 40
1.5
100
AcDbArc
 50
359.999999467463
 51
89.99999946746298
  0
POINT
  5
2EDF
330
A
100
AcDbEntity
  8
DRAW
  6
CONTINUOUS
100
AcDbPoint
 10
80.8701748756315
 20
198.226291249178
 30
0.0
  0
LINE
  5
2EE0
330
A
100
AcDbEntity
  8
DRAW
  6
CONTINUOUS
100
AcDbLine
 10
82.87017403449857
 20
196.2263026962704
 30
0.0
 11
82.87017403914576
 21
196.7262964103555
 31
0.0
  0
POINT
  5
2EE1
330
A
100
AcDbEntity
  8
DRAW
  6
CONTINUOUS
100
AcDbPoint
 10
82.87017487563149
 20
196.2263026932698
 30
0.0
  0
DIMENSION
  5
2EE2
330
A
100
AcDbEntity
  8
DIM
  6
CONTINUOUS
100
AcDbDimension
  2
*D13
 10
182.7844772518803
 20
125.2262963196696
 30
0.0
 11
181.2404458739812
 21
167.2262963196696
 31
0.0
 70
    32
  3
FINDER
100
AcDbAlignedDimension
 13
167.8984001333894
 23
209.2262963196696
 33
0.0
 14
167.8984001332543
 24
125.2262963196696
 34
0.0
 50
90.0
100
AcDbRotatedDimension
  0
LINE
  5
2EE3
330
A
100
AcDbEntity
  8
DRAW
  6
CONTINUOUS
100
AcDbLine
 10
166.5983999337075
 20
145.7262960268939
 30
0.0
 11
166.5983999337288
 21
158.976293901403
 31
0.0
  0
LINE
  5
2EE4
330
A
100
AcDbEntity
  8
DRAW
  6
CONTINUOUS
100
AcDbLine
 10
167.8983999337075
 20
145.7262960268918
 30
0.0
 11
167.8983999337288
 21
158.976293901401
 31
0.0
  0
LINE
  5
2EE5
330
A
100
AcDbEntity
  8
DRAW
  6
CONTINUOUS
100
AcDbLine
 10
152.0983999337288
 20
158.9762912797711
 30
0.0
 11
152.0983999337075
 21
145.7262967088666
 31
0.0
  0
LINE
  5
2EE6
330
A
100
AcDbEntity
  8
DRAW
  6
CONTINUOUS
100
AcDbLine
 10
150.7983999337288
 20
158.9762912797733
 30
0.0
 11
150.7983999337075
 21
145.7262967088688
 31
0.0
  0
LINE
  5
2EE7
330
A
100
AcDbEntity
  8
DRAW
  6
CONTINUOUS
100
AcDbLine
 10
168.0983999464468
 20
187.7263020919169
 30
0.0
 11
168.0983999463808
 21
146.7262960454806
 31
0.0
  0
LINE
  5
2EE8
330
A
100
AcDbEntity
  8
DRAW
  6
CONTINUOUS
100
AcDbLine
 10
150.5983999463808
 20
146.7262986162038
 30
0.0
 11
150.5983999464468
 21
187.7263004503017
 31
0.0
  0
LINE
  5
2EE9
330
A
100
AcDbEntity
  8
DRAW
  6
CONTINUOUS
100
AcDbLine
 10
154.293331605614
 20
143.3547280078444
 30
0.0
 11
154.4420624093575
 21
142.5620049982206
 31
0.0
  0
LINE
  5
2EEA
330
A
100
AcDbEntity
  8
DRAW
  6
CONTINUOUS
100
AcDbLine
 10
154.2933316537374
 20
142.5034587358385
 30
0.0
 11
154.4420624210752
 21
142.3547280170841
 31
0.0
  0
LINE
  5
2EEB
330
A
100
AcDbEntity
  8
DRAW
  6
CONTINUOUS
100
AcDbLine
 10
154.5421183619741
 20
143.3547280219086
 30
0.0
 11
154.293331605614
 21
143.3547280078444
 31
0.0
  0
LINE
  5
2EEC
330
A
100
AcDbEntity
  8
DRAW
  6
CONTINUOUS
100
AcDbLine
 10
154.2933317270846
 20
141.2059972798504
 30
0.0
 11
154.4420624776065
 21
141.3547280170841
 31
0.0
  0
LINE
  5
2EED
330
A
100
AcDbEntity
  8
DRAW
  6
CONTINUOUS
100
AcDbLine
 10
154.2933317752079
 20
140.3547280078444
 30
0.0
 11
154.5421185315681
 21
140.3547280219086
 31
0.0
  0
LINE
  5
2EEE
330
A
100
AcDbEntity
  8
DRAW
  6
CONTINUOUS
100
AcDbLine
 10
154.2933317752079
 20
140.3547280078444
 30
0.0
 11
154.4420624893241
 21
141.1474510359476
 31
0.0
  0
ARC
  5
2EEF
330
A
100
AcDbEntity
  8
DRAW
  6
CONTINUOUS
100
AcDbCircle
 10
154.9421184467677
 20
141.8547900552007
 30
0.0
 40
1.99999998807907
100
AcDbArc
 50
101.5369623415316
 51
258.4630441364798
  0
ARC
  5
2EF0
330
A
100
AcDbEntity
  8
DRAW
  6
CONTINUOUS
100
AcDbCircle
 10
154.9420886688396
 20
141.9547483130548
 30
0.0
 40
2.25
100
AcDbArc
 50
89.99999999990718
 51
269.9999999999071
  0
LINE
  5
2EF1
330
A
100
AcDbEntity
  8
DRAW
  6
CONTINUOUS
100
AcDbLine
 10
154.4420624210752
 20
142.3547280170841
 30
0.0
 11
154.2347854399387
 21
142.3547280053665
 31
0.0
  0
LINE
  5
2EF2
330
A
100
AcDbEntity
  8
DRAW
  6
CONTINUOUS
100
AcDbLine
 10
154.23478549647
 20
141.3547280053665
 30
0.0
 11
154.4420624776065
 21
141.3547280170841
 31
0.0
  0
ARC
  5
2EF3
330
A
100
AcDbEntity
  8
DRAW
  6
CONTINUOUS
100
AcDbCircle
 10
154.9421184522269
 20
141.8547900553475
 30
0.0
 40
2.299999999999998
100
AcDbArc
 50
100.0154134072555
 51
148.899790464747
  0
ARC
  5
2EF4
330
A
100
AcDbEntity
  8
DRAW
  6
CONTINUOUS
100
AcDbCircle
 10
154.9733980049795
 20
131.0263015057499
 30
0.0
 40
2.25
100
AcDbArc
 50
89.99999999990718
 51
269.9999999999071
  0
LINE
  5
2EF5
330
A
100
AcDbEntity
  8
DRAW
  6
CONTINUOUS
100
AcDbLine
 10
152.0984277638291
 20
145.7262959991876
 30
0.0
 11
166.5983998905633
 21
145.7262959991643
 31
0.0
  0
LINE
  5
2EF6
330
A
100
AcDbEntity
  8
DRAW
  6
CONTINUOUS
100
AcDbLine
 10
152.0984277701634
 20
144.7262960084822
 30
0.0
 11
166.5983998968975
 21
144.7262960084588
 31
0.0
  0
LINE
  5
2EF7
330
A
100
AcDbEntity
  8
DRAW
  6
CONTINUOUS
100
AcDbLine
 10
150.7984001237529
 20
126.7262967086602
 30
0.0
 11
159.3484001237529
 21
126.7262967086465
 31
0.0
  0
LINE
  5
2EF8
330
A
100
AcDbEntity
  8
DRAW
  6
CONTINUOUS
100
AcDbLine
 10
150.7984001332542
 20
125.2262967086498
 30
0.0
 11
159.3484001332543
 21
125.2262967086361
 31
0.0
  0
LINE
  5
2EF9
330
A
100
AcDbEntity
  8
DRAW
  6
CONTINUOUS
100
AcDbLine
 10
150.7984000160608
 20
137.7262967087784
 30
0.0
 11
159.3484000160608
 21
137.7262967087647
 31
0.0
  0
LINE
  5
2EFA
330
A
100
AcDbEntity
  8
DRAW
  6
CONTINUOUS
100
AcDbLine
 10
150.7984000255621
 20
136.226296708768
 30
0.0
 11
159.3484000255622
 21
136.2262967087542
 31
0.0
  0
LINE
  5
2EFB
330
A
100
AcDbEntity
  8
DRAW
  6
CONTINUOUS
100
AcDbLine
 10
150.5984001237682
 20
136.2262967086606
 30
0.0
 11
150.5984001237537
 21
127.2262990905702
 31
0.0
  0
LINE
  5
2EFC
330
A
100
AcDbEntity
  8
DRAW
  6
CONTINUOUS
100
AcDbLine
 10
150.5984001237537
 20
127.2262990905702
 30
0.0
 11
150.7984001237537
 21
127.2262990905699
 31
0.0
  0
LINE
  5
2EFD
330
A
100
AcDbEntity
  8
DRAW
  6
CONTINUOUS
100
AcDbLine
 10
150.7984001237529
 20
126.7262967086602
 30
0.0
 11
150.7984001237537
 21
127.2262990905699
 31
0.0
  0
LINE
  5
2EFE
330
A
100
AcDbEntity
  8
DRAW
  6
CONTINUOUS
100
AcDbLine
 10
150.7984001332566
 20
126.7262967086602
 30
0.0
 11
150.7984001332542
 21
125.2262967086498
 31
0.0
  0
LINE
  5
2EFF
330
A
100
AcDbEntity
  8
DRAW
  6
CONTINUOUS
100
AcDbLine
 10
153.4420624550787
 20
141.205997231727
 30
0.0
 11
154.23478549647
 21
141.3547280053665
 31
0.0
  0
LINE
  5
2F00
330
A
100
AcDbEntity
  8
DRAW
  6
CONTINUOUS
100
AcDbLine
 10
153.4420623817315
 20
142.5034586877151
 30
0.0
 11
153.4420624550787
 21
141.205997231727
 31
0.0
  0
LINE
  5
2F01
330
A
100
AcDbEntity
  8
DRAW
  6
CONTINUOUS
100
AcDbLine
 10
150.5484275921727
 20
138.3262928968721
 30
0.0
 11
150.5484275921727
 21
142.1262928909116
 31
0.0
  0
LINE
  5
2F02
330
A
100
AcDbEntity
  8
DRAW
  6
CONTINUOUS
100
AcDbLine
 10
150.598400016072
 20
144.7262967087787
 30
0.0
 11
150.5984000160615
 21
138.2262969823827
 31
0.0
  0
MTEXT
  5
2F03
330
A
100
AcDbEntity
  8
DRAW-TEXT
  6
CONTINUOUS
100
AcDbMText
 10
151.1410733310608
 20
139.9358158923753
 30
0.0
 40
1.8
 41
2.100499999999999
 71
     1
 72
     1
  1
15
  7
FINDER
1001
ACAD
1000
MTEXTBEGIN
1070
    73
1070
     1
1070
    44
1040
1.0
1070
    74
1070
     0
1000
MTEXTEND
  0
LINE
  5
2F04
330
A
100
AcDbEntity
  8
DRAW
  6
CONTINUOUS
100
AcDbLine
 10
150.7484275951529
 20
138.1262928938919
 30
0.0
 11
150.7484275951529
 21
138.2262969822469
 31
0.0
  0
LINE
  5
2F05
330
A
100
AcDbEntity
  8
DRAW
  6
CONTINUOUS
100
AcDbLine
 10
150.7984000160608
 20
137.7262967087784
 30
0.0
 11
150.7984000160616
 21
138.2262969823824
 31
0.0
  0
LINE
  5
2F06
330
A
100
AcDbEntity
  8
DRAW
  6
CONTINUOUS
100
AcDbLine
 10
150.5984000160615
 20
138.2262969823827
 30
0.0
 11
150.7984000160616
 21
138.2262969823824
 31
0.0
  0
LINE
  5
2F07
330
A
100
AcDbEntity
  8
DRAW
  6
CONTINUOUS
100
AcDbLine
 10
150.7484275951529
 20
138.1262928938919
 30
0.0
 11
150.7984000160615
 21
138.1262928938919
 31
0.0
  0
ARC
  5
2F08
330
A
100
AcDbEntity
  8
DRAW
  6
CONTINUOUS
100
AcDbCircle
 10
150.7484275951529
 20
138.3262928968721
 30
0.0
 40
0.2000000029802322
100
AcDbArc
 50
180.0
 51
270.0
  0
LINE
  5
2F09
330
A
100
AcDbEntity
  8
DRAW
  6
CONTINUOUS
100
AcDbLine
 10
150.5984001237682
 20
136.2262967086606
 30
0.0
 11
150.7984001237681
 21
136.2262967086602
 31
0.0
  0
LINE
  5
2F0A
330
A
100
AcDbEntity
  8
DRAW
  6
CONTINUOUS
100
AcDbLine
 10
150.7984000255646
 20
137.7262967087784
 30
0.0
 11
150.7984000255621
 21
136.226296708768
 31
0.0
  0
LINE
  5
2F0B
330
A
100
AcDbEntity
  8
DRAW
  6
CONTINUOUS
100
AcDbLine
 10
154.2933317270846
 20
141.2059972798504
 30
0.0
 11
154.2933317752079
 21
140.3547280078444
 31
0.0
  0
LINE
  5
2F0C
330
A
100
AcDbEntity
  8
DRAW
  6
CONTINUOUS
100
AcDbLine
 10
153.4420624550787
 20
141.205997231727
 30
0.0
 11
154.2933317270846
 21
141.2059972798504
 31
0.0
  0
LINE
  5
2F0D
330
A
100
AcDbEntity
  8
DRAW
  6
CONTINUOUS
100
AcDbLine
 10
152.0983999400417
 20
144.7262967088597
 30
0.0
 11
152.0983999400434
 21
145.7262967088666
 31
0.0
  0
LINE
  5
2F0E
330
A
100
AcDbEntity
  8
DRAW
  6
CONTINUOUS
100
AcDbLine
 10
150.598400016072
 20
144.7262967087787
 30
0.0
 11
150.7984000160776
 21
144.7262967087784
 31
0.0
  0
LINE
  5
2F0F
330
A
100
AcDbEntity
  8
DRAW
  6
CONTINUOUS
100
AcDbLine
 10
150.7983999337075
 20
145.7262967088688
 30
0.0
 11
152.0983999337075
 21
145.7262967088666
 31
0.0
  0
LINE
  5
2F10
330
A
100
AcDbEntity
  8
DRAW
  6
CONTINUOUS
100
AcDbLine
 10
150.7983999400465
 20
144.7262967088618
 30
0.0
 11
152.0983999400417
 21
144.7262967088597
 31
0.0
  0
LINE
  5
2F11
330
A
100
AcDbEntity
  8
DRAW
  6
CONTINUOUS
100
AcDbLine
 10
150.7983999400434
 20
145.7262967088688
 30
0.0
 11
150.7983999400416
 21
144.7262967088618
 31
0.0
  0
LINE
  5
2F12
330
A
100
AcDbEntity
  8
DRAW
  6
CONTINUOUS
100
AcDbLine
 10
150.5983999463808
 20
146.7262986162038
 30
0.0
 11
150.7983999463808
 21
146.7262986162035
 31
0.0
  0
ARC
  5
2F13
330
A
100
AcDbEntity
  8
DRAW
  6
CONTINUOUS
100
AcDbCircle
 10
150.7484275951529
 20
142.1262928909116
 30
0.0
 40
0.2000000029802322
100
AcDbArc
 50
138.6023232603406
 51
180.0000000000008
  0
LINE
  5
2F14
330
A
100
AcDbEntity
  8
DRAW
  6
CONTINUOUS
100
AcDbLine
 10
154.293331605614
 20
143.3547280078444
 30
0.0
 11
154.2933316537374
 21
142.5034587358385
 31
0.0
  0
LINE
  5
2F15
330
A
100
AcDbEntity
  8
DRAW
  6
CONTINUOUS
100
AcDbLine
 10
153.4420623817315
 20
142.5034586877152
 30
0.0
 11
154.2347854399387
 21
142.3547280053665
 31
0.0
  0
LINE
  5
2F16
330
A
100
AcDbEntity
  8
DRAW
  6
CONTINUOUS
100
AcDbLine
 10
153.6641346492336
 20
143.8065652995829
 30
0.0
 11
153.6673896882744
 21
143.76936001914
 31
0.0
  0
LINE
  5
2F17
330
A
100
AcDbEntity
  8
DRAW
  6
CONTINUOUS
100
AcDbLine
 10
154.2347854399387
 20
142.3547280053665
 30
0.0
 11
154.23478549647
 21
141.3547280053665
 31
0.0
  0
LINE
  5
2F18
330
A
100
AcDbEntity
  8
DRAW
  6
CONTINUOUS
100
AcDbLine
 10
154.2933316537374
 20
142.5034587358385
 30
0.0
 11
153.4420623817315
 21
142.5034586877152
 31
0.0
  0
LINE
  5
2F19
330
A
100
AcDbEntity
  8
DRAW
  6
CONTINUOUS
100
AcDbLine
 10
163.4984281948455
 20
125.2262962009284
 30
0.0
 11
163.4984282116795
 21
122.2214811794357
 31
0.0
  0
LINE
  5
2F1A
330
A
100
AcDbEntity
  8
DRAW
  6
CONTINUOUS
100
AcDbLine
 10
159.3484003017852
 20
123.3262986870198
 30
0.0
 11
159.3484003017866
 21
124.2262976616962
 31
0.0
  0
LINE
  5
2F1B
330
A
100
AcDbEntity
  8
DRAW
  6
CONTINUOUS
100
AcDbLine
 10
161.5984003017852
 20
123.3262986996251
 30
0.0
 11
161.5984003017866
 21
124.2262976743015
 31
0.0
  0
LINE
  5
2F1C
330
A
100
AcDbEntity
  8
DRAW
  6
CONTINUOUS
100
AcDbLine
 10
161.6984277107816
 20
124.2262976748619
 30
0.0
 11
161.6984277158238
 21
123.3262986815964
 31
0.0
  0
LINE
  5
2F1D
330
A
100
AcDbEntity
  8
DRAW
  6
CONTINUOUS
100
AcDbLine
 10
156.9984284965048
 20
123.3262986552654
 30
0.0
 11
156.9984284914625
 21
124.2262976485309
 31
0.0
  0
LINE
  5
2F1E
330
A
100
AcDbEntity
  8
DRAW
  6
CONTINUOUS
100
AcDbLine
 10
157.0984003017866
 20
124.2262976490909
 30
0.0
 11
157.0984003017852
 21
123.3262986558255
 31
0.0
  0
LINE
  5
2F1F
330
A
100
AcDbEntity
  8
DRAW
  6
CONTINUOUS
100
AcDbLine
 10
155.1984281948456
 20
125.2262961544289
 30
0.0
 11
155.1984282116795
 21
122.2214811329362
 31
0.0
  0
LINE
  5
2F20
330
A
100
AcDbEntity
  8
DRAW
  6
CONTINUOUS
100
AcDbLine
 10
163.4984282116795
 20
122.2214811794357
 30
0.0
 11
155.1984282116795
 21
122.2214811329362
 31
0.0
  0
LINE
  5
2F21
330
A
100
AcDbEntity
  8
DRAW
  6
CONTINUOUS
100
AcDbLine
 10
156.9984284965048
 20
123.3262986552654
 30
0.0
 11
161.6984277158238
 21
123.3262986815964
 31
0.0
  0
LINE
  5
2F22
330
A
100
AcDbEntity
  8
DRAW
  6
CONTINUOUS
100
AcDbLine
 10
159.3484003017825
 20
121.7262967084512
 30
0.0
 11
157.0984003017825
 21
121.7262967084548
 31
0.0
  0
LINE
  5
2F23
330
A
100
AcDbEntity
  8
DRAW
  6
CONTINUOUS
100
AcDbLine
 10
157.0984003017834
 20
122.2214811435805
 30
0.0
 11
157.0984003017825
 21
121.7262967084548
 31
0.0
  0
LINE
  5
2F24
330
A
100
AcDbEntity
  8
DRAW
  6
CONTINUOUS
100
AcDbLine
 10
159.3484003017825
 20
121.7262944668353
 30
0.0
 11
161.5984003017825
 21
121.7262944668316
 31
0.0
  0
LINE
  5
2F25
330
A
100
AcDbEntity
  8
DRAW
  6
CONTINUOUS
100
AcDbLine
 10
159.3484003017825
 20
121.7262944668353
 30
0.0
 11
159.3484003017834
 21
122.2214811561858
 31
0.0
  0
LINE
  5
2F26
330
A
100
AcDbEntity
  8
DRAW
  6
CONTINUOUS
100
AcDbLine
 10
161.5984003017825
 20
121.7262944668316
 30
0.0
 11
161.5984003017834
 21
122.221481168791
 31
0.0
  0
LINE
  5
2F27
330
A
100
AcDbEntity
  8
DRAW
  6
CONTINUOUS
100
AcDbLine
 10
163.0746433740631
 20
142.5750119285336
 30
0.0
 11
162.2233741020572
 21
142.5750118804101
 31
0.0
  0
ARC
  5
2F28
330
A
100
AcDbEntity
  8
DRAW
  6
CONTINUOUS
100
AcDbCircle
 10
163.7234301725526
 20
141.9263432480425
 30
0.0
 40
2.299999999999998
100
AcDbArc
 50
100.0154134072555
 51
148.8999047482932
  0
LINE
  5
2F29
330
A
100
AcDbEntity
  8
DRAW
  6
CONTINUOUS
100
AcDbLine
 10
163.7234021348516
 20
144.2762985154149
 30
0.0
 11
159.3484014806743
 21
144.276298515422
 31
0.0
  0
ARC
  5
2F2A
330
A
100
AcDbEntity
  8
DRAW
  6
CONTINUOUS
100
AcDbCircle
 10
163.7234289840263
 20
142.0262923924101
 30
0.0
 40
2.25
100
AcDbArc
 50
180.0000010426405
 51
269.999210007224
  0
LINE
  5
2F2B
330
A
100
AcDbEntity
  8
DRAW
  6
CONTINUOUS
100
AcDbLine
 10
162.2233741754043
 20
141.2775504244221
 30
0.0
 11
163.0746434474103
 21
141.2775504725455
 31
0.0
  0
LINE
  5
2F2C
330
A
100
AcDbEntity
  8
DRAW
  6
CONTINUOUS
100
AcDbLine
 10
162.2233741754043
 20
141.2775504244221
 30
0.0
 11
163.0160972167957
 21
141.4262811980616
 31
0.0
  0
LINE
  5
2F2D
330
A
100
AcDbEntity
  8
DRAW
  6
CONTINUOUS
100
AcDbLine
 10
163.0746448045746
 20
131.5750119285336
 30
0.0
 11
162.2233755325686
 21
131.5750118804102
 31
0.0
  0
LINE
  5
2F2E
330
A
100
AcDbEntity
  8
DRAW
  6
CONTINUOUS
100
AcDbLine
 10
162.2233755325686
 20
131.5750118804102
 30
0.0
 11
163.0160985907759
 21
131.4262811980616
 31
0.0
  0
ARC
  5
2F2F
330
A
100
AcDbEntity
  8
DRAW
  6
CONTINUOUS
100
AcDbCircle
 10
163.723431603064
 20
130.9263432480425
 30
0.0
 40
2.299999999999998
100
AcDbArc
 50
100.0154134072555
 51
148.8997937005736
  0
LINE
  5
2F30
330
A
100
AcDbEntity
  8
DRAW
  6
CONTINUOUS
100
AcDbLine
 10
163.7234022425436
 20
133.276298673422
 30
0.0
 11
159.3484015883665
 21
133.2762986734292
 31
0.0
  0
LINE
  5
2F31
330
A
100
AcDbEntity
  8
DRAW
  6
CONTINUOUS
100
AcDbLine
 10
167.8984000255622
 20
136.2262961616625
 30
0.0
 11
159.3484000255622
 21
136.2262961616763
 31
0.0
  0
LINE
  5
2F32
330
A
100
AcDbEntity
  8
DRAW
  6
CONTINUOUS
100
AcDbLine
 10
167.8984000160609
 20
137.7262961477207
 30
0.0
 11
159.3484000160608
 21
137.7262961477345
 31
0.0
  0
LINE
  5
2F33
330
A
100
AcDbEntity
  8
DRAW
  6
CONTINUOUS
100
AcDbLine
 10
159.3484016406784
 20
139.7762990321417
 30
0.0
 11
163.7234021348444
 21
139.776298515415
 31
0.0
  0
ARC
  5
2F34
330
A
100
AcDbEntity
  8
DRAW
  6
CONTINUOUS
100
AcDbCircle
 10
163.7234289840263
 20
142.0262923924101
 30
0.0
 40
2.25
100
AcDbArc
 50
90.00078999999812
 51
180.0000010426414
  0
LINE
  5
2F35
330
A
100
AcDbEntity
  8
DRAW
  6
CONTINUOUS
100
AcDbLine
 10
162.2233741020572
 20
142.5750118804103
 30
0.0
 11
163.0160971602644
 21
142.4262811980616
 31
0.0
  0
ARC
  5
2F36
330
A
100
AcDbEntity
  8
DRAW
  6
CONTINUOUS
100
AcDbCircle
 10
163.7234301670933
 20
141.9263432478958
 30
0.0
 40
1.99999998807907
100
AcDbArc
 50
101.5369623415316
 51
258.4630441364798
  0
ARC
  5
2F37
330
A
100
AcDbEntity
  8
DRAW
  6
CONTINUOUS
100
AcDbCircle
 10
163.7234021348481
 20
142.026298515415
 30
0.0
 40
2.25
100
AcDbArc
 50
269.9999999999071
 51
89.99999999990718
  0
ARC
  5
2F38
330
A
100
AcDbEntity
  8
DRAW
  6
CONTINUOUS
100
AcDbCircle
 10
163.7234306082528
 20
131.0262923924102
 30
0.0
 40
2.25
100
AcDbArc
 50
180.0000010426405
 51
269.999168646629
  0
LINE
  5
2F39
330
A
100
AcDbEntity
  8
DRAW
  6
CONTINUOUS
100
AcDbLine
 10
162.2233756059158
 20
130.2775504244221
 30
0.0
 11
163.0746448779217
 21
130.2775504725455
 31
0.0
  0
LINE
  5
2F3A
330
A
100
AcDbEntity
  8
DRAW
  6
CONTINUOUS
100
AcDbLine
 10
162.2233756059158
 20
130.2775504244221
 30
0.0
 11
163.0160986473071
 21
130.4262811980616
 31
0.0
  0
LINE
  5
2F3B
330
A
100
AcDbEntity
  8
DRAW
  6
CONTINUOUS
100
AcDbLine
 10
159.3484017483704
 20
128.7762991901489
 30
0.0
 11
163.7234022425364
 21
128.776298673422
 31
0.0
  0
LINE
  5
2F3C
330
A
100
AcDbEntity
  8
DRAW
  6
CONTINUOUS
100
AcDbLine
 10
167.8984001237528
 20
126.7262963057278
 30
0.0
 11
159.3484001237529
 21
126.7262963057415
 31
0.0
  0
LINE
  5
2F3D
330
A
100
AcDbEntity
  8
DRAW
  6
CONTINUOUS
100
AcDbLine
 10
167.8984001332543
 20
125.2262963196696
 30
0.0
 11
159.3484001332543
 21
125.2262963196834
 31
0.0
  0
ARC
  5
2F3E
330
A
100
AcDbEntity
  8
DRAW
  6
CONTINUOUS
100
AcDbCircle
 10
163.7234306082528
 20
131.0262923924102
 30
0.0
 40
2.25
100
AcDbArc
 50
90.00083136149532
 51
180.0000010426405
  0
ARC
  5
2F3F
330
A
100
AcDbEntity
  8
DRAW
  6
CONTINUOUS
100
AcDbCircle
 10
163.7234315976048
 20
130.9263432478958
 30
0.0
 40
1.99999998807907
100
AcDbArc
 50
101.5369623415316
 51
258.4630441364798
  0
ARC
  5
2F40
330
A
100
AcDbEntity
  8
DRAW
  6
CONTINUOUS
100
AcDbCircle
 10
163.72340224254
 20
131.026298673422
 30
0.0
 40
2.25
100
AcDbArc
 50
269.9999999999071
 51
89.99999999990718
  0
LINE
  5
2F41
330
A
100
AcDbEntity
  8
DRAW
  6
CONTINUOUS
100
AcDbLine
 10
159.3484001237634
 20
133.2763015057429
 30
0.0
 11
159.3484001237681
 21
136.2262933631694
 31
0.0
  0
LINE
  5
2F42
330
A
100
AcDbEntity
  8
DRAW
  6
CONTINUOUS
100
AcDbLine
 10
156.9984284914625
 20
124.2262976485309
 30
0.0
 11
161.6984277107816
 21
124.2262976748619
 31
0.0
  0
LINE
  5
2F43
330
A
100
AcDbEntity
  8
DRAW
  6
CONTINUOUS
100
AcDbLine
 10
159.3483984991419
 20
128.7763020224625
 30
0.0
 11
154.9733980049758
 21
128.7763015057499
 31
0.0
  0
LINE
  5
2F44
330
A
100
AcDbEntity
  8
DRAW
  6
CONTINUOUS
100
AcDbLine
 10
154.9733980049831
 20
133.2763015057499
 30
0.0
 11
159.3483986591603
 21
133.276301505743
 31
0.0
  0
LINE
  5
2F45
330
A
100
AcDbEntity
  8
DRAW
  6
CONTINUOUS
100
AcDbLine
 10
159.3484001237529
 20
126.7262967086465
 30
0.0
 11
159.3484001237562
 21
128.7763020224625
 31
0.0
  0
LINE
  5
2F46
330
A
100
AcDbEntity
  8
DRAW
  6
CONTINUOUS
100
AcDbLine
 10
159.3484001332566
 20
126.7262967086465
 30
0.0
 11
159.3484001332543
 21
125.2262967086361
 31
0.0
  0
LINE
  5
2F47
330
A
100
AcDbEntity
  8
DRAW
  6
CONTINUOUS
100
AcDbLine
 10
162.4454477093315
 20
132.8781184398737
 30
0.0
 11
162.4487027490341
 21
132.840913151865
 31
0.0
  0
LINE
  5
2F48
330
A
100
AcDbEntity
  8
DRAW
  6
CONTINUOUS
100
AcDbLine
 10
162.2233755325686
 20
131.5750118804102
 30
0.0
 11
162.2233756059158
 21
130.2775504244221
 31
0.0
  0
LINE
  5
2F49
330
A
100
AcDbEntity
  8
DRAW
  6
CONTINUOUS
100
AcDbLine
 10
154.9734500869965
 20
144.2763039735094
 30
0.0
 11
159.3484522057655
 21
144.276313922527
 31
0.0
  0
LINE
  5
2F4A
330
A
100
AcDbEntity
  8
DRAW
  6
CONTINUOUS
100
AcDbLine
 10
159.3484624390345
 20
139.7763144392585
 30
0.0
 11
154.9734603202656
 21
139.7763044902409
 31
0.0
  0
LINE
  5
2F4B
330
A
100
AcDbEntity
  8
DRAW
  6
CONTINUOUS
100
AcDbLine
 10
156.4420624550786
 20
141.205997401321
 30
0.0
 11
156.4420623817315
 21
142.5034588573091
 31
0.0
  0
LINE
  5
2F4C
330
A
100
AcDbEntity
  8
DRAW
  6
CONTINUOUS
100
AcDbLine
 10
154.4420624776065
 20
141.3547280170841
 30
0.0
 11
154.4420624893241
 21
141.1474510359476
 31
0.0
  0
LINE
  5
2F4D
330
A
100
AcDbEntity
  8
DRAW
  6
CONTINUOUS
100
AcDbLine
 10
155.5907931830727
 20
141.2059973531976
 30
0.0
 11
155.4420624776065
 21
141.3547280736154
 31
0.0
  0
LINE
  5
2F4E
330
A
100
AcDbEntity
  8
DRAW
  6
CONTINUOUS
100
AcDbLine
 10
155.4420624893241
 20
141.147451092479
 30
0.0
 11
155.4420624776065
 21
141.3547280736154
 31
0.0
  0
LINE
  5
2F4F
330
A
100
AcDbEntity
  8
DRAW
  6
CONTINUOUS
100
AcDbLine
 10
156.4420624550786
 20
141.205997401321
 30
0.0
 11
155.649339458743
 21
141.3547280853331
 31
0.0
  0
ARC
  5
2F50
330
A
100
AcDbEntity
  8
DRAW
  6
CONTINUOUS
100
AcDbCircle
 10
154.9421174574156
 20
141.9547391894983
 30
0.0
 40
2.25
100
AcDbArc
 50
270.0000067669615
 51
89.99999999990881
  0
ARC
  5
2F51
330
A
100
AcDbEntity
  8
DRAW
  6
CONTINUOUS
100
AcDbCircle
 10
154.9421184467677
 20
141.8547900552007
 30
0.0
 40
1.99999998807907
100
AcDbArc
 50
281.5369623415316
 51
78.46304413647989
  0
LINE
  5
2F52
330
A
100
AcDbEntity
  8
DRAW
  6
CONTINUOUS
100
AcDbLine
 10
155.5907931830727
 20
141.2059973531976
 30
0.0
 11
156.4420624550786
 21
141.205997401321
 31
0.0
  0
LINE
  5
2F53
330
A
100
AcDbEntity
  8
DRAW
  6
CONTINUOUS
100
AcDbLine
 10
154.4420624893241
 20
141.1474510359476
 30
0.0
 11
155.4420624893241
 21
141.147451092479
 31
0.0
  0
LINE
  5
2F54
330
A
100
AcDbEntity
  8
DRAW
  6
CONTINUOUS
100
AcDbLine
 10
154.5421185250374
 20
140.727774148824
 30
0.0
 11
155.3421185250373
 21
140.7277741940491
 31
0.0
  0
LINE
  5
2F55
330
A
100
AcDbEntity
  8
DRAW
  6
CONTINUOUS
100
AcDbLine
 10
154.5421185315681
 20
140.3547280219086
 30
0.0
 11
154.542118557546
 21
139.8951982505284
 31
0.0
  0
LINE
  5
2F56
330
A
100
AcDbEntity
  8
DRAW
  6
CONTINUOUS
100
AcDbLine
 10
154.542118557546
 20
139.8951982505284
 30
0.0
 11
154.5421185670367
 21
139.7405839344937
 31
0.0
  0
LINE
  5
2F57
330
A
100
AcDbEntity
  8
DRAW
  6
CONTINUOUS
100
AcDbLine
 10
155.3421185315681
 20
140.3547280671336
 30
0.0
 11
155.5907932311961
 21
140.3547280811916
 31
0.0
  0
LINE
  5
2F58
330
A
100
AcDbEntity
  8
DRAW
  6
CONTINUOUS
100
AcDbLine
 10
155.342118557546
 20
139.8951982957534
 30
0.0
 11
155.3421185315681
 21
140.3547280671336
 31
0.0
  0
LINE
  5
2F59
330
A
100
AcDbEntity
  8
DRAW
  6
CONTINUOUS
100
AcDbLine
 10
155.342118557546
 20
139.8951982957534
 30
0.0
 11
155.342118567037
 21
139.7405804102658
 31
0.0
  0
LINE
  5
2F5A
330
A
100
AcDbEntity
  8
DRAW
  6
CONTINUOUS
100
AcDbLine
 10
155.5907932311961
 20
140.3547280811916
 30
0.0
 11
155.5907931830727
 21
141.2059973531976
 31
0.0
  0
LINE
  5
2F5B
330
A
100
AcDbEntity
  8
DRAW
  6
CONTINUOUS
100
AcDbLine
 10
155.5907932311961
 20
140.3547280811916
 30
0.0
 11
155.4420624893241
 21
141.147451092479
 31
0.0
  0
LINE
  5
2F5C
330
A
100
AcDbEntity
  8
DRAW
  6
CONTINUOUS
100
AcDbLine
 10
155.3421185315681
 20
140.3547280671336
 30
0.0
 11
155.3421185250373
 21
140.7277741940491
 31
0.0
  0
LINE
  5
2F5D
330
A
100
AcDbEntity
  8
DRAW
  6
CONTINUOUS
100
AcDbLine
 10
154.5421185315681
 20
140.3547280219086
 30
0.0
 11
154.5421185250374
 21
140.727774148824
 31
0.0
  0
ARC
  5
2F5E
330
A
100
AcDbEntity
  8
DRAW
  6
CONTINUOUS
100
AcDbCircle
 10
154.9421184522269
 20
141.8547900553475
 30
0.0
 40
2.299999999999998
100
AcDbArc
 50
31.10135008511031
 51
79.98459307075531
  0
LINE
  5
2F5F
330
A
100
AcDbEntity
  8
DRAW
  6
CONTINUOUS
100
AcDbLine
 10
156.4420623817315
 20
142.5034588573091
 30
0.0
 11
155.5907931097256
 21
142.5034588091857
 31
0.0
  0
LINE
  5
2F60
330
A
100
AcDbEntity
  8
DRAW
  6
CONTINUOUS
100
AcDbLine
 10
156.4420623817315
 20
142.5034588573091
 30
0.0
 11
155.6493394022117
 21
142.3547280853331
 31
0.0
  0
LINE
  5
2F61
330
A
100
AcDbEntity
  8
DRAW
  6
CONTINUOUS
100
AcDbLine
 10
155.4420624093575
 20
142.562005054752
 30
0.0
 11
154.4420624093575
 21
142.5620049982206
 31
0.0
  0
LINE
  5
2F62
330
A
100
AcDbEntity
  8
DRAW
  6
CONTINUOUS
100
AcDbLine
 10
154.542118397621
 20
142.981681895776
 30
0.0
 11
155.342118397621
 21
142.9816819410012
 31
0.0
  0
ARC
  5
2F63
330
A
100
AcDbEntity
  8
DRAW
  6
CONTINUOUS
100
AcDbCircle
 10
154.9421184613256
 20
141.8547900555921
 30
0.0
 40
2.299999999999998
100
AcDbArc
 50
90.00000846154808
 51
100.0154134072555
  0
LINE
  5
2F64
330
A
100
AcDbEntity
  8
DRAW
  6
CONTINUOUS
100
AcDbLine
 10
154.4420624093575
 20
142.5620049982206
 30
0.0
 11
154.4420624210752
 21
142.3547280170841
 31
0.0
  0
LINE
  5
2F65
330
A
100
AcDbEntity
  8
DRAW
  6
CONTINUOUS
100
AcDbLine
 10
154.5421183619741
 20
143.3547280219086
 30
0.0
 11
154.542118397621
 21
142.981681895776
 31
0.0
  0
LINE
  5
2F66
330
A
100
AcDbEntity
  8
DRAW
  6
CONTINUOUS
100
AcDbLine
 10
154.5421183359894
 20
143.8143818146479
 30
0.0
 11
154.5421183619741
 21
143.3547280219086
 31
0.0
  0
LINE
  5
2F67
330
A
100
AcDbEntity
  8
DRAW
  6
CONTINUOUS
100
AcDbLine
 10
154.5421183241863
 20
144.1197403633162
 30
0.0
 11
154.5421183359894
 21
143.8143818146479
 31
0.0
  0
LINE
  5
2F68
330
A
100
AcDbEntity
  8
DRAW
  6
CONTINUOUS
100
AcDbLine
 10
155.5907931097256
 20
142.5034588091857
 30
0.0
 11
155.5907930616021
 21
143.3547280811916
 31
0.0
  0
LINE
  5
2F69
330
A
100
AcDbEntity
  8
DRAW
  6
CONTINUOUS
100
AcDbLine
 10
155.5907931097256
 20
142.5034588091857
 30
0.0
 11
155.4420624210752
 21
142.3547280736154
 31
0.0
  0
LINE
  5
2F6A
330
A
100
AcDbEntity
  8
DRAW
  6
CONTINUOUS
100
AcDbLine
 10
155.6493394022117
 20
142.3547280853331
 30
0.0
 11
155.4420624210752
 21
142.3547280736154
 31
0.0
  0
LINE
  5
2F6B
330
A
100
AcDbEntity
  8
DRAW
  6
CONTINUOUS
100
AcDbLine
 10
155.5907930616021
 20
143.3547280811916
 30
0.0
 11
155.4420624093575
 21
142.562005054752
 31
0.0
  0
LINE
  5
2F6C
330
A
100
AcDbEntity
  8
DRAW
  6
CONTINUOUS
100
AcDbLine
 10
155.4420624210752
 20
142.3547280736154
 30
0.0
 11
155.4420624093575
 21
142.562005054752
 31
0.0
  0
LINE
  5
2F6D
330
A
100
AcDbEntity
  8
DRAW
  6
CONTINUOUS
100
AcDbLine
 10
155.5907930616021
 20
143.3547280811916
 30
0.0
 11
155.3421183619741
 21
143.3547280671336
 31
0.0
  0
LINE
  5
2F6E
330
A
100
AcDbEntity
  8
DRAW
  6
CONTINUOUS
100
AcDbLine
 10
155.3421183619741
 20
143.3547280671336
 30
0.0
 11
155.342118397621
 21
142.9816819410012
 31
0.0
  0
ARC
  5
2F6F
330
A
100
AcDbEntity
  8
DRAW
  6
CONTINUOUS
100
AcDbCircle
 10
154.9421184613256
 20
141.8547900555921
 30
0.0
 40
2.299999999999998
100
AcDbArc
 50
79.98459307075531
 51
90.00000846154645
  0
LINE
  5
2F70
330
A
100
AcDbEntity
  8
DRAW
  6
CONTINUOUS
100
AcDbLine
 10
155.3421183619741
 20
143.3547280671336
 30
0.0
 11
155.3421183359894
 21
143.814381859873
 31
0.0
  0
LINE
  5
2F71
330
A
100
AcDbEntity
  8
DRAW
  6
CONTINUOUS
100
AcDbLine
 10
155.3421183359894
 20
143.814381859873
 30
0.0
 11
155.3421183241863
 21
144.1197404085412
 31
0.0
  0
LINE
  5
2F72
330
A
100
AcDbEntity
  8
DRAW
  6
CONTINUOUS
100
AcDbLine
 10
155.4420624776065
 20
141.3547280736154
 30
0.0
 11
155.649339458743
 21
141.3547280853331
 31
0.0
  0
LINE
  5
2F73
330
A
100
AcDbEntity
  8
DRAW
  6
CONTINUOUS
100
AcDbLine
 10
155.649339458743
 20
141.3547280853331
 30
0.0
 11
155.6493394022117
 21
142.3547280853331
 31
0.0
  0
LINE
  5
2F74
330
A
100
AcDbEntity
  8
DRAW
  6
CONTINUOUS
100
AcDbLine
 10
156.2166814371418
 20
143.7693367895602
 30
0.0
 11
156.2199477190165
 21
143.8066705658017
 31
0.0
  0
LINE
  5
2F75
330
A
100
AcDbEntity
  8
DRAW
  6
CONTINUOUS
100
AcDbLine
 10
162.2233741020572
 20
142.5750118804101
 30
0.0
 11
162.2233741754043
 21
141.2775504244221
 31
0.0
  0
LINE
  5
2F76
330
A
100
AcDbEntity
  8
DRAW
  6
CONTINUOUS
100
AcDbLine
 10
159.348400016064
 20
139.7763144392585
 30
0.0
 11
159.3484000160608
 21
137.7262967087647
 31
0.0
  0
LINE
  5
2F77
330
A
100
AcDbEntity
  8
DRAW
  6
CONTINUOUS
100
AcDbLine
 10
159.3484000255646
 20
137.7262967087647
 30
0.0
 11
159.3484000255622
 21
136.2262967087542
 31
0.0
  0
LINE
  5
2F78
330
A
100
AcDbEntity
  8
DRAW
  6
CONTINUOUS
100
AcDbLine
 10
159.3484000160721
 20
144.7262967087647
 30
0.0
 11
159.3484000160714
 21
144.276313922527
 31
0.0
  0
LINE
  5
2F79
330
A
100
AcDbEntity
  8
DRAW
  6
CONTINUOUS
100
AcDbLine
 10
162.4454459754734
 20
143.8781183642148
 30
0.0
 11
162.4487010256176
 21
143.8409129568598
 31
0.0
  0
LINE
  5
2F7A
330
A
100
AcDbEntity
  8
DRAW
  6
CONTINUOUS
100
AcDbLine
 10
168.0984001237537
 20
127.2262990194214
 30
0.0
 11
168.0984001237682
 21
136.2262963057275
 31
0.0
  0
MTEXT
  5
2F7B
330
A
100
AcDbEntity
  8
DRAW-TEXT
  6
CONTINUOUS
100
AcDbMText
 10
165.0750407838827
 20
129.0117651231589
 30
0.0
 40
1.8
 41
2.100499999999999
 71
     1
 72
     1
  1
16
  7
FINDER
1001
ACAD
1000
MTEXTBEGIN
1070
    73
1070
     1
1070
    44
1040
1.0
1070
    74
1070
     0
1000
MTEXTEND
  0
LINE
  5
2F7C
330
A
100
AcDbEntity
  8
DRAW
  6
CONTINUOUS
100
AcDbLine
 10
163.0746448779217
 20
130.2775504725455
 30
0.0
 11
163.0746449260451
 21
129.4262812005396
 31
0.0
  0
LINE
  5
2F7D
330
A
100
AcDbEntity
  8
DRAW
  6
CONTINUOUS
100
AcDbLine
 10
164.3721063820333
 20
129.4262812738868
 30
0.0
 11
164.3721063339099
 21
130.2775505458927
 31
0.0
  0
LINE
  5
2F7E
330
A
100
AcDbEntity
  8
DRAW
  6
CONTINUOUS
100
AcDbLine
 10
164.3721063820333
 20
129.4262812738868
 30
0.0
 11
164.2233756401613
 21
130.2190042851741
 31
0.0
  0
LINE
  5
2F7F
330
A
100
AcDbEntity
  8
DRAW
  6
CONTINUOUS
100
AcDbLine
 10
163.0746449260451
 20
129.4262812005396
 30
0.0
 11
163.2233756401613
 21
130.2190042286427
 31
0.0
  0
LINE
  5
2F80
330
A
100
AcDbEntity
  8
DRAW
  6
CONTINUOUS
100
AcDbLine
 10
163.3234316824053
 20
129.4262812146038
 30
0.0
 11
163.3234316758745
 21
129.7993273415192
 31
0.0
  0
LINE
  5
2F81
330
A
100
AcDbEntity
  8
DRAW
  6
CONTINUOUS
100
AcDbLine
 10
164.1234316824053
 20
129.4262812598288
 30
0.0
 11
164.1234316758745
 21
129.7993273867443
 31
0.0
  0
ARC
  5
2F82
330
A
100
AcDbEntity
  8
DRAW
  6
CONTINUOUS
100
AcDbCircle
 10
163.7234315976048
 20
130.9263432478958
 30
0.0
 40
1.99999998807907
100
AcDbArc
 50
281.5369623415316
 51
78.46304413647989
  0
LINE
  5
2F83
330
A
100
AcDbEntity
  8
DRAW
  6
CONTINUOUS
100
AcDbLine
 10
163.0746449260451
 20
129.4262812005396
 30
0.0
 11
163.3234316824053
 21
129.4262812146038
 31
0.0
  0
LINE
  5
2F84
330
A
100
AcDbEntity
  8
DRAW
  6
CONTINUOUS
100
AcDbLine
 10
164.1234316824053
 20
129.4262812598288
 30
0.0
 11
164.3721063820333
 21
129.4262812738868
 31
0.0
  0
LINE
  5
2F85
330
A
100
AcDbEntity
  8
DRAW
  6
CONTINUOUS
100
AcDbLine
 10
164.1234317083831
 20
128.9667514884485
 30
0.0
 11
164.1234316824053
 21
129.4262812598288
 31
0.0
  0
LINE
  5
2F86
330
A
100
AcDbEntity
  8
DRAW
  6
CONTINUOUS
100
AcDbLine
 10
163.3234316824053
 20
129.4262812146038
 30
0.0
 11
163.3234317083831
 21
128.9667514432235
 31
0.0
  0
LINE
  5
2F87
330
A
100
AcDbEntity
  8
DRAW
  6
CONTINUOUS
100
AcDbLine
 10
164.1234317083831
 20
128.9667514884485
 30
0.0
 11
164.1234317178733
 21
128.8121450159573
 31
0.0
  0
LINE
  5
2F88
330
A
100
AcDbEntity
  8
DRAW
  6
CONTINUOUS
100
AcDbLine
 10
163.3234317083831
 20
128.9667514432235
 30
0.0
 11
163.323431717874
 21
128.8121332122592
 31
0.0
  0
LINE
  5
2F89
330
A
100
AcDbEntity
  8
DRAW
  6
CONTINUOUS
100
AcDbLine
 10
165.2233755325686
 20
131.5750120500042
 30
0.0
 11
164.3721062605627
 21
131.5750120018808
 31
0.0
  0
LINE
  5
2F8A
330
A
100
AcDbEntity
  8
DRAW
  6
CONTINUOUS
100
AcDbLine
 10
165.2233755325686
 20
131.5750120500042
 30
0.0
 11
164.4306525530488
 21
131.4262812780282
 31
0.0
  0
ARC
  5
2F8B
330
A
100
AcDbEntity
  8
DRAW
  6
CONTINUOUS
100
AcDbCircle
 10
163.723431603064
 20
130.9263432480425
 30
0.0
 40
2.299999999999998
100
AcDbArc
 50
31.11561585927085
 51
79.98459307075531
  0
LINE
  5
2F8C
330
A
100
AcDbEntity
  8
DRAW
  6
CONTINUOUS
100
AcDbLine
 10
164.3721063339099
 20
130.2775505458927
 30
0.0
 11
165.2233756059158
 21
130.277550594016
 31
0.0
  0
LINE
  5
2F8D
330
A
100
AcDbEntity
  8
DRAW
  6
CONTINUOUS
100
AcDbLine
 10
165.2233756059158
 20
130.277550594016
 30
0.0
 11
164.4306526095801
 21
130.4262812780282
 31
0.0
  0
LINE
  5
2F8E
330
A
100
AcDbEntity
  8
DRAW
  6
CONTINUOUS
100
AcDbLine
 10
164.3721062605627
 20
131.5750120018808
 30
0.0
 11
164.3721062124393
 21
132.4262812738868
 31
0.0
  0
LINE
  5
2F8F
330
A
100
AcDbEntity
  8
DRAW
  6
CONTINUOUS
100
AcDbLine
 10
163.0746447564511
 20
132.4262812005396
 30
0.0
 11
163.0746448045746
 21
131.5750119285336
 31
0.0
  0
LINE
  5
2F90
330
A
100
AcDbEntity
  8
DRAW
  6
CONTINUOUS
100
AcDbLine
 10
164.3721062605627
 20
131.5750120018808
 30
0.0
 11
164.2233755719124
 21
131.4262812663106
 31
0.0
  0
LINE
  5
2F91
330
A
100
AcDbEntity
  8
DRAW
  6
CONTINUOUS
100
AcDbLine
 10
164.4306525530488
 20
131.4262812780282
 30
0.0
 11
164.2233755719124
 21
131.4262812663106
 31
0.0
  0
LINE
  5
2F92
330
A
100
AcDbEntity
  8
DRAW
  6
CONTINUOUS
100
AcDbLine
 10
164.3721062124393
 20
132.4262812738868
 30
0.0
 11
164.2233755601946
 21
131.6335582474471
 31
0.0
  0
LINE
  5
2F93
330
A
100
AcDbEntity
  8
DRAW
  6
CONTINUOUS
100
AcDbLine
 10
164.2233755719124
 20
131.4262812663106
 30
0.0
 11
164.2233755601946
 21
131.6335582474471
 31
0.0
  0
LINE
  5
2F94
330
A
100
AcDbEntity
  8
DRAW
  6
CONTINUOUS
100
AcDbLine
 10
163.0746447564511
 20
132.4262812005396
 30
0.0
 11
163.2233755601946
 21
131.6335581909157
 31
0.0
  0
LINE
  5
2F95
330
A
100
AcDbEntity
  8
DRAW
  6
CONTINUOUS
100
AcDbLine
 10
164.2233755601946
 20
131.6335582474471
 30
0.0
 11
163.2233755601946
 21
131.6335581909157
 31
0.0
  0
LINE
  5
2F96
330
A
100
AcDbEntity
  8
DRAW
  6
CONTINUOUS
100
AcDbLine
 10
163.0746448045746
 20
131.5750119285336
 30
0.0
 11
163.2233755719124
 21
131.4262812097792
 31
0.0
  0
LINE
  5
2F97
330
A
100
AcDbEntity
  8
DRAW
  6
CONTINUOUS
100
AcDbLine
 10
163.2233755601946
 20
131.6335581909157
 30
0.0
 11
163.2233755719124
 21
131.4262812097792
 31
0.0
  0
LINE
  5
2F98
330
A
100
AcDbEntity
  8
DRAW
  6
CONTINUOUS
100
AcDbLine
 10
163.2233755719124
 20
131.4262812097792
 30
0.0
 11
163.0160985907759
 21
131.4262811980616
 31
0.0
  0
LINE
  5
2F99
330
A
100
AcDbEntity
  8
DRAW
  6
CONTINUOUS
100
AcDbLine
 10
163.3234315128113
 20
132.4262812146038
 30
0.0
 11
163.0746447564511
 21
132.4262812005396
 31
0.0
  0
LINE
  5
2F9A
330
A
100
AcDbEntity
  8
DRAW
  6
CONTINUOUS
100
AcDbLine
 10
164.3721062124393
 20
132.4262812738868
 30
0.0
 11
164.1234315128114
 21
132.4262812598288
 31
0.0
  0
LINE
  5
2F9B
330
A
100
AcDbEntity
  8
DRAW
  6
CONTINUOUS
100
AcDbLine
 10
163.3234315128113
 20
132.4262812146038
 30
0.0
 11
163.323431548458
 21
132.0532350884712
 31
0.0
  0
LINE
  5
2F9C
330
A
100
AcDbEntity
  8
DRAW
  6
CONTINUOUS
100
AcDbLine
 10
164.1234315128114
 20
132.4262812598288
 30
0.0
 11
164.1234315484581
 21
132.0532351336962
 31
0.0
  0
LINE
  5
2F9D
330
A
100
AcDbEntity
  8
DRAW
  6
CONTINUOUS
100
AcDbLine
 10
163.323431548458
 20
132.0532350884712
 30
0.0
 11
164.1234315484581
 21
132.0532351336962
 31
0.0
  0
ARC
  5
2F9E
330
A
100
AcDbEntity
  8
DRAW
  6
CONTINUOUS
100
AcDbCircle
 10
163.7234316121628
 20
130.9263432482872
 30
0.0
 40
2.299999999999998
100
AcDbArc
 50
90.00000846154808
 51
100.0154134072555
  0
ARC
  5
2F9F
330
A
100
AcDbEntity
  8
DRAW
  6
CONTINUOUS
100
AcDbCircle
 10
163.7234316121628
 20
130.9263432482872
 30
0.0
 40
2.299999999999998
100
AcDbArc
 50
79.98459307075531
 51
90.00000846154645
  0
LINE
  5
2FA0
330
A
100
AcDbEntity
  8
DRAW
  6
CONTINUOUS
100
AcDbLine
 10
164.1234315128114
 20
132.4262812598288
 30
0.0
 11
164.1234314868265
 21
132.8859350525681
 31
0.0
  0
LINE
  5
2FA1
330
A
100
AcDbEntity
  8
DRAW
  6
CONTINUOUS
100
AcDbLine
 10
163.3234314868265
 20
132.885935007343
 30
0.0
 11
163.3234315128113
 21
132.4262812146038
 31
0.0
  0
LINE
  5
2FA2
330
A
100
AcDbEntity
  8
DRAW
  6
CONTINUOUS
100
AcDbLine
 10
164.1234314868265
 20
132.8859350525681
 30
0.0
 11
164.1234314750234
 21
133.1912936012363
 31
0.0
  0
LINE
  5
2FA3
330
A
100
AcDbEntity
  8
DRAW
  6
CONTINUOUS
100
AcDbLine
 10
163.3234314750234
 20
133.1912935560112
 30
0.0
 11
163.3234314868265
 21
132.885935007343
 31
0.0
  0
LINE
  5
2FA4
330
A
100
AcDbEntity
  8
DRAW
  6
CONTINUOUS
100
AcDbLine
 10
164.3721063339099
 20
130.2775505458927
 30
0.0
 11
164.2233756284437
 21
130.4262812663106
 31
0.0
  0
LINE
  5
2FA5
330
A
100
AcDbEntity
  8
DRAW
  6
CONTINUOUS
100
AcDbLine
 10
164.2233756401613
 20
130.2190042851741
 30
0.0
 11
164.2233756284437
 21
130.4262812663106
 31
0.0
  0
LINE
  5
2FA6
330
A
100
AcDbEntity
  8
DRAW
  6
CONTINUOUS
100
AcDbLine
 10
164.2233756284437
 20
130.4262812663106
 30
0.0
 11
164.4306526095801
 21
130.4262812780282
 31
0.0
  0
LINE
  5
2FA7
330
A
100
AcDbEntity
  8
DRAW
  6
CONTINUOUS
100
AcDbLine
 10
163.0746448779217
 20
130.2775504725455
 30
0.0
 11
163.2233756284437
 21
130.4262812097792
 31
0.0
  0
LINE
  5
2FA8
330
A
100
AcDbEntity
  8
DRAW
  6
CONTINUOUS
100
AcDbLine
 10
163.0160986473071
 20
130.4262811980616
 30
0.0
 11
163.2233756284437
 21
130.4262812097792
 31
0.0
  0
LINE
  5
2FA9
330
A
100
AcDbEntity
  8
DRAW
  6
CONTINUOUS
100
AcDbLine
 10
163.2233756284437
 20
130.4262812097792
 30
0.0
 11
163.2233756401613
 21
130.2190042286427
 31
0.0
  0
LINE
  5
2FAA
330
A
100
AcDbEntity
  8
DRAW
  6
CONTINUOUS
100
AcDbLine
 10
163.2233756401613
 20
130.2190042286427
 30
0.0
 11
164.2233756401613
 21
130.2190042851741
 31
0.0
  0
LINE
  5
2FAB
330
A
100
AcDbEntity
  8
DRAW
  6
CONTINUOUS
100
AcDbLine
 10
163.3234316758745
 20
129.7993273415192
 30
0.0
 11
164.1234316758745
 21
129.7993273867443
 31
0.0
  0
LINE
  5
2FAC
330
A
100
AcDbEntity
  8
DRAW
  6
CONTINUOUS
100
AcDbLine
 10
164.4306526095801
 20
130.4262812780282
 30
0.0
 11
164.4306525530488
 21
131.4262812780282
 31
0.0
  0
LINE
  5
2FAD
330
A
100
AcDbEntity
  8
DRAW
  6
CONTINUOUS
100
AcDbLine
 10
163.0160985907759
 20
131.4262811980616
 30
0.0
 11
163.0160986473071
 21
130.4262811980616
 31
0.0
  0
LINE
  5
2FAE
330
A
100
AcDbEntity
  8
DRAW
  6
CONTINUOUS
100
AcDbLine
 10
164.9979951286496
 20
132.8408896223168
 30
0.0
 11
165.0012603136225
 21
132.8782108609108
 31
0.0
  0
LINE
  5
2FAF
330
A
100
AcDbEntity
  8
DRAW
  6
CONTINUOUS
100
AcDbLine
 10
165.2233756059158
 20
130.277550594016
 30
0.0
 11
165.2233755325686
 21
131.5750120500042
 31
0.0
  0
LINE
  5
2FB0
330
A
100
AcDbEntity
  8
DRAW
  6
CONTINUOUS
100
AcDbLine
 10
168.0984001237537
 20
127.2262990194214
 30
0.0
 11
167.8984001237536
 21
127.2262990194217
 31
0.0
  0
LINE
  5
2FB1
330
A
100
AcDbEntity
  8
DRAW
  6
CONTINUOUS
100
AcDbLine
 10
167.8984001237536
 20
127.2262990194217
 30
0.0
 11
167.8984001237528
 21
126.7262963057278
 31
0.0
  0
LINE
  5
2FB2
330
A
100
AcDbEntity
  8
DRAW
  6
CONTINUOUS
100
AcDbLine
 10
167.8984001332565
 20
126.7262963057278
 30
0.0
 11
167.8984001332543
 21
125.2262963196696
 31
0.0
  0
MTEXT
  5
2FB3
330
A
100
AcDbEntity
  8
DRAW-TEXT
  6
CONTINUOUS
100
AcDbMText
 10
165.0037828400888
 20
140.2497012413931
 30
0.0
 40
1.8
 41
2.100499999999998
 71
     1
 72
     1
  1
18
  7
FINDER
1001
ACAD
1000
MTEXTBEGIN
1070
    73
1070
     1
1070
    44
1040
1.0
1070
    74
1070
     0
1000
MTEXTEND
  0
LINE
  5
2FB4
330
A
100
AcDbEntity
  8
DRAW
  6
CONTINUOUS
100
AcDbLine
 10
167.8983999400417
 20
144.7262960361863
 30
0.0
 11
166.5983999400417
 21
144.7262960361884
 31
0.0
  0
LINE
  5
2FB5
330
A
100
AcDbEntity
  8
DRAW
  6
CONTINUOUS
100
AcDbLine
 10
167.8983999337075
 20
145.7262960268918
 30
0.0
 11
166.5983999337075
 21
145.7262960268939
 31
0.0
  0
LINE
  5
2FB6
330
A
100
AcDbEntity
  8
DRAW
  6
CONTINUOUS
100
AcDbLine
 10
164.3721049033984
 20
141.2775505458927
 30
0.0
 11
164.2233741979322
 21
141.4262812663105
 31
0.0
  0
LINE
  5
2FB7
330
A
100
AcDbEntity
  8
DRAW
  6
CONTINUOUS
100
AcDbLine
 10
164.2233742096498
 20
141.219004285174
 30
0.0
 11
164.2233741979322
 21
141.4262812663105
 31
0.0
  0
LINE
  5
2FB8
330
A
100
AcDbEntity
  8
DRAW
  6
CONTINUOUS
100
AcDbLine
 10
165.2233741754043
 20
141.277550594016
 30
0.0
 11
164.4306511790687
 21
141.4262812780282
 31
0.0
  0
LINE
  5
2FB9
330
A
100
AcDbEntity
  8
DRAW
  6
CONTINUOUS
100
AcDbLine
 10
163.0746434474103
 20
141.2775504725455
 30
0.0
 11
163.2233741979321
 21
141.4262812097792
 31
0.0
  0
LINE
  5
2FBA
330
A
100
AcDbEntity
  8
DRAW
  6
CONTINUOUS
100
AcDbLine
 10
163.2233741979321
 20
141.4262812097792
 30
0.0
 11
163.2233742096498
 21
141.2190042286426
 31
0.0
  0
LINE
  5
2FBB
330
A
100
AcDbEntity
  8
DRAW
  6
CONTINUOUS
100
AcDbLine
 10
165.2233741754043
 20
141.277550594016
 30
0.0
 11
165.2233741020571
 21
142.5750120500041
 31
0.0
  0
ARC
  5
2FBC
330
A
100
AcDbEntity
  8
DRAW
  6
CONTINUOUS
100
AcDbCircle
 10
163.7234301670933
 20
141.9263432478958
 30
0.0
 40
1.99999998807907
100
AcDbArc
 50
281.5369623415316
 51
78.46304413647989
  0
LINE
  5
2FBD
330
A
100
AcDbEntity
  8
DRAW
  6
CONTINUOUS
100
AcDbLine
 10
164.3721049033984
 20
141.2775505458927
 30
0.0
 11
165.2233741754043
 21
141.277550594016
 31
0.0
  0
LINE
  5
2FBE
330
A
100
AcDbEntity
  8
DRAW
  6
CONTINUOUS
100
AcDbLine
 10
163.0746434474103
 20
141.2775504725455
 30
0.0
 11
163.0746434955336
 21
140.4262812005396
 31
0.0
  0
LINE
  5
2FBF
330
A
100
AcDbEntity
  8
DRAW
  6
CONTINUOUS
100
AcDbLine
 10
164.3721049515218
 20
140.4262812738866
 30
0.0
 11
164.3721049033984
 21
141.2775505458927
 31
0.0
  0
LINE
  5
2FC0
330
A
100
AcDbEntity
  8
DRAW
  6
CONTINUOUS
100
AcDbLine
 10
164.3721049515218
 20
140.4262812738866
 30
0.0
 11
164.2233742096498
 21
141.219004285174
 31
0.0
  0
LINE
  5
2FC1
330
A
100
AcDbEntity
  8
DRAW
  6
CONTINUOUS
100
AcDbLine
 10
163.0746434955336
 20
140.4262812005396
 30
0.0
 11
163.2233742096498
 21
141.2190042286426
 31
0.0
  0
LINE
  5
2FC2
330
A
100
AcDbEntity
  8
DRAW
  6
CONTINUOUS
100
AcDbLine
 10
163.2233742096498
 20
141.2190042286426
 30
0.0
 11
164.2233742096498
 21
141.219004285174
 31
0.0
  0
LINE
  5
2FC3
330
A
100
AcDbEntity
  8
DRAW
  6
CONTINUOUS
100
AcDbLine
 10
163.0746434955336
 20
140.4262812005396
 30
0.0
 11
163.3234302518938
 21
140.4262812146038
 31
0.0
  0
LINE
  5
2FC4
330
A
100
AcDbEntity
  8
DRAW
  6
CONTINUOUS
100
AcDbLine
 10
164.1234302518938
 20
140.4262812598288
 30
0.0
 11
164.3721049515218
 21
140.4262812738866
 31
0.0
  0
LINE
  5
2FC5
330
A
100
AcDbEntity
  8
DRAW
  6
CONTINUOUS
100
AcDbLine
 10
163.3234302518938
 20
140.4262812146038
 30
0.0
 11
163.3234302453631
 21
140.7993273415192
 31
0.0
  0
LINE
  5
2FC6
330
A
100
AcDbEntity
  8
DRAW
  6
CONTINUOUS
100
AcDbLine
 10
164.1234302518938
 20
140.4262812598288
 30
0.0
 11
164.123430245363
 21
140.7993273867443
 31
0.0
  0
LINE
  5
2FC7
330
A
100
AcDbEntity
  8
DRAW
  6
CONTINUOUS
100
AcDbLine
 10
163.3234302453631
 20
140.7993273415192
 30
0.0
 11
164.123430245363
 21
140.7993273867443
 31
0.0
  0
LINE
  5
2FC8
330
A
100
AcDbEntity
  8
DRAW
  6
CONTINUOUS
100
AcDbLine
 10
164.1234302778715
 20
139.9667514884485
 30
0.0
 11
164.1234302518938
 21
140.4262812598288
 31
0.0
  0
LINE
  5
2FC9
330
A
100
AcDbEntity
  8
DRAW
  6
CONTINUOUS
100
AcDbLine
 10
163.3234302518938
 20
140.4262812146038
 30
0.0
 11
163.3234302778716
 21
139.9667514432234
 31
0.0
  0
LINE
  5
2FCA
330
A
100
AcDbEntity
  8
DRAW
  6
CONTINUOUS
100
AcDbLine
 10
164.1234302778715
 20
139.9667514884485
 30
0.0
 11
164.1234302873619
 21
139.8121446189578
 31
0.0
  0
LINE
  5
2FCB
330
A
100
AcDbEntity
  8
DRAW
  6
CONTINUOUS
100
AcDbLine
 10
163.3234302778716
 20
139.9667514432234
 30
0.0
 11
163.3234302873626
 21
139.8121331744071
 31
0.0
  0
LINE
  5
2FCC
330
A
100
AcDbEntity
  8
DRAW
  6
CONTINUOUS
100
AcDbLine
 10
165.2233741020571
 20
142.5750120500041
 30
0.0
 11
164.3721048300512
 21
142.5750120018808
 31
0.0
  0
ARC
  5
2FCD
330
A
100
AcDbEntity
  8
DRAW
  6
CONTINUOUS
100
AcDbCircle
 10
163.7234301725526
 20
141.9263432480425
 30
0.0
 40
2.299999999999998
100
AcDbArc
 50
31.11490778434379
 51
79.98459307075531
  0
LINE
  5
2FCE
330
A
100
AcDbEntity
  8
DRAW
  6
CONTINUOUS
100
AcDbLine
 10
165.2233741020571
 20
142.5750120500041
 30
0.0
 11
164.4306511225374
 21
142.4262812780282
 31
0.0
  0
LINE
  5
2FCF
330
A
100
AcDbEntity
  8
DRAW
  6
CONTINUOUS
100
AcDbLine
 10
164.3721048300512
 20
142.5750120018808
 30
0.0
 11
164.3721047819278
 21
143.4262812738868
 31
0.0
  0
LINE
  5
2FD0
330
A
100
AcDbEntity
  8
DRAW
  6
CONTINUOUS
100
AcDbLine
 10
163.0746433259396
 20
143.4262812005396
 30
0.0
 11
163.0746433740631
 21
142.5750119285336
 31
0.0
  0
LINE
  5
2FD1
330
A
100
AcDbEntity
  8
DRAW
  6
CONTINUOUS
100
AcDbLine
 10
164.3721047819278
 20
143.4262812738868
 30
0.0
 11
164.2233741296832
 21
142.6335582474471
 31
0.0
  0
LINE
  5
2FD2
330
A
100
AcDbEntity
  8
DRAW
  6
CONTINUOUS
100
AcDbLine
 10
163.0746433259396
 20
143.4262812005396
 30
0.0
 11
163.2233741296832
 21
142.6335581909157
 31
0.0
  0
LINE
  5
2FD3
330
A
100
AcDbEntity
  8
DRAW
  6
CONTINUOUS
100
AcDbLine
 10
164.2233741296832
 20
142.6335582474471
 30
0.0
 11
163.2233741296832
 21
142.6335581909157
 31
0.0
  0
LINE
  5
2FD4
330
A
100
AcDbEntity
  8
DRAW
  6
CONTINUOUS
100
AcDbLine
 10
163.3234300822999
 20
143.4262812146038
 30
0.0
 11
163.0746433259396
 21
143.4262812005396
 31
0.0
  0
LINE
  5
2FD5
330
A
100
AcDbEntity
  8
DRAW
  6
CONTINUOUS
100
AcDbLine
 10
164.3721047819278
 20
143.4262812738868
 30
0.0
 11
164.1234300822999
 21
143.4262812598288
 31
0.0
  0
LINE
  5
2FD6
330
A
100
AcDbEntity
  8
DRAW
  6
CONTINUOUS
100
AcDbLine
 10
163.3234300822999
 20
143.4262812146038
 30
0.0
 11
163.3234301179466
 21
143.0532350884712
 31
0.0
  0
LINE
  5
2FD7
330
A
100
AcDbEntity
  8
DRAW
  6
CONTINUOUS
100
AcDbLine
 10
164.1234300822999
 20
143.4262812598288
 30
0.0
 11
164.1234301179467
 21
143.0532351336963
 31
0.0
  0
LINE
  5
2FD8
330
A
100
AcDbEntity
  8
DRAW
  6
CONTINUOUS
100
AcDbLine
 10
163.3234301179466
 20
143.0532350884712
 30
0.0
 11
164.1234301179467
 21
143.0532351336963
 31
0.0
  0
ARC
  5
2FD9
330
A
100
AcDbEntity
  8
DRAW
  6
CONTINUOUS
100
AcDbCircle
 10
163.7234301816513
 20
141.9263432482871
 30
0.0
 40
2.299999999999998
100
AcDbArc
 50
90.00000846154808
 51
100.0154134072555
  0
ARC
  5
2FDA
330
A
100
AcDbEntity
  8
DRAW
  6
CONTINUOUS
100
AcDbCircle
 10
163.7234301816513
 20
141.9263432482871
 30
0.0
 40
2.299999999999998
100
AcDbArc
 50
79.98459307075531
 51
90.00000846154645
  0
LINE
  5
2FDB
330
A
100
AcDbEntity
  8
DRAW
  6
CONTINUOUS
100
AcDbLine
 10
164.1234300822999
 20
143.4262812598288
 30
0.0
 11
164.123430056315
 21
143.8859350525681
 31
0.0
  0
LINE
  5
2FDC
330
A
100
AcDbEntity
  8
DRAW
  6
CONTINUOUS
100
AcDbLine
 10
163.323430056315
 20
143.885935007343
 30
0.0
 11
163.3234300822999
 21
143.4262812146038
 31
0.0
  0
LINE
  5
2FDD
330
A
100
AcDbEntity
  8
DRAW
  6
CONTINUOUS
100
AcDbLine
 10
164.123430056315
 20
143.8859350525681
 30
0.0
 11
164.123430044512
 21
144.1912936012363
 31
0.0
  0
LINE
  5
2FDE
330
A
100
AcDbEntity
  8
DRAW
  6
CONTINUOUS
100
AcDbLine
 10
163.3234300445119
 20
144.1912935560113
 30
0.0
 11
163.323430056315
 21
143.885935007343
 31
0.0
  0
LINE
  5
2FDF
330
A
100
AcDbEntity
  8
DRAW
  6
CONTINUOUS
100
AcDbLine
 10
164.2233741979322
 20
141.4262812663105
 30
0.0
 11
164.4306511790687
 21
141.4262812780282
 31
0.0
  0
LINE
  5
2FE0
330
A
100
AcDbEntity
  8
DRAW
  6
CONTINUOUS
100
AcDbLine
 10
164.4306511790687
 20
141.4262812780282
 30
0.0
 11
164.4306511225374
 21
142.4262812780282
 31
0.0
  0
LINE
  5
2FE1
330
A
100
AcDbEntity
  8
DRAW
  6
CONTINUOUS
100
AcDbLine
 10
164.4306511225374
 20
142.4262812780282
 30
0.0
 11
164.2233741414009
 21
142.4262812663105
 31
0.0
  0
LINE
  5
2FE2
330
A
100
AcDbEntity
  8
DRAW
  6
CONTINUOUS
100
AcDbLine
 10
163.2233741414009
 20
142.4262812097792
 30
0.0
 11
163.0160971602644
 21
142.4262811980616
 31
0.0
  0
LINE
  5
2FE3
330
A
100
AcDbEntity
  8
DRAW
  6
CONTINUOUS
100
AcDbLine
 10
163.0160971602644
 20
142.4262811980616
 30
0.0
 11
163.0160972167957
 21
141.4262811980616
 31
0.0
  0
LINE
  5
2FE4
330
A
100
AcDbEntity
  8
DRAW
  6
CONTINUOUS
100
AcDbLine
 10
163.0160972167957
 20
141.4262811980616
 30
0.0
 11
163.2233741979321
 21
141.4262812097792
 31
0.0
  0
LINE
  5
2FE5
330
A
100
AcDbEntity
  8
DRAW
  6
CONTINUOUS
100
AcDbLine
 10
164.3721048300512
 20
142.5750120018808
 30
0.0
 11
164.2233741414009
 21
142.4262812663105
 31
0.0
  0
LINE
  5
2FE6
330
A
100
AcDbEntity
  8
DRAW
  6
CONTINUOUS
100
AcDbLine
 10
164.2233741414009
 20
142.4262812663105
 30
0.0
 11
164.2233741296832
 21
142.6335582474471
 31
0.0
  0
LINE
  5
2FE7
330
A
100
AcDbEntity
  8
DRAW
  6
CONTINUOUS
100
AcDbLine
 10
163.0746433740631
 20
142.5750119285336
 30
0.0
 11
163.2233741414009
 21
142.4262812097792
 31
0.0
  0
LINE
  5
2FE8
330
A
100
AcDbEntity
  8
DRAW
  6
CONTINUOUS
100
AcDbLine
 10
163.2233741296832
 20
142.6335581909157
 30
0.0
 11
163.2233741414009
 21
142.4262812097792
 31
0.0
  0
LINE
  5
2FE9
330
A
100
AcDbEntity
  8
DRAW
  6
CONTINUOUS
100
AcDbLine
 10
166.5983999400433
 20
145.7262960268939
 30
0.0
 11
166.5983999400417
 21
144.7262960361884
 31
0.0
  0
LINE
  5
2FEA
330
A
100
AcDbEntity
  8
DRAW
  6
CONTINUOUS
100
AcDbLine
 10
164.9979930898581
 20
143.8408900272647
 30
0.0
 11
165.0012583383241
 21
143.8782119915896
 31
0.0
  0
LINE
  5
2FEB
330
A
100
AcDbEntity
  8
DRAW
  6
CONTINUOUS
100
AcDbLine
 10
168.1484275921726
 20
138.9762928938919
 30
0.0
 11
168.1484275921726
 21
141.4762928938918
 31
0.0
  0
LINE
  5
2FEC
330
A
100
AcDbEntity
  8
DRAW
  6
CONTINUOUS
100
AcDbLine
 10
168.0984000160617
 20
138.2262961477205
 30
0.0
 11
168.098400016072
 21
144.7262961477204
 31
0.0
  0
LINE
  5
2FED
330
A
100
AcDbEntity
  8
DRAW
  6
CONTINUOUS
100
AcDbLine
 10
168.0984000160617
 20
138.2262961477205
 30
0.0
 11
167.8984000160616
 21
138.2262961477209
 31
0.0
  0
LINE
  5
2FEE
330
A
100
AcDbEntity
  8
DRAW
  6
CONTINUOUS
100
AcDbLine
 10
167.8984000160616
 20
138.2262961477209
 30
0.0
 11
167.8984000160609
 21
137.7262961477207
 31
0.0
  0
LINE
  5
2FEF
330
A
100
AcDbEntity
  8
DRAW
  6
CONTINUOUS
100
AcDbLine
 10
168.0984000160628
 20
138.9762928938919
 30
0.0
 11
168.1484275921726
 21
138.9762928938919
 31
0.0
  0
LINE
  5
2FF0
330
A
100
AcDbEntity
  8
DRAW
  6
CONTINUOUS
100
AcDbLine
 10
168.0984001237682
 20
136.2262963057275
 30
0.0
 11
167.8984001237681
 21
136.2262963057278
 31
0.0
  0
LINE
  5
2FF1
330
A
100
AcDbEntity
  8
DRAW
  6
CONTINUOUS
100
AcDbLine
 10
167.8984000255645
 20
137.7262961477207
 30
0.0
 11
167.8984000255622
 21
136.2262961616625
 31
0.0
  0
LINE
  5
2FF2
330
A
100
AcDbEntity
  8
DRAW
  6
CONTINUOUS
100
AcDbLine
 10
168.098400016072
 20
144.7262961477204
 30
0.0
 11
167.8984000160721
 21
144.7262961477207
 31
0.0
  0
LINE
  5
2FF3
330
A
100
AcDbEntity
  8
DRAW
  6
CONTINUOUS
100
AcDbLine
 10
167.8983999400433
 20
145.7262960268918
 30
0.0
 11
167.8983999400417
 21
144.7262960361863
 31
0.0
  0
LINE
  5
2FF4
330
A
100
AcDbEntity
  8
DRAW
  6
CONTINUOUS
100
AcDbLine
 10
168.0983999463808
 20
146.7262960454806
 30
0.0
 11
167.8983999463808
 21
146.7262960454809
 31
0.0
  0
LINE
  5
2FF5
330
A
100
AcDbEntity
  8
DRAW
  6
CONTINUOUS
100
AcDbLine
 10
168.0984000160669
 20
141.4762928938918
 30
0.0
 11
168.1484275921726
 21
141.4762928938918
 31
0.0
  0
LINE
  5
2FF6
330
A
100
AcDbEntity
  8
DRAW
  6
CONTINUOUS
100
AcDbLine
 10
168.1484275921726
 20
192.9762928938919
 30
0.0
 11
168.1484275921726
 21
195.4762928938919
 31
0.0
  0
LINE
  5
2FF7
330
A
100
AcDbEntity
  8
DRAW
  6
CONTINUOUS
100
AcDbLine
 10
168.0984000161445
 20
189.7262961477204
 30
0.0
 11
168.098400016155
 21
196.2263024336353
 31
0.0
  0
ARC
  5
2FF8
330
A
100
AcDbEntity
  8
DRAW
  6
CONTINUOUS
100
AcDbCircle
 10
163.7233448285848
 20
192.4262888829838
 30
0.0
 40
2.25
100
AcDbArc
 50
270.0001302940433
 51
90.00013029404328
  0
LINE
  5
2FFE
330
A
100
AcDbEntity
  8
DRAW
  6
CONTINUOUS
100
AcDbLine
 10
150.5484275921727
 20
192.3262928968721
 30
0.0
 11
150.5484275921727
 21
196.1262928909116
 31
0.0
  0
ARC
  5
2FFF
330
A
100
AcDbEntity
  8
DRAW
  6
CONTINUOUS
100
AcDbCircle
 10
154.9733978973686
 20
192.4262952947584
 30
0.0
 40
2.25
100
AcDbArc
 50
89.99999999990718
 51
269.9999999999071
  0
LINE
  5
3000
330
A
100
AcDbEntity
  8
DRAW
  6
CONTINUOUS
100
AcDbLine
 10
150.598400016155
 20
196.226303470712
 30
0.0
 11
150.5984000161445
 21
189.7262967087787
 31
0.0
  0
LINE
  5
3008
330
A
100
AcDbEntity
  8
DRAW
  6
CONTINUOUS
100
AcDbLine
 10
166.59839989697
 20
189.726292903009
 30
0.0
 11
152.0984277702358
 21
189.7262929030324
 31
0.0
  0
LINE
  5
3009
330
A
100
AcDbEntity
  8
DRAW
  6
CONTINUOUS
100
AcDbLine
 10
166.5983998906324
 20
188.7262928937145
 30
0.0
 11
152.0984277638983
 21
188.7262928937378
 31
0.0
  0
LINE
  5
300A
330
A
100
AcDbEntity
  8
DRAW
  6
CONTINUOUS
100
AcDbLine
 10
155.7983998909173
 20
168.2262927047045
 30
0.0
 11
153.7983998909139
 21
168.2262927047077
 31
0.0
  0
LINE
  5
300B
330
A
100
AcDbEntity
  8
DRAW
  6
CONTINUOUS
100
AcDbLine
 10
155.7983998909139
 20
166.2262915000052
 30
0.0
 11
153.7983998909109
 21
166.2262915000084
 31
0.0
  0
LINE
  5
300C
330
A
100
AcDbEntity
  8
DRAW
  6
CONTINUOUS
100
AcDbLine
 10
152.0984277638504
 20
158.9762915301809
 30
0.0
 11
166.5984003635963
 21
158.9762915301575
 31
0.0
  0
LINE
  5
300D
330
A
100
AcDbEntity
  8
DRAW
  6
CONTINUOUS
100
AcDbLine
 10
152.0984277656802
 20
159.476291532864
 30
0.0
 11
166.598400365426
 21
159.4762915328406
 31
0.0
  0
LINE
  5
300E
330
A
100
AcDbEntity
  8
DRAW
  6
CONTINUOUS
100
AcDbLine
 10
152.0984277638601
 20
164.9762923131243
 30
0.0
 11
166.5984003713345
 21
164.9762923131009
 31
0.0
  0
LINE
  5
300F
330
A
100
AcDbEntity
  8
DRAW
  6
CONTINUOUS
100
AcDbLine
 10
152.0984277656883
 20
164.4762923158074
 30
0.0
 11
166.5984003731628
 21
164.4762923157841
 31
0.0
  0
LINE
  5
3010
330
A
100
AcDbEntity
  8
DRAW
  6
CONTINUOUS
100
AcDbLine
 10
152.0983999337765
 20
188.7262967088666
 30
0.0
 11
152.0983999337384
 21
164.9762930780568
 31
0.0
  0
LINE
  5
3011
330
A
100
AcDbEntity
  8
DRAW
  6
CONTINUOUS
100
AcDbLine
 10
150.7983999337766
 20
188.7262967088687
 30
0.0
 11
150.7983999337383
 21
164.9762930780589
 31
0.0
  0
LINE
  5
3012
330
A
100
AcDbEntity
  8
DRAW
  6
CONTINUOUS
100
AcDbLine
 10
152.098427776531
 20
164.4762923214894
 30
0.0
 11
152.0984277765229
 21
159.4762915385459
 31
0.0
  0
LINE
  5
3013
330
A
100
AcDbEntity
  8
DRAW
  6
CONTINUOUS
100
AcDbLine
 10
152.0983999464094
 20
164.4762923158074
 30
0.0
 11
152.0983999464013
 21
159.4762915385459
 31
0.0
  0
LINE
  5
3014
330
A
100
AcDbEntity
  8
DRAW
  6
CONTINUOUS
100
AcDbLine
 10
150.7983999355586
 20
159.476291463658
 30
0.0
 11
152.0983999355586
 21
159.4762914636559
 31
0.0
  0
LINE
  5
3015
330
A
100
AcDbEntity
  8
DRAW
  6
CONTINUOUS
100
AcDbLine
 10
152.0983999337288
 20
158.9762912797711
 30
0.0
 11
150.7983999337288
 21
158.9762912797733
 31
0.0
  0
LINE
  5
3016
330
A
100
AcDbEntity
  8
DRAW
  6
CONTINUOUS
100
AcDbLine
 10
152.0983999337288
 20
158.9762912797711
 30
0.0
 11
152.0983999355586
 21
159.4762914636559
 31
0.0
  0
LINE
  5
3017
330
A
100
AcDbEntity
  8
DRAW
  6
CONTINUOUS
100
AcDbLine
 10
150.7983999337288
 20
158.9762912797733
 30
0.0
 11
150.7983999355586
 21
159.476291463658
 31
0.0
  0
LINE
  5
3018
330
A
100
AcDbEntity
  8
DRAW
  6
CONTINUOUS
100
AcDbLine
 10
152.0983999337384
 20
164.9762930780568
 30
0.0
 11
150.7983999337383
 21
164.9762930780589
 31
0.0
  0
LINE
  5
3019
330
A
100
AcDbEntity
  8
DRAW
  6
CONTINUOUS
100
AcDbLine
 10
150.7983999355666
 20
164.4762924173323
 30
0.0
 11
152.0983999355667
 21
164.4762924173301
 31
0.0
  0
LINE
  5
301A
330
A
100
AcDbEntity
  8
DRAW
  6
CONTINUOUS
100
AcDbLine
 10
152.0983999337384
 20
164.9762930780568
 30
0.0
 11
152.0983999355667
 21
164.4762924173301
 31
0.0
  0
LINE
  5
301B
330
A
100
AcDbEntity
  8
DRAW
  6
CONTINUOUS
100
AcDbLine
 10
150.7983999337383
 20
164.9762930780589
 30
0.0
 11
150.7983999355666
 21
164.4762924173323
 31
0.0
  0
LINE
  5
301C
330
A
100
AcDbEntity
  8
DRAW
  6
CONTINUOUS
100
AcDbLine
 10
153.7983998909109
 20
166.2262915000084
 30
0.0
 11
153.7983998909139
 21
168.2262927047077
 31
0.0
  0
LINE
  5
301D
330
A
100
AcDbEntity
  8
DRAW
  6
CONTINUOUS
100
AcDbLine
 10
152.0983999401124
 20
188.7262967088666
 30
0.0
 11
152.0983999401141
 21
189.7262967088597
 31
0.0
  0
LINE
  5
301E
330
A
100
AcDbEntity
  8
DRAW
  6
CONTINUOUS
100
AcDbLine
 10
150.5984000161445
 20
189.7262967087787
 30
0.0
 11
150.7984000161451
 21
189.7262967087784
 31
0.0
  0
LINE
  5
301F
330
A
100
AcDbEntity
  8
DRAW
  6
CONTINUOUS
100
AcDbLine
 10
150.7983999401148
 20
189.7262967088618
 30
0.0
 11
152.0983999401141
 21
189.7262967088597
 31
0.0
  0
LINE
  5
3020
330
A
100
AcDbEntity
  8
DRAW
  6
CONTINUOUS
100
AcDbLine
 10
150.7983999401125
 20
188.7262967088687
 30
0.0
 11
150.798399940114
 21
189.7262967088618
 31
0.0
  0
LINE
  5
3021
330
A
100
AcDbEntity
  8
DRAW
  6
CONTINUOUS
100
AcDbLine
 10
150.7983999337766
 20
188.7262967088687
 30
0.0
 11
152.0983999337765
 21
188.7262967088666
 31
0.0
  0
LINE
  5
3022
330
A
100
AcDbEntity
  8
DRAW
  6
CONTINUOUS
100
AcDbLine
 10
150.5983999464468
 20
187.7263004503017
 30
0.0
 11
150.7983999464468
 21
187.7263004503014
 31
0.0
  0
ARC
  5
3023
330
A
100
AcDbEntity
  8
DRAW
  6
CONTINUOUS
100
AcDbCircle
 10
150.7484275951529
 20
192.3262928968721
 30
0.0
 40
0.2000000029802322
100
AcDbArc
 50
180.0
 51
221.3976767744701
  0
LINE
  5
3029
330
A
100
AcDbEntity
  8
DRAW
  6
CONTINUOUS
100
AcDbLine
 10
161.0245589426978
 20
170.2684935593065
 30
0.0
 11
161.7400378719076
 21
170.1679395358704
 31
0.0
  0
LINE
  5
302A
330
A
100
AcDbEntity
  8
DRAW
  6
CONTINUOUS
100
AcDbLine
 10
161.7400378719076
 20
170.1679395358704
 30
0.0
 11
161.6528056578617
 21
170.3821647464365
 31
0.0
  0
ARC
  5
302B
330
A
100
AcDbEntity
  8
DRAW
  6
CONTINUOUS
100
AcDbCircle
 10
158.8470047982918
 20
172.4773515592929
 30
0.0
 40
3.701759616582843
100
AcDbArc
 50
321.4007976065568
 51
324.9349966897343
  0
ARC
  5
302C
330
A
100
AcDbEntity
  8
DRAW
  6
CONTINUOUS
100
AcDbCircle
 10
158.8484138569863
 20
172.476296219669
 30
0.0
 40
2.899999999999987
100
AcDbArc
 50
223.4858215385084
 51
316.5141462280637
  0
ARC
  5
302D
330
A
100
AcDbEntity
  8
DRAW
  6
CONTINUOUS
100
AcDbCircle
 10
158.8484138557191
 20
172.4762962178102
 30
0.0
 40
3.10000000298022
100
AcDbArc
 50
225.413708763915
 51
314.5862601892625
  0
ARC
  5
302E
330
A
100
AcDbEntity
  8
DRAW
  6
CONTINUOUS
100
AcDbCircle
 10
158.8484138354206
 20
172.476296231752
 30
0.0
 40
2.799999999999998
100
AcDbArc
 50
269.910161127985
 51
351.7867870856223
  0
ARC
  5
302F
330
A
100
AcDbEntity
  8
DRAW
  6
CONTINUOUS
100
AcDbCircle
 10
158.8484138557191
 20
172.4762962178102
 30
0.0
 40
3.700000002980231
100
AcDbArc
 50
179.999999999908
 51
218.6000182962249
  0
ARC
  5
3030
330
A
100
AcDbEntity
  8
DRAW
  6
CONTINUOUS
100
AcDbCircle
 10
158.8484138569863
 20
172.476296219669
 30
0.0
 40
3.5
100
AcDbArc
 50
323.2500945686626
 51
179.999999999908
  0
LINE
  5
3031
330
A
100
AcDbEntity
  8
DRAW
  6
CONTINUOUS
100
AcDbLine
 10
156.6722675724005
 20
170.268494738493
 30
0.0
 11
155.956788842566
 21
170.1679407847452
 31
0.0
  0
ARC
  5
3032
330
A
100
AcDbEntity
  8
DRAW
  6
CONTINUOUS
100
AcDbCircle
 10
155.9984137859711
 20
168.7262968003095
 30
0.0
 40
3.0
100
AcDbArc
 50
18.46151615300796
 51
87.06880655626804
  0
ARC
  5
3033
330
A
100
AcDbEntity
  8
DRAW
  6
CONTINUOUS
100
AcDbCircle
 10
158.8484138449245
 20
172.4762962456938
 30
0.0
 40
2.799999999999998
100
AcDbArc
 50
195.6201615812902
 51
269.910161127985
  0
SPLINE
  5
3034
330
A
100
AcDbEntity
  8
DRAW
  6
CONTINUOUS
100
AcDbSpline
210
0.0
220
0.0
230
1.0
 70
     8
 71
     3
 72
    17
 73
    13
 74
    11
 42
0.0000000001
 43
0.0000000001
 44
0.000001
 12
-0.6238798482988725
 22
0.7815202715775042
 32
0.0
 13
-0.1077359672318076
 23
0.994179541815575
 33
0.0
 40
0.0
 40
0.0
 40
0.0
 40
0.0
 40
0.0481207348595246
 40
0.0959553983073701
 40
0.1412077985797743
 40
0.1818037659359779
 40
0.199378382245743
 40
0.2143810729940045
 40
0.2261428260704169
 40
0.234173835953637
 40
0.2388389758741522
 40
0.2438562883028208
 40
0.2438562883028208
 40
0.2438562883028208
 40
0.2438562883028208
 10
155.956788842566
 20
170.1679407847452
 30
0.0
 10
155.9467816569779
 20
170.1804765613372
 30
0.0
 10
155.9565285620045
 20
170.2193908580448
 30
0.0
 10
155.9814665364657
 20
170.2563450566129
 30
0.0
 10
156.0055784185287
 20
170.2945702022656
 30
0.0
 10
156.0242540598216
 20
170.323363748816
 30
0.0
 10
156.0367238014926
 20
170.3444031609553
 30
0.0
 10
156.0438327548714
 20
170.3572351035235
 30
0.0
 10
156.0485388526778
 20
170.3682034930484
 30
0.0
 10
156.0510368564922
 20
170.3752320685059
 30
0.0
 10
156.0502695886663
 20
170.3831304943562
 30
0.0
 10
156.0442013036343
 20
170.3805032942904
 30
0.0
 10
156.0440211219652
 20
170.3821659974143
 30
0.0
 11
155.956788842566
 21
170.1679407847452
 31
0.0
 11
155.958368944694
 21
170.2160362485342
 31
0.0
 11
155.9820158241812
 21
170.2576172317901
 31
0.0
 11
156.0064238759827
 21
170.2957227670146
 31
0.0
 11
156.0281234967302
 21
170.3300324589829
 31
0.0
 11
156.0370667586969
 21
170.3451614191303
 31
0.0
 11
156.0441419809376
 21
170.3583910338398
 31
0.0
 11
156.0488127401765
 21
170.3691855096843
 31
0.0
 11
156.0506425520728
 21
170.3770052242635
 31
0.0
 11
156.0489742263921
 21
170.3813619800349
 31
0.0
 11
156.0440211219652
 21
170.3821659974143
 31
0.0
  0
LINE
  5
3035
330
A
100
AcDbEntity
  8
DRAW
  6
CONTINUOUS
100
AcDbLine
 10
166.5983999337384
 20
164.9762905229864
 30
0.0
 11
166.5983999337765
 21
188.7262960268939
 31
0.0
  0
LINE
  5
3036
330
A
100
AcDbEntity
  8
DRAW
  6
CONTINUOUS
100
AcDbLine
 10
167.8983999337385
 20
164.9762905229843
 30
0.0
 11
167.8983999337766
 21
188.7262960268918
 31
0.0
  0
ARC
  5
3037
330
A
100
AcDbEntity
  8
DRAW
  6
CONTINUOUS
100
AcDbCircle
 10
158.8484138557191
 20
172.4762962178102
 30
0.0
 40
3.700000002980231
100
AcDbArc
 50
324.9358373382134
 51
179.999999999908
  0
LINE
  5
3078
330
A
100
AcDbEntity
  8
DRAW
  6
CONTINUOUS
100
AcDbLine
 10
155.7983998909173
 20
168.2262936628691
 30
0.0
 11
155.7983998909139
 21
166.2262915000052
 31
0.0
  0
LINE
  5
3081
330
A
100
AcDbEntity
  8
DRAW
  6
CONTINUOUS
100
AcDbLine
 10
166.5983999337384
 20
164.9762905229864
 30
0.0
 11
167.8983999337385
 21
164.9762905229843
 31
0.0
  0
LINE
  5
3082
330
A
100
AcDbEntity
  8
DRAW
  6
CONTINUOUS
100
AcDbLine
 10
166.5983999355666
 20
164.4762924532983
 30
0.0
 11
167.8983999355667
 21
164.4762924532962
 31
0.0
  0
LINE
  5
3083
330
A
100
AcDbEntity
  8
DRAW
  6
CONTINUOUS
100
AcDbLine
 10
166.5983999355586
 20
159.4762912612054
 30
0.0
 11
167.8983999355586
 21
159.4762912612033
 31
0.0
  0
LINE
  5
3084
330
A
100
AcDbEntity
  8
DRAW
  6
CONTINUOUS
100
AcDbLine
 10
166.5983999337288
 20
158.976293901403
 30
0.0
 11
167.8983999337288
 21
158.976293901401
 31
0.0
  0
LINE
  5
3085
330
A
100
AcDbEntity
  8
DRAW
  6
CONTINUOUS
100
AcDbLine
 10
166.5983999032652
 20
164.4762924532983
 30
0.0
 11
166.5983999032572
 21
159.4762912612054
 31
0.0
  0
LINE
  5
3086
330
A
100
AcDbEntity
  8
DRAW
  6
CONTINUOUS
100
AcDbLine
 10
166.5983999355586
 20
159.4762912612054
 30
0.0
 11
166.5983999337288
 21
158.976293901403
 31
0.0
  0
LINE
  5
3087
330
A
100
AcDbEntity
  8
DRAW
  6
CONTINUOUS
100
AcDbLine
 10
166.5984001289203
 20
159.4762915328406
 30
0.0
 11
166.5984001270904
 21
158.9762915301575
 31
0.0
  0
LINE
  5
3088
330
A
100
AcDbEntity
  8
DRAW
  6
CONTINUOUS
100
AcDbLine
 10
166.5983999337384
 20
164.9762905229864
 30
0.0
 11
166.5983999355666
 21
164.4762924532983
 31
0.0
  0
LINE
  5
3089
330
A
100
AcDbEntity
  8
DRAW
  6
CONTINUOUS
100
AcDbLine
 10
166.5984001327926
 20
164.4762923157841
 30
0.0
 11
166.5984001309644
 21
164.9762923131009
 31
0.0
  0
LINE
  5
308A
330
A
100
AcDbEntity
  8
DRAW
  6
CONTINUOUS
100
AcDbLine
 10
167.8983999337288
 20
158.976293901401
 30
0.0
 11
167.8983999355586
 21
159.4762912612033
 31
0.0
  0
LINE
  5
308B
330
A
100
AcDbEntity
  8
DRAW
  6
CONTINUOUS
100
AcDbLine
 10
167.8983999337385
 20
164.9762905229843
 30
0.0
 11
167.8983999355667
 21
164.4762924532962
 31
0.0
  0
LINE
  5
308C
330
A
100
AcDbEntity
  8
DRAW
  6
CONTINUOUS
100
AcDbLine
 10
163.72334994522
 20
190.1762888829896
 30
0.0
 11
159.3483478264509
 21
190.1762789339721
 31
0.0
  0
ARC
  5
308D
330
A
100
AcDbEntity
  8
DRAW
  6
CONTINUOUS
100
AcDbCircle
 10
161.3484132317712
 20
182.2262928827384
 30
0.0
 40
2.5
100
AcDbArc
 50
214.916061900135
 51
347.9752991444674
  0
ARC
  5
308E
330
A
100
AcDbEntity
  8
DRAW
  6
CONTINUOUS
100
AcDbCircle
 10
161.3484132317712
 20
182.2262928827384
 30
0.0
 40
2.5
100
AcDbArc
 50
347.9752991444832
 51
90.0001945039744
  0
ARC
  5
308F
330
A
100
AcDbEntity
  8
DRAW
  6
CONTINUOUS
100
AcDbCircle
 10
161.3484132298704
 20
182.2262928799501
 30
0.0
 40
2.800000011920928
100
AcDbArc
 50
214.916061900135
 51
145.0834838669361
  0
LINE
  5
3090
330
A
100
AcDbEntity
  8
DRAW
  6
CONTINUOUS
100
AcDbLine
 10
159.2059769347685
 20
181.8262933435724
 30
0.0
 11
163.490833966716
 21
181.8262943883043
 31
0.0
  0
LINE
  5
3091
330
A
100
AcDbEntity
  8
DRAW
  6
CONTINUOUS
100
AcDbLine
 10
159.2059769585178
 20
181.7262933427159
 30
0.0
 11
163.4908339904653
 21
181.7262943874476
 31
0.0
  0
ARC
  5
3092
330
A
100
AcDbEntity
  8
DRAW
  6
CONTINUOUS
100
AcDbCircle
 10
161.3484053525818
 20
182.2262938665719
 30
0.0
 40
2.19999998807907
100
AcDbArc
 50
193.1365728690817
 51
346.8634550705783
  0
ARC
  5
3093
330
A
100
AcDbEntity
  8
DRAW
  6
CONTINUOUS
100
AcDbCircle
 10
161.3484053544796
 20
182.2262938646713
 30
0.0
 40
2.5
100
AcDbArc
 50
214.9161836871237
 51
347.9753147453143
  0
ARC
  5
3094
330
A
100
AcDbEntity
  8
DRAW
  6
CONTINUOUS
100
AcDbCircle
 10
161.3484053525818
 20
182.2262938665719
 30
0.0
 40
2.19999998807907
100
AcDbArc
 50
13.13657286908171
 51
90.00001396982993
  0
LINE
  5
3095
330
A
100
AcDbEntity
  8
DRAW
  6
CONTINUOUS
100
AcDbLine
 10
163.4908337716604
 20
182.6262943883043
 30
0.0
 11
159.2059767397129
 21
182.6262933435724
 31
0.0
  0
LINE
  5
3096
330
A
100
AcDbEntity
  8
DRAW
  6
CONTINUOUS
100
AcDbLine
 10
163.4908337466458
 20
182.7262943904279
 30
0.0
 11
159.2059767146983
 21
182.7262933456961
 31
0.0
  0
LINE
  5
3097
330
A
100
AcDbEntity
  8
DRAW
  6
CONTINUOUS
100
AcDbLine
 10
159.2059769591505
 20
181.7262933427159
 30
0.0
 11
159.2059769347685
 21
181.8262933435724
 31
0.0
  0
ARC
  5
3098
330
A
100
AcDbEntity
  8
DRAW
  6
CONTINUOUS
100
AcDbCircle
 10
161.3484132324048
 20
182.2262928836678
 30
0.0
 40
3.2
100
AcDbArc
 50
180.0
 51
214.916061900135
  0
ARC
  5
3099
330
A
100
AcDbEntity
  8
DRAW
  6
CONTINUOUS
100
AcDbCircle
 10
161.3484132317712
 20
182.2262928827384
 30
0.0
 40
2.5
100
AcDbArc
 50
179.999999999908
 51
192.0246510885049
  0
ARC
  5
309A
330
A
100
AcDbEntity
  8
DRAW
  6
CONTINUOUS
100
AcDbCircle
 10
161.3484132298704
 20
182.2262928799501
 30
0.0
 40
2.800000011920928
100
AcDbArc
 50
179.999999999908
 51
214.9160507700397
  0
ARC
  5
309B
330
A
100
AcDbEntity
  8
DRAW
  6
CONTINUOUS
100
AcDbCircle
 10
159.0010665593694
 20
181.7262932908541
 30
0.0
 40
0.1000000014901162
100
AcDbArc
 50
90.00001396982993
 51
192.0247131943444
  0
ARC
  5
309C
330
A
100
AcDbEntity
  8
DRAW
  6
CONTINUOUS
100
AcDbCircle
 10
161.3486796428284
 20
182.2262928809908
 30
0.0
 40
6.383064033058241
100
AcDbArc
 50
146.1950878295746
 51
213.8048914709835
  0
ARC
  5
309D
330
A
100
AcDbEntity
  8
DRAW
  6
CONTINUOUS
100
AcDbCircle
 10
161.3482114096841
 20
182.2262928799864
 30
0.0
 40
6.665517683453776
100
AcDbArc
 50
146.1927920751758
 51
213.8071872253828
  0
ARC
  5
309E
330
A
100
AcDbEntity
  8
DRAW
  6
CONTINUOUS
100
AcDbCircle
 10
161.348413238107
 20
182.2262928920329
 30
0.0
 40
5.199999999999987
100
AcDbArc
 50
154.9999945493495
 51
204.9999876538362
  0
LINE
  5
309F
330
A
100
AcDbEntity
  8
DRAW
  6
CONTINUOUS
100
AcDbLine
 10
156.6356122719719
 20
180.0286789465013
 30
0.0
 11
158.4482277906851
 21
180.8739155887029
 31
0.0
  0
LINE
  5
30A0
330
A
100
AcDbEntity
  8
DRAW
  6
CONTINUOUS
100
AcDbLine
 10
156.3519435621036
 20
178.5912795087215
 30
0.0
 11
158.7505218896958
 21
179.7097551428204
 31
0.0
  0
LINE
  5
30A1
330
A
100
AcDbEntity
  8
DRAW
  6
CONTINUOUS
100
AcDbLine
 10
156.4714780754242
 20
178.3349369588196
 30
0.0
 11
158.8700564030164
 21
179.4534125929185
 31
0.0
  0
LINE
  5
30A2
330
A
100
AcDbEntity
  8
DRAW
  6
CONTINUOUS
100
AcDbLine
 10
161.6196951429779
 20
172.8762961247311
 30
0.0
 11
156.0771325587575
 21
172.8762963387728
 31
0.0
  0
LINE
  5
30A3
330
A
100
AcDbEntity
  8
DRAW
  6
CONTINUOUS
100
AcDbLine
 10
156.0771325278633
 20
172.0762963387729
 30
0.0
 11
161.6196951120836
 21
172.076296124731
 31
0.0
  0
ARC
  5
30A4
330
A
100
AcDbEntity
  8
DRAW
  6
CONTINUOUS
100
AcDbCircle
 10
155.998414075605
 20
176.226295883316
 30
0.0
 40
3.0
100
AcDbArc
 50
272.9311890184543
 51
341.5384794217136
  0
ARC
  5
30A5
330
A
100
AcDbEntity
  8
DRAW
  6
CONTINUOUS
100
AcDbCircle
 10
158.8484138449245
 20
172.4762962456938
 30
0.0
 40
2.799999999999998
100
AcDbArc
 50
90.08983444673733
 51
164.3798339934317
  0
LINE
  5
30A6
330
A
100
AcDbEntity
  8
DRAW
  6
CONTINUOUS
100
AcDbLine
 10
156.7443342571481
 20
170.480588566343
 30
0.0
 11
156.0440211219652
 21
170.3821659974143
 31
0.0
  0
LINE
  5
30A7
330
A
100
AcDbEntity
  8
DRAW
  6
CONTINUOUS
100
AcDbLine
 10
155.1484138527389
 20
172.476296219675
 30
0.0
 11
155.3484138569863
 21
172.4762962196746
 31
0.0
  0
ARC
  5
30A8
330
A
100
AcDbEntity
  8
DRAW
  6
CONTINUOUS
100
AcDbCircle
 10
158.8484138354206
 20
172.476296231752
 30
0.0
 40
2.799999999999998
100
AcDbArc
 50
164.3798339934317
 51
171.7867870856231
  0
ARC
  5
30A9
330
A
100
AcDbEntity
  8
DRAW
  6
CONTINUOUS
100
AcDbCircle
 10
158.8484138354206
 20
172.476296231752
 30
0.0
 40
2.799999999999998
100
AcDbArc
 50
188.213208489099
 51
195.6201615812902
  0
ARC
  5
30AA
330
A
100
AcDbEntity
  8
DRAW
  6
CONTINUOUS
100
AcDbCircle
 10
158.8484138417566
 20
172.4762962410465
 30
0.0
 40
2.799999999999998
100
AcDbArc
 50
187.3831978843119
 51
188.213208489099
  0
LINE
  5
30AB
330
A
100
AcDbEntity
  8
DRAW
  6
CONTINUOUS
100
AcDbLine
 10
156.0716289516061
 20
172.1164828535354
 30
0.0
 11
155.4484134669035
 21
172.4762965306097
 31
0.0
  0
ARC
  5
30AC
330
A
100
AcDbEntity
  8
DRAW
  6
CONTINUOUS
100
AcDbCircle
 10
158.8484138417566
 20
172.4762962410465
 30
0.0
 40
2.799999999999998
100
AcDbArc
 50
171.7867870856231
 51
172.6167903308468
  0
LINE
  5
30AD
330
A
100
AcDbEntity
  8
DRAW
  6
CONTINUOUS
100
AcDbLine
 10
155.4484134669037
 20
172.4762965306097
 30
0.0
 11
156.0716290256141
 21
172.8361101996986
 31
0.0
  0
ARC
  5
30AE
330
A
100
AcDbEntity
  8
DRAW
  6
CONTINUOUS
100
AcDbCircle
 10
158.8484138569863
 20
172.476296219669
 30
0.0
 40
3.5
100
AcDbArc
 50
179.999999999908
 51
216.7498798724964
  0
LINE
  5
30AF
330
A
100
AcDbEntity
  8
DRAW
  6
CONTINUOUS
100
AcDbLine
 10
156.6722675724005
 20
170.2684947384929
 30
0.0
 11
156.7443342571488
 21
170.4805885663421
 31
0.0
  0
ARC
  5
30B0
330
A
100
AcDbEntity
  8
DRAW
  6
CONTINUOUS
100
AcDbCircle
 10
175.7512436078782
 20
175.5091374342669
 30
0.0
 40
19.64264790834207
100
AcDbArc
 50
166.6977354610953
 51
170.9724387400978
  0
ARC
  5
30B1
330
A
100
AcDbEntity
  8
DRAW
  6
CONTINUOUS
100
AcDbCircle
 10
169.3662876904881
 20
173.6667060455177
 30
0.0
 40
14.231823347852
100
AcDbArc
 50
153.4470650501092
 51
159.3961437271492
  0
SPLINE
  5
30B2
330
A
100
AcDbEntity
  8
DRAW
  6
CONTINUOUS
100
AcDbSpline
210
0.0
220
0.0
230
1.0
 70
     8
 71
     3
 72
    14
 73
    10
 74
     8
 42
0.0000000001
 43
0.0000000001
 44
0.000001
 12
0.3353918106587033
 22
-0.9420787299069418
 32
0.0
 13
0.7637338121302552
 23
0.6455313038180165
 33
0.0
 40
0.0
 40
0.0
 40
0.0
 40
0.0
 40
0.0595914879067305
 40
0.1168341543140505
 40
0.1693720042678338
 40
0.2200620182487376
 40
0.2726596062487594
 40
0.3298781376686946
 40
0.3893509666744746
 40
0.3893509666744746
 40
0.3893509666744746
 40
0.3893509666744746
 10
156.0447827221701
 20
178.6749593799458
 30
0.0
 10
156.0514448878464
 20
178.6562460888657
 30
0.0
 10
156.0679025545693
 20
178.6206605301489
 30
0.0
 10
156.1021992059494
 20
178.575042502967
 30
0.0
 10
156.1464854833041
 20
178.5432762364763
 30
0.0
 10
156.1976642601903
 20
178.5292384966437
 30
0.0
 10
156.2519809007613
 20
178.5340556380843
 30
0.0
 10
156.3046431492342
 20
178.556022780643
 30
0.0
 10
156.3367472914703
 20
178.5784568595316
 30
0.0
 10
156.3518877616086
 20
178.5912540504816
 30
0.0
 11
156.0447827221701
 21
178.6749593799458
 31
0.0
 11
156.0701060417405
 21
178.6210155941991
 31
0.0
 11
156.1053447752084
 21
178.5759049769023
 31
0.0
 11
156.1483978056936
 21
178.5457938775733
 31
0.0
 11
156.1972856245751
 21
178.5323970420951
 31
0.0
 11
156.2497286118017
 21
178.5364288486438
 31
0.0
 11
156.3029330884274
 21
178.5574825248248
 31
0.0
 11
156.3518877616086
 21
178.5912540504816
 31
0.0
  0
SPLINE
  5
30B3
330
A
100
AcDbEntity
  8
DRAW
  6
CONTINUOUS
100
AcDbSpline
210
0.0
220
0.0
230
1.0
 70
     8
 71
     3
 72
    10
 73
     6
 74
     4
 42
0.0000000001
 43
0.0000000001
 44
0.000001
 12
0.558413888796672
 22
-0.8295624924012527
 32
0.0
 13
0.9052420206055638
 23
0.4248963216244123
 33
0.0
 40
0.0
 40
0.0
 40
0.0
 40
0.0
 40
0.2489722797555994
 40
0.4967067706826094
 40
0.745730504256914
 40
0.745730504256914
 40
0.745730504256914
 40
0.745730504256914
 10
155.8097538877464
 20
178.5175911778411
 30
0.0
 10
155.8560970807266
 20
178.4487451561968
 30
0.0
 10
155.9781705110417
 20
178.3268387727331
 30
0.0
 10
156.2289578066309
 20
178.257749034221
 30
0.0
 10
156.3962816436296
 20
178.2996419369554
 30
0.0
 10
156.4714238928828
 20
178.3349116930864
 30
0.0
 11
155.8097538877464
 21
178.5175911778411
 31
0.0
 11
155.9897724118481
 21
178.3456007132532
 31
0.0
 11
156.2285900481109
 21
178.2797325792513
 31
0.0
 11
156.4714238928828
 21
178.3349116930864
 31
0.0
  0
LINE
  5
30B4
330
A
100
AcDbEntity
  8
DRAW
  6
CONTINUOUS
100
AcDbLine
 10
156.0447557288736
 20
178.6749695269296
 30
0.0
 11
155.8097349117758
 21
178.5175998392305
 31
0.0
  0
LINE
  5
30B5
330
A
100
AcDbEntity
  8
DRAW
  6
CONTINUOUS
100
AcDbLine
 10
156.3519435670615
 20
178.5912795110333
 30
0.0
 11
156.4714780789299
 21
178.3349369604542
 31
0.0
  0
ARC
  5
30B6
330
A
100
AcDbEntity
  8
DRAW
  6
CONTINUOUS
100
AcDbCircle
 10
158.8484138354206
 20
172.476296231752
 30
0.0
 40
2.799999999999998
100
AcDbArc
 50
8.213208489099089
 51
89.9999977873615
  0
ARC
  5
30B7
330
A
100
AcDbEntity
  8
DRAW
  6
CONTINUOUS
100
AcDbCircle
 10
158.8484138354206
 20
172.476296231752
 30
0.0
 40
2.799999999999998
100
AcDbArc
 50
89.9999977873615
 51
90.08983444673733
  0
ARC
  5
30B8
330
A
100
AcDbEntity
  8
DRAW
  6
CONTINUOUS
100
AcDbCircle
 10
158.8484138417566
 20
172.4762962410465
 30
0.0
 40
2.799999999999998
100
AcDbArc
 50
351.7867870856223
 51
8.213208489099089
  0
LINE
  5
30B9
330
A
100
AcDbEntity
  8
DRAW
  6
CONTINUOUS
100
AcDbLine
 10
161.0245589426976
 20
170.2684935593064
 30
0.0
 11
160.9524923340794
 21
170.4805873826305
 31
0.0
  0
LINE
  5
30BA
330
A
100
AcDbEntity
  8
DRAW
  6
CONTINUOUS
100
AcDbLine
 10
160.9524923340801
 20
170.4805873826313
 30
0.0
 11
161.6528056578451
 21
170.3821647464144
 31
0.0
  0
ARC
  5
30BB
330
A
100
AcDbEntity
  8
DRAW
  6
CONTINUOUS
100
AcDbCircle
 10
163.7974341588483
 20
181.6415994505781
 30
0.0
 40
5.404012146635206
100
AcDbArc
 50
188.1669589288432
 51
200.945720057667
  0
LINE
  5
30BC
330
A
100
AcDbEntity
  8
DRAW
  6
CONTINUOUS
100
AcDbLine
 10
158.870056406522
 20
179.4534125945531
 30
0.0
 11
158.7505218946537
 21
179.7097551451323
 31
0.0
  0
LINE
  5
30BD
330
A
100
AcDbEntity
  8
DRAW
  6
CONTINUOUS
100
AcDbLine
 10
159.0524371675251
 20
180.6236407381056
 30
0.0
 11
158.7244405851838
 21
180.3946904304491
 31
0.0
  0
LINE
  5
30BE
330
A
100
AcDbEntity
  8
DRAW
  6
CONTINUOUS
100
AcDbLine
 10
159.0524371530911
 20
180.6236407275431
 30
0.0
 11
159.2984346011299
 21
180.7953534661613
 31
0.0
  0
ARC
  5
30BF
330
A
100
AcDbEntity
  8
DRAW
  6
CONTINUOUS
100
AcDbCircle
 10
161.3484053544796
 20
182.2262938646713
 30
0.0
 40
2.5
100
AcDbArc
 50
192.0247131943453
 51
214.9161836868366
  0
ARC
  5
30C0
330
A
100
AcDbEntity
  8
DRAW
  6
CONTINUOUS
100
AcDbCircle
 10
157.2227696605306
 20
208.3265953409081
 30
0.0
 40
26.67413303643892
100
AcDbArc
 50
273.6120719806435
 51
274.2638451425218
  0
SPLINE
  5
30C1
330
A
100
AcDbEntity
  8
DRAW
  6
CONTINUOUS
100
AcDbSpline
210
0.0
220
0.0
230
1.0
 70
     8
 71
     3
 72
    14
 73
    10
 74
     8
 42
0.0000000001
 43
0.0000000001
 44
0.000001
 12
0.885533118818294
 22
0.4645762536720375
 32
0.0
 13
-0.5723762193604274
 23
0.8199911362390841
 33
0.0
 40
0.0
 40
0.0
 40
0.0
 40
0.0
 40
0.0885367680063103
 40
0.1883147669036434
 40
0.2980704258758291
 40
0.4137804656223933
 40
0.5305767028628434
 40
0.6447627449081019
 40
0.7518121513996016
 40
0.7518121513996016
 40
0.7518121513996016
 40
0.7518121513996016
 10
158.750521335123
 20
179.7097570848373
 30
0.0
 10
158.7766554152239
 20
179.7234677781682
 30
0.0
 10
158.823542458926
 20
179.7696489222249
 30
0.0
 10
158.860784591165
 20
179.8636230435031
 30
0.0
 10
158.8712477709523
 20
179.9725673693635
 30
0.0
 10
158.8590418169033
 20
180.0865965760323
 30
0.0
 10
158.8280819764114
 20
180.198400362148
 30
0.0
 10
158.7829280523654
 20
180.3019807926905
 30
0.0
 10
158.7448646907778
 20
180.3654307432734
 30
0.0
 10
158.724440512587
 20
180.3946905980943
 30
0.0
 11
158.750521335123
 21
179.7097570848373
 31
0.0
 11
158.8155803719484
 21
179.7698087115504
 31
0.0
 11
158.8551297350009
 21
179.8614137226781
 31
0.0
 11
158.8674316710037
 21
179.9704777246443
 31
0.0
 11
158.8559914094181
 21
180.0856208014572
 31
0.0
 11
158.8252334184975
 21
180.1982942411184
 31
0.0
 11
158.779706992048
 21
180.3030119331697
 31
0.0
 11
158.724440512587
 21
180.3946905980943
 31
0.0
  0
SPLINE
  5
30C2
330
A
100
AcDbEntity
  8
DRAW
  6
CONTINUOUS
100
AcDbSpline
210
0.0
220
0.0
230
1.0
 70
     8
 71
     3
 72
    14
 73
    10
 74
     8
 42
0.0000000001
 43
0.0000000001
 44
0.000001
 12
0.9062290930914251
 22
0.4227869804460559
 32
0.0
 13
-0.5723764709051497
 23
0.8199909606539371
 33
0.0
 40
0.0
 40
0.0
 40
0.0
 40
0.0
 40
0.1896773651229283
 40
0.3795888102285505
 40
0.5697416904790784
 40
0.760012222949097
 40
0.9503521885697182
 40
1.140681176274832
 40
1.33098716267146
 40
1.33098716267146
 40
1.33098716267146
 40
1.33098716267146
 10
158.8701073904888
 20
179.4534363748924
 30
0.0
 10
158.9274044393472
 20
179.4801674150455
 30
0.0
 10
159.0327465264363
 20
179.5559280881002
 30
0.0
 10
159.1434540769659
 20
179.7136633572052
 30
0.0
 10
159.2067669823958
 20
179.8950889125874
 30
0.0
 10
159.2264540098246
 20
180.0858140632512
 30
0.0
 10
159.206601815781
 20
180.2763713754655
 30
0.0
 10
159.1501253907642
 20
180.4593226708266
 30
0.0
 10
159.0887457766145
 20
180.5716248074494
 30
0.0
 10
159.0524368869859
 20
180.6236412036506
 30
0.0
 11
158.8701073904888
 21
179.4534363748924
 31
0.0
 11
159.0247961135075
 21
179.5632055587704
 31
0.0
 11
159.13550275418
 21
179.7175117468113
 31
0.0
 11
159.1994815781629
 21
179.896578316808
 31
0.0
 11
159.2198637443636
 21
180.0857540386176
 31
0.0
 11
159.2004972076708
 21
180.2751062259345
 31
0.0
 11
159.1441901023882
 21
180.456915571697
 31
0.0
 11
159.0524368869859
 21
180.6236412036506
 31
0.0
  0
LINE
  5
30C3
330
A
100
AcDbEntity
  8
DRAW
  6
CONTINUOUS
100
AcDbLine
 10
156.6356129545795
 20
184.4239083014216
 30
0.0
 11
158.4482285230727
 21
183.5786717659735
 31
0.0
  0
ARC
  5
30C4
330
A
100
AcDbEntity
  8
DRAW
  6
CONTINUOUS
100
AcDbCircle
 10
161.3484132324048
 20
182.2262928836678
 30
0.0
 40
3.2
100
AcDbArc
 50
145.0834838669361
 51
180.0
  0
LINE
  5
30C5
330
A
100
AcDbEntity
  8
DRAW
  6
CONTINUOUS
100
AcDbLine
 10
156.3519437825403
 20
185.8613078765455
 30
0.0
 11
158.7505385659526
 21
184.7428247409517
 31
0.0
  0
LINE
  5
30C6
330
A
100
AcDbEntity
  8
DRAW
  6
CONTINUOUS
100
AcDbLine
 10
156.4714782807635
 20
186.1176504313094
 30
0.0
 11
158.870073064176
 21
184.9991672957157
 31
0.0
  0
LINE
  5
30C7
330
A
100
AcDbEntity
  8
DRAW
  6
CONTINUOUS
100
AcDbLine
 10
158.5484132358309
 20
182.2262928836678
 30
0.0
 11
158.1484132324048
 21
182.2262928836678
 31
0.0
  0
LINE
  5
30C8
330
A
100
AcDbEntity
  8
DRAW
  6
CONTINUOUS
100
AcDbLine
 10
154.9733978973649
 20
190.1762952947585
 30
0.0
 11
159.3484000161453
 21
190.1762952947515
 31
0.0
  0
ARC
  5
30C9
330
A
100
AcDbEntity
  8
DRAW
  6
CONTINUOUS
100
AcDbCircle
 10
175.7497154164836
 20
188.9431572050585
 30
0.0
 40
19.6410927286948
100
AcDbArc
 50
189.0274738701603
 51
193.3024600397326
  0
ARC
  5
30CA
330
A
100
AcDbEntity
  8
DRAW
  6
CONTINUOUS
100
AcDbCircle
 10
169.3671574838351
 20
190.7862531686405
 30
0.0
 40
14.23276706441314
100
AcDbArc
 50
200.6040369603408
 51
206.5527103930579
  0
SPLINE
  5
30CB
330
A
100
AcDbEntity
  8
DRAW
  6
CONTINUOUS
100
AcDbSpline
210
0.0
220
0.0
230
1.0
 70
     8
 71
     3
 72
    14
 73
    10
 74
     8
 42
0.0000000001
 43
0.0000000001
 44
0.000001
 12
0.3353903819077549
 22
0.9420792385589283
 32
0.0
 13
0.7637339853248012
 23
-0.6455310989099568
 33
0.0
 40
0.0
 40
0.0
 40
0.0
 40
0.0
 40
0.060407076249111
 40
0.1165402900628865
 40
0.1691554277840531
 40
0.2201037818201541
 40
0.2726311254984386
 40
0.3297784413950824
 40
0.3893183710690715
 40
0.3893183710690715
 40
0.3893183710690715
 40
0.3893183710690715
 10
156.0447840008589
 20
185.7776283100101
 30
0.0
 10
156.0515373183166
 20
185.7965977274756
 30
0.0
 10
156.0677608858636
 20
185.8322089820295
 30
0.0
 10
156.1023969303596
 20
185.8775030884797
 30
0.0
 10
156.1464783475514
 20
185.9089702399205
 30
0.0
 10
156.197621778876
 20
185.9235197797319
 30
0.0
 10
156.2520155434724
 20
185.9185544259647
 30
0.0
 10
156.3046087937788
 20
185.8965582998892
 30
0.0
 10
156.3367304307075
 20
185.8741449574712
 30
0.0
 10
156.3518879866328
 20
185.8613333320608
 30
0.0
 11
156.0447840008589
 21
185.7776283100101
 31
0.0
 11
156.0704076575881
 21
185.8323320543584
 31
0.0
 11
156.105181915467
 21
185.8763968139854
 31
0.0
 11
156.1483179306304
 21
185.9065240978623
 31
0.0
 11
156.1973799394511
 21
185.9202598469827
 31
0.0
 11
156.2497507531088
 21
185.9162057439903
 31
0.0
 11
156.3028708820678
 21
185.8951325236684
 31
0.0
 11
156.3518879866328
 21
185.8613333320608
 31
0.0
  0
SPLINE
  5
30CC
330
A
100
AcDbEntity
  8
DRAW
  6
CONTINUOUS
100
AcDbSpline
210
0.0
220
0.0
230
1.0
 70
     8
 71
     3
 72
    10
 73
     6
 74
     4
 42
0.0000000001
 43
0.0000000001
 44
0.000001
 12
0.5584141348998757
 22
0.8295623267386382
 32
0.0
 13
0.9052420667429712
 23
-0.4248962233286078
 33
0.0
 40
0.0
 40
0.0
 40
0.0
 40
0.0
 40
0.2489347440590352
 40
0.4967754202323734
 40
0.7457712298893995
 40
0.7457712298893995
 40
0.7457712298893995
 40
0.7457712298893995
 10
155.809755227608
 20
185.934996588265
 30
0.0
 10
155.8560914541915
 20
186.0038322167608
 30
0.0
 10
155.9781527623774
 20
186.1257602839004
 30
0.0
 10
156.2289632021003
 20
186.1949458967458
 30
0.0
 10
156.3962902773345
 20
186.1529414871843
 30
0.0
 10
156.4714241044493
 20
186.117675694135
 30
0.0
 11
155.809755227608
 21
185.934996588265
 31
0.0
 11
155.9897231712745
 21
186.1069856546153
 31
0.0
 11
156.2286332570022
 21
186.1729179601491
 31
0.0
 11
156.4714241044493
 21
186.117675694135
 31
0.0
  0
LINE
  5
30CD
330
A
100
AcDbEntity
  8
DRAW
  6
CONTINUOUS
100
AcDbLine
 10
155.8097362550658
 20
185.9349879267803
 30
0.0
 11
156.044757016734
 21
185.7776181584788
 31
0.0
  0
LINE
  5
30CE
330
A
100
AcDbEntity
  8
DRAW
  6
CONTINUOUS
100
AcDbLine
 10
156.4714782814214
 20
186.117650431003
 30
0.0
 11
156.3519437825403
 21
185.8613078765456
 31
0.0
  0
ARC
  5
30F3
330
A
100
AcDbEntity
  8
DRAW
  6
CONTINUOUS
100
AcDbCircle
 10
161.3484053525818
 20
182.2262938665719
 30
0.0
 40
2.19999998807907
100
AcDbArc
 50
90.00001396982993
 51
166.8634550705783
  0
ARC
  5
30F4
330
A
100
AcDbEntity
  8
DRAW
  6
CONTINUOUS
100
AcDbCircle
 10
161.3484053544796
 20
182.2262938646713
 30
0.0
 40
2.5
100
AcDbArc
 50
90.00001396982993
 51
145.0833829404409
  0
ARC
  5
30F5
330
A
100
AcDbEntity
  8
DRAW
  6
CONTINUOUS
100
AcDbCircle
 10
163.7987448860124
 20
182.8105665874631
 30
0.0
 40
5.405368712247112
100
AcDbArc
 50
159.0550865879789
 51
171.830593066699
  0
LINE
  5
30F6
330
A
100
AcDbEntity
  8
DRAW
  6
CONTINUOUS
100
AcDbLine
 10
158.8700730648337
 20
184.999167295409
 30
0.0
 11
158.7505385659526
 21
184.7428247409517
 31
0.0
  0
LINE
  5
30F7
330
A
100
AcDbEntity
  8
DRAW
  6
CONTINUOUS
100
AcDbLine
 10
159.0524498766892
 20
183.8289632289208
 30
0.0
 11
158.7244551059544
 21
184.0579161393172
 31
0.0
  0
ARC
  5
30F8
330
A
100
AcDbEntity
  8
DRAW
  6
CONTINUOUS
100
AcDbCircle
 10
161.3484132317712
 20
182.2262928827384
 30
0.0
 40
2.5
100
AcDbArc
 50
167.9753309960916
 51
179.999999999908
  0
LINE
  5
30F9
330
A
100
AcDbEntity
  8
DRAW
  6
CONTINUOUS
100
AcDbLine
 10
158.5484132179495
 20
182.2262928827429
 30
0.0
 11
158.8484132317711
 21
182.2262928827424
 31
0.0
  0
ARC
  5
30FA
330
A
100
AcDbEntity
  8
DRAW
  6
CONTINUOUS
100
AcDbCircle
 10
161.3484132298704
 20
182.2262928799501
 30
0.0
 40
2.800000011920928
100
AcDbArc
 50
145.0834678221252
 51
179.999999999908
  0
LINE
  5
30FB
330
A
100
AcDbEntity
  8
DRAW
  6
CONTINUOUS
100
AcDbLine
 10
159.2059767153308
 20
182.7262933456961
 30
0.0
 11
159.2059767397129
 21
182.6262933435724
 31
0.0
  0
ARC
  5
30FC
330
A
100
AcDbEntity
  8
DRAW
  6
CONTINUOUS
100
AcDbCircle
 10
157.2227884740796
 20
156.1260750127393
 30
0.0
 40
26.67404818560046
100
AcDbArc
 50
85.73618231781379
 51
86.38795755246645
  0
ARC
  5
30FD
330
A
100
AcDbEntity
  8
DRAW
  6
CONTINUOUS
100
AcDbCircle
 10
159.0010663155499
 20
182.7262932938344
 30
0.0
 40
0.1000000014901161
100
AcDbArc
 50
167.9753147453152
 51
270.0000139698299
  0
LINE
  5
30FE
330
A
100
AcDbEntity
  8
DRAW
  6
CONTINUOUS
100
AcDbLine
 10
159.0524503101863
 20
183.828963881183
 30
0.0
 11
159.2984463461993
 21
183.6572491252766
 31
0.0
  0
ARC
  5
30FF
330
A
100
AcDbEntity
  8
DRAW
  6
CONTINUOUS
100
AcDbCircle
 10
161.3484053544796
 20
182.2262938646713
 30
0.0
 40
2.5
100
AcDbArc
 50
145.0833829406792
 51
167.9753147453143
  0
SPLINE
  5
3100
330
A
100
AcDbEntity
  8
DRAW
  6
CONTINUOUS
100
AcDbSpline
210
0.0
220
0.0
230
1.0
 70
     8
 71
     3
 72
    14
 73
    10
 74
     8
 42
0.0000000001
 43
0.0000000001
 44
0.000001
 12
0.8863280225278035
 22
-0.4630579191439807
 32
0.0
 13
-0.5723798210784532
 23
-0.8199886221297207
 33
0.0
 40
0.0
 40
0.0
 40
0.0
 40
0.0
 40
0.0885713982031953
 40
0.1884156010460944
 40
0.2981514658851505
 40
0.4136981632678193
 40
0.5304993646412374
 40
0.6447079043449967
 40
0.7517467341331572
 40
0.7517467341331572
 40
0.7517467341331572
 40
0.7517467341331572
 10
158.7505374535961
 20
184.7428192270781
 30
0.0
 10
158.7767052243368
 20
184.7291479979622
 30
0.0
 10
158.8235951355855
 20
184.6828615510553
 30
0.0
 10
158.8606739358624
 20
184.5888287107818
 30
0.0
 10
158.8713179467497
 20
184.4799458107631
 30
0.0
 10
158.8590164452153
 20
184.3659745420941
 30
0.0
 10
158.8280925159025
 20
184.2542168295287
 30
0.0
 10
158.7829490817711
 20
184.1506220122607
 30
0.0
 10
158.7448772485339
 20
184.0871728546079
 30
0.0
 10
158.7244549597864
 20
184.0579159804238
 30
0.0
 11
158.7505374535961
 21
184.7428192270781
 31
0.0
 11
158.8156059281166
 21
184.6827267794109
 31
0.0
 11
158.8550853791098
 21
184.591019533737
 31
0.0
 11
158.8674552566324
 21
184.4819831363349
 31
0.0
 11
158.8560000875254
 21
184.3670056915706
 31
0.0
 11
158.8252439648702
 21
184.2543265961788
 31
0.0
 11
158.779719169692
 21
184.1495836635409
 31
0.0
 11
158.7244549597864
 21
184.0579159804238
 31
0.0
  0
SPLINE
  5
3101
330
A
100
AcDbEntity
  8
DRAW
  6
CONTINUOUS
100
AcDbSpline
210
0.0
220
0.0
230
1.0
 70
     8
 71
     3
 72
    14
 73
    10
 74
     8
 42
0.0000000001
 43
0.0000000001
 44
0.000001
 12
0.9060770361018549
 22
-0.4231127564241925
 32
0.0
 13
-0.5723802401632855
 23
-0.8199883295941594
 33
0.0
 40
0.0
 40
0.0
 40
0.0
 40
0.0
 40
0.1896757727791504
 40
0.3794458801249687
 40
0.5694742192625064
 40
0.7599499273589938
 40
0.9502618731588194
 40
1.141032450765938
 40
1.330858017636808
 40
1.330858017636808
 40
1.330858017636808
 40
1.330858017636808
 10
158.8702127263668
 20
184.9991021245138
 30
0.0
 10
158.9274996803735
 20
184.972350711498
 30
0.0
 10
159.0327548498713
 20
184.8965768189153
 30
0.0
 10
159.1435065256493
 20
184.7389731756473
 30
0.0
 10
159.2066673953063
 20
184.5575242512112
 30
0.0
 10
159.2265898425341
 20
184.3668099428771
 30
0.0
 10
159.2065856591536
 20
184.1760397247509
 30
0.0
 10
159.1499997259541
 20
183.9931555307473
 30
0.0
 10
159.0886677670631
 20
183.8808488012255
 30
0.0
 10
159.0524502992116
 20
183.828963884728
 30
0.0
 11
158.8702127263668
 21
184.9991021245138
 31
0.0
 11
159.0248681991816
 21
184.889288849157
 31
0.0
 11
159.1355179743532
 21
184.7351158168082
 31
0.0
 11
159.1994195834621
 21
184.5561539134529
 31
0.0
 11
159.2199358039414
 21
184.3667863066461
 31
0.0
 11
159.200508270929
 21
184.1774685335315
 31
0.0
 11
159.1439747135508
 21
183.9952670588265
 31
0.0
 11
159.0524502992116
 21
183.828963884728
 31
0.0
  0
SPLINE
  5
3102
330
A
100
AcDbEntity
  8
DRAW
  6
CONTINUOUS
100
AcDbSpline
210
0.0
220
0.0
230
1.0
 70
     8
 71
     3
 72
    15
 73
    11
 74
     9
 42
0.0000000001
 43
0.0000000001
 44
0.000001
 12
-0.0000002460928984
 22
0.9999999999999698
 32
0.0
 13
0.9999999999999705
 23
0.0000002438194851
 33
0.0
 40
0.0
 40
0.0
 40
0.0
 40
0.0
 40
0.0052516213483316
 40
0.0117421597254395
 40
0.0207111226411136
 40
0.0454370395266722
 40
0.0780513375510576
 40
0.1168365050968554
 40
0.1598367684716642
 40
0.2049103998343082
 40
0.2049103998343082
 40
0.2049103998343082
 40
0.2049103998343082
 10
159.0010665349874
 20
181.8262932923443
 30
0.0
 10
159.0010665345566
 20
181.8280438327937
 30
0.0
 10
159.0077308005958
 20
181.8252947335501
 30
0.0
 10
159.0132291390889
 20
181.8266995359186
 30
0.0
 10
159.0274001894055
 20
181.8259239425642
 30
0.0
 10
159.0489511319769
 20
181.8264758383044
 30
0.0
 10
159.0812403454086
 20
181.8262285459074
 30
0.0
 10
159.1192869127527
 20
181.8263151061184
 30
0.0
 10
159.1616010619761
 20
181.8262877205346
 30
0.0
 10
159.1909523909809
 20
181.8262933399092
 30
0.0
 10
159.2059769347685
 20
181.8262933435724
 30
0.0
 11
159.0010665349874
 21
181.8262932923443
 31
0.0
 11
159.0063188633949
 21
181.82629329391
 31
0.0
 11
159.012809401772
 21
181.8262932956306
 31
0.0
 11
159.0217783646876
 21
181.8262932979496
 31
0.0
 11
159.0465042815732
 21
181.826293304219
 31
0.0
 11
159.0791185795976
 21
181.8262933123701
 31
0.0
 11
159.1179037471434
 21
181.8262933219756
 31
0.0
 11
159.1609040105182
 21
181.8262933325519
 31
0.0
 11
159.2059769347685
 21
181.8262933435724
 31
0.0
  0
SPLINE
  5
3103
330
A
100
AcDbEntity
  8
DRAW
  6
CONTINUOUS
100
AcDbSpline
210
0.0
220
0.0
230
1.0
 70
     8
 71
     3
 72
    15
 73
    11
 74
     9
 42
0.0000000001
 43
0.0000000001
 44
0.000001
 12
-0.0000002460928984
 22
0.9999999999999698
 32
0.0
 13
0.9999999999999705
 23
0.0000002438196034
 33
0.0
 40
0.0
 40
0.0
 40
0.0
 40
0.0
 40
0.0052516213481327
 40
0.0117421597253259
 40
0.0207111226410283
 40
0.0454370395265585
 40
0.0780513375509724
 40
0.1168365050966565
 40
0.1598367684715505
 40
0.2049103998341945
 40
0.2049103998341945
 40
0.2049103998341945
 40
0.2049103998341945
 10
159.0010663399319
 20
182.6262932923443
 30
0.0
 10
159.0010663395011
 20
182.6280438327936
 30
0.0
 10
159.0077306055402
 20
182.6252947335502
 30
0.0
 10
159.0132289440333
 20
182.6266995359186
 30
0.0
 10
159.0273999943499
 20
182.6259239425643
 30
0.0
 10
159.0489509369214
 20
182.6264758383042
 30
0.0
 10
159.0812401503529
 20
182.6262285459075
 30
0.0
 10
159.1192867176971
 20
182.6263151061182
 30
0.0
 10
159.1616008669204
 20
182.6262877205346
 30
0.0
 10
159.1909521959253
 20
182.6262933399091
 30
0.0
 10
159.2059767397129
 20
182.6262933435724
 30
0.0
 11
159.0010663399319
 21
182.6262932923443
 31
0.0
 11
159.0063186683392
 21
182.62629329391
 31
0.0
 11
159.0128092067164
 21
182.6262932956305
 31
0.0
 11
159.0217781696321
 21
182.6262932979496
 31
0.0
 11
159.0465040865176
 21
182.626293304219
 31
0.0
 11
159.079118384542
 21
182.6262933123701
 31
0.0
 11
159.1179035520877
 21
182.6262933219755
 31
0.0
 11
159.1609038154626
 21
182.6262933325519
 31
0.0
 11
159.2059767397129
 21
182.6262933435724
 31
0.0
  0
LINE
  5
3104
330
A
100
AcDbEntity
  8
DRAW
  6
CONTINUOUS
100
AcDbLine
 10
161.3484048180768
 20
184.4262938546508
 30
0.0
 11
161.3484047449309
 21
184.7262938646713
 31
0.0
  0
LINE
  5
3105
330
A
100
AcDbEntity
  8
DRAW
  6
CONTINUOUS
100
AcDbLine
 10
159.3484000161453
 20
190.1762952947515
 30
0.0
 11
159.3484000161445
 21
189.7262967087646
 31
0.0
  0
LINE
  5
3106
330
A
100
AcDbEntity
  8
DRAW
  6
CONTINUOUS
100
AcDbLine
 10
163.490833991098
 20
181.7262943874476
 30
0.0
 11
163.490833966716
 21
181.8262943883043
 31
0.0
  0
ARC
  5
3107
330
A
100
AcDbEntity
  8
DRAW
  6
CONTINUOUS
100
AcDbCircle
 10
163.6957443934095
 20
181.7262944355083
 30
0.0
 40
0.1000000014901159
100
AcDbArc
 50
347.975314745316
 51
90.00001396982993
  0
LINE
  5
3108
330
A
100
AcDbEntity
  8
DRAW
  6
CONTINUOUS
100
AcDbLine
 10
163.4908339904653
 20
181.7262943874476
 30
0.0
 11
163.7935501882165
 21
181.7054611256365
 31
0.0
  0
LINE
  5
3109
330
A
100
AcDbEntity
  8
DRAW
  6
CONTINUOUS
100
AcDbLine
 10
167.8983999400781
 20
189.7262960361863
 30
0.0
 11
166.5983999401141
 21
189.7262960361884
 31
0.0
  0
LINE
  5
310A
330
A
100
AcDbEntity
  8
DRAW
  6
CONTINUOUS
100
AcDbLine
 10
167.8983999337766
 20
188.7262960268918
 30
0.0
 11
166.5983999337765
 21
188.7262960268939
 31
0.0
  0
LINE
  5
310B
330
A
100
AcDbEntity
  8
DRAW
  6
CONTINUOUS
100
AcDbLine
 10
163.490833966716
 20
181.8262943883043
 30
0.0
 11
163.6957443690276
 21
181.8262944369983
 31
0.0
  0
ARC
  5
310C
330
A
100
AcDbEntity
  8
DRAW
  6
CONTINUOUS
100
AcDbCircle
 10
163.69574414959
 20
182.7262944384885
 30
0.0
 40
0.1000000014901162
100
AcDbArc
 50
270.0000139698299
 51
12.02471319434534
  0
LINE
  5
310D
330
A
100
AcDbEntity
  8
DRAW
  6
CONTINUOUS
100
AcDbLine
 10
163.7935499342378
 20
182.7471277960541
 30
0.0
 11
163.4908337466458
 21
182.7262943904279
 31
0.0
  0
LINE
  5
310E
330
A
100
AcDbEntity
  8
DRAW
  6
CONTINUOUS
100
AcDbLine
 10
163.695744173972
 20
182.6262944369984
 30
0.0
 11
163.4908337716604
 21
182.6262943883043
 31
0.0
  0
LINE
  5
310F
330
A
100
AcDbEntity
  8
DRAW
  6
CONTINUOUS
100
AcDbLine
 10
163.4908337472784
 20
182.7262943904279
 30
0.0
 11
163.4908337716604
 21
182.6262943883043
 31
0.0
  0
LINE
  5
3110
330
A
100
AcDbEntity
  8
DRAW
  6
CONTINUOUS
100
AcDbLine
 10
166.5983999401141
 20
189.7262960361884
 30
0.0
 11
166.5983999401125
 21
188.7262960268939
 31
0.0
  0
LINE
  5
3111
330
A
100
AcDbEntity
  8
DRAW
  6
CONTINUOUS
100
AcDbLine
 10
168.0984001492029
 20
192.9762928938919
 30
0.0
 11
168.1484275921726
 21
192.9762928938919
 31
0.0
  0
LINE
  5
3112
330
A
100
AcDbEntity
  8
DRAW
  6
CONTINUOUS
100
AcDbLine
 10
168.0984000161445
 20
189.7262961477204
 30
0.0
 11
167.8984000160979
 21
189.7262961477207
 31
0.0
  0
LINE
  5
3113
330
A
100
AcDbEntity
  8
DRAW
  6
CONTINUOUS
100
AcDbLine
 10
167.8983999401125
 20
188.7262960268918
 30
0.0
 11
167.8983999401141
 21
189.7262960361863
 31
0.0
  0
LINE
  5
3114
330
A
100
AcDbEntity
  8
DRAW
  6
CONTINUOUS
100
AcDbLine
 10
168.0983999464468
 20
187.7263020919169
 30
0.0
 11
167.8983999464468
 21
187.7263020919173
 31
0.0
  0
MTEXT
  5
3115
330
A
100
AcDbEntity
  8
DRAW-TEXT
  6
CONTINUOUS
100
AcDbMText
 10
151.273457359229
 20
200.7123598601667
 30
0.0
 40
1.8
 41
2.413642393911672
 71
     1
 72
     1
  1
A1
  7
FINDER
1001
ACAD
1000
MTEXTBEGIN
1070
    73
1070
     1
1070
    44
1040
1.0
1070
    74
1070
     0
1000
MTEXTEND
  0
DIMENSION
  5
3116
330
A
100
AcDbEntity
  8
DIM
  6
CONTINUOUS
100
AcDbDimension
  2
*D12
 10
168.0983999464468
 20
220.2500266821974
 30
0.0
 11
159.3483999464468
 21
221.7940580600964
 31
0.0
 70
    32
  3
FINDER
100
AcDbAlignedDimension
 13
150.5983999464468
 23
211.2149535470459
 33
0.0
 14
168.0983999464468
 24
211.2149535470459
 34
0.0
100
AcDbRotatedDimension
  0
LINE
  5
3117
330
A
100
AcDbEntity
  8
DRAW
  6
CONTINUOUS
100
AcDbLine
 10
154.3247497087423
 20
204.175035241891
 30
0.0
 11
153.4734804367364
 21
204.1750351937677
 31
0.0
  0
LINE
  5
3118
330
A
100
AcDbEntity
  8
DRAW
  6
CONTINUOUS
100
AcDbLine
 10
153.4734805100836
 20
202.8775737377794
 30
0.0
 11
154.3247497820896
 21
202.8775737859028
 31
0.0
  0
LINE
  5
3119
330
A
100
AcDbEntity
  8
DRAW
  6
CONTINUOUS
100
AcDbLine
 10
154.4734804142085
 20
204.0263045214731
 30
0.0
 11
154.266203433072
 21
204.0263045097555
 31
0.0
  0
LINE
  5
311A
330
A
100
AcDbEntity
  8
DRAW
  6
CONTINUOUS
100
AcDbLine
 10
154.2662034896033
 20
203.0263045097555
 30
0.0
 11
154.4734804707399
 21
203.0263045214732
 31
0.0
  0
ARC
  5
311B
330
A
100
AcDbEntity
  8
DRAW
  6
CONTINUOUS
100
AcDbCircle
 10
154.9734244395882
 20
203.5262425397412
 30
0.0
 40
2.299999999999998
100
AcDbArc
 50
211.1002710748223
 51
259.9845930707552
  0
ARC
  5
311C
330
A
100
AcDbEntity
  8
DRAW
  6
CONTINUOUS
100
AcDbCircle
 10
154.9734244450474
 20
203.526242539888
 30
0.0
 40
1.99999998807907
100
AcDbArc
 50
101.5369623415316
 51
258.4630441364798
  0
ARC
  5
311D
330
A
100
AcDbEntity
  8
DRAW
  6
CONTINUOUS
100
AcDbCircle
 10
154.973398005096
 20
203.426294340966
 30
0.0
 40
2.25
100
AcDbArc
 50
89.99999999990718
 51
269.9999999999071
  0
LINE
  5
311E
330
A
100
AcDbEntity
  8
DRAW
  6
CONTINUOUS
100
AcDbLine
 10
150.7984001238831
 20
207.7262967086603
 30
0.0
 11
159.3484001238832
 21
207.7262967086465
 31
0.0
  0
LINE
  5
311F
330
A
100
AcDbEntity
  8
DRAW
  6
CONTINUOUS
100
AcDbLine
 10
150.7984001333894
 20
209.2262967086498
 30
0.0
 11
159.3484001333894
 21
209.2262967086361
 31
0.0
  0
LINE
  5
3120
330
A
100
AcDbEntity
  8
DRAW
  6
CONTINUOUS
100
AcDbLine
 10
150.7984000161558
 20
196.7262967087784
 30
0.0
 11
159.3484000161558
 21
196.7262967087646
 31
0.0
  0
LINE
  5
3121
330
A
100
AcDbEntity
  8
DRAW
  6
CONTINUOUS
100
AcDbLine
 10
150.7984000256757
 20
198.226296708768
 30
0.0
 11
159.348400025662
 21
198.2262967087542
 31
0.0
  0
LINE
  5
3122
330
A
100
AcDbEntity
  8
DRAW
  6
CONTINUOUS
100
AcDbLine
 10
150.5984001238824
 20
207.2263005233564
 30
0.0
 11
150.5984001238679
 21
198.2262967086606
 31
0.0
  0
LINE
  5
3124
330
A
100
AcDbEntity
  8
DRAW
  6
CONTINUOUS
100
AcDbLine
 10
150.7484275951529
 20
196.2263034707117
 30
0.0
 11
150.7484275951529
 21
196.3262928938918
 31
0.0
  0
ARC
  5
3125
330
A
100
AcDbEntity
  8
DRAW
  6
CONTINUOUS
100
AcDbCircle
 10
150.7484275951529
 20
196.1262928909116
 30
0.0
 40
0.2000000029802322
100
AcDbArc
 50
90.0
 51
180.0
  0
LINE
  5
3126
330
A
100
AcDbEntity
  8
DRAW
  6
CONTINUOUS
100
AcDbLine
 10
150.7484275951529
 20
196.3262928938918
 30
0.0
 11
150.7984000161551
 21
196.3262928938918
 31
0.0
  0
LINE
  5
3127
330
A
100
AcDbEntity
  8
DRAW
  6
CONTINUOUS
100
AcDbLine
 10
150.798400016155
 20
196.2263034707115
 30
0.0
 11
150.7984000161558
 21
196.7262967087784
 31
0.0
  0
LINE
  5
3128
330
A
100
AcDbEntity
  8
DRAW
  6
CONTINUOUS
100
AcDbLine
 10
150.5984001238679
 20
198.2262967086606
 30
0.0
 11
150.7984001238802
 21
198.2262967419358
 31
0.0
  0
LINE
  5
3129
330
A
100
AcDbEntity
  8
DRAW
  6
CONTINUOUS
100
AcDbLine
 10
150.598400016155
 20
196.226303470712
 30
0.0
 11
150.798400016155
 21
196.2263034707115
 31
0.0
  0
LINE
  5
312A
330
A
100
AcDbEntity
  8
DRAW
  6
CONTINUOUS
100
AcDbLine
 10
150.7984000256596
 20
196.7262967087784
 30
0.0
 11
150.798400025662
 21
198.226296708768
 31
0.0
  0
LINE
  5
312B
330
A
100
AcDbEntity
  8
DRAW
  6
CONTINUOUS
100
AcDbLine
 10
153.4734805100836
 20
202.8775737377794
 30
0.0
 11
154.2662034896033
 21
203.0263045097555
 31
0.0
  0
LINE
  5
312C
330
A
100
AcDbEntity
  8
DRAW
  6
CONTINUOUS
100
AcDbLine
 10
154.266203433072
 20
204.0263045097555
 30
0.0
 11
154.2662034896033
 21
203.0263045097555
 31
0.0
  0
LINE
  5
312D
330
A
100
AcDbEntity
  8
DRAW
  6
CONTINUOUS
100
AcDbLine
 10
153.6988616799698
 20
201.6116956555428
 30
0.0
 11
153.6955950952073
 21
201.5743584172783
 31
0.0
  0
LINE
  5
312E
330
A
100
AcDbEntity
  8
DRAW
  6
CONTINUOUS
100
AcDbLine
 10
153.4734804367364
 20
204.1750351937677
 30
0.0
 11
153.4734805100836
 21
202.8775737377794
 31
0.0
  0
LINE
  5
312F
330
A
100
AcDbEntity
  8
DRAW
  6
CONTINUOUS
100
AcDbLine
 10
153.4734804367364
 20
204.1750351937677
 30
0.0
 11
154.266203433072
 21
204.0263045097555
 31
0.0
  0
LINE
  5
3130
330
A
100
AcDbEntity
  8
DRAW
  6
CONTINUOUS
100
AcDbLine
 10
150.7984001333869
 20
207.7262967086603
 30
0.0
 11
150.7984001333894
 21
209.2262967086498
 31
0.0
  0
LINE
  5
3131
330
A
100
AcDbEntity
  8
DRAW
  6
CONTINUOUS
100
AcDbLine
 10
150.5984001238824
 20
207.2263005233564
 30
0.0
 11
150.7984001238824
 21
207.2263005233561
 31
0.0
  0
LINE
  5
3132
330
A
100
AcDbEntity
  8
DRAW
  6
CONTINUOUS
100
AcDbLine
 10
150.7984001238831
 20
207.7262967086603
 30
0.0
 11
150.7984001238824
 21
207.2263005233561
 31
0.0
  0
POINT
  5
3133
330
A
100
AcDbEntity
  8
DRAW
  6
CONTINUOUS
100
AcDbPoint
 10
150.5984001263524
 20
207.226302430635
 30
0.0
  0
ARC
  5
3134
330
A
100
AcDbEntity
  8
DRAW
  6
CONTINUOUS
100
AcDbCircle
 10
163.7234022426565
 20
203.4262915086382
 30
0.0
 40
2.25
100
AcDbArc
 50
269.9999999999071
 51
89.99999999990718
  0
LINE
  5
3135
330
A
100
AcDbEntity
  8
DRAW
  6
CONTINUOUS
100
AcDbLine
 10
163.0747535234396
 20
204.175035241891
 30
0.0
 11
162.2234842514337
 21
204.1750351937677
 31
0.0
  0
LINE
  5
3136
330
A
100
AcDbEntity
  8
DRAW
  6
CONTINUOUS
100
AcDbLine
 10
162.2234843247809
 20
202.8775737377794
 30
0.0
 11
163.0747535967868
 21
202.8775737859028
 31
0.0
  0
LINE
  5
3137
330
A
100
AcDbEntity
  8
DRAW
  6
CONTINUOUS
100
AcDbLine
 10
162.2234842514337
 20
204.1750351937677
 30
0.0
 11
163.0162072477693
 21
204.0263045097555
 31
0.0
  0
LINE
  5
3138
330
A
100
AcDbEntity
  8
DRAW
  6
CONTINUOUS
100
AcDbLine
 10
162.2234843247809
 20
202.8775737377794
 30
0.0
 11
163.0162073043005
 21
203.0263045097555
 31
0.0
  0
ARC
  5
3139
330
A
100
AcDbEntity
  8
DRAW
  6
CONTINUOUS
100
AcDbCircle
 10
163.7234282542855
 20
203.5262425397412
 30
0.0
 40
2.299999999999998
100
AcDbArc
 50
211.1002743104829
 51
259.9845930707552
  0
ARC
  5
313A
330
A
100
AcDbEntity
  8
DRAW
  6
CONTINUOUS
100
AcDbCircle
 10
163.7234282597446
 20
203.526242539888
 30
0.0
 40
1.99999998807907
100
AcDbArc
 50
101.5369623415316
 51
258.4630441364798
  0
ARC
  5
313B
330
A
100
AcDbEntity
  8
DRAW
  6
CONTINUOUS
100
AcDbCircle
 10
163.7234294800647
 20
203.4262895908931
 30
0.0
 40
2.25
100
AcDbArc
 50
90.00076877032871
 51
269.9992312453646
  0
LINE
  5
313C
330
A
100
AcDbEntity
  8
DRAW
  6
CONTINUOUS
100
AcDbLine
 10
159.348401748494
 20
205.6762909919255
 30
0.0
 11
163.7234022426602
 21
205.6762915086382
 31
0.0
  0
LINE
  5
313D
330
A
100
AcDbEntity
  8
DRAW
  6
CONTINUOUS
100
AcDbLine
 10
163.723402242653
 20
201.1762915086381
 30
0.0
 11
159.3484015884756
 21
201.1762915086451
 31
0.0
  0
LINE
  5
313E
330
A
100
AcDbEntity
  8
DRAW
  6
CONTINUOUS
100
AcDbLine
 10
167.8984001238831
 20
207.7262963057278
 30
0.0
 11
159.3484001238832
 21
207.7262963057416
 31
0.0
  0
LINE
  5
313F
330
A
100
AcDbEntity
  8
DRAW
  6
CONTINUOUS
100
AcDbLine
 10
167.8984001333894
 20
209.2262963196696
 30
0.0
 11
159.3484001333894
 21
209.2262963196834
 31
0.0
  0
LINE
  5
3140
330
A
100
AcDbEntity
  8
DRAW
  6
CONTINUOUS
100
AcDbLine
 10
159.3483375931819
 20
194.6762784172406
 30
0.0
 11
163.7233397119509
 21
194.6762883662582
 31
0.0
  0
LINE
  5
3141
330
A
100
AcDbEntity
  8
DRAW
  6
CONTINUOUS
100
AcDbLine
 10
167.8984000256531
 20
198.2262961616625
 30
0.0
 11
159.348400025662
 21
198.2262961616763
 31
0.0
  0
LINE
  5
3142
330
A
100
AcDbEntity
  8
DRAW
  6
CONTINUOUS
100
AcDbLine
 10
167.8984000161558
 20
196.7262961477208
 30
0.0
 11
159.3484000161558
 21
196.7262961477345
 31
0.0
  0
LINE
  5
3143
330
A
100
AcDbEntity
  8
DRAW
  6
CONTINUOUS
100
AcDbLine
 10
155.6222111647305
 20
204.1750353152381
 30
0.0
 11
155.6222111166071
 21
205.0263045872442
 31
0.0
  0
LINE
  5
3144
330
A
100
AcDbEntity
  8
DRAW
  6
CONTINUOUS
100
AcDbLine
 10
154.324749660619
 20
205.026304513897
 30
0.0
 11
154.3247497087423
 21
204.175035241891
 31
0.0
  0
LINE
  5
3145
330
A
100
AcDbEntity
  8
DRAW
  6
CONTINUOUS
100
AcDbLine
 10
154.324749660619
 20
205.026304513897
 30
0.0
 11
154.4734804024909
 21
204.2335815026095
 31
0.0
  0
LINE
  5
3146
330
A
100
AcDbEntity
  8
DRAW
  6
CONTINUOUS
100
AcDbLine
 10
155.6222111166071
 20
205.0263045872442
 30
0.0
 11
155.4734804024909
 21
204.2335815591409
 31
0.0
  0
LINE
  5
3147
330
A
100
AcDbEntity
  8
DRAW
  6
CONTINUOUS
100
AcDbLine
 10
155.3734243602469
 20
205.0263045731799
 30
0.0
 11
155.3734243667777
 21
204.6532584462644
 31
0.0
  0
LINE
  5
3148
330
A
100
AcDbEntity
  8
DRAW
  6
CONTINUOUS
100
AcDbLine
 10
154.573424360247
 20
205.0263045279549
 30
0.0
 11
154.5734243667777
 21
204.6532584010395
 31
0.0
  0
ARC
  5
3149
330
A
100
AcDbEntity
  8
DRAW
  6
CONTINUOUS
100
AcDbCircle
 10
154.9734256653674
 20
203.4262895806763
 30
0.0
 40
2.25
100
AcDbArc
 50
0.000001042640581
 51
89.99999323285441
  0
ARC
  5
314A
330
A
100
AcDbEntity
  8
DRAW
  6
CONTINUOUS
100
AcDbCircle
 10
154.9734244450474
 20
203.526242539888
 30
0.0
 40
1.99999998807907
100
AcDbArc
 50
281.5369623415316
 51
78.46304413647989
  0
LINE
  5
314B
330
A
100
AcDbEntity
  8
DRAW
  6
CONTINUOUS
100
AcDbLine
 10
159.3484000161525
 20
194.6762947780318
 30
0.0
 11
154.9733978973721
 21
194.6762947780389
 31
0.0
  0
LINE
  5
314C
330
A
100
AcDbEntity
  8
DRAW
  6
CONTINUOUS
100
AcDbLine
 10
154.9733980050923
 20
201.1762943409659
 30
0.0
 11
159.3483986592695
 21
201.1762943409589
 31
0.0
  0
ARC
  5
3156
330
A
100
AcDbEntity
  8
DRAW
  6
CONTINUOUS
100
AcDbCircle
 10
154.9734256653674
 20
203.4262895806763
 30
0.0
 40
2.25
100
AcDbArc
 50
269.9999999999055
 51
0.0000010426413952
  0
LINE
  5
3157
330
A
100
AcDbEntity
  8
DRAW
  6
CONTINUOUS
100
AcDbLine
 10
155.6222112380777
 20
202.87757385925
 30
0.0
 11
156.4734805100836
 21
202.8775739073735
 31
0.0
  0
LINE
  5
3158
330
A
100
AcDbEntity
  8
DRAW
  6
CONTINUOUS
100
AcDbLine
 10
156.4734804367364
 20
204.1750353633616
 30
0.0
 11
155.6222111647305
 21
204.1750353152381
 31
0.0
  0
LINE
  5
3159
330
A
100
AcDbEntity
  8
DRAW
  6
CONTINUOUS
100
AcDbLine
 10
156.4734805100836
 20
202.8775739073735
 30
0.0
 11
155.6807574518764
 21
203.0263045897221
 31
0.0
  0
LINE
  5
315A
330
A
100
AcDbEntity
  8
DRAW
  6
CONTINUOUS
100
AcDbLine
 10
156.4734804367364
 20
204.1750353633616
 30
0.0
 11
155.6807573953451
 21
204.0263045897221
 31
0.0
  0
ARC
  5
315B
330
A
100
AcDbEntity
  8
DRAW
  6
CONTINUOUS
100
AcDbCircle
 10
154.9734244395882
 20
203.5262425397412
 30
0.0
 40
2.299999999999998
100
AcDbArc
 50
280.0154134072555
 51
328.9011342257813
  0
LINE
  5
315C
330
A
100
AcDbEntity
  8
DRAW
  6
CONTINUOUS
100
AcDbLine
 10
156.2514087961582
 20
201.5744636932306
 30
0.0
 11
156.2481534288365
 21
201.611672725942
 31
0.0
  0
LINE
  5
315D
330
A
100
AcDbEntity
  8
DRAW
  6
CONTINUOUS
100
AcDbLine
 10
155.4734804024909
 20
204.2335815591409
 30
0.0
 11
154.4734804024909
 21
204.2335815026095
 31
0.0
  0
LINE
  5
315E
330
A
100
AcDbEntity
  8
DRAW
  6
CONTINUOUS
100
AcDbLine
 10
155.3734243667777
 20
204.6532584462644
 30
0.0
 11
154.5734243667777
 21
204.6532584010395
 31
0.0
  0
LINE
  5
315F
330
A
100
AcDbEntity
  8
DRAW
  6
CONTINUOUS
100
AcDbLine
 10
154.3247497820896
 20
202.8775737859028
 30
0.0
 11
154.3247498302129
 21
202.026304513897
 31
0.0
  0
LINE
  5
3160
330
A
100
AcDbEntity
  8
DRAW
  6
CONTINUOUS
100
AcDbLine
 10
155.622211286201
 20
202.0263045872442
 30
0.0
 11
155.6222112380777
 21
202.87757385925
 31
0.0
  0
LINE
  5
3161
330
A
100
AcDbEntity
  8
DRAW
  6
CONTINUOUS
100
AcDbLine
 10
154.3247497820896
 20
202.8775737859028
 30
0.0
 11
154.4734804707399
 21
203.0263045214732
 31
0.0
  0
LINE
  5
3162
330
A
100
AcDbEntity
  8
DRAW
  6
CONTINUOUS
100
AcDbLine
 10
154.3247498302129
 20
202.026304513897
 30
0.0
 11
154.4734804824575
 21
202.8190275403367
 31
0.0
  0
LINE
  5
3163
330
A
100
AcDbEntity
  8
DRAW
  6
CONTINUOUS
100
AcDbLine
 10
154.4734804707399
 20
203.0263045214732
 30
0.0
 11
154.4734804824575
 21
202.8190275403367
 31
0.0
  0
LINE
  5
3164
330
A
100
AcDbEntity
  8
DRAW
  6
CONTINUOUS
100
AcDbLine
 10
155.622211286201
 20
202.0263045872442
 30
0.0
 11
155.4734804824575
 21
202.819027596868
 31
0.0
  0
LINE
  5
3165
330
A
100
AcDbEntity
  8
DRAW
  6
CONTINUOUS
100
AcDbLine
 10
154.4734804824575
 20
202.8190275403367
 30
0.0
 11
155.4734804824575
 21
202.819027596868
 31
0.0
  0
LINE
  5
3166
330
A
100
AcDbEntity
  8
DRAW
  6
CONTINUOUS
100
AcDbLine
 10
155.6222112380777
 20
202.87757385925
 30
0.0
 11
155.4734804707399
 21
203.0263045780045
 31
0.0
  0
LINE
  5
3167
330
A
100
AcDbEntity
  8
DRAW
  6
CONTINUOUS
100
AcDbLine
 10
155.4734804824575
 20
202.819027596868
 30
0.0
 11
155.4734804707399
 21
203.0263045780045
 31
0.0
  0
LINE
  5
3168
330
A
100
AcDbEntity
  8
DRAW
  6
CONTINUOUS
100
AcDbLine
 10
155.4734804707399
 20
203.0263045780045
 30
0.0
 11
155.6807574518764
 21
203.0263045897221
 31
0.0
  0
LINE
  5
3169
330
A
100
AcDbEntity
  8
DRAW
  6
CONTINUOUS
100
AcDbLine
 10
155.6807574518764
 20
203.0263045897221
 30
0.0
 11
155.6807573953451
 21
204.0263045897222
 31
0.0
  0
LINE
  5
316A
330
A
100
AcDbEntity
  8
DRAW
  6
CONTINUOUS
100
AcDbLine
 10
155.6807573953451
 20
204.0263045897221
 30
0.0
 11
155.4734804142086
 21
204.0263045780045
 31
0.0
  0
LINE
  5
316B
330
A
100
AcDbEntity
  8
DRAW
  6
CONTINUOUS
100
AcDbLine
 10
155.3734245298409
 20
202.0263045731799
 30
0.0
 11
155.622211286201
 21
202.0263045872442
 31
0.0
  0
LINE
  5
316C
330
A
100
AcDbEntity
  8
DRAW
  6
CONTINUOUS
100
AcDbLine
 10
154.3247498302129
 20
202.026304513897
 30
0.0
 11
154.5734245298409
 21
202.0263045279549
 31
0.0
  0
LINE
  5
316D
330
A
100
AcDbEntity
  8
DRAW
  6
CONTINUOUS
100
AcDbLine
 10
155.3734245298409
 20
202.0263045731799
 30
0.0
 11
155.373424494194
 21
202.3993506993125
 31
0.0
  0
LINE
  5
316E
330
A
100
AcDbEntity
  8
DRAW
  6
CONTINUOUS
100
AcDbLine
 10
154.5734245298409
 20
202.0263045279549
 30
0.0
 11
154.573424494194
 21
202.3993506540875
 31
0.0
  0
LINE
  5
316F
330
A
100
AcDbEntity
  8
DRAW
  6
CONTINUOUS
100
AcDbLine
 10
155.373424494194
 20
202.3993506993125
 30
0.0
 11
154.573424494194
 21
202.3993506540875
 31
0.0
  0
ARC
  5
3170
330
A
100
AcDbEntity
  8
DRAW
  6
CONTINUOUS
100
AcDbCircle
 10
154.9734244304894
 20
203.5262425394964
 30
0.0
 40
2.299999999999998
100
AcDbArc
 50
270.0000084615481
 51
280.0154134072555
  0
ARC
  5
3171
330
A
100
AcDbEntity
  8
DRAW
  6
CONTINUOUS
100
AcDbCircle
 10
154.9734244304894
 20
203.5262425394964
 30
0.0
 40
2.299999999999998
100
AcDbArc
 50
259.9845930707552
 51
270.0000084615464
  0
LINE
  5
3172
330
A
100
AcDbEntity
  8
DRAW
  6
CONTINUOUS
100
AcDbLine
 10
154.5734245298409
 20
202.0263045279549
 30
0.0
 11
154.5734245558257
 21
201.5666507352157
 31
0.0
  0
LINE
  5
3173
330
A
100
AcDbEntity
  8
DRAW
  6
CONTINUOUS
100
AcDbLine
 10
155.3734245558258
 20
201.5666507804406
 30
0.0
 11
155.3734245298409
 21
202.0263045731799
 31
0.0
  0
LINE
  5
3174
330
A
100
AcDbEntity
  8
DRAW
  6
CONTINUOUS
100
AcDbLine
 10
154.5734245558257
 20
201.5666507352157
 30
0.0
 11
154.5734245676288
 21
201.2612921865474
 31
0.0
  0
LINE
  5
3175
330
A
100
AcDbEntity
  8
DRAW
  6
CONTINUOUS
100
AcDbLine
 10
155.3734245676288
 20
201.2612922317725
 30
0.0
 11
155.3734245558258
 21
201.5666507804406
 31
0.0
  0
LINE
  5
3176
330
A
100
AcDbEntity
  8
DRAW
  6
CONTINUOUS
100
AcDbLine
 10
154.3247497087423
 20
204.175035241891
 30
0.0
 11
154.4734804142085
 21
204.0263045214731
 31
0.0
  0
LINE
  5
3177
330
A
100
AcDbEntity
  8
DRAW
  6
CONTINUOUS
100
AcDbLine
 10
154.4734804024909
 20
204.2335815026095
 30
0.0
 11
154.4734804142085
 21
204.0263045214731
 31
0.0
  0
LINE
  5
3178
330
A
100
AcDbEntity
  8
DRAW
  6
CONTINUOUS
100
AcDbLine
 10
155.6222111647305
 20
204.1750353152381
 30
0.0
 11
155.4734804142086
 21
204.0263045780045
 31
0.0
  0
LINE
  5
3179
330
A
100
AcDbEntity
  8
DRAW
  6
CONTINUOUS
100
AcDbLine
 10
155.4734804142086
 20
204.0263045780045
 30
0.0
 11
155.4734804024909
 21
204.2335815591409
 31
0.0
  0
LINE
  5
317A
330
A
100
AcDbEntity
  8
DRAW
  6
CONTINUOUS
100
AcDbLine
 10
156.4734805100836
 20
202.8775739073735
 30
0.0
 11
156.4734804367364
 21
204.1750353633616
 31
0.0
  0
LINE
  5
317B
330
A
100
AcDbEntity
  8
DRAW
  6
CONTINUOUS
100
AcDbLine
 10
159.3484001238726
 20
201.1762943409589
 30
0.0
 11
159.3484001238679
 21
198.2262967309343
 31
0.0
  0
LINE
  5
317C
330
A
100
AcDbEntity
  8
DRAW
  6
CONTINUOUS
100
AcDbLine
 10
159.3484000256595
 20
196.7262967087646
 30
0.0
 11
159.348400025662
 21
198.2262967087542
 31
0.0
  0
LINE
  5
317D
330
A
100
AcDbEntity
  8
DRAW
  6
CONTINUOUS
100
AcDbLine
 10
159.3484000161558
 20
196.7262967087646
 30
0.0
 11
159.3484000161525
 21
194.6762947780318
 31
0.0
  0
LINE
  5
317E
330
A
100
AcDbEntity
  8
DRAW
  6
CONTINUOUS
100
AcDbLine
 10
162.4488654946671
 20
201.6116956555427
 30
0.0
 11
162.4455989107476
 21
201.5743584269135
 31
0.0
  0
LINE
  5
317F
330
A
100
AcDbEntity
  8
DRAW
  6
CONTINUOUS
100
AcDbLine
 10
162.2234842514337
 20
204.1750351937677
 30
0.0
 11
162.2234843247809
 21
202.8775737377794
 31
0.0
  0
LINE
  5
3180
330
A
100
AcDbEntity
  8
DRAW
  6
CONTINUOUS
100
AcDbLine
 10
159.3483984992656
 20
205.6762938242392
 30
0.0
 11
154.9733980050996
 21
205.676294340966
 31
0.0
  0
LINE
  5
3181
330
A
100
AcDbEntity
  8
DRAW
  6
CONTINUOUS
100
AcDbLine
 10
155.6222111166071
 20
205.0263045872442
 30
0.0
 11
155.3734243602469
 21
205.0263045731799
 31
0.0
  0
LINE
  5
3182
330
A
100
AcDbEntity
  8
DRAW
  6
CONTINUOUS
100
AcDbLine
 10
154.573424360247
 20
205.0263045279549
 30
0.0
 11
154.324749660619
 21
205.026304513897
 31
0.0
  0
LINE
  5
3183
330
A
100
AcDbEntity
  8
DRAW
  6
CONTINUOUS
100
AcDbLine
 10
154.5734243342691
 20
205.4858342993352
 30
0.0
 11
154.573424360247
 21
205.0263045279549
 31
0.0
  0
LINE
  5
3184
330
A
100
AcDbEntity
  8
DRAW
  6
CONTINUOUS
100
AcDbLine
 10
155.3734243602469
 20
205.0263045731799
 30
0.0
 11
155.3734243342691
 21
205.4858343445602
 31
0.0
  0
LINE
  5
3185
330
A
100
AcDbEntity
  8
DRAW
  6
CONTINUOUS
100
AcDbLine
 10
154.5734243342691
 20
205.4858342993352
 30
0.0
 11
154.5734243247784
 21
205.6404483181821
 31
0.0
  0
LINE
  5
3186
330
A
100
AcDbEntity
  8
DRAW
  6
CONTINUOUS
100
AcDbLine
 10
155.3734243342691
 20
205.4858343445602
 30
0.0
 11
155.3734243247784
 21
205.6404488025517
 31
0.0
  0
LINE
  5
3187
330
A
100
AcDbEntity
  8
DRAW
  6
CONTINUOUS
100
AcDbLine
 10
159.348400133387
 20
207.7262967086465
 30
0.0
 11
159.3484001333894
 21
209.2262967086361
 31
0.0
  0
LINE
  5
3188
330
A
100
AcDbEntity
  8
DRAW
  6
CONTINUOUS
100
AcDbLine
 10
159.3484001238832
 20
207.7262967086465
 30
0.0
 11
159.3484001238799
 21
205.6762938242392
 31
0.0
  0
LINE
  5
3189
330
A
100
AcDbEntity
  8
DRAW
  6
CONTINUOUS
100
AcDbLine
 10
164.3722149794276
 20
204.1750353152381
 30
0.0
 11
164.3722149313044
 21
205.0263045872442
 31
0.0
  0
LINE
  5
318A
330
A
100
AcDbEntity
  8
DRAW
  6
CONTINUOUS
100
AcDbLine
 10
163.0747534753162
 20
205.026304513897
 30
0.0
 11
163.0747535234396
 21
204.175035241891
 31
0.0
  0
LINE
  5
318B
330
A
100
AcDbEntity
  8
DRAW
  6
CONTINUOUS
100
AcDbLine
 10
163.0747534753162
 20
205.026304513897
 30
0.0
 11
163.2234842171881
 21
204.2335815026095
 31
0.0
  0
LINE
  5
318C
330
A
100
AcDbEntity
  8
DRAW
  6
CONTINUOUS
100
AcDbLine
 10
164.3722149313044
 20
205.0263045872442
 30
0.0
 11
164.2234842171881
 21
204.2335815591409
 31
0.0
  0
LINE
  5
318D
330
A
100
AcDbEntity
  8
DRAW
  6
CONTINUOUS
100
AcDbLine
 10
164.1234281749442
 20
205.0263045731799
 30
0.0
 11
164.123428181475
 21
204.6532584462644
 31
0.0
  0
LINE
  5
318E
330
A
100
AcDbEntity
  8
DRAW
  6
CONTINUOUS
100
AcDbLine
 10
163.3234281749442
 20
205.0263045279549
 30
0.0
 11
163.323428181475
 21
204.6532584010395
 31
0.0
  0
ARC
  5
318F
330
A
100
AcDbEntity
  8
DRAW
  6
CONTINUOUS
100
AcDbCircle
 10
163.7234282597446
 20
203.526242539888
 30
0.0
 40
1.99999998807907
100
AcDbArc
 50
281.5369623415316
 51
78.46304413647989
  0
LINE
  5
3190
330
A
100
AcDbEntity
  8
DRAW
  6
CONTINUOUS
100
AcDbLine
 10
168.0984001238679
 20
198.2262963057275
 30
0.0
 11
168.0984001238824
 21
207.2262981677056
 31
0.0
  0
MTEXT
  5
3191
330
A
100
AcDbEntity
  8
DRAW-TEXT
  6
CONTINUOUS
100
AcDbMText
 10
164.3804797644465
 20
200.8494822512395
 30
0.0
 40
1.8
 41
2.912672682933802
 71
     1
 72
     1
  1
A2
  7
FINDER
1001
ACAD
1000
MTEXTBEGIN
1070
    73
1070
     1
1070
    44
1040
1.0
1070
    74
1070
     0
1000
MTEXTEND
  0
LINE
  5
3192
330
A
100
AcDbEntity
  8
DRAW
  6
CONTINUOUS
100
AcDbLine
 10
165.2234842514337
 20
204.1750353633616
 30
0.0
 11
164.3722149794276
 21
204.1750353152381
 31
0.0
  0
LINE
  5
3193
330
A
100
AcDbEntity
  8
DRAW
  6
CONTINUOUS
100
AcDbLine
 10
164.3722150527749
 20
202.87757385925
 30
0.0
 11
165.2234843247809
 21
202.8775739073735
 31
0.0
  0
LINE
  5
3194
330
A
100
AcDbEntity
  8
DRAW
  6
CONTINUOUS
100
AcDbLine
 10
165.2234843247809
 20
202.8775739073735
 30
0.0
 11
164.4307612665736
 21
203.0263045897221
 31
0.0
  0
ARC
  5
3195
330
A
100
AcDbEntity
  8
DRAW
  6
CONTINUOUS
100
AcDbCircle
 10
163.7234282542855
 20
203.5262425397412
 30
0.0
 40
2.299999999999998
100
AcDbArc
 50
280.0154134072555
 51
328.8849111892613
  0
LINE
  5
3196
330
A
100
AcDbEntity
  8
DRAW
  6
CONTINUOUS
100
AcDbLine
 10
165.2234842514337
 20
204.1750353633616
 30
0.0
 11
164.4307612100424
 21
204.0263045897221
 31
0.0
  0
LINE
  5
3197
330
A
100
AcDbEntity
  8
DRAW
  6
CONTINUOUS
100
AcDbLine
 10
164.2234842171881
 20
204.2335815591409
 30
0.0
 11
163.2234842171881
 21
204.2335815026095
 31
0.0
  0
LINE
  5
3198
330
A
100
AcDbEntity
  8
DRAW
  6
CONTINUOUS
100
AcDbLine
 10
164.123428181475
 20
204.6532584462644
 30
0.0
 11
163.323428181475
 21
204.6532584010395
 31
0.0
  0
LINE
  5
3199
330
A
100
AcDbEntity
  8
DRAW
  6
CONTINUOUS
100
AcDbLine
 10
163.0747535967868
 20
202.8775737859028
 30
0.0
 11
163.0747536449101
 21
202.026304513897
 31
0.0
  0
LINE
  5
319A
330
A
100
AcDbEntity
  8
DRAW
  6
CONTINUOUS
100
AcDbLine
 10
164.3722151008983
 20
202.0263045872442
 30
0.0
 11
164.3722150527749
 21
202.87757385925
 31
0.0
  0
LINE
  5
319B
330
A
100
AcDbEntity
  8
DRAW
  6
CONTINUOUS
100
AcDbLine
 10
163.2234842289058
 20
204.0263045214731
 30
0.0
 11
163.0162072477693
 21
204.0263045097555
 31
0.0
  0
LINE
  5
319C
330
A
100
AcDbEntity
  8
DRAW
  6
CONTINUOUS
100
AcDbLine
 10
163.0162072477693
 20
204.0263045097555
 30
0.0
 11
163.0162073043005
 21
203.0263045097555
 31
0.0
  0
LINE
  5
319D
330
A
100
AcDbEntity
  8
DRAW
  6
CONTINUOUS
100
AcDbLine
 10
163.0747535967868
 20
202.8775737859028
 30
0.0
 11
163.2234842854372
 21
203.0263045214732
 31
0.0
  0
LINE
  5
319E
330
A
100
AcDbEntity
  8
DRAW
  6
CONTINUOUS
100
AcDbLine
 10
163.0162073043005
 20
203.0263045097555
 30
0.0
 11
163.2234842854372
 21
203.0263045214732
 31
0.0
  0
LINE
  5
319F
330
A
100
AcDbEntity
  8
DRAW
  6
CONTINUOUS
100
AcDbLine
 10
163.0747536449101
 20
202.026304513897
 30
0.0
 11
163.2234842971548
 21
202.8190275403367
 31
0.0
  0
LINE
  5
31A0
330
A
100
AcDbEntity
  8
DRAW
  6
CONTINUOUS
100
AcDbLine
 10
163.2234842854372
 20
203.0263045214732
 30
0.0
 11
163.2234842971548
 21
202.8190275403367
 31
0.0
  0
LINE
  5
31A1
330
A
100
AcDbEntity
  8
DRAW
  6
CONTINUOUS
100
AcDbLine
 10
164.3722151008983
 20
202.0263045872442
 30
0.0
 11
164.2234842971548
 21
202.819027596868
 31
0.0
  0
LINE
  5
31A2
330
A
100
AcDbEntity
  8
DRAW
  6
CONTINUOUS
100
AcDbLine
 10
163.2234842971548
 20
202.8190275403367
 30
0.0
 11
164.2234842971548
 21
202.819027596868
 31
0.0
  0
LINE
  5
31A3
330
A
100
AcDbEntity
  8
DRAW
  6
CONTINUOUS
100
AcDbLine
 10
164.3722150527749
 20
202.87757385925
 30
0.0
 11
164.2234842854372
 21
203.0263045780045
 31
0.0
  0
LINE
  5
31A4
330
A
100
AcDbEntity
  8
DRAW
  6
CONTINUOUS
100
AcDbLine
 10
164.2234842971548
 20
202.819027596868
 30
0.0
 11
164.2234842854372
 21
203.0263045780045
 31
0.0
  0
LINE
  5
31A5
330
A
100
AcDbEntity
  8
DRAW
  6
CONTINUOUS
100
AcDbLine
 10
164.2234842854372
 20
203.0263045780045
 30
0.0
 11
164.4307612665736
 21
203.0263045897221
 31
0.0
  0
LINE
  5
31A6
330
A
100
AcDbEntity
  8
DRAW
  6
CONTINUOUS
100
AcDbLine
 10
164.4307612665736
 20
203.0263045897221
 30
0.0
 11
164.4307612100424
 21
204.0263045897222
 31
0.0
  0
LINE
  5
31A7
330
A
100
AcDbEntity
  8
DRAW
  6
CONTINUOUS
100
AcDbLine
 10
164.4307612100424
 20
204.0263045897221
 30
0.0
 11
164.2234842289058
 21
204.0263045780045
 31
0.0
  0
LINE
  5
31A8
330
A
100
AcDbEntity
  8
DRAW
  6
CONTINUOUS
100
AcDbLine
 10
164.1234283445382
 20
202.0263045731799
 30
0.0
 11
164.3722151008983
 21
202.0263045872442
 31
0.0
  0
LINE
  5
31A9
330
A
100
AcDbEntity
  8
DRAW
  6
CONTINUOUS
100
AcDbLine
 10
163.0747536449101
 20
202.026304513897
 30
0.0
 11
163.3234283445382
 21
202.0263045279549
 31
0.0
  0
LINE
  5
31AA
330
A
100
AcDbEntity
  8
DRAW
  6
CONTINUOUS
100
AcDbLine
 10
164.1234283445382
 20
202.0263045731799
 30
0.0
 11
164.1234283088913
 21
202.3993506993125
 31
0.0
  0
LINE
  5
31AB
330
A
100
AcDbEntity
  8
DRAW
  6
CONTINUOUS
100
AcDbLine
 10
163.3234283445382
 20
202.0263045279549
 30
0.0
 11
163.3234283088914
 21
202.3993506540875
 31
0.0
  0
LINE
  5
31AC
330
A
100
AcDbEntity
  8
DRAW
  6
CONTINUOUS
100
AcDbLine
 10
164.1234283088913
 20
202.3993506993125
 30
0.0
 11
163.3234283088914
 21
202.3993506540875
 31
0.0
  0
ARC
  5
31AD
330
A
100
AcDbEntity
  8
DRAW
  6
CONTINUOUS
100
AcDbCircle
 10
163.7234282451867
 20
203.5262425394964
 30
0.0
 40
2.299999999999998
100
AcDbArc
 50
270.0000084615481
 51
280.0154134072555
  0
ARC
  5
31AE
330
A
100
AcDbEntity
  8
DRAW
  6
CONTINUOUS
100
AcDbCircle
 10
163.7234282451867
 20
203.5262425394964
 30
0.0
 40
2.299999999999998
100
AcDbArc
 50
259.9845930707552
 51
270.0000084615464
  0
LINE
  5
31AF
330
A
100
AcDbEntity
  8
DRAW
  6
CONTINUOUS
100
AcDbLine
 10
163.3234283445382
 20
202.0263045279549
 30
0.0
 11
163.323428370523
 21
201.5666507352157
 31
0.0
  0
LINE
  5
31B0
330
A
100
AcDbEntity
  8
DRAW
  6
CONTINUOUS
100
AcDbLine
 10
164.123428370523
 20
201.5666507804406
 30
0.0
 11
164.1234283445382
 21
202.0263045731799
 31
0.0
  0
LINE
  5
31B1
330
A
100
AcDbEntity
  8
DRAW
  6
CONTINUOUS
100
AcDbLine
 10
163.323428370523
 20
201.5666507352157
 30
0.0
 11
163.323428382326
 21
201.2612921865474
 31
0.0
  0
LINE
  5
31B2
330
A
100
AcDbEntity
  8
DRAW
  6
CONTINUOUS
100
AcDbLine
 10
164.123428382326
 20
201.2612922317725
 30
0.0
 11
164.123428370523
 21
201.5666507804406
 31
0.0
  0
LINE
  5
31B3
330
A
100
AcDbEntity
  8
DRAW
  6
CONTINUOUS
100
AcDbLine
 10
163.0747535234396
 20
204.175035241891
 30
0.0
 11
163.2234842289058
 21
204.0263045214731
 31
0.0
  0
LINE
  5
31B4
330
A
100
AcDbEntity
  8
DRAW
  6
CONTINUOUS
100
AcDbLine
 10
163.2234842171881
 20
204.2335815026095
 30
0.0
 11
163.2234842289058
 21
204.0263045214731
 31
0.0
  0
LINE
  5
31B5
330
A
100
AcDbEntity
  8
DRAW
  6
CONTINUOUS
100
AcDbLine
 10
164.3722149794276
 20
204.1750353152381
 30
0.0
 11
164.2234842289058
 21
204.0263045780045
 31
0.0
  0
LINE
  5
31B6
330
A
100
AcDbEntity
  8
DRAW
  6
CONTINUOUS
100
AcDbLine
 10
164.2234842289058
 20
204.0263045780045
 30
0.0
 11
164.2234842171881
 21
204.2335815591409
 31
0.0
  0
LINE
  5
31B7
330
A
100
AcDbEntity
  8
DRAW
  6
CONTINUOUS
100
AcDbLine
 10
165.0014109008708
 20
201.5744832384521
 30
0.0
 11
164.9981572435338
 21
201.611672725942
 31
0.0
  0
LINE
  5
31B8
330
A
100
AcDbEntity
  8
DRAW
  6
CONTINUOUS
100
AcDbLine
 10
165.2234843247809
 20
202.8775739073735
 30
0.0
 11
165.2234842514337
 21
204.1750353633616
 31
0.0
  0
LINE
  5
31B9
330
A
100
AcDbEntity
  8
DRAW
  6
CONTINUOUS
100
AcDbLine
 10
168.0984001238679
 20
198.2262963057275
 30
0.0
 11
167.8984001238599
 21
198.2262963057278
 31
0.0
  0
LINE
  5
31BA
330
A
100
AcDbEntity
  8
DRAW
  6
CONTINUOUS
100
AcDbLine
 10
167.8984000256595
 20
196.7262961477208
 30
0.0
 11
167.898400025662
 21
198.2262961616625
 31
0.0
  0
LINE
  5
31BB
330
A
100
AcDbEntity
  8
DRAW
  6
CONTINUOUS
100
AcDbLine
 10
168.098400016155
 20
196.2263024336353
 30
0.0
 11
167.8984000161549
 21
196.2263024336355
 31
0.0
  0
LINE
  5
31BC
330
A
100
AcDbEntity
  8
DRAW
  6
CONTINUOUS
100
AcDbLine
 10
167.8984000161549
 20
196.2263024336355
 30
0.0
 11
167.8984000161558
 21
196.7262961477208
 31
0.0
  0
LINE
  5
31BD
330
A
100
AcDbEntity
  8
DRAW
  6
CONTINUOUS
100
AcDbLine
 10
168.0984001492069
 20
195.4762928938919
 30
0.0
 11
168.1484275921726
 21
195.4762928938919
 31
0.0
  0
LINE
  5
31BE
330
A
100
AcDbEntity
  8
DRAW
  6
CONTINUOUS
100
AcDbLine
 10
164.3722149313044
 20
205.0263045872442
 30
0.0
 11
164.1234281749442
 21
205.0263045731799
 31
0.0
  0
LINE
  5
31BF
330
A
100
AcDbEntity
  8
DRAW
  6
CONTINUOUS
100
AcDbLine
 10
163.3234281749442
 20
205.0263045279549
 30
0.0
 11
163.0747534753162
 21
205.026304513897
 31
0.0
  0
LINE
  5
31C0
330
A
100
AcDbEntity
  8
DRAW
  6
CONTINUOUS
100
AcDbLine
 10
163.3234281489664
 20
205.4858342993352
 30
0.0
 11
163.3234281749442
 21
205.0263045279549
 31
0.0
  0
LINE
  5
31C1
330
A
100
AcDbEntity
  8
DRAW
  6
CONTINUOUS
100
AcDbLine
 10
164.1234281749442
 20
205.0263045731799
 30
0.0
 11
164.1234281489664
 21
205.4858343445602
 31
0.0
  0
LINE
  5
31C2
330
A
100
AcDbEntity
  8
DRAW
  6
CONTINUOUS
100
AcDbLine
 10
163.3234281489664
 20
205.4858342993352
 30
0.0
 11
163.3234281394757
 21
205.6404483312563
 31
0.0
  0
LINE
  5
31C3
330
A
100
AcDbEntity
  8
DRAW
  6
CONTINUOUS
100
AcDbLine
 10
164.1234281489664
 20
205.4858343445602
 30
0.0
 11
164.1234281394758
 21
205.6404458126273
 31
0.0
  0
LINE
  5
31C4
330
A
100
AcDbEntity
  8
DRAW
  6
CONTINUOUS
100
AcDbLine
 10
167.898400133387
 20
207.7262963057278
 30
0.0
 11
167.8984001333894
 21
209.2262963196696
 31
0.0
  0
LINE
  5
31C5
330
A
100
AcDbEntity
  8
DRAW
  6
CONTINUOUS
100
AcDbLine
 10
168.0984001238824
 20
207.2262981677056
 30
0.0
 11
167.8984001238824
 21
207.2262981677059
 31
0.0
  0
LINE
  5
31C6
330
A
100
AcDbEntity
  8
DRAW
  6
CONTINUOUS
100
AcDbLine
 10
167.8984001238824
 20
207.2262981677059
 30
0.0
 11
167.8984001238831
 21
207.7262963057278
 31
0.0
  0
POINT
  5
31C7
330
A
100
AcDbEntity
  8
DRAW
  6
CONTINUOUS
100
AcDbPoint
 10
168.0984001263523
 20
207.2262986159378
 30
0.0
  0
ENDSEC
  0
SECTION
  2
OBJECTS
  0
DICTIONARY
  5
19
330
0
100
AcDbDictionary
  3
ACAD_GROUP
350
1A
  3
ACAD_LAYOUT
350
255E
  3
ACAD_MLINESTYLE
350
1B
  3
ACAD_PLOTSETTINGS
350
255F
1001
ACAD
1000
TREAT_AS_HARD
1070
     0
  0
DICTIONARY
  5
2588
330
A
100
AcDbDictionary
  3
ACAD_LAYOUTSELFREF
350
32BB
1001
ACAD
1000
TREAT_AS_HARD
1070
     1
  0
DICTIONARY
  5
258A
330
B
100
AcDbDictionary
  3
ACAD_LAYOUTSELFREF
350
32BC
1001
ACAD
1000
TREAT_AS_HARD
1070
     1
  0
DICTIONARY
  5
1A
102
{ACAD_REACTORS
330
19
102
}
330
0
100
AcDbDictionary
1001
ACAD
1000
TREAT_AS_HARD
1070
     0
  0
DICTIONARY
  5
255E
102
{ACAD_REACTORS
330
19
102
}
330
19
100
AcDbDictionary
1001
ACAD
1000
TREAT_AS_HARD
1070
     0
  0
DICTIONARY
  5
1B
102
{ACAD_REACTORS
330
19
102
}
330
0
100
AcDbDictionary
  3
STANDARD
350
1C
1001
ACAD
1000
TREAT_AS_HARD
1070
     0
  0
DICTIONARY
  5
255F
102
{ACAD_REACTORS
330
19
102
}
330
19
100
AcDbDictionary
1001
ACAD
1000
TREAT_AS_HARD
1070
     0
  0
XRECORD
  5
32BB
102
{ACAD_REACTORS
330
2588
102
}
330
2588
100
AcDbXrecord
340
A
  0
XRECORD
  5
32BC
102
{ACAD_REACTORS
330
258A
102
}
330
258A
100
AcDbXrecord
340
B
  0
MLINESTYLE
  5
1C
102
{ACAD_REACTORS
330
1B
102
}
330
0
100
AcDbMlineStyle
  2
STANDARD
 70
     0
  3

 62
     0
 51
90.0
 52
90.0
 71
     2
 49
0.5
 62
   256
  6
BYLAYER
 49
-0.5
 62
   256
  6
BYLAYER
  0
ENDSEC
  0
EOF
