  0
SECTION
  2
HEADER
  9
$ACADVER
  1
AC1012
  9
$DWGCODEPAGE
  3
ANSI_1252
  9
$INSBASE
 10
0.0
 20
0.0
 30
0.0
  9
$EXTMIN
 10
5.0
 20
5.0
 30
0.0
  9
$EXTMAX
 10
205.000037
 20
292.000183
 30
0.0
  9
$LIMMIN
 10
0.0
 20
0.0
  9
$LIMMAX
 10
210.0
 20
296.0
  9
$ORTHOMODE
 70
     1
  9
$REGENMODE
 70
     1
  9
$FILLMODE
 70
     1
  9
$QTEXTMODE
 70
     0
  9
$MIRRTEXT
 70
     0
  9
$DRAGMODE
 70
     2
  9
$LTSCALE
 40
1.0
  9
$OSMODE
 70
    37
  9
$ATTMODE
 70
     1
  9
$TEXTSIZE
 40
1.8
  9
$TRACEWID
 40
0.05
  9
$TEXTSTYLE
  7
FINDER
  9
$CLAYER
  8
0
  9
$CELTYPE
  6
CONTINUOUS
  9
$CECOLOR
 62
   256
  9
$CELTSCALE
 40
1.0
  9
$DELOBJ
 70
     1
  9
$DISPSILH
 70
     0
  9
$DIMSCALE
 40
1.0
  9
$DIMASZ
 40
2.5
  9
$DIMEXO
 40
2.0
  9
$DIMDLI
 40
6.5
  9
$DIMRND
 40
0.0
  9
$DIMDLE
 40
0.0
  9
$DIMEXE
 40
1.25
  9
$DIMTP
 40
0.0
  9
$DIMTM
 40
0.0
  9
$DIMTXT
 40
3.5
  9
$DIMCEN
 40
2.5
  9
$DIMTSZ
 40
0.0
  9
$DIMTOL
 70
     0
  9
$DIMLIM
 70
     0
  9
$DIMTIH
 70
     0
  9
$DIMTOH
 70
     0
  9
$DIMSE1
 70
     0
  9
$DIMSE2
 70
     0
  9
$DIMTAD
 70
     1
  9
$DIMZIN
 70
     8
  9
$DIMBLK
  1

  9
$DIMASO
 70
     1
  9
$DIMSHO
 70
     1
  9
$DIMPOST
  1

  9
$DIMAPOST
  1

  9
$DIMALT
 70
     0
  9
$DIMALTD
 70
     3
  9
$DIMALTF
 40
0.03937
  9
$DIMLFAC
 40
1.0
  9
$DIMTOFL
 70
     1
  9
$DIMTVP
 40
0.0
  9
$DIMTIX
 70
     0
  9
$DIMSOXD
 70
     0
  9
$DIMSAH
 70
     0
  9
$DIMBLK1
  1

  9
$DIMBLK2
  1

  9
$DIMSTYLE
  2
FINDER
  9
$DIMCLRD
 70
   256
  9
$DIMCLRE
 70
   256
  9
$DIMCLRT
 70
     2
  9
$DIMTFAC
 40
1.0
  9
$DIMGAP
 40
0.625
  9
$DIMJUST
 70
     0
  9
$DIMSD1
 70
     0
  9
$DIMSD2
 70
     0
  9
$DIMTOLJ
 70
     0
  9
$DIMTZIN
 70
     8
  9
$DIMALTZ
 70
     0
  9
$DIMALTTZ
 70
     0
  9
$DIMFIT
 70
     3
  9
$DIMUPT
 70
     0
  9
$DIMUNIT
 70
     2
  9
$DIMDEC
 70
     2
  9
$DIMTDEC
 70
     2
  9
$DIMALTU
 70
     2
  9
$DIMALTTD
 70
     3
  9
$DIMTXSTY
  7
FINDER
  9
$DIMAUNIT
 70
     0
  9
$LUNITS
 70
     2
  9
$LUPREC
 70
     4
  9
$SKETCHINC
 40
0.1
  9
$FILLETRAD
 40
2.0
  9
$AUNITS
 70
     0
  9
$AUPREC
 70
     3
  9
$MENU
  1
acad
  9
$ELEVATION
 40
0.0
  9
$PELEVATION
 40
0.0
  9
$THICKNESS
 40
0.0
  9
$LIMCHECK
 70
     0
  9
$BLIPMODE
 70
     1
  9
$CHAMFERA
 40
0.0
  9
$CHAMFERB
 40
0.0
  9
$CHAMFERC
 40
0.0
  9
$CHAMFERD
 40
0.0
  9
$SKPOLY
 70
     0
  9
$TDCREATE
 40
2451901.420981018
  9
$TDUPDATE
 40
2451961.585048032
  9
$TDINDWG
 40
0.7753119213
  9
$TDUSRTIMER
 40
0.7753119213
  9
$USRTIMER
 70
     1
  9
$ANGBASE
 50
0.0
  9
$ANGDIR
 70
     0
  9
$PDMODE
 70
     0
  9
$PDSIZE
 40
0.0
  9
$PLINEWID
 40
0.0
  9
$COORDS
 70
     2
  9
$SPLFRAME
 70
     0
  9
$SPLINETYPE
 70
     6
  9
$SPLINESEGS
 70
     8
  9
$ATTDIA
 70
     0
  9
$ATTREQ
 70
     1
  9
$HANDLING
 70
     1
  9
$HANDSEED
  5
2F31
  9
$SURFTAB1
 70
     6
  9
$SURFTAB2
 70
     6
  9
$SURFTYPE
 70
     6
  9
$SURFU
 70
     6
  9
$SURFV
 70
     6
  9
$UCSNAME
  2

  9
$UCSORG
 10
0.0
 20
0.0
 30
0.0
  9
$UCSXDIR
 10
1.0
 20
0.0
 30
0.0
  9
$UCSYDIR
 10
0.0
 20
1.0
 30
0.0
  9
$PUCSNAME
  2

  9
$PUCSORG
 10
0.0
 20
0.0
 30
0.0
  9
$PUCSXDIR
 10
1.0
 20
0.0
 30
0.0
  9
$PUCSYDIR
 10
0.0
 20
1.0
 30
0.0
  9
$USERI1
 70
     0
  9
$USERI2
 70
     0
  9
$USERI3
 70
     0
  9
$USERI4
 70
     0
  9
$USERI5
 70
     0
  9
$USERR1
 40
0.0
  9
$USERR2
 40
0.0
  9
$USERR3
 40
0.0
  9
$USERR4
 40
0.0
  9
$USERR5
 40
0.0
  9
$WORLDVIEW
 70
     1
  9
$SHADEDGE
 70
     3
  9
$SHADEDIF
 70
    70
  9
$TILEMODE
 70
     1
  9
$MAXACTVP
 70
    16
  9
$PINSBASE
 10
0.0
 20
0.0
 30
0.0
  9
$PLIMCHECK
 70
     0
  9
$PEXTMIN
 10
1.000000E+20
 20
1.000000E+20
 30
1.000000E+20
  9
$PEXTMAX
 10
-1.000000E+20
 20
-1.000000E+20
 30
-1.000000E+20
  9
$PLIMMIN
 10
0.0
 20
0.0
  9
$PLIMMAX
 10
100.0
 20
100.0
  9
$UNITMODE
 70
     0
  9
$VISRETAIN
 70
     0
  9
$PLINEGEN
 70
     1
  9
$PSLTSCALE
 70
     0
  9
$TREEDEPTH
 70
  3020
  9
$PICKSTYLE
 70
     0
  9
$CMLSTYLE
  2
STANDARD
  9
$CMLJUST
 70
     0
  9
$CMLSCALE
 40
1.0
  9
$SAVEIMAGES
 70
     0
  0
ENDSEC
  0
SECTION
  2
CLASSES
  0
CLASS
  1
LWPOLYLINE
  2
AcDbPolyline
  3
"AutoCAD"
 90
    32768
280
     0
281
     1
  0
CLASS
  1
IMAGE
  2
AcDbRasterImage
  3
ISM
 90
    32895
280
     0
281
     1
  0
CLASS
  1
OLE2FRAME
  2
AcDbOle2Frame
  3
""
 90
    32768
280
     0
281
     1
  0
CLASS
  1
HATCH
  2
AcDbHatch
  3
"ACAD_SEDONA"
 90
    32768
280
     0
281
     1
  0
CLASS
  1
DICTIONARYVAR
  2
AcDbDictionaryVar
  3
"AutoCAD"
 90
    32768
280
     0
281
     0
  0
CLASS
  1
RASTERVARIABLES
  2
AcDbRasterVariables
  3
ISM
 90
    32768
280
     0
281
     0
  0
CLASS
  1
IMAGEDEF
  2
AcDbRasterImageDef
  3
ISM
 90
    32768
280
     0
281
     0
  0
CLASS
  1
IMAGEDEF_REACTOR
  2
AcDbRasterImageDefReactor
  3
ISM
 90
    32769
280
     0
281
     0
  0
CLASS
  1
SPATIAL_FILTER
  2
AcDbSpatialFilter
  3
"Acad"
 90
    32768
280
     0
281
     0
  0
CLASS
  1
XRECORD
  2
AcDbXrecord
  3
"<Built In>"
 90
    32768
280
     0
281
     0
  0
CLASS
  1
SORTENTSTABLE
  2
AcDbSortentsTable
  3
"AutoCAD"
 90
    32768
280
     0
281
     0
  0
CLASS
  1
LAYER_INDEX
  2
AcDbLayerIndex
  3
"Acad"
 90
    32768
280
     0
281
     0
  0
CLASS
  1
SPATIAL_INDEX
  2
AcDbSpatialIndex
  3
"Acad"
 90
    32768
280
     0
281
     0
  0
CLASS
  1
OBJECT_PTR
  2
CAseDLPNTableRecord
  3
ASE-LPNTableRecord
 90
    32769
280
     0
281
     0
  0
CLASS
  1
LAYOUT
  2
AcDbLayout
  3
"AutoCAD 2000"
 90
    32769
280
     1
281
     0
  0
CLASS
  1
PLOTSETTINGS
  2
AcDbPlotSettings
  3
"AutoCAD 2000"
 90
    32769
280
     1
281
     0
  0
CLASS
  1
ACDBDICTIONARYWDFLT
  2
AcDbDictionaryWithDefault
  3
"AutoCAD 2000"
 90
    32769
280
     1
281
     0
  0
CLASS
  1
ACDBPLACEHOLDER
  2
AcDbPlaceHolder
  3
"AutoCAD 2000"
 90
    32769
280
     1
281
     0
  0
CLASS
  1
VBA_PROJECT
  2
AcDbVbaProject
  3
"acadvba"
 90
    32769
280
     1
281
     0
  0
CLASS
  1
WIPEOUT
  2
AcDbWipeout
  3
WipeOut|AutoCAD Express Tool|expresstools@autodesk.com
 90
    32895
280
     1
281
     1
  0
CLASS
  1
WIPEOUTVARIABLES
  2
AcDbWipeoutVariables
  3
WipeOut|AutoCAD Express Tool|expresstools@autodesk.com
 90
    32768
280
     1
281
     0
  0
CLASS
  1
RTEXT
  2
RText
  3
RText|AutoCAD Express Tool|expresstools@autodesk.com
 90
    32768
280
     1
281
     1
  0
CLASS
  1
ARCALIGNEDTEXT
  2
AcDbArcAlignedText
  3
ATEXT|AutoCAD Express Tool|expresstools@autodesk.com
 90
    32768
280
     1
281
     1
  0
ENDSEC
  0
SECTION
  2
TABLES
  0
TABLE
  2
VPORT
  5
12
100
AcDbSymbolTable
 70
     2
  0
VPORT
  5
2F30
100
AcDbSymbolTableRecord
100
AcDbViewportTableRecord
  2
*ACTIVE
 70
     0
 10
0.0
 20
0.0
 11
1.0
 21
1.0
 12
105.0
 22
148.496827
 13
0.0
 23
0.0
 14
1.0
 24
1.0
 15
2.0
 25
2.0
 16
0.0
 26
0.0
 36
1.0
 17
0.0
 27
0.0
 37
0.0
 40
289.716738
 41
1.645313
 42
50.0
 43
0.0
 44
0.0
 50
0.0
 51
0.0
 71
     0
 72
   100
 73
     1
 74
     1
 75
     0
 76
     0
 77
     0
 78
     0
  0
ENDTAB
  0
TABLE
  2
LTYPE
  5
D
100
AcDbSymbolTable
 70
     1
  0
LTYPE
  5
E
100
AcDbSymbolTableRecord
100
AcDbLinetypeTableRecord
  2
BYBLOCK
 70
     0
  3

 72
    65
 73
     0
 40
0.0
  0
LTYPE
  5
F
100
AcDbSymbolTableRecord
100
AcDbLinetypeTableRecord
  2
BYLAYER
 70
     0
  3

 72
    65
 73
     0
 40
0.0
  0
LTYPE
  5
5
100
AcDbSymbolTableRecord
100
AcDbLinetypeTableRecord
  2
CONTINUOUS
 70
     0
  3
Solid line
 72
    65
 73
     0
 40
0.0
  0
ENDTAB
  0
TABLE
  2
LAYER
  5
A
100
AcDbSymbolTable
 70
     6
  0
LAYER
  5
4
100
AcDbSymbolTableRecord
100
AcDbLayerTableRecord
  2
0
 70
     0
 62
     7
  6
CONTINUOUS
  0
LAYER
  5
24
100
AcDbSymbolTableRecord
100
AcDbLayerTableRecord
  2
DRAW
 70
     0
 62
     7
  6
CONTINUOUS
  0
LAYER
  5
1F
100
AcDbSymbolTableRecord
100
AcDbLayerTableRecord
  2
CARTOUCHE
 70
     0
 62
     7
  6
CONTINUOUS
  0
LAYER
  5
8C
100
AcDbSymbolTableRecord
100
AcDbLayerTableRecord
  2
DRAW-TEXT
 70
     0
 62
     1
  6
CONTINUOUS
  0
LAYER
  5
571
100
AcDbSymbolTableRecord
100
AcDbLayerTableRecord
  2
DIM
 70
     0
 62
     3
  6
CONTINUOUS
  0
LAYER
  5
29D5
100
AcDbSymbolTableRecord
100
AcDbLayerTableRecord
  2
DEFPOINTS
 70
     0
 62
     7
  6
CONTINUOUS
  0
ENDTAB
  0
TABLE
  2
STYLE
  5
B
100
AcDbSymbolTable
 70
     3
  0
STYLE
  5
C
100
AcDbSymbolTableRecord
100
AcDbTextStyleTableRecord
  2
STANDARD
 70
     0
 40
0.0
 41
1.0
 50
0.0
 71
     0
 42
0.2
  3
txt
  4

  0
STYLE
  5
1B
100
AcDbSymbolTableRecord
100
AcDbTextStyleTableRecord
  2
FINDER
 70
     0
 40
1.8
 41
1.0
 50
0.0
 71
     0
 42
1.8
  3
ARIAL.TTF
  4

1001
ACAD
1000
Arial
1071
       34
  0
STYLE
  5
2008
100
AcDbSymbolTableRecord
100
AcDbTextStyleTableRecord
  2
HELVETICAR
 70
     0
 40
0.0
 41
1.0
 50
0.0
 71
     0
 42
1.8
  3
ARIAL.TTF
  4

1001
ACAD
1000
Arial
1071
       34
  0
ENDTAB
  0
TABLE
  2
VIEW
  5
10
100
AcDbSymbolTable
 70
     0
  0
ENDTAB
  0
TABLE
  2
UCS
  5
11
100
AcDbSymbolTable
 70
     0
  0
ENDTAB
  0
TABLE
  2
APPID
  5
14
100
AcDbSymbolTable
 70
     1
  0
APPID
  5
15
100
AcDbSymbolTableRecord
100
AcDbRegAppTableRecord
  2
ACAD
 70
     0
  0
ENDTAB
  0
TABLE
  2
DIMSTYLE
  5
16
100
AcDbSymbolTable
 70
     1
  0
DIMSTYLE
105
1D
102
{ACAD_REACTORS
330
29DA
330
29FD
330
2A1A
330
2A40
330
2A58
330
2A93
330
2AB9
330
2AC5
330
2AD1
330
2B33
330
2B40
330
2B63
330
2B70
102
}
100
AcDbSymbolTableRecord
100
AcDbDimStyleTableRecord
  2
FINDER
 70
     0
  3

  4

  5

  6

  7

 40
1.0
 41
2.5
 42
2.0
 43
6.5
 44
1.25
 45
0.0
 46
0.0
 47
0.0
 48
0.0
140
3.5
141
2.5
142
0.0
143
0.03937
144
1.0
145
0.0
146
1.0
147
0.625
 71
     0
 72
     0
 73
     0
 74
     0
 75
     0
 76
     0
 77
     1
 78
     8
170
     0
171
     3
172
     1
173
     0
174
     0
175
     0
176
   256
177
   256
178
     2
270
     2
271
     2
272
     2
273
     2
274
     3
340
1B
275
     0
280
     0
281
     0
282
     0
283
     0
284
     8
285
     0
286
     0
287
     3
288
     0
  0
ENDTAB
  0
TABLE
  2
BLOCK_RECORD
  5
1
100
AcDbSymbolTable
 70
    21
  0
BLOCK_RECORD
  5
2
100
AcDbSymbolTableRecord
100
AcDbBlockTableRecord
  2
*MODEL_SPACE
  0
BLOCK_RECORD
  5
7
100
AcDbSymbolTableRecord
100
AcDbBlockTableRecord
  2
*PAPER_SPACE
  0
BLOCK_RECORD
  5
29CD
100
AcDbSymbolTableRecord
100
AcDbBlockTableRecord
  2
*D0
  0
BLOCK_RECORD
  5
29F1
100
AcDbSymbolTableRecord
100
AcDbBlockTableRecord
  2
*D1
  0
BLOCK_RECORD
  5
2A0E
100
AcDbSymbolTableRecord
100
AcDbBlockTableRecord
  2
*D2
  0
BLOCK_RECORD
  5
2A32
100
AcDbSymbolTableRecord
100
AcDbBlockTableRecord
  2
*D3
  0
BLOCK_RECORD
  5
2A4C
100
AcDbSymbolTableRecord
100
AcDbBlockTableRecord
  2
*D4
  0
BLOCK_RECORD
  5
2A88
100
AcDbSymbolTableRecord
100
AcDbBlockTableRecord
  2
*D5
  0
BLOCK_RECORD
  5
2AAD
100
AcDbSymbolTableRecord
100
AcDbBlockTableRecord
  2
*D6
  0
BLOCK_RECORD
  5
2ABA
100
AcDbSymbolTableRecord
100
AcDbBlockTableRecord
  2
*D7
  0
BLOCK_RECORD
  5
2AC6
100
AcDbSymbolTableRecord
100
AcDbBlockTableRecord
  2
*D8
  0
BLOCK_RECORD
  5
2B27
100
AcDbSymbolTableRecord
100
AcDbBlockTableRecord
  2
*D9
  0
BLOCK_RECORD
  5
2B34
100
AcDbSymbolTableRecord
100
AcDbBlockTableRecord
  2
*D10
  0
BLOCK_RECORD
  5
2B57
100
AcDbSymbolTableRecord
100
AcDbBlockTableRecord
  2
*D11
  0
BLOCK_RECORD
  5
2B64
100
AcDbSymbolTableRecord
100
AcDbBlockTableRecord
  2
*D12
  0
BLOCK_RECORD
  5
2D93
100
AcDbSymbolTableRecord
100
AcDbBlockTableRecord
  2
*X13
  0
BLOCK_RECORD
  5
2DC6
100
AcDbSymbolTableRecord
100
AcDbBlockTableRecord
  2
*X14
  0
BLOCK_RECORD
  5
2DDD
100
AcDbSymbolTableRecord
100
AcDbBlockTableRecord
  2
*X15
  0
BLOCK_RECORD
  5
2DEA
100
AcDbSymbolTableRecord
100
AcDbBlockTableRecord
  2
*X16
  0
BLOCK_RECORD
  5
2E7B
100
AcDbSymbolTableRecord
100
AcDbBlockTableRecord
  2
*X17
  0
BLOCK_RECORD
  5
2E9B
100
AcDbSymbolTableRecord
100
AcDbBlockTableRecord
  2
*X18
  0
BLOCK_RECORD
  5
2ECA
100
AcDbSymbolTableRecord
100
AcDbBlockTableRecord
  2
*X19
  0
BLOCK_RECORD
  5
2EF4
100
AcDbSymbolTableRecord
100
AcDbBlockTableRecord
  2
*X20
  0
ENDTAB
  0
ENDSEC
  0
SECTION
  2
BLOCKS
  0
BLOCK
  5
3
100
AcDbEntity
  8
0
100
AcDbBlockBegin
  2
*MODEL_SPACE
 70
     0
 10
0.0
 20
0.0
 30
0.0
  3
*MODEL_SPACE
  1

  0
ENDBLK
  5
6
100
AcDbEntity
  8
0
100
AcDbBlockEnd
  0
BLOCK
  5
8
100
AcDbEntity
 67
     1
  8
0
100
AcDbBlockBegin
  2
*PAPER_SPACE
 70
     0
 10
0.0
 20
0.0
 30
0.0
  3
*PAPER_SPACE
  1

  0
ENDBLK
  5
9
100
AcDbEntity
 67
     1
  8
0
100
AcDbBlockEnd
  0
BLOCK
  5
29E6
100
AcDbEntity
  8
0
100
AcDbBlockBegin
  2
*D0
 70
     1
 10
0.0
 20
0.0
 30
0.0
  3
*D0
  1

  0
LINE
  5
29E7
100
AcDbEntity
  8
0
  6
BYBLOCK
100
AcDbLine
 10
52.531738
 20
203.564866
 30
0.0
 11
52.531738
 21
208.25
 31
0.0
  0
LINE
  5
29E8
100
AcDbEntity
  8
0
  6
BYBLOCK
100
AcDbLine
 10
79.529288
 20
203.564866
 30
0.0
 11
79.529288
 21
208.25
 31
0.0
  0
LINE
  5
29E9
100
AcDbEntity
  8
0
  6
BYBLOCK
100
AcDbLine
 10
55.031738
 20
207.0
 30
0.0
 11
77.029288
 21
207.0
 31
0.0
  0
SOLID
  5
29EA
100
AcDbEntity
  8
0
  6
BYBLOCK
100
AcDbTrace
 10
55.031738
 20
207.416667
 30
0.0
 11
55.031738
 21
206.583333
 31
0.0
 12
52.531738
 22
207.0
 32
0.0
 13
52.531738
 23
207.0
 33
0.0
  0
SOLID
  5
29EB
100
AcDbEntity
  8
0
  6
BYBLOCK
100
AcDbTrace
 10
77.029288
 20
207.416667
 30
0.0
 11
77.029288
 21
206.583333
 31
0.0
 12
79.529288
 22
207.0
 32
0.0
 13
79.529288
 23
207.0
 33
0.0
  0
MTEXT
  5
29EC
100
AcDbEntity
  8
0
  6
BYBLOCK
 62
     2
100
AcDbMText
 10
66.030513
 20
208.528683
 30
0.0
 40
1.8
 41
0.0
 71
     5
 72
     1
  1
27
  7
FINDER
  0
POINT
  5
29ED
100
AcDbEntity
  8
DEFPOINTS
  6
BYBLOCK
 62
     0
100
AcDbPoint
 10
52.531738
 20
201.564866
 30
0.0
  0
POINT
  5
29EE
100
AcDbEntity
  8
DEFPOINTS
  6
BYBLOCK
 62
     0
100
AcDbPoint
 10
79.529288
 20
201.564866
 30
0.0
  0
POINT
  5
29EF
100
AcDbEntity
  8
DEFPOINTS
  6
BYBLOCK
 62
     0
100
AcDbPoint
 10
79.529288
 20
207.0
 30
0.0
  0
ENDBLK
  5
29F0
100
AcDbEntity
  8
0
100
AcDbBlockEnd
  0
BLOCK
  5
2A41
100
AcDbEntity
  8
0
100
AcDbBlockBegin
  2
*D1
 70
     1
 10
0.0
 20
0.0
 30
0.0
  3
*D1
  1

  0
LINE
  5
2A42
100
AcDbEntity
  8
0
  6
BYBLOCK
100
AcDbLine
 10
51.022063
 20
202.565516
 30
0.0
 11
43.75
 21
202.565516
 31
0.0
  0
LINE
  5
2A43
100
AcDbEntity
  8
0
  6
BYBLOCK
100
AcDbLine
 10
51.022063
 20
126.568222
 30
0.0
 11
43.75
 21
126.568222
 31
0.0
  0
LINE
  5
2A44
100
AcDbEntity
  8
0
  6
BYBLOCK
100
AcDbLine
 10
45.0
 20
200.065516
 30
0.0
 11
45.0
 21
129.068222
 31
0.0
  0
SOLID
  5
2A45
100
AcDbEntity
  8
0
  6
BYBLOCK
100
AcDbTrace
 10
44.583333
 20
200.065516
 30
0.0
 11
45.416667
 21
200.065516
 31
0.0
 12
45.0
 22
202.565516
 32
0.0
 13
45.0
 23
202.565516
 33
0.0
  0
SOLID
  5
2A46
100
AcDbEntity
  8
0
  6
BYBLOCK
100
AcDbTrace
 10
44.583333
 20
129.068222
 30
0.0
 11
45.416667
 21
129.068222
 31
0.0
 12
45.0
 22
126.568222
 32
0.0
 13
45.0
 23
126.568222
 33
0.0
  0
MTEXT
  5
2A47
100
AcDbEntity
  8
0
  6
BYBLOCK
 62
     2
100
AcDbMText
 10
43.455969
 20
164.566869
 30
0.0
 40
1.8
 41
0.0
 71
     5
 72
     1
  1
76
  7
FINDER
 11
0.0
 21
1.0
 31
0.0
  0
POINT
  5
2A48
100
AcDbEntity
  8
DEFPOINTS
  6
BYBLOCK
 62
     0
100
AcDbPoint
 10
53.022063
 20
202.565516
 30
0.0
  0
POINT
  5
2A49
100
AcDbEntity
  8
DEFPOINTS
  6
BYBLOCK
 62
     0
100
AcDbPoint
 10
53.022063
 20
126.568222
 30
0.0
  0
POINT
  5
2A4A
100
AcDbEntity
  8
DEFPOINTS
  6
BYBLOCK
 62
     0
100
AcDbPoint
 10
45.0
 20
126.568222
 30
0.0
  0
ENDBLK
  5
2A4B
100
AcDbEntity
  8
0
100
AcDbBlockEnd
  0
BLOCK
  5
2D5E
100
AcDbEntity
  8
0
100
AcDbBlockBegin
  2
*D2
 70
     1
 10
0.0
 20
0.0
 30
0.0
  3
*D2
  1

  0
LINE
  5
2D5F
100
AcDbEntity
  8
0
  6
BYBLOCK
100
AcDbLine
 10
81.038963
 20
126.568222
 30
0.0
 11
86.25
 21
126.568222
 31
0.0
  0
LINE
  5
2D60
100
AcDbEntity
  8
0
  6
BYBLOCK
100
AcDbLine
 10
79.277826
 20
161.438801
 30
0.0
 11
86.25
 21
161.438801
 31
0.0
  0
LINE
  5
2D61
100
AcDbEntity
  8
0
  6
BYBLOCK
100
AcDbLine
 10
85.0
 20
129.068222
 30
0.0
 11
85.0
 21
158.938801
 31
0.0
  0
SOLID
  5
2D62
100
AcDbEntity
  8
0
  6
BYBLOCK
100
AcDbTrace
 10
84.583333
 20
129.068222
 30
0.0
 11
85.416667
 21
129.068222
 31
0.0
 12
85.0
 22
126.568222
 32
0.0
 13
85.0
 23
126.568222
 33
0.0
  0
SOLID
  5
2D63
100
AcDbEntity
  8
0
  6
BYBLOCK
100
AcDbTrace
 10
84.583333
 20
158.938801
 30
0.0
 11
85.416667
 21
158.938801
 31
0.0
 12
85.0
 22
161.438801
 32
0.0
 13
85.0
 23
161.438801
 33
0.0
  0
MTEXT
  5
2D64
100
AcDbEntity
  8
0
  6
BYBLOCK
 62
     2
100
AcDbMText
 10
83.455355
 20
144.003512
 30
0.0
 40
1.8
 41
0.0
 71
     5
 72
     1
  1
34.9
  7
FINDER
 11
0.0
 21
1.0
 31
0.0
  0
POINT
  5
2D65
100
AcDbEntity
  8
DEFPOINTS
  6
BYBLOCK
 62
     0
100
AcDbPoint
 10
79.038963
 20
126.568222
 30
0.0
  0
POINT
  5
2D66
100
AcDbEntity
  8
DEFPOINTS
  6
BYBLOCK
 62
     0
100
AcDbPoint
 10
77.277826
 20
161.438801
 30
0.0
  0
POINT
  5
2D67
100
AcDbEntity
  8
DEFPOINTS
  6
BYBLOCK
 62
     0
100
AcDbPoint
 10
85.0
 20
161.438801
 30
0.0
  0
ENDBLK
  5
2D68
100
AcDbEntity
  8
0
100
AcDbBlockEnd
  0
BLOCK
  5
2A7A
100
AcDbEntity
  8
0
100
AcDbBlockBegin
  2
*D3
 70
     1
 10
0.0
 20
0.0
 30
0.0
  3
*D3
  1

  0
LINE
  5
2A7B
100
AcDbEntity
  8
0
  6
BYBLOCK
100
AcDbLine
 10
52.783201
 20
163.039841
 30
0.0
 11
47.75
 21
163.039841
 31
0.0
  0
LINE
  5
2A7C
100
AcDbEntity
  8
0
  6
BYBLOCK
100
AcDbLine
 10
52.783201
 20
159.837761
 30
0.0
 11
47.75
 21
159.837761
 31
0.0
  0
LINE
  5
2A7D
100
AcDbEntity
  8
0
  6
BYBLOCK
100
AcDbLine
 10
49.0
 20
165.539841
 30
0.0
 11
49.0
 21
168.039841
 31
0.0
  0
LINE
  5
2A7E
100
AcDbEntity
  8
0
  6
BYBLOCK
100
AcDbLine
 10
49.0
 20
157.337761
 30
0.0
 11
49.0
 21
150.330326
 31
0.0
  0
LINE
  5
2A7F
100
AcDbEntity
  8
0
  6
BYBLOCK
100
AcDbLine
 10
49.0
 20
163.039841
 30
0.0
 11
49.0
 21
159.837761
 31
0.0
  0
SOLID
  5
2A80
100
AcDbEntity
  8
0
  6
BYBLOCK
100
AcDbTrace
 10
48.583333
 20
165.539841
 30
0.0
 11
49.416667
 21
165.539841
 31
0.0
 12
49.0
 22
163.039841
 32
0.0
 13
49.0
 23
163.039841
 33
0.0
  0
SOLID
  5
2A81
100
AcDbEntity
  8
0
  6
BYBLOCK
100
AcDbTrace
 10
48.583333
 20
157.337761
 30
0.0
 11
49.416667
 21
157.337761
 31
0.0
 12
49.0
 22
159.837761
 32
0.0
 13
49.0
 23
159.837761
 33
0.0
  0
MTEXT
  5
2A82
100
AcDbEntity
  8
0
  6
BYBLOCK
 62
     2
100
AcDbMText
 10
47.455355
 20
152.584044
 30
0.0
 40
1.8
 41
0.0
 71
     5
 72
     1
  1
3.2
  7
FINDER
 11
0.0
 21
1.0
 31
0.0
  0
POINT
  5
2A83
100
AcDbEntity
  8
DEFPOINTS
  6
BYBLOCK
 62
     0
100
AcDbPoint
 10
54.783201
 20
163.039841
 30
0.0
  0
POINT
  5
2A84
100
AcDbEntity
  8
DEFPOINTS
  6
BYBLOCK
 62
     0
100
AcDbPoint
 10
54.783201
 20
159.837761
 30
0.0
  0
POINT
  5
2A85
100
AcDbEntity
  8
DEFPOINTS
  6
BYBLOCK
 62
     0
100
AcDbPoint
 10
49.0
 20
159.837761
 30
0.0
  0
ENDBLK
  5
2A86
100
AcDbEntity
  8
0
100
AcDbBlockEnd
  0
BLOCK
  5
2A6F
100
AcDbEntity
  8
0
100
AcDbBlockBegin
  2
*D4
 70
     1
 10
0.0
 20
0.0
 30
0.0
  3
*D4
  1

  0
LINE
  5
2A70
100
AcDbEntity
  8
0
  6
BYBLOCK
100
AcDbLine
 10
54.783201
 20
159.438801
 30
0.0
 11
54.783201
 21
117.75
 31
0.0
  0
LINE
  5
2A71
100
AcDbEntity
  8
0
  6
BYBLOCK
100
AcDbLine
 10
77.277826
 20
159.438801
 30
0.0
 11
77.277826
 21
117.75
 31
0.0
  0
LINE
  5
2A72
100
AcDbEntity
  8
0
  6
BYBLOCK
100
AcDbLine
 10
57.283201
 20
119.0
 30
0.0
 11
74.777826
 21
119.0
 31
0.0
  0
SOLID
  5
2A73
100
AcDbEntity
  8
0
  6
BYBLOCK
100
AcDbTrace
 10
57.283201
 20
119.416667
 30
0.0
 11
57.283201
 21
118.583333
 31
0.0
 12
54.783201
 22
119.0
 32
0.0
 13
54.783201
 23
119.0
 33
0.0
  0
SOLID
  5
2A74
100
AcDbEntity
  8
0
  6
BYBLOCK
100
AcDbTrace
 10
74.777826
 20
119.416667
 30
0.0
 11
74.777826
 21
118.583333
 31
0.0
 12
77.277826
 22
119.0
 32
0.0
 13
77.277826
 23
119.0
 33
0.0
  0
MTEXT
  5
2A75
100
AcDbEntity
  8
0
  6
BYBLOCK
 62
     2
100
AcDbMText
 10
66.030513
 20
120.544031
 30
0.0
 40
1.8
 41
0.0
 71
     5
 72
     1
  1
22.5
  7
FINDER
  0
POINT
  5
2A76
100
AcDbEntity
  8
DEFPOINTS
  6
BYBLOCK
 62
     0
100
AcDbPoint
 10
54.783201
 20
161.438801
 30
0.0
  0
POINT
  5
2A77
100
AcDbEntity
  8
DEFPOINTS
  6
BYBLOCK
 62
     0
100
AcDbPoint
 10
77.277826
 20
161.438801
 30
0.0
  0
POINT
  5
2A78
100
AcDbEntity
  8
DEFPOINTS
  6
BYBLOCK
 62
     0
100
AcDbPoint
 10
77.277826
 20
119.0
 30
0.0
  0
ENDBLK
  5
2A79
100
AcDbEntity
  8
0
100
AcDbBlockEnd
  0
BLOCK
  5
2D69
100
AcDbEntity
  8
0
100
AcDbBlockBegin
  2
*D5
 70
     1
 10
0.0
 20
0.0
 30
0.0
  3
*D5
  1

  0
LINE
  5
2D6A
100
AcDbEntity
  8
0
  6
BYBLOCK
100
AcDbLine
 10
89.565197
 20
166.369996
 30
0.0
 11
85.801861
 21
166.369996
 31
0.0
  0
LINE
  5
2D6B
100
AcDbEntity
  8
0
  6
BYBLOCK
100
AcDbLine
 10
85.801861
 20
166.369996
 30
0.0
 11
69.298338
 21
154.71142
 31
0.0
  0
LINE
  5
2D6C
100
AcDbEntity
  8
0
  6
BYBLOCK
100
AcDbLine
 10
62.762688
 20
150.094444
 30
0.0
 11
60.720795
 21
148.65199
 31
0.0
  0
MTEXT
  5
2D6D
100
AcDbEntity
  8
0
  6
BYBLOCK
 62
     2
100
AcDbMText
 10
87.996029
 20
167.964368
 30
0.0
 40
1.8
 41
0.0
 71
     5
 72
     1
  1
\U+22053
  7
FINDER
  0
LINE
  5
2D6E
100
AcDbEntity
  8
0
  6
BYBLOCK
100
AcDbLine
 10
64.804581
 20
151.536897
 30
0.0
 11
67.256445
 21
153.268967
 31
0.0
  0
SOLID
  5
2D6F
100
AcDbEntity
  8
0
  6
BYBLOCK
100
AcDbTrace
 10
62.522279
 20
150.434759
 30
0.0
 11
63.003097
 21
149.754128
 31
0.0
 12
64.804581
 22
151.536897
 32
0.0
 13
64.804581
 23
151.536897
 33
0.0
  0
SOLID
  5
2D70
100
AcDbEntity
  8
0
  6
BYBLOCK
100
AcDbTrace
 10
69.05793
 20
155.051736
 30
0.0
 11
69.538747
 21
154.371105
 31
0.0
 12
67.256445
 22
153.268967
 32
0.0
 13
67.256445
 23
153.268967
 33
0.0
  0
POINT
  5
2D71
100
AcDbEntity
  8
DEFPOINTS
  6
BYBLOCK
 62
     0
100
AcDbPoint
 10
67.256445
 20
153.268967
 30
0.0
  0
POINT
  5
2D72
100
AcDbEntity
  8
DEFPOINTS
  6
BYBLOCK
 62
     0
100
AcDbPoint
 10
64.804581
 20
151.536897
 30
0.0
  0
ENDBLK
  5
2D73
100
AcDbEntity
  8
0
100
AcDbBlockEnd
  0
BLOCK
  5
2AF1
100
AcDbEntity
  8
0
100
AcDbBlockBegin
  2
*D6
 70
     1
 10
0.0
 20
0.0
 30
0.0
  3
*D6
  1

  0
LINE
  5
2AF2
100
AcDbEntity
  8
0
  6
BYBLOCK
100
AcDbLine
 10
132.472885
 20
202.565516
 30
0.0
 11
128.75
 21
202.565516
 31
0.0
  0
LINE
  5
2AF3
100
AcDbEntity
  8
0
  6
BYBLOCK
100
AcDbLine
 10
132.472885
 20
181.063517
 30
0.0
 11
128.75
 21
181.063517
 31
0.0
  0
LINE
  5
2AF4
100
AcDbEntity
  8
0
  6
BYBLOCK
100
AcDbLine
 10
130.0
 20
200.065516
 30
0.0
 11
130.0
 21
183.563517
 31
0.0
  0
SOLID
  5
2AF5
100
AcDbEntity
  8
0
  6
BYBLOCK
100
AcDbTrace
 10
129.583333
 20
200.065516
 30
0.0
 11
130.416667
 21
200.065516
 31
0.0
 12
130.0
 22
202.565516
 32
0.0
 13
130.0
 23
202.565516
 33
0.0
  0
SOLID
  5
2AF6
100
AcDbEntity
  8
0
  6
BYBLOCK
100
AcDbTrace
 10
129.583333
 20
183.563517
 30
0.0
 11
130.416667
 21
183.563517
 31
0.0
 12
130.0
 22
181.063517
 32
0.0
 13
130.0
 23
181.063517
 33
0.0
  0
MTEXT
  5
2AF7
100
AcDbEntity
  8
0
  6
BYBLOCK
 62
     2
100
AcDbMText
 10
128.455969
 20
191.814517
 30
0.0
 40
1.8
 41
0.0
 71
     5
 72
     1
  1
21.5
  7
FINDER
 11
0.0
 21
1.0
 31
0.0
  0
POINT
  5
2AF8
100
AcDbEntity
  8
DEFPOINTS
  6
BYBLOCK
 62
     0
100
AcDbPoint
 10
134.472885
 20
202.565516
 30
0.0
  0
POINT
  5
2AF9
100
AcDbEntity
  8
DEFPOINTS
  6
BYBLOCK
 62
     0
100
AcDbPoint
 10
134.472885
 20
181.063517
 30
0.0
  0
POINT
  5
2AFA
100
AcDbEntity
  8
DEFPOINTS
  6
BYBLOCK
 62
     0
100
AcDbPoint
 10
130.0
 20
181.063517
 30
0.0
  0
ENDBLK
  5
2AFB
100
AcDbEntity
  8
0
100
AcDbBlockEnd
  0
BLOCK
  5
2D74
100
AcDbEntity
  8
0
100
AcDbBlockBegin
  2
*D7
 70
     1
 10
0.0
 20
0.0
 30
0.0
  3
*D7
  1

  0
LINE
  5
2D75
100
AcDbEntity
  8
0
  6
BYBLOCK
100
AcDbLine
 10
132.472885
 20
145.470507
 30
0.0
 11
128.75
 21
145.470507
 31
0.0
  0
LINE
  5
2D76
100
AcDbEntity
  8
0
  6
BYBLOCK
100
AcDbLine
 10
130.0
 20
178.563517
 30
0.0
 11
130.0
 21
147.970507
 31
0.0
  0
SOLID
  5
2D77
100
AcDbEntity
  8
0
  6
BYBLOCK
100
AcDbTrace
 10
129.583333
 20
178.563517
 30
0.0
 11
130.416667
 21
178.563517
 31
0.0
 12
130.0
 22
181.063517
 32
0.0
 13
130.0
 23
181.063517
 33
0.0
  0
SOLID
  5
2D78
100
AcDbEntity
  8
0
  6
BYBLOCK
100
AcDbTrace
 10
129.583333
 20
147.970507
 30
0.0
 11
130.416667
 21
147.970507
 31
0.0
 12
130.0
 22
145.470507
 32
0.0
 13
130.0
 23
145.470507
 33
0.0
  0
MTEXT
  5
2D79
100
AcDbEntity
  8
0
  6
BYBLOCK
 62
     2
100
AcDbMText
 10
128.455355
 20
163.267012
 30
0.0
 40
1.8
 41
0.0
 71
     5
 72
     1
  1
35.6
  7
FINDER
 11
0.0
 21
1.0
 31
0.0
  0
POINT
  5
2D7A
100
AcDbEntity
  8
DEFPOINTS
  6
BYBLOCK
 62
     0
100
AcDbPoint
 10
134.472885
 20
181.063517
 30
0.0
  0
POINT
  5
2D7B
100
AcDbEntity
  8
DEFPOINTS
  6
BYBLOCK
 62
     0
100
AcDbPoint
 10
134.472885
 20
145.470507
 30
0.0
  0
POINT
  5
2D7C
100
AcDbEntity
  8
DEFPOINTS
  6
BYBLOCK
 62
     0
100
AcDbPoint
 10
130.0
 20
145.470507
 30
0.0
  0
ENDBLK
  5
2D7D
100
AcDbEntity
  8
0
100
AcDbBlockEnd
  0
BLOCK
  5
2D7E
100
AcDbEntity
  8
0
100
AcDbBlockBegin
  2
*D8
 70
     1
 10
0.0
 20
0.0
 30
0.0
  3
*D8
  1

  0
LINE
  5
2D7F
100
AcDbEntity
  8
0
  6
BYBLOCK
100
AcDbLine
 10
132.472885
 20
126.568222
 30
0.0
 11
128.75
 21
126.568222
 31
0.0
  0
LINE
  5
2D80
100
AcDbEntity
  8
0
  6
BYBLOCK
100
AcDbLine
 10
130.0
 20
142.970507
 30
0.0
 11
130.0
 21
129.068222
 31
0.0
  0
SOLID
  5
2D81
100
AcDbEntity
  8
0
  6
BYBLOCK
100
AcDbTrace
 10
129.583333
 20
142.970507
 30
0.0
 11
130.416667
 21
142.970507
 31
0.0
 12
130.0
 22
145.470507
 32
0.0
 13
130.0
 23
145.470507
 33
0.0
  0
SOLID
  5
2D82
100
AcDbEntity
  8
0
  6
BYBLOCK
100
AcDbTrace
 10
129.583333
 20
129.068222
 30
0.0
 11
130.416667
 21
129.068222
 31
0.0
 12
130.0
 22
126.568222
 32
0.0
 13
130.0
 23
126.568222
 33
0.0
  0
MTEXT
  5
2D83
100
AcDbEntity
  8
0
  6
BYBLOCK
 62
     2
100
AcDbMText
 10
128.455969
 20
136.019365
 30
0.0
 40
1.8
 41
0.0
 71
     5
 72
     1
  1
18.9
  7
FINDER
 11
0.0
 21
1.0
 31
0.0
  0
POINT
  5
2D84
100
AcDbEntity
  8
DEFPOINTS
  6
BYBLOCK
 62
     0
100
AcDbPoint
 10
134.472885
 20
145.470507
 30
0.0
  0
POINT
  5
2D85
100
AcDbEntity
  8
DEFPOINTS
  6
BYBLOCK
 62
     0
100
AcDbPoint
 10
134.472885
 20
126.568222
 30
0.0
  0
POINT
  5
2D86
100
AcDbEntity
  8
DEFPOINTS
  6
BYBLOCK
 62
     0
100
AcDbPoint
 10
130.0
 20
126.568222
 30
0.0
  0
ENDBLK
  5
2D87
100
AcDbEntity
  8
0
100
AcDbBlockEnd
  0
BLOCK
  5
2B41
100
AcDbEntity
  8
0
100
AcDbBlockBegin
  2
*D9
 70
     1
 10
0.0
 20
0.0
 30
0.0
  3
*D9
  1

  0
LINE
  5
2B42
100
AcDbEntity
  8
0
  6
BYBLOCK
100
AcDbLine
 10
134.472885
 20
122.017615
 30
0.0
 11
134.472885
 21
117.75
 31
0.0
  0
LINE
  5
2B43
100
AcDbEntity
  8
0
  6
BYBLOCK
100
AcDbLine
 10
166.473685
 20
125.568872
 30
0.0
 11
166.473685
 21
117.75
 31
0.0
  0
LINE
  5
2B44
100
AcDbEntity
  8
0
  6
BYBLOCK
100
AcDbLine
 10
136.972885
 20
119.0
 30
0.0
 11
163.973685
 21
119.0
 31
0.0
  0
SOLID
  5
2B45
100
AcDbEntity
  8
0
  6
BYBLOCK
100
AcDbTrace
 10
136.972885
 20
119.416667
 30
0.0
 11
136.972885
 21
118.583333
 31
0.0
 12
134.472885
 22
119.0
 32
0.0
 13
134.472885
 23
119.0
 33
0.0
  0
SOLID
  5
2B46
100
AcDbEntity
  8
0
  6
BYBLOCK
100
AcDbTrace
 10
163.973685
 20
119.416667
 30
0.0
 11
163.973685
 21
118.583333
 31
0.0
 12
166.473685
 22
119.0
 32
0.0
 13
166.473685
 23
119.0
 33
0.0
  0
MTEXT
  5
2B47
100
AcDbEntity
  8
0
  6
BYBLOCK
 62
     2
100
AcDbMText
 10
150.473285
 20
120.544645
 30
0.0
 40
1.8
 41
0.0
 71
     5
 72
     1
  1
32
  7
FINDER
  0
POINT
  5
2B48
100
AcDbEntity
  8
DEFPOINTS
  6
BYBLOCK
 62
     0
100
AcDbPoint
 10
134.472885
 20
124.017615
 30
0.0
  0
POINT
  5
2B49
100
AcDbEntity
  8
DEFPOINTS
  6
BYBLOCK
 62
     0
100
AcDbPoint
 10
166.473685
 20
127.568872
 30
0.0
  0
POINT
  5
2B4A
100
AcDbEntity
  8
DEFPOINTS
  6
BYBLOCK
 62
     0
100
AcDbPoint
 10
166.473685
 20
119.0
 30
0.0
  0
ENDBLK
  5
2B4B
100
AcDbEntity
  8
0
100
AcDbBlockEnd
  0
BLOCK
  5
2B4C
100
AcDbEntity
  8
0
100
AcDbBlockBegin
  2
*D10
 70
     1
 10
0.0
 20
0.0
 30
0.0
  3
*D10
  1

  0
LINE
  5
2B4D
100
AcDbEntity
  8
0
  6
BYBLOCK
100
AcDbLine
 10
137.97516
 20
183.063517
 30
0.0
 11
137.97516
 21
208.25
 31
0.0
  0
LINE
  5
2B4E
100
AcDbEntity
  8
0
  6
BYBLOCK
100
AcDbLine
 10
169.97596
 20
175.796829
 30
0.0
 11
169.97596
 21
208.25
 31
0.0
  0
LINE
  5
2B4F
100
AcDbEntity
  8
0
  6
BYBLOCK
100
AcDbLine
 10
140.47516
 20
207.0
 30
0.0
 11
167.47596
 21
207.0
 31
0.0
  0
SOLID
  5
2B50
100
AcDbEntity
  8
0
  6
BYBLOCK
100
AcDbTrace
 10
140.47516
 20
207.416667
 30
0.0
 11
140.47516
 21
206.583333
 31
0.0
 12
137.97516
 22
207.0
 32
0.0
 13
137.97516
 23
207.0
 33
0.0
  0
SOLID
  5
2B51
100
AcDbEntity
  8
0
  6
BYBLOCK
100
AcDbTrace
 10
167.47596
 20
207.416667
 30
0.0
 11
167.47596
 21
206.583333
 31
0.0
 12
169.97596
 22
207.0
 32
0.0
 13
169.97596
 23
207.0
 33
0.0
  0
MTEXT
  5
2B52
100
AcDbEntity
  8
0
  6
BYBLOCK
 62
     2
100
AcDbMText
 10
153.97556
 20
208.544645
 30
0.0
 40
1.8
 41
0.0
 71
     5
 72
     1
  1
32
  7
FINDER
  0
POINT
  5
2B53
100
AcDbEntity
  8
DEFPOINTS
  6
BYBLOCK
 62
     0
100
AcDbPoint
 10
137.97516
 20
181.063517
 30
0.0
  0
POINT
  5
2B54
100
AcDbEntity
  8
DEFPOINTS
  6
BYBLOCK
 62
     0
100
AcDbPoint
 10
169.97596
 20
173.796829
 30
0.0
  0
POINT
  5
2B55
100
AcDbEntity
  8
DEFPOINTS
  6
BYBLOCK
 62
     0
100
AcDbPoint
 10
169.97596
 20
207.0
 30
0.0
  0
ENDBLK
  5
2B56
100
AcDbEntity
  8
0
100
AcDbBlockEnd
  0
BLOCK
  5
2B58
100
AcDbEntity
  8
0
100
AcDbBlockBegin
  2
*D11
 70
     1
 10
0.0
 20
0.0
 30
0.0
  3
*D11
  1

  0
LINE
  5
2B59
100
AcDbEntity
  8
0
  6
BYBLOCK
100
AcDbLine
 10
134.472885
 20
122.017615
 30
0.0
 11
134.472885
 21
112.75
 31
0.0
  0
LINE
  5
2B5A
100
AcDbEntity
  8
0
  6
BYBLOCK
100
AcDbLine
 10
169.97596
 20
143.278304
 30
0.0
 11
169.97596
 21
112.75
 31
0.0
  0
LINE
  5
2B5B
100
AcDbEntity
  8
0
  6
BYBLOCK
100
AcDbLine
 10
136.972885
 20
114.0
 30
0.0
 11
167.47596
 21
114.0
 31
0.0
  0
SOLID
  5
2B5C
100
AcDbEntity
  8
0
  6
BYBLOCK
100
AcDbTrace
 10
136.972885
 20
114.416667
 30
0.0
 11
136.972885
 21
113.583333
 31
0.0
 12
134.472885
 22
114.0
 32
0.0
 13
134.472885
 23
114.0
 33
0.0
  0
SOLID
  5
2B5D
100
AcDbEntity
  8
0
  6
BYBLOCK
100
AcDbTrace
 10
167.47596
 20
114.416667
 30
0.0
 11
167.47596
 21
113.583333
 31
0.0
 12
169.97596
 22
114.0
 32
0.0
 13
169.97596
 23
114.0
 33
0.0
  0
MTEXT
  5
2B5E
100
AcDbEntity
  8
0
  6
BYBLOCK
 62
     2
100
AcDbMText
 10
152.224423
 20
115.544645
 30
0.0
 40
1.8
 41
0.0
 71
     5
 72
     1
  1
35.5
  7
FINDER
  0
POINT
  5
2B5F
100
AcDbEntity
  8
DEFPOINTS
  6
BYBLOCK
 62
     0
100
AcDbPoint
 10
134.472885
 20
124.017615
 30
0.0
  0
POINT
  5
2B60
100
AcDbEntity
  8
DEFPOINTS
  6
BYBLOCK
 62
     0
100
AcDbPoint
 10
169.97596
 20
145.278304
 30
0.0
  0
POINT
  5
2B61
100
AcDbEntity
  8
DEFPOINTS
  6
BYBLOCK
 62
     0
100
AcDbPoint
 10
169.97596
 20
114.0
 30
0.0
  0
ENDBLK
  5
2B62
100
AcDbEntity
  8
0
100
AcDbBlockEnd
  0
BLOCK
  5
2B71
100
AcDbEntity
  8
0
100
AcDbBlockBegin
  2
*D12
 70
     1
 10
0.0
 20
0.0
 30
0.0
  3
*D12
  1

  0
LINE
  5
2B72
100
AcDbEntity
  8
0
  6
BYBLOCK
100
AcDbLine
 10
134.472885
 20
204.565516
 30
0.0
 11
134.472885
 21
212.25
 31
0.0
  0
LINE
  5
2B73
100
AcDbEntity
  8
0
  6
BYBLOCK
100
AcDbLine
 10
195.36893
 20
183.551866
 30
0.0
 11
195.36893
 21
212.25
 31
0.0
  0
LINE
  5
2B74
100
AcDbEntity
  8
0
  6
BYBLOCK
100
AcDbLine
 10
136.972885
 20
211.0
 30
0.0
 11
192.86893
 21
211.0
 31
0.0
  0
SOLID
  5
2B75
100
AcDbEntity
  8
0
  6
BYBLOCK
100
AcDbTrace
 10
136.972885
 20
211.416667
 30
0.0
 11
136.972885
 21
210.583333
 31
0.0
 12
134.472885
 22
211.0
 32
0.0
 13
134.472885
 23
211.0
 33
0.0
  0
SOLID
  5
2B76
100
AcDbEntity
  8
0
  6
BYBLOCK
100
AcDbTrace
 10
192.86893
 20
211.416667
 30
0.0
 11
192.86893
 21
210.583333
 31
0.0
 12
195.36893
 22
211.0
 32
0.0
 13
195.36893
 23
211.0
 33
0.0
  0
MTEXT
  5
2B77
100
AcDbEntity
  8
0
  6
BYBLOCK
 62
     2
100
AcDbMText
 10
164.920908
 20
212.544031
 30
0.0
 40
1.8
 41
0.0
 71
     5
 72
     1
  1
60.9
  7
FINDER
  0
POINT
  5
2B78
100
AcDbEntity
  8
DEFPOINTS
  6
BYBLOCK
 62
     0
100
AcDbPoint
 10
134.472885
 20
202.565516
 30
0.0
  0
POINT
  5
2B79
100
AcDbEntity
  8
DEFPOINTS
  6
BYBLOCK
 62
     0
100
AcDbPoint
 10
195.36893
 20
181.551866
 30
0.0
  0
POINT
  5
2B7A
100
AcDbEntity
  8
DEFPOINTS
  6
BYBLOCK
 62
     0
100
AcDbPoint
 10
195.36893
 20
211.0
 30
0.0
  0
ENDBLK
  5
2B7B
100
AcDbEntity
  8
0
100
AcDbBlockEnd
  0
BLOCK
  5
2DC4
100
AcDbEntity
  8
0
100
AcDbBlockBegin
  2
*X13
 70
     1
 10
0.0
 20
0.0
 30
0.0
  3
*X13
  1

  0
LINE
  5
2D94
100
AcDbEntity
  8
0
  6
CONTINUOUS
 62
     0
100
AcDbLine
 10
41.233824
 20
20.814544
 30
0.0
 11
42.038521
 21
21.619241
 31
0.0
  0
LINE
  5
2D95
100
AcDbEntity
  8
0
  6
CONTINUOUS
 62
     0
100
AcDbLine
 10
40.761924
 20
20.625487
 30
0.0
 11
41.992081
 21
21.855644
 31
0.0
  0
LINE
  5
2D96
100
AcDbEntity
  8
0
  6
CONTINUOUS
 62
     0
100
AcDbLine
 10
42.109364
 20
22.25577
 30
0.0
 11
42.234688
 21
22.381093
 31
0.0
  0
LINE
  5
2D97
100
AcDbEntity
  8
0
  6
CONTINUOUS
 62
     0
100
AcDbLine
 10
40.387144
 20
20.533549
 30
0.0
 11
41.709238
 21
21.855644
 31
0.0
  0
LINE
  5
2D98
100
AcDbEntity
  8
0
  6
CONTINUOUS
 62
     0
100
AcDbLine
 10
41.825433
 20
22.254682
 30
0.0
 11
42.248624
 21
22.677873
 31
0.0
  0
LINE
  5
2D99
100
AcDbEntity
  8
0
  6
CONTINUOUS
 62
     0
100
AcDbLine
 10
40.05278
 20
20.482029
 30
0.0
 11
41.426395
 21
21.855644
 31
0.0
  0
LINE
  5
2D9A
100
AcDbEntity
  8
0
  6
CONTINUOUS
 62
     0
100
AcDbLine
 10
41.541502
 20
22.253593
 30
0.0
 11
42.21409
 21
22.926181
 31
0.0
  0
LINE
  5
2D9B
100
AcDbEntity
  8
0
  6
CONTINUOUS
 62
     0
100
AcDbLine
 10
39.74394
 20
20.456031
 30
0.0
 11
41.143553
 21
21.855644
 31
0.0
  0
LINE
  5
2D9C
100
AcDbEntity
  8
0
  6
CONTINUOUS
 62
     0
100
AcDbLine
 10
41.257572
 20
22.252505
 30
0.0
 11
42.156032
 21
23.150966
 31
0.0
  0
LINE
  5
2D9D
100
AcDbEntity
  8
0
  6
CONTINUOUS
 62
     0
100
AcDbLine
 10
39.448788
 20
20.443722
 30
0.0
 11
40.86071
 21
21.855644
 31
0.0
  0
LINE
  5
2D9E
100
AcDbEntity
  8
0
  6
CONTINUOUS
 62
     0
100
AcDbLine
 10
40.973641
 20
22.251417
 30
0.0
 11
42.082697
 21
23.360473
 31
0.0
  0
LINE
  5
2D9F
100
AcDbEntity
  8
0
  6
CONTINUOUS
 62
     0
100
AcDbLine
 10
39.166766
 20
20.444542
 30
0.0
 11
40.577867
 21
21.855644
 31
0.0
  0
LINE
  5
2DA0
100
AcDbEntity
  8
0
  6
CONTINUOUS
 62
     0
100
AcDbLine
 10
40.68971
 20
22.250329
 30
0.0
 11
41.992262
 21
23.552881
 31
0.0
  0
LINE
  5
2DA1
100
AcDbEntity
  8
0
  6
CONTINUOUS
 62
     0
100
AcDbLine
 10
38.902535
 20
20.463154
 30
0.0
 11
40.178872
 21
21.739491
 31
0.0
  0
LINE
  5
2DA2
100
AcDbEntity
  8
0
  6
CONTINUOUS
 62
     0
100
AcDbLine
 10
40.405779
 20
22.249241
 30
0.0
 11
41.885758
 21
23.729219
 31
0.0
  0
LINE
  5
2DA3
100
AcDbEntity
  8
0
  6
CONTINUOUS
 62
     0
100
AcDbLine
 10
38.650769
 20
20.494231
 30
0.0
 11
39.711135
 21
21.554596
 31
0.0
  0
LINE
  5
2DA4
100
AcDbEntity
  8
0
  6
CONTINUOUS
 62
     0
100
AcDbLine
 10
40.121848
 20
22.248152
 30
0.0
 11
41.763132
 21
23.889436
 31
0.0
  0
LINE
  5
2DA5
100
AcDbEntity
  8
0
  6
CONTINUOUS
 62
     0
100
AcDbLine
 10
38.407693
 20
20.533998
 30
0.0
 11
39.411545
 21
21.53785
 31
0.0
  0
LINE
  5
2DA6
100
AcDbEntity
  8
0
  6
CONTINUOUS
 62
     0
100
AcDbLine
 10
39.837917
 20
22.247064
 30
0.0
 11
41.624849
 21
24.033997
 31
0.0
  0
LINE
  5
2DA7
100
AcDbEntity
  8
0
  6
CONTINUOUS
 62
     0
100
AcDbLine
 10
38.180128
 20
20.589276
 30
0.0
 11
39.162324
 21
21.571471
 31
0.0
  0
LINE
  5
2DA8
100
AcDbEntity
  8
0
  6
CONTINUOUS
 62
     0
100
AcDbLine
 10
39.553986
 20
22.245976
 30
0.0
 11
41.470496
 21
24.162486
 31
0.0
  0
LINE
  5
2DA9
100
AcDbEntity
  8
0
  6
CONTINUOUS
 62
     0
100
AcDbLine
 10
37.96719
 20
20.65918
 30
0.0
 11
38.94359
 21
21.63558
 31
0.0
  0
LINE
  5
2DAA
100
AcDbEntity
  8
0
  6
CONTINUOUS
 62
     0
100
AcDbLine
 10
39.270055
 20
22.244888
 30
0.0
 11
40.104361
 21
23.079194
 31
0.0
  0
LINE
  5
2DAB
100
AcDbEntity
  8
0
  6
CONTINUOUS
 62
     0
100
AcDbLine
 10
40.296756
 20
23.271589
 30
0.0
 11
41.306075
 21
24.280908
 31
0.0
  0
LINE
  5
2DAC
100
AcDbEntity
  8
0
  6
CONTINUOUS
 62
     0
100
AcDbLine
 10
37.762127
 20
20.736959
 30
0.0
 11
38.751667
 21
21.7265
 31
0.0
  0
LINE
  5
2DAD
100
AcDbEntity
  8
0
  6
CONTINUOUS
 62
     0
100
AcDbLine
 10
38.986768
 20
22.244444
 30
0.0
 11
39.821518
 21
23.079194
 31
0.0
  0
LINE
  5
2DAE
100
AcDbEntity
  8
0
  6
CONTINUOUS
 62
     0
100
AcDbLine
 10
40.185855
 20
23.443531
 30
0.0
 11
41.127162
 21
24.384837
 31
0.0
  0
LINE
  5
2DAF
100
AcDbEntity
  8
0
  6
CONTINUOUS
 62
     0
100
AcDbLine
 10
37.567077
 20
20.824752
 30
0.0
 11
38.587242
 21
21.844917
 31
0.0
  0
LINE
  5
2DB0
100
AcDbEntity
  8
0
  6
CONTINUOUS
 62
     0
100
AcDbLine
 10
38.703926
 20
22.244444
 30
0.0
 11
39.538676
 21
23.079194
 31
0.0
  0
LINE
  5
2DB1
100
AcDbEntity
  8
0
  6
CONTINUOUS
 62
     0
100
AcDbLine
 10
40.035599
 20
23.576117
 30
0.0
 11
40.932542
 21
24.47306
 31
0.0
  0
LINE
  5
2DB2
100
AcDbEntity
  8
0
  6
CONTINUOUS
 62
     0
100
AcDbLine
 10
37.386162
 20
20.92668
 30
0.0
 11
38.458814
 21
21.999332
 31
0.0
  0
LINE
  5
2DB3
100
AcDbEntity
  8
0
  6
CONTINUOUS
 62
     0
100
AcDbLine
 10
38.421083
 20
22.244444
 30
0.0
 11
39.255833
 21
23.079194
 31
0.0
  0
LINE
  5
2DB4
100
AcDbEntity
  8
0
  6
CONTINUOUS
 62
     0
100
AcDbLine
 10
39.853662
 20
23.677023
 30
0.0
 11
40.721945
 21
24.545306
 31
0.0
  0
LINE
  5
2DB5
100
AcDbEntity
  8
0
  6
CONTINUOUS
 62
     0
100
AcDbLine
 10
37.22185
 20
21.045211
 30
0.0
 11
38.375638
 21
22.198999
 31
0.0
  0
LINE
  5
2DB6
100
AcDbEntity
  8
0
  6
CONTINUOUS
 62
     0
100
AcDbLine
 10
39.638454
 20
23.744657
 30
0.0
 11
40.501236
 21
24.607439
 31
0.0
  0
LINE
  5
2DB7
100
AcDbEntity
  8
0
  6
CONTINUOUS
 62
     0
100
AcDbLine
 10
37.07656
 20
21.182763
 30
0.0
 11
38.97299
 21
23.079194
 31
0.0
  0
LINE
  5
2DB8
100
AcDbEntity
  8
0
  6
CONTINUOUS
 62
     0
100
AcDbLine
 10
39.38488
 20
23.773926
 30
0.0
 11
40.269576
 21
24.658623
 31
0.0
  0
LINE
  5
2DB9
100
AcDbEntity
  8
0
  6
CONTINUOUS
 62
     0
100
AcDbLine
 10
36.946052
 20
21.335098
 30
0.0
 11
38.690147
 21
23.079194
 31
0.0
  0
LINE
  5
2DBA
100
AcDbEntity
  8
0
  6
CONTINUOUS
 62
     0
100
AcDbLine
 10
39.069245
 20
23.741134
 30
0.0
 11
40.026103
 21
24.697992
 31
0.0
  0
LINE
  5
2DBB
100
AcDbEntity
  8
0
  6
CONTINUOUS
 62
     0
100
AcDbLine
 10
36.825922
 20
21.497811
 30
0.0
 11
38.407305
 21
23.079194
 31
0.0
  0
LINE
  5
2DBC
100
AcDbEntity
  8
0
  6
CONTINUOUS
 62
     0
100
AcDbLine
 10
36.722045
 20
21.676776
 30
0.0
 11
39.769169
 21
24.723901
 31
0.0
  0
LINE
  5
2DBD
100
AcDbEntity
  8
0
  6
CONTINUOUS
 62
     0
100
AcDbLine
 10
36.633672
 20
21.871247
 30
0.0
 11
39.492393
 21
24.729967
 31
0.0
  0
LINE
  5
2DBE
100
AcDbEntity
  8
0
  6
CONTINUOUS
 62
     0
100
AcDbLine
 10
36.558727
 20
22.079144
 30
0.0
 11
39.214889
 21
24.735306
 31
0.0
  0
LINE
  5
2DBF
100
AcDbEntity
  8
0
  6
CONTINUOUS
 62
     0
100
AcDbLine
 10
36.503475
 20
22.306735
 30
0.0
 11
38.910338
 21
24.713597
 31
0.0
  0
LINE
  5
2DC0
100
AcDbEntity
  8
0
  6
CONTINUOUS
 62
     0
100
AcDbLine
 10
36.478924
 20
22.565027
 30
0.0
 11
38.599964
 21
24.686067
 31
0.0
  0
LINE
  5
2DC1
100
AcDbEntity
  8
0
  6
CONTINUOUS
 62
     0
100
AcDbLine
 10
36.497306
 20
22.866251
 30
0.0
 11
38.252546
 21
24.621491
 31
0.0
  0
LINE
  5
2DC2
100
AcDbEntity
  8
0
  6
CONTINUOUS
 62
     0
100
AcDbLine
 10
36.58207
 20
23.233858
 30
0.0
 11
37.861674
 21
24.513462
 31
0.0
  0
LINE
  5
2DC3
100
AcDbEntity
  8
0
  6
CONTINUOUS
 62
     0
100
AcDbLine
 10
36.878958
 20
23.813588
 30
0.0
 11
37.289934
 21
24.224564
 31
0.0
  0
ENDBLK
  5
2DC5
100
AcDbEntity
  8
0
100
AcDbBlockEnd
  0
BLOCK
  5
2DDB
100
AcDbEntity
  8
0
100
AcDbBlockBegin
  2
*X14
 70
     1
 10
0.0
 20
0.0
 30
0.0
  3
*X14
  1

  0
LINE
  5
2DC7
100
AcDbEntity
  8
0
  6
CONTINUOUS
 62
     0
100
AcDbLine
 10
23.515125
 20
20.632094
 30
0.0
 11
23.625973
 21
20.742941
 31
0.0
  0
LINE
  5
2DC8
100
AcDbEntity
  8
0
  6
CONTINUOUS
 62
     0
100
AcDbLine
 10
23.232282
 20
20.632094
 30
0.0
 11
23.625973
 21
21.025784
 31
0.0
  0
LINE
  5
2DC9
100
AcDbEntity
  8
0
  6
CONTINUOUS
 62
     0
100
AcDbLine
 10
22.94944
 20
20.632094
 30
0.0
 11
23.625973
 21
21.308627
 31
0.0
  0
LINE
  5
2DCA
100
AcDbEntity
  8
0
  6
CONTINUOUS
 62
     0
100
AcDbLine
 10
22.666597
 20
20.632094
 30
0.0
 11
23.625973
 21
21.59147
 31
0.0
  0
LINE
  5
2DCB
100
AcDbEntity
  8
0
  6
CONTINUOUS
 62
     0
100
AcDbLine
 10
22.383754
 20
20.632094
 30
0.0
 11
23.625973
 21
21.874312
 31
0.0
  0
LINE
  5
2DCC
100
AcDbEntity
  8
0
  6
CONTINUOUS
 62
     0
100
AcDbLine
 10
22.100912
 20
20.632094
 30
0.0
 11
23.625973
 21
22.157155
 31
0.0
  0
LINE
  5
2DCD
100
AcDbEntity
  8
0
  6
CONTINUOUS
 62
     0
100
AcDbLine
 10
21.818069
 20
20.632094
 30
0.0
 11
23.625973
 21
22.439998
 31
0.0
  0
LINE
  5
2DCE
100
AcDbEntity
  8
0
  6
CONTINUOUS
 62
     0
100
AcDbLine
 10
21.807973
 20
20.90484
 30
0.0
 11
23.625973
 21
22.72284
 31
0.0
  0
LINE
  5
2DCF
100
AcDbEntity
  8
0
  6
CONTINUOUS
 62
     0
100
AcDbLine
 10
21.807973
 20
21.187683
 30
0.0
 11
23.625973
 21
23.005683
 31
0.0
  0
LINE
  5
2DD0
100
AcDbEntity
  8
0
  6
CONTINUOUS
 62
     0
100
AcDbLine
 10
21.807973
 20
21.470526
 30
0.0
 11
23.625973
 21
23.288526
 31
0.0
  0
LINE
  5
2DD1
100
AcDbEntity
  8
0
  6
CONTINUOUS
 62
     0
100
AcDbLine
 10
21.807973
 20
21.753369
 30
0.0
 11
23.625973
 21
23.571369
 31
0.0
  0
LINE
  5
2DD2
100
AcDbEntity
  8
0
  6
CONTINUOUS
 62
     0
100
AcDbLine
 10
21.807973
 20
22.036211
 30
0.0
 11
23.625973
 21
23.854211
 31
0.0
  0
LINE
  5
2DD3
100
AcDbEntity
  8
0
  6
CONTINUOUS
 62
     0
100
AcDbLine
 10
21.807973
 20
22.319054
 30
0.0
 11
23.625973
 21
24.137054
 31
0.0
  0
LINE
  5
2DD4
100
AcDbEntity
  8
0
  6
CONTINUOUS
 62
     0
100
AcDbLine
 10
21.807973
 20
22.601897
 30
0.0
 11
23.625973
 21
24.419897
 31
0.0
  0
LINE
  5
2DD5
100
AcDbEntity
  8
0
  6
CONTINUOUS
 62
     0
100
AcDbLine
 10
21.807973
 20
22.884739
 30
0.0
 11
23.431627
 21
24.508394
 31
0.0
  0
LINE
  5
2DD6
100
AcDbEntity
  8
0
  6
CONTINUOUS
 62
     0
100
AcDbLine
 10
21.807973
 20
23.167582
 30
0.0
 11
23.148784
 21
24.508394
 31
0.0
  0
LINE
  5
2DD7
100
AcDbEntity
  8
0
  6
CONTINUOUS
 62
     0
100
AcDbLine
 10
21.807973
 20
23.450425
 30
0.0
 11
22.865942
 21
24.508394
 31
0.0
  0
LINE
  5
2DD8
100
AcDbEntity
  8
0
  6
CONTINUOUS
 62
     0
100
AcDbLine
 10
21.807973
 20
23.733268
 30
0.0
 11
22.583099
 21
24.508394
 31
0.0
  0
LINE
  5
2DD9
100
AcDbEntity
  8
0
  6
CONTINUOUS
 62
     0
100
AcDbLine
 10
21.807973
 20
24.01611
 30
0.0
 11
22.300256
 21
24.508394
 31
0.0
  0
LINE
  5
2DDA
100
AcDbEntity
  8
0
  6
CONTINUOUS
 62
     0
100
AcDbLine
 10
21.807973
 20
24.298953
 30
0.0
 11
22.017414
 21
24.508394
 31
0.0
  0
ENDBLK
  5
2DDC
100
AcDbEntity
  8
0
100
AcDbBlockEnd
  0
BLOCK
  5
2DE8
100
AcDbEntity
  8
0
100
AcDbBlockBegin
  2
*X15
 70
     1
 10
0.0
 20
0.0
 30
0.0
  3
*X15
  1

  0
LINE
  5
2DDE
100
AcDbEntity
  8
0
  6
CONTINUOUS
 62
     0
100
AcDbLine
 10
23.583484
 20
24.943094
 30
0.0
 11
23.625973
 21
24.985582
 31
0.0
  0
LINE
  5
2DDF
100
AcDbEntity
  8
0
  6
CONTINUOUS
 62
     0
100
AcDbLine
 10
23.300642
 20
24.943094
 30
0.0
 11
23.625973
 21
25.268425
 31
0.0
  0
LINE
  5
2DE0
100
AcDbEntity
  8
0
  6
CONTINUOUS
 62
     0
100
AcDbLine
 10
23.017799
 20
24.943094
 30
0.0
 11
23.625973
 21
25.551268
 31
0.0
  0
LINE
  5
2DE1
100
AcDbEntity
  8
0
  6
CONTINUOUS
 62
     0
100
AcDbLine
 10
22.734956
 20
24.943094
 30
0.0
 11
23.625973
 21
25.83411
 31
0.0
  0
LINE
  5
2DE2
100
AcDbEntity
  8
0
  6
CONTINUOUS
 62
     0
100
AcDbLine
 10
22.452114
 20
24.943094
 30
0.0
 11
23.344014
 21
25.834994
 31
0.0
  0
LINE
  5
2DE3
100
AcDbEntity
  8
0
  6
CONTINUOUS
 62
     0
100
AcDbLine
 10
22.169271
 20
24.943094
 30
0.0
 11
23.061171
 21
25.834994
 31
0.0
  0
LINE
  5
2DE4
100
AcDbEntity
  8
0
  6
CONTINUOUS
 62
     0
100
AcDbLine
 10
21.886428
 20
24.943094
 30
0.0
 11
22.778328
 21
25.834994
 31
0.0
  0
LINE
  5
2DE5
100
AcDbEntity
  8
0
  6
CONTINUOUS
 62
     0
100
AcDbLine
 10
21.807973
 20
25.147481
 30
0.0
 11
22.495485
 21
25.834994
 31
0.0
  0
LINE
  5
2DE6
100
AcDbEntity
  8
0
  6
CONTINUOUS
 62
     0
100
AcDbLine
 10
21.807973
 20
25.430324
 30
0.0
 11
22.212643
 21
25.834994
 31
0.0
  0
LINE
  5
2DE7
100
AcDbEntity
  8
0
  6
CONTINUOUS
 62
     0
100
AcDbLine
 10
21.807973
 20
25.713167
 30
0.0
 11
21.9298
 21
25.834994
 31
0.0
  0
ENDBLK
  5
2DE9
100
AcDbEntity
  8
0
100
AcDbBlockEnd
  0
BLOCK
  5
2E79
100
AcDbEntity
  8
0
100
AcDbBlockBegin
  2
*X16
 70
     1
 10
0.0
 20
0.0
 30
0.0
  3
*X16
  1

  0
LINE
  5
2DEB
100
AcDbEntity
  8
0
  6
CONTINUOUS
 62
     0
100
AcDbLine
 10
14.989467
 20
20.308874
 30
0.0
 11
15.516193
 21
20.8356
 31
0.0
  0
LINE
  5
2DEC
100
AcDbEntity
  8
0
  6
CONTINUOUS
 62
     0
100
AcDbLine
 10
14.112517
 20
19.714767
 30
0.0
 11
16.1103
 21
21.71255
 31
0.0
  0
LINE
  5
2DED
100
AcDbEntity
  8
0
  6
CONTINUOUS
 62
     0
100
AcDbLine
 10
13.596595
 20
19.481687
 30
0.0
 11
16.34338
 21
22.228473
 31
0.0
  0
LINE
  5
2DEE
100
AcDbEntity
  8
0
  6
CONTINUOUS
 62
     0
100
AcDbLine
 10
13.174894
 20
19.342829
 30
0.0
 11
16.482238
 21
22.650174
 31
0.0
  0
LINE
  5
2DEF
100
AcDbEntity
  8
0
  6
CONTINUOUS
 62
     0
100
AcDbLine
 10
12.804844
 20
19.255622
 30
0.0
 11
16.569445
 21
23.020223
 31
0.0
  0
LINE
  5
2DF0
100
AcDbEntity
  8
0
  6
CONTINUOUS
 62
     0
100
AcDbLine
 10
14.795352
 20
21.528973
 30
0.0
 11
16.622133
 21
23.355754
 31
0.0
  0
LINE
  5
2DF1
100
AcDbEntity
  8
0
  6
CONTINUOUS
 62
     0
100
AcDbLine
 10
12.469313
 20
19.202934
 30
0.0
 11
14.296095
 21
21.029715
 31
0.0
  0
LINE
  5
2DF2
100
AcDbEntity
  8
0
  6
CONTINUOUS
 62
     0
100
AcDbLine
 10
15.293536
 20
22.309999
 30
0.0
 11
16.649275
 21
23.665738
 31
0.0
  0
LINE
  5
2DF3
100
AcDbEntity
  8
0
  6
CONTINUOUS
 62
     0
100
AcDbLine
 10
12.159329
 20
19.175793
 30
0.0
 11
13.515068
 21
20.531532
 31
0.0
  0
LINE
  5
2DF4
100
AcDbEntity
  8
0
  6
CONTINUOUS
 62
     0
100
AcDbLine
 10
15.479088
 20
22.778394
 30
0.0
 11
16.656273
 21
23.955579
 31
0.0
  0
LINE
  5
2DF5
100
AcDbEntity
  8
0
  6
CONTINUOUS
 62
     0
100
AcDbLine
 10
11.869488
 20
19.168795
 30
0.0
 11
13.046674
 21
20.34598
 31
0.0
  0
LINE
  5
2DF6
100
AcDbEntity
  8
0
  6
CONTINUOUS
 62
     0
100
AcDbLine
 10
15.580082
 20
23.162231
 30
0.0
 11
16.646682
 21
24.228831
 31
0.0
  0
LINE
  5
2DF7
100
AcDbEntity
  8
0
  6
CONTINUOUS
 62
     0
100
AcDbLine
 10
11.596236
 20
19.178385
 30
0.0
 11
12.662836
 21
20.244985
 31
0.0
  0
LINE
  5
2DF8
100
AcDbEntity
  8
0
  6
CONTINUOUS
 62
     0
100
AcDbLine
 10
12.654531
 20
20.519523
 30
0.0
 11
13.323223
 21
21.188215
 31
0.0
  0
LINE
  5
2DF9
100
AcDbEntity
  8
0
  6
CONTINUOUS
 62
     0
100
AcDbLine
 10
15.634125
 20
23.499117
 30
0.0
 11
16.622986
 21
24.487978
 31
0.0
  0
LINE
  5
2DFA
100
AcDbEntity
  8
0
  6
CONTINUOUS
 62
     0
100
AcDbLine
 10
11.33709
 20
19.202082
 30
0.0
 11
12.325951
 21
20.190943
 31
0.0
  0
LINE
  5
2DFB
100
AcDbEntity
  8
0
  6
CONTINUOUS
 62
     0
100
AcDbLine
 10
12.404347
 20
20.552181
 30
0.0
 11
13.323223
 21
21.471057
 31
0.0
  0
LINE
  5
2DFC
100
AcDbEntity
  8
0
  6
CONTINUOUS
 62
     0
100
AcDbLine
 10
15.656425
 20
23.804259
 30
0.0
 11
16.586997
 21
24.734832
 31
0.0
  0
LINE
  5
2DFD
100
AcDbEntity
  8
0
  6
CONTINUOUS
 62
     0
100
AcDbLine
 10
11.090236
 20
19.23807
 30
0.0
 11
12.020808
 21
20.168643
 31
0.0
  0
LINE
  5
2DFE
100
AcDbEntity
  8
0
  6
CONTINUOUS
 62
     0
100
AcDbLine
 10
12.212553
 20
20.64323
 30
0.0
 11
13.323223
 21
21.7539
 31
0.0
  0
LINE
  5
2DFF
100
AcDbEntity
  8
0
  6
CONTINUOUS
 62
     0
100
AcDbLine
 10
15.654961
 20
24.085639
 30
0.0
 11
16.540085
 21
24.970762
 31
0.0
  0
LINE
  5
2E00
100
AcDbEntity
  8
0
  6
CONTINUOUS
 62
     0
100
AcDbLine
 10
10.854306
 20
19.284983
 30
0.0
 11
11.739429
 21
20.170106
 31
0.0
  0
LINE
  5
2E01
100
AcDbEntity
  8
0
  6
CONTINUOUS
 62
     0
100
AcDbLine
 10
12.063213
 20
20.776733
 30
0.0
 11
13.323223
 21
22.036743
 31
0.0
  0
LINE
  5
2E02
100
AcDbEntity
  8
0
  6
CONTINUOUS
 62
     0
100
AcDbLine
 10
15.634541
 20
24.34806
 30
0.0
 11
16.483306
 21
25.196826
 31
0.0
  0
LINE
  5
2E03
100
AcDbEntity
  8
0
  6
CONTINUOUS
 62
     0
100
AcDbLine
 10
10.628242
 20
19.341761
 30
0.0
 11
11.477007
 21
20.190527
 31
0.0
  0
LINE
  5
2E04
100
AcDbEntity
  8
0
  6
CONTINUOUS
 62
     0
100
AcDbLine
 10
11.920447
 20
20.916809
 30
0.0
 11
13.323223
 21
22.319586
 31
0.0
  0
LINE
  5
2E05
100
AcDbEntity
  8
0
  6
CONTINUOUS
 62
     0
100
AcDbLine
 10
15.598315
 20
24.594678
 30
0.0
 11
16.417496
 21
25.413858
 31
0.0
  0
LINE
  5
2E06
100
AcDbEntity
  8
0
  6
CONTINUOUS
 62
     0
100
AcDbLine
 10
10.411209
 20
19.407572
 30
0.0
 11
11.23039
 21
20.226752
 31
0.0
  0
LINE
  5
2E07
100
AcDbEntity
  8
0
  6
CONTINUOUS
 62
     0
100
AcDbLine
 10
11.77768
 20
21.056886
 30
0.0
 11
13.323223
 21
22.602428
 31
0.0
  0
LINE
  5
2E08
100
AcDbEntity
  8
0
  6
CONTINUOUS
 62
     0
100
AcDbLine
 10
15.548478
 20
24.827684
 30
0.0
 11
16.343321
 21
25.622526
 31
0.0
  0
LINE
  5
2E09
100
AcDbEntity
  8
0
  6
CONTINUOUS
 62
     0
100
AcDbLine
 10
10.202541
 20
19.481747
 30
0.0
 11
10.997384
 21
20.276589
 31
0.0
  0
LINE
  5
2E0A
100
AcDbEntity
  8
0
  6
CONTINUOUS
 62
     0
100
AcDbLine
 10
12.362923
 20
21.924971
 30
0.0
 11
13.323223
 21
22.885271
 31
0.0
  0
LINE
  5
2E0B
100
AcDbEntity
  8
0
  6
CONTINUOUS
 62
     0
100
AcDbLine
 10
11.634914
 20
21.196962
 30
0.0
 11
12.307877
 21
21.869925
 31
0.0
  0
LINE
  5
2E0C
100
AcDbEntity
  8
0
  6
CONTINUOUS
 62
     0
100
AcDbLine
 10
15.486619
 20
25.048667
 30
0.0
 11
16.261321
 21
25.823369
 31
0.0
  0
LINE
  5
2E0D
100
AcDbEntity
  8
0
  6
CONTINUOUS
 62
     0
100
AcDbLine
 10
10.001699
 20
19.563747
 30
0.0
 11
10.776401
 21
20.338449
 31
0.0
  0
LINE
  5
2E0E
100
AcDbEntity
  8
0
  6
CONTINUOUS
 62
     0
100
AcDbLine
 10
12.362923
 20
22.207814
 30
0.0
 11
13.323223
 21
23.168114
 31
0.0
  0
LINE
  5
2E0F
100
AcDbEntity
  8
0
  6
CONTINUOUS
 62
     0
100
AcDbLine
 10
11.492148
 20
21.337039
 30
0.0
 11
12.172228
 21
22.017119
 31
0.0
  0
LINE
  5
2E10
100
AcDbEntity
  8
0
  6
CONTINUOUS
 62
     0
100
AcDbLine
 10
15.41392
 20
25.258811
 30
0.0
 11
16.171934
 21
26.016825
 31
0.0
  0
LINE
  5
2E11
100
AcDbEntity
  8
0
  6
CONTINUOUS
 62
     0
100
AcDbLine
 10
9.808243
 20
19.653134
 30
0.0
 11
10.566257
 21
20.411147
 31
0.0
  0
LINE
  5
2E12
100
AcDbEntity
  8
0
  6
CONTINUOUS
 62
     0
100
AcDbLine
 10
12.362923
 20
22.490656
 30
0.0
 11
13.323223
 21
23.450956
 31
0.0
  0
LINE
  5
2E13
100
AcDbEntity
  8
0
  6
CONTINUOUS
 62
     0
100
AcDbLine
 10
14.38066
 20
24.508394
 30
0.0
 11
14.903943
 21
25.031677
 31
0.0
  0
LINE
  5
2E14
100
AcDbEntity
  8
0
  6
CONTINUOUS
 62
     0
100
AcDbLine
 10
11.349382
 20
21.477115
 30
0.0
 11
12.03658
 21
22.164313
 31
0.0
  0
LINE
  5
2E15
100
AcDbEntity
  8
0
  6
CONTINUOUS
 62
     0
100
AcDbLine
 10
15.331283
 20
25.459017
 30
0.0
 11
16.075518
 21
26.203251
 31
0.0
  0
LINE
  5
2E16
100
AcDbEntity
  8
0
  6
CONTINUOUS
 62
     0
100
AcDbLine
 10
9.621817
 20
19.74955
 30
0.0
 11
10.366051
 21
20.493784
 31
0.0
  0
LINE
  5
2E17
100
AcDbEntity
  8
0
  6
CONTINUOUS
 62
     0
100
AcDbLine
 10
12.362923
 20
22.773499
 30
0.0
 11
13.323223
 21
23.733799
 31
0.0
  0
LINE
  5
2E18
100
AcDbEntity
  8
0
  6
CONTINUOUS
 62
     0
100
AcDbLine
 10
14.097817
 20
24.508394
 30
0.0
 11
14.840413
 21
25.25099
 31
0.0
  0
LINE
  5
2E19
100
AcDbEntity
  8
0
  6
CONTINUOUS
 62
     0
100
AcDbLine
 10
11.206616
 20
21.617192
 30
0.0
 11
11.900931
 21
22.311507
 31
0.0
  0
LINE
  5
2E1A
100
AcDbEntity
  8
0
  6
CONTINUOUS
 62
     0
100
AcDbLine
 10
15.2394
 20
25.649976
 30
0.0
 11
15.972362
 21
26.382939
 31
0.0
  0
LINE
  5
2E1B
100
AcDbEntity
  8
0
  6
CONTINUOUS
 62
     0
100
AcDbLine
 10
9.442129
 20
19.852705
 30
0.0
 11
10.175091
 21
20.585668
 31
0.0
  0
LINE
  5
2E1C
100
AcDbEntity
  8
0
  6
CONTINUOUS
 62
     0
100
AcDbLine
 10
12.362923
 20
23.056342
 30
0.0
 11
13.323223
 21
24.016642
 31
0.0
  0
LINE
  5
2E1D
100
AcDbEntity
  8
0
  6
CONTINUOUS
 62
     0
100
AcDbLine
 10
13.814975
 20
24.508394
 30
0.0
 11
14.709087
 21
25.402506
 31
0.0
  0
LINE
  5
2E1E
100
AcDbEntity
  8
0
  6
CONTINUOUS
 62
     0
100
AcDbLine
 10
11.063849
 20
21.757268
 30
0.0
 11
11.765282
 21
22.458701
 31
0.0
  0
LINE
  5
2E1F
100
AcDbEntity
  8
0
  6
CONTINUOUS
 62
     0
100
AcDbLine
 10
15.138805
 20
25.832223
 30
0.0
 11
15.862703
 21
26.556122
 31
0.0
  0
LINE
  5
2E20
100
AcDbEntity
  8
0
  6
CONTINUOUS
 62
     0
100
AcDbLine
 10
9.268945
 20
19.962364
 30
0.0
 11
9.992844
 21
20.686263
 31
0.0
  0
LINE
  5
2E21
100
AcDbEntity
  8
0
  6
CONTINUOUS
 62
     0
100
AcDbLine
 10
12.362923
 20
23.339185
 30
0.0
 11
13.323223
 21
24.299485
 31
0.0
  0
LINE
  5
2E22
100
AcDbEntity
  8
0
  6
CONTINUOUS
 62
     0
100
AcDbLine
 10
13.532132
 20
24.508394
 30
0.0
 11
14.516893
 21
25.493154
 31
0.0
  0
LINE
  5
2E23
100
AcDbEntity
  8
0
  6
CONTINUOUS
 62
     0
100
AcDbLine
 10
10.921083
 20
21.897345
 30
0.0
 11
11.629634
 21
22.605895
 31
0.0
  0
LINE
  5
2E24
100
AcDbEntity
  8
0
  6
CONTINUOUS
 62
     0
100
AcDbLine
 10
15.029907
 20
26.006168
 30
0.0
 11
15.746727
 21
26.722988
 31
0.0
  0
LINE
  5
2E25
100
AcDbEntity
  8
0
  6
CONTINUOUS
 62
     0
100
AcDbLine
 10
9.102079
 20
20.078341
 30
0.0
 11
9.818899
 21
20.795161
 31
0.0
  0
LINE
  5
2E26
100
AcDbEntity
  8
0
  6
CONTINUOUS
 62
     0
100
AcDbLine
 10
12.362923
 20
23.622027
 30
0.0
 11
14.244239
 21
25.503344
 31
0.0
  0
LINE
  5
2E27
100
AcDbEntity
  8
0
  6
CONTINUOUS
 62
     0
100
AcDbLine
 10
10.778317
 20
22.037421
 30
0.0
 11
11.493985
 21
22.753089
 31
0.0
  0
LINE
  5
2E28
100
AcDbEntity
  8
0
  6
CONTINUOUS
 62
     0
100
AcDbLine
 10
14.913014
 20
26.172119
 30
0.0
 11
15.624577
 21
26.883681
 31
0.0
  0
LINE
  5
2E29
100
AcDbEntity
  8
0
  6
CONTINUOUS
 62
     0
100
AcDbLine
 10
8.941386
 20
20.200491
 30
0.0
 11
9.652949
 21
20.912053
 31
0.0
  0
LINE
  5
2E2A
100
AcDbEntity
  8
0
  6
CONTINUOUS
 62
     0
100
AcDbLine
 10
12.362923
 20
23.90487
 30
0.0
 11
13.961397
 21
25.503344
 31
0.0
  0
LINE
  5
2E2B
100
AcDbEntity
  8
0
  6
CONTINUOUS
 62
     0
100
AcDbLine
 10
10.635551
 20
22.177498
 30
0.0
 11
11.358336
 21
22.900283
 31
0.0
  0
LINE
  5
2E2C
100
AcDbEntity
  8
0
  6
CONTINUOUS
 62
     0
100
AcDbLine
 10
14.78835
 20
26.330297
 30
0.0
 11
15.49636
 21
27.038307
 31
0.0
  0
LINE
  5
2E2D
100
AcDbEntity
  8
0
  6
CONTINUOUS
 62
     0
100
AcDbLine
 10
8.78676
 20
20.328707
 30
0.0
 11
9.494771
 21
21.036718
 31
0.0
  0
LINE
  5
2E2E
100
AcDbEntity
  8
0
  6
CONTINUOUS
 62
     0
100
AcDbLine
 10
12.362923
 20
24.187713
 30
0.0
 11
13.678554
 21
25.503344
 31
0.0
  0
LINE
  5
2E2F
100
AcDbEntity
  8
0
  6
CONTINUOUS
 62
     0
100
AcDbLine
 10
10.492785
 20
22.317574
 30
0.0
 11
11.222688
 21
23.047477
 31
0.0
  0
LINE
  5
2E30
100
AcDbEntity
  8
0
  6
CONTINUOUS
 62
     0
100
AcDbLine
 10
14.65606
 20
26.48085
 30
0.0
 11
15.362148
 21
27.186938
 31
0.0
  0
LINE
  5
2E31
100
AcDbEntity
  8
0
  6
CONTINUOUS
 62
     0
100
AcDbLine
 10
8.63813
 20
20.462919
 30
0.0
 11
9.344218
 21
21.169008
 31
0.0
  0
LINE
  5
2E32
100
AcDbEntity
  8
0
  6
CONTINUOUS
 62
     0
100
AcDbLine
 10
12.362923
 20
24.470555
 30
0.0
 11
13.395711
 21
25.503344
 31
0.0
  0
LINE
  5
2E33
100
AcDbEntity
  8
0
  6
CONTINUOUS
 62
     0
100
AcDbLine
 10
10.350018
 20
22.457651
 30
0.0
 11
11.087039
 21
23.194672
 31
0.0
  0
LINE
  5
2E34
100
AcDbEntity
  8
0
  6
CONTINUOUS
 62
     0
100
AcDbLine
 10
14.516224
 20
26.623856
 30
0.0
 11
15.221979
 21
27.329612
 31
0.0
  0
LINE
  5
2E35
100
AcDbEntity
  8
0
  6
CONTINUOUS
 62
     0
100
AcDbLine
 10
8.495456
 20
20.603088
 30
0.0
 11
9.201211
 21
21.308844
 31
0.0
  0
LINE
  5
2E36
100
AcDbEntity
  8
0
  6
CONTINUOUS
 62
     0
100
AcDbLine
 10
11.020368
 20
23.410844
 30
0.0
 11
11.413873
 21
23.804348
 31
0.0
  0
LINE
  5
2E37
100
AcDbEntity
  8
0
  6
CONTINUOUS
 62
     0
100
AcDbLine
 10
12.362923
 20
24.753398
 30
0.0
 11
13.323223
 21
25.713698
 31
0.0
  0
LINE
  5
2E38
100
AcDbEntity
  8
0
  6
CONTINUOUS
 62
     0
100
AcDbLine
 10
10.207252
 20
22.597727
 30
0.0
 11
10.951391
 21
23.341866
 31
0.0
  0
LINE
  5
2E39
100
AcDbEntity
  8
0
  6
CONTINUOUS
 62
     0
100
AcDbLine
 10
14.368854
 20
26.75933
 30
0.0
 11
15.07586
 21
27.466336
 31
0.0
  0
LINE
  5
2E3A
100
AcDbEntity
  8
0
  6
CONTINUOUS
 62
     0
100
AcDbLine
 10
8.358732
 20
20.749207
 30
0.0
 11
9.065738
 21
21.456213
 31
0.0
  0
LINE
  5
2E3B
100
AcDbEntity
  8
0
  6
CONTINUOUS
 62
     0
100
AcDbLine
 10
12.362923
 20
25.036241
 30
0.0
 11
13.323223
 21
25.996541
 31
0.0
  0
LINE
  5
2E3C
100
AcDbEntity
  8
0
  6
CONTINUOUS
 62
     0
100
AcDbLine
 10
10.064486
 20
22.737804
 30
0.0
 11
11.413873
 21
24.087191
 31
0.0
  0
LINE
  5
2E3D
100
AcDbEntity
  8
0
  6
CONTINUOUS
 62
     0
100
AcDbLine
 10
14.213901
 20
26.887219
 30
0.0
 11
14.923766
 21
27.597084
 31
0.0
  0
LINE
  5
2E3E
100
AcDbEntity
  8
0
  6
CONTINUOUS
 62
     0
100
AcDbLine
 10
8.227983
 20
20.901301
 30
0.0
 11
8.937848
 21
21.611166
 31
0.0
  0
LINE
  5
2E3F
100
AcDbEntity
  8
0
  6
CONTINUOUS
 62
     0
100
AcDbLine
 10
12.362923
 20
25.319084
 30
0.0
 11
13.323223
 21
26.279384
 31
0.0
  0
LINE
  5
2E40
100
AcDbEntity
  8
0
  6
CONTINUOUS
 62
     0
100
AcDbLine
 10
9.92172
 20
22.87788
 30
0.0
 11
11.413873
 21
24.370034
 31
0.0
  0
LINE
  5
2E41
100
AcDbEntity
  8
0
  6
CONTINUOUS
 62
     0
100
AcDbLine
 10
14.051246
 20
27.007407
 30
0.0
 11
14.76564
 21
27.7218
 31
0.0
  0
LINE
  5
2E42
100
AcDbEntity
  8
0
  6
CONTINUOUS
 62
     0
100
AcDbLine
 10
8.103267
 20
21.059428
 30
0.0
 11
8.81766
 21
21.773821
 31
0.0
  0
LINE
  5
2E43
100
AcDbEntity
  8
0
  6
CONTINUOUS
 62
     0
100
AcDbLine
 10
12.362923
 20
25.601926
 30
0.0
 11
13.323223
 21
26.562226
 31
0.0
  0
LINE
  5
2E44
100
AcDbEntity
  8
0
  6
CONTINUOUS
 62
     0
100
AcDbLine
 10
9.778954
 20
23.017957
 30
0.0
 11
11.413873
 21
24.652876
 31
0.0
  0
LINE
  5
2E45
100
AcDbEntity
  8
0
  6
CONTINUOUS
 62
     0
100
AcDbLine
 10
13.880701
 20
27.119704
 30
0.0
 11
14.601389
 21
27.840392
 31
0.0
  0
LINE
  5
2E46
100
AcDbEntity
  8
0
  6
CONTINUOUS
 62
     0
100
AcDbLine
 10
7.984675
 20
21.223678
 30
0.0
 11
8.705364
 21
21.944367
 31
0.0
  0
LINE
  5
2E47
100
AcDbEntity
  8
0
  6
CONTINUOUS
 62
     0
100
AcDbLine
 10
12.362923
 20
25.884769
 30
0.0
 11
13.323223
 21
26.845069
 31
0.0
  0
LINE
  5
2E48
100
AcDbEntity
  8
0
  6
CONTINUOUS
 62
     0
100
AcDbLine
 10
9.636187
 20
23.158033
 30
0.0
 11
11.413873
 21
24.935719
 31
0.0
  0
LINE
  5
2E49
100
AcDbEntity
  8
0
  6
CONTINUOUS
 62
     0
100
AcDbLine
 10
13.701993
 20
27.223839
 30
0.0
 11
14.430886
 21
27.952732
 31
0.0
  0
LINE
  5
2E4A
100
AcDbEntity
  8
0
  6
CONTINUOUS
 62
     0
100
AcDbLine
 10
7.872335
 20
21.394181
 30
0.0
 11
8.601228
 21
22.123074
 31
0.0
  0
LINE
  5
2E4B
100
AcDbEntity
  8
0
  6
CONTINUOUS
 62
     0
100
AcDbLine
 10
12.362923
 20
26.167612
 30
0.0
 11
13.323223
 21
27.127912
 31
0.0
  0
LINE
  5
2E4C
100
AcDbEntity
  8
0
  6
CONTINUOUS
 62
     0
100
AcDbLine
 10
9.493421
 20
23.29811
 30
0.0
 11
11.413873
 21
25.218562
 31
0.0
  0
LINE
  5
2E4D
100
AcDbEntity
  8
0
  6
CONTINUOUS
 62
     0
100
AcDbLine
 10
13.51476
 20
27.319448
 30
0.0
 11
14.253964
 21
28.058653
 31
0.0
  0
LINE
  5
2E4E
100
AcDbEntity
  8
0
  6
CONTINUOUS
 62
     0
100
AcDbLine
 10
7.766415
 20
21.571104
 30
0.0
 11
8.505619
 21
22.310308
 31
0.0
  0
LINE
  5
2E4F
100
AcDbEntity
  8
0
  6
CONTINUOUS
 62
     0
100
AcDbLine
 10
10.464823
 20
24.552354
 30
0.0
 11
11.413873
 21
25.501404
 31
0.0
  0
LINE
  5
2E50
100
AcDbEntity
  8
0
  6
CONTINUOUS
 62
     0
100
AcDbLine
 10
9.323312
 20
23.410844
 30
0.0
 11
10.341212
 21
24.428744
 31
0.0
  0
LINE
  5
2E51
100
AcDbEntity
  8
0
  6
CONTINUOUS
 62
     0
100
AcDbLine
 10
12.362923
 20
26.450454
 30
0.0
 11
14.070408
 21
28.157939
 31
0.0
  0
LINE
  5
2E52
100
AcDbEntity
  8
0
  6
CONTINUOUS
 62
     0
100
AcDbLine
 10
7.667128
 20
21.75466
 30
0.0
 11
8.419014
 21
22.506545
 31
0.0
  0
LINE
  5
2E53
100
AcDbEntity
  8
0
  6
CONTINUOUS
 62
     0
100
AcDbLine
 10
10.464823
 20
24.835197
 30
0.0
 11
11.413873
 21
25.784247
 31
0.0
  0
LINE
  5
2E54
100
AcDbEntity
  8
0
  6
CONTINUOUS
 62
     0
100
AcDbLine
 10
9.040469
 20
23.410844
 30
0.0
 11
10.058369
 21
24.428744
 31
0.0
  0
LINE
  5
2E55
100
AcDbEntity
  8
0
  6
CONTINUOUS
 62
     0
100
AcDbLine
 10
12.362923
 20
26.733297
 30
0.0
 11
13.879952
 21
28.250326
 31
0.0
  0
LINE
  5
2E56
100
AcDbEntity
  8
0
  6
CONTINUOUS
 62
     0
100
AcDbLine
 10
7.574741
 20
21.945116
 30
0.0
 11
8.342034
 21
22.712408
 31
0.0
  0
LINE
  5
2E57
100
AcDbEntity
  8
0
  6
CONTINUOUS
 62
     0
100
AcDbLine
 10
10.464823
 20
25.11804
 30
0.0
 11
11.413873
 21
26.06709
 31
0.0
  0
LINE
  5
2E58
100
AcDbEntity
  8
0
  6
CONTINUOUS
 62
     0
100
AcDbLine
 10
8.757627
 20
23.410844
 30
0.0
 11
9.775527
 21
24.428744
 31
0.0
  0
LINE
  5
2E59
100
AcDbEntity
  8
0
  6
CONTINUOUS
 62
     0
100
AcDbLine
 10
12.362923
 20
27.01614
 30
0.0
 11
13.682269
 21
28.335486
 31
0.0
  0
LINE
  5
2E5A
100
AcDbEntity
  8
0
  6
CONTINUOUS
 62
     0
100
AcDbLine
 10
7.489582
 20
22.142799
 30
0.0
 11
8.275484
 21
22.928701
 31
0.0
  0
LINE
  5
2E5B
100
AcDbEntity
  8
0
  6
CONTINUOUS
 62
     0
100
AcDbLine
 10
10.464823
 20
25.400883
 30
0.0
 11
11.413873
 21
26.349933
 31
0.0
  0
LINE
  5
2E5C
100
AcDbEntity
  8
0
  6
CONTINUOUS
 62
     0
100
AcDbLine
 10
8.474784
 20
23.410844
 30
0.0
 11
9.492684
 21
24.428744
 31
0.0
  0
LINE
  5
2E5D
100
AcDbEntity
  8
0
  6
CONTINUOUS
 62
     0
100
AcDbLine
 10
12.362923
 20
27.298983
 30
0.0
 11
13.476956
 21
28.413016
 31
0.0
  0
LINE
  5
2E5E
100
AcDbEntity
  8
0
  6
CONTINUOUS
 62
     0
100
AcDbLine
 10
7.412052
 20
22.348111
 30
0.0
 11
8.220417
 21
23.156477
 31
0.0
  0
LINE
  5
2E5F
100
AcDbEntity
  8
0
  6
CONTINUOUS
 62
     0
100
AcDbLine
 10
10.464823
 20
25.683725
 30
0.0
 11
11.413873
 21
26.632775
 31
0.0
  0
LINE
  5
2E60
100
AcDbEntity
  8
0
  6
CONTINUOUS
 62
     0
100
AcDbLine
 10
8.191941
 20
23.410844
 30
0.0
 11
9.209841
 21
24.428744
 31
0.0
  0
LINE
  5
2E61
100
AcDbEntity
  8
0
  6
CONTINUOUS
 62
     0
100
AcDbLine
 10
12.362923
 20
27.581825
 30
0.0
 11
13.26352
 21
28.482423
 31
0.0
  0
LINE
  5
2E62
100
AcDbEntity
  8
0
  6
CONTINUOUS
 62
     0
100
AcDbLine
 10
7.342645
 20
22.561547
 30
0.0
 11
8.178233
 21
23.397136
 31
0.0
  0
LINE
  5
2E63
100
AcDbEntity
  8
0
  6
CONTINUOUS
 62
     0
100
AcDbLine
 10
10.464823
 20
25.966568
 30
0.0
 11
11.413873
 21
26.915618
 31
0.0
  0
LINE
  5
2E64
100
AcDbEntity
  8
0
  6
CONTINUOUS
 62
     0
100
AcDbLine
 10
12.172484
 20
27.674229
 30
0.0
 11
13.041351
 21
28.543096
 31
0.0
  0
LINE
  5
2E65
100
AcDbEntity
  8
0
  6
CONTINUOUS
 62
     0
100
AcDbLine
 10
7.281971
 20
22.783716
 30
0.0
 11
8.926999
 21
24.428744
 31
0.0
  0
LINE
  5
2E66
100
AcDbEntity
  8
0
  6
CONTINUOUS
 62
     0
100
AcDbLine
 10
10.464823
 20
26.249411
 30
0.0
 11
11.413873
 21
27.198461
 31
0.0
  0
LINE
  5
2E67
100
AcDbEntity
  8
0
  6
CONTINUOUS
 62
     0
100
AcDbLine
 10
11.899556
 20
27.684144
 30
0.0
 11
12.809691
 21
28.594279
 31
0.0
  0
LINE
  5
2E68
100
AcDbEntity
  8
0
  6
CONTINUOUS
 62
     0
100
AcDbLine
 10
7.230788
 20
23.015376
 30
0.0
 11
8.644156
 21
24.428744
 31
0.0
  0
LINE
  5
2E69
100
AcDbEntity
  8
0
  6
CONTINUOUS
 62
     0
100
AcDbLine
 10
10.464823
 20
26.532253
 30
0.0
 11
11.413873
 21
27.481303
 31
0.0
  0
LINE
  5
2E6A
100
AcDbEntity
  8
0
  6
CONTINUOUS
 62
     0
100
AcDbLine
 10
11.605159
 20
27.672589
 30
0.0
 11
12.567584
 21
28.635015
 31
0.0
  0
LINE
  5
2E6B
100
AcDbEntity
  8
0
  6
CONTINUOUS
 62
     0
100
AcDbLine
 10
7.190052
 20
23.257483
 30
0.0
 11
8.361313
 21
24.428744
 31
0.0
  0
LINE
  5
2E6C
100
AcDbEntity
  8
0
  6
CONTINUOUS
 62
     0
100
AcDbLine
 10
10.464823
 20
26.815096
 30
0.0
 11
12.313807
 21
28.66408
 31
0.0
  0
LINE
  5
2E6D
100
AcDbEntity
  8
0
  6
CONTINUOUS
 62
     0
100
AcDbLine
 10
7.160988
 20
23.511261
 30
0.0
 11
8.191864
 21
24.542137
 31
0.0
  0
LINE
  5
2E6E
100
AcDbEntity
  8
0
  6
CONTINUOUS
 62
     0
100
AcDbLine
 10
10.464823
 20
27.097939
 30
0.0
 11
12.046753
 21
28.679869
 31
0.0
  0
LINE
  5
2E6F
100
AcDbEntity
  8
0
  6
CONTINUOUS
 62
     0
100
AcDbLine
 10
7.145198
 20
23.778314
 30
0.0
 11
8.270421
 21
24.903537
 31
0.0
  0
LINE
  5
2E70
100
AcDbEntity
  8
0
  6
CONTINUOUS
 62
     0
100
AcDbLine
 10
10.464823
 20
27.380782
 30
0.0
 11
11.764259
 21
28.680217
 31
0.0
  0
LINE
  5
2E71
100
AcDbEntity
  8
0
  6
CONTINUOUS
 62
     0
100
AcDbLine
 10
7.14485
 20
24.060809
 30
0.0
 11
8.412672
 21
25.328631
 31
0.0
  0
LINE
  5
2E72
100
AcDbEntity
  8
0
  6
CONTINUOUS
 62
     0
100
AcDbLine
 10
9.92464
 20
27.123441
 30
0.0
 11
11.463286
 21
28.662087
 31
0.0
  0
LINE
  5
2E73
100
AcDbEntity
  8
0
  6
CONTINUOUS
 62
     0
100
AcDbLine
 10
7.16298
 20
24.361781
 30
0.0
 11
8.701626
 21
25.900428
 31
0.0
  0
LINE
  5
2E74
100
AcDbEntity
  8
0
  6
CONTINUOUS
 62
     0
100
AcDbLine
 10
7.204078
 20
24.685722
 30
0.0
 11
11.139345
 21
28.620989
 31
0.0
  0
LINE
  5
2E75
100
AcDbEntity
  8
0
  6
CONTINUOUS
 62
     0
100
AcDbLine
 10
7.275296
 20
25.039783
 30
0.0
 11
10.785285
 21
28.549771
 31
0.0
  0
LINE
  5
2E76
100
AcDbEntity
  8
0
  6
CONTINUOUS
 62
     0
100
AcDbLine
 10
7.389393
 20
25.436722
 30
0.0
 11
10.388345
 21
28.435675
 31
0.0
  0
LINE
  5
2E77
100
AcDbEntity
  8
0
  6
CONTINUOUS
 62
     0
100
AcDbLine
 10
7.574054
 20
25.904226
 30
0.0
 11
9.920841
 21
28.251013
 31
0.0
  0
LINE
  5
2E78
100
AcDbEntity
  8
0
  6
CONTINUOUS
 62
     0
100
AcDbLine
 10
7.923915
 20
26.53693
 30
0.0
 11
9.288138
 21
27.901153
 31
0.0
  0
ENDBLK
  5
2E7A
100
AcDbEntity
  8
0
100
AcDbBlockEnd
  0
BLOCK
  5
2E99
100
AcDbEntity
  8
0
100
AcDbBlockBegin
  2
*X17
 70
     1
 10
0.0
 20
0.0
 30
0.0
  3
*X17
  1

  0
LINE
  5
2E7C
100
AcDbEntity
  8
0
  6
CONTINUOUS
 62
     0
100
AcDbLine
 10
20.403855
 20
20.632094
 30
0.0
 11
20.470123
 21
20.698361
 31
0.0
  0
LINE
  5
2E7D
100
AcDbEntity
  8
0
  6
CONTINUOUS
 62
     0
100
AcDbLine
 10
20.121013
 20
20.632094
 30
0.0
 11
20.470123
 21
20.981204
 31
0.0
  0
LINE
  5
2E7E
100
AcDbEntity
  8
0
  6
CONTINUOUS
 62
     0
100
AcDbLine
 10
19.83817
 20
20.632094
 30
0.0
 11
20.470123
 21
21.264047
 31
0.0
  0
LINE
  5
2E7F
100
AcDbEntity
  8
0
  6
CONTINUOUS
 62
     0
100
AcDbLine
 10
19.555327
 20
20.632094
 30
0.0
 11
20.470123
 21
21.546889
 31
0.0
  0
LINE
  5
2E80
100
AcDbEntity
  8
0
  6
CONTINUOUS
 62
     0
100
AcDbLine
 10
19.272484
 20
20.632094
 30
0.0
 11
20.470123
 21
21.829732
 31
0.0
  0
LINE
  5
2E81
100
AcDbEntity
  8
0
  6
CONTINUOUS
 62
     0
100
AcDbLine
 10
18.989642
 20
20.632094
 30
0.0
 11
20.470123
 21
22.112575
 31
0.0
  0
LINE
  5
2E82
100
AcDbEntity
  8
0
  6
CONTINUOUS
 62
     0
100
AcDbLine
 10
18.706799
 20
20.632094
 30
0.0
 11
20.470123
 21
22.395418
 31
0.0
  0
LINE
  5
2E83
100
AcDbEntity
  8
0
  6
CONTINUOUS
 62
     0
100
AcDbLine
 10
18.674623
 20
20.88276
 30
0.0
 11
20.470123
 21
22.67826
 31
0.0
  0
LINE
  5
2E84
100
AcDbEntity
  8
0
  6
CONTINUOUS
 62
     0
100
AcDbLine
 10
20.919864
 20
23.410844
 30
0.0
 11
21.087523
 21
23.578503
 31
0.0
  0
LINE
  5
2E85
100
AcDbEntity
  8
0
  6
CONTINUOUS
 62
     0
100
AcDbLine
 10
18.674623
 20
21.165603
 30
0.0
 11
20.470123
 21
22.961103
 31
0.0
  0
LINE
  5
2E86
100
AcDbEntity
  8
0
  6
CONTINUOUS
 62
     0
100
AcDbLine
 10
20.637021
 20
23.410844
 30
0.0
 11
21.087523
 21
23.861346
 31
0.0
  0
LINE
  5
2E87
100
AcDbEntity
  8
0
  6
CONTINUOUS
 62
     0
100
AcDbLine
 10
18.674623
 20
21.448446
 30
0.0
 11
20.470123
 21
23.243946
 31
0.0
  0
LINE
  5
2E88
100
AcDbEntity
  8
0
  6
CONTINUOUS
 62
     0
100
AcDbLine
 10
18.674623
 20
21.731288
 30
0.0
 11
21.087523
 21
24.144188
 31
0.0
  0
LINE
  5
2E89
100
AcDbEntity
  8
0
  6
CONTINUOUS
 62
     0
100
AcDbLine
 10
18.674623
 20
22.014131
 30
0.0
 11
21.087523
 21
24.427031
 31
0.0
  0
LINE
  5
2E8A
100
AcDbEntity
  8
0
  6
CONTINUOUS
 62
     0
100
AcDbLine
 10
18.674623
 20
22.296974
 30
0.0
 11
20.886043
 21
24.508394
 31
0.0
  0
LINE
  5
2E8B
100
AcDbEntity
  8
0
  6
CONTINUOUS
 62
     0
100
AcDbLine
 10
21.02665
 20
24.931844
 30
0.0
 11
21.087523
 21
24.992717
 31
0.0
  0
LINE
  5
2E8C
100
AcDbEntity
  8
0
  6
CONTINUOUS
 62
     0
100
AcDbLine
 10
18.674623
 20
22.579817
 30
0.0
 11
20.6032
 21
24.508394
 31
0.0
  0
LINE
  5
2E8D
100
AcDbEntity
  8
0
  6
CONTINUOUS
 62
     0
100
AcDbLine
 10
20.743807
 20
24.931844
 30
0.0
 11
21.087523
 21
25.275559
 31
0.0
  0
LINE
  5
2E8E
100
AcDbEntity
  8
0
  6
CONTINUOUS
 62
     0
100
AcDbLine
 10
18.674623
 20
22.862659
 30
0.0
 11
20.433977
 21
24.622013
 31
0.0
  0
LINE
  5
2E8F
100
AcDbEntity
  8
0
  6
CONTINUOUS
 62
     0
100
AcDbLine
 10
18.674623
 20
23.145502
 30
0.0
 11
21.087523
 21
25.558402
 31
0.0
  0
LINE
  5
2E90
100
AcDbEntity
  8
0
  6
CONTINUOUS
 62
     0
100
AcDbLine
 10
18.657122
 20
23.410844
 30
0.0
 11
21.081272
 21
25.834994
 31
0.0
  0
LINE
  5
2E91
100
AcDbEntity
  8
0
  6
CONTINUOUS
 62
     0
100
AcDbLine
 10
18.374279
 20
23.410844
 30
0.0
 11
20.798429
 21
25.834994
 31
0.0
  0
LINE
  5
2E92
100
AcDbEntity
  8
0
  6
CONTINUOUS
 62
     0
100
AcDbLine
 10
18.137323
 20
23.45673
 30
0.0
 11
20.515586
 21
25.834994
 31
0.0
  0
LINE
  5
2E93
100
AcDbEntity
  8
0
  6
CONTINUOUS
 62
     0
100
AcDbLine
 10
18.137323
 20
23.739573
 30
0.0
 11
20.232744
 21
25.834994
 31
0.0
  0
LINE
  5
2E94
100
AcDbEntity
  8
0
  6
CONTINUOUS
 62
     0
100
AcDbLine
 10
18.674623
 20
24.559716
 30
0.0
 11
19.949901
 21
25.834994
 31
0.0
  0
LINE
  5
2E95
100
AcDbEntity
  8
0
  6
CONTINUOUS
 62
     0
100
AcDbLine
 10
18.137323
 20
24.022416
 30
0.0
 11
18.623301
 21
24.508394
 31
0.0
  0
LINE
  5
2E96
100
AcDbEntity
  8
0
  6
CONTINUOUS
 62
     0
100
AcDbLine
 10
18.674623
 20
24.842558
 30
0.0
 11
19.667058
 21
25.834994
 31
0.0
  0
LINE
  5
2E97
100
AcDbEntity
  8
0
  6
CONTINUOUS
 62
     0
100
AcDbLine
 10
18.137323
 20
24.305258
 30
0.0
 11
18.340458
 21
24.508394
 31
0.0
  0
LINE
  5
2E98
100
AcDbEntity
  8
0
  6
CONTINUOUS
 62
     0
100
AcDbLine
 10
18.702805
 20
25.153583
 30
0.0
 11
19.356077
 21
25.806855
 31
0.0
  0
ENDBLK
  5
2E9A
100
AcDbEntity
  8
0
100
AcDbBlockEnd
  0
BLOCK
  5
2EC8
100
AcDbEntity
  8
0
100
AcDbBlockBegin
  2
*X18
 70
     1
 10
0.0
 20
0.0
 30
0.0
  3
*X18
  1

  0
LINE
  5
2E9C
100
AcDbEntity
  8
0
  6
CONTINUOUS
 62
     0
100
AcDbLine
 10
35.948955
 20
20.620844
 30
0.0
 11
35.986573
 21
20.658462
 31
0.0
  0
LINE
  5
2E9D
100
AcDbEntity
  8
0
  6
CONTINUOUS
 62
     0
100
AcDbLine
 10
35.666112
 20
20.620844
 30
0.0
 11
35.986573
 21
20.941305
 31
0.0
  0
LINE
  5
2E9E
100
AcDbEntity
  8
0
  6
CONTINUOUS
 62
     0
100
AcDbLine
 10
35.383269
 20
20.620844
 30
0.0
 11
35.986573
 21
21.224147
 31
0.0
  0
LINE
  5
2E9F
100
AcDbEntity
  8
0
  6
CONTINUOUS
 62
     0
100
AcDbLine
 10
35.100427
 20
20.620844
 30
0.0
 11
35.986573
 21
21.50699
 31
0.0
  0
LINE
  5
2EA0
100
AcDbEntity
  8
0
  6
CONTINUOUS
 62
     0
100
AcDbLine
 10
34.817584
 20
20.620844
 30
0.0
 11
35.986573
 21
21.789833
 31
0.0
  0
LINE
  5
2EA1
100
AcDbEntity
  8
0
  6
CONTINUOUS
 62
     0
100
AcDbLine
 10
34.534741
 20
20.620844
 30
0.0
 11
35.986573
 21
22.072675
 31
0.0
  0
LINE
  5
2EA2
100
AcDbEntity
  8
0
  6
CONTINUOUS
 62
     0
100
AcDbLine
 10
34.251898
 20
20.620844
 30
0.0
 11
35.986573
 21
22.355518
 31
0.0
  0
LINE
  5
2EA3
100
AcDbEntity
  8
0
  6
CONTINUOUS
 62
     0
100
AcDbLine
 10
34.191523
 20
20.843311
 30
0.0
 11
35.986573
 21
22.638361
 31
0.0
  0
LINE
  5
2EA4
100
AcDbEntity
  8
0
  6
CONTINUOUS
 62
     0
100
AcDbLine
 10
33.76931
 20
20.703941
 30
0.0
 11
35.986573
 21
22.921204
 31
0.0
  0
LINE
  5
2EA5
100
AcDbEntity
  8
0
  6
CONTINUOUS
 62
     0
100
AcDbLine
 10
33.392366
 20
20.60984
 30
0.0
 11
35.986573
 21
23.204046
 31
0.0
  0
LINE
  5
2EA6
100
AcDbEntity
  8
0
  6
CONTINUOUS
 62
     0
100
AcDbLine
 10
33.081013
 20
20.58133
 30
0.0
 11
35.986573
 21
23.486889
 31
0.0
  0
LINE
  5
2EA7
100
AcDbEntity
  8
0
  6
CONTINUOUS
 62
     0
100
AcDbLine
 10
32.788122
 20
20.571281
 30
0.0
 11
35.986573
 21
23.769732
 31
0.0
  0
LINE
  5
2EA8
100
AcDbEntity
  8
0
  6
CONTINUOUS
 62
     0
100
AcDbLine
 10
32.507524
 20
20.573525
 30
0.0
 11
35.986573
 21
24.052574
 31
0.0
  0
LINE
  5
2EA9
100
AcDbEntity
  8
0
  6
CONTINUOUS
 62
     0
100
AcDbLine
 10
34.178814
 20
22.527659
 30
0.0
 11
35.986573
 21
24.335417
 31
0.0
  0
LINE
  5
2EAA
100
AcDbEntity
  8
0
  6
CONTINUOUS
 62
     0
100
AcDbLine
 10
32.243083
 20
20.591928
 30
0.0
 11
33.594792
 21
21.943636
 31
0.0
  0
LINE
  5
2EAB
100
AcDbEntity
  8
0
  6
CONTINUOUS
 62
     0
100
AcDbLine
 10
34.181643
 20
22.81333
 30
0.0
 11
35.986573
 21
24.61826
 31
0.0
  0
LINE
  5
2EAC
100
AcDbEntity
  8
0
  6
CONTINUOUS
 62
     0
100
AcDbLine
 10
32.000516
 20
20.632203
 30
0.0
 11
33.247555
 21
21.879242
 31
0.0
  0
LINE
  5
2EAD
100
AcDbEntity
  8
0
  6
CONTINUOUS
 62
     0
100
AcDbLine
 10
34.100287
 20
23.014817
 30
0.0
 11
35.986573
 21
24.901103
 31
0.0
  0
LINE
  5
2EAE
100
AcDbEntity
  8
0
  6
CONTINUOUS
 62
     0
100
AcDbLine
 10
31.777522
 20
20.692051
 30
0.0
 11
32.988078
 21
21.902608
 31
0.0
  0
LINE
  5
2EAF
100
AcDbEntity
  8
0
  6
CONTINUOUS
 62
     0
100
AcDbLine
 10
33.969461
 20
23.166833
 30
0.0
 11
35.986573
 21
25.183945
 31
0.0
  0
LINE
  5
2EB0
100
AcDbEntity
  8
0
  6
CONTINUOUS
 62
     0
100
AcDbLine
 10
31.577357
 20
20.774729
 30
0.0
 11
32.769161
 21
21.966533
 31
0.0
  0
LINE
  5
2EB1
100
AcDbEntity
  8
0
  6
CONTINUOUS
 62
     0
100
AcDbLine
 10
33.798691
 20
23.278906
 30
0.0
 11
35.986573
 21
25.466788
 31
0.0
  0
LINE
  5
2EB2
100
AcDbEntity
  8
0
  6
CONTINUOUS
 62
     0
100
AcDbLine
 10
31.394628
 20
20.874843
 30
0.0
 11
32.578781
 21
22.058996
 31
0.0
  0
LINE
  5
2EB3
100
AcDbEntity
  8
0
  6
CONTINUOUS
 62
     0
100
AcDbLine
 10
33.595067
 20
23.358124
 30
0.0
 11
35.986573
 21
25.749631
 31
0.0
  0
LINE
  5
2EB4
100
AcDbEntity
  8
0
  6
CONTINUOUS
 62
     0
100
AcDbLine
 10
31.223131
 20
20.986189
 30
0.0
 11
32.424733
 21
22.187791
 31
0.0
  0
LINE
  5
2EB5
100
AcDbEntity
  8
0
  6
CONTINUOUS
 62
     0
100
AcDbLine
 10
33.373037
 20
23.418937
 30
0.0
 11
35.777843
 21
25.823744
 31
0.0
  0
LINE
  5
2EB6
100
AcDbEntity
  8
0
  6
CONTINUOUS
 62
     0
100
AcDbLine
 10
31.067037
 20
21.112937
 30
0.0
 11
32.307803
 21
22.353704
 31
0.0
  0
LINE
  5
2EB7
100
AcDbEntity
  8
0
  6
CONTINUOUS
 62
     0
100
AcDbLine
 10
33.115995
 20
23.444738
 30
0.0
 11
34.077945
 21
24.406688
 31
0.0
  0
LINE
  5
2EB8
100
AcDbEntity
  8
0
  6
CONTINUOUS
 62
     0
100
AcDbLine
 10
34.191523
 20
24.520266
 30
0.0
 11
35.495
 21
25.823744
 31
0.0
  0
LINE
  5
2EB9
100
AcDbEntity
  8
0
  6
CONTINUOUS
 62
     0
100
AcDbLine
 10
30.922891
 20
21.251634
 30
0.0
 11
32.233585
 21
22.562329
 31
0.0
  0
LINE
  5
2EBA
100
AcDbEntity
  8
0
  6
CONTINUOUS
 62
     0
100
AcDbLine
 10
32.748174
 20
23.35976
 30
0.0
 11
33.885911
 21
24.497497
 31
0.0
  0
LINE
  5
2EBB
100
AcDbEntity
  8
0
  6
CONTINUOUS
 62
     0
100
AcDbLine
 10
34.191523
 20
24.803109
 30
0.0
 11
35.212158
 21
25.823744
 31
0.0
  0
LINE
  5
2EBC
100
AcDbEntity
  8
0
  6
CONTINUOUS
 62
     0
100
AcDbLine
 10
30.795736
 20
21.407322
 30
0.0
 11
32.266041
 21
22.877627
 31
0.0
  0
LINE
  5
2EBD
100
AcDbEntity
  8
0
  6
CONTINUOUS
 62
     0
100
AcDbLine
 10
34.191523
 20
25.085952
 30
0.0
 11
34.929315
 21
25.823744
 31
0.0
  0
LINE
  5
2EBE
100
AcDbEntity
  8
0
  6
CONTINUOUS
 62
     0
100
AcDbLine
 10
30.684862
 20
21.579291
 30
0.0
 11
33.65908
 21
24.553509
 31
0.0
  0
LINE
  5
2EBF
100
AcDbEntity
  8
0
  6
CONTINUOUS
 62
     0
100
AcDbLine
 10
34.191523
 20
25.368794
 30
0.0
 11
34.646472
 21
25.823744
 31
0.0
  0
LINE
  5
2EC0
100
AcDbEntity
  8
0
  6
CONTINUOUS
 62
     0
100
AcDbLine
 10
30.591179
 20
21.76845
 30
0.0
 11
33.418127
 21
24.595399
 31
0.0
  0
LINE
  5
2EC1
100
AcDbEntity
  8
0
  6
CONTINUOUS
 62
     0
100
AcDbLine
 10
34.191523
 20
25.651637
 30
0.0
 11
34.363629
 21
25.823744
 31
0.0
  0
LINE
  5
2EC2
100
AcDbEntity
  8
0
  6
CONTINUOUS
 62
     0
100
AcDbLine
 10
30.51714
 20
21.977254
 30
0.0
 11
33.172249
 21
24.632364
 31
0.0
  0
LINE
  5
2EC3
100
AcDbEntity
  8
0
  6
CONTINUOUS
 62
     0
100
AcDbLine
 10
30.459126
 20
22.202083
 30
0.0
 11
32.905926
 21
24.648883
 31
0.0
  0
LINE
  5
2EC4
100
AcDbEntity
  8
0
  6
CONTINUOUS
 62
     0
100
AcDbLine
 10
30.423694
 20
22.449493
 30
0.0
 11
32.621475
 21
24.647275
 31
0.0
  0
LINE
  5
2EC5
100
AcDbEntity
  8
0
  6
CONTINUOUS
 62
     0
100
AcDbLine
 10
30.424318
 20
22.732961
 30
0.0
 11
32.321114
 21
24.629756
 31
0.0
  0
LINE
  5
2EC6
100
AcDbEntity
  8
0
  6
CONTINUOUS
 62
     0
100
AcDbLine
 10
30.48456
 20
23.076045
 30
0.0
 11
31.978931
 21
24.570416
 31
0.0
  0
LINE
  5
2EC7
100
AcDbEntity
  8
0
  6
CONTINUOUS
 62
     0
100
AcDbLine
 10
30.667096
 20
23.541423
 30
0.0
 11
31.516241
 21
24.390569
 31
0.0
  0
ENDBLK
  5
2EC9
100
AcDbEntity
  8
0
100
AcDbBlockEnd
  0
BLOCK
  5
2EF2
100
AcDbEntity
  8
0
100
AcDbBlockBegin
  2
*X19
 70
     1
 10
0.0
 20
0.0
 30
0.0
  3
*X19
  1

  0
LINE
  5
2ECB
100
AcDbEntity
  8
0
  6
CONTINUOUS
 62
     0
100
AcDbLine
 10
29.737665
 20
20.632094
 30
0.0
 11
29.892223
 21
20.786652
 31
0.0
  0
LINE
  5
2ECC
100
AcDbEntity
  8
0
  6
CONTINUOUS
 62
     0
100
AcDbLine
 10
29.454822
 20
20.632094
 30
0.0
 11
29.892223
 21
21.069494
 31
0.0
  0
LINE
  5
2ECD
100
AcDbEntity
  8
0
  6
CONTINUOUS
 62
     0
100
AcDbLine
 10
29.171979
 20
20.632094
 30
0.0
 11
29.892223
 21
21.352337
 31
0.0
  0
LINE
  5
2ECE
100
AcDbEntity
  8
0
  6
CONTINUOUS
 62
     0
100
AcDbLine
 10
28.889137
 20
20.632094
 30
0.0
 11
29.892223
 21
21.63518
 31
0.0
  0
LINE
  5
2ECF
100
AcDbEntity
  8
0
  6
CONTINUOUS
 62
     0
100
AcDbLine
 10
28.606294
 20
20.632094
 30
0.0
 11
29.892223
 21
21.918023
 31
0.0
  0
LINE
  5
2ED0
100
AcDbEntity
  8
0
  6
CONTINUOUS
 62
     0
100
AcDbLine
 10
28.323451
 20
20.632094
 30
0.0
 11
29.892223
 21
22.200865
 31
0.0
  0
LINE
  5
2ED1
100
AcDbEntity
  8
0
  6
CONTINUOUS
 62
     0
100
AcDbLine
 10
28.108423
 20
20.699908
 30
0.0
 11
29.892223
 21
22.483708
 31
0.0
  0
LINE
  5
2ED2
100
AcDbEntity
  8
0
  6
CONTINUOUS
 62
     0
100
AcDbLine
 10
28.108423
 20
20.982751
 30
0.0
 11
29.892223
 21
22.766551
 31
0.0
  0
LINE
  5
2ED3
100
AcDbEntity
  8
0
  6
CONTINUOUS
 62
     0
100
AcDbLine
 10
28.108423
 20
21.265593
 30
0.0
 11
29.892223
 21
23.049393
 31
0.0
  0
LINE
  5
2ED4
100
AcDbEntity
  8
0
  6
CONTINUOUS
 62
     0
100
AcDbLine
 10
28.108423
 20
21.548436
 30
0.0
 11
29.891843
 21
23.331856
 31
0.0
  0
LINE
  5
2ED5
100
AcDbEntity
  8
0
  6
CONTINUOUS
 62
     0
100
AcDbLine
 10
28.108423
 20
21.831279
 30
0.0
 11
29.853268
 21
23.576124
 31
0.0
  0
LINE
  5
2ED6
100
AcDbEntity
  8
0
  6
CONTINUOUS
 62
     0
100
AcDbLine
 10
28.108423
 20
22.114122
 30
0.0
 11
29.777815
 21
23.783513
 31
0.0
  0
LINE
  5
2ED7
100
AcDbEntity
  8
0
  6
CONTINUOUS
 62
     0
100
AcDbLine
 10
28.108423
 20
22.396964
 30
0.0
 11
29.67413
 21
23.962671
 31
0.0
  0
LINE
  5
2ED8
100
AcDbEntity
  8
0
  6
CONTINUOUS
 62
     0
100
AcDbLine
 10
28.084087
 20
22.655471
 30
0.0
 11
29.54593
 21
24.117314
 31
0.0
  0
LINE
  5
2ED9
100
AcDbEntity
  8
0
  6
CONTINUOUS
 62
     0
100
AcDbLine
 10
26.06071
 20
20.632094
 30
0.0
 11
26.289973
 21
20.861357
 31
0.0
  0
LINE
  5
2EDA
100
AcDbEntity
  8
0
  6
CONTINUOUS
 62
     0
100
AcDbLine
 10
27.9938
 20
22.848027
 30
0.0
 11
29.394359
 21
24.248585
 31
0.0
  0
LINE
  5
2EDB
100
AcDbEntity
  8
0
  6
CONTINUOUS
 62
     0
100
AcDbLine
 10
25.777867
 20
20.632094
 30
0.0
 11
26.289973
 21
21.1442
 31
0.0
  0
LINE
  5
2EDC
100
AcDbEntity
  8
0
  6
CONTINUOUS
 62
     0
100
AcDbLine
 10
27.856431
 20
22.993501
 30
0.0
 11
29.218545
 21
24.355614
 31
0.0
  0
LINE
  5
2EDD
100
AcDbEntity
  8
0
  6
CONTINUOUS
 62
     0
100
AcDbLine
 10
25.495024
 20
20.632094
 30
0.0
 11
26.289973
 21
21.427042
 31
0.0
  0
LINE
  5
2EDE
100
AcDbEntity
  8
0
  6
CONTINUOUS
 62
     0
100
AcDbLine
 10
27.673361
 20
23.093274
 30
0.0
 11
29.008732
 21
24.428645
 31
0.0
  0
LINE
  5
2EDF
100
AcDbEntity
  8
0
  6
CONTINUOUS
 62
     0
100
AcDbLine
 10
25.212181
 20
20.632094
 30
0.0
 11
26.289973
 21
21.709885
 31
0.0
  0
LINE
  5
2EE0
100
AcDbEntity
  8
0
  6
CONTINUOUS
 62
     0
100
AcDbLine
 10
27.426682
 20
23.129436
 30
0.0
 11
28.781111
 21
24.483866
 31
0.0
  0
LINE
  5
2EE1
100
AcDbEntity
  8
0
  6
CONTINUOUS
 62
     0
100
AcDbLine
 10
24.929339
 20
20.632094
 30
0.0
 11
26.289973
 21
21.992728
 31
0.0
  0
LINE
  5
2EE2
100
AcDbEntity
  8
0
  6
CONTINUOUS
 62
     0
100
AcDbLine
 10
27.093379
 20
23.078976
 30
0.0
 11
28.539658
 21
24.525255
 31
0.0
  0
LINE
  5
2EE3
100
AcDbEntity
  8
0
  6
CONTINUOUS
 62
     0
100
AcDbLine
 10
24.646496
 20
20.632094
 30
0.0
 11
26.289973
 21
22.275571
 31
0.0
  0
LINE
  5
2EE4
100
AcDbEntity
  8
0
  6
CONTINUOUS
 62
     0
100
AcDbLine
 10
24.494923
 20
20.763363
 30
0.0
 11
28.282141
 21
24.550582
 31
0.0
  0
LINE
  5
2EE5
100
AcDbEntity
  8
0
  6
CONTINUOUS
 62
     0
100
AcDbLine
 10
24.494923
 20
21.046206
 30
0.0
 11
28.005321
 21
24.556604
 31
0.0
  0
LINE
  5
2EE6
100
AcDbEntity
  8
0
  6
CONTINUOUS
 62
     0
100
AcDbLine
 10
24.494923
 20
21.329049
 30
0.0
 11
27.704195
 21
24.538321
 31
0.0
  0
LINE
  5
2EE7
100
AcDbEntity
  8
0
  6
CONTINUOUS
 62
     0
100
AcDbLine
 10
24.494923
 20
21.611891
 30
0.0
 11
27.370303
 21
24.487272
 31
0.0
  0
LINE
  5
2EE8
100
AcDbEntity
  8
0
  6
CONTINUOUS
 62
     0
100
AcDbLine
 10
24.494923
 20
21.894734
 30
0.0
 11
26.987035
 21
24.386846
 31
0.0
  0
LINE
  5
2EE9
100
AcDbEntity
  8
0
  6
CONTINUOUS
 62
     0
100
AcDbLine
 10
24.494923
 20
22.177577
 30
0.0
 11
26.510566
 21
24.19322
 31
0.0
  0
LINE
  5
2EEA
100
AcDbEntity
  8
0
  6
CONTINUOUS
 62
     0
100
AcDbLine
 10
24.494923
 20
22.46042
 30
0.0
 11
26.289973
 21
24.25547
 31
0.0
  0
LINE
  5
2EEB
100
AcDbEntity
  8
0
  6
CONTINUOUS
 62
     0
100
AcDbLine
 10
24.494923
 20
22.743262
 30
0.0
 11
26.260054
 21
24.508394
 31
0.0
  0
LINE
  5
2EEC
100
AcDbEntity
  8
0
  6
CONTINUOUS
 62
     0
100
AcDbLine
 10
24.494923
 20
23.026105
 30
0.0
 11
25.977212
 21
24.508394
 31
0.0
  0
LINE
  5
2EED
100
AcDbEntity
  8
0
  6
CONTINUOUS
 62
     0
100
AcDbLine
 10
24.494923
 20
23.308948
 30
0.0
 11
25.694369
 21
24.508394
 31
0.0
  0
LINE
  5
2EEE
100
AcDbEntity
  8
0
  6
CONTINUOUS
 62
     0
100
AcDbLine
 10
24.494923
 20
23.59179
 30
0.0
 11
25.411526
 21
24.508394
 31
0.0
  0
LINE
  5
2EEF
100
AcDbEntity
  8
0
  6
CONTINUOUS
 62
     0
100
AcDbLine
 10
24.494923
 20
23.874633
 30
0.0
 11
25.128683
 21
24.508394
 31
0.0
  0
LINE
  5
2EF0
100
AcDbEntity
  8
0
  6
CONTINUOUS
 62
     0
100
AcDbLine
 10
24.494923
 20
24.157476
 30
0.0
 11
24.845841
 21
24.508394
 31
0.0
  0
LINE
  5
2EF1
100
AcDbEntity
  8
0
  6
CONTINUOUS
 62
     0
100
AcDbLine
 10
24.494923
 20
24.440319
 30
0.0
 11
24.562998
 21
24.508394
 31
0.0
  0
ENDBLK
  5
2EF3
100
AcDbEntity
  8
0
100
AcDbBlockEnd
  0
BLOCK
  5
2F15
100
AcDbEntity
  8
0
100
AcDbBlockBegin
  2
*X20
 70
     1
 10
0.0
 20
0.0
 30
0.0
  3
*X20
  1

  0
LINE
  5
2EF5
100
AcDbEntity
  8
0
  6
CONTINUOUS
 62
     0
100
AcDbLine
 10
47.249714
 20
22.587794
 30
0.0
 11
47.287957
 21
22.626036
 31
0.0
  0
LINE
  5
2EF6
100
AcDbEntity
  8
0
  6
CONTINUOUS
 62
     0
100
AcDbLine
 10
46.966872
 20
22.587794
 30
0.0
 11
47.307662
 21
22.928584
 31
0.0
  0
LINE
  5
2EF7
100
AcDbEntity
  8
0
  6
CONTINUOUS
 62
     0
100
AcDbLine
 10
46.684029
 20
22.587794
 30
0.0
 11
47.296115
 21
23.19988
 31
0.0
  0
LINE
  5
2EF8
100
AcDbEntity
  8
0
  6
CONTINUOUS
 62
     0
100
AcDbLine
 10
46.401186
 20
22.587794
 30
0.0
 11
47.261533
 21
23.448141
 31
0.0
  0
LINE
  5
2EF9
100
AcDbEntity
  8
0
  6
CONTINUOUS
 62
     0
100
AcDbLine
 10
44.445486
 20
20.632094
 30
0.0
 11
44.459623
 21
20.64623
 31
0.0
  0
LINE
  5
2EFA
100
AcDbEntity
  8
0
  6
CONTINUOUS
 62
     0
100
AcDbLine
 10
46.118343
 20
22.587794
 30
0.0
 11
47.209214
 21
23.678665
 31
0.0
  0
LINE
  5
2EFB
100
AcDbEntity
  8
0
  6
CONTINUOUS
 62
     0
100
AcDbLine
 10
44.162643
 20
20.632094
 30
0.0
 11
44.459623
 21
20.929073
 31
0.0
  0
LINE
  5
2EFC
100
AcDbEntity
  8
0
  6
CONTINUOUS
 62
     0
100
AcDbLine
 10
45.835501
 20
22.587794
 30
0.0
 11
47.132011
 21
23.884304
 31
0.0
  0
LINE
  5
2EFD
100
AcDbEntity
  8
0
  6
CONTINUOUS
 62
     0
100
AcDbLine
 10
43.879801
 20
20.632094
 30
0.0
 11
44.459623
 21
21.211916
 31
0.0
  0
LINE
  5
2EFE
100
AcDbEntity
  8
0
  6
CONTINUOUS
 62
     0
100
AcDbLine
 10
45.552658
 20
22.587794
 30
0.0
 11
47.029303
 21
24.064438
 31
0.0
  0
LINE
  5
2EFF
100
AcDbEntity
  8
0
  6
CONTINUOUS
 62
     0
100
AcDbLine
 10
43.596958
 20
20.632094
 30
0.0
 11
44.459623
 21
21.494759
 31
0.0
  0
LINE
  5
2F00
100
AcDbEntity
  8
0
  6
CONTINUOUS
 62
     0
100
AcDbLine
 10
45.454573
 20
22.772551
 30
0.0
 11
46.900895
 21
24.218874
 31
0.0
  0
LINE
  5
2F01
100
AcDbEntity
  8
0
  6
CONTINUOUS
 62
     0
100
AcDbLine
 10
43.314115
 20
20.632094
 30
0.0
 11
44.459623
 21
21.777601
 31
0.0
  0
LINE
  5
2F02
100
AcDbEntity
  8
0
  6
CONTINUOUS
 62
     0
100
AcDbLine
 10
45.418199
 20
23.01902
 30
0.0
 11
46.74471
 21
24.345531
 31
0.0
  0
LINE
  5
2F03
100
AcDbEntity
  8
0
  6
CONTINUOUS
 62
     0
100
AcDbLine
 10
43.031273
 20
20.632094
 30
0.0
 11
44.459623
 21
22.060444
 31
0.0
  0
LINE
  5
2F04
100
AcDbEntity
  8
0
  6
CONTINUOUS
 62
     0
100
AcDbLine
 10
45.294614
 20
23.178278
 30
0.0
 11
46.558784
 21
24.442448
 31
0.0
  0
LINE
  5
2F05
100
AcDbEntity
  8
0
  6
CONTINUOUS
 62
     0
100
AcDbLine
 10
42.74843
 20
20.632094
 30
0.0
 11
44.459623
 21
22.343287
 31
0.0
  0
LINE
  5
2F06
100
AcDbEntity
  8
0
  6
CONTINUOUS
 62
     0
100
AcDbLine
 10
45.102547
 20
23.269053
 30
0.0
 11
46.346357
 21
24.512863
 31
0.0
  0
LINE
  5
2F07
100
AcDbEntity
  8
0
  6
CONTINUOUS
 62
     0
100
AcDbLine
 10
42.732973
 20
20.899479
 30
0.0
 11
44.459623
 21
22.626129
 31
0.0
  0
LINE
  5
2F08
100
AcDbEntity
  8
0
  6
CONTINUOUS
 62
     0
100
AcDbLine
 10
44.797622
 20
23.246971
 30
0.0
 11
46.115166
 21
24.564515
 31
0.0
  0
LINE
  5
2F09
100
AcDbEntity
  8
0
  6
CONTINUOUS
 62
     0
100
AcDbLine
 10
42.732973
 20
21.182322
 30
0.0
 11
44.492506
 21
22.941855
 31
0.0
  0
LINE
  5
2F0A
100
AcDbEntity
  8
0
  6
CONTINUOUS
 62
     0
100
AcDbLine
 10
42.732973
 20
21.465165
 30
0.0
 11
45.857715
 21
24.589906
 31
0.0
  0
LINE
  5
2F0B
100
AcDbEntity
  8
0
  6
CONTINUOUS
 62
     0
100
AcDbLine
 10
42.732973
 20
21.748008
 30
0.0
 11
45.563093
 21
24.578127
 31
0.0
  0
LINE
  5
2F0C
100
AcDbEntity
  8
0
  6
CONTINUOUS
 62
     0
100
AcDbLine
 10
42.732973
 20
22.03085
 30
0.0
 11
45.222277
 21
24.520155
 31
0.0
  0
LINE
  5
2F0D
100
AcDbEntity
  8
0
  6
CONTINUOUS
 62
     0
100
AcDbLine
 10
42.732973
 20
22.313693
 30
0.0
 11
44.777089
 21
24.357809
 31
0.0
  0
LINE
  5
2F0E
100
AcDbEntity
  8
0
  6
CONTINUOUS
 62
     0
100
AcDbLine
 10
42.732973
 20
22.596536
 30
0.0
 11
44.459623
 21
24.323186
 31
0.0
  0
LINE
  5
2F0F
100
AcDbEntity
  8
0
  6
CONTINUOUS
 62
     0
100
AcDbLine
 10
42.732973
 20
22.879378
 30
0.0
 11
44.361988
 21
24.508394
 31
0.0
  0
LINE
  5
2F10
100
AcDbEntity
  8
0
  6
CONTINUOUS
 62
     0
100
AcDbLine
 10
42.732973
 20
23.162221
 30
0.0
 11
44.079145
 21
24.508394
 31
0.0
  0
LINE
  5
2F11
100
AcDbEntity
  8
0
  6
CONTINUOUS
 62
     0
100
AcDbLine
 10
42.732973
 20
23.445064
 30
0.0
 11
43.796303
 21
24.508394
 31
0.0
  0
LINE
  5
2F12
100
AcDbEntity
  8
0
  6
CONTINUOUS
 62
     0
100
AcDbLine
 10
42.732973
 20
23.727907
 30
0.0
 11
43.51346
 21
24.508394
 31
0.0
  0
LINE
  5
2F13
100
AcDbEntity
  8
0
  6
CONTINUOUS
 62
     0
100
AcDbLine
 10
42.732973
 20
24.010749
 30
0.0
 11
43.230617
 21
24.508394
 31
0.0
  0
LINE
  5
2F14
100
AcDbEntity
  8
0
  6
CONTINUOUS
 62
     0
100
AcDbLine
 10
42.732973
 20
24.293592
 30
0.0
 11
42.947775
 21
24.508394
 31
0.0
  0
ENDBLK
  5
2F16
100
AcDbEntity
  8
0
100
AcDbBlockEnd
  0
ENDSEC
  0
SECTION
  2
ENTITIES
  0
POLYLINE
  5
1E
100
AcDbEntity
  8
CARTOUCHE
  6
CONTINUOUS
 62
     7
100
AcDb2dPolyline
 66
     1
 10
0.0
 20
0.0
 30
0.0
 70
   129
  0
VERTEX
  5
2D8D
100
AcDbEntity
  8
CARTOUCHE
  6
CONTINUOUS
 62
     7
100
AcDbVertex
100
AcDb2dVertex
 10
205.000037
 20
292.000183
 30
0.0
  0
VERTEX
  5
2D8E
100
AcDbEntity
  8
CARTOUCHE
  6
CONTINUOUS
 62
     7
100
AcDbVertex
100
AcDb2dVertex
 10
205.000037
 20
5.000183
 30
0.0
  0
VERTEX
  5
2D8F
100
AcDbEntity
  8
CARTOUCHE
  6
CONTINUOUS
 62
     7
100
AcDbVertex
100
AcDb2dVertex
 10
5.0
 20
5.0
 30
0.0
  0
VERTEX
  5
2D90
100
AcDbEntity
  8
CARTOUCHE
  6
CONTINUOUS
 62
     7
100
AcDbVertex
100
AcDb2dVertex
 10
5.0
 20
292.0
 30
0.0
  0
VERTEX
  5
2D91
100
AcDbEntity
  8
CARTOUCHE
  6
CONTINUOUS
 62
     7
100
AcDbVertex
100
AcDb2dVertex
 10
204.999774
 20
292.000183
 30
0.0
  0
SEQEND
  5
2D92
100
AcDbEntity
  8
CARTOUCHE
  6
CONTINUOUS
 62
     7
  0
LINE
  5
20
100
AcDbEntity
  8
CARTOUCHE
  6
CONTINUOUS
 62
     7
100
AcDbLine
 10
205.000037
 20
36.845156
 30
0.0
 11
5.0
 21
36.845462
 31
0.0
  0
LINE
  5
21
100
AcDbEntity
  8
CARTOUCHE
  6
CONTINUOUS
 62
     7
100
AcDbLine
 10
205.000008
 20
20.002808
 30
0.0
 11
49.999973
 21
20.003045
 31
0.0
  0
LINE
  5
22
100
AcDbEntity
  8
CARTOUCHE
  6
CONTINUOUS
 62
     7
100
AcDbLine
 10
205.000037
 20
10.000793
 30
0.0
 11
5.0
 21
10.001068
 31
0.0
  0
INSERT
  5
26
100
AcDbEntity
  8
CARTOUCHE
  6
CONTINUOUS
 62
     4
100
AcDbBlockReference
  2
*X13
 10
0.0
 20
0.0
 30
0.0
1001
ACAD
1000
HATCH
1002
{
1070
    19
1000
ANSI31
1040
0.062992
1040
0.0
1000
R14_HATCH_DATA
1000
26
1011
1.0
1021
0.0
1031
0.0
1011
0.0
1021
1.0
1031
0.0
1011
0.0
1021
0.0
1031
1.0
1040
0.0
1010
0.0
1020
0.0
1030
1.0
1000
ANSI31
1070
     0
1070
     0
1071
        1
1071
        1
1071
      165
1070
     1
1040
39.051073
1040
22.244444
1040
39.154123
1040
22.244444
1070
     1
1040
39.154123
1040
22.244444
1040
42.206923
1040
22.256144
1070
     1
1040
42.206923
1040
22.256144
1040
42.232378
1040
22.365847
1070
     1
1040
42.232378
1040
22.365847
1040
42.245048
1040
22.449462
1070
     1
1040
42.245048
1040
22.449462
1040
42.251874
1040
22.533703
1070
     1
1040
42.251874
1040
22.533703
1040
42.251735
1040
22.646969
1070
     1
1040
42.251735
1040
22.646969
1040
42.23471
1040
22.816096
1070
     1
1040
42.23471
1040
22.816096
1040
42.208465
1040
22.956213
1070
     1
1040
42.208465
1040
22.956213
1040
42.173579
1040
23.094368
1070
     1
1040
42.173579
1040
23.094368
1040
42.131795
1040
23.229146
1070
     1
1040
42.131795
1040
23.229146
1040
42.082342
1040
23.361421
1070
     1
1040
42.082342
1040
23.361421
1040
42.036862
1040
23.464716
1070
     1
1040
42.036862
1040
23.464716
1040
41.985861
1040
23.565535
1070
     1
1040
41.985861
1040
23.565535
1040
41.92928
1040
23.663323
1070
     1
1040
41.92928
1040
23.663323
1040
41.867061
1040
23.757527
1070
     1
1040
41.867061
1040
23.757527
1040
41.799145
1040
23.847595
1070
     1
1040
41.799145
1040
23.847595
1040
41.725524
1040
23.93313
1070
     1
1040
41.725524
1040
23.93313
1040
41.646719
1040
24.014004
1070
     1
1040
41.646719
1040
24.014004
1040
41.563309
1040
24.090255
1070
     1
1040
41.563309
1040
24.090255
1040
41.384996
1040
24.229026
1070
     1
1040
41.384996
1040
24.229026
1040
41.266986
1040
24.306605
1070
     1
1040
41.266986
1040
24.306605
1040
41.14445
1040
24.376442
1070
     1
1040
41.14445
1040
24.376442
1040
41.017719
1040
24.437986
1070
     1
1040
41.017719
1040
24.437986
1040
40.887396
1040
24.491649
1070
     1
1040
40.887396
1040
24.491649
1040
40.618872
1040
24.578734
1070
     1
1040
40.618872
1040
24.578734
1040
40.344652
1040
24.645649
1070
     1
1040
40.344652
1040
24.645649
1040
40.067005
1040
24.69363
1070
     1
1040
40.067005
1040
24.69363
1040
39.786778
1040
24.723515
1070
     1
1040
39.786778
1040
24.723515
1040
39.222855
1040
24.735874
1070
     1
1040
39.222855
1040
24.735874
1040
38.660586
1040
24.695795
1070
     1
1040
38.660586
1040
24.695795
1040
38.3823
1040
24.651139
1070
     1
1040
38.3823
1040
24.651139
1040
38.107283
1040
24.5883
1070
     1
1040
38.107283
1040
24.5883
1040
37.890593
1040
24.52408
1070
     1
1040
37.890593
1040
24.52408
1040
37.731586
1040
24.465697
1070
     1
1040
37.731586
1040
24.465697
1040
37.57691
1040
24.396625
1070
     1
1040
37.57691
1040
24.396625
1040
37.477006
1040
24.343979
1070
     1
1040
37.477006
1040
24.343979
1040
37.380067
1040
24.285863
1070
     1
1040
37.380067
1040
24.285863
1040
37.286613
1040
24.222306
1070
     1
1040
37.286613
1040
24.222306
1040
37.197165
1040
24.15334
1070
     1
1040
37.197165
1040
24.15334
1040
37.112243
1040
24.078995
1070
     1
1040
37.112243
1040
24.078995
1040
37.03232
1040
23.999414
1070
     1
1040
37.03232
1040
23.999414
1040
36.957469
1040
23.914974
1070
     1
1040
36.957469
1040
23.914974
1040
36.887723
1040
23.826164
1070
     1
1040
36.887723
1040
23.826164
1040
36.823113
1040
23.733469
1070
     1
1040
36.823113
1040
23.733469
1040
36.763669
1040
23.637375
1070
     1
1040
36.763669
1040
23.637375
1040
36.660491
1040
23.436489
1070
     1
1040
36.660491
1040
23.436489
1040
36.617061
1040
23.332299
1070
     1
1040
36.617061
1040
23.332299
1040
36.579257
1040
23.225943
1070
     1
1040
36.579257
1040
23.225943
1040
36.547222
1040
23.117674
1070
     1
1040
36.547222
1040
23.117674
1040
36.521104
1040
23.00779
1070
     1
1040
36.521104
1040
23.00779
1040
36.501051
1040
22.896613
1070
     1
1040
36.501051
1040
22.896613
1040
36.487223
1040
22.784512
1070
     1
1040
36.487223
1040
22.784512
1040
36.479778
1040
22.671856
1070
     1
1040
36.479778
1040
22.671856
1040
36.478876
1040
22.559014
1070
     1
1040
36.478876
1040
22.559014
1040
36.484758
1040
22.446072
1070
     1
1040
36.484758
1040
22.446072
1040
36.507303
1040
22.278243
1070
     1
1040
36.507303
1040
22.278243
1040
36.531842
1040
22.168363
1070
     1
1040
36.531842
1040
22.168363
1040
36.580661
1040
22.006354
1070
     1
1040
36.580661
1040
22.006354
1040
36.663176
1040
21.796051
1070
     1
1040
36.663176
1040
21.796051
1040
36.738102
1040
21.644243
1070
     1
1040
36.738102
1040
21.644243
1040
36.824876
1040
21.499285
1070
     1
1040
36.824876
1040
21.499285
1040
36.906565
1040
21.38422
1070
     1
1040
36.906565
1040
21.38422
1040
36.995075
1040
21.274114
1070
     1
1040
36.995075
1040
21.274114
1040
37.069976
1040
21.189232
1070
     1
1040
37.069976
1040
21.189232
1040
37.190906
1040
21.070408
1070
     1
1040
37.190906
1040
21.070408
1040
37.27814
1040
20.999373
1070
     1
1040
37.27814
1040
20.999373
1040
37.418207
1040
20.905115
1070
     1
1040
37.418207
1040
20.905115
1040
37.541992
1040
20.836757
1070
     1
1040
37.541992
1040
20.836757
1040
37.669631
1040
20.775673
1070
     1
1040
37.669631
1040
20.775673
1040
37.878008
1040
20.688457
1070
     1
1040
37.878008
1040
20.688457
1040
38.199606
1040
20.582881
1070
     1
1040
38.199606
1040
20.582881
1040
38.419015
1040
20.531338
1070
     1
1040
38.419015
1040
20.531338
1040
38.753153
1040
20.477838
1070
     1
1040
38.753153
1040
20.477838
1040
39.03388
1040
20.450243
1070
     1
1040
39.03388
1040
20.450243
1040
39.315482
1040
20.438162
1070
     1
1040
39.315482
1040
20.438162
1040
39.878324
1040
20.461635
1070
     1
1040
39.878324
1040
20.461635
1040
40.159192
1040
20.494468
1070
     1
1040
40.159192
1040
20.494468
1040
40.437804
1040
20.542235
1070
     1
1040
40.437804
1040
20.542235
1040
40.712118
1040
20.608344
1070
     1
1040
40.712118
1040
20.608344
1040
40.978222
1040
20.699934
1070
     1
1040
40.978222
1040
20.699934
1040
41.235564
1040
20.815324
1070
     1
1040
41.235564
1040
20.815324
1040
41.361299
1040
20.879186
1070
     1
1040
41.361299
1040
20.879186
1040
41.48298
1040
20.950245
1070
     1
1040
41.48298
1040
20.950245
1040
41.575618
1040
21.014782
1070
     1
1040
41.575618
1040
21.014782
1040
41.641621
1040
21.067895
1070
     1
1040
41.641621
1040
21.067895
1040
41.704176
1040
21.124947
1070
     1
1040
41.704176
1040
21.124947
1040
41.78171
1040
21.206815
1070
     1
1040
41.78171
1040
21.206815
1040
41.886125
1040
21.340089
1070
     1
1040
41.886125
1040
21.340089
1040
41.948068
1040
21.434593
1070
     1
1040
41.948068
1040
21.434593
1040
41.989546
1040
21.508386
1070
     1
1040
41.989546
1040
21.508386
1040
42.02581
1040
21.584828
1070
     1
1040
42.02581
1040
21.584828
1040
42.064953
1040
21.690806
1070
     1
1040
42.064953
1040
21.690806
1040
42.08735
1040
21.7726
1070
     1
1040
42.08735
1040
21.7726
1040
42.103873
1040
21.855644
1070
     1
1040
42.103873
1040
21.855644
1040
40.343023
1040
21.855644
1070
     1
1040
40.343023
1040
21.855644
1040
40.23476
1040
21.775139
1070
     1
1040
40.23476
1040
21.775139
1040
40.149342
1040
21.720655
1070
     1
1040
40.149342
1040
21.720655
1040
40.060776
1040
21.671433
1070
     1
1040
40.060776
1040
21.671433
1040
39.984758
1040
21.634773
1070
     1
1040
39.984758
1040
21.634773
1040
39.906576
1040
21.603307
1070
     1
1040
39.906576
1040
21.603307
1040
39.842277
1040
21.582635
1070
     1
1040
39.842277
1040
21.582635
1040
39.743651
1040
21.559088
1070
     1
1040
39.743651
1040
21.559088
1040
39.609337
1040
21.540536
1070
     1
1040
39.609337
1040
21.540536
1040
39.507639
1040
21.535656
1070
     1
1040
39.507639
1040
21.535656
1040
39.405809
1040
21.537981
1070
     1
1040
39.405809
1040
21.537981
1040
39.271392
1040
21.551496
1070
     1
1040
39.271392
1040
21.551496
1040
39.171681
1040
21.569188
1070
     1
1040
39.171681
1040
21.569188
1040
39.073329
1040
21.593186
1070
     1
1040
39.073329
1040
21.593186
1040
38.944884
1040
21.635037
1070
     1
1040
38.944884
1040
21.635037
1040
38.851395
1040
21.674301
1070
     1
1040
38.851395
1040
21.674301
1040
38.760981
1040
21.720846
1070
     1
1040
38.760981
1040
21.720846
1040
38.70284
1040
21.75614
1070
     1
1040
38.70284
1040
21.75614
1040
38.647077
1040
21.795104
1070
     1
1040
38.647077
1040
21.795104
1040
38.59445
1040
21.837967
1070
     1
1040
38.59445
1040
21.837967
1040
38.545719
1040
21.884956
1070
     1
1040
38.545719
1040
21.884956
1040
38.501642
1040
21.9363
1070
     1
1040
38.501642
1040
21.9363
1040
38.462877
1040
21.99205
1070
     1
1040
38.462877
1040
21.99205
1040
38.429669
1040
22.051562
1070
     1
1040
38.429669
1040
22.051562
1040
38.402161
1040
22.114013
1070
     1
1040
38.402161
1040
22.114013
1040
38.380498
1040
22.178581
1070
     1
1040
38.380498
1040
22.178581
1040
38.364823
1040
22.244444
1070
     1
1040
38.364823
1040
22.244444
1040
39.051073
1040
22.244444
1070
     1
1040
38.364823
1040
23.079194
1040
39.154123
1040
23.079194
1070
     1
1040
39.154123
1040
23.079194
1040
40.343023
1040
23.079194
1070
     1
1040
40.343023
1040
23.079194
1040
40.339099
1040
23.116416
1070
     1
1040
40.339099
1040
23.116416
1040
40.333002
1040
23.153431
1070
     1
1040
40.333002
1040
23.153431
1040
40.324692
1040
23.190049
1070
     1
1040
40.324692
1040
23.190049
1040
40.314132
1040
23.226078
1070
     1
1040
40.314132
1040
23.226078
1040
40.301285
1040
23.261329
1070
     1
1040
40.301285
1040
23.261329
1040
40.286156
1040
23.295606
1070
     1
1040
40.286156
1040
23.295606
1040
40.268864
1040
23.328846
1070
     1
1040
40.268864
1040
23.328846
1040
40.249567
1040
23.360982
1070
     1
1040
40.249567
1040
23.360982
1040
40.228425
1040
23.391944
1070
     1
1040
40.228425
1040
23.391944
1040
40.205595
1040
23.421664
1070
     1
1040
40.205595
1040
23.421664
1040
40.155158
1040
23.477534
1070
     1
1040
40.155158
1040
23.477534
1040
40.113888
1040
23.516059
1070
     1
1040
40.113888
1040
23.516059
1040
40.070149
1040
23.551768
1070
     1
1040
40.070149
1040
23.551768
1040
40.008897
1040
23.594936
1070
     1
1040
40.008897
1040
23.594936
1040
39.960894
1040
23.624144
1070
     1
1040
39.960894
1040
23.624144
1040
39.911351
1040
23.650643
1070
     1
1040
39.911351
1040
23.650643
1040
39.843213
1040
23.681802
1070
     1
1040
39.843213
1040
23.681802
1040
39.737463
1040
23.719811
1070
     1
1040
39.737463
1040
23.719811
1040
39.665034
1040
23.739546
1070
     1
1040
39.665034
1040
23.739546
1040
39.554475
1040
23.760807
1070
     1
1040
39.554475
1040
23.760807
1040
39.479582
1040
23.769534
1070
     1
1040
39.479582
1040
23.769534
1040
39.366678
1040
23.77477
1070
     1
1040
39.366678
1040
23.77477
1040
39.291229
1040
23.773226
1070
     1
1040
39.291229
1040
23.773226
1040
39.178244
1040
23.762802
1070
     1
1040
39.178244
1040
23.762802
1040
39.104388
1040
23.749824
1070
     1
1040
39.104388
1040
23.749824
1040
39.068085
1040
23.740847
1070
     1
1040
39.068085
1040
23.740847
1040
39.032514
1040
23.729811
1070
     1
1040
39.032514
1040
23.729811
1040
38.997912
1040
23.716418
1070
     1
1040
38.997912
1040
23.716418
1040
38.964344
1040
23.700508
1070
     1
1040
38.964344
1040
23.700508
1040
38.834843
1040
23.625681
1070
     1
1040
38.834843
1040
23.625681
1040
38.671594
1040
23.535581
1070
     1
1040
38.671594
1040
23.535581
1040
38.640976
1040
23.51416
1070
     1
1040
38.640976
1040
23.51416
1040
38.611625
1040
23.49088
1070
     1
1040
38.611625
1040
23.49088
1040
38.583591
1040
23.465911
1070
     1
1040
38.583591
1040
23.465911
1040
38.531681
1040
23.41159
1070
     1
1040
38.531681
1040
23.41159
1040
38.485341
1040
23.352025
1070
     1
1040
38.485341
1040
23.352025
1040
38.454621
1040
23.304551
1070
     1
1040
38.454621
1040
23.304551
1040
38.427457
1040
23.254932
1070
     1
1040
38.427457
1040
23.254932
1040
38.3972
1040
23.186473
1070
     1
1040
38.3972
1040
23.186473
1040
38.37898
1040
23.133395
1070
     1
1040
38.37898
1040
23.133395
1040
38.364823
1040
23.079194
1071
        0
1070
     0
1070
     1
1040
0.0
1040
0.062992
1070
     0
1070
     1
1040
0.785398
1040
-6.22517
1040
-28.624349
1040
-0.141421
1040
0.141421
1070
     0
1071
        1
1040
-6.22517
1040
-28.624349
1040
0.0
1002
}
  0
SPLINE
  5
27
100
AcDbEntity
  8
CARTOUCHE
  6
CONTINUOUS
 62
     4
100
AcDbSpline
210
0.0
220
0.0
230
-1.0
 70
     8
 71
     3
 72
    21
 73
    17
 74
    15
 42
0.0000001
 43
0.0000001
 44
0.000001
 12
-0.0762450288998757
 22
0.9970891111470715
 32
0.0
 13
-0.2154301143740796
 23
-0.9765192603429648
 33
0.0
 40
0.0
 40
0.0
 40
0.0
 40
0.0
 40
0.1868552544910631
 40
0.3735743379497275
 40
0.5613842505736386
 40
0.7484489883359557
 40
0.9355885045750216
 40
1.123112117669891
 40
1.311428171606846
 40
1.500241975701495
 40
1.68644341515699
 40
1.873056879838249
 40
2.059519584354549
 40
2.246467155624063
 40
2.434628048413954
 40
2.621193228285582
 40
2.621193228285582
 40
2.621193228285582
 40
2.621193228285582
 10
40.3430229762125
 20
23.07919360711669
 30
0.0
 10
40.33827404811957
 20
23.14129738698791
 30
0.0
 10
40.31098575637731
 20
23.26532095743951
 30
0.0
 10
40.21176942058871
 20
23.42743837256688
 30
0.0
 10
40.07410479994639
 20
23.55667608106139
 30
0.0
 10
39.9138008107931
 20
23.65566247942489
 30
0.0
 10
39.73873429209119
 20
23.72452107693797
 30
0.0
 10
39.55489941934138
 20
23.76544062640578
 30
0.0
 10
39.36639702832007
 20
23.77885734971313
 30
0.0
 10
39.17902204364417
 20
23.76782173584163
 30
0.0
 10
38.99274789300326
 20
23.72745922539276
 30
0.0
 10
38.83748771726681
 20
23.62068032967624
 30
0.0
 10
38.66640566438338
 20
23.54392781271009
 30
0.0
 10
38.52524856751328
 20
23.41621622896002
 30
0.0
 10
38.42100497412087
 20
23.25892330491868
 30
0.0
 10
38.37822022889183
 20
23.1399217709347
 30
0.0
 10
38.36482297621251
 20
23.0791936071167
 30
0.0
 11
40.3430229762125
 21
23.07919360711669
 31
0.0
 11
40.30128482007762
 21
23.26132867168497
 31
0.0
 11
40.20559522220136
 21
23.42166431604199
 31
0.0
 11
40.07014905358668
 21
23.55176773224803
 31
0.0
 11
39.91135088271828
 21
23.6506431736504
 31
0.0
 11
39.7374628559249
 21
23.71981068462436
 31
0.0
 11
39.55447534379333
 21
23.76080659501808
 31
0.0
 11
39.36667772831406
 21
23.77477007425147
 31
0.0
 11
39.17824365086322
 21
23.76280187157366
 31
0.0
 11
38.99791204207538
 21
23.71641788353441
 31
0.0
 11
38.83484335052719
 21
23.62568105970969
 31
0.0
 11
38.6715939776077
 21
23.53558123947115
 31
0.0
 11
38.53168126994678
 21
23.41159000587155
 31
0.0
 11
38.42745670868595
 21
23.25493190905037
 31
0.0
 11
38.36482297621251
 21
23.0791936071167
 31
0.0
  0
SPLINE
  5
28
100
AcDbEntity
  8
CARTOUCHE
  6
CONTINUOUS
 62
     4
100
AcDbSpline
210
0.0
220
0.0
230
1.0
 70
     8
 71
     3
 72
    15
 73
    11
 74
     9
 42
0.0000001
 43
0.0000001
 44
0.000001
 12
0.1873467659221653
 22
-0.9822938406090642
 32
0.0
 13
0.7770129286964091
 23
0.6294846373332945
 33
0.0
 40
0.0
 40
0.0
 40
0.0
 40
0.0
 40
0.3371521140362622
 40
0.6743125245575566
 40
1.011741450839519
 40
1.34877367337186
 40
1.687274841773488
 40
1.856093329057823
 40
2.024672152796235
 40
2.361712998590453
 40
2.361712998590453
 40
2.361712998590453
 40
2.361712998590453
 10
38.3648229762125
 20
22.24444360711669
 30
0.0
 10
38.38587776227534
 20
22.13404945879465
 30
0.0
 10
38.47908885254962
 20
21.91720273148486
 30
0.0
 10
38.75430937478617
 20
21.70645023854778
 30
0.0
 10
39.06998691557769
 20
21.58181099425638
 30
0.0
 10
39.40539548706931
 20
21.52556359245149
 30
0.0
 10
39.6894951413102
 20
21.54062625211872
 30
0.0
 10
39.90812750047185
 20
21.5988745675465
 30
0.0
 10
40.11328304540707
 20
21.69222607636082
 30
0.0
 10
40.25572794465221
 20
21.78492292892293
 30
0.0
 10
40.3430229762125
 20
21.85564360711669
 30
0.0
 11
38.3648229762125
 21
22.24444360711669
 31
0.0
 11
38.50164219830394
 21
21.93629966675314
 31
0.0
 11
38.76098099155704
 21
21.72084551731241
 31
0.0
 11
39.07332908880515
 21
21.59318639542836
 31
0.0
 11
39.40580907592665
 21
21.53798084006903
 31
0.0
 11
39.7436513990388
 21
21.55908759838489
 31
0.0
 11
39.90657573481705
 21
21.60330661466393
 31
0.0
 11
40.06077578326683
 21
21.67143258943228
 31
0.0
 11
40.3430229762125
 21
21.85564360711669
 31
0.0
  0
SPLINE
  5
29
100
AcDbEntity
  8
CARTOUCHE
  6
CONTINUOUS
 62
     4
100
AcDbSpline
210
0.0
220
0.0
230
1.0
 70
     8
 71
     3
 72
    46
 73
    42
 74
    40
 42
0.0000001
 43
0.0000001
 44
0.000001
 12
0.2679235453433934
 22
0.9634401765811029
 32
0.0
 13
0.1610223945668763
 23
0.9869507527977013
 33
0.0
 40
0.0
 40
0.0
 40
0.0
 40
0.0
 40
0.2811750796503045
 40
0.564088879055396
 40
0.848996137055497
 40
1.131203953305268
 40
1.693846441362772
 40
2.256881955637969
 40
2.539005752871453
 40
2.82069577771237
 40
3.10298742486103
 40
3.38525403659849
 40
3.948536069069792
 40
4.512593829792804
 40
5.076289826652828
 40
5.639937838168406
 40
6.2038840903654
 40
6.766736771207038
 40
7.329349297989459
 40
7.892321937217589
 40
8.455146667050026
 40
8.73735324357032
 40
9.018964818970465
 40
9.581779450805994
 40
9.864036877849454
 40
10.14660719714255
 40
10.42765468170207
 40
10.71044306512549
 40
11.27439538244285
 40
11.83782003463079
 40
12.40154780658862
 40
12.96487894167
 40
13.53013446902046
 40
13.81230156690056
 40
14.09372679950091
 40
14.37575459410578
 40
14.65756756838715
 40
14.93943336458308
 40
15.22119875341787
 40
15.50299432171135
 40
15.78483572811754
 40
15.78483572811754
 40
15.78483572811754
 40
15.78483572811754
 10
42.2069229762125
 20
22.2561436071167
 30
0.0
 10
42.2320341176132
 20
22.3464420632462
 30
0.0
 10
42.26336464147739
 20
22.53399287488758
 30
0.0
 10
42.24149608329661
 20
22.8180131107924
 30
0.0
 10
42.17836727502067
 20
23.09483389003594
 30
0.0
 10
42.05825120664016
 20
23.45212571811312
 30
0.0
 10
41.8230662027482
 20
23.86724960201155
 30
0.0
 10
41.46781625684352
 20
24.18453336175033
 30
0.0
 10
41.14761116479388
 20
24.3819623925892
 30
0.0
 10
40.88897513028328
 20
24.49665746156387
 30
0.0
 10
40.61969351239294
 20
24.58173320376633
 30
0.0
 10
40.25431466085239
 20
24.67112506006321
 30
0.0
 10
39.78717015303302
 20
24.73491686377472
 30
0.0
 10
39.22286191438472
 20
24.74314560896781
 30
0.0
 10
38.6591207586762
 20
24.70776700654681
 30
0.0
 10
38.10430963940351
 20
24.60055453197603
 30
0.0
 10
37.56703414053914
 20
24.41975287868164
 30
0.0
 10
37.09128408887103
 20
24.10132422112936
 30
0.0
 10
36.74193896822071
 20
23.64941350842831
 30
0.0
 10
36.52262166648302
 20
23.12465092345435
 30
0.0
 10
36.4628624049949
 20
22.65237441832042
 30
0.0
 10
36.49897198241179
 20
22.27677365581592
 30
0.0
 10
36.60138551467248
 20
21.91447858732574
 30
0.0
 10
36.76185476287774
 20
21.56953964406969
 30
0.0
 10
36.99184530900153
 20
21.27135464682456
 30
0.0
 10
37.18412182401923
 20
21.06372998507461
 30
0.0
 10
37.41499111831874
 20
20.89811018872763
 30
0.0
 10
37.75233271639089
 20
20.73108027472569
 30
0.0
 10
38.19505509243059
 20
20.56630128617908
 30
0.0
 10
38.75227464306411
 20
20.46845476892714
 30
0.0
 10
39.31516439613785
 20
20.42686299267516
 30
0.0
 10
39.87978550253785
 20
20.45310470204113
 30
0.0
 10
40.3463620097438
 20
20.51793315533649
 30
0.0
 10
40.71316996174686
 20
20.60361914488436
 30
0.0
 10
40.98020763016106
 20
20.69575720930983
 30
0.0
 10
41.23634075531815
 20
20.81337147401733
 30
0.0
 10
41.48756161568505
 20
20.94257950230669
 30
0.0
 10
41.71131144352496
 20
21.1177966629821
 30
0.0
 10
41.89210360145349
 20
21.33577522622756
 30
0.0
 10
42.03705337486477
 20
21.5796890671691
 30
0.0
 10
42.08874538349662
 20
21.76292241104264
 30
0.0
 10
42.10387297621249
 20
21.85564360711669
 30
0.0
 11
42.2069229762125
 21
22.2561436071167
 31
0.0
 11
42.25187369928078
 21
22.53370336692195
 31
0.0
 11
42.23470970538826
 21
22.81609604661632
 31
0.0
 11
42.1735788783549
 21
23.0943678180467
 31
0.0
 11
42.08234233059616
 21
23.36142053588839
 31
0.0
 11
41.79914459059214
 21
23.84759505388021
 31
0.0
 11
41.38499580886721
 21
24.22902637720731
 31
0.0
 11
41.1444496714726
 21
24.37644216492157
 31
0.0
 11
40.88739588735783
 21
24.49164913231013
 31
0.0
 11
40.61887239332167
 21
24.57873375105808
 31
0.0
 11
40.34465192624326
 21
24.64564860681681
 31
0.0
 11
39.78677780416955
 21
24.72351512572941
 31
0.0
 11
39.22285539283774
 21
24.73587418697074
 31
0.0
 11
38.66058598489463
 21
24.6957948090196
 31
0.0
 11
38.10728319880826
 21
24.58829981854138
 31
0.0
 11
37.57690963109762
 21
24.3966247732279
 31
0.0
 11
37.1122433036989
 21
24.07899538626728
 31
0.0
 11
36.76366857941348
 21
23.63737494458054
 31
0.0
 11
36.54722159336241
 21
23.11767406956402
 31
0.0
 11
36.47887604508949
 21
22.55901436160784
 31
0.0
 11
36.50730298839907
 21
22.27824312562695
 31
0.0
 11
36.58066141679664
 21
22.00635409419069
 31
0.0
 11
36.82487619371594
 21
21.49928452588675
 31
0.0
 11
36.99507455897878
 21
21.27411393911514
 31
0.0
 11
37.19090624714094
 21
21.07040837833609
 31
0.0
 11
37.41820717151092
 21
20.90511471530929
 31
0.0
 11
37.66963145788086
 21
20.77567317677089
 31
0.0
 11
38.1996064863776
 21
20.58288122875969
 31
0.0
 11
38.75315260795133
 21
20.4778380326807
 31
0.0
 11
39.3154824739789
 21
20.43816227630538
 31
0.0
 11
39.87832438970059
 21
20.46163547548925
 31
0.0
 11
40.43780417420945
 21
20.54223471097222
 31
0.0
 11
40.71211753370237
 21
20.60834422386486
 31
0.0
 11
40.97822189579761
 21
20.69993377525822
 31
0.0
 11
41.23556355576588
 21
20.81532426148599
 31
0.0
 11
41.48298030283661
 21
20.95024471011851
 31
0.0
 11
41.70417597333143
 21
21.12494680466518
 31
0.0
 11
41.88612496759311
 21
21.3400893433574
 31
0.0
 11
42.02581025553314
 21
21.58482751880403
 31
0.0
 11
42.10387297621249
 21
21.85564360711669
 31
0.0
  0
LINE
  5
2A
100
AcDbEntity
  8
CARTOUCHE
  6
CONTINUOUS
 62
     4
100
AcDbLine
 10
39.154123
 20
23.079194
 30
0.0
 11
40.343023
 21
23.079194
 31
0.0
  0
LINE
  5
2B
100
AcDbEntity
  8
CARTOUCHE
  6
CONTINUOUS
 62
     4
100
AcDbLine
 10
42.206923
 20
22.256144
 30
0.0
 11
39.154123
 21
22.244444
 31
0.0
  0
TEXT
  5
2C
100
AcDbEntity
  8
CARTOUCHE
  6
CONTINUOUS
 62
     2
100
AcDbText
 10
19.49393
 20
6.600975
 30
0.0
 40
1.8
  1
MOD. UT 902
 50
359.999908
 41
1.05
  7
FINDER
 72
     1
 11
27.500001
 21
6.600962
 31
0.0
100
AcDbText
  0
TEXT
  5
2D
100
AcDbEntity
  8
CARTOUCHE
  6
CONTINUOUS
 62
     2
100
AcDbText
 10
16.190942
 20
14.308782
 30
0.0
 40
1.8
  1
www.findernet.com
 50
359.999908
 41
1.05
  7
FINDER
 72
     1
 11
27.500001
 21
14.308764
 31
0.0
100
AcDbText
  0
INSERT
  5
2E
100
AcDbEntity
  8
CARTOUCHE
  6
CONTINUOUS
 62
     4
100
AcDbBlockReference
  2
*X14
 10
0.0
 20
0.0
 30
0.0
1001
ACAD
1000
HATCH
1002
{
1070
    19
1000
ANSI31
1040
0.062992
1040
0.0
1000
R14_HATCH_DATA
1000
2E
1011
1.0
1021
0.0
1031
0.0
1011
0.0
1021
1.0
1031
0.0
1011
0.0
1021
0.0
1031
1.0
1040
0.0
1010
0.0
1020
0.0
1030
1.0
1000
ANSI31
1070
     0
1070
     0
1071
        1
1071
        1
1071
        4
1070
     1
1040
21.807973
1040
24.508394
1040
21.807973
1040
20.632094
1070
     1
1040
21.807973
1040
20.632094
1040
23.625973
1040
20.632094
1070
     1
1040
23.625973
1040
20.632094
1040
23.625973
1040
24.508394
1070
     1
1040
23.625973
1040
24.508394
1040
21.807973
1040
24.508394
1071
        0
1070
     0
1070
     1
1040
0.0
1040
0.062992
1070
     0
1070
     1
1040
0.785398
1040
-6.22517
1040
-28.624349
1040
-0.141421
1040
0.141421
1070
     0
1071
        1
1040
-6.22517
1040
-28.624349
1040
0.0
1002
}
  0
INSERT
  5
2F
100
AcDbEntity
  8
CARTOUCHE
  6
CONTINUOUS
 62
     4
100
AcDbBlockReference
  2
*X15
 10
0.0
 20
0.0
 30
0.0
1001
ACAD
1000
HATCH
1002
{
1070
    19
1000
ANSI31
1040
0.062992
1040
0.0
1000
R14_HATCH_DATA
1000
2F
1011
1.0
1021
0.0
1031
0.0
1011
0.0
1021
1.0
1031
0.0
1011
0.0
1021
0.0
1031
1.0
1040
0.0
1010
0.0
1020
0.0
1030
1.0
1000
ANSI31
1070
     0
1070
     0
1071
        1
1071
        1
1071
        4
1070
     1
1040
21.807973
1040
25.834994
1040
21.807973
1040
24.943094
1070
     1
1040
21.807973
1040
24.943094
1040
23.625973
1040
24.943094
1070
     1
1040
23.625973
1040
24.943094
1040
23.625973
1040
25.834994
1070
     1
1040
23.625973
1040
25.834994
1040
21.807973
1040
25.834994
1071
        0
1070
     0
1070
     1
1040
0.0
1040
0.062992
1070
     0
1070
     1
1040
0.785398
1040
-6.22517
1040
-28.624349
1040
-0.141421
1040
0.141421
1070
     0
1071
        1
1040
-6.22517
1040
-28.624349
1040
0.0
1002
}
  0
LINE
  5
30
100
AcDbEntity
  8
CARTOUCHE
  6
CONTINUOUS
 62
     4
100
AcDbLine
 10
23.625973
 20
24.943094
 30
0.0
 11
21.807973
 21
24.943094
 31
0.0
  0
LINE
  5
31
100
AcDbEntity
  8
CARTOUCHE
  6
CONTINUOUS
 62
     4
100
AcDbLine
 10
21.807973
 20
25.834994
 30
0.0
 11
23.625973
 21
25.834994
 31
0.0
  0
LINE
  5
32
100
AcDbEntity
  8
CARTOUCHE
  6
CONTINUOUS
 62
     4
100
AcDbLine
 10
23.625973
 20
20.632094
 30
0.0
 11
21.807973
 21
20.632094
 31
0.0
  0
LINE
  5
33
100
AcDbEntity
  8
CARTOUCHE
  6
CONTINUOUS
 62
     4
100
AcDbLine
 10
21.807973
 20
24.508394
 30
0.0
 11
23.625973
 21
24.508394
 31
0.0
  0
INSERT
  5
34
100
AcDbEntity
  8
CARTOUCHE
  6
CONTINUOUS
 62
     4
100
AcDbBlockReference
  2
*X16
 10
0.0
 20
0.0
 30
0.0
1001
ACAD
1000
HATCH
1002
{
1070
    19
1000
ANSI31
1040
0.062992
1040
0.0
1000
R14_HATCH_DATA
1000
34
1011
1.0
1021
0.0
1031
0.0
1011
0.0
1021
1.0
1031
0.0
1011
0.0
1021
0.0
1031
1.0
1040
0.0
1010
0.0
1020
0.0
1030
1.0
1000
ANSI31
1070
     0
1070
     0
1071
        1
1071
        1
1071
       50
1070
     1
1040
10.464823
1040
24.428744
1040
10.464823
1040
27.399506
1070
     1
1040
8.174776
1040
24.428744
1040
10.464823
1040
24.428744
1070
     1
1040
11.413873
1040
27.652621
1040
11.413873
1040
23.766514
1070
     1
1040
11.116423
1040
23.410844
1040
10.887823
1040
23.410844
1070
     1
1040
10.887823
1040
23.410844
1040
12.362923
1040
21.810194
1070
     1
1040
12.362923
1040
21.810194
1040
12.362923
1040
27.655485
1070
     1
1040
9.378523
1040
23.410844
1040
8.176313
1040
23.410844
1070
     1
1040
13.323223
1040
27.404134
1040
13.323223
1040
25.503344
1070
     1
1040
13.323223
1040
25.503344
1040
14.353656
1040
25.503344
1070
     1
1040
14.455423
1040
24.508394
1040
13.323223
1040
24.508394
1070
     1
1040
13.323223
1040
24.508394
1040
13.323223
1040
21.169844
1070
     1
1040
13.323223
1040
21.169844
1040
13.318835
1040
21.126412
1070
     1
1040
13.318835
1040
21.126412
1040
13.311632
1040
21.083268
1070
     1
1040
13.311632
1040
21.083268
1040
13.301677
1040
21.040602
1070
     1
1040
13.301677
1040
21.040602
1040
13.289029
1040
20.998605
1070
     1
1040
13.289029
1040
20.998605
1040
13.27375
1040
20.957468
1070
     1
1040
13.27375
1040
20.957468
1040
13.255877
1040
20.91734
1070
     1
1040
13.255877
1040
20.91734
1040
13.23548
1040
20.878466
1070
     1
1040
13.23548
1040
20.878466
1040
13.212608
1040
20.841045
1070
     1
1040
13.212608
1040
20.841045
1040
13.187312
1040
20.805278
1070
     1
1040
13.187312
1040
20.805278
1040
13.159643
1040
20.771365
1070
     1
1040
13.159643
1040
20.771365
1040
13.129815
1040
20.739605
1070
     1
1040
13.129815
1040
20.739605
1040
13.09792
1040
20.709874
1070
     1
1040
13.09792
1040
20.709874
1040
13.064194
1040
20.682164
1070
     1
1040
13.064194
1040
20.682164
1040
13.028871
1040
20.656467
1070
     1
1040
13.028871
1040
20.656467
1040
12.992187
1040
20.632775
1070
     1
1040
12.992187
1040
20.632775
1040
12.914787
1040
20.591129
1070
     1
1040
12.914787
1040
20.591129
1040
12.874555
1040
20.573479
1070
     1
1040
12.874555
1040
20.573479
1040
12.8334
1040
20.55801
1070
     1
1040
12.8334
1040
20.55801
1040
12.791398
1040
20.544775
1070
     1
1040
12.791398
1040
20.544775
1040
12.749249
1040
20.533994
1070
     1
1040
12.749249
1040
20.533994
1040
12.706539
1040
20.525678
1070
     1
1040
12.706539
1040
20.525678
1040
12.663456
1040
20.52007
1070
     1
1040
12.663456
1040
20.52007
1040
12.620191
1040
20.517416
1070
     1
1040
12.620191
1040
20.517416
1040
12.576934
1040
20.51796
1070
     1
1040
12.576934
1040
20.51796
1040
12.533829
1040
20.52186
1070
     1
1040
12.533829
1040
20.52186
1040
12.491053
1040
20.528907
1070
     1
1040
12.491053
1040
20.528907
1040
12.448736
1040
20.538797
1070
     1
1040
12.448736
1040
20.538797
1040
12.407007
1040
20.551229
1070
     1
1040
12.407007
1040
20.551229
1040
12.365998
1040
20.565901
1070
     1
1040
12.365998
1040
20.565901
1040
12.286013
1040
20.601363
1070
     1
1040
12.286013
1040
20.601363
1040
12.228617
1040
20.632853
1070
     1
1040
12.228617
1040
20.632853
1040
12.173699
1040
20.668328
1070
     1
1040
12.173699
1040
20.668328
1040
9.378523
1040
23.410844
1070
     2
1040
11.899646
1040
23.925422
1040
4.756723
1040
0.0
1040
6.283185
1070
     1
1070
     2
1040
11.899651
1040
23.925417
1040
3.758727
1040
1.962466
1040
3.00728
1070
     1
1070
     2
1040
10.950954
1040
23.851493
1040
0.470607
1040
5.071609
1040
6.101635
1070
     1
1070
     2
1040
11.899651
1040
23.925417
1040
3.758727
1040
1.44723
1040
1.700399
1070
     1
1070
     2
1040
11.899651
1040
23.925417
1040
3.758727
1040
3.278925
1040
7.465549
1070
     1
1070
     2
1040
14.404539
1040
25.005869
1040
0.500071
1040
4.814318
1040
7.955911
1070
     1
1071
        0
1070
     0
1070
     1
1040
0.0
1040
0.062992
1070
     0
1070
     1
1040
0.785398
1040
-6.22517
1040
-28.624349
1040
-0.141421
1040
0.141421
1070
     0
1071
        1
1040
-6.22517
1040
-28.624349
1040
0.0
1002
}
  0
ARC
  5
35
100
AcDbEntity
  8
CARTOUCHE
  6
CONTINUOUS
 62
     4
100
AcDbCircle
 10
14.404539
 20
25.005869
 30
0.0
 40
0.500071
100
AcDbArc
 50
275.840125
 51
95.840125
  0
ARC
  5
36
100
AcDbEntity
  8
CARTOUCHE
  6
CONTINUOUS
 62
     4
100
AcDbCircle
 10
11.899651
 20
23.925417
 30
0.0
 40
3.758727
100
AcDbArc
 50
187.868554
 51
67.744476
  0
CIRCLE
  5
37
100
AcDbEntity
  8
CARTOUCHE
  6
CONTINUOUS
 62
     4
100
AcDbCircle
 10
11.899646
 20
23.925422
 30
0.0
 40
4.756723
  0
SPLINE
  5
38
100
AcDbEntity
  8
CARTOUCHE
  6
CONTINUOUS
 62
     4
100
AcDbSpline
210
0.0
220
0.0
230
1.0
 70
     8
 71
     3
 72
    14
 73
    10
 74
     8
 42
0.0000001
 43
0.0000001
 44
0.000001
 12
-0.0678904074543379
 22
-0.9976927846665446
 32
0.0
 13
-0.8200536786282524
 23
0.5722866101598663
 33
0.0
 40
0.0
 40
0.0
 40
0.0
 40
0.0
 40
0.2180605659125796
 40
0.4363602901220761
 40
0.6537282770324749
 40
0.8729550900782449
 40
1.089088660433416
 40
1.305404211068232
 40
1.523279999837271
 40
1.523279999837271
 40
1.523279999837271
 40
1.523279999837271
 10
13.32322297621251
 20
21.16984360711669
 30
0.0
 10
13.31828823598933
 20
21.0973244560396
 30
0.0
 10
13.2844408636731
 20
20.95301310268235
 30
0.0
 10
13.16948287756626
 20
20.76307428111757
 30
0.0
 10
12.99638504773296
 20
20.62406330263204
 30
0.0
 10
12.79557417189416
 20
20.53568034010336
 30
0.0
 10
12.57604637235984
 20
20.50360648332739
 30
0.0
 10
12.3619451595874
 20
20.55796150196734
 30
0.0
 10
12.23325559313034
 20
20.62676560806014
 30
0.0
 10
12.17369897910899
 20
20.66832807359032
 30
0.0
 11
13.32322297621251
 21
21.16984360711669
 31
0.0
 11
13.27374961772985
 21
20.95746843688553
 31
0.0
 11
13.15964273339541
 21
20.77136537381492
 31
0.0
 11
12.99218699760145
 21
20.63277473124213
 31
0.0
 11
12.79139755994316
 21
20.54477508934442
 31
0.0
 11
12.57693403206401
 21
20.51795972590457
 31
0.0
 11
12.36599789339048
 21
20.56590052451097
 31
0.0
 11
12.17369897910899
 21
20.66832807359032
 31
0.0
  0
LINE
  5
39
100
AcDbEntity
  8
CARTOUCHE
  6
CONTINUOUS
 62
     4
100
AcDbLine
 10
9.378523
 20
23.410844
 30
0.0
 11
12.173699
 21
20.668328
 31
0.0
  0
ARC
  5
3A
100
AcDbEntity
  8
CARTOUCHE
  6
CONTINUOUS
 62
     4
100
AcDbCircle
 10
11.899651
 20
23.925417
 30
0.0
 40
3.758727
100
AcDbArc
 50
112.441032
 51
172.30447
  0
LINE
  5
3B
100
AcDbEntity
  8
CARTOUCHE
  6
CONTINUOUS
 62
     4
100
AcDbLine
 10
10.464823
 20
27.399506
 30
0.0
 11
10.464823
 21
24.428744
 31
0.0
  0
LINE
  5
3C
100
AcDbEntity
  8
CARTOUCHE
  6
CONTINUOUS
 62
     4
100
AcDbLine
 10
8.176313
 20
23.410844
 30
0.0
 11
9.378523
 21
23.410844
 31
0.0
  0
LINE
  5
3D
100
AcDbEntity
  8
CARTOUCHE
  6
CONTINUOUS
 62
     4
100
AcDbLine
 10
10.464823
 20
24.428744
 30
0.0
 11
8.174776
 21
24.428744
 31
0.0
  0
LINE
  5
3E
100
AcDbEntity
  8
CARTOUCHE
  6
CONTINUOUS
 62
     4
100
AcDbLine
 10
13.323223
 20
25.503344
 30
0.0
 11
13.323223
 21
27.404134
 31
0.0
  0
LINE
  5
3F
100
AcDbEntity
  8
CARTOUCHE
  6
CONTINUOUS
 62
     4
100
AcDbLine
 10
11.413873
 20
23.766514
 30
0.0
 11
11.413873
 21
27.652621
 31
0.0
  0
LINE
  5
40
100
AcDbEntity
  8
CARTOUCHE
  6
CONTINUOUS
 62
     4
100
AcDbLine
 10
12.362923
 20
27.655485
 30
0.0
 11
12.362923
 21
21.810194
 31
0.0
  0
ARC
  5
41
100
AcDbEntity
  8
CARTOUCHE
  6
CONTINUOUS
 62
     4
100
AcDbCircle
 10
10.950954
 20
23.851493
 30
0.0
 40
0.470607
100
AcDbArc
 50
290.581791
 51
349.597912
  0
LINE
  5
42
100
AcDbEntity
  8
CARTOUCHE
  6
CONTINUOUS
 62
     4
100
AcDbLine
 10
10.887823
 20
23.410844
 30
0.0
 11
11.116423
 21
23.410844
 31
0.0
  0
LINE
  5
43
100
AcDbEntity
  8
CARTOUCHE
  6
CONTINUOUS
 62
     4
100
AcDbLine
 10
12.362923
 20
21.810194
 30
0.0
 11
10.887823
 21
23.410844
 31
0.0
  0
LINE
  5
44
100
AcDbEntity
  8
CARTOUCHE
  6
CONTINUOUS
 62
     4
100
AcDbLine
 10
14.353656
 20
25.503344
 30
0.0
 11
13.323223
 21
25.503344
 31
0.0
  0
LINE
  5
45
100
AcDbEntity
  8
CARTOUCHE
  6
CONTINUOUS
 62
     4
100
AcDbLine
 10
13.323223
 20
24.508394
 30
0.0
 11
14.455423
 21
24.508394
 31
0.0
  0
LINE
  5
46
100
AcDbEntity
  8
CARTOUCHE
  6
CONTINUOUS
 62
     4
100
AcDbLine
 10
13.323223
 20
21.169844
 30
0.0
 11
13.323223
 21
24.508394
 31
0.0
  0
ARC
  5
47
100
AcDbEntity
  8
CARTOUCHE
  6
CONTINUOUS
 62
     4
100
AcDbCircle
 10
11.899651
 20
23.925417
 30
0.0
 40
3.758727
100
AcDbArc
 50
82.920154
 51
97.425676
  0
INSERT
  5
48
100
AcDbEntity
  8
CARTOUCHE
  6
CONTINUOUS
 62
     4
100
AcDbBlockReference
  2
*X17
 10
0.0
 20
0.0
 30
0.0
1001
ACAD
1000
HATCH
1002
{
1070
    19
1000
ANSI31
1040
0.062992
1040
0.0
1000
R14_HATCH_DATA
1000
48
1011
1.0
1021
0.0
1031
0.0
1011
0.0
1021
1.0
1031
0.0
1011
0.0
1021
0.0
1031
1.0
1040
0.0
1010
0.0
1020
0.0
1030
1.0
1000
ANSI31
1070
     0
1070
     0
1071
        1
1071
        1
1071
       16
1070
     1
1040
18.674623
1040
24.508394
1040
18.674623
1040
24.929401
1070
     1
1040
19.580259
1040
25.834994
1040
21.087523
1040
25.834994
1070
     1
1040
21.087523
1040
25.834994
1040
21.087523
1040
24.931844
1070
     1
1040
21.087523
1040
24.931844
1040
20.679053
1040
24.931844
1070
     1
1040
20.461079
1040
24.768622
1040
20.412973
1040
24.508394
1070
     1
1040
20.412973
1040
24.508394
1040
21.087523
1040
24.508394
1070
     1
1040
21.087523
1040
24.508394
1040
21.087523
1040
23.410844
1070
     1
1040
21.087523
1040
23.410844
1040
20.470123
1040
23.410844
1070
     1
1040
20.470123
1040
23.410844
1040
20.470123
1040
20.632094
1070
     1
1040
20.470123
1040
20.632094
1040
18.674623
1040
20.632094
1070
     1
1040
18.674623
1040
20.632094
1040
18.674623
1040
23.410844
1070
     1
1040
18.674623
1040
23.410844
1040
18.137323
1040
23.410844
1070
     1
1040
18.137323
1040
23.410844
1040
18.137323
1040
24.508394
1070
     1
1040
18.137323
1040
24.508394
1040
18.674623
1040
24.508394
1070
     2
1040
19.580259
1040
24.929401
1040
0.905639
1040
1.570796
1040
3.141593
1070
     1
1070
     2
1040
20.705988
1040
24.668716
1040
0.264503
1040
1.672805
1040
2.754266
1070
     1
1071
        0
1070
     0
1070
     1
1040
0.0
1040
0.062992
1070
     0
1070
     1
1040
0.785398
1040
-6.22517
1040
-28.624349
1040
-0.141421
1040
0.141421
1070
     0
1071
        1
1040
-6.22517
1040
-28.624349
1040
0.0
1002
}
  0
LINE
  5
49
100
AcDbEntity
  8
CARTOUCHE
  6
CONTINUOUS
 62
     4
100
AcDbLine
 10
21.807973
 20
20.632094
 30
0.0
 11
21.807973
 21
24.508394
 31
0.0
  0
LINE
  5
4A
100
AcDbEntity
  8
CARTOUCHE
  6
CONTINUOUS
 62
     4
100
AcDbLine
 10
20.470123
 20
20.632094
 30
0.0
 11
20.470123
 21
23.410844
 31
0.0
  0
LINE
  5
4B
100
AcDbEntity
  8
CARTOUCHE
  6
CONTINUOUS
 62
     4
100
AcDbLine
 10
18.674623
 20
23.410844
 30
0.0
 11
18.674623
 21
20.632094
 31
0.0
  0
LINE
  5
4C
100
AcDbEntity
  8
CARTOUCHE
  6
CONTINUOUS
 62
     4
100
AcDbLine
 10
18.674623
 20
20.632094
 30
0.0
 11
20.470123
 21
20.632094
 31
0.0
  0
ARC
  5
4D
100
AcDbEntity
  8
CARTOUCHE
  6
CONTINUOUS
 62
     4
100
AcDbCircle
 10
19.580259
 20
24.929401
 30
0.0
 40
0.905639
100
AcDbArc
 50
90.0
 51
180.0
  0
LINE
  5
4E
100
AcDbEntity
  8
CARTOUCHE
  6
CONTINUOUS
 62
     4
100
AcDbLine
 10
18.137323
 20
23.410844
 30
0.0
 11
18.674623
 21
23.410844
 31
0.0
  0
LINE
  5
4F
100
AcDbEntity
  8
CARTOUCHE
  6
CONTINUOUS
 62
     4
100
AcDbLine
 10
18.137323
 20
24.508394
 30
0.0
 11
18.137323
 21
23.410844
 31
0.0
  0
LINE
  5
50
100
AcDbEntity
  8
CARTOUCHE
  6
CONTINUOUS
 62
     4
100
AcDbLine
 10
18.674623
 20
24.508394
 30
0.0
 11
18.137323
 21
24.508394
 31
0.0
  0
LINE
  5
51
100
AcDbEntity
  8
CARTOUCHE
  6
CONTINUOUS
 62
     4
100
AcDbLine
 10
18.674623
 20
24.931844
 30
0.0
 11
18.674623
 21
24.508394
 31
0.0
  0
LINE
  5
52
100
AcDbEntity
  8
CARTOUCHE
  6
CONTINUOUS
 62
     4
100
AcDbLine
 10
20.679053
 20
24.931844
 30
0.0
 11
21.087523
 21
24.931844
 31
0.0
  0
LINE
  5
53
100
AcDbEntity
  8
CARTOUCHE
  6
CONTINUOUS
 62
     4
100
AcDbLine
 10
21.087523
 20
24.508394
 30
0.0
 11
20.412973
 21
24.508394
 31
0.0
  0
LINE
  5
54
100
AcDbEntity
  8
CARTOUCHE
  6
CONTINUOUS
 62
     4
100
AcDbLine
 10
20.470123
 20
23.410844
 30
0.0
 11
21.087523
 21
23.410844
 31
0.0
  0
LINE
  5
55
100
AcDbEntity
  8
CARTOUCHE
  6
CONTINUOUS
 62
     4
100
AcDbLine
 10
21.087523
 20
25.834994
 30
0.0
 11
19.589473
 21
25.834994
 31
0.0
  0
ARC
  5
56
100
AcDbEntity
  8
CARTOUCHE
  6
CONTINUOUS
 62
     4
100
AcDbCircle
 10
20.705988
 20
24.668716
 30
0.0
 40
0.264503
100
AcDbArc
 50
95.844673
 51
157.807812
  0
LINE
  5
57
100
AcDbEntity
  8
CARTOUCHE
  6
CONTINUOUS
 62
     4
100
AcDbLine
 10
20.412973
 20
24.508394
 30
0.0
 11
20.461079
 21
24.768622
 31
0.0
  0
LINE
  5
58
100
AcDbEntity
  8
CARTOUCHE
  6
CONTINUOUS
 62
     4
100
AcDbLine
 10
21.807973
 20
24.943094
 30
0.0
 11
21.807973
 21
25.834994
 31
0.0
  0
LINE
  5
59
100
AcDbEntity
  8
CARTOUCHE
  6
CONTINUOUS
 62
     4
100
AcDbLine
 10
21.087523
 20
23.410844
 30
0.0
 11
21.087523
 21
24.508394
 31
0.0
  0
LINE
  5
5A
100
AcDbEntity
  8
CARTOUCHE
  6
CONTINUOUS
 62
     4
100
AcDbLine
 10
21.087523
 20
24.931844
 30
0.0
 11
21.087523
 21
25.834994
 31
0.0
  0
INSERT
  5
5B
100
AcDbEntity
  8
CARTOUCHE
  6
CONTINUOUS
 62
     4
100
AcDbBlockReference
  2
*X18
 10
0.0
 20
0.0
 30
0.0
1001
ACAD
1000
HATCH
1002
{
1070
    19
1000
ANSI31
1040
0.062992
1040
0.0
1000
R14_HATCH_DATA
1000
5B
1011
1.0
1021
0.0
1031
0.0
1011
0.0
1021
1.0
1031
0.0
1011
0.0
1021
0.0
1031
1.0
1040
0.0
1010
0.0
1020
0.0
1030
1.0
1000
ANSI31
1070
     0
1070
     0
1071
        1
1071
        1
1071
      154
1070
     1
1040
34.191523
1040
24.319904
1040
34.136639
1040
24.365465
1070
     1
1040
34.136639
1040
24.365465
1040
34.093353
1040
24.396952
1070
     1
1040
34.093353
1040
24.396952
1040
34.048146
1040
24.425518
1070
     1
1040
34.048146
1040
24.425518
1040
33.985315
1040
24.458243
1070
     1
1040
33.985315
1040
24.458243
1040
33.936415
1040
24.479183
1070
     1
1040
33.936415
1040
24.479183
1040
33.886414
1040
24.497349
1070
     1
1040
33.886414
1040
24.497349
1040
33.800369
1040
24.52267
1070
     1
1040
33.800369
1040
24.52267
1040
33.713056
1040
24.543137
1070
     1
1040
33.713056
1040
24.543137
1040
33.535985
1040
24.577164
1070
     1
1040
33.535985
1040
24.577164
1040
33.183861
1040
24.631643
1070
     1
1040
33.183861
1040
24.631643
1040
32.829714
1040
24.653611
1070
     1
1040
32.829714
1040
24.653611
1040
32.473075
1040
24.642759
1070
     1
1040
32.473075
1040
24.642759
1040
32.295535
1040
24.627567
1070
     1
1040
32.295535
1040
24.627567
1040
32.119422
1040
24.601922
1070
     1
1040
32.119422
1040
24.601922
1040
31.980393
1040
24.570874
1070
     1
1040
31.980393
1040
24.570874
1040
31.776269
1040
24.506919
1070
     1
1040
31.776269
1040
24.506919
1040
31.643857
1040
24.453442
1070
     1
1040
31.643857
1040
24.453442
1040
31.547199
1040
24.407478
1070
     1
1040
31.547199
1040
24.407478
1040
31.453318
1040
24.3562
1070
     1
1040
31.453318
1040
24.3562
1040
31.333276
1040
24.279541
1070
     1
1040
31.333276
1040
24.279541
1040
31.164251
1040
24.148688
1070
     1
1040
31.164251
1040
24.148688
1040
31.058938
1040
24.052358
1070
     1
1040
31.058938
1040
24.052358
1040
30.912683
1040
23.896114
1070
     1
1040
30.912683
1040
23.896114
1040
30.823445
1040
23.784931
1070
     1
1040
30.823445
1040
23.784931
1040
30.703793
1040
23.607819
1070
     1
1040
30.703793
1040
23.607819
1040
30.634816
1040
23.48302
1070
     1
1040
30.634816
1040
23.48302
1040
30.589096
1040
23.38631
1070
     1
1040
30.589096
1040
23.38631
1040
30.548661
1040
23.287292
1070
     1
1040
30.548661
1040
23.287292
1040
30.503077
1040
23.152132
1070
     1
1040
30.503077
1040
23.152132
1040
30.452473
1040
22.944199
1070
     1
1040
30.452473
1040
22.944199
1040
30.430632
1040
22.80315
1070
     1
1040
30.430632
1040
22.80315
1040
30.421047
1040
22.696588
1070
     1
1040
30.421047
1040
22.696588
1040
30.41782
1040
22.58973
1070
     1
1040
30.41782
1040
22.58973
1040
30.423783
1040
22.447355
1070
     1
1040
30.423783
1040
22.447355
1040
30.452047
1040
22.235266
1070
     1
1040
30.452047
1040
22.235266
1040
30.481823
1040
22.095683
1070
     1
1040
30.481823
1040
22.095683
1040
30.542941
1040
21.890737
1070
     1
1040
30.542941
1040
21.890737
1040
30.595245
1040
21.758144
1070
     1
1040
30.595245
1040
21.758144
1040
30.640663
1040
21.661326
1070
     1
1040
30.640663
1040
21.661326
1040
30.691396
1040
21.567163
1070
     1
1040
30.691396
1040
21.567163
1040
30.767341
1040
21.446302
1070
     1
1040
30.767341
1040
21.446302
1040
30.830371
1040
21.359778
1070
     1
1040
30.830371
1040
21.359778
1040
30.89849
1040
21.27725
1070
     1
1040
30.89849
1040
21.27725
1040
30.996767
1040
21.17408
1070
     1
1040
30.996767
1040
21.17408
1040
31.158025
1040
21.033767
1070
     1
1040
31.158025
1040
21.033767
1040
31.273232
1040
20.949577
1070
     1
1040
31.273232
1040
20.949577
1040
31.455483
1040
20.837379
1070
     1
1040
31.455483
1040
20.837379
1040
31.582285
1040
20.772196
1070
     1
1040
31.582285
1040
20.772196
1040
31.680038
1040
20.728943
1070
     1
1040
31.680038
1040
20.728943
1040
31.77997
1040
20.691125
1070
     1
1040
31.77997
1040
20.691125
1040
31.916406
1040
20.649737
1070
     1
1040
31.916406
1040
20.649737
1040
32.125814
1040
20.606082
1070
     1
1040
32.125814
1040
20.606082
1040
32.302677
1040
20.584734
1070
     1
1040
32.302677
1040
20.584734
1040
32.480504
1040
20.573741
1070
     1
1040
32.480504
1040
20.573741
1040
32.83642
1040
20.570894
1070
     1
1040
32.83642
1040
20.570894
1040
33.19287
1040
20.586102
1070
     1
1040
33.19287
1040
20.586102
1040
33.334597
1040
20.6
1070
     1
1040
33.334597
1040
20.6
1040
33.545271
1040
20.635884
1070
     1
1040
33.545271
1040
20.635884
1040
33.682853
1040
20.673016
1070
     1
1040
33.682853
1040
20.673016
1040
33.817433
1040
20.721154
1070
     1
1040
33.817433
1040
20.721154
1040
33.947848
1040
20.779822
1070
     1
1040
33.947848
1040
20.779822
1040
34.072933
1040
20.848544
1070
     1
1040
34.072933
1040
20.848544
1040
34.191523
1040
20.926844
1070
     1
1040
34.191523
1040
20.926844
1040
34.191523
1040
20.620844
1070
     1
1040
34.191523
1040
20.620844
1040
35.986573
1040
20.620844
1070
     1
1040
35.986573
1040
20.620844
1040
35.986573
1040
25.823744
1070
     1
1040
35.986573
1040
25.823744
1040
34.191523
1040
25.823744
1070
     1
1040
34.191523
1040
25.823744
1040
34.191523
1040
24.319904
1070
     1
1040
34.191523
1040
22.759244
1040
34.185224
1040
22.797429
1070
     1
1040
34.185224
1040
22.797429
1040
34.176704
1040
22.835258
1070
     1
1040
34.176704
1040
22.835258
1040
34.165972
1040
22.872565
1070
     1
1040
34.165972
1040
22.872565
1040
34.153041
1040
22.909184
1070
     1
1040
34.153041
1040
22.909184
1040
34.137919
1040
22.94495
1070
     1
1040
34.137919
1040
22.94495
1040
34.120622
1040
22.979724
1070
     1
1040
34.120622
1040
22.979724
1040
34.101241
1040
23.01337
1070
     1
1040
34.101241
1040
23.01337
1040
34.079871
1040
23.045781
1070
     1
1040
34.079871
1040
23.045781
1040
34.05661
1040
23.076848
1070
     1
1040
34.05661
1040
23.076848
1040
34.031554
1040
23.106464
1070
     1
1040
34.031554
1040
23.106464
1040
34.004808
1040
23.13454
1070
     1
1040
34.004808
1040
23.13454
1040
33.976513
1040
23.161059
1070
     1
1040
33.976513
1040
23.161059
1040
33.931497
1040
23.19792
1070
     1
1040
33.931497
1040
23.19792
1040
33.883839
1040
23.231288
1070
     1
1040
33.883839
1040
23.231288
1040
33.817408
1040
23.270254
1070
     1
1040
33.817408
1040
23.270254
1040
33.7126
1040
23.318705
1070
     1
1040
33.7126
1040
23.318705
1040
33.529126
1040
23.38024
1070
     1
1040
33.529126
1040
23.38024
1040
33.341295
1040
23.426807
1070
     1
1040
33.341295
1040
23.426807
1040
33.265367
1040
23.43872
1070
     1
1040
33.265367
1040
23.43872
1040
33.207992
1040
23.444184
1070
     1
1040
33.207992
1040
23.444184
1040
33.150433
1040
23.446185
1070
     1
1040
33.150433
1040
23.446185
1040
33.073206
1040
23.442941
1070
     1
1040
33.073206
1040
23.442941
1040
33.01556
1040
23.436269
1070
     1
1040
33.01556
1040
23.436269
1040
32.958383
1040
23.426252
1070
     1
1040
32.958383
1040
23.426252
1040
32.882791
1040
23.40795
1070
     1
1040
32.882791
1040
23.40795
1040
32.827093
1040
23.390689
1070
     1
1040
32.827093
1040
23.390689
1040
32.772401
1040
23.370479
1070
     1
1040
32.772401
1040
23.370479
1040
32.701623
1040
23.339164
1070
     1
1040
32.701623
1040
23.339164
1040
32.650176
1040
23.312245
1070
     1
1040
32.650176
1040
23.312245
1040
32.600378
1040
23.2823
1070
     1
1040
32.600378
1040
23.2823
1040
32.537441
1040
23.23798
1070
     1
1040
32.537441
1040
23.23798
1040
32.478372
1040
23.188413
1070
     1
1040
32.478372
1040
23.188413
1040
32.423769
1040
23.133776
1070
     1
1040
32.423769
1040
23.133776
1040
32.37423
1040
23.074247
1070
     1
1040
32.37423
1040
23.074247
1040
32.330353
1040
23.010003
1070
     1
1040
32.330353
1040
23.010003
1040
32.292818
1040
22.941394
1070
     1
1040
32.292818
1040
22.941394
1040
32.262521
1040
22.869246
1070
     1
1040
32.262521
1040
22.869246
1040
32.250396
1040
22.832155
1070
     1
1040
32.250396
1040
22.832155
1040
32.240449
1040
22.794552
1070
     1
1040
32.240449
1040
22.794552
1040
32.232805
1040
22.756561
1070
     1
1040
32.232805
1040
22.756561
1040
32.227586
1040
22.718306
1070
     1
1040
32.227586
1040
22.718306
1040
32.224917
1040
22.679912
1070
     1
1040
32.224917
1040
22.679912
1040
32.224919
1040
22.641503
1070
     1
1040
32.224919
1040
22.641503
1040
32.227693
1040
22.60294
1070
     1
1040
32.227693
1040
22.60294
1040
32.233111
1040
22.564618
1070
     1
1040
32.233111
1040
22.564618
1040
32.240981
1040
22.526667
1070
     1
1040
32.240981
1040
22.526667
1040
32.251114
1040
22.489217
1070
     1
1040
32.251114
1040
22.489217
1040
32.263318
1040
22.4524
1070
     1
1040
32.263318
1040
22.4524
1040
32.293645
1040
22.380425
1070
     1
1040
32.293645
1040
22.380425
1040
32.321048
1040
22.328706
1070
     1
1040
32.321048
1040
22.328706
1040
32.352154
1040
22.2791
1070
     1
1040
32.352154
1040
22.2791
1040
32.398586
1040
22.217113
1070
     1
1040
32.398586
1040
22.217113
1040
32.437235
1040
22.173772
1070
     1
1040
32.437235
1040
22.173772
1040
32.479066
1040
22.133554
1070
     1
1040
32.479066
1040
22.133554
1040
32.539186
1040
22.085487
1070
     1
1040
32.539186
1040
22.085487
1040
32.587212
1040
22.053355
1070
     1
1040
32.587212
1040
22.053355
1040
32.637257
1040
22.024481
1070
     1
1040
32.637257
1040
22.024481
1040
32.707048
1040
21.990519
1070
     1
1040
32.707048
1040
21.990519
1040
32.815648
1040
21.948581
1070
     1
1040
32.815648
1040
21.948581
1040
32.889663
1040
21.925699
1070
     1
1040
32.889663
1040
21.925699
1040
33.002738
1040
21.899168
1070
     1
1040
33.002738
1040
21.899168
1040
33.078914
1040
21.887245
1070
     1
1040
33.078914
1040
21.887245
1040
33.194199
1040
21.878646
1070
     1
1040
33.194199
1040
21.878646
1040
33.271463
1040
21.879509
1070
     1
1040
33.271463
1040
21.879509
1040
33.386902
1040
21.8909
1070
     1
1040
33.386902
1040
21.8909
1040
33.46279
1040
21.905127
1070
     1
1040
33.46279
1040
21.905127
1040
33.537631
1040
21.924554
1070
     1
1040
33.537631
1040
21.924554
1040
33.611002
1040
21.949047
1070
     1
1040
33.611002
1040
21.949047
1040
33.682477
1040
21.978473
1070
     1
1040
33.682477
1040
21.978473
1040
33.751634
1040
22.012698
1070
     1
1040
33.751634
1040
22.012698
1040
33.818499
1040
22.051846
1070
     1
1040
33.818499
1040
22.051846
1040
33.91321
1040
22.119126
1070
     1
1040
33.91321
1040
22.119126
1040
33.972146
1040
22.169599
1070
     1
1040
33.972146
1040
22.169599
1040
34.013325
1040
22.210664
1070
     1
1040
34.013325
1040
22.210664
1040
34.051197
1040
22.254741
1070
     1
1040
34.051197
1040
22.254741
1040
34.074237
1040
22.285782
1070
     1
1040
34.074237
1040
22.285782
1040
34.09545
1040
22.318141
1070
     1
1040
34.09545
1040
22.318141
1040
34.114752
1040
22.351701
1070
     1
1040
34.114752
1040
22.351701
1040
34.13206
1040
22.386344
1070
     1
1040
34.13206
1040
22.386344
1040
34.147289
1040
22.421954
1070
     1
1040
34.147289
1040
22.421954
1040
34.160411
1040
22.458525
1070
     1
1040
34.160411
1040
22.458525
1040
34.171377
1040
22.495797
1070
     1
1040
34.171377
1040
22.495797
1040
34.180205
1040
22.533619
1070
     1
1040
34.180205
1040
22.533619
1040
34.186914
1040
22.571835
1070
     1
1040
34.186914
1040
22.571835
1040
34.191523
1040
22.610294
1070
     1
1040
34.191523
1040
22.610294
1040
34.191523
1040
22.759244
1071
        0
1070
     0
1070
     1
1040
0.0
1040
0.062992
1070
     0
1070
     1
1040
0.785398
1040
-6.22517
1040
-28.624349
1040
-0.141421
1040
0.141421
1070
     0
1071
        1
1040
-6.22517
1040
-28.624349
1040
0.0
1002
}
  0
SPLINE
  5
5C
100
AcDbEntity
  8
CARTOUCHE
  6
CONTINUOUS
 62
     4
100
AcDbSpline
210
0.0
220
0.0
230
-1.0
 70
     8
 71
     3
 72
    36
 73
    32
 74
    30
 42
0.0000001
 43
0.0000001
 44
0.000001
 12
-0.7486966541787443
 22
0.6629127544568397
 32
0.0
 13
0.8109899424984487
 23
0.5850600936368528
 33
0.0
 40
0.0
 40
0.0
 40
0.0
 40
0.0
 40
0.1780757831166552
 40
0.3550411304737638
 40
0.5343443125649352
 40
0.714655491811149
 40
1.070968606639404
 40
1.425796208074303
 40
1.782600543780741
 40
2.138603420097711
 40
2.494664590840577
 40
2.851053865932449
 40
3.206892455734438
 40
3.563375304300148
 40
3.919393169056189
 40
4.275488633957715
 40
4.63180939296686
 40
4.98796819639783
 40
5.344080709448852
 40
5.700397923933461
 40
6.056402401153455
 40
6.412684881890918
 40
6.768553141959223
 40
7.124993202679218
 40
7.480917853860609
 40
7.837064146578088
 40
8.193225691107732
 40
8.549152693439989
 40
8.905926847727792
 40
9.261827245523043
 40
9.970556688389352
 40
9.970556688389352
 40
9.970556688389352
 40
9.970556688389352
 10
34.19152297621249
 20
24.31990419713182
 30
0.0
 10
34.14708139520926
 20
24.35925376642779
 30
0.0
 10
34.05217150086914
 20
24.43173507527464
 30
0.0
 10
33.88702571777853
 20
24.50226704153207
 30
0.0
 10
33.71305219922994
 20
24.54495620852745
 30
0.0
 10
33.47834936508675
 20
24.58798228938456
 30
0.0
 10
33.1851820926192
 20
24.6380068096761
 30
0.0
 10
32.82899740219373
 20
24.65936878443557
 30
0.0
 10
32.47326766739478
 20
24.64621351281227
 30
0.0
 10
32.11757587007376
 20
24.61242842857664
 30
0.0
 10
31.7729929656132
 20
24.51557066505452
 30
0.0
 10
31.44749961346493
 20
24.36660637828334
 30
0.0
 10
31.15775792247553
 20
24.15567786292991
 30
0.0
 10
30.90609575122359
 20
23.90204661589372
 30
0.0
 10
30.69450217558054
 20
23.61346823741279
 30
0.0
 10
30.53862680930607
 20
23.29089595113819
 30
0.0
 10
30.4427778154184
 20
22.94623291404152
 30
0.0
 10
30.40515987330755
 20
22.5896805608234
 30
0.0
 10
30.44352428304454
 20
22.23351812056702
 30
0.0
 10
30.53308942379928
 20
21.88748882621621
 30
0.0
 10
30.68157948277334
 20
21.56148503257428
 30
0.0
 10
30.88917782475931
 20
21.26919472073597
 30
0.0
 10
31.15221375027256
 20
21.02575919010237
 30
0.0
 10
31.45092615893588
 20
20.82973489264703
 30
0.0
 10
31.77615974301296
 20
20.68002674890266
 30
0.0
 10
32.12459917705964
 20
20.59680902996356
 30
0.0
 10
32.48036304556569
 20
20.56921473627849
 30
0.0
 10
32.83672036586225
 20
20.56880375590484
 30
0.0
 10
33.1928878270672
 20
20.5809605165969
 30
0.0
 10
33.66419136840351
 20
20.63797128162552
 30
0.0
 10
33.99993215950679
 20
20.78862716904784
 30
0.0
 10
34.19152297621249
 20
20.92684360711669
 30
0.0
 11
34.19152297621249
 21
24.31990419713182
 31
0.0
 11
34.04814564948316
 21
24.42551803537496
 31
0.0
 11
33.886414432493
 21
24.49734946038967
 31
0.0
 11
33.71305596481814
 21
24.54313679053143
 31
0.0
 11
33.53598457982956
 21
24.57716399139704
 31
0.0
 11
33.18386096308204
 21
24.63164336554592
 31
0.0
 11
32.8297140010732
 21
24.65361067318905
 31
0.0
 11
32.47307470160767
 21
24.6427593690914
 31
0.0
 11
32.11942187052807
 21
24.60192152108414
 31
0.0
 11
31.77626880985488
 21
24.50691864896159
 31
0.0
 11
31.45331806594562
 21
24.35619987525168
 31
0.0
 11
31.16425081659299
 21
24.14868782982736
 31
0.0
 11
30.91268311986691
 21
23.89611360248224
 31
0.0
 11
30.70379325220439
 21
23.60781901266322
 31
0.0
 11
30.54866063637869
 21
23.28729150751013
 31
0.0
 11
30.45247328846812
 21
22.94419894098582
 31
0.0
 11
30.4178204424804
 21
22.58972989255913
 31
0.0
 11
30.4520470898832
 21
22.23526594311771
 31
0.0
 11
30.54294059487364
 21
21.89073675637875
 31
0.0
 11
30.691396483504
 21
21.56716285752306
 31
0.0
 11
30.89849041843911
 21
21.27725022136696
 31
0.0
 11
31.15802450035081
 21
21.03376654019861
 31
0.0
 11
31.45548308742885
 21
20.83737935540596
 31
0.0
 11
31.77997022332717
 21
20.69112453447919
 31
0.0
 11
32.12581407620214
 21
20.60608206244056
 31
0.0
 11
32.48050427697165
 21
20.57374147270578
 31
0.0
 11
32.83641989969535
 21
20.57089422013113
 31
0.0
 11
33.19286980656467
 21
20.58610182742617
 31
0.0
 11
33.54527140198384
 21
20.63588357412756
 31
0.0
 11
34.19152297621249
 21
20.92684360711669
 31
0.0
  0
INSERT
  5
5D
100
AcDbEntity
  8
CARTOUCHE
  6
CONTINUOUS
 62
     4
100
AcDbBlockReference
  2
*X19
 10
0.0
 20
0.0
 30
0.0
1001
ACAD
1000
HATCH
1002
{
1070
    19
1000
ANSI31
1040
0.062992
1040
0.0
1000
R14_HATCH_DATA
1000
5D
1011
1.0
1021
0.0
1031
0.0
1011
0.0
1021
1.0
1031
0.0
1011
0.0
1021
0.0
1031
1.0
1040
0.0
1010
0.0
1020
0.0
1030
1.0
1000
ANSI31
1070
     0
1070
     0
1071
        1
1071
        1
1071
       12
1070
     1
1040
26.289973
1040
24.508394
1040
26.289973
1040
24.074144
1070
     1
1040
29.892223
1040
23.324553
1040
29.892223
1040
20.632094
1070
     1
1040
29.892223
1040
20.632094
1040
28.108423
1040
20.632094
1070
     1
1040
28.108423
1040
20.632094
1040
28.108423
1040
22.479034
1070
     1
1040
26.289973
1040
22.433499
1040
26.289973
1040
20.632094
1070
     1
1040
26.289973
1040
20.632094
1040
24.494923
1040
20.632094
1070
     1
1040
24.494923
1040
20.632094
1040
24.494923
1040
24.508394
1070
     1
1040
24.494923
1040
24.508394
1040
26.289973
1040
24.508394
1070
     2
1040
28.067403
1040
21.045261
1040
3.511892
1040
1.25441
1040
2.101473
1070
     1
1070
     2
1040
28.675028
1040
23.264873
1040
1.218658
1040
0.048991
1040
1.161443
1070
     1
1070
     2
1040
27.457324
1040
22.479034
1040
0.651124
1040
0.0
1040
1.695599
1070
     1
1070
     2
1040
27.44381
1040
21.820079
1040
1.306761
1040
1.622502
1040
2.652958
1070
     1
1071
        0
1070
     0
1070
     1
1040
0.0
1040
0.062992
1070
     0
1070
     1
1040
0.785398
1040
-6.22517
1040
-28.624349
1040
-0.141421
1040
0.141421
1070
     0
1071
        1
1040
-6.22517
1040
-28.624349
1040
0.0
1002
}
  0
LINE
  5
5E
100
AcDbEntity
  8
CARTOUCHE
  6
CONTINUOUS
 62
     4
100
AcDbLine
 10
23.625973
 20
24.508394
 30
0.0
 11
23.625973
 21
20.632094
 31
0.0
  0
LINE
  5
5F
100
AcDbEntity
  8
CARTOUCHE
  6
CONTINUOUS
 62
     4
100
AcDbLine
 10
26.289973
 20
20.632094
 30
0.0
 11
26.289973
 21
22.433499
 31
0.0
  0
LINE
  5
60
100
AcDbEntity
  8
CARTOUCHE
  6
CONTINUOUS
 62
     4
100
AcDbLine
 10
24.494923
 20
24.508394
 30
0.0
 11
24.494923
 21
20.632094
 31
0.0
  0
LINE
  5
61
100
AcDbEntity
  8
CARTOUCHE
  6
CONTINUOUS
 62
     4
100
AcDbLine
 10
29.892223
 20
20.632094
 30
0.0
 11
29.892223
 21
23.324553
 31
0.0
  0
LINE
  5
62
100
AcDbEntity
  8
CARTOUCHE
  6
CONTINUOUS
 62
     4
100
AcDbLine
 10
28.108423
 20
22.479034
 30
0.0
 11
28.108423
 21
20.632094
 31
0.0
  0
LINE
  5
63
100
AcDbEntity
  8
CARTOUCHE
  6
CONTINUOUS
 62
     4
100
AcDbLine
 10
24.494923
 20
20.632094
 30
0.0
 11
26.289973
 21
20.632094
 31
0.0
  0
LINE
  5
64
100
AcDbEntity
  8
CARTOUCHE
  6
CONTINUOUS
 62
     4
100
AcDbLine
 10
28.108423
 20
20.632094
 30
0.0
 11
29.892223
 21
20.632094
 31
0.0
  0
ARC
  5
65
100
AcDbEntity
  8
CARTOUCHE
  6
CONTINUOUS
 62
     4
100
AcDbCircle
 10
27.44381
 20
21.820079
 30
0.0
 40
1.306761
100
AcDbArc
 50
92.962513
 51
152.003324
  0
ARC
  5
66
100
AcDbEntity
  8
CARTOUCHE
  6
CONTINUOUS
 62
     4
100
AcDbCircle
 10
28.067403
 20
21.045261
 30
0.0
 40
3.511892
100
AcDbArc
 50
71.872392
 51
120.405557
  0
LINE
  5
67
100
AcDbEntity
  8
CARTOUCHE
  6
CONTINUOUS
 62
     4
100
AcDbLine
 10
26.289973
 20
24.508394
 30
0.0
 11
24.494923
 21
24.508394
 31
0.0
  0
LINE
  5
68
100
AcDbEntity
  8
CARTOUCHE
  6
CONTINUOUS
 62
     4
100
AcDbLine
 10
23.625973
 20
25.834994
 30
0.0
 11
23.625973
 21
24.943094
 31
0.0
  0
LINE
  5
69
100
AcDbEntity
  8
CARTOUCHE
  6
CONTINUOUS
 62
     4
100
AcDbLine
 10
26.289973
 20
24.074144
 30
0.0
 11
26.289973
 21
24.508394
 31
0.0
  0
ARC
  5
6A
100
AcDbEntity
  8
CARTOUCHE
  6
CONTINUOUS
 62
     4
100
AcDbCircle
 10
27.457324
 20
22.479034
 30
0.0
 40
0.651124
100
AcDbArc
 50
0.0
 51
97.150683
  0
ARC
  5
6B
100
AcDbEntity
  8
CARTOUCHE
  6
CONTINUOUS
 62
     4
100
AcDbCircle
 10
28.675028
 20
23.264873
 30
0.0
 40
1.218658
100
AcDbArc
 50
2.806997
 51
66.545781
  0
LINE
  5
6C
100
AcDbEntity
  8
CARTOUCHE
  6
CONTINUOUS
 62
     4
100
AcDbLine
 10
34.191523
 20
20.620844
 30
0.0
 11
34.191523
 21
20.926844
 31
0.0
  0
LINE
  5
6D
100
AcDbEntity
  8
CARTOUCHE
  6
CONTINUOUS
 62
     4
100
AcDbLine
 10
35.986573
 20
25.823744
 30
0.0
 11
35.986573
 21
20.620844
 31
0.0
  0
LINE
  5
6E
100
AcDbEntity
  8
CARTOUCHE
  6
CONTINUOUS
 62
     4
100
AcDbLine
 10
35.986573
 20
20.620844
 30
0.0
 11
34.191523
 21
20.620844
 31
0.0
  0
LINE
  5
6F
100
AcDbEntity
  8
CARTOUCHE
  6
CONTINUOUS
 62
     4
100
AcDbLine
 10
34.191523
 20
25.823744
 30
0.0
 11
35.986573
 21
25.823744
 31
0.0
  0
SPLINE
  5
70
100
AcDbEntity
  8
CARTOUCHE
  6
CONTINUOUS
 62
     4
100
AcDbSpline
210
0.0
220
0.0
230
1.0
 70
     8
 71
     3
 72
    32
 73
    28
 74
    26
 42
0.0000001
 43
0.0000001
 44
0.000001
 12
-0.1341089932713914
 22
0.9909665876929121
 32
0.0
 13
0.0921211275959058
 23
0.9957478083583508
 33
0.0
 40
0.0
 40
0.0
 40
0.0
 40
0.0
 40
0.1932867580524454
 40
0.3866788451150791
 40
0.5800711654485758
 40
0.7723325873166358
 40
0.9658511975047813
 40
1.159367686947902
 40
1.351211207743471
 40
1.544292792016133
 40
1.738457494080144
 40
1.931763602335261
 40
2.315246619553241
 40
2.69853312463332
 40
2.891495447689225
 40
3.086238095910866
 40
3.279344938314636
 40
3.471493433338554
 40
3.665360119317714
 40
3.858864929667114
 40
4.051423127032069
 40
4.24451564009766
 40
4.629045942604745
 40
4.822524541072649
 40
5.015996623878569
 40
5.208854618112321
 40
5.402317524092618
 40
5.402317524092618
 40
5.402317524092618
 40
5.402317524092618
 10
34.19152297621249
 20
22.75924360711669
 30
0.0
 10
34.1828824787008
 20
22.82309051347451
 30
0.0
 10
34.14698932765786
 20
22.94923029275335
 30
0.0
 10
34.03863076707331
 20
23.1129580496783
 30
0.0
 10
33.88808648116188
 20
23.23750470853534
 30
0.0
 10
33.71390301491271
 20
23.32349543169012
 30
0.0
 10
33.52952349037025
 20
23.38166617796113
 30
0.0
 10
33.34290557585106
 20
23.43125883501366
 30
0.0
 10
33.15005919966966
 20
23.45345604214745
 30
0.0
 10
32.95676615887827
 20
23.43192373593081
 30
0.0
 10
32.77056087653815
 20
23.37588590159822
 30
0.0
 10
32.54005639299716
 20
23.25927858270805
 30
0.0
 10
32.30432079782051
 20
23.02895618029821
 30
0.0
 10
32.19918324987907
 20
22.70410851499887
 30
0.0
 10
32.25560999634822
 20
22.44863366086686
 30
0.0
 10
32.3455292506966
 20
22.27538556520209
 30
0.0
 10
32.47312188731868
 20
22.12730587473819
 30
0.0
 10
32.63483108758956
 20
22.0182966283113
 30
0.0
 10
32.81426083384697
 20
21.94472718644528
 30
0.0
 10
33.0014437485347
 20
21.89441517126608
 30
0.0
 10
33.19428281780493
 20
21.87304368275571
 30
0.0
 10
33.45148771916182
 20
21.88934859964266
 30
0.0
 10
33.70119731467648
 20
21.97262997799401
 30
0.0
 10
33.91655313581233
 20
22.11456177388942
 30
0.0
 10
34.05836074509369
 20
22.24858637370176
 30
0.0
 10
34.15639752139457
 20
22.41859021075639
 30
0.0
 10
34.1855823025302
 20
22.54608018557384
 30
0.0
 10
34.19152297621249
 20
22.61029360711668
 30
0.0
 11
34.19152297621249
 21
22.75924360711669
 31
0.0
 11
34.13791895137521
 21
22.94494973500174
 31
0.0
 11
34.03155373353056
 21
23.10646429401779
 31
0.0
 11
33.88383915758775
 21
23.2312882243935
 31
0.0
 11
33.71260018090836
 21
23.31870497950504
 31
0.0
 11
33.52912571204567
 21
23.38024026476581
 31
0.0
 11
33.34129541646134
 21
23.4268066350183
 31
0.0
 11
33.15043306379559
 21
23.44618483007101
 31
0.0
 11
32.95838311054932
 21
23.42625160056325
 31
0.0
 11
32.77240099875644
 21
23.37047876932411
 31
0.0
 11
32.6003783004499
 21
23.2823001555606
 31
0.0
 11
32.3303531106979
 21
23.01000300398824
 31
0.0
 11
32.22491909320101
 21
22.64150286445184
 31
0.0
 11
32.26331822628609
 21
22.45239971642014
 31
0.0
 11
32.35215412813562
 21
22.27909964132739
 31
0.0
 11
32.4790661567678
 21
22.13355370124998
 31
0.0
 11
32.63725672616545
 21
22.02448118124886
 31
0.0
 11
32.81564788989768
 21
21.94858052993354
 31
0.0
 11
33.00273750412712
 21
21.89916786421673
 31
0.0
 11
33.19419909206249
 21
21.87864610808738
 31
0.0
 11
33.38690243953788
 21
21.89090007892743
 31
0.0
 11
33.7516338226573
 21
22.01269765064039
 31
0.0
 11
33.91321018639743
 21
22.11912633605072
 31
0.0
 11
34.05119662359747
 21
22.25474052514756
 31
0.0
 11
34.14728879489485
 21
22.42195449774152
 31
0.0
 11
34.19152297621249
 21
22.61029360711668
 31
0.0
  0
LINE
  5
71
100
AcDbEntity
  8
CARTOUCHE
  6
CONTINUOUS
 62
     4
100
AcDbLine
 10
34.191523
 20
22.610294
 30
0.0
 11
34.191523
 21
22.759244
 31
0.0
  0
LINE
  5
72
100
AcDbEntity
  8
CARTOUCHE
  6
CONTINUOUS
 62
     4
100
AcDbLine
 10
34.191523
 20
24.319904
 30
0.0
 11
34.191523
 21
25.823744
 31
0.0
  0
LINE
  5
73
100
AcDbEntity
  8
CARTOUCHE
  6
CONTINUOUS
 62
     4
100
AcDbLine
 10
38.364823
 20
23.079194
 30
0.0
 11
39.154123
 21
23.079194
 31
0.0
  0
LINE
  5
74
100
AcDbEntity
  8
CARTOUCHE
  6
CONTINUOUS
 62
     4
100
AcDbLine
 10
39.051073
 20
22.244444
 30
0.0
 11
38.364823
 21
22.244444
 31
0.0
  0
LINE
  5
75
100
AcDbEntity
  8
CARTOUCHE
  6
CONTINUOUS
 62
     4
100
AcDbLine
 10
39.154123
 20
22.244444
 30
0.0
 11
39.051073
 21
22.244444
 31
0.0
  0
LINE
  5
76
100
AcDbEntity
  8
CARTOUCHE
  6
CONTINUOUS
 62
     7
100
AcDbLine
 10
50.000001
 20
36.845393
 30
0.0
 11
50.000001
 21
5.000041
 31
0.0
  0
INSERT
  5
77
100
AcDbEntity
  8
CARTOUCHE
  6
CONTINUOUS
 62
     4
100
AcDbBlockReference
  2
*X20
 10
0.0
 20
0.0
 30
0.0
1001
ACAD
1000
HATCH
1002
{
1070
    19
1000
ANSI31
1040
0.062992
1040
0.0
1000
R14_HATCH_DATA
1000
77
1011
1.0
1021
0.0
1031
0.0
1011
0.0
1021
1.0
1031
0.0
1011
0.0
1021
0.0
1031
1.0
1040
0.0
1010
0.0
1020
0.0
1030
1.0
1000
ANSI31
1070
     0
1070
     0
1071
        1
1071
        1
1071
       78
1070
     1
1040
42.732973
1040
24.508394
1040
42.732973
1040
20.632094
1070
     1
1040
42.732973
1040
20.632094
1040
44.459623
1040
20.632094
1070
     1
1040
44.459623
1040
20.632094
1040
44.459623
1040
22.782194
1070
     1
1040
44.459623
1040
22.782194
1040
44.463488
1040
22.825563
1070
     1
1040
44.463488
1040
22.825563
1040
44.470946
1040
22.868586
1070
     1
1040
44.470946
1040
22.868586
1040
44.481879
1040
22.910991
1070
     1
1040
44.481879
1040
22.910991
1040
44.496172
1040
22.952504
1070
     1
1040
44.496172
1040
22.952504
1040
44.513707
1040
22.992851
1070
     1
1040
44.513707
1040
22.992851
1040
44.534386
1040
23.031755
1070
     1
1040
44.534386
1040
23.031755
1040
44.558122
1040
23.068814
1070
     1
1040
44.558122
1040
23.068814
1040
44.584841
1040
23.103624
1070
     1
1040
44.584841
1040
23.103624
1040
44.614473
1040
23.13578
1070
     1
1040
44.614473
1040
23.13578
1040
44.646943
1040
23.164878
1070
     1
1040
44.646943
1040
23.164878
1040
44.682109
1040
23.190587
1070
     1
1040
44.682109
1040
23.190587
1040
44.719626
1040
23.212933
1070
     1
1040
44.719626
1040
23.212933
1040
44.759083
1040
23.232012
1070
     1
1040
44.759083
1040
23.232012
1040
44.800067
1040
23.24792
1070
     1
1040
44.800067
1040
23.24792
1040
44.842166
1040
23.260755
1070
     1
1040
44.842166
1040
23.260755
1040
44.885455
1040
23.270655
1070
     1
1040
44.885455
1040
23.270655
1040
44.929241
1040
23.277344
1070
     1
1040
44.929241
1040
23.277344
1040
44.973307
1040
23.280649
1070
     1
1040
44.973307
1040
23.280649
1040
45.017433
1040
23.280401
1070
     1
1040
45.017433
1040
23.280401
1040
45.061399
1040
23.276428
1070
     1
1040
45.061399
1040
23.276428
1040
45.104319
1040
23.268736
1070
     1
1040
45.104319
1040
23.268736
1040
45.146471
1040
23.257294
1070
     1
1040
45.146471
1040
23.257294
1040
45.187456
1040
23.242136
1070
     1
1040
45.187456
1040
23.242136
1040
45.226873
1040
23.223293
1070
     1
1040
45.226873
1040
23.223293
1040
45.264321
1040
23.200797
1070
     1
1040
45.264321
1040
23.200797
1040
45.299504
1040
23.174642
1070
     1
1040
45.299504
1040
23.174642
1040
45.331947
1040
23.145119
1070
     1
1040
45.331947
1040
23.145119
1040
45.361291
1040
23.112499
1070
     1
1040
45.361291
1040
23.112499
1040
45.387181
1040
23.077054
1070
     1
1040
45.387181
1040
23.077054
1040
45.409257
1040
23.039056
1070
     1
1040
45.409257
1040
23.039056
1040
45.427129
1040
22.999011
1070
     1
1040
45.427129
1040
22.999011
1040
45.440732
1040
22.957277
1070
     1
1040
45.440732
1040
22.957277
1040
45.44993
1040
22.914423
1070
     1
1040
45.44993
1040
22.914423
1040
45.454589
1040
22.871022
1070
     1
1040
45.454589
1040
22.871022
1040
45.455174
1040
22.849294
1070
     1
1040
45.455174
1040
22.849294
1040
45.454573
1040
22.827644
1070
     1
1040
45.454573
1040
22.827644
1040
45.454573
1040
22.587794
1070
     1
1040
45.454573
1040
22.587794
1040
47.283823
1040
22.587794
1070
     1
1040
47.283823
1040
22.587794
1040
47.30048
1040
22.741901
1070
     1
1040
47.30048
1040
22.741901
1040
47.308034
1040
22.896764
1070
     1
1040
47.308034
1040
22.896764
1040
47.306223
1040
23.051921
1070
     1
1040
47.306223
1040
23.051921
1040
47.295648
1040
23.206716
1070
     1
1040
47.295648
1040
23.206716
1040
47.276908
1040
23.360972
1070
     1
1040
47.276908
1040
23.360972
1040
47.2499
1040
23.514097
1070
     1
1040
47.2499
1040
23.514097
1040
47.221874
1040
23.635072
1070
     1
1040
47.221874
1040
23.635072
1040
47.19592
1040
23.724445
1070
     1
1040
47.19592
1040
23.724445
1040
47.16468
1040
23.812049
1070
     1
1040
47.16468
1040
23.812049
1040
47.113499
1040
23.92525
1070
     1
1040
47.113499
1040
23.92525
1040
47.067867
1040
24.006615
1070
     1
1040
47.067867
1040
24.006615
1040
47.016057
1040
24.0843
1070
     1
1040
47.016057
1040
24.0843
1040
46.978018
1040
24.133848
1070
     1
1040
46.978018
1040
24.133848
1040
46.937287
1040
24.181208
1070
     1
1040
46.937287
1040
24.181208
1040
46.893917
1040
24.226097
1070
     1
1040
46.893917
1040
24.226097
1040
46.847963
1040
24.26823
1070
     1
1040
46.847963
1040
24.26823
1040
46.799476
1040
24.307326
1070
     1
1040
46.799476
1040
24.307326
1040
46.748847
1040
24.342981
1070
     1
1040
46.748847
1040
24.342981
1040
46.696087
1040
24.375497
1070
     1
1040
46.696087
1040
24.375497
1040
46.613657
1040
24.418703
1070
     1
1040
46.613657
1040
24.418703
1040
46.528242
1040
24.455664
1070
     1
1040
46.528242
1040
24.455664
1040
46.410285
1040
24.496534
1070
     1
1040
46.410285
1040
24.496534
1040
46.22888
1040
24.542872
1070
     1
1040
46.22888
1040
24.542872
1040
46.106971
1040
24.566075
1070
     1
1040
46.106971
1040
24.566075
1040
45.922386
1040
24.587821
1070
     1
1040
45.922386
1040
24.587821
1040
45.798504
1040
24.591816
1070
     1
1040
45.798504
1040
24.591816
1040
45.612568
1040
24.583703
1070
     1
1040
45.612568
1040
24.583703
1040
45.457926
1040
24.566274
1070
     1
1040
45.457926
1040
24.566274
1040
45.304716
1040
24.539482
1070
     1
1040
45.304716
1040
24.539482
1040
45.183805
1040
24.511135
1070
     1
1040
45.183805
1040
24.511135
1040
45.005799
1040
24.45603
1070
     1
1040
45.005799
1040
24.45603
1040
44.890434
1040
24.410518
1070
     1
1040
44.890434
1040
24.410518
1040
44.777817
1040
24.358198
1070
     1
1040
44.777817
1040
24.358198
1040
44.668264
1040
24.29958
1070
     1
1040
44.668264
1040
24.29958
1040
44.459623
1040
24.165494
1070
     1
1040
44.459623
1040
24.165494
1040
44.459623
1040
24.508394
1070
     1
1040
44.459623
1040
24.508394
1040
42.732973
1040
24.508394
1071
        0
1070
     0
1070
     1
1040
0.0
1040
0.062992
1070
     0
1070
     1
1040
0.785398
1040
-6.22517
1040
-28.624349
1040
-0.141421
1040
0.141421
1070
     0
1071
        1
1040
-6.22517
1040
-28.624349
1040
0.0
1002
}
  0
LINE
  5
78
100
AcDbEntity
  8
CARTOUCHE
  6
CONTINUOUS
 62
     4
100
AcDbLine
 10
42.732973
 20
20.632094
 30
0.0
 11
42.732973
 21
24.508394
 31
0.0
  0
LINE
  5
79
100
AcDbEntity
  8
CARTOUCHE
  6
CONTINUOUS
 62
     4
100
AcDbLine
 10
44.459623
 20
22.782194
 30
0.0
 11
44.459623
 21
20.632094
 31
0.0
  0
LINE
  5
7A
100
AcDbEntity
  8
CARTOUCHE
  6
CONTINUOUS
 62
     4
100
AcDbLine
 10
44.459623
 20
20.632094
 30
0.0
 11
42.732973
 21
20.632094
 31
0.0
  0
LINE
  5
7B
100
AcDbEntity
  8
CARTOUCHE
  6
CONTINUOUS
 62
     4
100
AcDbLine
 10
42.732973
 20
24.508394
 30
0.0
 11
44.459623
 21
24.508394
 31
0.0
  0
LINE
  5
7C
100
AcDbEntity
  8
CARTOUCHE
  6
CONTINUOUS
 62
     4
100
AcDbLine
 10
40.343023
 20
21.855644
 30
0.0
 11
42.103873
 21
21.855644
 31
0.0
  0
SPLINE
  5
7D
100
AcDbEntity
  8
CARTOUCHE
  6
CONTINUOUS
 62
     4
100
AcDbSpline
210
0.0
220
0.0
230
-1.0
 70
     8
 71
     3
 72
    20
 73
    16
 74
    14
 42
0.0000001
 43
0.0000001
 44
0.000001
 12
0.1358608544273129
 22
0.9907279284618359
 32
0.0
 13
-0.8123777522852272
 23
-0.583131535412039
 33
0.0
 40
0.0
 40
0.0
 40
0.0
 40
0.0
 40
0.3099164094844504
 40
0.620115935849634
 40
0.9308830016378429
 40
1.240782440235695
 40
1.550958544551884
 40
1.861841568787858
 40
2.170989242543665
 40
2.482794625570478
 40
2.792567094310104
 40
3.102412505173151
 40
3.413423989889623
 40
3.723771516235911
 40
4.342414481743269
 40
4.342414481743269
 40
4.342414481743269
 40
4.342414481743269
 10
47.28382297621251
 20
22.58779360711669
 30
0.0
 10
47.29785814561036
 20
22.69014122123831
 30
0.0
 10
47.31442412809633
 20
22.89676939405084
 30
0.0
 10
47.3009300446424
 20
23.20747589800257
 30
0.0
 10
47.25565471224022
 20
23.51474414590117
 30
0.0
 10
47.17620454100132
 20
23.81641630141703
 30
0.0
 10
47.02732837572081
 20
24.0924084229208
 30
0.0
 10
46.81020876026039
 20
24.32073903095973
 30
0.0
 10
46.53096593187423
 20
24.46673548372093
 30
0.0
 10
46.23076173615316
 20
24.54812143120015
 30
0.0
 10
45.92302812013527
 20
24.59724620003242
 30
0.0
 10
45.61154982347273
 20
24.58971058619114
 30
0.0
 10
45.30365644994705
 20
24.5459331430227
 30
0.0
 10
44.90384885766133
 20
24.43649450290007
 30
0.0
 10
44.62714690347446
 20
24.28574368123275
 30
0.0
 10
44.45962297621249
 20
24.16549360711669
 30
0.0
 11
47.28382297621251
 21
22.58779360711669
 31
0.0
 11
47.3080338234398
 21
22.8967638790771
 31
0.0
 11
47.29564801913904
 21
23.20671600883972
 31
0.0
 11
47.24989999164073
 21
23.51409730955235
 31
0.0
 11
47.16468005782961
 21
23.81204898160464
 31
0.0
 11
47.01605698726017
 21
24.08429955967585
 31
0.0
 11
46.79947591694869
 21
24.30732619143858
 31
0.0
 11
46.52824151124928
 21
24.45566419975128
 31
0.0
 11
46.22887996193932
 21
24.5428722112578
 31
0.0
 11
45.92238599753447
 21
24.58782115591738
 31
0.0
 11
45.61256799206709
 21
24.58370341795764
 31
0.0
 11
45.3047164351297
 21
24.53948194901727
 31
0.0
 11
45.00579935951135
 21
24.45603046599671
 31
0.0
 11
44.45962297621249
 21
24.16549360711669
 31
0.0
  0
LINE
  5
7E
100
AcDbEntity
  8
CARTOUCHE
  6
CONTINUOUS
 62
     4
100
AcDbLine
 10
47.283823
 20
22.587794
 30
0.0
 11
45.454573
 21
22.587794
 31
0.0
  0
SPLINE
  5
7F
100
AcDbEntity
  8
CARTOUCHE
  6
CONTINUOUS
 62
     4
100
AcDbSpline
210
0.0
220
0.0
230
-1.0
 70
     8
 71
     3
 72
    14
 73
    10
 74
     8
 42
0.0000001
 43
0.0000001
 44
0.000001
 12
0.0554704849890783
 22
0.9984603273516061
 32
0.0
 13
-0.0466631639368038
 23
-0.9989106812580427
 33
0.0
 40
0.0
 40
0.0
 40
0.0
 40
0.0
 40
0.2162139231727977
 40
0.4333925507518398
 40
0.6499496526662421
 40
0.8697430299868365
 40
1.087237840365025
 40
1.304827906875886
 40
1.522316014566312
 40
1.522316014566312
 40
1.522316014566312
 40
1.522316014566312
 10
45.4545729762125
 20
22.82764360711668
 30
0.0
 10
45.45857080660576
 20
22.89960394861971
 30
0.0
 10
45.4264083633415
 20
23.04880721389077
 30
0.0
 10
45.27439513245806
 20
23.21580478488278
 30
0.0
 10
45.06187418617559
 20
23.29256557144738
 30
0.0
 10
44.83996015173
 20
23.2734915919662
 30
0.0
 10
44.63539375174635
 20
23.17927808332161
 30
0.0
 10
44.50069195487549
 20
22.99887927082835
 30
0.0
 10
44.46300587062029
 20
22.85461067172287
 30
0.0
 10
44.45962297621247
 20
22.78219360711668
 30
0.0
 11
45.4545729762125
 21
22.82764360711668
 31
0.0
 11
45.40925657835891
 21
23.03905624439607
 31
0.0
 11
45.2643208173426
 21
23.20079736409237
 31
0.0
 11
45.06139949806013
 21
23.27642755731508
 31
0.0
 11
44.84216559415751
 21
23.2607549970325
 31
0.0
 11
44.64694347697346
 21
23.16487840855711
 31
0.0
 11
44.51370731348553
 21
22.99285063220138
 31
0.0
 11
44.45962297621247
 21
22.78219360711668
 31
0.0
  0
LINE
  5
80
100
AcDbEntity
  8
CARTOUCHE
  6
CONTINUOUS
 62
     4
100
AcDbLine
 10
45.454573
 20
22.587794
 30
0.0
 11
45.454573
 21
22.827644
 31
0.0
  0
LINE
  5
81
100
AcDbEntity
  8
CARTOUCHE
  6
CONTINUOUS
 62
     4
100
AcDbLine
 10
44.459623
 20
24.508394
 30
0.0
 11
44.459623
 21
24.165494
 31
0.0
  0
TEXT
  5
82
100
AcDbEntity
  8
CARTOUCHE
  6
CONTINUOUS
 62
     1
100
AcDbText
 10
75.188142
 20
11.776279
 30
0.0
 40
2.1
  1
0
 50
359.999908
 41
0.8
  7
FINDER
 72
     1
 11
75.833326
 21
11.776278
 31
0.0
100
AcDbText
  0
TEXT
  5
83
100
AcDbEntity
  8
CARTOUCHE
  6
CONTINUOUS
 62
     7
100
AcDbText
 10
73.494063
 20
16.624305
 30
0.0
 40
1.8
  1
REV.
 50
359.999908
 41
0.8
  7
FINDER
 72
     1
 11
75.833326
 21
16.624301
 31
0.0
100
AcDbText
  0
LINE
  5
84
100
AcDbEntity
  8
CARTOUCHE
  6
CONTINUOUS
 62
     7
100
AcDbLine
 10
101.666651
 20
20.002966
 30
0.0
 11
101.666651
 21
10.001024
 31
0.0
  0
TEXT
  5
53A
100
AcDbEntity
  8
CARTOUCHE
  6
CONTINUOUS
 62
     7
100
AcDbText
 10
119.722419
 20
32.435966
 30
0.0
 40
1.8
  1
PRODUCT TYPE
 50
359.999908
 41
0.8
  7
FINDER
 72
     1
 11
127.499991
 21
32.435954
 31
0.0
100
AcDbText
  0
TEXT
  5
53B
100
AcDbEntity
  8
CARTOUCHE
  6
CONTINUOUS
 62
     1
100
AcDbText
 10
123.789486
 20
22.43596
 30
0.0
 40
3.0
  1
9402
 50
359.999908
 41
0.8
  7
FINDER
 72
     1
 11
127.499991
 21
22.435954
 31
0.0
100
AcDbText
  0
TEXT
  5
53C
100
AcDbEntity
  8
CARTOUCHE
  6
CONTINUOUS
 62
     1
100
AcDbText
 10
121.646907
 20
11.776208
 30
0.0
 40
2.1
  1
01/01/2001
 50
359.999908
 41
0.8
  7
FINDER
 72
     1
 11
127.499977
 21
11.776199
 31
0.0
100
AcDbText
  0
TEXT
  5
53D
100
AcDbEntity
  8
CARTOUCHE
  6
CONTINUOUS
 62
     7
100
AcDbText
 10
124.919567
 20
16.624226
 30
0.0
 40
1.8
  1
DATE
 50
359.999908
 41
0.8
  7
FINDER
 72
     1
 11
127.499977
 21
16.624222
 31
0.0
100
AcDbText
  0
LINE
  5
53E
100
AcDbEntity
  8
CARTOUCHE
  6
CONTINUOUS
 62
     7
100
AcDbLine
 10
153.33333
 20
20.002887
 30
0.0
 11
153.33333
 21
10.000945
 31
0.0
  0
TEXT
  5
53F
100
AcDbEntity
  8
CARTOUCHE
  6
CONTINUOUS
 62
     1
100
AcDbText
 10
177.623026
 20
11.776122
 30
0.0
 40
2.1
  1
1:1
 50
359.999908
 41
0.8
  7
FINDER
 72
     1
 11
179.166655
 21
11.77612
 31
0.0
100
AcDbText
  0
TEXT
  5
540
100
AcDbEntity
  8
CARTOUCHE
  6
CONTINUOUS
 62
     7
100
AcDbText
 10
175.87705
 20
16.624148
 30
0.0
 40
1.8
  1
SCALE
 50
359.999908
 41
0.8
  7
FINDER
 72
     1
 11
179.166655
 21
16.624143
 31
0.0
100
AcDbText
  0
LINE
  5
21E1
100
AcDbEntity
  8
DRAW
100
AcDbLine
 10
169.97596
 20
173.796829
 30
0.0
 11
169.97596
 21
163.529648
 31
0.0
1001
ACAD
1000
ASC_BOUNDS
1002
{
1070
    19
1005
0
1002
}
  0
LINE
  5
21E2
100
AcDbEntity
  8
DRAW
100
AcDbLine
 10
164.97271
 20
173.796829
 30
0.0
 11
164.97271
 21
164.790979
 31
0.0
1001
ACAD
1000
ASC_BOUNDS
1002
{
1070
    19
1005
0
1002
}
  0
LINE
  5
21E3
100
AcDbEntity
  8
DRAW
100
AcDbLine
 10
137.97516
 20
145.470507
 30
0.0
 11
137.97516
 21
181.063517
 31
0.0
  0
LINE
  5
21E4
100
AcDbEntity
  8
DRAW
100
AcDbLine
 10
137.97516
 20
178.061567
 30
0.0
 11
137.97516
 21
150.442262
 31
0.0
  0
LINE
  5
21E5
100
AcDbEntity
  8
DRAW
100
AcDbLine
 10
74.135778
 20
167.904326
 30
0.0
 11
74.135778
 21
169.482702
 31
0.0
  0
LINE
  5
21E6
100
AcDbEntity
  8
DRAW
100
AcDbLine
 10
79.539288
 20
174.297154
 30
0.0
 11
79.539288
 21
163.039841
 31
0.0
  0
LINE
  5
21E7
100
AcDbEntity
  8
DRAW
100
AcDbLine
 10
76.837533
 20
173.796829
 30
0.0
 11
76.837533
 21
164.25488
 31
0.0
  0
LINE
  5
21E8
100
AcDbEntity
  8
DRAW
100
AcDbLine
 10
71.133828
 20
167.904326
 30
0.0
 11
71.133828
 21
169.482702
 31
0.0
  0
LINE
  5
21E9
100
AcDbEntity
  8
DRAW
100
AcDbLine
 10
69.732918
 20
167.904326
 30
0.0
 11
69.732918
 21
169.482702
 31
0.0
  0
LINE
  5
21EA
100
AcDbEntity
  8
DRAW
100
AcDbLine
 10
62.328108
 20
167.904326
 30
0.0
 11
62.328108
 21
169.482702
 31
0.0
  0
LINE
  5
21EB
100
AcDbEntity
  8
DRAW
100
AcDbLine
 10
66.730968
 20
167.904326
 30
0.0
 11
66.730968
 21
169.482702
 31
0.0
  0
LINE
  5
21EC
100
AcDbEntity
  8
DRAW
100
AcDbLine
 10
65.330058
 20
167.904326
 30
0.0
 11
65.330058
 21
169.482702
 31
0.0
  0
LINE
  5
21ED
100
AcDbEntity
  8
DRAW
100
AcDbLine
 10
60.927198
 20
167.904326
 30
0.0
 11
60.927198
 21
169.482702
 31
0.0
  0
LINE
  5
21EE
100
AcDbEntity
  8
DRAW
100
AcDbLine
 10
57.925248
 20
167.904326
 30
0.0
 11
57.925248
 21
169.482702
 31
0.0
  0
LINE
  5
21EF
100
AcDbEntity
  8
DRAW
100
AcDbLine
 10
52.521738
 20
174.297154
 30
0.0
 11
52.521738
 21
163.039841
 31
0.0
  0
LINE
  5
21F0
100
AcDbEntity
  8
DRAW
100
AcDbLine
 10
55.223493
 20
173.796829
 30
0.0
 11
55.223493
 21
164.25488
 31
0.0
  0
LINE
  5
21F2
100
AcDbEntity
  8
DRAW
100
AcDbLine
 10
57.925248
 20
168.193189
 30
0.0
 11
60.927198
 21
168.193189
 31
0.0
  0
LINE
  5
21F3
100
AcDbEntity
  8
DRAW
100
AcDbLine
 10
60.927198
 20
167.904326
 30
0.0
 11
57.925248
 21
167.904326
 31
0.0
  0
LINE
  5
21F4
100
AcDbEntity
  8
DRAW
100
AcDbLine
 10
57.925248
 20
169.193839
 30
0.0
 11
60.927198
 21
169.193839
 31
0.0
  0
LINE
  5
21F5
100
AcDbEntity
  8
DRAW
100
AcDbLine
 10
57.925248
 20
165.091174
 30
0.0
 11
60.927198
 21
165.091174
 31
0.0
  0
LINE
  5
21F6
100
AcDbEntity
  8
DRAW
100
AcDbLine
 10
57.925248
 20
164.090524
 30
0.0
 11
60.927198
 21
164.090524
 31
0.0
  0
LINE
  5
21F7
100
AcDbEntity
  8
DRAW
100
AcDbLine
 10
60.927198
 20
163.801661
 30
0.0
 11
57.925248
 21
163.801661
 31
0.0
  0
LINE
  5
21F8
100
AcDbEntity
  8
DRAW
100
AcDbLine
 10
60.927198
 20
165.380037
 30
0.0
 11
57.925248
 21
165.380037
 31
0.0
  0
LINE
  5
21F9
100
AcDbEntity
  8
DRAW
100
AcDbLine
 10
57.140331
 20
163.029323
 30
0.0
 11
74.920696
 21
163.029323
 31
0.0
  0
LINE
  5
21FA
100
AcDbEntity
  8
DRAW
100
AcDbLine
 10
74.536038
 20
162.439451
 30
0.0
 11
57.524988
 21
162.439451
 31
0.0
  0
LINE
  5
21FB
100
AcDbEntity
  8
DRAW
100
AcDbLine
 10
57.140331
 20
159.84828
 30
0.0
 11
74.920696
 21
159.84828
 31
0.0
  0
LINE
  5
21FC
100
AcDbEntity
  8
DRAW
100
AcDbLine
 10
57.524988
 20
160.438151
 30
0.0
 11
74.536038
 21
160.438151
 31
0.0
1001
ACAD
1000
ASC_BOUNDS
1002
{
1070
    19
1002
}
  0
LINE
  5
21FD
100
AcDbEntity
  8
DRAW
100
AcDbLine
 10
60.927198
 20
152.721814
 30
0.0
 11
57.925248
 21
152.721814
 31
0.0
  0
LINE
  5
21FE
100
AcDbEntity
  8
DRAW
100
AcDbLine
 10
57.925248
 20
152.432951
 30
0.0
 11
60.927198
 21
152.432951
 31
0.0
  0
LINE
  5
21FF
100
AcDbEntity
  8
DRAW
100
AcDbLine
 10
57.925248
 20
158.787079
 30
0.0
 11
60.927198
 21
158.787079
 31
0.0
  0
LINE
  5
2200
100
AcDbEntity
  8
DRAW
100
AcDbLine
 10
57.925248
 20
157.786429
 30
0.0
 11
60.927198
 21
157.786429
 31
0.0
  0
LINE
  5
2201
100
AcDbEntity
  8
DRAW
100
AcDbLine
 10
60.927198
 20
157.497566
 30
0.0
 11
57.925248
 21
157.497566
 31
0.0
  0
LINE
  5
2202
100
AcDbEntity
  8
DRAW
100
AcDbLine
 10
60.927198
 20
159.075942
 30
0.0
 11
57.925248
 21
159.075942
 31
0.0
  0
LINE
  5
2203
100
AcDbEntity
  8
DRAW
100
AcDbLine
 10
57.925248
 20
151.432301
 30
0.0
 11
60.927198
 21
151.432301
 31
0.0
  0
LINE
  5
2204
100
AcDbEntity
  8
DRAW
100
AcDbLine
 10
60.927198
 20
151.143439
 30
0.0
 11
57.925248
 21
151.143439
 31
0.0
  0
TEXT
  5
2205
100
AcDbEntity
  8
DRAW-TEXT
100
AcDbText
 10
57.694336
 20
132.823285
 30
0.0
 40
1.80117
  1
14
 41
0.6
  7
HELVETICAR
 72
     4
 11
58.485327
 21
133.727556
 31
0.0
100
AcDbText
  0
LINE
  5
2206
100
AcDbEntity
  8
DRAW
100
AcDbLine
 10
64.979831
 20
143.377069
 30
0.0
 11
58.025313
 21
143.377069
 31
0.0
  0
LINE
  5
2207
100
AcDbEntity
  8
DRAW
100
AcDbLine
 10
64.979831
 20
144.277654
 30
0.0
 11
53.022063
 21
144.277654
 31
0.0
  0
LINE
  5
2208
100
AcDbEntity
  8
DRAW
100
AcDbLine
 10
74.035713
 20
137.173039
 30
0.0
 11
58.025313
 21
137.173039
 31
0.0
  0
TEXT
  5
2209
100
AcDbEntity
  8
DRAW-TEXT
100
AcDbText
 10
57.604397
 20
128.423411
 30
0.0
 40
1.80117
  1
A2
 41
0.6
  7
HELVETICAR
 72
     4
 11
58.486798
 21
129.327682
 31
0.0
100
AcDbText
  0
LINE
  5
220A
100
AcDbEntity
  8
DRAW
100
AcDbLine
 10
52.521738
 20
127.568872
 30
0.0
 11
65.598181
 21
127.568872
 31
0.0
  0
LINE
  5
220B
100
AcDbEntity
  8
DRAW
100
AcDbLine
 10
62.978531
 20
124.11768
 30
0.0
 11
58.025313
 21
124.11768
 31
0.0
  0
LINE
  5
220C
100
AcDbEntity
  8
DRAW
100
AcDbLine
 10
53.022063
 20
126.568222
 30
0.0
 11
79.038963
 21
126.568222
 31
0.0
  0
LINE
  5
220D
100
AcDbEntity
  8
DRAW
100
AcDbLine
 10
58.025313
 20
143.377069
 30
0.0
 11
58.025313
 21
137.173039
 31
0.0
  0
LINE
  5
220E
100
AcDbEntity
  8
DRAW
100
AcDbLine
 10
52.521738
 20
143.777329
 30
0.0
 11
52.521738
 21
127.068547
 31
0.0
  0
LINE
  5
220F
100
AcDbEntity
  8
DRAW
100
AcDbLine
 10
58.025313
 20
124.11768
 30
0.0
 11
58.025313
 21
126.568222
 31
0.0
  0
ARC
  5
2210
100
AcDbEntity
  8
DRAW
100
AcDbCircle
 10
53.022063
 20
127.068547
 30
0.0
 40
0.500325
100
AcDbArc
 50
180.0
 51
270.0
  0
LINE
  5
2211
100
AcDbEntity
  8
DRAW
100
AcDbLine
 10
54.849602
 20
126.583424
 30
0.0
 11
55.023363
 21
127.568872
 31
0.0
  0
LINE
  5
2212
100
AcDbEntity
  8
DRAW
100
AcDbLine
 10
55.223493
 20
158.622723
 30
0.0
 11
55.223493
 21
144.277654
 31
0.0
  0
LINE
  5
2213
100
AcDbEntity
  8
DRAW
100
AcDbLine
 10
52.521738
 20
159.837761
 30
0.0
 11
52.521738
 21
143.777329
 31
0.0
  0
ARC
  5
2214
100
AcDbEntity
  8
DRAW
100
AcDbCircle
 10
53.022063
 20
143.777329
 30
0.0
 40
0.500325
100
AcDbArc
 50
90.0
 51
180.0
  0
LINE
  5
2215
100
AcDbEntity
  8
DRAW
100
AcDbLine
 10
53.722518
 20
148.430351
 30
0.0
 11
53.722518
 21
147.429701
 31
0.0
  0
LINE
  5
2216
100
AcDbEntity
  8
DRAW
100
AcDbLine
 10
53.722518
 20
149.431001
 30
0.0
 11
53.722518
 21
148.430351
 31
0.0
  0
ARC
  5
2217
100
AcDbEntity
  8
DRAW
100
AcDbCircle
 10
52.972031
 20
148.430351
 30
0.0
 40
1.250813
100
AcDbArc
 50
306.869898
 51
53.130102
  0
LINE
  5
2218
100
AcDbEntity
  8
DRAW
100
AcDbLine
 10
53.722518
 20
147.429701
 30
0.0
 11
55.223493
 21
147.429701
 31
0.0
  0
LINE
  5
2219
100
AcDbEntity
  8
DRAW
100
AcDbLine
 10
53.722518
 20
149.431001
 30
0.0
 11
55.223493
 21
149.431001
 31
0.0
  0
LINE
  5
221A
100
AcDbEntity
  8
DRAW
100
AcDbLine
 10
57.925248
 20
151.143439
 30
0.0
 11
57.925248
 21
152.721814
 31
0.0
  0
LINE
  5
221B
100
AcDbEntity
  8
DRAW
100
AcDbLine
 10
57.524988
 20
160.438151
 30
0.0
 11
57.524988
 21
162.439451
 31
0.0
  0
ARC
  5
221C
100
AcDbEntity
  8
DRAW
100
AcDbCircle
 10
54.783201
 20
161.438801
 30
0.0
 40
1.60104
100
AcDbArc
 50
270.0
 51
90.0
  0
LINE
  5
221D
100
AcDbEntity
  8
DRAW
100
AcDbLine
 10
57.524988
 20
160.438151
 30
0.0
 11
57.140331
 21
159.84828
 31
0.0
  0
LINE
  5
221E
100
AcDbEntity
  8
DRAW
100
AcDbLine
 10
54.783201
 20
159.837761
 30
0.0
 11
52.521738
 21
159.837761
 31
0.0
  0
LINE
  5
221F
100
AcDbEntity
  8
DRAW
100
AcDbLine
 10
57.925248
 20
157.497566
 30
0.0
 11
57.925248
 21
159.075942
 31
0.0
  0
LINE
  5
2220
100
AcDbEntity
  8
DRAW
100
AcDbLine
 10
54.773201
 20
158.586949
 30
0.0
 11
52.521738
 21
158.586949
 31
0.0
  0
ARC
  5
2221
100
AcDbEntity
  8
DRAW
100
AcDbCircle
 10
54.773201
 20
161.438801
 30
0.0
 40
2.851853
100
AcDbArc
 50
270.0
 51
326.102067
  0
LINE
  5
2222
100
AcDbEntity
  8
DRAW
100
AcDbLine
 10
57.925248
 20
163.801661
 30
0.0
 11
57.925248
 21
165.380037
 31
0.0
  0
LINE
  5
2223
100
AcDbEntity
  8
DRAW
100
AcDbLine
 10
57.524988
 20
162.439451
 30
0.0
 11
57.140331
 21
163.029323
 31
0.0
  0
LINE
  5
2224
100
AcDbEntity
  8
DRAW
100
AcDbLine
 10
54.773201
 20
164.290654
 30
0.0
 11
52.521738
 21
164.290654
 31
0.0
  0
LINE
  5
2225
100
AcDbEntity
  8
DRAW
100
AcDbLine
 10
54.783201
 20
163.039841
 30
0.0
 11
52.521738
 21
163.039841
 31
0.0
  0
ARC
  5
2226
100
AcDbEntity
  8
DRAW
100
AcDbCircle
 10
54.773201
 20
161.438801
 30
0.0
 40
2.851853
100
AcDbArc
 50
33.897933
 51
90.0
  0
LINE
  5
2229
100
AcDbEntity
  8
DRAW
100
AcDbLine
 10
137.97516
 20
160.338086
 30
0.0
 11
161.77063
 21
160.338086
 31
0.0
  0
LINE
  5
222A
100
AcDbEntity
  8
DRAW
100
AcDbLine
 10
137.97516
 20
163.540166
 30
0.0
 11
161.77063
 21
163.540166
 31
0.0
  0
LINE
  5
222B
100
AcDbEntity
  8
DRAW
100
AcDbLine
 10
134.472885
 20
126.568222
 30
0.0
 11
151.98426
 21
126.568222
 31
0.0
1001
ACAD
1000
ASC_BOUNDS
1002
{
1070
    19
1002
}
  0
LINE
  5
222C
100
AcDbEntity
  8
DRAW
100
AcDbLine
 10
134.472885
 20
126.568222
 30
0.0
 11
165.473035
 21
126.568222
 31
0.0
  0
LINE
  5
222E
100
AcDbEntity
  8
DRAW
100
AcDbLine
 10
134.472885
 20
145.470507
 30
0.0
 11
134.472885
 21
137.925632
 31
0.0
1001
ACAD
1000
ASC_BOUNDS
1002
{
1070
    19
1002
}
  0
LINE
  5
222F
100
AcDbEntity
  8
DRAW
100
AcDbLine
 10
74.035713
 20
143.377069
 30
0.0
 11
74.035713
 21
137.173039
 31
0.0
  0
POLYLINE
  5
2230
100
AcDbEntity
  8
DRAW
100
AcDb2dPolyline
 66
     1
 10
0.0
 20
0.0
 30
0.0
 70
     1
  0
VERTEX
  5
2F17
100
AcDbEntity
  8
DRAW
100
AcDbVertex
100
AcDb2dVertex
 10
63.632051
 20
137.673364
 30
0.0
  0
VERTEX
  5
2F18
100
AcDbEntity
  8
DRAW
100
AcDbVertex
100
AcDb2dVertex
 10
63.632051
 20
142.876744
 30
0.0
  0
VERTEX
  5
2F19
100
AcDbEntity
  8
DRAW
100
AcDbVertex
100
AcDb2dVertex
 10
65.233091
 20
142.876744
 30
0.0
  0
VERTEX
  5
2F1A
100
AcDbEntity
  8
DRAW
100
AcDbVertex
100
AcDb2dVertex
 10
65.233091
 20
137.673364
 30
0.0
  0
SEQEND
  5
2F1B
100
AcDbEntity
  8
DRAW
  0
LINE
  5
2231
100
AcDbEntity
  8
DRAW
100
AcDbLine
 10
134.472885
 20
145.470507
 30
0.0
 11
134.472885
 21
126.568222
 31
0.0
  0
LINE
  5
2232
100
AcDbEntity
  8
DRAW
100
AcDbLine
 10
79.539288
 20
143.777329
 30
0.0
 11
79.539288
 21
127.068547
 31
0.0
  0
TEXT
  5
2234
100
AcDbEntity
  8
DRAW-TEXT
100
AcDbText
 10
76.407995
 20
132.849355
 30
0.0
 40
1.80117
  1
O
 41
0.6
  7
HELVETICAR
 72
     4
 11
76.997736
 21
133.750555
 31
0.0
100
AcDbText
  0
TEXT
  5
2235
100
AcDbEntity
  8
DRAW-TEXT
100
AcDbText
 10
76.444853
 20
135.0514
 30
0.0
 40
1.80117
  1
C
 41
0.6
  7
HELVETICAR
 72
     4
 11
76.997736
 21
135.951985
 31
0.0
100
AcDbText
  0
TEXT
  5
2236
100
AcDbEntity
  8
DRAW-TEXT
100
AcDbText
 10
76.643891
 20
128.44711
 30
0.0
 40
1.80117
  1
L
 41
0.6
  7
HELVETICAR
 72
     4
 11
76.997736
 21
129.347695
 31
0.0
100
AcDbText
  0
LINE
  5
2237
100
AcDbEntity
  8
DRAW
100
AcDbLine
 10
66.462845
 20
127.568872
 30
0.0
 11
79.539288
 21
127.568872
 31
0.0
  0
CIRCLE
  5
2238
100
AcDbEntity
  8
DRAW
100
AcDbCircle
 10
62.278076
 20
131.27131
 30
0.0
 40
2.5
  0
CIRCLE
  5
2239
100
AcDbEntity
  8
DRAW
100
AcDbCircle
 10
69.782951
 20
131.27131
 30
0.0
 40
2.5
  0
TEXT
  5
223A
100
AcDbEntity
  8
DRAW-TEXT
100
AcDbText
 10
76.785429
 20
130.64854
 30
0.0
 40
1.80117
  1
I
 41
0.6
  7
HELVETICAR
 72
     4
 11
76.997736
 21
131.549125
 31
0.0
100
AcDbText
  0
LINE
  5
223D
100
AcDbEntity
  8
DRAW
100
AcDbLine
 10
67.855372
 20
126.568222
 30
0.0
 11
68.031813
 21
127.568872
 31
0.0
  0
LINE
  5
223E
100
AcDbEntity
  8
DRAW
100
AcDbLine
 10
62.978531
 20
124.11768
 30
0.0
 11
72.034413
 21
124.11768
 31
0.0
  0
POLYLINE
  5
223F
100
AcDbEntity
  8
DRAW
100
AcDb2dPolyline
 66
     1
 10
0.0
 20
0.0
 30
0.0
 70
     1
  0
VERTEX
  5
2F1C
100
AcDbEntity
  8
DRAW
100
AcDbVertex
100
AcDb2dVertex
 10
64.109447
 20
125.661396
 30
0.0
  0
VERTEX
  5
2F1D
100
AcDbEntity
  8
DRAW
100
AcDbVertex
100
AcDb2dVertex
 10
64.109447
 20
124.695307
 30
0.0
  0
VERTEX
  5
2F1E
100
AcDbEntity
  8
DRAW
100
AcDbVertex
100
AcDb2dVertex
 10
67.881565
 20
124.695307
 30
0.0
  0
VERTEX
  5
2F1F
100
AcDbEntity
  8
DRAW
100
AcDbVertex
100
AcDb2dVertex
 10
67.881565
 20
125.661396
 30
0.0
  0
SEQEND
  5
2F20
100
AcDbEntity
  8
DRAW
  0
LINE
  5
2240
100
AcDbEntity
  8
DRAW
100
AcDbLine
 10
64.205655
 20
126.568222
 30
0.0
 11
64.029213
 21
127.568872
 31
0.0
  0
LINE
  5
2241
100
AcDbEntity
  8
DRAW
100
AcDbLine
 10
66.730968
 20
126.568222
 30
0.0
 11
65.330058
 21
126.568222
 31
0.0
  0
LINE
  5
2242
100
AcDbEntity
  8
DRAW
100
AcDbLine
 10
65.330058
 20
126.568222
 30
0.0
 11
65.598181
 21
127.568872
 31
0.0
  0
LINE
  5
2243
100
AcDbEntity
  8
DRAW
100
AcDbLine
 10
66.730968
 20
126.568222
 30
0.0
 11
66.462845
 21
127.568872
 31
0.0
  0
LINE
  5
2244
100
AcDbEntity
  8
DRAW
100
AcDbLine
 10
60.350497
 20
126.568222
 30
0.0
 11
60.526938
 21
127.568872
 31
0.0
  0
LINE
  5
2245
100
AcDbEntity
  8
DRAW
100
AcDbLine
 10
58.699399
 20
126.583424
 30
0.0
 11
58.525638
 21
127.568872
 31
0.0
  0
LINE
  5
2246
100
AcDbEntity
  8
DRAW
100
AcDbLine
 10
77.211424
 20
126.583424
 30
0.0
 11
77.037663
 21
127.568872
 31
0.0
  0
LINE
  5
2247
100
AcDbEntity
  8
DRAW
100
AcDbLine
 10
74.035713
 20
124.11768
 30
0.0
 11
74.035713
 21
126.568222
 31
0.0
  0
LINE
  5
2248
100
AcDbEntity
  8
DRAW
100
AcDbLine
 10
71.71053
 20
126.568222
 30
0.0
 11
71.534088
 21
127.568872
 31
0.0
  0
TEXT
  5
2249
100
AcDbEntity
  8
DRAW-TEXT
100
AcDbText
 10
72.616198
 20
128.423411
 30
0.0
 40
1.80117
  1
A1
 41
0.6
  7
HELVETICAR
 72
     4
 11
73.494176
 21
129.327682
 31
0.0
100
AcDbText
  0
LINE
  5
224A
100
AcDbEntity
  8
DRAW
100
AcDbLine
 10
72.034413
 20
124.11768
 30
0.0
 11
74.035713
 21
124.11768
 31
0.0
  0
LINE
  5
224B
100
AcDbEntity
  8
DRAW
100
AcDbLine
 10
73.358947
 20
126.568222
 30
0.0
 11
73.535388
 21
127.568872
 31
0.0
  0
TEXT
  5
224C
100
AcDbEntity
  8
DRAW-TEXT
100
AcDbText
 10
72.702444
 20
132.839257
 30
0.0
 40
1.80117
  1
13
 41
0.6
  7
HELVETICAR
 72
     4
 11
73.495647
 21
133.727556
 31
0.0
100
AcDbText
  0
ARC
  5
224D
100
AcDbEntity
  8
DRAW
100
AcDbCircle
 10
79.038963
 20
127.068547
 30
0.0
 40
0.500325
100
AcDbArc
 50
270.0
 51
0.0
  0
POLYLINE
  5
224E
100
AcDbEntity
  8
DRAW
100
AcDb2dPolyline
 66
     1
 10
0.0
 20
0.0
 30
0.0
 70
     1
  0
VERTEX
  5
2F21
100
AcDbEntity
  8
DRAW
100
AcDbVertex
100
AcDb2dVertex
 10
138.475485
 20
129.265769
 30
0.0
  0
VERTEX
  5
2F22
100
AcDbEntity
  8
DRAW
100
AcDbVertex
100
AcDb2dVertex
 10
138.475485
 20
133.268369
 30
0.0
  0
VERTEX
  5
2F23
100
AcDbEntity
  8
DRAW
100
AcDbVertex
100
AcDb2dVertex
 10
136.474185
 20
133.268369
 30
0.0
  0
VERTEX
  5
2F24
100
AcDbEntity
  8
DRAW
100
AcDbVertex
100
AcDb2dVertex
 10
136.474185
 20
129.265769
 30
0.0
  0
SEQEND
  5
2F25
100
AcDbEntity
  8
DRAW
  0
LINE
  5
224F
100
AcDbEntity
  8
DRAW
100
AcDbLine
 10
134.472885
 20
136.924982
 30
0.0
 11
134.472885
 21
124.017615
 31
0.0
1001
ACAD
1000
ASC_BOUNDS
1002
{
1070
    19
1002
}
  0
LINE
  5
2250
100
AcDbEntity
  8
DRAW
100
AcDbLine
 10
137.97516
 20
132.67222
 30
0.0
 11
137.97516
 21
129.67027
 31
0.0
1001
ACAD
1000
ASC_BOUNDS
1002
{
1070
    19
1002
}
  0
LINE
  5
2251
100
AcDbEntity
  8
DRAW
100
AcDbLine
 10
137.074575
 20
132.67222
 30
0.0
 11
137.074575
 21
129.67027
 31
0.0
1001
ACAD
1000
ASC_BOUNDS
1002
{
1070
    19
1002
}
  0
LINE
  5
2252
100
AcDbEntity
  8
DRAW
100
AcDbLine
 10
136.57425
 20
132.67222
 30
0.0
 11
136.57425
 21
129.67027
 31
0.0
1001
ACAD
1000
ASC_BOUNDS
1002
{
1070
    19
1002
}
  0
LINE
  5
2253
100
AcDbEntity
  8
DRAW
100
AcDbLine
 10
136.57425
 20
129.67027
 30
0.0
 11
137.97516
 21
129.67027
 31
0.0
  0
LINE
  5
2254
100
AcDbEntity
  8
DRAW
100
AcDbLine
 10
137.474835
 20
126.568222
 30
0.0
 11
137.474835
 21
124.017615
 31
0.0
1001
ACAD
1000
ASC_BOUNDS
1002
{
1070
    19
1002
}
  0
LINE
  5
2255
100
AcDbEntity
  8
DRAW
100
AcDbLine
 10
135.473535
 20
124.017615
 30
0.0
 11
137.474835
 21
124.017615
 31
0.0
  0
LINE
  5
2256
100
AcDbEntity
  8
DRAW
100
AcDbLine
 10
134.472885
 20
124.017615
 30
0.0
 11
135.473535
 21
124.017615
 31
0.0
  0
LINE
  5
2257
100
AcDbEntity
  8
DRAW
100
AcDbLine
 10
136.57425
 20
132.67222
 30
0.0
 11
137.97516
 21
132.67222
 31
0.0
  0
LINE
  5
2258
100
AcDbEntity
  8
DRAW
100
AcDbLine
 10
134.472885
 20
136.924982
 30
0.0
 11
134.472885
 21
137.925632
 31
0.0
1001
ACAD
1000
ASC_BOUNDS
1002
{
1070
    19
1002
}
  0
LINE
  5
2259
100
AcDbEntity
  8
DRAW
100
AcDbLine
 10
76.837533
 20
158.622723
 30
0.0
 11
76.837533
 21
144.277654
 31
0.0
  0
LINE
  5
225C
100
AcDbEntity
  8
DRAW
100
AcDbLine
 10
79.539288
 20
159.837761
 30
0.0
 11
79.539288
 21
143.777329
 31
0.0
  0
LINE
  5
225D
100
AcDbEntity
  8
DRAW
100
AcDbLine
 10
78.338508
 20
149.431001
 30
0.0
 11
76.837533
 21
149.431001
 31
0.0
  0
LINE
  5
225E
100
AcDbEntity
  8
DRAW
100
AcDbLine
 10
78.338508
 20
147.429701
 30
0.0
 11
76.837533
 21
147.429701
 31
0.0
  0
LINE
  5
225F
100
AcDbEntity
  8
DRAW
100
AcDbLine
 10
79.038963
 20
144.277654
 30
0.0
 11
66.981131
 21
144.277654
 31
0.0
  0
LINE
  5
2260
100
AcDbEntity
  8
DRAW
100
AcDbLine
 10
66.981131
 20
143.377069
 30
0.0
 11
66.981131
 21
149.581099
 31
0.0
  0
LINE
  5
2261
100
AcDbEntity
  8
DRAW
100
AcDbLine
 10
64.979831
 20
143.377069
 30
0.0
 11
64.979831
 21
149.581099
 31
0.0
  0
LINE
  5
2262
100
AcDbEntity
  8
DRAW
100
AcDbLine
 10
66.28159
 20
139.824761
 30
0.0
 11
68.032727
 21
139.824761
 31
0.0
  0
LINE
  5
2263
100
AcDbEntity
  8
DRAW
100
AcDbLine
 10
68.032727
 20
140.825411
 30
0.0
 11
65.981395
 21
140.825411
 31
0.0
  0
LINE
  5
2264
100
AcDbEntity
  8
DRAW
100
AcDbLine
 10
65.981395
 20
139.524566
 30
0.0
 11
72.935912
 21
139.524566
 31
0.0
  0
LINE
  5
2265
100
AcDbEntity
  8
DRAW
100
AcDbLine
 10
72.935912
 20
141.125606
 30
0.0
 11
65.981395
 21
141.125606
 31
0.0
  0
LINE
  5
2266
100
AcDbEntity
  8
DRAW
100
AcDbLine
 10
74.035713
 20
143.377069
 30
0.0
 11
66.981131
 21
143.377069
 31
0.0
  0
LINE
  5
2267
100
AcDbEntity
  8
DRAW
100
AcDbLine
 10
62.87374
 20
141.125606
 30
0.0
 11
62.87374
 21
139.524566
 31
0.0
  0
LINE
  5
2268
100
AcDbEntity
  8
DRAW
100
AcDbLine
 10
66.28159
 20
139.824761
 30
0.0
 11
65.981395
 21
139.824761
 31
0.0
  0
LINE
  5
2269
100
AcDbEntity
  8
DRAW
100
AcDbLine
 10
65.981395
 20
141.125606
 30
0.0
 11
65.981395
 21
139.524566
 31
0.0
  0
LINE
  5
226A
100
AcDbEntity
  8
DRAW
100
AcDbLine
 10
59.122657
 20
139.524566
 30
0.0
 11
59.122657
 21
141.125606
 31
0.0
  0
LINE
  5
226B
100
AcDbEntity
  8
DRAW
100
AcDbLine
 10
59.122657
 20
140.825411
 30
0.0
 11
62.87374
 21
140.825411
 31
0.0
  0
LINE
  5
226C
100
AcDbEntity
  8
DRAW
100
AcDbLine
 10
62.87374
 20
139.824761
 30
0.0
 11
59.122657
 21
139.824761
 31
0.0
  0
LINE
  5
226D
100
AcDbEntity
  8
DRAW
100
AcDbLine
 10
59.122657
 20
141.125606
 30
0.0
 11
62.87374
 21
141.125606
 31
0.0
  0
LINE
  5
226E
100
AcDbEntity
  8
DRAW
100
AcDbLine
 10
62.87374
 20
139.524566
 30
0.0
 11
59.122657
 21
139.524566
 31
0.0
  0
LINE
  5
226F
100
AcDbEntity
  8
DRAW
100
AcDbLine
 10
72.935912
 20
139.524566
 30
0.0
 11
72.935912
 21
141.125606
 31
0.0
  0
LINE
  5
2270
100
AcDbEntity
  8
DRAW
100
AcDbLine
 10
68.032727
 20
139.524566
 30
0.0
 11
68.032727
 21
139.824761
 31
0.0
  0
LINE
  5
2271
100
AcDbEntity
  8
DRAW
100
AcDbLine
 10
68.933312
 20
139.524566
 30
0.0
 11
68.933312
 21
139.824761
 31
0.0
  0
LINE
  5
2272
100
AcDbEntity
  8
DRAW
100
AcDbLine
 10
68.032727
 20
140.825411
 30
0.0
 11
68.032727
 21
141.125606
 31
0.0
  0
LINE
  5
2273
100
AcDbEntity
  8
DRAW
100
AcDbLine
 10
68.933312
 20
140.825411
 30
0.0
 11
68.933312
 21
141.125606
 31
0.0
  0
LINE
  5
2274
100
AcDbEntity
  8
DRAW
100
AcDbLine
 10
72.935912
 20
140.825411
 30
0.0
 11
68.933312
 21
140.825411
 31
0.0
  0
LINE
  5
2275
100
AcDbEntity
  8
DRAW
100
AcDbLine
 10
68.933312
 20
139.824761
 30
0.0
 11
72.935912
 21
139.824761
 31
0.0
  0
LINE
  5
2277
100
AcDbEntity
  8
DRAW
100
AcDbLine
 10
66.981131
 20
149.581099
 30
0.0
 11
64.979831
 21
149.581099
 31
0.0
  0
CIRCLE
  5
2278
100
AcDbEntity
  8
DRAW
100
AcDbCircle
 10
66.030513
 20
152.402932
 30
0.0
 40
1.500975
  0
LINE
  5
2279
100
AcDbEntity
  8
DRAW
100
AcDbLine
 10
60.927198
 20
151.143439
 30
0.0
 11
60.927198
 21
152.721814
 31
0.0
  0
LINE
  5
227A
100
AcDbEntity
  8
DRAW
100
AcDbLine
 10
74.135778
 20
151.143439
 30
0.0
 11
74.135778
 21
152.721814
 31
0.0
  0
LINE
  5
227B
100
AcDbEntity
  8
DRAW
100
AcDbLine
 10
71.133828
 20
151.143439
 30
0.0
 11
71.133828
 21
152.721814
 31
0.0
  0
LINE
  5
227C
100
AcDbEntity
  8
DRAW
100
AcDbLine
 10
71.133828
 20
152.432951
 30
0.0
 11
74.135778
 21
152.432951
 31
0.0
  0
LINE
  5
227D
100
AcDbEntity
  8
DRAW
100
AcDbLine
 10
71.133828
 20
151.432301
 30
0.0
 11
74.135778
 21
151.432301
 31
0.0
  0
LINE
  5
227E
100
AcDbEntity
  8
DRAW
100
AcDbLine
 10
74.135778
 20
151.143439
 30
0.0
 11
71.133828
 21
151.143439
 31
0.0
  0
LINE
  5
227F
100
AcDbEntity
  8
DRAW
100
AcDbLine
 10
74.135778
 20
152.721814
 30
0.0
 11
71.133828
 21
152.721814
 31
0.0
  0
ARC
  5
2280
100
AcDbEntity
  8
DRAW
100
AcDbCircle
 10
79.038963
 20
143.777329
 30
0.0
 40
0.500325
100
AcDbArc
 50
0.0
 51
90.0
  0
LINE
  5
2281
100
AcDbEntity
  8
DRAW
100
AcDbLine
 10
78.338508
 20
148.430351
 30
0.0
 11
78.338508
 21
147.429701
 31
0.0
  0
LINE
  5
2282
100
AcDbEntity
  8
DRAW
100
AcDbLine
 10
78.338508
 20
149.431001
 30
0.0
 11
78.338508
 21
148.430351
 31
0.0
  0
ARC
  5
2283
100
AcDbEntity
  8
DRAW
100
AcDbCircle
 10
79.088996
 20
148.430351
 30
0.0
 40
1.250813
100
AcDbArc
 50
126.869898
 51
233.130102
  0
ARC
  5
2284
100
AcDbEntity
  8
DRAW
100
AcDbCircle
 10
77.287826
 20
161.438801
 30
0.0
 40
2.851853
100
AcDbArc
 50
90.0
 51
146.102067
  0
ARC
  5
2285
100
AcDbEntity
  8
DRAW
100
AcDbCircle
 10
77.277826
 20
161.438801
 30
0.0
 40
1.60104
100
AcDbArc
 50
90.0
 51
270.0
  0
ARC
  5
2286
100
AcDbEntity
  8
DRAW
100
AcDbCircle
 10
77.287826
 20
161.438801
 30
0.0
 40
2.851853
100
AcDbArc
 50
213.897933
 51
270.0
  0
LINE
  5
2287
100
AcDbEntity
  8
DRAW
100
AcDbLine
 10
73.535388
 20
160.438151
 30
0.0
 11
73.535388
 21
162.439451
 31
0.0
  0
LINE
  5
2288
100
AcDbEntity
  8
DRAW
100
AcDbLine
 10
74.536038
 20
160.438151
 30
0.0
 11
74.536038
 21
162.439451
 31
0.0
  0
LINE
  5
2289
100
AcDbEntity
  8
DRAW
100
AcDbLine
 10
58.525638
 20
160.438151
 30
0.0
 11
58.525638
 21
162.439451
 31
0.0
  0
LINE
  5
228C
100
AcDbEntity
  8
DRAW
100
AcDbLine
 10
69.732918
 20
157.497566
 30
0.0
 11
66.730968
 21
157.497566
 31
0.0
  0
LINE
  5
228D
100
AcDbEntity
  8
DRAW
100
AcDbLine
 10
69.732918
 20
159.075942
 30
0.0
 11
66.730968
 21
159.075942
 31
0.0
  0
LINE
  5
2290
100
AcDbEntity
  8
DRAW
100
AcDbLine
 10
65.330058
 20
157.497566
 30
0.0
 11
62.328108
 21
157.497566
 31
0.0
  0
LINE
  5
2291
100
AcDbEntity
  8
DRAW
100
AcDbLine
 10
65.330058
 20
159.075942
 30
0.0
 11
62.328108
 21
159.075942
 31
0.0
  0
LINE
  5
2292
100
AcDbEntity
  8
DRAW
100
AcDbLine
 10
62.328108
 20
157.497566
 30
0.0
 11
62.328108
 21
159.075942
 31
0.0
  0
LINE
  5
2293
100
AcDbEntity
  8
DRAW
100
AcDbLine
 10
66.730968
 20
157.497566
 30
0.0
 11
66.730968
 21
159.075942
 31
0.0
  0
LINE
  5
2294
100
AcDbEntity
  8
DRAW
100
AcDbLine
 10
65.330058
 20
157.497566
 30
0.0
 11
65.330058
 21
159.075942
 31
0.0
  0
LINE
  5
2295
100
AcDbEntity
  8
DRAW
100
AcDbLine
 10
60.927198
 20
157.497566
 30
0.0
 11
60.927198
 21
159.075942
 31
0.0
  0
LINE
  5
2296
100
AcDbEntity
  8
DRAW
100
AcDbLine
 10
74.536038
 20
160.438151
 30
0.0
 11
74.920696
 21
159.84828
 31
0.0
  0
LINE
  5
2297
100
AcDbEntity
  8
DRAW
100
AcDbLine
 10
74.135778
 20
157.497566
 30
0.0
 11
74.135778
 21
159.075942
 31
0.0
  0
LINE
  5
2298
100
AcDbEntity
  8
DRAW
100
AcDbLine
 10
74.135778
 20
157.497566
 30
0.0
 11
74.135778
 21
159.075942
 31
0.0
  0
LINE
  5
2299
100
AcDbEntity
  8
DRAW
100
AcDbLine
 10
71.133828
 20
157.497566
 30
0.0
 11
71.133828
 21
159.075942
 31
0.0
  0
LINE
  5
229A
100
AcDbEntity
  8
DRAW
100
AcDbLine
 10
69.732918
 20
157.497566
 30
0.0
 11
69.732918
 21
159.075942
 31
0.0
  0
LINE
  5
229B
100
AcDbEntity
  8
DRAW
100
AcDbLine
 10
71.133828
 20
158.787079
 30
0.0
 11
74.135778
 21
158.787079
 31
0.0
  0
LINE
  5
229C
100
AcDbEntity
  8
DRAW
100
AcDbLine
 10
71.133828
 20
157.786429
 30
0.0
 11
74.135778
 21
157.786429
 31
0.0
  0
LINE
  5
229D
100
AcDbEntity
  8
DRAW
100
AcDbLine
 10
74.135778
 20
157.497566
 30
0.0
 11
71.133828
 21
157.497566
 31
0.0
  0
LINE
  5
229E
100
AcDbEntity
  8
DRAW
100
AcDbLine
 10
74.135778
 20
159.075942
 30
0.0
 11
71.133828
 21
159.075942
 31
0.0
  0
LINE
  5
22A0
100
AcDbEntity
  8
DRAW
100
AcDbLine
 10
69.732918
 20
167.904326
 30
0.0
 11
66.730968
 21
167.904326
 31
0.0
  0
LINE
  5
22A4
100
AcDbEntity
  8
DRAW
100
AcDbLine
 10
69.732918
 20
163.801661
 30
0.0
 11
66.730968
 21
163.801661
 31
0.0
  0
LINE
  5
22A5
100
AcDbEntity
  8
DRAW
100
AcDbLine
 10
69.732918
 20
165.380037
 30
0.0
 11
66.730968
 21
165.380037
 31
0.0
  0
LINE
  5
22A7
100
AcDbEntity
  8
DRAW
100
AcDbLine
 10
65.330058
 20
167.904326
 30
0.0
 11
62.328108
 21
167.904326
 31
0.0
  0
LINE
  5
22AB
100
AcDbEntity
  8
DRAW
100
AcDbLine
 10
65.330058
 20
163.801661
 30
0.0
 11
62.328108
 21
163.801661
 31
0.0
  0
LINE
  5
22AC
100
AcDbEntity
  8
DRAW
100
AcDbLine
 10
65.330058
 20
165.380037
 30
0.0
 11
62.328108
 21
165.380037
 31
0.0
  0
LINE
  5
22AD
100
AcDbEntity
  8
DRAW
100
AcDbLine
 10
62.328108
 20
163.801661
 30
0.0
 11
62.328108
 21
165.380037
 31
0.0
  0
LINE
  5
22AE
100
AcDbEntity
  8
DRAW
100
AcDbLine
 10
66.730968
 20
163.801661
 30
0.0
 11
66.730968
 21
165.380037
 31
0.0
  0
LINE
  5
22AF
100
AcDbEntity
  8
DRAW
100
AcDbLine
 10
65.330058
 20
163.801661
 30
0.0
 11
65.330058
 21
165.380037
 31
0.0
  0
LINE
  5
22B0
100
AcDbEntity
  8
DRAW
100
AcDbLine
 10
60.927198
 20
163.801661
 30
0.0
 11
60.927198
 21
165.380037
 31
0.0
  0
LINE
  5
22B1
100
AcDbEntity
  8
DRAW
100
AcDbLine
 10
74.135778
 20
163.801661
 30
0.0
 11
74.135778
 21
165.380037
 31
0.0
  0
LINE
  5
22B2
100
AcDbEntity
  8
DRAW
100
AcDbLine
 10
74.135778
 20
163.801661
 30
0.0
 11
74.135778
 21
165.380037
 31
0.0
  0
LINE
  5
22B3
100
AcDbEntity
  8
DRAW
100
AcDbLine
 10
74.536038
 20
162.439451
 30
0.0
 11
74.920696
 21
163.029323
 31
0.0
  0
LINE
  5
22B4
100
AcDbEntity
  8
DRAW
100
AcDbLine
 10
69.732918
 20
163.801661
 30
0.0
 11
69.732918
 21
165.380037
 31
0.0
  0
LINE
  5
22B5
100
AcDbEntity
  8
DRAW
100
AcDbLine
 10
71.133828
 20
163.801661
 30
0.0
 11
71.133828
 21
165.380037
 31
0.0
  0
LINE
  5
22B6
100
AcDbEntity
  8
DRAW
100
AcDbLine
 10
71.133828
 20
165.091174
 30
0.0
 11
74.135778
 21
165.091174
 31
0.0
  0
LINE
  5
22B7
100
AcDbEntity
  8
DRAW
100
AcDbLine
 10
71.133828
 20
164.090524
 30
0.0
 11
74.135778
 21
164.090524
 31
0.0
  0
LINE
  5
22B8
100
AcDbEntity
  8
DRAW
100
AcDbLine
 10
74.135778
 20
163.801661
 30
0.0
 11
71.133828
 21
163.801661
 31
0.0
  0
LINE
  5
22B9
100
AcDbEntity
  8
DRAW
100
AcDbLine
 10
74.135778
 20
165.380037
 30
0.0
 11
71.133828
 21
165.380037
 31
0.0
  0
LINE
  5
22BA
100
AcDbEntity
  8
DRAW
100
AcDbLine
 10
74.135778
 20
167.904326
 30
0.0
 11
71.133828
 21
167.904326
 31
0.0
  0
LINE
  5
22BB
100
AcDbEntity
  8
DRAW
100
AcDbLine
 10
71.133828
 20
168.193189
 30
0.0
 11
74.135778
 21
168.193189
 31
0.0
  0
LINE
  5
22BC
100
AcDbEntity
  8
DRAW
100
AcDbLine
 10
71.133828
 20
169.193839
 30
0.0
 11
74.135778
 21
169.193839
 31
0.0
  0
LINE
  5
22BD
100
AcDbEntity
  8
DRAW
100
AcDbLine
 10
77.277826
 20
159.837761
 30
0.0
 11
79.539288
 21
159.837761
 31
0.0
  0
LINE
  5
22BE
100
AcDbEntity
  8
DRAW
100
AcDbLine
 10
77.287826
 20
158.586949
 30
0.0
 11
79.539288
 21
158.586949
 31
0.0
  0
LINE
  5
22BF
100
AcDbEntity
  8
DRAW
100
AcDbLine
 10
77.287826
 20
164.290654
 30
0.0
 11
79.539288
 21
164.290654
 31
0.0
  0
LINE
  5
22C0
100
AcDbEntity
  8
DRAW
100
AcDbLine
 10
77.277826
 20
163.039841
 30
0.0
 11
79.539288
 21
163.039841
 31
0.0
  0
LINE
  5
22C1
100
AcDbEntity
  8
DRAW
100
AcDbLine
 10
137.97516
 20
145.470507
 30
0.0
 11
137.97516
 21
150.442262
 31
0.0
  0
LINE
  5
22C2
100
AcDbEntity
  8
DRAW
100
AcDbLine
 10
136.776305
 20
145.470507
 30
0.0
 11
136.37412
 21
146.971482
 31
0.0
  0
LINE
  5
22C3
100
AcDbEntity
  8
DRAW
100
AcDbLine
 10
135.339474
 20
146.971482
 30
0.0
 11
134.472885
 21
145.470507
 31
0.0
  0
LINE
  5
22C4
100
AcDbEntity
  8
DRAW
100
AcDbLine
 10
134.472885
 20
145.470507
 30
0.0
 11
137.97516
 21
145.470507
 31
0.0
  0
LINE
  5
22C5
100
AcDbEntity
  8
DRAW
100
AcDbLine
 10
137.97516
 20
145.470507
 30
0.0
 11
134.472885
 21
145.470507
 31
0.0
  0
LINE
  5
22C6
100
AcDbEntity
  8
DRAW
100
AcDbLine
 10
136.37412
 20
146.971482
 30
0.0
 11
135.339474
 21
146.971482
 31
0.0
  0
LINE
  5
22C8
100
AcDbEntity
  8
DRAW
100
AcDbLine
 10
166.473685
 20
144.777979
 30
0.0
 11
166.473685
 21
127.568872
 31
0.0
1001
ACAD
1000
ASC_BOUNDS
1002
{
1070
    19
1002
}
  0
LINE
  5
22CC
100
AcDbEntity
  8
DRAW
100
AcDbLine
 10
166.473685
 20
127.568872
 30
0.0
 11
165.473035
 21
126.568222
 31
0.0
  0
LINE
  5
22CD
100
AcDbEntity
  8
DRAW
100
AcDbLine
 10
164.97271
 20
164.790979
 30
0.0
 11
164.97271
 21
144.777979
 31
0.0
1001
ACAD
1000
ASC_BOUNDS
1002
{
1070
    19
1005
0
1002
}
  0
LINE
  5
22CE
100
AcDbEntity
  8
DRAW
100
AcDbLine
 10
169.97596
 20
160.348605
 30
0.0
 11
169.97596
 21
145.278304
 31
0.0
1001
ACAD
1000
ASC_BOUNDS
1002
{
1070
    19
1005
0
1002
}
  0
LINE
  5
22CF
100
AcDbEntity
  8
DRAW
100
AcDbLine
 10
141.47726
 20
152.183715
 30
0.0
 11
141.47726
 21
149.181765
 31
0.0
1001
ACAD
1000
ASC_BOUNDS
1002
{
1070
    19
1002
}
  0
LINE
  5
22D0
100
AcDbEntity
  8
DRAW
100
AcDbLine
 10
140.07635
 20
152.183715
 30
0.0
 11
140.07635
 21
149.181765
 31
0.0
1001
ACAD
1000
ASC_BOUNDS
1002
{
1070
    19
1002
}
  0
LINE
  5
22D1
100
AcDbEntity
  8
DRAW
100
AcDbLine
 10
140.576675
 20
152.183715
 30
0.0
 11
140.576675
 21
149.181765
 31
0.0
1001
ACAD
1000
ASC_BOUNDS
1002
{
1070
    19
1002
}
  0
POLYLINE
  5
22D2
100
AcDbEntity
  8
DRAW
100
AcDb2dPolyline
 66
     1
 10
0.0
 20
0.0
 30
0.0
 70
     1
  0
VERTEX
  5
2F26
100
AcDbEntity
  8
DRAW
100
AcDbVertex
100
AcDb2dVertex
 10
141.877695
 20
148.778444
 30
0.0
  0
VERTEX
  5
2F27
100
AcDbEntity
  8
DRAW
100
AcDbVertex
100
AcDb2dVertex
 10
141.877695
 20
152.781044
 30
0.0
  0
VERTEX
  5
2F28
100
AcDbEntity
  8
DRAW
100
AcDbVertex
100
AcDb2dVertex
 10
139.97646
 20
152.781044
 30
0.0
  0
VERTEX
  5
2F29
100
AcDbEntity
  8
DRAW
100
AcDbVertex
100
AcDb2dVertex
 10
139.97646
 20
148.778444
 30
0.0
  0
SEQEND
  5
2F2A
100
AcDbEntity
  8
DRAW
  0
LINE
  5
22D3
100
AcDbEntity
  8
DRAW
100
AcDbLine
 10
140.07635
 20
152.183715
 30
0.0
 11
141.47726
 21
152.183715
 31
0.0
  0
LINE
  5
22D4
100
AcDbEntity
  8
DRAW
100
AcDbLine
 10
140.07635
 20
149.181765
 30
0.0
 11
141.47726
 21
149.181765
 31
0.0
  0
LINE
  5
22D5
100
AcDbEntity
  8
DRAW
100
AcDbLine
 10
169.475635
 20
144.777979
 30
0.0
 11
164.97271
 21
144.777979
 31
0.0
1001
ACAD
1000
ASC_BOUNDS
1002
{
1070
    19
1002
}
  0
ARC
  5
22D6
100
AcDbEntity
  8
DRAW
100
AcDbCircle
 10
169.475635
 20
145.278304
 30
0.0
 40
0.500325
100
AcDbArc
 50
270.0
 51
0.0
1001
ACAD
1000
ASC_BOUNDS
1002
{
1070
    19
1005
0
1002
}
  0
CIRCLE
  5
22D7
100
AcDbEntity
  8
DRAW
100
AcDbCircle
 10
167.474335
 20
148.930676
 30
0.0
 40
1.00065
  0
LINE
  5
22D8
100
AcDbEntity
  8
DRAW
100
AcDbLine
 10
167.474335
 20
147.930026
 30
0.0
 11
167.474335
 21
149.931326
 31
0.0
  0
LINE
  5
22D9
100
AcDbEntity
  8
DRAW
100
AcDbLine
 10
167.77453
 20
160.938476
 30
0.0
 11
167.77453
 21
162.939776
 31
0.0
1001
ACAD
1000
ASC_BOUNDS
1002
{
1070
    19
1005
0
1002
}
  0
LINE
  5
22DA
100
AcDbEntity
  8
DRAW
100
AcDbLine
 10
161.77063
 20
164.790979
 30
0.0
 11
161.77063
 21
159.087274
 31
0.0
1001
ACAD
1000
ASC_BOUNDS
1002
{
1070
    19
1005
0
1002
}
  0
LINE
  5
22DB
100
AcDbEntity
  8
DRAW
100
AcDbLine
 10
164.97271
 20
160.338086
 30
0.0
 11
169.97596
 21
160.338086
 31
0.0
  0
LINE
  5
22DC
100
AcDbEntity
  8
DRAW
100
AcDbLine
 10
164.97271
 20
160.938476
 30
0.0
 11
167.77453
 21
160.938476
 31
0.0
  0
LINE
  5
22DD
100
AcDbEntity
  8
DRAW
100
AcDbLine
 10
161.77063
 20
159.087274
 30
0.0
 11
169.97596
 21
159.087274
 31
0.0
  0
LINE
  5
22DE
100
AcDbEntity
  8
DRAW
100
AcDbLine
 10
167.77453
 20
160.938476
 30
0.0
 11
169.97596
 21
160.348605
 31
0.0
  0
CIRCLE
  5
22DF
100
AcDbEntity
  8
DRAW
100
AcDbCircle
 10
167.97466
 20
156.785779
 30
0.0
 40
0.750487
  0
LINE
  5
22E0
100
AcDbEntity
  8
DRAW
100
AcDbLine
 10
161.77063
 20
164.790979
 30
0.0
 11
169.97596
 21
164.790979
 31
0.0
  0
LINE
  5
22E1
100
AcDbEntity
  8
DRAW
100
AcDbLine
 10
164.97271
 20
163.540166
 30
0.0
 11
169.97596
 21
163.540166
 31
0.0
  0
LINE
  5
22E2
100
AcDbEntity
  8
DRAW
100
AcDbLine
 10
164.97271
 20
162.939776
 30
0.0
 11
167.77453
 21
162.939776
 31
0.0
  0
LINE
  5
22E3
100
AcDbEntity
  8
DRAW
100
AcDbLine
 10
167.77453
 20
162.939776
 30
0.0
 11
169.97596
 21
163.529648
 31
0.0
  0
CIRCLE
  5
22E6
100
AcDbEntity
  8
DRAW
100
AcDbCircle
 10
56.424273
 20
197.812429
 30
0.0
 40
2.5
  0
LINE
  5
22ED
100
AcDbEntity
  8
DRAW
100
AcDbLine
 10
65.598181
 20
201.564866
 30
0.0
 11
52.521738
 21
201.564866
 31
0.0
  0
LINE
  5
22EE
100
AcDbEntity
  8
DRAW
100
AcDbLine
 10
65.598181
 20
191.558366
 30
0.0
 11
52.521738
 21
191.558366
 31
0.0
  0
LINE
  5
22EF
100
AcDbEntity
  8
DRAW
100
AcDbLine
 10
55.030507
 20
201.565516
 30
0.0
 11
65.530507
 21
201.565516
 31
0.0
  0
LINE
  5
22F0
100
AcDbEntity
  8
DRAW
100
AcDbLine
 10
79.038963
 20
192.559016
 30
0.0
 11
53.022063
 21
192.559016
 31
0.0
  0
LINE
  5
22F5
100
AcDbEntity
  8
DRAW
100
AcDbLine
 10
65.498116
 20
181.551866
 30
0.0
 11
52.521738
 21
181.551866
 31
0.0
  0
LINE
  5
22F6
100
AcDbEntity
  8
DRAW
100
AcDbLine
 10
60.927198
 20
169.482702
 30
0.0
 11
57.925248
 21
169.482702
 31
0.0
  0
LINE
  5
22F7
100
AcDbEntity
  8
DRAW
100
AcDbLine
 10
79.038963
 20
182.552516
 30
0.0
 11
53.022063
 21
182.552516
 31
0.0
  0
LINE
  5
22F8
100
AcDbEntity
  8
DRAW
100
AcDbLine
 10
79.038963
 20
173.796829
 30
0.0
 11
53.022063
 21
173.796829
 31
0.0
  0
TEXT
  5
22FD
100
AcDbEntity
  8
DRAW-TEXT
100
AcDbText
 10
52.78958
 20
199.514885
 30
0.0
 40
1.80117
  1
12
 41
0.6
  7
HELVETICAR
 72
     4
 11
53.577254
 21
200.419156
 31
0.0
100
AcDbText
  0
LINE
  5
22FE
100
AcDbEntity
  8
DRAW
100
AcDbLine
 10
52.521738
 20
202.065191
 30
0.0
 11
52.521738
 21
192.058691
 31
0.0
  0
TEXT
  5
22FF
100
AcDbEntity
  8
DRAW-TEXT
100
AcDbText
 10
52.889951
 20
184.079899
 30
0.0
 40
1.80117
  1
44
 41
0.6
  7
HELVETICAR
 72
     4
 11
53.702689
 21
184.980484
 31
0.0
100
AcDbText
  0
LINE
  5
2300
100
AcDbEntity
  8
DRAW
100
AcDbLine
 10
52.521738
 20
191.558366
 30
0.0
 11
52.521738
 21
182.052191
 31
0.0
  0
LINE
  5
2301
100
AcDbEntity
  8
DRAW
100
AcDbLine
 10
52.521738
 20
182.052191
 30
0.0
 11
52.521738
 21
174.297154
 31
0.0
  0
TEXT
  5
2302
100
AcDbEntity
  8
DRAW-TEXT
100
AcDbText
 10
52.993333
 20
174.069713
 30
0.0
 40
1.80117
  1
42
 41
0.6
  7
HELVETICAR
 72
     4
 11
53.802754
 21
174.973984
 31
0.0
100
AcDbText
  0
ARC
  5
2303
100
AcDbEntity
  8
DRAW
100
AcDbCircle
 10
53.022063
 20
174.297154
 30
0.0
 40
0.500325
100
AcDbArc
 50
180.0
 51
270.0
  0
LINE
  5
2304
100
AcDbEntity
  8
DRAW
100
AcDbLine
 10
52.553099
 20
181.551866
 30
0.0
 11
52.521738
 21
181.551866
 31
0.0
  0
ARC
  5
2305
100
AcDbEntity
  8
DRAW
100
AcDbCircle
 10
53.022063
 20
182.052191
 30
0.0
 40
0.500325
100
AcDbArc
 50
90.0
 51
180.0
  0
LINE
  5
2306
100
AcDbEntity
  8
DRAW
100
AcDbLine
 10
54.796889
 20
182.552516
 30
0.0
 11
54.973331
 21
181.551866
 31
0.0
  0
TEXT
  5
2307
100
AcDbEntity
  8
DRAW-TEXT
100
AcDbText
 10
53.098909
 20
179.55383
 30
0.0
 40
1.80117
  1
4
 41
0.6
  7
HELVETICAR
 72
     4
 11
53.491824
 21
180.454415
 31
0.0
100
AcDbText
  0
LINE
  5
2308
100
AcDbEntity
  8
DRAW
100
AcDbLine
 10
52.521738
 20
191.558366
 30
0.0
 11
52.521738
 21
192.058691
 31
0.0
  0
LINE
  5
2309
100
AcDbEntity
  8
DRAW
100
AcDbLine
 10
54.796889
 20
192.559016
 30
0.0
 11
54.973331
 21
191.558366
 31
0.0
  0
TEXT
  5
230A
100
AcDbEntity
  8
DRAW-TEXT
100
AcDbText
 10
52.974517
 20
189.596066
 30
0.0
 40
1.80117
  1
8
 41
0.6
  7
HELVETICAR
 72
     4
 11
53.391759
 21
190.484979
 31
0.0
100
AcDbText
  0
ARC
  5
230B
100
AcDbEntity
  8
DRAW
100
AcDbCircle
 10
53.022063
 20
192.058691
 30
0.0
 40
0.500325
100
AcDbArc
 50
90.0
 51
180.0
  0
TEXT
  5
230C
100
AcDbEntity
  8
DRAW-TEXT
100
AcDbText
 10
52.672192
 20
194.01039
 30
0.0
 40
1.80117
  1
41
 41
0.6
  7
HELVETICAR
 72
     4
 11
53.477189
 21
194.914661
 31
0.0
100
AcDbText
  0
ARC
  5
230E
100
AcDbEntity
  8
DRAW
100
AcDbCircle
 10
53.022063
 20
202.065191
 30
0.0
 40
0.500325
100
AcDbArc
 50
90.0
 51
180.0
  0
LINE
  5
230F
100
AcDbEntity
  8
DRAW
100
AcDbLine
 10
79.038963
 20
202.565516
 30
0.0
 11
53.022063
 21
202.565516
 31
0.0
  0
LINE
  5
2310
100
AcDbEntity
  8
DRAW
100
AcDbLine
 10
54.796889
 20
202.565516
 30
0.0
 11
54.973331
 21
201.564866
 31
0.0
  0
LINE
  5
2313
100
AcDbEntity
  8
DRAW
100
AcDbLine
 10
134.472885
 20
202.565516
 30
0.0
 11
146.880945
 21
202.565516
 31
0.0
1001
ACAD
1000
ASC_BOUNDS
1002
{
1070
    19
1002
}
  0
LINE
  5
2314
100
AcDbEntity
  8
DRAW
100
AcDbLine
 10
134.472885
 20
202.565516
 30
0.0
 11
159.38907
 21
202.565516
 31
0.0
  0
POLYLINE
  5
2316
100
AcDbEntity
  8
DRAW
100
AcDb2dPolyline
 66
     1
 10
0.0
 20
0.0
 30
0.0
 70
     1
  0
VERTEX
  5
2F2B
100
AcDbEntity
  8
DRAW
100
AcDbVertex
100
AcDb2dVertex
 10
138.475485
 20
195.806888
 30
0.0
  0
VERTEX
  5
2F2C
100
AcDbEntity
  8
DRAW
100
AcDbVertex
100
AcDb2dVertex
 10
138.475485
 20
199.809488
 30
0.0
  0
VERTEX
  5
2F2D
100
AcDbEntity
  8
DRAW
100
AcDbVertex
100
AcDb2dVertex
 10
136.474185
 20
199.809488
 30
0.0
  0
VERTEX
  5
2F2E
100
AcDbEntity
  8
DRAW
100
AcDbVertex
100
AcDb2dVertex
 10
136.474185
 20
195.806888
 30
0.0
  0
SEQEND
  5
2F2F
100
AcDbEntity
  8
DRAW
  0
TEXT
  5
2317
100
AcDbEntity
  8
DRAW-TEXT
100
AcDbText
 10
78.145162
 20
199.067819
 30
0.0
 40
1.80117
  1
C
 41
0.6
  7
HELVETICAR
 72
     4
 11
78.698045
 21
199.968404
 31
0.0
100
AcDbText
  0
LINE
  5
2318
100
AcDbEntity
  8
DRAW
100
AcDbLine
 10
79.539288
 20
202.065191
 30
0.0
 11
79.539288
 21
192.058691
 31
0.0
  0
TEXT
  5
2319
100
AcDbEntity
  8
DRAW-TEXT
100
AcDbText
 10
72.171625
 20
199.530243
 30
0.0
 40
1.80117
  1
9
 41
0.6
  7
HELVETICAR
 72
     4
 11
72.589604
 21
200.419156
 31
0.0
100
AcDbText
  0
LINE
  5
231D
100
AcDbEntity
  8
DRAW
100
AcDbLine
 10
72.109816
 20
201.319281
 30
0.0
 11
72.109816
 21
194.014536
 31
0.0
  0
LINE
  5
231E
100
AcDbEntity
  8
DRAW
100
AcDbLine
 10
65.705656
 20
201.319281
 30
0.0
 11
65.705656
 21
194.014536
 31
0.0
  0
LINE
  5
2320
100
AcDbEntity
  8
DRAW
100
AcDbLine
 10
59.301496
 20
201.319281
 30
0.0
 11
59.301496
 21
194.014536
 31
0.0
  0
LINE
  5
2325
100
AcDbEntity
  8
DRAW
100
AcDbLine
 10
134.472885
 20
181.263647
 30
0.0
 11
134.472885
 21
202.565516
 31
0.0
1001
ACAD
1000
ASC_BOUNDS
1002
{
1070
    19
1002
}
  0
LINE
  5
2326
100
AcDbEntity
  8
DRAW
100
AcDbLine
 10
134.472885
 20
181.063517
 30
0.0
 11
134.472885
 21
201.364736
 31
0.0
1001
ACAD
1000
ASC_BOUNDS
1002
{
1070
    19
1002
}
  0
TEXT
  5
2328
100
AcDbEntity
  8
DRAW-TEXT
100
AcDbText
 10
77.825765
 20
184.675951
 30
0.0
 40
1.80117
  1
O
 41
0.6
  7
HELVETICAR
 72
     4
 11
78.415507
 21
185.577151
 31
0.0
100
AcDbText
  0
TEXT
  5
232B
100
AcDbEntity
  8
DRAW-TEXT
100
AcDbText
 10
72.394191
 20
184.076213
 30
0.0
 40
1.80117
  1
14
 41
0.6
  7
HELVETICAR
 72
     4
 11
73.185182
 21
184.980484
 31
0.0
100
AcDbText
  0
LINE
  5
232C
100
AcDbEntity
  8
DRAW
100
AcDbLine
 10
72.109816
 20
191.385104
 30
0.0
 11
72.109816
 21
184.130391
 31
0.0
  0
LINE
  5
232D
100
AcDbEntity
  8
DRAW
100
AcDbLine
 10
65.705656
 20
191.401115
 30
0.0
 11
65.705656
 21
184.058002
 31
0.0
  0
LINE
  5
232E
100
AcDbEntity
  8
DRAW
100
AcDbLine
 10
59.301496
 20
191.385104
 30
0.0
 11
59.301496
 21
184.075866
 31
0.0
  0
LINE
  5
232F
100
AcDbEntity
  8
DRAW
100
AcDbLine
 10
79.539288
 20
192.058691
 30
0.0
 11
79.539288
 21
181.551866
 31
0.0
  0
LINE
  5
2331
100
AcDbEntity
  8
DRAW
100
AcDbLine
 10
79.539288
 20
181.551866
 30
0.0
 11
66.56291
 21
181.551866
 31
0.0
  0
LINE
  5
2335
100
AcDbEntity
  8
DRAW
100
AcDbLine
 10
72.109816
 20
181.378604
 30
0.0
 11
72.109816
 21
174.123891
 31
0.0
  0
LINE
  5
2336
100
AcDbEntity
  8
DRAW
100
AcDbLine
 10
65.705656
 20
181.394615
 30
0.0
 11
65.705656
 21
174.051502
 31
0.0
  0
LINE
  5
2337
100
AcDbEntity
  8
DRAW
100
AcDbLine
 10
59.301496
 20
181.378604
 30
0.0
 11
59.301496
 21
174.069366
 31
0.0
  0
LINE
  5
233A
100
AcDbEntity
  8
DRAW
100
AcDbLine
 10
69.732918
 20
169.482702
 30
0.0
 11
66.730968
 21
169.482702
 31
0.0
  0
LINE
  5
233D
100
AcDbEntity
  8
DRAW
100
AcDbLine
 10
65.330058
 20
169.482702
 30
0.0
 11
62.328108
 21
169.482702
 31
0.0
  0
TEXT
  5
233E
100
AcDbEntity
  8
DRAW-TEXT
100
AcDbText
 10
72.47756
 20
174.069713
 30
0.0
 40
1.80117
  1
12
 41
0.6
  7
HELVETICAR
 72
     4
 11
73.265234
 21
174.973984
 31
0.0
100
AcDbText
  0
LINE
  5
233F
100
AcDbEntity
  8
DRAW
100
AcDbLine
 10
74.135778
 20
169.482702
 30
0.0
 11
71.133828
 21
169.482702
 31
0.0
  0
LINE
  5
2340
100
AcDbEntity
  8
DRAW
100
AcDbLine
 10
64.679636
 20
181.551866
 30
0.0
 11
64.853397
 21
182.537314
 31
0.0
  0
LINE
  5
2341
100
AcDbEntity
  8
DRAW
100
AcDbLine
 10
66.831033
 20
182.552516
 30
0.0
 11
65.229993
 21
182.552516
 31
0.0
  0
LINE
  5
2342
100
AcDbEntity
  8
DRAW
100
AcDbLine
 10
65.229993
 20
182.552516
 30
0.0
 11
65.498116
 21
181.551866
 31
0.0
  0
LINE
  5
2343
100
AcDbEntity
  8
DRAW
100
AcDbLine
 10
66.831033
 20
182.552516
 30
0.0
 11
66.56291
 21
181.551866
 31
0.0
  0
LINE
  5
2344
100
AcDbEntity
  8
DRAW
100
AcDbLine
 10
67.381391
 20
181.551866
 30
0.0
 11
67.204949
 21
182.552516
 31
0.0
  0
LINE
  5
2346
100
AcDbEntity
  8
DRAW
100
AcDbLine
 10
58.649367
 20
182.537314
 30
0.0
 11
58.475606
 21
181.551866
 31
0.0
  0
LINE
  5
2348
100
AcDbEntity
  8
DRAW
100
AcDbLine
 10
61.177361
 20
181.551866
 30
0.0
 11
61.000919
 21
182.552516
 31
0.0
  0
LINE
  5
2349
100
AcDbEntity
  8
DRAW
100
AcDbLine
 10
77.264137
 20
182.552516
 30
0.0
 11
77.087696
 21
181.551866
 31
0.0
  0
LINE
  5
234A
100
AcDbEntity
  8
DRAW
100
AcDbLine
 10
70.883666
 20
181.551866
 30
0.0
 11
71.060107
 21
182.552516
 31
0.0
  0
TEXT
  5
234B
100
AcDbEntity
  8
DRAW-TEXT
100
AcDbText
 10
72.183392
 20
179.574208
 30
0.0
 40
1.80117
  1
1
 41
0.6
  7
HELVETICAR
 72
     4
 11
72.546821
 21
180.478479
 31
0.0
100
AcDbText
  0
LINE
  5
234C
100
AcDbEntity
  8
DRAW
100
AcDbLine
 10
73.408979
 20
182.552516
 30
0.0
 11
73.585421
 21
181.551866
 31
0.0
  0
TEXT
  5
234D
100
AcDbEntity
  8
DRAW-TEXT
100
AcDbText
 10
77.862624
 20
174.670066
 30
0.0
 40
1.80117
  1
C
 41
0.6
  7
HELVETICAR
 72
     4
 11
78.415507
 21
175.570651
 31
0.0
100
AcDbText
  0
LINE
  5
234E
100
AcDbEntity
  8
DRAW
100
AcDbLine
 10
79.539288
 20
182.052191
 30
0.0
 11
79.539288
 21
174.297154
 31
0.0
  0
ARC
  5
234F
100
AcDbEntity
  8
DRAW
100
AcDbCircle
 10
79.038963
 20
174.297154
 30
0.0
 40
0.500325
100
AcDbArc
 50
270.0
 51
0.0
  0
ARC
  5
2350
100
AcDbEntity
  8
DRAW
100
AcDbCircle
 10
79.038963
 20
182.052191
 30
0.0
 40
0.500325
100
AcDbArc
 50
0.0
 51
90.0
  0
TEXT
  5
2351
100
AcDbEntity
  8
DRAW-TEXT
100
AcDbText
 10
77.874788
 20
179.172991
 30
0.0
 40
1.80117
  1
N
 41
0.6
  7
HELVETICAR
 72
     4
 11
78.415507
 21
180.073576
 31
0.0
100
AcDbText
  0
LINE
  5
2352
100
AcDbEntity
  8
DRAW
100
AcDbLine
 10
79.539288
 20
191.558366
 30
0.0
 11
66.462845
 21
191.558366
 31
0.0
  0
LINE
  5
2355
100
AcDbEntity
  8
DRAW
100
AcDbLine
 10
77.264137
 20
192.559016
 30
0.0
 11
77.087696
 21
191.558366
 31
0.0
  0
LINE
  5
2356
100
AcDbEntity
  8
DRAW
100
AcDbLine
 10
70.883666
 20
191.558366
 30
0.0
 11
71.060107
 21
192.559016
 31
0.0
  0
LINE
  5
2357
100
AcDbEntity
  8
DRAW
100
AcDbLine
 10
64.679636
 20
191.558366
 30
0.0
 11
64.853397
 21
192.543814
 31
0.0
  0
LINE
  5
2358
100
AcDbEntity
  8
DRAW
100
AcDbLine
 10
65.330058
 20
192.559016
 30
0.0
 11
65.598181
 21
191.558366
 31
0.0
  0
LINE
  5
2359
100
AcDbEntity
  8
DRAW
100
AcDbLine
 10
66.730968
 20
192.559016
 30
0.0
 11
66.462845
 21
191.558366
 31
0.0
  0
LINE
  5
235A
100
AcDbEntity
  8
DRAW
100
AcDbLine
 10
67.381391
 20
191.558366
 30
0.0
 11
67.204949
 21
192.559016
 31
0.0
  0
LINE
  5
235B
100
AcDbEntity
  8
DRAW
100
AcDbLine
 10
58.649367
 20
192.543814
 30
0.0
 11
58.475606
 21
191.558366
 31
0.0
  0
LINE
  5
235C
100
AcDbEntity
  8
DRAW
100
AcDbLine
 10
61.177361
 20
191.558366
 30
0.0
 11
61.000919
 21
192.559016
 31
0.0
  0
LINE
  5
235D
100
AcDbEntity
  8
DRAW
100
AcDbLine
 10
73.408979
 20
192.559016
 30
0.0
 11
73.585421
 21
191.558366
 31
0.0
  0
TEXT
  5
2361
100
AcDbEntity
  8
DRAW-TEXT
100
AcDbText
 10
59.416592
 20
189.596066
 30
0.0
 40
1.80117
  1
7
 41
0.6
  7
HELVETICAR
 72
     4
 11
59.837889
 21
190.484979
 31
0.0
100
AcDbText
  0
TEXT
  5
2364
100
AcDbEntity
  8
DRAW-TEXT
100
AcDbText
 10
72.125892
 20
189.612038
 30
0.0
 40
1.80117
  1
5
 41
0.6
  7
HELVETICAR
 72
     4
 11
72.546821
 21
190.484979
 31
0.0
100
AcDbText
  0
LINE
  5
2365
100
AcDbEntity
  8
DRAW
100
AcDbLine
 10
66.730968
 20
192.559016
 30
0.0
 11
65.330058
 21
192.559016
 31
0.0
  0
TEXT
  5
2368
100
AcDbEntity
  8
DRAW-TEXT
100
AcDbText
 10
72.356548
 20
194.01039
 30
0.0
 40
1.80117
  1
11
 41
0.6
  7
HELVETICAR
 72
     4
 11
73.139799
 21
194.914661
 31
0.0
100
AcDbText
  0
TEXT
  5
2369
100
AcDbEntity
  8
DRAW-TEXT
100
AcDbText
 10
77.874788
 20
189.179491
 30
0.0
 40
1.80117
  1
N
 41
0.6
  7
HELVETICAR
 72
     4
 11
78.415507
 21
190.080076
 31
0.0
100
AcDbText
  0
TEXT
  5
236A
100
AcDbEntity
  8
DRAW-TEXT
100
AcDbText
 10
78.108303
 20
196.765709
 30
0.0
 40
1.80117
  1
O
 41
0.6
  7
HELVETICAR
 72
     4
 11
78.698045
 21
197.666909
 31
0.0
100
AcDbText
  0
ARC
  5
236B
100
AcDbEntity
  8
DRAW
100
AcDbCircle
 10
79.038963
 20
192.058691
 30
0.0
 40
0.500325
100
AcDbArc
 50
0.0
 51
90.0
  0
TEXT
  5
236C
100
AcDbEntity
  8
DRAW-TEXT
100
AcDbText
 10
77.990286
 20
194.464829
 30
0.0
 40
1.80117
  1
M
 41
0.6
  7
HELVETICAR
 72
     4
 11
78.617993
 21
195.365414
 31
0.0
100
AcDbText
  0
LINE
  5
236D
100
AcDbEntity
  8
DRAW
100
AcDbLine
 10
137.97516
 20
181.063517
 30
0.0
 11
134.472885
 21
181.063517
 31
0.0
  0
LINE
  5
236E
100
AcDbEntity
  8
DRAW
100
AcDbLine
 10
136.37412
 20
179.562542
 30
0.0
 11
135.339474
 21
179.562542
 31
0.0
  0
LINE
  5
236F
100
AcDbEntity
  8
DRAW
100
AcDbLine
 10
136.776305
 20
181.063517
 30
0.0
 11
136.37412
 21
179.562542
 31
0.0
  0
LINE
  5
2370
100
AcDbEntity
  8
DRAW
100
AcDbLine
 10
137.97516
 20
178.061567
 30
0.0
 11
137.97516
 21
181.063517
 31
0.0
  0
LINE
  5
2371
100
AcDbEntity
  8
DRAW
100
AcDbLine
 10
135.339474
 20
179.562542
 30
0.0
 11
134.472885
 21
181.063517
 31
0.0
  0
LINE
  5
2372
100
AcDbEntity
  8
DRAW
100
AcDbLine
 10
137.97516
 20
199.213339
 30
0.0
 11
137.97516
 21
196.211389
 31
0.0
1001
ACAD
1000
ASC_BOUNDS
1002
{
1070
    19
1002
}
  0
LINE
  5
2373
100
AcDbEntity
  8
DRAW
100
AcDbLine
 10
137.074575
 20
199.213339
 30
0.0
 11
137.074575
 21
196.211389
 31
0.0
1001
ACAD
1000
ASC_BOUNDS
1002
{
1070
    19
1002
}
  0
LINE
  5
2374
100
AcDbEntity
  8
DRAW
100
AcDbLine
 10
136.57425
 20
199.213339
 30
0.0
 11
136.57425
 21
196.211389
 31
0.0
1001
ACAD
1000
ASC_BOUNDS
1002
{
1070
    19
1002
}
  0
LINE
  5
2375
100
AcDbEntity
  8
DRAW
100
AcDbLine
 10
136.57425
 20
196.211389
 30
0.0
 11
137.97516
 21
196.211389
 31
0.0
  0
LINE
  5
2376
100
AcDbEntity
  8
DRAW
100
AcDbLine
 10
136.57425
 20
199.213339
 30
0.0
 11
137.97516
 21
199.213339
 31
0.0
  0
LINE
  5
2379
100
AcDbEntity
  8
DRAW
100
AcDbLine
 10
79.539288
 20
201.564866
 30
0.0
 11
66.462845
 21
201.564866
 31
0.0
  0
LINE
  5
237B
100
AcDbEntity
  8
DRAW
100
AcDbLine
 10
66.530507
 20
201.565516
 30
0.0
 11
77.030507
 21
201.565516
 31
0.0
  0
LINE
  5
237C
100
AcDbEntity
  8
DRAW
100
AcDbLine
 10
66.730968
 20
202.565516
 30
0.0
 11
65.330058
 21
202.565516
 31
0.0
  0
LINE
  5
237D
100
AcDbEntity
  8
DRAW
100
AcDbLine
 10
65.262558
 20
202.565516
 30
0.0
 11
66.798456
 21
202.565516
 31
0.0
  0
LINE
  5
237E
100
AcDbEntity
  8
DRAW
100
AcDbLine
 10
66.730968
 20
202.565516
 30
0.0
 11
66.462845
 21
201.564866
 31
0.0
  0
LINE
  5
237F
100
AcDbEntity
  8
DRAW
100
AcDbLine
 10
65.330058
 20
202.565516
 30
0.0
 11
65.598181
 21
201.564866
 31
0.0
  0
LINE
  5
2380
100
AcDbEntity
  8
DRAW
100
AcDbLine
 10
65.262558
 20
202.565516
 30
0.0
 11
65.530507
 21
201.565516
 31
0.0
  0
LINE
  5
2381
100
AcDbEntity
  8
DRAW
100
AcDbLine
 10
66.798456
 20
202.565516
 30
0.0
 11
66.530507
 21
201.565516
 31
0.0
  0
LINE
  5
2382
100
AcDbEntity
  8
DRAW
100
AcDbLine
 10
77.264137
 20
202.565516
 30
0.0
 11
77.087696
 21
201.564866
 31
0.0
  0
ARC
  5
2383
100
AcDbEntity
  8
DRAW
100
AcDbCircle
 10
79.038963
 20
202.065191
 30
0.0
 40
0.500325
100
AcDbArc
 50
0.0
 51
90.0
  0
LINE
  5
2384
100
AcDbEntity
  8
DRAW
100
AcDbLine
 10
134.472885
 20
200.253226
 30
0.0
 11
134.472885
 21
200.253226
 31
0.0
  0
LINE
  5
2385
100
AcDbEntity
  8
DRAW
100
AcDbLine
 10
160.38972
 20
201.564866
 30
0.0
 11
160.38972
 21
192.559016
 31
0.0
1001
ACAD
1000
ASC_BOUNDS
1002
{
1070
    19
1005
0
1002
}
  0
LINE
  5
2388
100
AcDbEntity
  8
DRAW
100
AcDbLine
 10
160.38972
 20
192.559016
 30
0.0
 11
176.900445
 21
192.559016
 31
0.0
  0
LINE
  5
2389
100
AcDbEntity
  8
DRAW
100
AcDbLine
 10
164.97271
 20
173.796829
 30
0.0
 11
194.868605
 21
173.796829
 31
0.0
1001
ACAD
1000
ASC_BOUNDS
1002
{
1070
    19
1002
}
  0
LINE
  5
2397
100
AcDbEntity
  8
DRAW
100
AcDbLine
 10
177.901095
 20
191.558366
 30
0.0
 11
177.901095
 21
182.552516
 31
0.0
1001
ACAD
1000
ASC_BOUNDS
1002
{
1070
    19
1005
0
1002
}
  0
LINE
  5
2398
100
AcDbEntity
  8
DRAW
100
AcDbLine
 10
194.36828
 20
182.552516
 30
0.0
 11
195.36893
 21
181.551866
 31
0.0
1001
ACAD
1000
ASC_BOUNDS
1002
{
1070
    19
1005
0
1002
}
  0
ARC
  5
2399
100
AcDbEntity
  8
DRAW
100
AcDbCircle
 10
194.868605
 20
174.297154
 30
0.0
 40
0.500325
100
AcDbArc
 50
270.0
 51
0.0
1001
ACAD
1000
ASC_BOUNDS
1002
{
1070
    19
1002
}
  0
LINE
  5
239A
100
AcDbEntity
  8
DRAW
100
AcDbLine
 10
177.901095
 20
182.552516
 30
0.0
 11
194.36828
 21
182.552516
 31
0.0
  0
LINE
  5
239B
100
AcDbEntity
  8
DRAW
100
AcDbLine
 10
195.36893
 20
181.551866
 30
0.0
 11
195.36893
 21
174.297154
 31
0.0
1001
ACAD
1000
ASC_BOUNDS
1002
{
1070
    19
1005
0
1002
}
  0
LINE
  5
239C
100
AcDbEntity
  8
DRAW
100
AcDbLine
 10
177.901095
 20
191.558366
 30
0.0
 11
176.900445
 21
192.559016
 31
0.0
  0
LINE
  5
23A0
100
AcDbEntity
  8
DRAW
100
AcDbLine
 10
159.38907
 20
202.565516
 30
0.0
 11
160.38972
 21
201.564866
 31
0.0
1001
ACAD
1000
ASC_BOUNDS
1002
{
1070
    19
1005
0
1002
}
  0
CIRCLE
  5
24E0
100
AcDbEntity
  8
DRAW
100
AcDbCircle
 10
62.828433
 20
197.812429
 30
0.0
 40
2.5
  0
CIRCLE
  5
24E1
100
AcDbEntity
  8
DRAW
100
AcDbCircle
 10
69.232593
 20
197.812429
 30
0.0
 40
2.5
  0
CIRCLE
  5
24E2
100
AcDbEntity
  8
DRAW
100
AcDbCircle
 10
75.636753
 20
197.812429
 30
0.0
 40
2.5
  0
CIRCLE
  5
24E3
100
AcDbEntity
  8
DRAW
100
AcDbCircle
 10
75.636753
 20
187.805929
 30
0.0
 40
2.5
  0
CIRCLE
  5
24E4
100
AcDbEntity
  8
DRAW
100
AcDbCircle
 10
69.232593
 20
187.805929
 30
0.0
 40
2.5
  0
CIRCLE
  5
24E5
100
AcDbEntity
  8
DRAW
100
AcDbCircle
 10
62.828433
 20
187.805929
 30
0.0
 40
2.5
  0
CIRCLE
  5
24E6
100
AcDbEntity
  8
DRAW
100
AcDbCircle
 10
56.424273
 20
187.805929
 30
0.0
 40
2.5
  0
CIRCLE
  5
24E7
100
AcDbEntity
  8
DRAW
100
AcDbCircle
 10
56.424273
 20
177.799429
 30
0.0
 40
2.5
  0
CIRCLE
  5
24E8
100
AcDbEntity
  8
DRAW
100
AcDbCircle
 10
62.828433
 20
177.799429
 30
0.0
 40
2.5
  0
CIRCLE
  5
24E9
100
AcDbEntity
  8
DRAW
100
AcDbCircle
 10
69.232593
 20
177.799429
 30
0.0
 40
2.5
  0
CIRCLE
  5
24EA
100
AcDbEntity
  8
DRAW
100
AcDbCircle
 10
75.636753
 20
177.799429
 30
0.0
 40
2.5
  0
LINE
  5
2711
100
AcDbEntity
  8
DRAW
  6
CONTINUOUS
100
AcDbLine
 10
57.995221
 20
197.367983
 30
0.0
 11
58.837118
 21
197.367983
 31
0.0
  0
LINE
  5
2712
100
AcDbEntity
  8
DRAW
  6
CONTINUOUS
100
AcDbLine
 10
58.836921
 20
198.256846
 30
0.0
 11
57.992406
 21
198.256848
 31
0.0
  0
CIRCLE
  5
2713
100
AcDbEntity
  8
DRAW
  6
CONTINUOUS
100
AcDbCircle
 10
56.424273
 20
197.812429
 30
0.0
 40
2.453234
  0
LINE
  5
2714
100
AcDbEntity
  8
DRAW
  6
CONTINUOUS
100
AcDbLine
 10
54.619834
 20
197.589657
 30
0.0
 11
54.930944
 21
197.651878
 31
0.0
  0
LINE
  5
2715
100
AcDbEntity
  8
DRAW
  6
CONTINUOUS
100
AcDbLine
 10
54.619834
 20
198.034102
 30
0.0
 11
54.930944
 21
197.971878
 31
0.0
  0
LINE
  5
2716
100
AcDbEntity
  8
DRAW
  6
CONTINUOUS
100
AcDbLine
 10
55.664797
 20
197.052424
 30
0.0
 11
54.619834
 21
197.458796
 31
0.0
  0
LINE
  5
2717
100
AcDbEntity
  8
DRAW
  6
CONTINUOUS
100
AcDbLine
 10
55.664797
 20
198.571304
 30
0.0
 11
54.619834
 21
198.164961
 31
0.0
  0
LINE
  5
2718
100
AcDbEntity
  8
DRAW
  6
CONTINUOUS
100
AcDbLine
 10
54.011436
 20
197.367984
 30
0.0
 11
54.853355
 21
197.367984
 31
0.0
  0
LINE
  5
2719
100
AcDbEntity
  8
DRAW
  6
CONTINUOUS
100
AcDbLine
 10
54.856127
 20
198.256844
 30
0.0
 11
54.011634
 21
198.256844
 31
0.0
  0
LINE
  5
271A
100
AcDbEntity
  8
DRAW
  6
CONTINUOUS
100
AcDbLine
 10
54.619834
 20
197.811878
 30
0.0
 11
54.619834
 21
198.164961
 31
0.0
  0
LINE
  5
271B
100
AcDbEntity
  8
DRAW
  6
CONTINUOUS
100
AcDbLine
 10
54.619834
 20
197.811878
 30
0.0
 11
54.619834
 21
197.458796
 31
0.0
  0
LINE
  5
271C
100
AcDbEntity
  8
DRAW
  6
CONTINUOUS
100
AcDbLine
 10
55.665373
 20
198.571881
 30
0.0
 11
56.15813
 21
199.839066
 31
0.0
  0
LINE
  5
271D
100
AcDbEntity
  8
DRAW
  6
CONTINUOUS
100
AcDbLine
 10
56.690967
 20
199.838543
 30
0.0
 11
56.584305
 21
199.305211
 31
0.0
  0
LINE
  5
271E
100
AcDbEntity
  8
DRAW
  6
CONTINUOUS
100
AcDbLine
 10
56.157608
 20
199.838543
 30
0.0
 11
56.264277
 21
199.305211
 31
0.0
  0
LINE
  5
271F
100
AcDbEntity
  8
DRAW
  6
CONTINUOUS
100
AcDbLine
 10
57.183236
 20
198.571881
 30
0.0
 11
56.690445
 21
199.839066
 31
0.0
  0
LINE
  5
2720
100
AcDbEntity
  8
DRAW
  6
CONTINUOUS
100
AcDbLine
 10
56.583783
 20
199.305734
 30
0.0
 11
56.957114
 21
198.345732
 31
0.0
  0
LINE
  5
2721
100
AcDbEntity
  8
DRAW
  6
CONTINUOUS
100
AcDbLine
 10
56.583783
 20
196.318022
 30
0.0
 11
56.957114
 21
197.278024
 31
0.0
  0
LINE
  5
2722
100
AcDbEntity
  8
DRAW
  6
CONTINUOUS
100
AcDbLine
 10
57.183236
 20
197.051902
 30
0.0
 11
56.690445
 21
195.78469
 31
0.0
  0
LINE
  5
2723
100
AcDbEntity
  8
DRAW
  6
CONTINUOUS
100
AcDbLine
 10
56.264799
 20
199.305734
 30
0.0
 11
55.891461
 21
198.345732
 31
0.0
  0
LINE
  5
2724
100
AcDbEntity
  8
DRAW
  6
CONTINUOUS
100
AcDbLine
 10
56.424278
 20
199.305211
 30
0.0
 11
56.264277
 21
199.305211
 31
0.0
  0
LINE
  5
2725
100
AcDbEntity
  8
DRAW
  6
CONTINUOUS
100
AcDbLine
 10
56.424305
 20
199.305239
 30
0.0
 11
56.584305
 21
199.305211
 31
0.0
  0
LINE
  5
2726
100
AcDbEntity
  8
DRAW
  6
CONTINUOUS
100
AcDbLine
 10
56.690967
 20
195.785212
 30
0.0
 11
56.584305
 21
196.318544
 31
0.0
  0
LINE
  5
2727
100
AcDbEntity
  8
DRAW
  6
CONTINUOUS
100
AcDbLine
 10
56.424305
 20
195.785212
 30
0.0
 11
56.690967
 21
195.785212
 31
0.0
  0
LINE
  5
2728
100
AcDbEntity
  8
DRAW
  6
CONTINUOUS
100
AcDbLine
 10
55.665373
 20
197.051882
 30
0.0
 11
56.15813
 21
195.78469
 31
0.0
  0
LINE
  5
2729
100
AcDbEntity
  8
DRAW
  6
CONTINUOUS
100
AcDbLine
 10
56.157608
 20
195.785212
 30
0.0
 11
56.264277
 21
196.318544
 31
0.0
  0
LINE
  5
272A
100
AcDbEntity
  8
DRAW
  6
CONTINUOUS
100
AcDbLine
 10
56.264799
 20
196.318022
 30
0.0
 11
55.891461
 21
197.278024
 31
0.0
  0
LINE
  5
272B
100
AcDbEntity
  8
DRAW
  6
CONTINUOUS
100
AcDbLine
 10
55.664797
 20
197.052424
 30
0.0
 11
55.890946
 21
197.278573
 31
0.0
  0
LINE
  5
272C
100
AcDbEntity
  8
DRAW
  6
CONTINUOUS
100
AcDbLine
 10
56.424305
 20
196.318544
 30
0.0
 11
56.584305
 21
196.318544
 31
0.0
  0
LINE
  5
272D
100
AcDbEntity
  8
DRAW
  6
CONTINUOUS
100
AcDbLine
 10
56.424278
 20
196.318544
 30
0.0
 11
56.264277
 21
196.318544
 31
0.0
  0
LINE
  5
272E
100
AcDbEntity
  8
DRAW
  6
CONTINUOUS
100
AcDbLine
 10
56.424278
 20
195.785212
 30
0.0
 11
56.157608
 21
195.785212
 31
0.0
  0
LINE
  5
272F
100
AcDbEntity
  8
DRAW
  6
CONTINUOUS
100
AcDbLine
 10
55.664797
 20
198.571304
 30
0.0
 11
55.890946
 21
198.34521
 31
0.0
  0
LINE
  5
2730
100
AcDbEntity
  8
DRAW
  6
CONTINUOUS
100
AcDbLine
 10
54.930944
 20
197.811878
 30
0.0
 11
54.930944
 21
197.651878
 31
0.0
  0
LINE
  5
2731
100
AcDbEntity
  8
DRAW
  6
CONTINUOUS
100
AcDbLine
 10
54.930944
 20
197.811878
 30
0.0
 11
54.930944
 21
197.971878
 31
0.0
  0
LINE
  5
2732
100
AcDbEntity
  8
DRAW
  6
CONTINUOUS
100
AcDbLine
 10
54.930944
 20
197.971878
 30
0.0
 11
55.890946
 21
198.34521
 31
0.0
  0
LINE
  5
2733
100
AcDbEntity
  8
DRAW
  6
CONTINUOUS
100
AcDbLine
 10
54.930944
 20
197.651878
 30
0.0
 11
55.890946
 21
197.278546
 31
0.0
  0
LINE
  5
2734
100
AcDbEntity
  8
DRAW
  6
CONTINUOUS
100
AcDbLine
 10
57.917638
 20
197.811878
 30
0.0
 11
57.917638
 21
197.971878
 31
0.0
  0
LINE
  5
2735
100
AcDbEntity
  8
DRAW
  6
CONTINUOUS
100
AcDbLine
 10
58.228748
 20
198.034085
 30
0.0
 11
57.917638
 21
197.971878
 31
0.0
  0
LINE
  5
2736
100
AcDbEntity
  8
DRAW
  6
CONTINUOUS
100
AcDbLine
 10
58.228748
 20
197.811878
 30
0.0
 11
58.228748
 21
198.164937
 31
0.0
  0
LINE
  5
2737
100
AcDbEntity
  8
DRAW
  6
CONTINUOUS
100
AcDbLine
 10
58.228748
 20
197.589657
 30
0.0
 11
57.917638
 21
197.651878
 31
0.0
  0
LINE
  5
2738
100
AcDbEntity
  8
DRAW
  6
CONTINUOUS
100
AcDbLine
 10
57.917638
 20
197.811878
 30
0.0
 11
57.917638
 21
197.651878
 31
0.0
  0
LINE
  5
2739
100
AcDbEntity
  8
DRAW
  6
CONTINUOUS
100
AcDbLine
 10
58.228748
 20
197.811878
 30
0.0
 11
58.228748
 21
197.458798
 31
0.0
  0
LINE
  5
273A
100
AcDbEntity
  8
DRAW
  6
CONTINUOUS
100
AcDbLine
 10
57.183779
 20
197.052424
 30
0.0
 11
56.957637
 21
197.278573
 31
0.0
  0
LINE
  5
273B
100
AcDbEntity
  8
DRAW
  6
CONTINUOUS
100
AcDbLine
 10
57.183779
 20
197.052424
 30
0.0
 11
56.957637
 21
197.278573
 31
0.0
  0
LINE
  5
273C
100
AcDbEntity
  8
DRAW
  6
CONTINUOUS
100
AcDbLine
 10
57.183779
 20
198.571304
 30
0.0
 11
56.957637
 21
198.34521
 31
0.0
  0
LINE
  5
273D
100
AcDbEntity
  8
DRAW
  6
CONTINUOUS
100
AcDbLine
 10
57.183779
 20
197.052424
 30
0.0
 11
58.228748
 21
197.458798
 31
0.0
  0
LINE
  5
273E
100
AcDbEntity
  8
DRAW
  6
CONTINUOUS
100
AcDbLine
 10
57.917638
 20
197.971878
 30
0.0
 11
56.957637
 21
198.34521
 31
0.0
  0
LINE
  5
273F
100
AcDbEntity
  8
DRAW
  6
CONTINUOUS
100
AcDbLine
 10
57.183779
 20
198.571304
 30
0.0
 11
58.228748
 21
198.164937
 31
0.0
  0
LINE
  5
2740
100
AcDbEntity
  8
DRAW
  6
CONTINUOUS
100
AcDbLine
 10
57.917638
 20
197.651878
 30
0.0
 11
56.957637
 21
197.278546
 31
0.0
  0
LINE
  5
2741
100
AcDbEntity
  8
DRAW
  6
CONTINUOUS
100
AcDbLine
 10
56.424305
 20
199.838543
 30
0.0
 11
56.690967
 21
199.838543
 31
0.0
  0
LINE
  5
2742
100
AcDbEntity
  8
DRAW
  6
CONTINUOUS
100
AcDbLine
 10
56.424278
 20
199.838543
 30
0.0
 11
56.157608
 21
199.838543
 31
0.0
  0
LINE
  5
2743
100
AcDbEntity
  8
DRAW
  6
CONTINUOUS
100
AcDbLine
 10
57.995221
 20
187.361483
 30
0.0
 11
58.837118
 21
187.361483
 31
0.0
  0
LINE
  5
2744
100
AcDbEntity
  8
DRAW
  6
CONTINUOUS
100
AcDbLine
 10
58.836921
 20
188.250346
 30
0.0
 11
57.992406
 21
188.250348
 31
0.0
  0
CIRCLE
  5
2745
100
AcDbEntity
  8
DRAW
  6
CONTINUOUS
100
AcDbCircle
 10
56.424273
 20
187.805929
 30
0.0
 40
2.453234
  0
LINE
  5
2746
100
AcDbEntity
  8
DRAW
  6
CONTINUOUS
100
AcDbLine
 10
54.619834
 20
187.583157
 30
0.0
 11
54.930944
 21
187.645378
 31
0.0
  0
LINE
  5
2747
100
AcDbEntity
  8
DRAW
  6
CONTINUOUS
100
AcDbLine
 10
54.619834
 20
188.027602
 30
0.0
 11
54.930944
 21
187.965378
 31
0.0
  0
LINE
  5
2748
100
AcDbEntity
  8
DRAW
  6
CONTINUOUS
100
AcDbLine
 10
55.664797
 20
187.045924
 30
0.0
 11
54.619834
 21
187.452296
 31
0.0
  0
LINE
  5
2749
100
AcDbEntity
  8
DRAW
  6
CONTINUOUS
100
AcDbLine
 10
55.664797
 20
188.564804
 30
0.0
 11
54.619834
 21
188.158461
 31
0.0
  0
LINE
  5
274A
100
AcDbEntity
  8
DRAW
  6
CONTINUOUS
100
AcDbLine
 10
54.011436
 20
187.361484
 30
0.0
 11
54.853355
 21
187.361484
 31
0.0
  0
LINE
  5
274B
100
AcDbEntity
  8
DRAW
  6
CONTINUOUS
100
AcDbLine
 10
54.856127
 20
188.250344
 30
0.0
 11
54.011634
 21
188.250344
 31
0.0
  0
LINE
  5
274C
100
AcDbEntity
  8
DRAW
  6
CONTINUOUS
100
AcDbLine
 10
54.619834
 20
187.805378
 30
0.0
 11
54.619834
 21
188.158461
 31
0.0
  0
LINE
  5
274D
100
AcDbEntity
  8
DRAW
  6
CONTINUOUS
100
AcDbLine
 10
54.619834
 20
187.805378
 30
0.0
 11
54.619834
 21
187.452296
 31
0.0
  0
LINE
  5
274E
100
AcDbEntity
  8
DRAW
  6
CONTINUOUS
100
AcDbLine
 10
55.665373
 20
188.565381
 30
0.0
 11
56.15813
 21
189.832566
 31
0.0
  0
LINE
  5
274F
100
AcDbEntity
  8
DRAW
  6
CONTINUOUS
100
AcDbLine
 10
56.690967
 20
189.832043
 30
0.0
 11
56.584305
 21
189.298711
 31
0.0
  0
LINE
  5
2750
100
AcDbEntity
  8
DRAW
  6
CONTINUOUS
100
AcDbLine
 10
56.157608
 20
189.832043
 30
0.0
 11
56.264277
 21
189.298711
 31
0.0
  0
LINE
  5
2751
100
AcDbEntity
  8
DRAW
  6
CONTINUOUS
100
AcDbLine
 10
57.183236
 20
188.565381
 30
0.0
 11
56.690445
 21
189.832566
 31
0.0
  0
LINE
  5
2752
100
AcDbEntity
  8
DRAW
  6
CONTINUOUS
100
AcDbLine
 10
56.583783
 20
189.299234
 30
0.0
 11
56.957114
 21
188.339232
 31
0.0
  0
LINE
  5
2753
100
AcDbEntity
  8
DRAW
  6
CONTINUOUS
100
AcDbLine
 10
56.583783
 20
186.311522
 30
0.0
 11
56.957114
 21
187.271524
 31
0.0
  0
LINE
  5
2754
100
AcDbEntity
  8
DRAW
  6
CONTINUOUS
100
AcDbLine
 10
57.183236
 20
187.045402
 30
0.0
 11
56.690445
 21
185.77819
 31
0.0
  0
LINE
  5
2755
100
AcDbEntity
  8
DRAW
  6
CONTINUOUS
100
AcDbLine
 10
56.264799
 20
189.299234
 30
0.0
 11
55.891461
 21
188.339232
 31
0.0
  0
LINE
  5
2756
100
AcDbEntity
  8
DRAW
  6
CONTINUOUS
100
AcDbLine
 10
56.424278
 20
189.298711
 30
0.0
 11
56.264277
 21
189.298711
 31
0.0
  0
LINE
  5
2757
100
AcDbEntity
  8
DRAW
  6
CONTINUOUS
100
AcDbLine
 10
56.424305
 20
189.298739
 30
0.0
 11
56.584305
 21
189.298711
 31
0.0
  0
LINE
  5
2758
100
AcDbEntity
  8
DRAW
  6
CONTINUOUS
100
AcDbLine
 10
56.690967
 20
185.778712
 30
0.0
 11
56.584305
 21
186.312044
 31
0.0
  0
LINE
  5
2759
100
AcDbEntity
  8
DRAW
  6
CONTINUOUS
100
AcDbLine
 10
56.424305
 20
185.778712
 30
0.0
 11
56.690967
 21
185.778712
 31
0.0
  0
LINE
  5
275A
100
AcDbEntity
  8
DRAW
  6
CONTINUOUS
100
AcDbLine
 10
55.665373
 20
187.045382
 30
0.0
 11
56.15813
 21
185.77819
 31
0.0
  0
LINE
  5
275B
100
AcDbEntity
  8
DRAW
  6
CONTINUOUS
100
AcDbLine
 10
56.157608
 20
185.778712
 30
0.0
 11
56.264277
 21
186.312044
 31
0.0
  0
LINE
  5
275C
100
AcDbEntity
  8
DRAW
  6
CONTINUOUS
100
AcDbLine
 10
56.264799
 20
186.311522
 30
0.0
 11
55.891461
 21
187.271524
 31
0.0
  0
LINE
  5
275D
100
AcDbEntity
  8
DRAW
  6
CONTINUOUS
100
AcDbLine
 10
55.664797
 20
187.045924
 30
0.0
 11
55.890946
 21
187.272073
 31
0.0
  0
LINE
  5
275E
100
AcDbEntity
  8
DRAW
  6
CONTINUOUS
100
AcDbLine
 10
56.424305
 20
186.312044
 30
0.0
 11
56.584305
 21
186.312044
 31
0.0
  0
LINE
  5
275F
100
AcDbEntity
  8
DRAW
  6
CONTINUOUS
100
AcDbLine
 10
56.424278
 20
186.312044
 30
0.0
 11
56.264277
 21
186.312044
 31
0.0
  0
LINE
  5
2760
100
AcDbEntity
  8
DRAW
  6
CONTINUOUS
100
AcDbLine
 10
56.424278
 20
185.778712
 30
0.0
 11
56.157608
 21
185.778712
 31
0.0
  0
LINE
  5
2761
100
AcDbEntity
  8
DRAW
  6
CONTINUOUS
100
AcDbLine
 10
55.664797
 20
188.564804
 30
0.0
 11
55.890946
 21
188.33871
 31
0.0
  0
LINE
  5
2762
100
AcDbEntity
  8
DRAW
  6
CONTINUOUS
100
AcDbLine
 10
54.930944
 20
187.805378
 30
0.0
 11
54.930944
 21
187.645378
 31
0.0
  0
LINE
  5
2763
100
AcDbEntity
  8
DRAW
  6
CONTINUOUS
100
AcDbLine
 10
54.930944
 20
187.805378
 30
0.0
 11
54.930944
 21
187.965378
 31
0.0
  0
LINE
  5
2764
100
AcDbEntity
  8
DRAW
  6
CONTINUOUS
100
AcDbLine
 10
54.930944
 20
187.965378
 30
0.0
 11
55.890946
 21
188.33871
 31
0.0
  0
LINE
  5
2765
100
AcDbEntity
  8
DRAW
  6
CONTINUOUS
100
AcDbLine
 10
54.930944
 20
187.645378
 30
0.0
 11
55.890946
 21
187.272046
 31
0.0
  0
LINE
  5
2766
100
AcDbEntity
  8
DRAW
  6
CONTINUOUS
100
AcDbLine
 10
57.917638
 20
187.805378
 30
0.0
 11
57.917638
 21
187.965378
 31
0.0
  0
LINE
  5
2767
100
AcDbEntity
  8
DRAW
  6
CONTINUOUS
100
AcDbLine
 10
58.228748
 20
188.027585
 30
0.0
 11
57.917638
 21
187.965378
 31
0.0
  0
LINE
  5
2768
100
AcDbEntity
  8
DRAW
  6
CONTINUOUS
100
AcDbLine
 10
58.228748
 20
187.805378
 30
0.0
 11
58.228748
 21
188.158437
 31
0.0
  0
LINE
  5
2769
100
AcDbEntity
  8
DRAW
  6
CONTINUOUS
100
AcDbLine
 10
58.228748
 20
187.583157
 30
0.0
 11
57.917638
 21
187.645378
 31
0.0
  0
LINE
  5
276A
100
AcDbEntity
  8
DRAW
  6
CONTINUOUS
100
AcDbLine
 10
57.917638
 20
187.805378
 30
0.0
 11
57.917638
 21
187.645378
 31
0.0
  0
LINE
  5
276B
100
AcDbEntity
  8
DRAW
  6
CONTINUOUS
100
AcDbLine
 10
58.228748
 20
187.805378
 30
0.0
 11
58.228748
 21
187.452298
 31
0.0
  0
LINE
  5
276C
100
AcDbEntity
  8
DRAW
  6
CONTINUOUS
100
AcDbLine
 10
57.183779
 20
187.045924
 30
0.0
 11
56.957637
 21
187.272073
 31
0.0
  0
LINE
  5
276D
100
AcDbEntity
  8
DRAW
  6
CONTINUOUS
100
AcDbLine
 10
57.183779
 20
187.045924
 30
0.0
 11
56.957637
 21
187.272073
 31
0.0
  0
LINE
  5
276E
100
AcDbEntity
  8
DRAW
  6
CONTINUOUS
100
AcDbLine
 10
57.183779
 20
188.564804
 30
0.0
 11
56.957637
 21
188.33871
 31
0.0
  0
LINE
  5
276F
100
AcDbEntity
  8
DRAW
  6
CONTINUOUS
100
AcDbLine
 10
57.183779
 20
187.045924
 30
0.0
 11
58.228748
 21
187.452298
 31
0.0
  0
LINE
  5
2770
100
AcDbEntity
  8
DRAW
  6
CONTINUOUS
100
AcDbLine
 10
57.917638
 20
187.965378
 30
0.0
 11
56.957637
 21
188.33871
 31
0.0
  0
LINE
  5
2771
100
AcDbEntity
  8
DRAW
  6
CONTINUOUS
100
AcDbLine
 10
57.183779
 20
188.564804
 30
0.0
 11
58.228748
 21
188.158437
 31
0.0
  0
LINE
  5
2772
100
AcDbEntity
  8
DRAW
  6
CONTINUOUS
100
AcDbLine
 10
57.917638
 20
187.645378
 30
0.0
 11
56.957637
 21
187.272046
 31
0.0
  0
LINE
  5
2773
100
AcDbEntity
  8
DRAW
  6
CONTINUOUS
100
AcDbLine
 10
56.424305
 20
189.832043
 30
0.0
 11
56.690967
 21
189.832043
 31
0.0
  0
LINE
  5
2774
100
AcDbEntity
  8
DRAW
  6
CONTINUOUS
100
AcDbLine
 10
56.424278
 20
189.832043
 30
0.0
 11
56.157608
 21
189.832043
 31
0.0
  0
LINE
  5
2775
100
AcDbEntity
  8
DRAW
  6
CONTINUOUS
100
AcDbLine
 10
57.995221
 20
177.354983
 30
0.0
 11
58.837118
 21
177.354983
 31
0.0
  0
LINE
  5
2776
100
AcDbEntity
  8
DRAW
  6
CONTINUOUS
100
AcDbLine
 10
58.836921
 20
178.243846
 30
0.0
 11
57.992406
 21
178.243848
 31
0.0
  0
CIRCLE
  5
2777
100
AcDbEntity
  8
DRAW
  6
CONTINUOUS
100
AcDbCircle
 10
56.424273
 20
177.799429
 30
0.0
 40
2.453234
  0
LINE
  5
2778
100
AcDbEntity
  8
DRAW
  6
CONTINUOUS
100
AcDbLine
 10
54.619834
 20
177.576657
 30
0.0
 11
54.930944
 21
177.638878
 31
0.0
  0
LINE
  5
2779
100
AcDbEntity
  8
DRAW
  6
CONTINUOUS
100
AcDbLine
 10
54.619834
 20
178.021102
 30
0.0
 11
54.930944
 21
177.958878
 31
0.0
  0
LINE
  5
277A
100
AcDbEntity
  8
DRAW
  6
CONTINUOUS
100
AcDbLine
 10
55.664797
 20
177.039424
 30
0.0
 11
54.619834
 21
177.445796
 31
0.0
  0
LINE
  5
277B
100
AcDbEntity
  8
DRAW
  6
CONTINUOUS
100
AcDbLine
 10
55.664797
 20
178.558304
 30
0.0
 11
54.619834
 21
178.151961
 31
0.0
  0
LINE
  5
277C
100
AcDbEntity
  8
DRAW
  6
CONTINUOUS
100
AcDbLine
 10
54.011436
 20
177.354984
 30
0.0
 11
54.853355
 21
177.354984
 31
0.0
  0
LINE
  5
277D
100
AcDbEntity
  8
DRAW
  6
CONTINUOUS
100
AcDbLine
 10
54.856127
 20
178.243844
 30
0.0
 11
54.011634
 21
178.243844
 31
0.0
  0
LINE
  5
277E
100
AcDbEntity
  8
DRAW
  6
CONTINUOUS
100
AcDbLine
 10
54.619834
 20
177.798878
 30
0.0
 11
54.619834
 21
178.151961
 31
0.0
  0
LINE
  5
277F
100
AcDbEntity
  8
DRAW
  6
CONTINUOUS
100
AcDbLine
 10
54.619834
 20
177.798878
 30
0.0
 11
54.619834
 21
177.445796
 31
0.0
  0
LINE
  5
2780
100
AcDbEntity
  8
DRAW
  6
CONTINUOUS
100
AcDbLine
 10
55.665373
 20
178.558881
 30
0.0
 11
56.15813
 21
179.826066
 31
0.0
  0
LINE
  5
2781
100
AcDbEntity
  8
DRAW
  6
CONTINUOUS
100
AcDbLine
 10
56.690967
 20
179.825543
 30
0.0
 11
56.584305
 21
179.292211
 31
0.0
  0
LINE
  5
2782
100
AcDbEntity
  8
DRAW
  6
CONTINUOUS
100
AcDbLine
 10
56.157608
 20
179.825543
 30
0.0
 11
56.264277
 21
179.292211
 31
0.0
  0
LINE
  5
2783
100
AcDbEntity
  8
DRAW
  6
CONTINUOUS
100
AcDbLine
 10
57.183236
 20
178.558881
 30
0.0
 11
56.690445
 21
179.826066
 31
0.0
  0
LINE
  5
2784
100
AcDbEntity
  8
DRAW
  6
CONTINUOUS
100
AcDbLine
 10
56.583783
 20
179.292734
 30
0.0
 11
56.957114
 21
178.332732
 31
0.0
  0
LINE
  5
2785
100
AcDbEntity
  8
DRAW
  6
CONTINUOUS
100
AcDbLine
 10
56.583783
 20
176.305022
 30
0.0
 11
56.957114
 21
177.265024
 31
0.0
  0
LINE
  5
2786
100
AcDbEntity
  8
DRAW
  6
CONTINUOUS
100
AcDbLine
 10
57.183236
 20
177.038902
 30
0.0
 11
56.690445
 21
175.77169
 31
0.0
  0
LINE
  5
2787
100
AcDbEntity
  8
DRAW
  6
CONTINUOUS
100
AcDbLine
 10
56.264799
 20
179.292734
 30
0.0
 11
55.891461
 21
178.332732
 31
0.0
  0
LINE
  5
2788
100
AcDbEntity
  8
DRAW
  6
CONTINUOUS
100
AcDbLine
 10
56.424278
 20
179.292211
 30
0.0
 11
56.264277
 21
179.292211
 31
0.0
  0
LINE
  5
2789
100
AcDbEntity
  8
DRAW
  6
CONTINUOUS
100
AcDbLine
 10
56.424305
 20
179.292239
 30
0.0
 11
56.584305
 21
179.292211
 31
0.0
  0
LINE
  5
278A
100
AcDbEntity
  8
DRAW
  6
CONTINUOUS
100
AcDbLine
 10
56.690967
 20
175.772212
 30
0.0
 11
56.584305
 21
176.305544
 31
0.0
  0
LINE
  5
278B
100
AcDbEntity
  8
DRAW
  6
CONTINUOUS
100
AcDbLine
 10
56.424305
 20
175.772212
 30
0.0
 11
56.690967
 21
175.772212
 31
0.0
  0
LINE
  5
278C
100
AcDbEntity
  8
DRAW
  6
CONTINUOUS
100
AcDbLine
 10
55.665373
 20
177.038882
 30
0.0
 11
56.15813
 21
175.77169
 31
0.0
  0
LINE
  5
278D
100
AcDbEntity
  8
DRAW
  6
CONTINUOUS
100
AcDbLine
 10
56.157608
 20
175.772212
 30
0.0
 11
56.264277
 21
176.305544
 31
0.0
  0
LINE
  5
278E
100
AcDbEntity
  8
DRAW
  6
CONTINUOUS
100
AcDbLine
 10
56.264799
 20
176.305022
 30
0.0
 11
55.891461
 21
177.265024
 31
0.0
  0
LINE
  5
278F
100
AcDbEntity
  8
DRAW
  6
CONTINUOUS
100
AcDbLine
 10
55.664797
 20
177.039424
 30
0.0
 11
55.890946
 21
177.265573
 31
0.0
  0
LINE
  5
2790
100
AcDbEntity
  8
DRAW
  6
CONTINUOUS
100
AcDbLine
 10
56.424305
 20
176.305544
 30
0.0
 11
56.584305
 21
176.305544
 31
0.0
  0
LINE
  5
2791
100
AcDbEntity
  8
DRAW
  6
CONTINUOUS
100
AcDbLine
 10
56.424278
 20
176.305544
 30
0.0
 11
56.264277
 21
176.305544
 31
0.0
  0
LINE
  5
2792
100
AcDbEntity
  8
DRAW
  6
CONTINUOUS
100
AcDbLine
 10
56.424278
 20
175.772212
 30
0.0
 11
56.157608
 21
175.772212
 31
0.0
  0
LINE
  5
2793
100
AcDbEntity
  8
DRAW
  6
CONTINUOUS
100
AcDbLine
 10
55.664797
 20
178.558304
 30
0.0
 11
55.890946
 21
178.33221
 31
0.0
  0
LINE
  5
2794
100
AcDbEntity
  8
DRAW
  6
CONTINUOUS
100
AcDbLine
 10
54.930944
 20
177.798878
 30
0.0
 11
54.930944
 21
177.638878
 31
0.0
  0
LINE
  5
2795
100
AcDbEntity
  8
DRAW
  6
CONTINUOUS
100
AcDbLine
 10
54.930944
 20
177.798878
 30
0.0
 11
54.930944
 21
177.958878
 31
0.0
  0
LINE
  5
2796
100
AcDbEntity
  8
DRAW
  6
CONTINUOUS
100
AcDbLine
 10
54.930944
 20
177.958878
 30
0.0
 11
55.890946
 21
178.33221
 31
0.0
  0
LINE
  5
2797
100
AcDbEntity
  8
DRAW
  6
CONTINUOUS
100
AcDbLine
 10
54.930944
 20
177.638878
 30
0.0
 11
55.890946
 21
177.265546
 31
0.0
  0
LINE
  5
2798
100
AcDbEntity
  8
DRAW
  6
CONTINUOUS
100
AcDbLine
 10
57.917638
 20
177.798878
 30
0.0
 11
57.917638
 21
177.958878
 31
0.0
  0
LINE
  5
2799
100
AcDbEntity
  8
DRAW
  6
CONTINUOUS
100
AcDbLine
 10
58.228748
 20
178.021085
 30
0.0
 11
57.917638
 21
177.958878
 31
0.0
  0
LINE
  5
279A
100
AcDbEntity
  8
DRAW
  6
CONTINUOUS
100
AcDbLine
 10
58.228748
 20
177.798878
 30
0.0
 11
58.228748
 21
178.151937
 31
0.0
  0
LINE
  5
279B
100
AcDbEntity
  8
DRAW
  6
CONTINUOUS
100
AcDbLine
 10
58.228748
 20
177.576657
 30
0.0
 11
57.917638
 21
177.638878
 31
0.0
  0
LINE
  5
279C
100
AcDbEntity
  8
DRAW
  6
CONTINUOUS
100
AcDbLine
 10
57.917638
 20
177.798878
 30
0.0
 11
57.917638
 21
177.638878
 31
0.0
  0
LINE
  5
279D
100
AcDbEntity
  8
DRAW
  6
CONTINUOUS
100
AcDbLine
 10
58.228748
 20
177.798878
 30
0.0
 11
58.228748
 21
177.445798
 31
0.0
  0
LINE
  5
279E
100
AcDbEntity
  8
DRAW
  6
CONTINUOUS
100
AcDbLine
 10
57.183779
 20
177.039424
 30
0.0
 11
56.957637
 21
177.265573
 31
0.0
  0
LINE
  5
279F
100
AcDbEntity
  8
DRAW
  6
CONTINUOUS
100
AcDbLine
 10
57.183779
 20
177.039424
 30
0.0
 11
56.957637
 21
177.265573
 31
0.0
  0
LINE
  5
27A0
100
AcDbEntity
  8
DRAW
  6
CONTINUOUS
100
AcDbLine
 10
57.183779
 20
178.558304
 30
0.0
 11
56.957637
 21
178.33221
 31
0.0
  0
LINE
  5
27A1
100
AcDbEntity
  8
DRAW
  6
CONTINUOUS
100
AcDbLine
 10
57.183779
 20
177.039424
 30
0.0
 11
58.228748
 21
177.445798
 31
0.0
  0
LINE
  5
27A2
100
AcDbEntity
  8
DRAW
  6
CONTINUOUS
100
AcDbLine
 10
57.917638
 20
177.958878
 30
0.0
 11
56.957637
 21
178.33221
 31
0.0
  0
LINE
  5
27A3
100
AcDbEntity
  8
DRAW
  6
CONTINUOUS
100
AcDbLine
 10
57.183779
 20
178.558304
 30
0.0
 11
58.228748
 21
178.151937
 31
0.0
  0
LINE
  5
27A4
100
AcDbEntity
  8
DRAW
  6
CONTINUOUS
100
AcDbLine
 10
57.917638
 20
177.638878
 30
0.0
 11
56.957637
 21
177.265546
 31
0.0
  0
LINE
  5
27A5
100
AcDbEntity
  8
DRAW
  6
CONTINUOUS
100
AcDbLine
 10
56.424305
 20
179.825543
 30
0.0
 11
56.690967
 21
179.825543
 31
0.0
  0
LINE
  5
27A6
100
AcDbEntity
  8
DRAW
  6
CONTINUOUS
100
AcDbLine
 10
56.424278
 20
179.825543
 30
0.0
 11
56.157608
 21
179.825543
 31
0.0
  0
LINE
  5
280B
100
AcDbEntity
  8
DRAW
  6
CONTINUOUS
100
AcDbLine
 10
77.207701
 20
177.354983
 30
0.0
 11
78.049598
 21
177.354983
 31
0.0
  0
LINE
  5
280C
100
AcDbEntity
  8
DRAW
  6
CONTINUOUS
100
AcDbLine
 10
78.049401
 20
178.243846
 30
0.0
 11
77.204886
 21
178.243848
 31
0.0
  0
CIRCLE
  5
280D
100
AcDbEntity
  8
DRAW
  6
CONTINUOUS
100
AcDbCircle
 10
75.636753
 20
177.799429
 30
0.0
 40
2.453234
  0
LINE
  5
280E
100
AcDbEntity
  8
DRAW
  6
CONTINUOUS
100
AcDbLine
 10
73.832314
 20
177.576657
 30
0.0
 11
74.143424
 21
177.638878
 31
0.0
  0
LINE
  5
280F
100
AcDbEntity
  8
DRAW
  6
CONTINUOUS
100
AcDbLine
 10
73.832314
 20
178.021102
 30
0.0
 11
74.143424
 21
177.958878
 31
0.0
  0
LINE
  5
2810
100
AcDbEntity
  8
DRAW
  6
CONTINUOUS
100
AcDbLine
 10
74.877277
 20
177.039424
 30
0.0
 11
73.832314
 21
177.445796
 31
0.0
  0
LINE
  5
2811
100
AcDbEntity
  8
DRAW
  6
CONTINUOUS
100
AcDbLine
 10
74.877277
 20
178.558304
 30
0.0
 11
73.832314
 21
178.151961
 31
0.0
  0
LINE
  5
2812
100
AcDbEntity
  8
DRAW
  6
CONTINUOUS
100
AcDbLine
 10
73.223916
 20
177.354984
 30
0.0
 11
74.065835
 21
177.354984
 31
0.0
  0
LINE
  5
2813
100
AcDbEntity
  8
DRAW
  6
CONTINUOUS
100
AcDbLine
 10
74.068607
 20
178.243844
 30
0.0
 11
73.224114
 21
178.243844
 31
0.0
  0
LINE
  5
2814
100
AcDbEntity
  8
DRAW
  6
CONTINUOUS
100
AcDbLine
 10
73.832314
 20
177.798878
 30
0.0
 11
73.832314
 21
178.151961
 31
0.0
  0
LINE
  5
2815
100
AcDbEntity
  8
DRAW
  6
CONTINUOUS
100
AcDbLine
 10
73.832314
 20
177.798878
 30
0.0
 11
73.832314
 21
177.445796
 31
0.0
  0
LINE
  5
2816
100
AcDbEntity
  8
DRAW
  6
CONTINUOUS
100
AcDbLine
 10
74.877853
 20
178.558881
 30
0.0
 11
75.37061
 21
179.826066
 31
0.0
  0
LINE
  5
2817
100
AcDbEntity
  8
DRAW
  6
CONTINUOUS
100
AcDbLine
 10
75.903447
 20
179.825543
 30
0.0
 11
75.796785
 21
179.292211
 31
0.0
  0
LINE
  5
2818
100
AcDbEntity
  8
DRAW
  6
CONTINUOUS
100
AcDbLine
 10
75.370088
 20
179.825543
 30
0.0
 11
75.476757
 21
179.292211
 31
0.0
  0
LINE
  5
2819
100
AcDbEntity
  8
DRAW
  6
CONTINUOUS
100
AcDbLine
 10
76.395716
 20
178.558881
 30
0.0
 11
75.902925
 21
179.826066
 31
0.0
  0
LINE
  5
281A
100
AcDbEntity
  8
DRAW
  6
CONTINUOUS
100
AcDbLine
 10
75.796263
 20
179.292734
 30
0.0
 11
76.169594
 21
178.332732
 31
0.0
  0
LINE
  5
281B
100
AcDbEntity
  8
DRAW
  6
CONTINUOUS
100
AcDbLine
 10
75.796263
 20
176.305022
 30
0.0
 11
76.169594
 21
177.265024
 31
0.0
  0
LINE
  5
281C
100
AcDbEntity
  8
DRAW
  6
CONTINUOUS
100
AcDbLine
 10
76.395716
 20
177.038902
 30
0.0
 11
75.902925
 21
175.77169
 31
0.0
  0
LINE
  5
281D
100
AcDbEntity
  8
DRAW
  6
CONTINUOUS
100
AcDbLine
 10
75.477279
 20
179.292734
 30
0.0
 11
75.103941
 21
178.332732
 31
0.0
  0
LINE
  5
281E
100
AcDbEntity
  8
DRAW
  6
CONTINUOUS
100
AcDbLine
 10
75.636758
 20
179.292211
 30
0.0
 11
75.476757
 21
179.292211
 31
0.0
  0
LINE
  5
281F
100
AcDbEntity
  8
DRAW
  6
CONTINUOUS
100
AcDbLine
 10
75.636785
 20
179.292239
 30
0.0
 11
75.796785
 21
179.292211
 31
0.0
  0
LINE
  5
2820
100
AcDbEntity
  8
DRAW
  6
CONTINUOUS
100
AcDbLine
 10
75.903447
 20
175.772212
 30
0.0
 11
75.796785
 21
176.305544
 31
0.0
  0
LINE
  5
2821
100
AcDbEntity
  8
DRAW
  6
CONTINUOUS
100
AcDbLine
 10
75.636785
 20
175.772212
 30
0.0
 11
75.903447
 21
175.772212
 31
0.0
  0
LINE
  5
2822
100
AcDbEntity
  8
DRAW
  6
CONTINUOUS
100
AcDbLine
 10
74.877853
 20
177.038882
 30
0.0
 11
75.37061
 21
175.77169
 31
0.0
  0
LINE
  5
2823
100
AcDbEntity
  8
DRAW
  6
CONTINUOUS
100
AcDbLine
 10
75.370088
 20
175.772212
 30
0.0
 11
75.476757
 21
176.305544
 31
0.0
  0
LINE
  5
2824
100
AcDbEntity
  8
DRAW
  6
CONTINUOUS
100
AcDbLine
 10
75.477279
 20
176.305022
 30
0.0
 11
75.103941
 21
177.265024
 31
0.0
  0
LINE
  5
2825
100
AcDbEntity
  8
DRAW
  6
CONTINUOUS
100
AcDbLine
 10
74.877277
 20
177.039424
 30
0.0
 11
75.103426
 21
177.265573
 31
0.0
  0
LINE
  5
2826
100
AcDbEntity
  8
DRAW
  6
CONTINUOUS
100
AcDbLine
 10
75.636785
 20
176.305544
 30
0.0
 11
75.796785
 21
176.305544
 31
0.0
  0
LINE
  5
2827
100
AcDbEntity
  8
DRAW
  6
CONTINUOUS
100
AcDbLine
 10
75.636758
 20
176.305544
 30
0.0
 11
75.476757
 21
176.305544
 31
0.0
  0
LINE
  5
2828
100
AcDbEntity
  8
DRAW
  6
CONTINUOUS
100
AcDbLine
 10
75.636758
 20
175.772212
 30
0.0
 11
75.370088
 21
175.772212
 31
0.0
  0
LINE
  5
2829
100
AcDbEntity
  8
DRAW
  6
CONTINUOUS
100
AcDbLine
 10
74.877277
 20
178.558304
 30
0.0
 11
75.103426
 21
178.33221
 31
0.0
  0
LINE
  5
282A
100
AcDbEntity
  8
DRAW
  6
CONTINUOUS
100
AcDbLine
 10
74.143424
 20
177.798878
 30
0.0
 11
74.143424
 21
177.638878
 31
0.0
  0
LINE
  5
282B
100
AcDbEntity
  8
DRAW
  6
CONTINUOUS
100
AcDbLine
 10
74.143424
 20
177.798878
 30
0.0
 11
74.143424
 21
177.958878
 31
0.0
  0
LINE
  5
282C
100
AcDbEntity
  8
DRAW
  6
CONTINUOUS
100
AcDbLine
 10
74.143424
 20
177.958878
 30
0.0
 11
75.103426
 21
178.33221
 31
0.0
  0
LINE
  5
282D
100
AcDbEntity
  8
DRAW
  6
CONTINUOUS
100
AcDbLine
 10
74.143424
 20
177.638878
 30
0.0
 11
75.103426
 21
177.265546
 31
0.0
  0
LINE
  5
282E
100
AcDbEntity
  8
DRAW
  6
CONTINUOUS
100
AcDbLine
 10
77.130118
 20
177.798878
 30
0.0
 11
77.130118
 21
177.958878
 31
0.0
  0
LINE
  5
282F
100
AcDbEntity
  8
DRAW
  6
CONTINUOUS
100
AcDbLine
 10
77.441228
 20
178.021085
 30
0.0
 11
77.130118
 21
177.958878
 31
0.0
  0
LINE
  5
2830
100
AcDbEntity
  8
DRAW
  6
CONTINUOUS
100
AcDbLine
 10
77.441228
 20
177.798878
 30
0.0
 11
77.441228
 21
178.151937
 31
0.0
  0
LINE
  5
2831
100
AcDbEntity
  8
DRAW
  6
CONTINUOUS
100
AcDbLine
 10
77.441228
 20
177.576657
 30
0.0
 11
77.130118
 21
177.638878
 31
0.0
  0
LINE
  5
2832
100
AcDbEntity
  8
DRAW
  6
CONTINUOUS
100
AcDbLine
 10
77.130118
 20
177.798878
 30
0.0
 11
77.130118
 21
177.638878
 31
0.0
  0
LINE
  5
2833
100
AcDbEntity
  8
DRAW
  6
CONTINUOUS
100
AcDbLine
 10
77.441228
 20
177.798878
 30
0.0
 11
77.441228
 21
177.445798
 31
0.0
  0
LINE
  5
2834
100
AcDbEntity
  8
DRAW
  6
CONTINUOUS
100
AcDbLine
 10
76.396259
 20
177.039424
 30
0.0
 11
76.170117
 21
177.265573
 31
0.0
  0
LINE
  5
2835
100
AcDbEntity
  8
DRAW
  6
CONTINUOUS
100
AcDbLine
 10
76.396259
 20
177.039424
 30
0.0
 11
76.170117
 21
177.265573
 31
0.0
  0
LINE
  5
2836
100
AcDbEntity
  8
DRAW
  6
CONTINUOUS
100
AcDbLine
 10
76.396259
 20
178.558304
 30
0.0
 11
76.170117
 21
178.33221
 31
0.0
  0
LINE
  5
2837
100
AcDbEntity
  8
DRAW
  6
CONTINUOUS
100
AcDbLine
 10
76.396259
 20
177.039424
 30
0.0
 11
77.441228
 21
177.445798
 31
0.0
  0
LINE
  5
2838
100
AcDbEntity
  8
DRAW
  6
CONTINUOUS
100
AcDbLine
 10
77.130118
 20
177.958878
 30
0.0
 11
76.170117
 21
178.33221
 31
0.0
  0
LINE
  5
2839
100
AcDbEntity
  8
DRAW
  6
CONTINUOUS
100
AcDbLine
 10
76.396259
 20
178.558304
 30
0.0
 11
77.441228
 21
178.151937
 31
0.0
  0
LINE
  5
283A
100
AcDbEntity
  8
DRAW
  6
CONTINUOUS
100
AcDbLine
 10
77.130118
 20
177.638878
 30
0.0
 11
76.170117
 21
177.265546
 31
0.0
  0
LINE
  5
283B
100
AcDbEntity
  8
DRAW
  6
CONTINUOUS
100
AcDbLine
 10
75.636785
 20
179.825543
 30
0.0
 11
75.903447
 21
179.825543
 31
0.0
  0
LINE
  5
283C
100
AcDbEntity
  8
DRAW
  6
CONTINUOUS
100
AcDbLine
 10
75.636758
 20
179.825543
 30
0.0
 11
75.370088
 21
179.825543
 31
0.0
  0
LINE
  5
283D
100
AcDbEntity
  8
DRAW
  6
CONTINUOUS
100
AcDbLine
 10
77.207701
 20
187.361483
 30
0.0
 11
78.049598
 21
187.361483
 31
0.0
  0
LINE
  5
283E
100
AcDbEntity
  8
DRAW
  6
CONTINUOUS
100
AcDbLine
 10
78.049401
 20
188.250346
 30
0.0
 11
77.204886
 21
188.250348
 31
0.0
  0
CIRCLE
  5
283F
100
AcDbEntity
  8
DRAW
  6
CONTINUOUS
100
AcDbCircle
 10
75.636753
 20
187.805929
 30
0.0
 40
2.453234
  0
LINE
  5
2840
100
AcDbEntity
  8
DRAW
  6
CONTINUOUS
100
AcDbLine
 10
73.832314
 20
187.583157
 30
0.0
 11
74.143424
 21
187.645378
 31
0.0
  0
LINE
  5
2841
100
AcDbEntity
  8
DRAW
  6
CONTINUOUS
100
AcDbLine
 10
73.832314
 20
188.027602
 30
0.0
 11
74.143424
 21
187.965378
 31
0.0
  0
LINE
  5
2842
100
AcDbEntity
  8
DRAW
  6
CONTINUOUS
100
AcDbLine
 10
74.877277
 20
187.045924
 30
0.0
 11
73.832314
 21
187.452296
 31
0.0
  0
LINE
  5
2843
100
AcDbEntity
  8
DRAW
  6
CONTINUOUS
100
AcDbLine
 10
74.877277
 20
188.564804
 30
0.0
 11
73.832314
 21
188.158461
 31
0.0
  0
LINE
  5
2844
100
AcDbEntity
  8
DRAW
  6
CONTINUOUS
100
AcDbLine
 10
73.223916
 20
187.361484
 30
0.0
 11
74.065835
 21
187.361484
 31
0.0
  0
LINE
  5
2845
100
AcDbEntity
  8
DRAW
  6
CONTINUOUS
100
AcDbLine
 10
74.068607
 20
188.250344
 30
0.0
 11
73.224114
 21
188.250344
 31
0.0
  0
LINE
  5
2846
100
AcDbEntity
  8
DRAW
  6
CONTINUOUS
100
AcDbLine
 10
73.832314
 20
187.805378
 30
0.0
 11
73.832314
 21
188.158461
 31
0.0
  0
LINE
  5
2847
100
AcDbEntity
  8
DRAW
  6
CONTINUOUS
100
AcDbLine
 10
73.832314
 20
187.805378
 30
0.0
 11
73.832314
 21
187.452296
 31
0.0
  0
LINE
  5
2848
100
AcDbEntity
  8
DRAW
  6
CONTINUOUS
100
AcDbLine
 10
74.877853
 20
188.565381
 30
0.0
 11
75.37061
 21
189.832566
 31
0.0
  0
LINE
  5
2849
100
AcDbEntity
  8
DRAW
  6
CONTINUOUS
100
AcDbLine
 10
75.903447
 20
189.832043
 30
0.0
 11
75.796785
 21
189.298711
 31
0.0
  0
LINE
  5
284A
100
AcDbEntity
  8
DRAW
  6
CONTINUOUS
100
AcDbLine
 10
75.370088
 20
189.832043
 30
0.0
 11
75.476757
 21
189.298711
 31
0.0
  0
LINE
  5
284B
100
AcDbEntity
  8
DRAW
  6
CONTINUOUS
100
AcDbLine
 10
76.395716
 20
188.565381
 30
0.0
 11
75.902925
 21
189.832566
 31
0.0
  0
LINE
  5
284C
100
AcDbEntity
  8
DRAW
  6
CONTINUOUS
100
AcDbLine
 10
75.796263
 20
189.299234
 30
0.0
 11
76.169594
 21
188.339232
 31
0.0
  0
LINE
  5
284D
100
AcDbEntity
  8
DRAW
  6
CONTINUOUS
100
AcDbLine
 10
75.796263
 20
186.311522
 30
0.0
 11
76.169594
 21
187.271524
 31
0.0
  0
LINE
  5
284E
100
AcDbEntity
  8
DRAW
  6
CONTINUOUS
100
AcDbLine
 10
76.395716
 20
187.045402
 30
0.0
 11
75.902925
 21
185.77819
 31
0.0
  0
LINE
  5
284F
100
AcDbEntity
  8
DRAW
  6
CONTINUOUS
100
AcDbLine
 10
75.477279
 20
189.299234
 30
0.0
 11
75.103941
 21
188.339232
 31
0.0
  0
LINE
  5
2850
100
AcDbEntity
  8
DRAW
  6
CONTINUOUS
100
AcDbLine
 10
75.636758
 20
189.298711
 30
0.0
 11
75.476757
 21
189.298711
 31
0.0
  0
LINE
  5
2851
100
AcDbEntity
  8
DRAW
  6
CONTINUOUS
100
AcDbLine
 10
75.636785
 20
189.298739
 30
0.0
 11
75.796785
 21
189.298711
 31
0.0
  0
LINE
  5
2852
100
AcDbEntity
  8
DRAW
  6
CONTINUOUS
100
AcDbLine
 10
75.903447
 20
185.778712
 30
0.0
 11
75.796785
 21
186.312044
 31
0.0
  0
LINE
  5
2853
100
AcDbEntity
  8
DRAW
  6
CONTINUOUS
100
AcDbLine
 10
75.636785
 20
185.778712
 30
0.0
 11
75.903447
 21
185.778712
 31
0.0
  0
LINE
  5
2854
100
AcDbEntity
  8
DRAW
  6
CONTINUOUS
100
AcDbLine
 10
74.877853
 20
187.045382
 30
0.0
 11
75.37061
 21
185.77819
 31
0.0
  0
LINE
  5
2855
100
AcDbEntity
  8
DRAW
  6
CONTINUOUS
100
AcDbLine
 10
75.370088
 20
185.778712
 30
0.0
 11
75.476757
 21
186.312044
 31
0.0
  0
LINE
  5
2856
100
AcDbEntity
  8
DRAW
  6
CONTINUOUS
100
AcDbLine
 10
75.477279
 20
186.311522
 30
0.0
 11
75.103941
 21
187.271524
 31
0.0
  0
LINE
  5
2857
100
AcDbEntity
  8
DRAW
  6
CONTINUOUS
100
AcDbLine
 10
74.877277
 20
187.045924
 30
0.0
 11
75.103426
 21
187.272073
 31
0.0
  0
LINE
  5
2858
100
AcDbEntity
  8
DRAW
  6
CONTINUOUS
100
AcDbLine
 10
75.636785
 20
186.312044
 30
0.0
 11
75.796785
 21
186.312044
 31
0.0
  0
LINE
  5
2859
100
AcDbEntity
  8
DRAW
  6
CONTINUOUS
100
AcDbLine
 10
75.636758
 20
186.312044
 30
0.0
 11
75.476757
 21
186.312044
 31
0.0
  0
LINE
  5
285A
100
AcDbEntity
  8
DRAW
  6
CONTINUOUS
100
AcDbLine
 10
75.636758
 20
185.778712
 30
0.0
 11
75.370088
 21
185.778712
 31
0.0
  0
LINE
  5
285B
100
AcDbEntity
  8
DRAW
  6
CONTINUOUS
100
AcDbLine
 10
74.877277
 20
188.564804
 30
0.0
 11
75.103426
 21
188.33871
 31
0.0
  0
LINE
  5
285C
100
AcDbEntity
  8
DRAW
  6
CONTINUOUS
100
AcDbLine
 10
74.143424
 20
187.805378
 30
0.0
 11
74.143424
 21
187.645378
 31
0.0
  0
LINE
  5
285D
100
AcDbEntity
  8
DRAW
  6
CONTINUOUS
100
AcDbLine
 10
74.143424
 20
187.805378
 30
0.0
 11
74.143424
 21
187.965378
 31
0.0
  0
LINE
  5
285E
100
AcDbEntity
  8
DRAW
  6
CONTINUOUS
100
AcDbLine
 10
74.143424
 20
187.965378
 30
0.0
 11
75.103426
 21
188.33871
 31
0.0
  0
LINE
  5
285F
100
AcDbEntity
  8
DRAW
  6
CONTINUOUS
100
AcDbLine
 10
74.143424
 20
187.645378
 30
0.0
 11
75.103426
 21
187.272046
 31
0.0
  0
LINE
  5
2860
100
AcDbEntity
  8
DRAW
  6
CONTINUOUS
100
AcDbLine
 10
77.130118
 20
187.805378
 30
0.0
 11
77.130118
 21
187.965378
 31
0.0
  0
LINE
  5
2861
100
AcDbEntity
  8
DRAW
  6
CONTINUOUS
100
AcDbLine
 10
77.441228
 20
188.027585
 30
0.0
 11
77.130118
 21
187.965378
 31
0.0
  0
LINE
  5
2862
100
AcDbEntity
  8
DRAW
  6
CONTINUOUS
100
AcDbLine
 10
77.441228
 20
187.805378
 30
0.0
 11
77.441228
 21
188.158437
 31
0.0
  0
LINE
  5
2863
100
AcDbEntity
  8
DRAW
  6
CONTINUOUS
100
AcDbLine
 10
77.441228
 20
187.583157
 30
0.0
 11
77.130118
 21
187.645378
 31
0.0
  0
LINE
  5
2864
100
AcDbEntity
  8
DRAW
  6
CONTINUOUS
100
AcDbLine
 10
77.130118
 20
187.805378
 30
0.0
 11
77.130118
 21
187.645378
 31
0.0
  0
LINE
  5
2865
100
AcDbEntity
  8
DRAW
  6
CONTINUOUS
100
AcDbLine
 10
77.441228
 20
187.805378
 30
0.0
 11
77.441228
 21
187.452298
 31
0.0
  0
LINE
  5
2866
100
AcDbEntity
  8
DRAW
  6
CONTINUOUS
100
AcDbLine
 10
76.396259
 20
187.045924
 30
0.0
 11
76.170117
 21
187.272073
 31
0.0
  0
LINE
  5
2867
100
AcDbEntity
  8
DRAW
  6
CONTINUOUS
100
AcDbLine
 10
76.396259
 20
187.045924
 30
0.0
 11
76.170117
 21
187.272073
 31
0.0
  0
LINE
  5
2868
100
AcDbEntity
  8
DRAW
  6
CONTINUOUS
100
AcDbLine
 10
76.396259
 20
188.564804
 30
0.0
 11
76.170117
 21
188.33871
 31
0.0
  0
LINE
  5
2869
100
AcDbEntity
  8
DRAW
  6
CONTINUOUS
100
AcDbLine
 10
76.396259
 20
187.045924
 30
0.0
 11
77.441228
 21
187.452298
 31
0.0
  0
LINE
  5
286A
100
AcDbEntity
  8
DRAW
  6
CONTINUOUS
100
AcDbLine
 10
77.130118
 20
187.965378
 30
0.0
 11
76.170117
 21
188.33871
 31
0.0
  0
LINE
  5
286B
100
AcDbEntity
  8
DRAW
  6
CONTINUOUS
100
AcDbLine
 10
76.396259
 20
188.564804
 30
0.0
 11
77.441228
 21
188.158437
 31
0.0
  0
LINE
  5
286C
100
AcDbEntity
  8
DRAW
  6
CONTINUOUS
100
AcDbLine
 10
77.130118
 20
187.645378
 30
0.0
 11
76.170117
 21
187.272046
 31
0.0
  0
LINE
  5
286D
100
AcDbEntity
  8
DRAW
  6
CONTINUOUS
100
AcDbLine
 10
75.636785
 20
189.832043
 30
0.0
 11
75.903447
 21
189.832043
 31
0.0
  0
LINE
  5
286E
100
AcDbEntity
  8
DRAW
  6
CONTINUOUS
100
AcDbLine
 10
75.636758
 20
189.832043
 30
0.0
 11
75.370088
 21
189.832043
 31
0.0
  0
LINE
  5
2937
100
AcDbEntity
  8
DRAW
  6
CONTINUOUS
100
AcDbLine
 10
77.207701
 20
197.367983
 30
0.0
 11
78.049598
 21
197.367983
 31
0.0
  0
LINE
  5
2938
100
AcDbEntity
  8
DRAW
  6
CONTINUOUS
100
AcDbLine
 10
78.049401
 20
198.256846
 30
0.0
 11
77.204886
 21
198.256848
 31
0.0
  0
CIRCLE
  5
2939
100
AcDbEntity
  8
DRAW
  6
CONTINUOUS
100
AcDbCircle
 10
75.636753
 20
197.812429
 30
0.0
 40
2.453234
  0
LINE
  5
293A
100
AcDbEntity
  8
DRAW
  6
CONTINUOUS
100
AcDbLine
 10
73.832314
 20
197.589657
 30
0.0
 11
74.143424
 21
197.651878
 31
0.0
  0
LINE
  5
293B
100
AcDbEntity
  8
DRAW
  6
CONTINUOUS
100
AcDbLine
 10
73.832314
 20
198.034102
 30
0.0
 11
74.143424
 21
197.971878
 31
0.0
  0
LINE
  5
293C
100
AcDbEntity
  8
DRAW
  6
CONTINUOUS
100
AcDbLine
 10
74.877277
 20
197.052424
 30
0.0
 11
73.832314
 21
197.458796
 31
0.0
  0
LINE
  5
293D
100
AcDbEntity
  8
DRAW
  6
CONTINUOUS
100
AcDbLine
 10
74.877277
 20
198.571304
 30
0.0
 11
73.832314
 21
198.164961
 31
0.0
  0
LINE
  5
293E
100
AcDbEntity
  8
DRAW
  6
CONTINUOUS
100
AcDbLine
 10
73.223916
 20
197.367984
 30
0.0
 11
74.065835
 21
197.367984
 31
0.0
  0
LINE
  5
293F
100
AcDbEntity
  8
DRAW
  6
CONTINUOUS
100
AcDbLine
 10
74.068607
 20
198.256844
 30
0.0
 11
73.224114
 21
198.256844
 31
0.0
  0
LINE
  5
2940
100
AcDbEntity
  8
DRAW
  6
CONTINUOUS
100
AcDbLine
 10
73.832314
 20
197.811878
 30
0.0
 11
73.832314
 21
198.164961
 31
0.0
  0
LINE
  5
2941
100
AcDbEntity
  8
DRAW
  6
CONTINUOUS
100
AcDbLine
 10
73.832314
 20
197.811878
 30
0.0
 11
73.832314
 21
197.458796
 31
0.0
  0
LINE
  5
2942
100
AcDbEntity
  8
DRAW
  6
CONTINUOUS
100
AcDbLine
 10
74.877853
 20
198.571881
 30
0.0
 11
75.37061
 21
199.839066
 31
0.0
  0
LINE
  5
2943
100
AcDbEntity
  8
DRAW
  6
CONTINUOUS
100
AcDbLine
 10
75.903447
 20
199.838543
 30
0.0
 11
75.796785
 21
199.305211
 31
0.0
  0
LINE
  5
2944
100
AcDbEntity
  8
DRAW
  6
CONTINUOUS
100
AcDbLine
 10
75.370088
 20
199.838543
 30
0.0
 11
75.476757
 21
199.305211
 31
0.0
  0
LINE
  5
2945
100
AcDbEntity
  8
DRAW
  6
CONTINUOUS
100
AcDbLine
 10
76.395716
 20
198.571881
 30
0.0
 11
75.902925
 21
199.839066
 31
0.0
  0
LINE
  5
2946
100
AcDbEntity
  8
DRAW
  6
CONTINUOUS
100
AcDbLine
 10
75.796263
 20
199.305734
 30
0.0
 11
76.169594
 21
198.345732
 31
0.0
  0
LINE
  5
2947
100
AcDbEntity
  8
DRAW
  6
CONTINUOUS
100
AcDbLine
 10
75.796263
 20
196.318022
 30
0.0
 11
76.169594
 21
197.278024
 31
0.0
  0
LINE
  5
2948
100
AcDbEntity
  8
DRAW
  6
CONTINUOUS
100
AcDbLine
 10
76.395716
 20
197.051902
 30
0.0
 11
75.902925
 21
195.78469
 31
0.0
  0
LINE
  5
2949
100
AcDbEntity
  8
DRAW
  6
CONTINUOUS
100
AcDbLine
 10
75.477279
 20
199.305734
 30
0.0
 11
75.103941
 21
198.345732
 31
0.0
  0
LINE
  5
294A
100
AcDbEntity
  8
DRAW
  6
CONTINUOUS
100
AcDbLine
 10
75.636758
 20
199.305211
 30
0.0
 11
75.476757
 21
199.305211
 31
0.0
  0
LINE
  5
294B
100
AcDbEntity
  8
DRAW
  6
CONTINUOUS
100
AcDbLine
 10
75.636785
 20
199.305239
 30
0.0
 11
75.796785
 21
199.305211
 31
0.0
  0
LINE
  5
294C
100
AcDbEntity
  8
DRAW
  6
CONTINUOUS
100
AcDbLine
 10
75.903447
 20
195.785212
 30
0.0
 11
75.796785
 21
196.318544
 31
0.0
  0
LINE
  5
294D
100
AcDbEntity
  8
DRAW
  6
CONTINUOUS
100
AcDbLine
 10
75.636785
 20
195.785212
 30
0.0
 11
75.903447
 21
195.785212
 31
0.0
  0
LINE
  5
294E
100
AcDbEntity
  8
DRAW
  6
CONTINUOUS
100
AcDbLine
 10
74.877853
 20
197.051882
 30
0.0
 11
75.37061
 21
195.78469
 31
0.0
  0
LINE
  5
294F
100
AcDbEntity
  8
DRAW
  6
CONTINUOUS
100
AcDbLine
 10
75.370088
 20
195.785212
 30
0.0
 11
75.476757
 21
196.318544
 31
0.0
  0
LINE
  5
2950
100
AcDbEntity
  8
DRAW
  6
CONTINUOUS
100
AcDbLine
 10
75.477279
 20
196.318022
 30
0.0
 11
75.103941
 21
197.278024
 31
0.0
  0
LINE
  5
2951
100
AcDbEntity
  8
DRAW
  6
CONTINUOUS
100
AcDbLine
 10
74.877277
 20
197.052424
 30
0.0
 11
75.103426
 21
197.278573
 31
0.0
  0
LINE
  5
2952
100
AcDbEntity
  8
DRAW
  6
CONTINUOUS
100
AcDbLine
 10
75.636785
 20
196.318544
 30
0.0
 11
75.796785
 21
196.318544
 31
0.0
  0
LINE
  5
2953
100
AcDbEntity
  8
DRAW
  6
CONTINUOUS
100
AcDbLine
 10
75.636758
 20
196.318544
 30
0.0
 11
75.476757
 21
196.318544
 31
0.0
  0
LINE
  5
2954
100
AcDbEntity
  8
DRAW
  6
CONTINUOUS
100
AcDbLine
 10
75.636758
 20
195.785212
 30
0.0
 11
75.370088
 21
195.785212
 31
0.0
  0
LINE
  5
2955
100
AcDbEntity
  8
DRAW
  6
CONTINUOUS
100
AcDbLine
 10
74.877277
 20
198.571304
 30
0.0
 11
75.103426
 21
198.34521
 31
0.0
  0
LINE
  5
2956
100
AcDbEntity
  8
DRAW
  6
CONTINUOUS
100
AcDbLine
 10
74.143424
 20
197.811878
 30
0.0
 11
74.143424
 21
197.651878
 31
0.0
  0
LINE
  5
2957
100
AcDbEntity
  8
DRAW
  6
CONTINUOUS
100
AcDbLine
 10
74.143424
 20
197.811878
 30
0.0
 11
74.143424
 21
197.971878
 31
0.0
  0
LINE
  5
2958
100
AcDbEntity
  8
DRAW
  6
CONTINUOUS
100
AcDbLine
 10
74.143424
 20
197.971878
 30
0.0
 11
75.103426
 21
198.34521
 31
0.0
  0
LINE
  5
2959
100
AcDbEntity
  8
DRAW
  6
CONTINUOUS
100
AcDbLine
 10
74.143424
 20
197.651878
 30
0.0
 11
75.103426
 21
197.278546
 31
0.0
  0
LINE
  5
295A
100
AcDbEntity
  8
DRAW
  6
CONTINUOUS
100
AcDbLine
 10
77.130118
 20
197.811878
 30
0.0
 11
77.130118
 21
197.971878
 31
0.0
  0
LINE
  5
295B
100
AcDbEntity
  8
DRAW
  6
CONTINUOUS
100
AcDbLine
 10
77.441228
 20
198.034085
 30
0.0
 11
77.130118
 21
197.971878
 31
0.0
  0
LINE
  5
295C
100
AcDbEntity
  8
DRAW
  6
CONTINUOUS
100
AcDbLine
 10
77.441228
 20
197.811878
 30
0.0
 11
77.441228
 21
198.164937
 31
0.0
  0
LINE
  5
295D
100
AcDbEntity
  8
DRAW
  6
CONTINUOUS
100
AcDbLine
 10
77.441228
 20
197.589657
 30
0.0
 11
77.130118
 21
197.651878
 31
0.0
  0
LINE
  5
295E
100
AcDbEntity
  8
DRAW
  6
CONTINUOUS
100
AcDbLine
 10
77.130118
 20
197.811878
 30
0.0
 11
77.130118
 21
197.651878
 31
0.0
  0
LINE
  5
295F
100
AcDbEntity
  8
DRAW
  6
CONTINUOUS
100
AcDbLine
 10
77.441228
 20
197.811878
 30
0.0
 11
77.441228
 21
197.458798
 31
0.0
  0
LINE
  5
2960
100
AcDbEntity
  8
DRAW
  6
CONTINUOUS
100
AcDbLine
 10
76.396259
 20
197.052424
 30
0.0
 11
76.170117
 21
197.278573
 31
0.0
  0
LINE
  5
2961
100
AcDbEntity
  8
DRAW
  6
CONTINUOUS
100
AcDbLine
 10
76.396259
 20
197.052424
 30
0.0
 11
76.170117
 21
197.278573
 31
0.0
  0
LINE
  5
2962
100
AcDbEntity
  8
DRAW
  6
CONTINUOUS
100
AcDbLine
 10
76.396259
 20
198.571304
 30
0.0
 11
76.170117
 21
198.34521
 31
0.0
  0
LINE
  5
2963
100
AcDbEntity
  8
DRAW
  6
CONTINUOUS
100
AcDbLine
 10
76.396259
 20
197.052424
 30
0.0
 11
77.441228
 21
197.458798
 31
0.0
  0
LINE
  5
2964
100
AcDbEntity
  8
DRAW
  6
CONTINUOUS
100
AcDbLine
 10
77.130118
 20
197.971878
 30
0.0
 11
76.170117
 21
198.34521
 31
0.0
  0
LINE
  5
2965
100
AcDbEntity
  8
DRAW
  6
CONTINUOUS
100
AcDbLine
 10
76.396259
 20
198.571304
 30
0.0
 11
77.441228
 21
198.164937
 31
0.0
  0
LINE
  5
2966
100
AcDbEntity
  8
DRAW
  6
CONTINUOUS
100
AcDbLine
 10
77.130118
 20
197.651878
 30
0.0
 11
76.170117
 21
197.278546
 31
0.0
  0
LINE
  5
2967
100
AcDbEntity
  8
DRAW
  6
CONTINUOUS
100
AcDbLine
 10
75.636785
 20
199.838543
 30
0.0
 11
75.903447
 21
199.838543
 31
0.0
  0
LINE
  5
2968
100
AcDbEntity
  8
DRAW
  6
CONTINUOUS
100
AcDbLine
 10
75.636758
 20
199.838543
 30
0.0
 11
75.370088
 21
199.838543
 31
0.0
  0
CIRCLE
  5
2969
100
AcDbEntity
  8
DRAW
  6
CONTINUOUS
100
AcDbCircle
 10
62.278076
 20
131.27131
 30
0.0
 40
2.453234
  0
LINE
  5
296A
100
AcDbEntity
  8
DRAW
  6
CONTINUOUS
100
AcDbLine
 10
64.690723
 20
131.715727
 30
0.0
 11
63.846209
 21
131.715729
 31
0.0
  0
LINE
  5
296B
100
AcDbEntity
  8
DRAW
  6
CONTINUOUS
100
AcDbLine
 10
63.849023
 20
130.826864
 30
0.0
 11
64.69092
 21
130.826864
 31
0.0
  0
LINE
  5
296C
100
AcDbEntity
  8
DRAW
  6
CONTINUOUS
100
AcDbLine
 10
60.709929
 20
131.715725
 30
0.0
 11
59.865437
 21
131.715725
 31
0.0
  0
LINE
  5
296D
100
AcDbEntity
  8
DRAW
  6
CONTINUOUS
100
AcDbLine
 10
59.865238
 20
130.826865
 30
0.0
 11
60.707157
 21
130.826865
 31
0.0
  0
LINE
  5
296E
100
AcDbEntity
  8
DRAW
  6
CONTINUOUS
100
AcDbLine
 10
61.518599
 20
132.030185
 30
0.0
 11
60.473637
 21
131.623842
 31
0.0
  0
LINE
  5
296F
100
AcDbEntity
  8
DRAW
  6
CONTINUOUS
100
AcDbLine
 10
61.518599
 20
130.511305
 30
0.0
 11
60.473637
 21
130.917677
 31
0.0
  0
LINE
  5
2970
100
AcDbEntity
  8
DRAW
  6
CONTINUOUS
100
AcDbLine
 10
60.473637
 20
131.492983
 30
0.0
 11
60.784746
 21
131.430759
 31
0.0
  0
LINE
  5
2971
100
AcDbEntity
  8
DRAW
  6
CONTINUOUS
100
AcDbLine
 10
60.473637
 20
131.048538
 30
0.0
 11
60.784746
 21
131.110758
 31
0.0
  0
LINE
  5
2972
100
AcDbEntity
  8
DRAW
  6
CONTINUOUS
100
AcDbLine
 10
60.473637
 20
131.270759
 30
0.0
 11
60.473637
 21
130.917677
 31
0.0
  0
LINE
  5
2973
100
AcDbEntity
  8
DRAW
  6
CONTINUOUS
100
AcDbLine
 10
60.473637
 20
131.270759
 30
0.0
 11
60.473637
 21
131.623842
 31
0.0
  0
LINE
  5
2974
100
AcDbEntity
  8
DRAW
  6
CONTINUOUS
100
AcDbLine
 10
62.118602
 20
129.776903
 30
0.0
 11
61.745263
 21
130.736905
 31
0.0
  0
LINE
  5
2975
100
AcDbEntity
  8
DRAW
  6
CONTINUOUS
100
AcDbLine
 10
61.519176
 20
130.510763
 30
0.0
 11
62.011933
 21
129.243571
 31
0.0
  0
LINE
  5
2976
100
AcDbEntity
  8
DRAW
  6
CONTINUOUS
100
AcDbLine
 10
63.037039
 20
130.510783
 30
0.0
 11
62.544248
 21
129.243571
 31
0.0
  0
LINE
  5
2977
100
AcDbEntity
  8
DRAW
  6
CONTINUOUS
100
AcDbLine
 10
62.437585
 20
129.776903
 30
0.0
 11
62.810917
 21
130.736905
 31
0.0
  0
LINE
  5
2978
100
AcDbEntity
  8
DRAW
  6
CONTINUOUS
100
AcDbLine
 10
62.27808
 20
129.244093
 30
0.0
 11
62.011411
 21
129.244093
 31
0.0
  0
LINE
  5
2979
100
AcDbEntity
  8
DRAW
  6
CONTINUOUS
100
AcDbLine
 10
62.27808
 20
129.777425
 30
0.0
 11
62.11808
 21
129.777425
 31
0.0
  0
LINE
  5
297A
100
AcDbEntity
  8
DRAW
  6
CONTINUOUS
100
AcDbLine
 10
62.278107
 20
129.777425
 30
0.0
 11
62.438107
 21
129.777425
 31
0.0
  0
LINE
  5
297B
100
AcDbEntity
  8
DRAW
  6
CONTINUOUS
100
AcDbLine
 10
62.011411
 20
129.244093
 30
0.0
 11
62.11808
 21
129.777425
 31
0.0
  0
LINE
  5
297C
100
AcDbEntity
  8
DRAW
  6
CONTINUOUS
100
AcDbLine
 10
62.278107
 20
129.244093
 30
0.0
 11
62.54477
 21
129.244093
 31
0.0
  0
LINE
  5
297D
100
AcDbEntity
  8
DRAW
  6
CONTINUOUS
100
AcDbLine
 10
62.54477
 20
129.244093
 30
0.0
 11
62.438107
 21
129.777425
 31
0.0
  0
LINE
  5
297E
100
AcDbEntity
  8
DRAW
  6
CONTINUOUS
100
AcDbLine
 10
62.437585
 20
132.764615
 30
0.0
 11
62.810917
 21
131.804613
 31
0.0
  0
LINE
  5
297F
100
AcDbEntity
  8
DRAW
  6
CONTINUOUS
100
AcDbLine
 10
63.037039
 20
132.030762
 30
0.0
 11
62.544248
 21
133.297947
 31
0.0
  0
LINE
  5
2980
100
AcDbEntity
  8
DRAW
  6
CONTINUOUS
100
AcDbLine
 10
62.27808
 20
133.297424
 30
0.0
 11
62.011411
 21
133.297424
 31
0.0
  0
LINE
  5
2981
100
AcDbEntity
  8
DRAW
  6
CONTINUOUS
100
AcDbLine
 10
62.278107
 20
133.297424
 30
0.0
 11
62.54477
 21
133.297424
 31
0.0
  0
LINE
  5
2982
100
AcDbEntity
  8
DRAW
  6
CONTINUOUS
100
AcDbLine
 10
60.784746
 20
131.110758
 30
0.0
 11
61.744748
 21
130.737427
 31
0.0
  0
LINE
  5
2983
100
AcDbEntity
  8
DRAW
  6
CONTINUOUS
100
AcDbLine
 10
60.784746
 20
131.430759
 30
0.0
 11
61.744748
 21
131.804091
 31
0.0
  0
LINE
  5
2984
100
AcDbEntity
  8
DRAW
  6
CONTINUOUS
100
AcDbLine
 10
60.784746
 20
131.270759
 30
0.0
 11
60.784746
 21
131.430759
 31
0.0
  0
LINE
  5
2985
100
AcDbEntity
  8
DRAW
  6
CONTINUOUS
100
AcDbLine
 10
60.784746
 20
131.270759
 30
0.0
 11
60.784746
 21
131.110758
 31
0.0
  0
LINE
  5
2986
100
AcDbEntity
  8
DRAW
  6
CONTINUOUS
100
AcDbLine
 10
61.518599
 20
132.030185
 30
0.0
 11
61.744748
 21
131.804091
 31
0.0
  0
LINE
  5
2987
100
AcDbEntity
  8
DRAW
  6
CONTINUOUS
100
AcDbLine
 10
61.518599
 20
130.511305
 30
0.0
 11
61.744748
 21
130.737454
 31
0.0
  0
LINE
  5
2988
100
AcDbEntity
  8
DRAW
  6
CONTINUOUS
100
AcDbLine
 10
62.278107
 20
132.764119
 30
0.0
 11
62.438107
 21
132.764092
 31
0.0
  0
LINE
  5
2989
100
AcDbEntity
  8
DRAW
  6
CONTINUOUS
100
AcDbLine
 10
62.27808
 20
132.764092
 30
0.0
 11
62.11808
 21
132.764092
 31
0.0
  0
LINE
  5
298A
100
AcDbEntity
  8
DRAW
  6
CONTINUOUS
100
AcDbLine
 10
62.118602
 20
132.764615
 30
0.0
 11
61.745263
 21
131.804613
 31
0.0
  0
LINE
  5
298B
100
AcDbEntity
  8
DRAW
  6
CONTINUOUS
100
AcDbLine
 10
62.011411
 20
133.297424
 30
0.0
 11
62.11808
 21
132.764092
 31
0.0
  0
LINE
  5
298C
100
AcDbEntity
  8
DRAW
  6
CONTINUOUS
100
AcDbLine
 10
62.54477
 20
133.297424
 30
0.0
 11
62.438107
 21
132.764092
 31
0.0
  0
LINE
  5
298D
100
AcDbEntity
  8
DRAW
  6
CONTINUOUS
100
AcDbLine
 10
61.519176
 20
132.030762
 30
0.0
 11
62.011933
 21
133.297947
 31
0.0
  0
LINE
  5
298E
100
AcDbEntity
  8
DRAW
  6
CONTINUOUS
100
AcDbLine
 10
63.771441
 20
131.110758
 30
0.0
 11
62.811439
 21
130.737427
 31
0.0
  0
LINE
  5
298F
100
AcDbEntity
  8
DRAW
  6
CONTINUOUS
100
AcDbLine
 10
63.037581
 20
132.030185
 30
0.0
 11
64.082551
 21
131.623818
 31
0.0
  0
LINE
  5
2990
100
AcDbEntity
  8
DRAW
  6
CONTINUOUS
100
AcDbLine
 10
63.771441
 20
131.430759
 30
0.0
 11
62.811439
 21
131.804091
 31
0.0
  0
LINE
  5
2991
100
AcDbEntity
  8
DRAW
  6
CONTINUOUS
100
AcDbLine
 10
63.037581
 20
130.511305
 30
0.0
 11
64.082551
 21
130.917679
 31
0.0
  0
LINE
  5
2992
100
AcDbEntity
  8
DRAW
  6
CONTINUOUS
100
AcDbLine
 10
63.037581
 20
132.030185
 30
0.0
 11
62.811439
 21
131.804091
 31
0.0
  0
LINE
  5
2993
100
AcDbEntity
  8
DRAW
  6
CONTINUOUS
100
AcDbLine
 10
63.037581
 20
130.511305
 30
0.0
 11
62.811439
 21
130.737454
 31
0.0
  0
LINE
  5
2994
100
AcDbEntity
  8
DRAW
  6
CONTINUOUS
100
AcDbLine
 10
63.037581
 20
130.511305
 30
0.0
 11
62.811439
 21
130.737454
 31
0.0
  0
LINE
  5
2995
100
AcDbEntity
  8
DRAW
  6
CONTINUOUS
100
AcDbLine
 10
64.082551
 20
131.270759
 30
0.0
 11
64.082551
 21
130.917679
 31
0.0
  0
LINE
  5
2996
100
AcDbEntity
  8
DRAW
  6
CONTINUOUS
100
AcDbLine
 10
63.771441
 20
131.270759
 30
0.0
 11
63.771441
 21
131.110758
 31
0.0
  0
LINE
  5
2997
100
AcDbEntity
  8
DRAW
  6
CONTINUOUS
100
AcDbLine
 10
64.082551
 20
131.048538
 30
0.0
 11
63.771441
 21
131.110758
 31
0.0
  0
LINE
  5
2998
100
AcDbEntity
  8
DRAW
  6
CONTINUOUS
100
AcDbLine
 10
64.082551
 20
131.270759
 30
0.0
 11
64.082551
 21
131.623818
 31
0.0
  0
LINE
  5
2999
100
AcDbEntity
  8
DRAW
  6
CONTINUOUS
100
AcDbLine
 10
64.082551
 20
131.492966
 30
0.0
 11
63.771441
 21
131.430759
 31
0.0
  0
LINE
  5
299A
100
AcDbEntity
  8
DRAW
  6
CONTINUOUS
100
AcDbLine
 10
63.771441
 20
131.270759
 30
0.0
 11
63.771441
 21
131.430759
 31
0.0
  0
LINE
  5
299B
100
AcDbEntity
  8
DRAW
  6
CONTINUOUS
100
AcDbLine
 10
71.587426
 20
131.492966
 30
0.0
 11
71.276316
 21
131.430759
 31
0.0
  0
LINE
  5
299C
100
AcDbEntity
  8
DRAW
  6
CONTINUOUS
100
AcDbLine
 10
71.587426
 20
131.048538
 30
0.0
 11
71.276316
 21
131.110758
 31
0.0
  0
LINE
  5
299D
100
AcDbEntity
  8
DRAW
  6
CONTINUOUS
100
AcDbLine
 10
70.542456
 20
130.511305
 30
0.0
 11
71.587426
 21
130.917679
 31
0.0
  0
LINE
  5
299E
100
AcDbEntity
  8
DRAW
  6
CONTINUOUS
100
AcDbLine
 10
70.542456
 20
132.030185
 30
0.0
 11
71.587426
 21
131.623818
 31
0.0
  0
LINE
  5
299F
100
AcDbEntity
  8
DRAW
  6
CONTINUOUS
100
AcDbLine
 10
71.353898
 20
130.826864
 30
0.0
 11
72.195795
 21
130.826864
 31
0.0
  0
LINE
  5
29A0
100
AcDbEntity
  8
DRAW
  6
CONTINUOUS
100
AcDbLine
 10
72.195598
 20
131.715727
 30
0.0
 11
71.351084
 21
131.715729
 31
0.0
  0
CIRCLE
  5
29A1
100
AcDbEntity
  8
DRAW
  6
CONTINUOUS
100
AcDbCircle
 10
69.782951
 20
131.27131
 30
0.0
 40
2.453234
  0
LINE
  5
29A2
100
AcDbEntity
  8
DRAW
  6
CONTINUOUS
100
AcDbLine
 10
67.370113
 20
130.826865
 30
0.0
 11
68.212032
 21
130.826865
 31
0.0
  0
LINE
  5
29A3
100
AcDbEntity
  8
DRAW
  6
CONTINUOUS
100
AcDbLine
 10
68.214804
 20
131.715725
 30
0.0
 11
67.370312
 21
131.715725
 31
0.0
  0
LINE
  5
29A4
100
AcDbEntity
  8
DRAW
  6
CONTINUOUS
100
AcDbLine
 10
70.542456
 20
130.511305
 30
0.0
 11
70.316314
 21
130.737454
 31
0.0
  0
LINE
  5
29A5
100
AcDbEntity
  8
DRAW
  6
CONTINUOUS
100
AcDbLine
 10
70.542456
 20
130.511305
 30
0.0
 11
70.316314
 21
130.737454
 31
0.0
  0
LINE
  5
29A6
100
AcDbEntity
  8
DRAW
  6
CONTINUOUS
100
AcDbLine
 10
69.023474
 20
130.511305
 30
0.0
 11
69.249623
 21
130.737454
 31
0.0
  0
LINE
  5
29A7
100
AcDbEntity
  8
DRAW
  6
CONTINUOUS
100
AcDbLine
 10
69.94246
 20
129.776903
 30
0.0
 11
70.315792
 21
130.736905
 31
0.0
  0
LINE
  5
29A8
100
AcDbEntity
  8
DRAW
  6
CONTINUOUS
100
AcDbLine
 10
69.623477
 20
129.776903
 30
0.0
 11
69.250138
 21
130.736905
 31
0.0
  0
LINE
  5
29A9
100
AcDbEntity
  8
DRAW
  6
CONTINUOUS
100
AcDbLine
 10
69.023474
 20
130.511305
 30
0.0
 11
67.978512
 21
130.917677
 31
0.0
  0
LINE
  5
29AA
100
AcDbEntity
  8
DRAW
  6
CONTINUOUS
100
AcDbLine
 10
69.024051
 20
130.510763
 30
0.0
 11
69.516808
 21
129.243571
 31
0.0
  0
LINE
  5
29AB
100
AcDbEntity
  8
DRAW
  6
CONTINUOUS
100
AcDbLine
 10
70.049645
 20
129.244093
 30
0.0
 11
69.942982
 21
129.777425
 31
0.0
  0
LINE
  5
29AC
100
AcDbEntity
  8
DRAW
  6
CONTINUOUS
100
AcDbLine
 10
69.782982
 20
129.244093
 30
0.0
 11
70.049645
 21
129.244093
 31
0.0
  0
LINE
  5
29AD
100
AcDbEntity
  8
DRAW
  6
CONTINUOUS
100
AcDbLine
 10
69.516286
 20
129.244093
 30
0.0
 11
69.622955
 21
129.777425
 31
0.0
  0
LINE
  5
29AE
100
AcDbEntity
  8
DRAW
  6
CONTINUOUS
100
AcDbLine
 10
69.782982
 20
129.777425
 30
0.0
 11
69.942982
 21
129.777425
 31
0.0
  0
LINE
  5
29AF
100
AcDbEntity
  8
DRAW
  6
CONTINUOUS
100
AcDbLine
 10
69.782955
 20
129.777425
 30
0.0
 11
69.622955
 21
129.777425
 31
0.0
  0
LINE
  5
29B0
100
AcDbEntity
  8
DRAW
  6
CONTINUOUS
100
AcDbLine
 10
69.782955
 20
129.244093
 30
0.0
 11
69.516286
 21
129.244093
 31
0.0
  0
LINE
  5
29B1
100
AcDbEntity
  8
DRAW
  6
CONTINUOUS
100
AcDbLine
 10
70.541914
 20
130.510783
 30
0.0
 11
70.049123
 21
129.243571
 31
0.0
  0
LINE
  5
29B2
100
AcDbEntity
  8
DRAW
  6
CONTINUOUS
100
AcDbLine
 10
69.024051
 20
132.030762
 30
0.0
 11
69.516808
 21
133.297947
 31
0.0
  0
LINE
  5
29B3
100
AcDbEntity
  8
DRAW
  6
CONTINUOUS
100
AcDbLine
 10
69.623477
 20
132.764615
 30
0.0
 11
69.250138
 21
131.804613
 31
0.0
  0
LINE
  5
29B4
100
AcDbEntity
  8
DRAW
  6
CONTINUOUS
100
AcDbLine
 10
69.023474
 20
132.030185
 30
0.0
 11
69.249623
 21
131.804091
 31
0.0
  0
LINE
  5
29B5
100
AcDbEntity
  8
DRAW
  6
CONTINUOUS
100
AcDbLine
 10
68.289621
 20
131.270759
 30
0.0
 11
68.289621
 21
131.110758
 31
0.0
  0
LINE
  5
29B6
100
AcDbEntity
  8
DRAW
  6
CONTINUOUS
100
AcDbLine
 10
68.289621
 20
131.270759
 30
0.0
 11
68.289621
 21
131.430759
 31
0.0
  0
LINE
  5
29B7
100
AcDbEntity
  8
DRAW
  6
CONTINUOUS
100
AcDbLine
 10
68.289621
 20
131.430759
 30
0.0
 11
69.249623
 21
131.804091
 31
0.0
  0
LINE
  5
29B8
100
AcDbEntity
  8
DRAW
  6
CONTINUOUS
100
AcDbLine
 10
68.289621
 20
131.110758
 30
0.0
 11
69.249623
 21
130.737427
 31
0.0
  0
LINE
  5
29B9
100
AcDbEntity
  8
DRAW
  6
CONTINUOUS
100
AcDbLine
 10
67.978512
 20
131.270759
 30
0.0
 11
67.978512
 21
131.623842
 31
0.0
  0
LINE
  5
29BA
100
AcDbEntity
  8
DRAW
  6
CONTINUOUS
100
AcDbLine
 10
67.978512
 20
131.270759
 30
0.0
 11
67.978512
 21
130.917677
 31
0.0
  0
LINE
  5
29BB
100
AcDbEntity
  8
DRAW
  6
CONTINUOUS
100
AcDbLine
 10
67.978512
 20
131.048538
 30
0.0
 11
68.289621
 21
131.110758
 31
0.0
  0
LINE
  5
29BC
100
AcDbEntity
  8
DRAW
  6
CONTINUOUS
100
AcDbLine
 10
67.978512
 20
131.492983
 30
0.0
 11
68.289621
 21
131.430759
 31
0.0
  0
LINE
  5
29BD
100
AcDbEntity
  8
DRAW
  6
CONTINUOUS
100
AcDbLine
 10
69.023474
 20
132.030185
 30
0.0
 11
67.978512
 21
131.623842
 31
0.0
  0
LINE
  5
29BE
100
AcDbEntity
  8
DRAW
  6
CONTINUOUS
100
AcDbLine
 10
71.276316
 20
131.270759
 30
0.0
 11
71.276316
 21
131.430759
 31
0.0
  0
LINE
  5
29BF
100
AcDbEntity
  8
DRAW
  6
CONTINUOUS
100
AcDbLine
 10
71.276316
 20
131.270759
 30
0.0
 11
71.276316
 21
131.110758
 31
0.0
  0
LINE
  5
29C0
100
AcDbEntity
  8
DRAW
  6
CONTINUOUS
100
AcDbLine
 10
70.542456
 20
132.030185
 30
0.0
 11
70.316314
 21
131.804091
 31
0.0
  0
LINE
  5
29C1
100
AcDbEntity
  8
DRAW
  6
CONTINUOUS
100
AcDbLine
 10
71.276316
 20
131.430759
 30
0.0
 11
70.316314
 21
131.804091
 31
0.0
  0
LINE
  5
29C2
100
AcDbEntity
  8
DRAW
  6
CONTINUOUS
100
AcDbLine
 10
71.276316
 20
131.110758
 30
0.0
 11
70.316314
 21
130.737427
 31
0.0
  0
LINE
  5
29C3
100
AcDbEntity
  8
DRAW
  6
CONTINUOUS
100
AcDbLine
 10
70.049645
 20
133.297424
 30
0.0
 11
69.942982
 21
132.764092
 31
0.0
  0
LINE
  5
29C4
100
AcDbEntity
  8
DRAW
  6
CONTINUOUS
100
AcDbLine
 10
69.516286
 20
133.297424
 30
0.0
 11
69.622955
 21
132.764092
 31
0.0
  0
LINE
  5
29C5
100
AcDbEntity
  8
DRAW
  6
CONTINUOUS
100
AcDbLine
 10
69.782955
 20
132.764092
 30
0.0
 11
69.622955
 21
132.764092
 31
0.0
  0
LINE
  5
29C6
100
AcDbEntity
  8
DRAW
  6
CONTINUOUS
100
AcDbLine
 10
69.782982
 20
132.764119
 30
0.0
 11
69.942982
 21
132.764092
 31
0.0
  0
LINE
  5
29C7
100
AcDbEntity
  8
DRAW
  6
CONTINUOUS
100
AcDbLine
 10
69.782982
 20
133.297424
 30
0.0
 11
70.049645
 21
133.297424
 31
0.0
  0
LINE
  5
29C8
100
AcDbEntity
  8
DRAW
  6
CONTINUOUS
100
AcDbLine
 10
69.782955
 20
133.297424
 30
0.0
 11
69.516286
 21
133.297424
 31
0.0
  0
LINE
  5
29C9
100
AcDbEntity
  8
DRAW
  6
CONTINUOUS
100
AcDbLine
 10
70.541914
 20
132.030762
 30
0.0
 11
70.049123
 21
133.297947
 31
0.0
  0
LINE
  5
29CA
100
AcDbEntity
  8
DRAW
  6
CONTINUOUS
100
AcDbLine
 10
69.94246
 20
132.764615
 30
0.0
 11
70.315792
 21
131.804613
 31
0.0
  0
LINE
  5
29CB
100
AcDbEntity
  8
DRAW
  6
CONTINUOUS
100
AcDbLine
 10
71.587426
 20
131.270759
 30
0.0
 11
71.587426
 21
131.623818
 31
0.0
  0
LINE
  5
29CC
100
AcDbEntity
  8
DRAW
  6
CONTINUOUS
100
AcDbLine
 10
71.587426
 20
131.270759
 30
0.0
 11
71.587426
 21
130.917679
 31
0.0
  0
DIMENSION
  5
29DA
100
AcDbEntity
  8
DIM
  6
CONTINUOUS
100
AcDbDimension
  2
*D0
 10
79.529288
 20
207.0
 30
0.0
 11
66.030513
 21
208.528683
 31
0.0
 70
    32
  3
FINDER
100
AcDbAlignedDimension
 13
52.531738
 23
201.564866
 33
0.0
 14
79.529288
 24
201.564866
 34
0.0
100
AcDbRotatedDimension
  0
DIMENSION
  5
29FD
100
AcDbEntity
  8
DIM
  6
CONTINUOUS
100
AcDbDimension
  2
*D1
 10
45.0
 20
126.568222
 30
0.0
 11
45.0
 21
164.566869
 31
0.0
 70
   160
  3
FINDER
100
AcDbAlignedDimension
 13
53.022063
 23
202.565516
 33
0.0
 14
53.022063
 24
126.568222
 34
0.0
 50
90.0
100
AcDbRotatedDimension
  0
LINE
  5
2A0A
100
AcDbEntity
  8
DIM
  6
CONTINUOUS
100
AcDbLine
 10
74.787826
 20
161.438801
 30
0.0
 11
79.787826
 21
161.438801
 31
0.0
  0
LINE
  5
2A0B
100
AcDbEntity
  8
DIM
  6
CONTINUOUS
100
AcDbLine
 10
77.287826
 20
158.938801
 30
0.0
 11
77.287826
 21
163.938801
 31
0.0
  0
LINE
  5
2A0C
100
AcDbEntity
  8
DIM
  6
CONTINUOUS
100
AcDbLine
 10
52.273201
 20
161.438801
 30
0.0
 11
57.273201
 21
161.438801
 31
0.0
  0
LINE
  5
2A0D
100
AcDbEntity
  8
DIM
  6
CONTINUOUS
100
AcDbLine
 10
54.773201
 20
158.938801
 30
0.0
 11
54.773201
 21
163.938801
 31
0.0
  0
DIMENSION
  5
2A1A
100
AcDbEntity
  8
DIM
  6
CONTINUOUS
100
AcDbDimension
  2
*D2
 10
85.0
 20
161.438801
 30
0.0
 11
83.455355
 21
144.003512
 31
0.0
 70
    32
  3
FINDER
100
AcDbAlignedDimension
 13
79.038963
 23
126.568222
 33
0.0
 14
77.277826
 24
161.438801
 34
0.0
 50
90.0
100
AcDbRotatedDimension
1001
ACAD
1000
DSTYLE
1002
{
1070
   271
1070
     1
1002
}
  0
DIMENSION
  5
2A40
100
AcDbEntity
  8
DIM
  6
CONTINUOUS
100
AcDbDimension
  2
*D3
 10
49.0
 20
159.837761
 30
0.0
 11
47.455355
 21
152.584044
 31
0.0
 70
    32
  3
FINDER
100
AcDbAlignedDimension
 13
54.783201
 23
163.039841
 33
0.0
 14
54.783201
 24
159.837761
 34
0.0
 50
90.0
100
AcDbRotatedDimension
  0
DIMENSION
  5
2A58
100
AcDbEntity
  8
DIM
  6
CONTINUOUS
100
AcDbDimension
  2
*D4
 10
77.277826
 20
119.0
 30
0.0
 11
66.030513
 21
120.544031
 31
0.0
 70
    32
  3
FINDER
100
AcDbAlignedDimension
 13
54.783201
 23
161.438801
 33
0.0
 14
77.277826
 24
161.438801
 34
0.0
100
AcDbRotatedDimension
  0
DIMENSION
  5
2A93
100
AcDbEntity
  8
DIM
  6
CONTINUOUS
100
AcDbDimension
  2
*D5
 10
64.804581
 20
151.536897
 30
0.0
 11
87.996029
 21
166.369996
 31
0.0
 70
   163
  3
FINDER
100
AcDbDiametricDimension
 15
67.256445
 25
153.268967
 35
0.0
 40
0.0
1001
ACAD
1000
DSTYLE
1002
{
1070
   288
1070
     1
1070
    74
1070
     1
1002
}
  0
DIMENSION
  5
2AB9
100
AcDbEntity
  8
DIM
  6
CONTINUOUS
100
AcDbDimension
  2
*D6
 10
130.0
 20
181.063517
 30
0.0
 11
128.455969
 21
191.814517
 31
0.0
 70
    32
  3
FINDER
100
AcDbAlignedDimension
 13
134.472885
 23
202.565516
 33
0.0
 14
134.472885
 24
181.063517
 34
0.0
 50
90.0
100
AcDbRotatedDimension
  0
DIMENSION
  5
2AC5
100
AcDbEntity
  8
DIM
  6
CONTINUOUS
100
AcDbDimension
  2
*D7
 10
130.0
 20
145.470507
 30
0.0
 11
128.455355
 21
163.267012
 31
0.0
 70
    32
  3
FINDER
100
AcDbAlignedDimension
 13
134.472885
 23
181.063517
 33
0.0
 14
134.472885
 24
145.470507
 34
0.0
 50
90.0
100
AcDbRotatedDimension
1001
ACAD
1000
DSTYLE
1002
{
1070
    75
1070
     1
1070
   287
1070
     4
1070
   271
1070
     1
1002
}
  0
DIMENSION
  5
2AD1
100
AcDbEntity
  8
DIM
  6
CONTINUOUS
100
AcDbDimension
  2
*D8
 10
130.0
 20
126.568222
 30
0.0
 11
128.455969
 21
136.019365
 31
0.0
 70
    32
  3
FINDER
100
AcDbAlignedDimension
 13
134.472885
 23
145.470507
 33
0.0
 14
134.472885
 24
126.568222
 34
0.0
 50
90.0
100
AcDbRotatedDimension
1001
ACAD
1000
DSTYLE
1002
{
1070
    75
1070
     1
1070
   287
1070
     4
1002
}
  0
DIMENSION
  5
2B33
100
AcDbEntity
  8
DIM
  6
CONTINUOUS
100
AcDbDimension
  2
*D9
 10
166.473685
 20
119.0
 30
0.0
 11
150.473285
 21
120.544645
 31
0.0
 70
    32
  3
FINDER
100
AcDbAlignedDimension
 13
134.472885
 23
124.017615
 33
0.0
 14
166.473685
 24
127.568872
 34
0.0
100
AcDbRotatedDimension
  0
DIMENSION
  5
2B40
100
AcDbEntity
  8
DIM
  6
CONTINUOUS
100
AcDbDimension
  2
*D10
 10
169.97596
 20
207.0
 30
0.0
 11
153.97556
 21
208.544645
 31
0.0
 70
    32
  3
FINDER
100
AcDbAlignedDimension
 13
137.97516
 23
181.063517
 33
0.0
 14
169.97596
 24
173.796829
 34
0.0
100
AcDbRotatedDimension
  0
DIMENSION
  5
2B63
100
AcDbEntity
  8
DIM
  6
CONTINUOUS
100
AcDbDimension
  2
*D11
 10
169.97596
 20
114.0
 30
0.0
 11
152.224423
 21
115.544645
 31
0.0
 70
    32
  3
FINDER
100
AcDbAlignedDimension
 13
134.472885
 23
124.017615
 33
0.0
 14
169.97596
 24
145.278304
 34
0.0
100
AcDbRotatedDimension
  0
DIMENSION
  5
2B70
100
AcDbEntity
  8
DIM
  6
CONTINUOUS
100
AcDbDimension
  2
*D12
 10
195.36893
 20
211.0
 30
0.0
 11
164.920908
 21
212.544031
 31
0.0
 70
    32
  3
FINDER
100
AcDbAlignedDimension
 13
134.472885
 23
202.565516
 33
0.0
 14
195.36893
 24
181.551866
 34
0.0
100
AcDbRotatedDimension
  0
ENDSEC
  0
SECTION
  2
OBJECTS
  0
DICTIONARY
  5
1A
100
AcDbDictionary
  3
ACAD_GROUP
350
18
  3
ACAD_MLINESTYLE
350
19
  0
DICTIONARY
  5
18
102
{ACAD_REACTORS
330
1A
102
}
100
AcDbDictionary
  0
DICTIONARY
  5
19
102
{ACAD_REACTORS
330
1A
102
}
100
AcDbDictionary
  3
STANDARD
350
1C
  0
MLINESTYLE
  5
1C
102
{ACAD_REACTORS
330
19
102
}
100
AcDbMlineStyle
  2
STANDARD
 70
     0
  3

 62
     0
 51
90.0
 52
90.0
 71
     2
 49
0.5
 62
   256
  6
BYLAYER
 49
-0.5
 62
   256
  6
BYLAYER
  0
ENDSEC
  0
EOF
