  0
SECTION
  2
HEADER
  9
$ACADVER
  1
AC1015
  9
$ACADMAINTVER
 70
    20
  9
$DWGCODEPAGE
  3
ANSI_1252
  9
$INSBASE
 10
0.0
 20
0.0
 30
0.0
  9
$EXTMIN
 10
-147.7671000660207
 20
50.22348838687253
 30
-0.0000303844486937
  9
$EXTMAX
 10
262.2488928101248
 20
320.2272640032949
 30
0.7000106878648572
  9
$LIMMIN
 10
0.0
 20
0.0
  9
$LIMMAX
 10
420.0
 20
297.0
  9
$ORTHOMODE
 70
     1
  9
$REGENMODE
 70
     1
  9
$FILLMODE
 70
     1
  9
$QTEXTMODE
 70
     0
  9
$MIRRTEXT
 70
     0
  9
$LTSCALE
 40
1.0
  9
$ATTMODE
 70
     1
  9
$TEXTSIZE
 40
2.5
  9
$TRACEWID
 40
1.0
  9
$TEXTSTYLE
  7
Standard
  9
$CLAYER
  8
10100_FRONT_DIM
  9
$CELTYPE
  6
ByLayer
  9
$CECOLOR
 62
   256
  9
$CELTSCALE
 40
1.0
  9
$DISPSILH
 70
     0
  9
$DIMSCALE
 40
1.0
  9
$DIMASZ
 40
2.5
  9
$DIMEXO
 40
0.625
  9
$DIMDLI
 40
3.75
  9
$DIMRND
 40
0.0
  9
$DIMDLE
 40
0.0
  9
$DIMEXE
 40
1.25
  9
$DIMTP
 40
0.0
  9
$DIMTM
 40
0.0
  9
$DIMTXT
 40
2.5
  9
$DIMCEN
 40
2.5
  9
$DIMTSZ
 40
0.0
  9
$DIMTOL
 70
     0
  9
$DIMLIM
 70
     0
  9
$DIMTIH
 70
     0
  9
$DIMTOH
 70
     0
  9
$DIMSE1
 70
     0
  9
$DIMSE2
 70
     0
  9
$DIMTAD
 70
     1
  9
$DIMZIN
 70
     8
  9
$DIMBLK
  1

  9
$DIMASO
 70
     1
  9
$DIMSHO
 70
     1
  9
$DIMPOST
  1

  9
$DIMAPOST
  1

  9
$DIMALT
 70
     0
  9
$DIMALTD
 70
     3
  9
$DIMALTF
 40
0.03937007874016
  9
$DIMLFAC
 40
1.0
  9
$DIMTOFL
 70
     1
  9
$DIMTVP
 40
0.0
  9
$DIMTIX
 70
     0
  9
$DIMSOXD
 70
     0
  9
$DIMSAH
 70
     0
  9
$DIMBLK1
  1

  9
$DIMBLK2
  1

  9
$DIMSTYLE
  2
ISO-25
  9
$DIMCLRD
 70
     0
  9
$DIMCLRE
 70
     0
  9
$DIMCLRT
 70
     0
  9
$DIMTFAC
 40
1.0
  9
$DIMGAP
 40
0.625
  9
$DIMJUST
 70
     0
  9
$DIMSD1
 70
     0
  9
$DIMSD2
 70
     0
  9
$DIMTOLJ
 70
     0
  9
$DIMTZIN
 70
     8
  9
$DIMALTZ
 70
     0
  9
$DIMALTTZ
 70
     0
  9
$DIMUPT
 70
     0
  9
$DIMDEC
 70
     2
  9
$DIMTDEC
 70
     2
  9
$DIMALTU
 70
     2
  9
$DIMALTTD
 70
     3
  9
$DIMTXSTY
  7
Standard
  9
$DIMAUNIT
 70
     0
  9
$DIMADEC
 70
     0
  9
$DIMALTRND
 40
0.0
  9
$DIMAZIN
 70
     0
  9
$DIMDSEP
 70
    44
  9
$DIMATFIT
 70
     3
  9
$DIMFRAC
 70
     0
  9
$DIMLDRBLK
  1

  9
$DIMLUNIT
 70
     2
  9
$DIMLWD
 70
    -2
  9
$DIMLWE
 70
    -2
  9
$DIMTMOVE
 70
     0
  9
$LUNITS
 70
     2
  9
$LUPREC
 70
     4
  9
$SKETCHINC
 40
1.0
  9
$FILLETRAD
 40
10.0
  9
$AUNITS
 70
     0
  9
$AUPREC
 70
     0
  9
$MENU
  1
.
  9
$ELEVATION
 40
0.0
  9
$PELEVATION
 40
0.0
  9
$THICKNESS
 40
0.0
  9
$LIMCHECK
 70
     0
  9
$CHAMFERA
 40
10.0
  9
$CHAMFERB
 40
10.0
  9
$CHAMFERC
 40
20.0
  9
$CHAMFERD
 40
0.0
  9
$SKPOLY
 70
     0
  9
$TDCREATE
 40
2453200.479237720
  9
$TDUCREATE
 40
2453200.437571053
  9
$TDUPDATE
 40
2453389.334110637
  9
$TDUUPDATE
 40
2453389.292443970
  9
$TDINDWG
 40
1.9283485185
  9
$TDUSRTIMER
 40
1.9283405671
  9
$USRTIMER
 70
     1
  9
$ANGBASE
 50
0.0
  9
$ANGDIR
 70
     0
  9
$PDMODE
 70
     0
  9
$PDSIZE
 40
0.0
  9
$PLINEWID
 40
0.0
  9
$SPLFRAME
 70
     0
  9
$SPLINETYPE
 70
     6
  9
$SPLINESEGS
 70
     8
  9
$HANDSEED
  5
2326E
  9
$SURFTAB1
 70
     6
  9
$SURFTAB2
 70
     6
  9
$SURFTYPE
 70
     6
  9
$SURFU
 70
     6
  9
$SURFV
 70
     6
  9
$UCSBASE
  2

  9
$UCSNAME
  2

  9
$UCSORG
 10
0.0
 20
0.0
 30
0.0
  9
$UCSXDIR
 10
1.0
 20
0.0
 30
0.0
  9
$UCSYDIR
 10
0.0
 20
1.0
 30
0.0
  9
$UCSORTHOREF
  2

  9
$UCSORTHOVIEW
 70
     0
  9
$UCSORGTOP
 10
0.0
 20
0.0
 30
0.0
  9
$UCSORGBOTTOM
 10
0.0
 20
0.0
 30
0.0
  9
$UCSORGLEFT
 10
0.0
 20
0.0
 30
0.0
  9
$UCSORGRIGHT
 10
0.0
 20
0.0
 30
0.0
  9
$UCSORGFRONT
 10
0.0
 20
0.0
 30
0.0
  9
$UCSORGBACK
 10
0.0
 20
0.0
 30
0.0
  9
$PUCSBASE
  2

  9
$PUCSNAME
  2

  9
$PUCSORG
 10
0.0
 20
0.0
 30
0.0
  9
$PUCSXDIR
 10
1.0
 20
0.0
 30
0.0
  9
$PUCSYDIR
 10
0.0
 20
1.0
 30
0.0
  9
$PUCSORTHOREF
  2

  9
$PUCSORTHOVIEW
 70
     0
  9
$PUCSORGTOP
 10
0.0
 20
0.0
 30
0.0
  9
$PUCSORGBOTTOM
 10
0.0
 20
0.0
 30
0.0
  9
$PUCSORGLEFT
 10
0.0
 20
0.0
 30
0.0
  9
$PUCSORGRIGHT
 10
0.0
 20
0.0
 30
0.0
  9
$PUCSORGFRONT
 10
0.0
 20
0.0
 30
0.0
  9
$PUCSORGBACK
 10
0.0
 20
0.0
 30
0.0
  9
$USERI1
 70
     0
  9
$USERI2
 70
     0
  9
$USERI3
 70
     0
  9
$USERI4
 70
     0
  9
$USERI5
 70
     0
  9
$USERR1
 40
0.0
  9
$USERR2
 40
0.0
  9
$USERR3
 40
0.0
  9
$USERR4
 40
0.0
  9
$USERR5
 40
0.0
  9
$WORLDVIEW
 70
     1
  9
$SHADEDGE
 70
     3
  9
$SHADEDIF
 70
    70
  9
$TILEMODE
 70
     1
  9
$MAXACTVP
 70
    64
  9
$PINSBASE
 10
0.0
 20
0.0
 30
0.0
  9
$PLIMCHECK
 70
     0
  9
$PEXTMIN
 10
0.0
 20
0.0
 30
0.0
  9
$PEXTMAX
 10
0.0
 20
0.0
 30
0.0
  9
$PLIMMIN
 10
0.0
 20
0.0
  9
$PLIMMAX
 10
12.0
 20
9.0
  9
$UNITMODE
 70
     0
  9
$VISRETAIN
 70
     1
  9
$PLINEGEN
 70
     0
  9
$PSLTSCALE
 70
     1
  9
$TREEDEPTH
 70
  3020
  9
$CMLSTYLE
  2
Standard
  9
$CMLJUST
 70
     0
  9
$CMLSCALE
 40
20.0
  9
$PROXYGRAPHICS
 70
     1
  9
$MEASUREMENT
 70
     1
  9
$CELWEIGHT
370
    -1
  9
$ENDCAPS
280
     0
  9
$JOINSTYLE
280
     0
  9
$LWDISPLAY
290
     0
  9
$INSUNITS
 70
     4
  9
$HYPERLINKBASE
  1

  9
$STYLESHEET
  1

  9
$XEDIT
290
     1
  9
$CEPSNTYPE
380
     0
  9
$PSTYLEMODE
290
     1
  9
$FINGERPRINTGUID
  2
{FDEAD578-A652-11D2-9A35-0060089B3A3F}
  9
$VERSIONGUID
  2
{A28C2B26-C10B-457C-9EAA-485863F1D2FA}
  9
$EXTNAMES
290
     1
  9
$PSVPSCALE
 40
0.0
  9
$OLESTARTUP
290
     0
  0
ENDSEC
  0
SECTION
  2
CLASSES
  0
CLASS
  1
ACDBDICTIONARYWDFLT
  2
AcDbDictionaryWithDefault
  3
ObjectDBX Classes
 90
        0
280
     0
281
     0
  0
CLASS
  1
DICTIONARYVAR
  2
AcDbDictionaryVar
  3
ObjectDBX Classes
 90
        0
280
     0
281
     0
  0
CLASS
  1
DIMASSOC
  2
AcDbDimAssoc
  3
"AcDbDimAssoc|Product Desc:     AcDim ARX App For Dimension|Company:          Autodesk, Inc.|WEB Address:      www.autodesk.com"
 90
        0
280
     0
281
     0
  0
CLASS
  1
ACDBPLACEHOLDER
  2
AcDbPlaceHolder
  3
ObjectDBX Classes
 90
        0
280
     0
281
     0
  0
CLASS
  1
LAYOUT
  2
AcDbLayout
  3
ObjectDBX Classes
 90
        0
280
     0
281
     0
  0
ENDSEC
  0
SECTION
  2
TABLES
  0
TABLE
  2
VPORT
  5
8
330
0
100
AcDbSymbolTable
 70
     2
  0
VPORT
  5
23263
330
8
100
AcDbSymbolTableRecord
100
AcDbViewportTableRecord
  2
*Active
 70
     0
 10
0.0
 20
0.0
 11
1.0
 21
1.0
 12
57.24089637205205
 22
185.2253761950837
 13
0.0
 23
0.0
 14
10.0
 24
10.0
 15
10.0
 25
10.0
 16
0.0
 26
0.0
 36
1.0
 17
0.0
 27
0.0
 37
0.0
 40
272.0727700655904
 41
1.561381074168797
 42
50.0
 43
0.0
 44
0.0
 50
0.0
 51
0.0
 71
     0
 72
  1000
 73
     1
 74
     3
 75
     0
 76
     0
 77
     0
 78
     0
281
     0
 65
     1
110
0.0
120
0.0
130
0.0
111
1.0
121
0.0
131
0.0
112
0.0
122
1.0
132
0.0
 79
     0
146
0.0
  0
ENDTAB
  0
TABLE
  2
LTYPE
  5
5
330
0
100
AcDbSymbolTable
 70
     3
  0
LTYPE
  5
14
330
5
100
AcDbSymbolTableRecord
100
AcDbLinetypeTableRecord
  2
ByBlock
 70
     0
  3

 72
    65
 73
     0
 40
0.0
  0
LTYPE
  5
15
330
5
100
AcDbSymbolTableRecord
100
AcDbLinetypeTableRecord
  2
ByLayer
 70
     0
  3

 72
    65
 73
     0
 40
0.0
  0
LTYPE
  5
16
330
5
100
AcDbSymbolTableRecord
100
AcDbLinetypeTableRecord
  2
Continuous
 70
     0
  3
Solid line
 72
    65
 73
     0
 40
0.0
  0
LTYPE
  5
118
330
5
100
AcDbSymbolTableRecord
100
AcDbLinetypeTableRecord
  2
CENTER
 70
     0
  3
____ _ ____ _ ____ _ ____ _ ____ _ ____ _ ____
 72
    65
 73
     4
 40
0.6
 49
0.375
 74
     0
 49
-0.075
 74
     0
 49
0.075
 74
     0
 49
-0.075
 74
     0
  0
LTYPE
  5
2037E
330
5
100
AcDbSymbolTableRecord
100
AcDbLinetypeTableRecord
  2
ACAD_ISO02W100
 70
     0
  3
ISO Strichlinie __ __ __ __ __ __ __ __ __ __ _
 72
    65
 73
     2
 40
15.0
 49
12.0
 74
     0
 49
-3.0
 74
     0
  0
ENDTAB
  0
TABLE
  2
LAYER
  5
2
330
0
100
AcDbSymbolTable
 70
     8
  0
LAYER
  5
10
330
2
100
AcDbSymbolTableRecord
100
AcDbLayerTableRecord
  2
0
 70
     0
 62
     7
  6
Continuous
370
    -3
390
F
  0
LAYER
  5
119
330
2
100
AcDbSymbolTableRecord
100
AcDbLayerTableRecord
  2
Defpoints
 70
     0
 62
     7
  6
Continuous
290
     0
370
    -3
390
F
  0
LAYER
  5
11A
330
2
100
AcDbSymbolTableRecord
100
AcDbLayerTableRecord
  2
91000_TIP
 70
     0
 62
     7
  6
Continuous
370
    -3
390
F
  0
LAYER
  5
11B
330
2
100
AcDbSymbolTableRecord
100
AcDbLayerTableRecord
  2
11000_Left
 70
     0
 62
     7
  6
Continuous
370
    -3
390
F
  0
LAYER
  5
11C
330
2
100
AcDbSymbolTableRecord
100
AcDbLayerTableRecord
  2
10000_FRONT
 70
     0
 62
     7
  6
Continuous
370
    -3
390
F
  0
LAYER
  5
11E
330
2
100
AcDbSymbolTableRecord
100
AcDbLayerTableRecord
  2
90000_FRAME
 70
     0
 62
     7
  6
Continuous
370
    -3
390
F
  0
LAYER
  5
11F
330
2
100
AcDbSymbolTableRecord
100
AcDbLayerTableRecord
  2
11100_LEFT_DIM
 70
     0
 62
     7
  6
Continuous
370
    -3
390
F
  0
LAYER
  5
1E61D
330
2
100
AcDbSymbolTableRecord
100
AcDbLayerTableRecord
  2
10100_FRONT_DIM
 70
     0
 62
     7
  6
Continuous
370
    -3
390
F
  0
ENDTAB
  0
TABLE
  2
STYLE
  5
3
330
0
100
AcDbSymbolTable
 70
     1
  0
STYLE
  5
11
330
3
100
AcDbSymbolTableRecord
100
AcDbTextStyleTableRecord
  2
Standard
 70
     0
 40
0.0
 41
1.0
 50
0.0
 71
     0
 42
2.5
  3
txt
  4

  0
ENDTAB
  0
TABLE
  2
VIEW
  5
6
330
0
100
AcDbSymbolTable
 70
     0
  0
ENDTAB
  0
TABLE
  2
UCS
  5
7
330
0
100
AcDbSymbolTable
 70
     0
  0
ENDTAB
  0
TABLE
  2
APPID
  5
9
330
0
100
AcDbSymbolTable
 70
     3
  0
APPID
  5
12
330
9
100
AcDbSymbolTableRecord
100
AcDbRegAppTableRecord
  2
ACAD
 70
     0
  0
APPID
  5
121
330
9
100
AcDbSymbolTableRecord
100
AcDbRegAppTableRecord
  2
AUSTER_ANSICHT
 70
     0
  0
APPID
  5
122
330
9
100
AcDbSymbolTableRecord
100
AcDbRegAppTableRecord
  2
AUSTER_FOLIE
 70
     0
  0
ENDTAB
  0
TABLE
  2
DIMSTYLE
  5
A
330
0
100
AcDbSymbolTable
 70
     3
100
AcDbDimStyleTable
 71
     2
340
147AC
340
27
  0
DIMSTYLE
105
27
330
A
100
AcDbSymbolTableRecord
100
AcDbDimStyleTableRecord
  2
ISO-25
 70
     0
 41
2.5
 42
0.625
 43
3.75
 44
1.25
 73
     0
 74
     0
 77
     1
 78
     8
140
2.5
141
2.5
143
0.03937007874016
147
0.625
171
     3
172
     1
271
     2
272
     2
274
     3
278
    44
283
     0
284
     8
340
11
  0
DIMSTYLE
105
11E6E
330
A
100
AcDbSymbolTableRecord
100
AcDbDimStyleTableRecord
  2
STANDARD
 70
     0
340
11
  0
DIMSTYLE
105
147AC
102
{ACAD_REACTORS
330
22E5F
330
22E47
330
22E01
330
22E19
330
22DE9
330
22F03
330
22EEB
330
22ECF
330
22F33
330
22F1B
330
22E2F
102
}
330
A
100
AcDbSymbolTableRecord
100
AcDbDimStyleTableRecord
  2
H035
 70
     0
 40
0.0
 41
2.5
 42
2.0
 43
4.0
 44
1.0
 73
     0
 74
     0
 78
     8
140
3.5
141
2.5
143
0.0394
147
2.0
171
     4
172
     1
176
     7
177
     7
178
     7
271
     0
272
     0
273
     8
274
     4
277
     6
340
11
  0
ENDTAB
  0
TABLE
  2
BLOCK_RECORD
  5
1
330
0
100
AcDbSymbolTable
 70
    13
  0
BLOCK_RECORD
  5
1F
330
1
100
AcDbSymbolTableRecord
100
AcDbBlockTableRecord
  2
*Model_Space
340
22
  0
BLOCK_RECORD
  5
50
330
1
100
AcDbSymbolTableRecord
100
AcDbBlockTableRecord
  2
*Paper_Space
340
51
  0
BLOCK_RECORD
  5
55
330
1
100
AcDbSymbolTableRecord
100
AcDbBlockTableRecord
  2
*Paper_Space0
340
56
  0
BLOCK_RECORD
  5
86
330
1
100
AcDbSymbolTableRecord
100
AcDbBlockTableRecord
  2
SIEMENS_OUTLINE_BL0
340
0
102
{BLKREFS
331
C5B
102
}
  0
BLOCK_RECORD
  5
22DEA
330
1
100
AcDbSymbolTableRecord
100
AcDbBlockTableRecord
  2
*D2
340
0
  0
BLOCK_RECORD
  5
22E02
330
1
100
AcDbSymbolTableRecord
100
AcDbBlockTableRecord
  2
*D3
340
0
  0
BLOCK_RECORD
  5
22E1A
330
1
100
AcDbSymbolTableRecord
100
AcDbBlockTableRecord
  2
*D4
340
0
  0
BLOCK_RECORD
  5
22E30
330
1
100
AcDbSymbolTableRecord
100
AcDbBlockTableRecord
  2
*D5
340
0
  0
BLOCK_RECORD
  5
22E48
330
1
100
AcDbSymbolTableRecord
100
AcDbBlockTableRecord
  2
*D6
340
0
  0
BLOCK_RECORD
  5
22E60
330
1
100
AcDbSymbolTableRecord
100
AcDbBlockTableRecord
  2
*D7
340
0
  0
BLOCK_RECORD
  5
22ED0
330
1
100
AcDbSymbolTableRecord
100
AcDbBlockTableRecord
  2
*D8
340
0
  0
BLOCK_RECORD
  5
22EEC
330
1
100
AcDbSymbolTableRecord
100
AcDbBlockTableRecord
  2
*D9
340
0
  0
BLOCK_RECORD
  5
22F04
330
1
100
AcDbSymbolTableRecord
100
AcDbBlockTableRecord
  2
*D10
340
0
  0
BLOCK_RECORD
  5
22F1C
330
1
100
AcDbSymbolTableRecord
100
AcDbBlockTableRecord
  2
*D11
340
0
  0
BLOCK_RECORD
  5
22F34
330
1
100
AcDbSymbolTableRecord
100
AcDbBlockTableRecord
  2
*D12
340
0
  0
ENDTAB
  0
ENDSEC
  0
SECTION
  2
BLOCKS
  0
BLOCK
  5
20
330
1F
100
AcDbEntity
  8
0
100
AcDbBlockBegin
  2
*Model_Space
 70
     0
 10
0.0
 20
0.0
 30
0.0
  3
*Model_Space
  1

  0
ENDBLK
  5
21
330
1F
100
AcDbEntity
  8
0
100
AcDbBlockEnd
  0
BLOCK
  5
52
330
50
100
AcDbEntity
 67
     1
  8
0
100
AcDbBlockBegin
  2
*Paper_Space
 70
     0
 10
0.0
 20
0.0
 30
0.0
  3
*Paper_Space
  1

  0
ENDBLK
  5
53
330
50
100
AcDbEntity
 67
     1
  8
0
100
AcDbBlockEnd
  0
BLOCK
  5
57
330
55
100
AcDbEntity
  8
0
100
AcDbBlockBegin
  2
*Paper_Space0
 70
     0
 10
0.0
 20
0.0
 30
0.0
  3
*Paper_Space0
  1

  0
ENDBLK
  5
58
330
55
100
AcDbEntity
  8
0
100
AcDbBlockEnd
  0
BLOCK
  5
87
330
86
100
AcDbEntity
  8
0
  6
Continuous
 62
     7
100
AcDbBlockBegin
  2
SIEMENS_OUTLINE_BL0
 70
     0
 10
0.0
 20
0.0
 30
0.0
  3
SIEMENS_OUTLINE_BL0
  1

  0
LINE
  5
88
330
86
100
AcDbEntity
  8
0
  6
Continuous
 62
     7
100
AcDbLine
 10
79.186200508
 20
21.4145478991
 30
0.0
 11
79.186200508
 21
16.6612788158
 31
0.0
  0
LINE
  5
89
330
86
100
AcDbEntity
  8
0
  6
Continuous
 62
     7
100
AcDbLine
 10
80.61218123299999
 20
21.4145478991
 30
0.0
 11
80.61218123299999
 21
16.6612788158
 31
0.0
  0
LINE
  5
8A
330
86
100
AcDbEntity
  8
0
  6
Continuous
 62
     7
100
AcDbLine
 10
79.186200508
 20
16.6612788158
 30
0.0
 11
80.61218123299999
 21
16.6612788158
 31
0.0
  0
LINE
  5
8B
330
86
100
AcDbEntity
  8
0
  6
Continuous
 62
     7
100
AcDbLine
 10
79.186200508
 20
21.4145478991
 30
0.0
 11
80.61218123299999
 21
21.4145478991
 31
0.0
  0
LINE
  5
8C
330
86
100
AcDbEntity
  8
0
  6
Continuous
 62
     7
100
AcDbLine
 10
81.7054331221
 20
21.4145478991
 30
0.0
 11
81.7054331221
 21
16.6612788158
 31
0.0
  0
LINE
  5
8D
330
86
100
AcDbEntity
  8
0
  6
Continuous
 62
     7
100
AcDbLine
 10
81.7054331221
 20
16.6612788158
 30
0.0
 11
85.2703849346
 21
16.6612788158
 31
0.0
  0
LINE
  5
8E
330
86
100
AcDbEntity
  8
0
  6
Continuous
 62
     7
100
AcDbLine
 10
85.2703849346
 20
17.56439994169999
 30
0.0
 11
83.0838811563
 21
17.56439994169999
 31
0.0
  0
LINE
  5
8F
330
86
100
AcDbEntity
  8
0
  6
Continuous
 62
     7
100
AcDbLine
 10
85.2703849346
 20
17.56439994169999
 30
0.0
 11
85.2703849346
 21
16.6612788158
 31
0.0
  0
LINE
  5
90
330
86
100
AcDbEntity
  8
0
  6
Continuous
 62
     7
100
AcDbLine
 10
85.2228522438
 20
21.4145478991
 30
0.0
 11
81.7054331221
 21
21.4145478991
 31
0.0
  0
LINE
  5
91
330
86
100
AcDbEntity
  8
0
  6
Continuous
 62
     7
100
AcDbLine
 10
85.2228522438
 20
20.5351931187
 30
0.0
 11
83.0838811563
 21
20.5351931187
 31
0.0
  0
LINE
  5
92
330
86
100
AcDbEntity
  8
0
  6
Continuous
 62
     7
100
AcDbLine
 10
85.2228522438
 20
21.4145478991
 30
0.0
 11
85.2228522438
 21
20.5351931187
 31
0.0
  0
LINE
  5
93
330
86
100
AcDbEntity
  8
0
  6
Continuous
 62
     7
100
AcDbLine
 10
84.9376560988
 20
18.68141817619999
 30
0.0
 11
83.0838811563
 21
18.68141817619999
 31
0.0
  0
LINE
  5
94
330
86
100
AcDbEntity
  8
0
  6
Continuous
 62
     7
100
AcDbLine
 10
84.9376560988
 20
19.46570757499999
 30
0.0
 11
84.9376560988
 21
18.68141817619999
 31
0.0
  0
LINE
  5
95
330
86
100
AcDbEntity
  8
0
  6
Continuous
 62
     7
100
AcDbLine
 10
84.9376560988
 20
19.46570757499999
 30
0.0
 11
83.0838811563
 21
19.46570757499999
 31
0.0
  0
LINE
  5
96
330
86
100
AcDbEntity
  8
0
  6
Continuous
 62
     7
100
AcDbLine
 10
83.0838811563
 20
20.5351931187
 30
0.0
 11
83.0838811563
 21
19.46570757499999
 31
0.0
  0
LINE
  5
97
330
86
100
AcDbEntity
  8
0
  6
Continuous
 62
     7
100
AcDbLine
 10
83.0838811563
 20
18.68141817619999
 30
0.0
 11
83.0838811563
 21
17.56439994169999
 31
0.0
  0
LINE
  5
98
330
86
100
AcDbEntity
  8
0
  6
Continuous
 62
     7
100
AcDbLine
 10
86.0784406788
 20
16.6612788158
 30
0.0
 11
86.0784406788
 21
21.4145478991
 31
0.0
  0
LINE
  5
99
330
86
100
AcDbEntity
  8
0
  6
Continuous
 62
     7
100
AcDbLine
 10
86.0784406788
 20
16.6612788158
 30
0.0
 11
87.02909449539999
 21
16.6612788158
 31
0.0
  0
LINE
  5
9A
330
86
100
AcDbEntity
  8
0
  6
Continuous
 62
     7
100
AcDbLine
 10
91.92496165120001
 20
21.4145478991
 30
0.0
 11
91.92496165120001
 21
16.6612788158
 31
0.0
  0
LINE
  5
9B
330
86
100
AcDbEntity
  8
0
  6
Continuous
 62
     7
100
AcDbLine
 10
91.92496165120001
 20
16.6612788158
 30
0.0
 11
90.54651361700001
 21
16.6612788158
 31
0.0
  0
LINE
  5
9C
330
86
100
AcDbEntity
  8
0
  6
Continuous
 62
     7
100
AcDbLine
 10
88.3600098387
 20
16.61374612499999
 30
0.0
 11
89.21559827370002
 21
16.61374612499999
 31
0.0
  0
LINE
  5
9D
330
86
100
AcDbEntity
  8
0
  6
Continuous
 62
     7
100
AcDbLine
 10
88.3600098387
 20
16.61374612499999
 30
0.0
 11
87.02909449539999
 21
19.7033710291
 31
0.0
  0
LINE
  5
9E
330
86
100
AcDbEntity
  8
0
  6
Continuous
 62
     7
100
AcDbLine
 10
87.02909449539999
 20
16.6612788158
 30
0.0
 11
87.02909449539999
 21
19.7033710291
 31
0.0
  0
LINE
  5
9F
330
86
100
AcDbEntity
  8
0
  6
Continuous
 62
     7
100
AcDbLine
 10
90.54651361700001
 20
19.75090372
 30
0.0
 11
89.21559827370002
 21
16.61374612499999
 31
0.0
  0
LINE
  5
A0
330
86
100
AcDbEntity
  8
0
  6
Continuous
 62
     7
100
AcDbLine
 10
87.78961754870001
 20
21.4145478991
 30
0.0
 11
86.0784406788
 21
21.4145478991
 31
0.0
  0
LINE
  5
A1
330
86
100
AcDbEntity
  8
0
  6
Continuous
 62
     7
100
AcDbLine
 10
91.92496165120001
 20
21.4145478991
 30
0.0
 11
90.2137847812
 21
21.4145478991
 31
0.0
  0
LINE
  5
A2
330
86
100
AcDbEntity
  8
0
  6
Continuous
 62
     7
100
AcDbLine
 10
87.78961754870001
 20
21.4145478991
 30
0.0
 11
89.0254675104
 21
18.51505375829999
 31
0.0
  0
LINE
  5
A3
330
86
100
AcDbEntity
  8
0
  6
Continuous
 62
     7
100
AcDbLine
 10
90.2137847812
 20
21.4145478991
 30
0.0
 11
89.0254675104
 21
18.51505375829999
 31
0.0
  0
LINE
  5
A4
330
86
100
AcDbEntity
  8
0
  6
Continuous
 62
     7
100
AcDbLine
 10
90.54651361700001
 20
19.75090372
 30
0.0
 11
90.54651361700001
 21
16.6612788158
 31
0.0
  0
LINE
  5
A5
330
86
100
AcDbEntity
  8
0
  6
Continuous
 62
     7
100
AcDbLine
 10
93.01821354030002
 20
21.4145478991
 30
0.0
 11
93.01821354030002
 21
16.6612788158
 31
0.0
  0
LINE
  5
A6
330
86
100
AcDbEntity
  8
0
  6
Continuous
 62
     7
100
AcDbLine
 10
93.01821354030002
 20
16.6612788158
 30
0.0
 11
96.5831653528
 21
16.6612788158
 31
0.0
  0
LINE
  5
A7
330
86
100
AcDbEntity
  8
0
  6
Continuous
 62
     7
100
AcDbLine
 10
96.5831653528
 20
17.56439994169999
 30
0.0
 11
94.3966615745
 21
17.56439994169999
 31
0.0
  0
LINE
  5
A8
330
86
100
AcDbEntity
  8
0
  6
Continuous
 62
     7
100
AcDbLine
 10
96.5831653528
 20
17.56439994169999
 30
0.0
 11
96.5831653528
 21
16.6612788158
 31
0.0
  0
LINE
  5
A9
330
86
100
AcDbEntity
  8
0
  6
Continuous
 62
     7
100
AcDbLine
 10
96.53563266200002
 20
21.4145478991
 30
0.0
 11
93.01821354030002
 21
21.4145478991
 31
0.0
  0
LINE
  5
AA
330
86
100
AcDbEntity
  8
0
  6
Continuous
 62
     7
100
AcDbLine
 10
96.53563266200002
 20
20.5351931187
 30
0.0
 11
94.3966615745
 21
20.5351931187
 31
0.0
  0
LINE
  5
AB
330
86
100
AcDbEntity
  8
0
  6
Continuous
 62
     7
100
AcDbLine
 10
96.53563266200002
 20
21.4145478991
 30
0.0
 11
96.53563266200002
 21
20.5351931187
 31
0.0
  0
LINE
  5
AC
330
86
100
AcDbEntity
  8
0
  6
Continuous
 62
     7
100
AcDbLine
 10
96.25043651700002
 20
18.68141817619999
 30
0.0
 11
94.3966615745
 21
18.68141817619999
 31
0.0
  0
LINE
  5
AD
330
86
100
AcDbEntity
  8
0
  6
Continuous
 62
     7
100
AcDbLine
 10
96.25043651700002
 20
19.46570757499999
 30
0.0
 11
96.25043651700002
 21
18.68141817619999
 31
0.0
  0
LINE
  5
AE
330
86
100
AcDbEntity
  8
0
  6
Continuous
 62
     7
100
AcDbLine
 10
96.25043651700002
 20
19.46570757499999
 30
0.0
 11
94.3966615745
 21
19.46570757499999
 31
0.0
  0
LINE
  5
AF
330
86
100
AcDbEntity
  8
0
  6
Continuous
 62
     7
100
AcDbLine
 10
94.3966615745
 20
20.5351931187
 30
0.0
 11
94.3966615745
 21
19.46570757499999
 31
0.0
  0
LINE
  5
B0
330
86
100
AcDbEntity
  8
0
  6
Continuous
 62
     7
100
AcDbLine
 10
94.3966615745
 20
18.68141817619999
 30
0.0
 11
94.3966615745
 21
17.56439994169999
 31
0.0
  0
LINE
  5
B1
330
86
100
AcDbEntity
  8
0
  6
Continuous
 62
     7
100
AcDbLine
 10
97.3674547515
 20
16.6612788158
 30
0.0
 11
97.3674547515
 21
21.4145478991
 31
0.0
  0
LINE
  5
B2
330
86
100
AcDbEntity
  8
0
  6
Continuous
 62
     7
100
AcDbLine
 10
101.5503315447999
 20
21.4145478991
 30
0.0
 11
101.5503315447999
 21
16.6612788158
 31
0.0
  0
LINE
  5
B3
330
86
100
AcDbEntity
  8
0
  6
Continuous
 62
     7
100
AcDbLine
 10
97.3674547515
 20
16.6612788158
 30
0.0
 11
98.3181085682
 21
16.6612788158
 31
0.0
  0
LINE
  5
B4
330
86
100
AcDbEntity
  8
0
  6
Continuous
 62
     7
100
AcDbLine
 10
101.5503315447999
 20
21.4145478991
 30
0.0
 11
100.5996777281999
 21
21.4145478991
 31
0.0
  0
LINE
  5
B5
330
86
100
AcDbEntity
  8
0
  6
Continuous
 62
     7
100
AcDbLine
 10
98.91226720360002
 20
21.4145478991
 30
0.0
 11
97.3674547515
 21
21.4145478991
 31
0.0
  0
LINE
  5
B6
330
86
100
AcDbEntity
  8
0
  6
Continuous
 62
     7
100
AcDbLine
 10
101.5503315447999
 20
16.6612788158
 30
0.0
 11
100.0292854381999
 21
16.6612788158
 31
0.0
  0
LINE
  5
B7
330
86
100
AcDbEntity
  8
0
  6
Continuous
 62
     7
100
AcDbLine
 10
100.0292854381999
 20
16.6612788158
 30
0.0
 11
98.3181085682
 21
19.7033710291
 31
0.0
  0
LINE
  5
B8
330
86
100
AcDbEntity
  8
0
  6
Continuous
 62
     7
100
AcDbLine
 10
98.91226720360002
 20
21.4145478991
 30
0.0
 11
100.5996777281999
 21
18.4675210675
 31
0.0
  0
LINE
  5
B9
330
86
100
AcDbEntity
  8
0
  6
Continuous
 62
     7
100
AcDbLine
 10
100.5996777281999
 20
21.4145478991
 30
0.0
 11
100.5996777281999
 21
18.4675210675
 31
0.0
  0
LINE
  5
BA
330
86
100
AcDbEntity
  8
0
  6
Continuous
 62
     7
100
AcDbLine
 10
98.3181085682
 20
16.6612788158
 30
0.0
 11
98.3181085682
 21
19.7033710291
 31
0.0
  0
LINE
  5
BB
330
86
100
AcDbEntity
  8
0
  6
Continuous
 62
     7
100
AcDbLine
 10
102.3583872889999
 20
16.75634419749999
 30
0.0
 11
102.3583872889999
 21
17.7069980142
 31
0.0
  0
LINE
  5
BC
330
86
100
AcDbEntity
  8
0
  6
Continuous
 62
     7
100
AcDbLine
 10
105.6856756473
 20
20.4163613916
 30
0.0
 11
105.6856756473
 21
21.36701520829999
 31
0.0
  0
ARC
  5
BD
330
86
100
AcDbEntity
  8
0
  6
Continuous
 62
     7
100
AcDbCircle
 10
104.063028414
 20
18.61843736089998
 30
0.0
 40
1.111619360599997
100
AcDbArc
 50
277.7099956934
 51
295.6884927745999
  0
ARC
  5
BE
330
86
100
AcDbEntity
  8
0
  6
Continuous
 62
     7
100
AcDbCircle
 10
104.3473383967
 20
17.8936115972
 30
0.0
 40
0.3401689265
100
AcDbArc
 50
305.503221255
 51
72.46528985229999
  0
ARC
  5
BF
330
86
100
AcDbEntity
  8
0
  6
Continuous
 62
     7
100
AcDbCircle
 10
103.7813445885999
 20
21.2953185068
 30
0.0
 40
4.756794641099999
100
AcDbArc
 50
252.5939200548001
 51
280.9816604255999
  0
ARC
  5
C0
330
86
100
AcDbEntity
  8
0
  6
Continuous
 62
     7
100
AcDbCircle
 10
104.2361799517
 20
18.6773047703
 30
0.0
 40
2.100726595299998
100
AcDbArc
 50
282.4058358519999
 51
311.8644433928
  0
ARC
  5
C1
330
86
100
AcDbEntity
  8
0
  6
Continuous
 62
     7
100
AcDbCircle
 10
103.9626156045999
 20
20.2856464918
 30
0.0
 40
0.3029626476
100
AcDbArc
 50
154.4400348282
 51
221.8201698800999
  0
ARC
  5
C2
330
86
100
AcDbEntity
  8
0
  6
Continuous
 62
     7
100
AcDbCircle
 10
104.0418367559
 20
20.2064253405
 30
0.0
 40
0.4103089737
100
AcDbArc
 50
102.8287828680999
 51
149.2259639003
  0
ARC
  5
C3
330
86
100
AcDbEntity
  8
0
  6
Continuous
 62
     7
100
AcDbCircle
 10
104.4588635915999
 20
18.46409001059999
 30
0.0
 40
2.201836557
100
AcDbArc
 50
84.0400061857
 51
103.3427657870999
  0
ARC
  5
C4
330
86
100
AcDbEntity
  8
0
  6
Continuous
 62
     7
100
AcDbCircle
 10
104.1178997669
 20
16.0467260867
 30
0.0
 40
4.642373736499997
100
AcDbArc
 50
70.2625858546
 51
82.95241863799999
  0
ARC
  5
C5
330
86
100
AcDbEntity
  8
0
  6
Continuous
 62
     7
100
AcDbCircle
 10
103.6038815646999
 20
20.7183489764
 30
0.0
 40
3.258755990899997
100
AcDbArc
 50
247.5300206145
 51
280.7579522143
  0
ARC
  5
C6
330
86
100
AcDbEntity
  8
0
  6
Continuous
 62
     7
100
AcDbCircle
 10
97.21891509270001
 20
2.4668290159
 30
0.0
 40
17.3316084133
100
AcDbArc
 50
65.34146746500001
 51
67.39977707359999
  0
ARC
  5
C7
330
86
100
AcDbEntity
  8
0
  6
Continuous
 62
     7
100
AcDbCircle
 10
108.0147774981
 20
28.259255379
 30
0.0
 40
10.6291642039
100
AcDbArc
 50
242.8620101252001
 51
247.1042029186
  0
ARC
  5
C8
330
86
100
AcDbEntity
  8
0
  6
Continuous
 62
     7
100
AcDbCircle
 10
104.1598762715
 20
20.725323882
 30
0.0
 40
2.166291629199998
100
AcDbArc
 50
227.3119280793999
 51
242.7040315235
  0
ARC
  5
C9
330
86
100
AcDbEntity
  8
0
  6
Continuous
 62
     7
100
AcDbCircle
 10
103.5558454618999
 20
20.0196462412
 30
0.0
 40
1.238521734
100
AcDbArc
 50
194.7952194236
 51
225.7176549047
  0
ARC
  5
CA
330
86
100
AcDbEntity
  8
0
  6
Continuous
 62
     7
100
AcDbCircle
 10
103.6180035961
 20
20.05986621039999
 30
0.0
 40
1.309092072899999
100
AcDbArc
 50
164.1974860461
 51
195.8025139539
  0
ARC
  5
CB
330
86
100
AcDbEntity
  8
0
  6
Continuous
 62
     7
100
AcDbCircle
 10
104.1750273167
 20
19.1715990505
 30
0.0
 40
2.366924815299999
100
AcDbArc
 50
86.22180229280001
 51
120.4272602309
  0
ARC
  5
CC
330
86
100
AcDbEntity
  8
0
  6
Continuous
 62
     7
100
AcDbCircle
 10
103.9061705341999
 20
12.4754312294
 30
0.0
 40
9.0679051661
100
AcDbArc
 50
78.68270492259998
 51
87.3147599624
  0
ARC
  5
CD
330
86
100
AcDbEntity
  8
0
  6
Continuous
 62
     7
100
AcDbCircle
 10
103.4501013557999
 20
20.1673739729
 30
0.0
 40
1.119747444
100
AcDbArc
 50
142.8139179029999
 51
167.1522951416999
  0
ARC
  5
CE
330
86
100
AcDbEntity
  8
0
  6
Continuous
 62
     7
100
AcDbCircle
 10
103.7954106973999
 20
19.86079227619999
 30
0.0
 40
1.580546684499998
100
AcDbArc
 50
121.2140948535
 51
141.5254768286
  0
ARC
  5
CF
330
86
100
AcDbEntity
  8
0
  6
Continuous
 62
     7
100
AcDbCircle
 10
104.372585063
 20
20.6718496049
 30
0.0
 40
0.8661276051999998
100
AcDbArc
 50
222.7760387596
 51
239.0362434679
  0
ARC
  5
D0
330
86
100
AcDbEntity
  8
0
  6
Continuous
 62
     7
100
AcDbCircle
 10
101.8658754847
 20
13.3415774063
 30
0.0
 40
6.858773576299999
100
AcDbArc
 50
59.90202725600001
 51
68.2036481279
  0
ARC
  5
D1
330
86
100
AcDbEntity
  8
0
  6
Continuous
 62
     7
100
AcDbCircle
 10
105.2743699785
 20
22.26746391349999
 30
0.0
 40
2.698741017099999
100
AcDbArc
 50
240.0481997804
 51
251.3779673736999
  0
ARC
  5
D2
330
86
100
AcDbEntity
  8
0
  6
Continuous
 62
     7
100
AcDbCircle
 10
104.6089128116999
 20
18.1105652982
 30
0.0
 40
1.4334474881
100
AcDbArc
 50
315.8904553224
 51
333.5229264372999
  0
ARC
  5
D3
330
86
100
AcDbEntity
  8
0
  6
Continuous
 62
     7
100
AcDbCircle
 10
104.6135510555
 20
18.057158148
 30
0.0
 40
1.406228711899998
100
AcDbArc
 50
335.3867972702
 51
24.39151194019999
  0
ARC
  5
D4
330
86
100
AcDbEntity
  8
0
  6
Continuous
 62
     7
100
AcDbCircle
 10
104.5413461519
 20
17.97930145619999
 30
0.0
 40
1.504702514799999
100
AcDbArc
 50
25.95629166050001
 51
59.4834829668
  0
LINE
  5
D5
330
86
100
AcDbEntity
  8
0
  6
Continuous
 62
     7
100
AcDbLine
 10
74.7656602606
 20
16.75634419749999
 30
0.0
 11
74.7656602606
 21
17.7069980142
 31
0.0
  0
LINE
  5
D6
330
86
100
AcDbEntity
  8
0
  6
Continuous
 62
     7
100
AcDbLine
 10
78.09294861879997
 20
20.4163613916
 30
0.0
 11
78.09294861879997
 21
21.36701520829999
 31
0.0
  0
ARC
  5
D7
330
86
100
AcDbEntity
  8
0
  6
Continuous
 62
     7
100
AcDbCircle
 10
76.4703013855
 20
18.61843736089998
 30
0.0
 40
1.111619360599997
100
AcDbArc
 50
277.7099956934
 51
295.6884927745999
  0
ARC
  5
D8
330
86
100
AcDbEntity
  8
0
  6
Continuous
 62
     7
100
AcDbCircle
 10
76.7546113683
 20
17.8936115972
 30
0.0
 40
0.3401689265
100
AcDbArc
 50
305.5032212556
 51
72.4652898515
  0
ARC
  5
D9
330
86
100
AcDbEntity
  8
0
  6
Continuous
 62
     7
100
AcDbCircle
 10
76.1886175602
 20
21.2953185068
 30
0.0
 40
4.756794641099999
100
AcDbArc
 50
252.5939200545
 51
280.9816604253
  0
ARC
  5
DA
330
86
100
AcDbEntity
  8
0
  6
Continuous
 62
     7
100
AcDbCircle
 10
76.64345292330001
 20
18.6773047703
 30
0.0
 40
2.100726595299998
100
AcDbArc
 50
282.4058358513
 51
311.8644433923
  0
ARC
  5
DB
330
86
100
AcDbEntity
  8
0
  6
Continuous
 62
     7
100
AcDbCircle
 10
76.3698885762
 20
20.2856464918
 30
0.0
 40
0.3029626476
100
AcDbArc
 50
154.4400348282
 51
221.8201698800999
  0
ARC
  5
DC
330
86
100
AcDbEntity
  8
0
  6
Continuous
 62
     7
100
AcDbCircle
 10
76.4491097276
 20
20.2064253405
 30
0.0
 40
0.4103089737
100
AcDbArc
 50
102.8287828727
 51
149.2259639027
  0
ARC
  5
DD
330
86
100
AcDbEntity
  8
0
  6
Continuous
 62
     7
100
AcDbCircle
 10
76.8661365632
 20
18.46409001059999
 30
0.0
 40
2.201836557
100
AcDbArc
 50
84.0400061859
 51
103.3427657871999
  0
ARC
  5
DE
330
86
100
AcDbEntity
  8
0
  6
Continuous
 62
     7
100
AcDbCircle
 10
76.5251727384
 20
16.0467260867
 30
0.0
 40
4.642373736499997
100
AcDbArc
 50
70.2625858546
 51
82.9524186379
  0
ARC
  5
DF
330
86
100
AcDbEntity
  8
0
  6
Continuous
 62
     7
100
AcDbCircle
 10
76.0111545363
 20
20.7183489764
 30
0.0
 40
3.258755990899997
100
AcDbArc
 50
247.5300206148
 51
280.7579522145
  0
ARC
  5
E0
330
86
100
AcDbEntity
  8
0
  6
Continuous
 62
     7
100
AcDbCircle
 10
69.6261880643
 20
2.4668290159
 30
0.0
 40
17.3316084133
100
AcDbArc
 50
65.34146746500001
 51
67.39977707359999
  0
ARC
  5
E1
330
86
100
AcDbEntity
  8
0
  6
Continuous
 62
     7
100
AcDbCircle
 10
80.4220504697
 20
28.259255379
 30
0.0
 40
10.6291642039
100
AcDbArc
 50
242.8620101252001
 51
247.1042029184999
  0
ARC
  5
E2
330
86
100
AcDbEntity
  8
0
  6
Continuous
 62
     7
100
AcDbCircle
 10
76.56714924310001
 20
20.725323882
 30
0.0
 40
2.166291629199998
100
AcDbArc
 50
227.3119280793999
 51
242.7040315235
  0
ARC
  5
E3
330
86
100
AcDbEntity
  8
0
  6
Continuous
 62
     7
100
AcDbCircle
 10
75.9631184335
 20
20.0196462412
 30
0.0
 40
1.238521734
100
AcDbArc
 50
194.7952194234
 51
225.7176549041999
  0
ARC
  5
E4
330
86
100
AcDbEntity
  8
0
  6
Continuous
 62
     7
100
AcDbCircle
 10
76.58230028830002
 20
19.1715990505
 30
0.0
 40
2.366924815299999
100
AcDbArc
 50
86.22180229280001
 51
120.4272602309
  0
ARC
  5
E5
330
86
100
AcDbEntity
  8
0
  6
Continuous
 62
     7
100
AcDbCircle
 10
76.3134435058
 20
12.4754312294
 30
0.0
 40
9.0679051661
100
AcDbArc
 50
78.68270492259998
 51
87.3147599624
  0
ARC
  5
E6
330
86
100
AcDbEntity
  8
0
  6
Continuous
 62
     7
100
AcDbCircle
 10
76.20268366899998
 20
19.86079227619999
 30
0.0
 40
1.580546684599998
100
AcDbArc
 50
121.2140948540999
 51
141.5254768289999
  0
ARC
  5
E7
330
86
100
AcDbEntity
  8
0
  6
Continuous
 62
     7
100
AcDbCircle
 10
76.7798580346
 20
20.6718496049
 30
0.0
 40
0.8661276051999998
100
AcDbArc
 50
222.7760387596
 51
239.0362434679
  0
ARC
  5
E8
330
86
100
AcDbEntity
  8
0
  6
Continuous
 62
     7
100
AcDbCircle
 10
74.2731484563
 20
13.3415774063
 30
0.0
 40
6.858773576299999
100
AcDbArc
 50
59.90202725620001
 51
68.20364812820002
  0
ARC
  5
E9
330
86
100
AcDbEntity
  8
0
  6
Continuous
 62
     7
100
AcDbCircle
 10
77.6816429501
 20
22.26746391349999
 30
0.0
 40
2.698741017099999
100
AcDbArc
 50
240.0481997804
 51
251.3779673734
  0
ARC
  5
EA
330
86
100
AcDbEntity
  8
0
  6
Continuous
 62
     7
100
AcDbCircle
 10
77.0161857833
 20
18.1105652982
 30
0.0
 40
1.4334474881
100
AcDbArc
 50
315.8904553225998
 51
333.5229264375
  0
ARC
  5
EB
330
86
100
AcDbEntity
  8
0
  6
Continuous
 62
     7
100
AcDbCircle
 10
77.020824027
 20
18.057158148
 30
0.0
 40
1.406228711899998
100
AcDbArc
 50
335.3867972703
 51
24.3915119403
  0
ARC
  5
EC
330
86
100
AcDbEntity
  8
0
  6
Continuous
 62
     7
100
AcDbCircle
 10
76.94861912350001
 20
17.97930145619999
 30
0.0
 40
1.504702514699999
100
AcDbArc
 50
25.9562916611
 51
59.4834829676
  0
LINE
  5
ED
330
86
100
AcDbEntity
  8
0
  6
Continuous
 62
     7
100
AcDbLine
 10
74.9574888499
 20
20.8337423583
 30
0.0
 11
75.2315546745
 21
21.10781543579999
 31
0.0
  0
ARC
  5
EE
330
86
100
AcDbEntity
  8
0
  6
Continuous
 62
     7
100
AcDbCircle
 10
76.0252765676
 20
20.05986621039999
 30
0.0
 40
1.309092072899999
100
AcDbArc
 50
164.1974860461
 51
195.8025139539
  0
ARC
  5
EF
330
86
100
AcDbEntity
  8
0
  6
Continuous
 62
     7
100
AcDbCircle
 10
75.8573743274
 20
20.1673739729
 30
0.0
 40
1.119747444
100
AcDbArc
 50
142.8139179029999
 51
167.1522951416999
  0
ENDBLK
  5
F0
330
86
100
AcDbEntity
  8
0
100
AcDbBlockEnd
  0
BLOCK
  5
22DF4
330
22DEA
100
AcDbEntity
  8
0
100
AcDbBlockBegin
  2
*D2
 70
     1
 10
0.0
 20
0.0
 30
0.0
  3
*D2
  1

  0
LINE
  5
2303B
330
22DEA
100
AcDbEntity
  8
10100_FRONT_DIM
  6
Continuous
 62
     7
370
    -2
100
AcDbLine
 10
-66.66926496134147
 20
271.2591245644252
 30
0.0
 11
-66.66926496134147
 21
276.9998462181963
 31
0.0
  0
LINE
  5
2303C
330
22DEA
100
AcDbEntity
  8
10100_FRONT_DIM
  6
Continuous
 62
     7
370
    -2
100
AcDbLine
 10
-44.16926496134147
 20
271.2591245644252
 30
0.0
 11
-44.16926496134147
 21
276.9998462181963
 31
0.0
  0
LINE
  5
2303D
330
22DEA
100
AcDbEntity
  8
10100_FRONT_DIM
  6
Continuous
 62
     7
370
    -2
100
AcDbLine
 10
-64.16926496134147
 20
275.9998462181963
 30
0.0
 11
-60.33593162800814
 21
275.9998462181963
 31
0.0
  0
LINE
  5
2303E
330
22DEA
100
AcDbEntity
  8
10100_FRONT_DIM
  6
Continuous
 62
     7
370
    -2
100
AcDbLine
 10
-46.66926496134147
 20
275.9998462181963
 30
0.0
 11
-50.5025982946748
 21
275.9998462181963
 31
0.0
  0
SOLID
  5
2303F
330
22DEA
100
AcDbEntity
  8
10100_FRONT_DIM
  6
Continuous
 62
     7
100
AcDbTrace
 10
-64.16926496134147
 20
276.4165128848631
 30
0.0
 11
-64.16926496134147
 21
275.5831795515296
 31
0.0
 12
-66.66926496134147
 22
275.9998462181963
 32
0.0
 13
-66.66926496134147
 23
275.9998462181963
 33
0.0
  0
SOLID
  5
23040
330
22DEA
100
AcDbEntity
  8
10100_FRONT_DIM
  6
Continuous
 62
     7
100
AcDbTrace
 10
-46.66926496134147
 20
276.4165128848631
 30
0.0
 11
-46.66926496134147
 21
275.5831795515296
 31
0.0
 12
-44.16926496134147
 22
275.9998462181963
 32
0.0
 13
-44.16926496134147
 23
275.9998462181963
 33
0.0
  0
MTEXT
  5
23041
330
22DEA
100
AcDbEntity
  8
10100_FRONT_DIM
  6
Continuous
 62
     7
370
    13
100
AcDbMText
 10
-55.41926496134147
 20
275.9998462181963
 30
0.0
 40
3.5
 41
0.0
 71
     5
 72
     1
  1
\A1;23
 73
     1
 44
1.0
1001
ACAD
1000
MTEXTBEGIN
1070
    73
1070
     1
1070
    44
1040
1.0
1070
    74
1070
     0
1000
MTEXTEND
  0
POINT
  5
23042
330
22DEA
100
AcDbEntity
  8
Defpoints
  6
Continuous
 62
     0
100
AcDbPoint
 10
-66.66926496134147
 20
269.2591245644252
 30
0.0
  0
POINT
  5
23043
330
22DEA
100
AcDbEntity
  8
Defpoints
  6
Continuous
 62
     0
100
AcDbPoint
 10
-44.16926496134147
 20
269.2591245644252
 30
0.0
  0
POINT
  5
23044
330
22DEA
100
AcDbEntity
  8
Defpoints
  6
Continuous
 62
     0
100
AcDbPoint
 10
-44.16926496134147
 20
275.9998462181963
 30
0.0
  0
ENDBLK
  5
22DF5
330
22DEA
100
AcDbEntity
  8
0
100
AcDbBlockEnd
  0
BLOCK
  5
22E0C
330
22E02
100
AcDbEntity
  8
0
100
AcDbBlockBegin
  2
*D3
 70
     1
 10
0.0
 20
0.0
 30
0.0
  3
*D3
  1

  0
LINE
  5
2302F
330
22E02
100
AcDbEntity
  8
10100_FRONT_DIM
  6
Continuous
 62
     7
370
    -2
100
AcDbLine
 10
-27.1692599613416
 20
270.2591245644252
 30
0.0
 11
-27.1692599613416
 21
276.9998462181963
 31
0.0
  0
LINE
  5
23030
330
22E02
100
AcDbEntity
  8
10100_FRONT_DIM
  6
Continuous
 62
     7
370
    -2
100
AcDbLine
 10
-16.16925996134159
 20
270.2591245644252
 30
0.0
 11
-16.16925996134159
 21
276.9998462181963
 31
0.0
  0
LINE
  5
23031
330
22E02
100
AcDbEntity
  8
10100_FRONT_DIM
  6
Continuous
 62
     7
370
    -2
100
AcDbLine
 10
-29.6692599613416
 20
275.9998462181963
 30
0.0
 11
-32.1692599613416
 21
275.9998462181963
 31
0.0
  0
LINE
  5
23032
330
22E02
100
AcDbEntity
  8
10100_FRONT_DIM
  6
Continuous
 62
     7
370
    -2
100
AcDbLine
 10
-13.66925996134159
 20
275.9998462181963
 30
0.0
 11
-11.16925996134159
 21
275.9998462181963
 31
0.0
  0
LINE
  5
23033
330
22E02
100
AcDbEntity
  8
10100_FRONT_DIM
  6
Continuous
 62
     7
370
    -2
100
AcDbLine
 10
-27.1692599613416
 20
275.9998462181963
 30
0.0
 11
-25.4192599613416
 21
275.9998462181963
 31
0.0
  0
LINE
  5
23034
330
22E02
100
AcDbEntity
  8
10100_FRONT_DIM
  6
Continuous
 62
     7
370
    -2
100
AcDbLine
 10
-16.16925996134159
 20
275.9998462181963
 30
0.0
 11
-17.91925996134159
 21
275.9998462181963
 31
0.0
  0
SOLID
  5
23035
330
22E02
100
AcDbEntity
  8
10100_FRONT_DIM
  6
Continuous
 62
     7
100
AcDbTrace
 10
-29.6692599613416
 20
276.4165128848631
 30
0.0
 11
-29.6692599613416
 21
275.5831795515296
 31
0.0
 12
-27.1692599613416
 22
275.9998462181963
 32
0.0
 13
-27.1692599613416
 23
275.9998462181963
 33
0.0
  0
SOLID
  5
23036
330
22E02
100
AcDbEntity
  8
10100_FRONT_DIM
  6
Continuous
 62
     7
100
AcDbTrace
 10
-13.66925996134159
 20
276.4165128848631
 30
0.0
 11
-13.66925996134159
 21
275.5831795515296
 31
0.0
 12
-16.16925996134159
 22
275.9998462181963
 32
0.0
 13
-16.16925996134159
 23
275.9998462181963
 33
0.0
  0
MTEXT
  5
23037
330
22E02
100
AcDbEntity
  8
10100_FRONT_DIM
  6
Continuous
 62
     7
370
    13
100
AcDbMText
 10
-21.6692599613416
 20
275.9998462181963
 30
0.0
 40
3.5
 41
0.0
 71
     5
 72
     1
  1
\A1;11
 73
     1
 44
1.0
1001
ACAD
1000
MTEXTBEGIN
1070
    73
1070
     1
1070
    44
1040
1.0
1070
    74
1070
     0
1000
MTEXTEND
  0
POINT
  5
23038
330
22E02
100
AcDbEntity
  8
Defpoints
  6
Continuous
 62
     0
100
AcDbPoint
 10
-27.1692599613416
 20
268.2591245644252
 30
0.0
  0
POINT
  5
23039
330
22E02
100
AcDbEntity
  8
Defpoints
  6
Continuous
 62
     0
100
AcDbPoint
 10
-16.16925996134159
 20
268.2591245644252
 30
0.0
  0
POINT
  5
2303A
330
22E02
100
AcDbEntity
  8
Defpoints
  6
Continuous
 62
     0
100
AcDbPoint
 10
-16.16925996134159
 20
275.9998462181963
 30
0.0
  0
ENDBLK
  5
22E0D
330
22E02
100
AcDbEntity
  8
0
100
AcDbBlockEnd
  0
BLOCK
  5
22E23
330
22E1A
100
AcDbEntity
  8
0
100
AcDbBlockBegin
  2
*D4
 70
     1
 10
0.0
 20
0.0
 30
0.0
  3
*D4
  1

  0
LINE
  5
2304F
330
22E1A
100
AcDbEntity
  8
10100_FRONT_DIM
  6
Continuous
 62
     7
370
    -2
100
AcDbLine
 10
-38.34971333593524
 20
269.748466699392
 30
0.0
 11
-40.16832165637471
 21
268.0330472822149
 31
0.0
  0
LINE
  5
23050
330
22E1A
100
AcDbEntity
  8
10100_FRONT_DIM
  6
Continuous
 62
     7
370
    -2
100
AcDbLine
 10
-48.17019826630835
 20
260.4852018466356
 30
0.0
 11
-49.98880658674785
 21
258.7697824294585
 31
0.0
  0
MTEXT
  5
23051
330
22E1A
100
AcDbEntity
  8
10100_FRONT_DIM
  6
Continuous
 62
     7
370
    13
100
AcDbMText
 10
-34.77311697240424
 20
273.122124886507
 30
0.0
 40
3.5
 41
0.0
 71
     5
 72
     1
  1
\A1;\U+22056
 11
0.7274433281757934
 21
0.6861677668708471
 31
0.0
 73
     1
 44
1.0
1001
ACAD
1000
MTEXTBEGIN
1070
    73
1070
     1
1070
    44
1040
1.0
1070
    74
1070
     0
1000
MTEXTEND
  0
LINE
  5
23052
330
22E1A
100
AcDbEntity
  8
10100_FRONT_DIM
  6
Continuous
 62
     7
370
    -2
100
AcDbLine
 10
-46.35158994586888
 20
262.2006212638128
 30
0.0
 11
-41.98692997681418
 21
266.3176278650378
 31
0.0
  0
SOLID
  5
23053
330
22E1A
100
AcDbEntity
  8
10100_FRONT_DIM
  6
Continuous
 62
     7
100
AcDbTrace
 10
-48.45610150250452
 20
260.7883032333755
 30
0.0
 11
-47.88429503011217
 21
260.1821004598957
 31
0.0
 12
-46.35158994586888
 22
262.2006212638128
 32
0.0
 13
-46.35158994586888
 23
262.2006212638128
 33
0.0
  0
SOLID
  5
23054
330
22E1A
100
AcDbEntity
  8
10100_FRONT_DIM
  6
Continuous
 62
     7
100
AcDbTrace
 10
-40.45422489257091
 20
268.3361486689548
 30
0.0
 11
-39.88241842017855
 21
267.729945895475
 31
0.0
 12
-41.98692997681418
 22
266.3176278650378
 32
0.0
 13
-41.98692997681418
 23
266.3176278650378
 33
0.0
  0
POINT
  5
23055
330
22E1A
100
AcDbEntity
  8
Defpoints
  6
Continuous
 62
     0
100
AcDbPoint
 10
-41.98692997681418
 20
266.3176278650378
 30
0.0
  0
POINT
  5
23056
330
22E1A
100
AcDbEntity
  8
Defpoints
  6
Continuous
 62
     0
100
AcDbPoint
 10
-46.35158994586888
 20
262.2006212638128
 30
0.0
  0
ENDBLK
  5
22E24
330
22E1A
100
AcDbEntity
  8
0
100
AcDbBlockEnd
  0
BLOCK
  5
22E3A
330
22E30
100
AcDbEntity
  8
0
100
AcDbBlockBegin
  2
*D5
 70
     1
 10
0.0
 20
0.0
 30
0.0
  3
*D5
  1

  0
LINE
  5
2301D
330
22E30
100
AcDbEntity
  8
10100_FRONT_DIM
  6
Continuous
 62
     7
370
    -2
100
AcDbLine
 10
-79.16946996134152
 20
166.3591265644251
 30
0.0
 11
-79.16946996134152
 21
150.9835720589703
 31
0.0
  0
LINE
  5
2301E
330
22E30
100
AcDbEntity
  8
10100_FRONT_DIM
  6
Continuous
 62
     7
370
    -2
100
AcDbLine
 10
-9.169469961341519
 20
166.3591296301186
 30
0.0
 11
-9.169469961341523
 21
150.9835720589703
 31
0.0
  0
LINE
  5
2301F
330
22E30
100
AcDbEntity
  8
10100_FRONT_DIM
  6
Continuous
 62
     7
370
    -2
100
AcDbLine
 10
-76.66946996134152
 20
151.9835720589703
 30
0.0
 11
-48.79446996134152
 21
151.9835720589703
 31
0.0
  0
LINE
  5
23020
330
22E30
100
AcDbEntity
  8
10100_FRONT_DIM
  6
Continuous
 62
     7
370
    -2
100
AcDbLine
 10
-11.66946996134152
 20
151.9835720589703
 30
0.0
 11
-39.54446996134153
 21
151.9835720589703
 31
0.0
  0
SOLID
  5
23021
330
22E30
100
AcDbEntity
  8
10100_FRONT_DIM
  6
Continuous
 62
     7
100
AcDbTrace
 10
-76.66946996134152
 20
152.4002387256369
 30
0.0
 11
-76.66946996134152
 21
151.5669053923036
 31
0.0
 12
-79.16946996134152
 22
151.9835720589703
 32
0.0
 13
-79.16946996134152
 23
151.9835720589703
 33
0.0
  0
SOLID
  5
23022
330
22E30
100
AcDbEntity
  8
10100_FRONT_DIM
  6
Continuous
 62
     7
100
AcDbTrace
 10
-11.66946996134152
 20
152.4002387256369
 30
0.0
 11
-11.66946996134152
 21
151.5669053923036
 31
0.0
 12
-9.169469961341523
 22
151.9835720589703
 32
0.0
 13
-9.169469961341523
 23
151.9835720589703
 33
0.0
  0
MTEXT
  5
23023
330
22E30
100
AcDbEntity
  8
10100_FRONT_DIM
  6
Continuous
 62
     7
370
    13
100
AcDbMText
 10
-44.16946996134153
 20
151.9835720589703
 30
0.0
 40
3.5
 41
0.0
 71
     5
 72
     1
  1
\A1;70
 73
     1
 44
1.0
1001
ACAD
1000
MTEXTBEGIN
1070
    73
1070
     1
1070
    44
1040
1.0
1070
    74
1070
     0
1000
MTEXTEND
  0
POINT
  5
23024
330
22E30
100
AcDbEntity
  8
Defpoints
  6
Continuous
 62
     0
100
AcDbPoint
 10
-79.16946996134152
 20
168.3591265644251
 30
0.0
  0
POINT
  5
23025
330
22E30
100
AcDbEntity
  8
Defpoints
  6
Continuous
 62
     0
100
AcDbPoint
 10
-9.169469961341519
 20
168.3591296301186
 30
0.0
  0
POINT
  5
23026
330
22E30
100
AcDbEntity
  8
Defpoints
  6
Continuous
 62
     0
100
AcDbPoint
 10
-9.169469961341523
 20
151.9835720589703
 30
0.0
  0
ENDBLK
  5
22E3B
330
22E30
100
AcDbEntity
  8
0
100
AcDbBlockEnd
  0
BLOCK
  5
22E52
330
22E48
100
AcDbEntity
  8
0
100
AcDbBlockBegin
  2
*D6
 70
     1
 10
0.0
 20
0.0
 30
0.0
  3
*D6
  1

  0
LINE
  5
23013
330
22E48
100
AcDbEntity
  8
10100_FRONT_DIM
  6
Continuous
 62
     7
370
    -2
100
AcDbLine
 10
-10.31946996134161
 20
163.2591285644251
 30
0.0
 11
1.744703117404569
 21
163.2591285644251
 31
0.0
  0
LINE
  5
23014
330
22E48
100
AcDbEntity
  8
10100_FRONT_DIM
  6
Continuous
 62
     7
370
    -2
100
AcDbLine
 10
-10.31946996134161
 20
252.4591245644254
 30
0.0
 11
1.744703117404589
 21
252.4591245644254
 31
0.0
  0
LINE
  5
23015
330
22E48
100
AcDbEntity
  8
10100_FRONT_DIM
  6
Continuous
 62
     7
370
    -2
100
AcDbLine
 10
0.74470311740457
 20
165.7591285644251
 30
0.0
 11
0.7447031174045782
 21
202.9424598977587
 31
0.0
  0
LINE
  5
23016
330
22E48
100
AcDbEntity
  8
10100_FRONT_DIM
  6
Continuous
 62
     7
370
    -2
100
AcDbLine
 10
0.7447031174045886
 20
249.9591245644254
 30
0.0
 11
0.7447031174045807
 21
212.775793231092
 31
0.0
  0
SOLID
  5
23017
330
22E48
100
AcDbEntity
  8
10100_FRONT_DIM
  6
Continuous
 62
     7
100
AcDbTrace
 10
0.3280364507379033
 20
165.7591285644251
 30
0.0
 11
1.161369784071235
 21
165.7591285644251
 31
0.0
 12
0.7447031174045696
 22
163.2591285644251
 32
0.0
 13
0.7447031174045696
 23
163.2591285644251
 33
0.0
  0
SOLID
  5
23018
330
22E48
100
AcDbEntity
  8
10100_FRONT_DIM
  6
Continuous
 62
     7
100
AcDbTrace
 10
0.328036450737922
 20
249.9591245644254
 30
0.0
 11
1.161369784071254
 21
249.9591245644254
 31
0.0
 12
0.7447031174045892
 22
252.4591245644254
 32
0.0
 13
0.7447031174045892
 23
252.4591245644254
 33
0.0
  0
MTEXT
  5
23019
330
22E48
100
AcDbEntity
  8
10100_FRONT_DIM
  6
Continuous
 62
     7
370
    13
100
AcDbMText
 10
0.7447031174045459
 20
207.8591265644253
 30
0.0
 40
3.5
 41
0.0
 71
     5
 72
     1
  1
\A1;89
 11
0.0000000000000001
 21
1.0
 31
0.0
 73
     1
 44
1.0
1001
ACAD
1000
MTEXTBEGIN
1070
    73
1070
     1
1070
    44
1040
1.0
1070
    74
1070
     0
1000
MTEXTEND
  0
POINT
  5
2301A
330
22E48
100
AcDbEntity
  8
Defpoints
  6
Continuous
 62
     0
100
AcDbPoint
 10
-12.31946996134161
 20
163.2591285644251
 30
0.0
  0
POINT
  5
2301B
330
22E48
100
AcDbEntity
  8
Defpoints
  6
Continuous
 62
     0
100
AcDbPoint
 10
-12.31946996134161
 20
252.4591245644254
 30
0.0
  0
POINT
  5
2301C
330
22E48
100
AcDbEntity
  8
Defpoints
  6
Continuous
 62
     0
100
AcDbPoint
 10
0.7447031174045892
 20
252.4591245644254
 30
0.0
  0
ENDBLK
  5
22E53
330
22E48
100
AcDbEntity
  8
0
100
AcDbBlockEnd
  0
BLOCK
  5
22E6A
330
22E60
100
AcDbEntity
  8
0
100
AcDbBlockBegin
  2
*D7
 70
     1
 10
0.0
 20
0.0
 30
0.0
  3
*D7
  1

  0
LINE
  5
23009
330
22E60
100
AcDbEntity
  8
10100_FRONT_DIM
  6
Continuous
 62
     7
370
    -2
100
AcDbLine
 10
-10.31946996134161
 20
163.2591285644251
 30
0.0
 11
9.966754470889533
 21
163.2591285644251
 31
0.0
  0
LINE
  5
2300A
330
22E60
100
AcDbEntity
  8
10100_FRONT_DIM
  6
Continuous
 62
     7
370
    -2
100
AcDbLine
 10
-14.74660996134162
 20
269.2591245644253
 30
0.0
 11
9.966754470889554
 21
269.2591245644253
 31
0.0
  0
LINE
  5
2300B
330
22E60
100
AcDbEntity
  8
10100_FRONT_DIM
  6
Continuous
 62
     7
370
    -2
100
AcDbLine
 10
8.966754470889533
 20
165.7591285644251
 30
0.0
 11
8.966754470889544
 21
210.4674598977586
 31
0.0
  0
LINE
  5
2300C
330
22E60
100
AcDbEntity
  8
10100_FRONT_DIM
  6
Continuous
 62
     7
370
    -2
100
AcDbLine
 10
8.966754470889554
 20
266.7591245644253
 30
0.0
 11
8.966754470889544
 21
222.0507932310919
 31
0.0
  0
SOLID
  5
2300D
330
22E60
100
AcDbEntity
  8
10100_FRONT_DIM
  6
Continuous
 62
     7
100
AcDbTrace
 10
8.550087804222867
 20
165.7591285644251
 30
0.0
 11
9.383421137556199
 21
165.7591285644251
 31
0.0
 12
8.966754470889531
 22
163.2591285644251
 32
0.0
 13
8.966754470889531
 23
163.2591285644251
 33
0.0
  0
SOLID
  5
2300E
330
22E60
100
AcDbEntity
  8
10100_FRONT_DIM
  6
Continuous
 62
     7
100
AcDbTrace
 10
8.550087804222886
 20
266.7591245644253
 30
0.0
 11
9.38342113755622
 21
266.7591245644253
 31
0.0
 12
8.966754470889556
 22
269.2591245644253
 32
0.0
 13
8.966754470889556
 23
269.2591245644253
 33
0.0
  0
MTEXT
  5
2300F
330
22E60
100
AcDbEntity
  8
10100_FRONT_DIM
  6
Continuous
 62
     7
370
    13
100
AcDbMText
 10
8.966754470889506
 20
216.2591265644253
 30
0.0
 40
3.5
 41
0.0
 71
     5
 72
     1
  1
\A1;106
 11
0.0000000000000001
 21
1.0
 31
0.0
 73
     1
 44
1.0
1001
ACAD
1000
MTEXTBEGIN
1070
    73
1070
     1
1070
    44
1040
1.0
1070
    74
1070
     0
1000
MTEXTEND
  0
POINT
  5
23010
330
22E60
100
AcDbEntity
  8
Defpoints
  6
Continuous
 62
     0
100
AcDbPoint
 10
-12.31946996134161
 20
163.2591285644251
 30
0.0
  0
POINT
  5
23011
330
22E60
100
AcDbEntity
  8
Defpoints
  6
Continuous
 62
     0
100
AcDbPoint
 10
-16.74660996134162
 20
269.2591245644253
 30
0.0
  0
POINT
  5
23012
330
22E60
100
AcDbEntity
  8
Defpoints
  6
Continuous
 62
     0
100
AcDbPoint
 10
8.966754470889556
 20
269.2591245644253
 30
0.0
  0
ENDBLK
  5
22E6B
330
22E60
100
AcDbEntity
  8
0
100
AcDbBlockEnd
  0
BLOCK
  5
22EDC
330
22ED0
100
AcDbEntity
  8
0
100
AcDbBlockBegin
  2
*D8
 70
     1
 10
0.0
 20
0.0
 30
0.0
  3
*D8
  1

  0
LINE
  5
22FFE
330
22ED0
100
AcDbEntity
  8
11100_LEFT_DIM
  6
Continuous
 62
     7
370
    -2
100
AcDbLine
 10
47.37226074440626
 20
179.6592167195826
 30
0.0
 11
47.37226074440626
 21
153.9271277390836
 31
0.0
  0
LINE
  5
22FFF
330
22ED0
100
AcDbEntity
  8
11100_LEFT_DIM
  6
Continuous
 62
     7
370
    -2
100
AcDbLine
 10
42.37224004797622
 20
164.8592237116358
 30
0.0
 11
42.37224004797622
 21
153.9271277390836
 31
0.0
  0
LINE
  5
23000
330
22ED0
100
AcDbEntity
  8
11100_LEFT_DIM
  6
Continuous
 62
     7
370
    -2
100
AcDbLine
 10
49.87226074440627
 20
154.9271277390837
 30
0.0
 11
52.37226074440627
 21
154.9271277390837
 31
0.0
  0
LINE
  5
23001
330
22ED0
100
AcDbEntity
  8
11100_LEFT_DIM
  6
Continuous
 62
     7
370
    -2
100
AcDbLine
 10
39.87224004797622
 20
154.9271277390837
 30
0.0
 11
37.37224004797622
 21
154.9271277390837
 31
0.0
  0
LINE
  5
23002
330
22ED0
100
AcDbEntity
  8
11100_LEFT_DIM
  6
Continuous
 62
     7
370
    -2
100
AcDbLine
 10
47.37226074440626
 20
154.9271277390837
 30
0.0
 11
42.37224004797622
 21
154.9271277390837
 31
0.0
  0
SOLID
  5
23003
330
22ED0
100
AcDbEntity
  8
11100_LEFT_DIM
  6
Continuous
 62
     7
100
AcDbTrace
 10
49.87226074440627
 20
155.3437944057503
 30
0.0
 11
49.87226074440627
 21
154.510461072417
 31
0.0
 12
47.37226074440626
 22
154.9271277390837
 32
0.0
 13
47.37226074440626
 23
154.9271277390837
 33
0.0
  0
SOLID
  5
23004
330
22ED0
100
AcDbEntity
  8
11100_LEFT_DIM
  6
Continuous
 62
     7
100
AcDbTrace
 10
39.87224004797622
 20
155.3437944057503
 30
0.0
 11
39.87224004797622
 21
154.510461072417
 31
0.0
 12
42.37224004797622
 22
154.9271277390837
 32
0.0
 13
42.37224004797622
 23
154.9271277390837
 33
0.0
  0
MTEXT
  5
23005
330
22ED0
100
AcDbEntity
  8
11100_LEFT_DIM
  6
Continuous
 62
     7
370
    13
100
AcDbMText
 10
34.20557338130956
 20
154.9271277390837
 30
0.0
 40
3.5
 41
0.0
 71
     5
 72
     1
  1
\A1;5
 73
     1
 44
1.0
1001
ACAD
1000
MTEXTBEGIN
1070
    73
1070
     1
1070
    44
1040
1.0
1070
    74
1070
     0
1000
MTEXTEND
  0
POINT
  5
23006
330
22ED0
100
AcDbEntity
  8
Defpoints
  6
Continuous
 62
     0
100
AcDbPoint
 10
47.37226074440626
 20
181.6592167195826
 30
0.0
  0
POINT
  5
23007
330
22ED0
100
AcDbEntity
  8
Defpoints
  6
Continuous
 62
     0
100
AcDbPoint
 10
42.37224004797622
 20
166.8592237116358
 30
0.0
  0
POINT
  5
23008
330
22ED0
100
AcDbEntity
  8
Defpoints
  6
Continuous
 62
     0
100
AcDbPoint
 10
42.37224004797622
 20
154.9271277390837
 30
0.0
  0
ENDBLK
  5
22EDD
330
22ED0
100
AcDbEntity
  8
0
100
AcDbBlockEnd
  0
BLOCK
  5
22EF6
330
22EEC
100
AcDbEntity
  8
0
100
AcDbBlockBegin
  2
*D9
 70
     1
 10
0.0
 20
0.0
 30
0.0
  3
*D9
  1

  0
LINE
  5
22FF4
330
22EEC
100
AcDbEntity
  8
11100_LEFT_DIM
  6
Continuous
 62
     7
370
    -2
100
AcDbLine
 10
47.37226074440626
 20
164.859216719568
 30
0.0
 11
47.37226074440626
 21
153.9271277390836
 31
0.0
  0
LINE
  5
22FF5
330
22EEC
100
AcDbEntity
  8
11100_LEFT_DIM
  6
Continuous
 62
     7
370
    -2
100
AcDbLine
 10
78.27223557303614
 20
161.6591735088
 30
0.0
 11
78.27223557303614
 21
153.9271277390836
 31
0.0
  0
LINE
  5
22FF6
330
22EEC
100
AcDbEntity
  8
11100_LEFT_DIM
  6
Continuous
 62
     7
370
    -2
100
AcDbLine
 10
49.87226074440627
 20
154.9271277390837
 30
0.0
 11
58.48891482538785
 21
154.9271277390837
 31
0.0
  0
LINE
  5
22FF7
330
22EEC
100
AcDbEntity
  8
11100_LEFT_DIM
  6
Continuous
 62
     7
370
    -2
100
AcDbLine
 10
75.77223557303614
 20
154.9271277390837
 30
0.0
 11
67.15558149205453
 21
154.9271277390837
 31
0.0
  0
SOLID
  5
22FF8
330
22EEC
100
AcDbEntity
  8
11100_LEFT_DIM
  6
Continuous
 62
     7
100
AcDbTrace
 10
49.87226074440627
 20
155.3437944057503
 30
0.0
 11
49.87226074440627
 21
154.510461072417
 31
0.0
 12
47.37226074440626
 22
154.9271277390837
 32
0.0
 13
47.37226074440626
 23
154.9271277390837
 33
0.0
  0
SOLID
  5
22FF9
330
22EEC
100
AcDbEntity
  8
11100_LEFT_DIM
  6
Continuous
 62
     7
100
AcDbTrace
 10
75.77223557303614
 20
155.3437944057503
 30
0.0
 11
75.77223557303614
 21
154.510461072417
 31
0.0
 12
78.27223557303614
 22
154.9271277390837
 32
0.0
 13
78.27223557303614
 23
154.9271277390837
 33
0.0
  0
MTEXT
  5
22FFA
330
22EEC
100
AcDbEntity
  8
11100_LEFT_DIM
  6
Continuous
 62
     7
370
    13
100
AcDbMText
 10
62.82224815872121
 20
154.9271277390837
 30
0.0
 40
3.5
 41
0.0
 71
     5
 72
     1
  1
\A1;31
 73
     1
 44
1.0
1001
ACAD
1000
MTEXTBEGIN
1070
    73
1070
     1
1070
    44
1040
1.0
1070
    74
1070
     0
1000
MTEXTEND
  0
POINT
  5
22FFB
330
22EEC
100
AcDbEntity
  8
Defpoints
  6
Continuous
 62
     0
100
AcDbPoint
 10
47.37226074440626
 20
166.859216719568
 30
0.0
  0
POINT
  5
22FFC
330
22EEC
100
AcDbEntity
  8
Defpoints
  6
Continuous
 62
     0
100
AcDbPoint
 10
78.27223557303614
 20
163.6591735088001
 30
0.0
  0
POINT
  5
22FFD
330
22EEC
100
AcDbEntity
  8
Defpoints
  6
Continuous
 62
     0
100
AcDbPoint
 10
78.27223557303614
 20
154.9271277390837
 30
0.0
  0
ENDBLK
  5
22EF7
330
22EEC
100
AcDbEntity
  8
0
100
AcDbBlockEnd
  0
BLOCK
  5
22F0E
330
22F04
100
AcDbEntity
  8
0
100
AcDbBlockBegin
  2
*D10
 70
     1
 10
0.0
 20
0.0
 30
0.0
  3
*D10
  1

  0
LINE
  5
22FEA
330
22F04
100
AcDbEntity
  8
11100_LEFT_DIM
  6
Continuous
 62
     7
370
    -2
100
AcDbLine
 10
47.37226074440626
 20
164.859216719568
 30
0.0
 11
47.37226074440626
 21
145.7211667599145
 31
0.0
  0
LINE
  5
22FEB
330
22F04
100
AcDbEntity
  8
11100_LEFT_DIM
  6
Continuous
 62
     7
370
    -2
100
AcDbLine
 10
166.3522923455366
 20
216.559050337018
 30
0.0
 11
166.3522923455366
 21
145.7211667599145
 31
0.0
  0
LINE
  5
22FEC
330
22F04
100
AcDbEntity
  8
11100_LEFT_DIM
  6
Continuous
 62
     7
370
    -2
100
AcDbLine
 10
49.87226074440627
 20
146.7211667599146
 30
0.0
 11
101.3622765449714
 21
146.7211667599146
 31
0.0
  0
LINE
  5
22FED
330
22F04
100
AcDbEntity
  8
11100_LEFT_DIM
  6
Continuous
 62
     7
370
    -2
100
AcDbLine
 10
163.8522923455366
 20
146.7211667599146
 30
0.0
 11
112.3622765449714
 21
146.7211667599146
 31
0.0
  0
SOLID
  5
22FEE
330
22F04
100
AcDbEntity
  8
11100_LEFT_DIM
  6
Continuous
 62
     7
100
AcDbTrace
 10
49.87226074440627
 20
147.1378334265813
 30
0.0
 11
49.87226074440627
 21
146.304500093248
 31
0.0
 12
47.37226074440626
 22
146.7211667599146
 32
0.0
 13
47.37226074440626
 23
146.7211667599146
 33
0.0
  0
SOLID
  5
22FEF
330
22F04
100
AcDbEntity
  8
11100_LEFT_DIM
  6
Continuous
 62
     7
100
AcDbTrace
 10
163.8522923455366
 20
147.1378334265813
 30
0.0
 11
163.8522923455366
 21
146.304500093248
 31
0.0
 12
166.3522923455366
 22
146.7211667599146
 32
0.0
 13
166.3522923455366
 23
146.7211667599146
 33
0.0
  0
MTEXT
  5
22FF0
330
22F04
100
AcDbEntity
  8
11100_LEFT_DIM
  6
Continuous
 62
     7
370
    13
100
AcDbMText
 10
106.8622765449714
 20
146.7211667599146
 30
0.0
 40
3.5
 41
0.0
 71
     5
 72
     1
  1
\A1;119
 73
     1
 44
1.0
1001
ACAD
1000
MTEXTBEGIN
1070
    73
1070
     1
1070
    44
1040
1.0
1070
    74
1070
     0
1000
MTEXTEND
  0
POINT
  5
22FF1
330
22F04
100
AcDbEntity
  8
Defpoints
  6
Continuous
 62
     0
100
AcDbPoint
 10
47.37226074440626
 20
166.859216719568
 30
0.0
  0
POINT
  5
22FF2
330
22F04
100
AcDbEntity
  8
Defpoints
  6
Continuous
 62
     0
100
AcDbPoint
 10
166.3522923455366
 20
218.5590503370181
 30
0.0
  0
POINT
  5
22FF3
330
22F04
100
AcDbEntity
  8
Defpoints
  6
Continuous
 62
     0
100
AcDbPoint
 10
166.3522923455366
 20
146.7211667599146
 30
0.0
  0
ENDBLK
  5
22F0F
330
22F04
100
AcDbEntity
  8
0
100
AcDbBlockEnd
  0
BLOCK
  5
22F26
330
22F1C
100
AcDbEntity
  8
0
100
AcDbBlockBegin
  2
*D11
 70
     1
 10
0.0
 20
0.0
 30
0.0
  3
*D11
  1

  0
LINE
  5
23259
330
22F1C
100
AcDbEntity
  8
11000_Left
  6
Continuous
 62
     7
370
    -2
100
AcDbLine
 10
161.6696468253421
 20
187.9590596820516
 30
0.0
 11
175.5649384693259
 21
187.9590596820516
 31
0.0
  0
LINE
  5
2325A
330
22F1C
100
AcDbEntity
  8
11000_Left
  6
Continuous
 62
     7
370
    -2
100
AcDbLine
 10
162.1198597515665
 20
252.4590590525337
 30
0.0
 11
175.5649384693259
 21
252.4590590525337
 31
0.0
  0
LINE
  5
2325B
330
22F1C
100
AcDbEntity
  8
11000_Left
  6
Continuous
 62
     7
370
    -2
100
AcDbLine
 10
174.5649384693258
 20
190.4590596820516
 30
0.0
 11
174.5649384693259
 21
215.292392700626
 31
0.0
  0
LINE
  5
2325C
330
22F1C
100
AcDbEntity
  8
11000_Left
  6
Continuous
 62
     7
370
    -2
100
AcDbLine
 10
174.5649384693259
 20
249.9590590525337
 30
0.0
 11
174.5649384693259
 21
225.1257260339593
 31
0.0
  0
SOLID
  5
2325D
330
22F1C
100
AcDbEntity
  8
11000_Left
  6
Continuous
 62
     7
100
AcDbTrace
 10
174.1482718026592
 20
190.4590596820516
 30
0.0
 11
174.9816051359925
 21
190.4590596820516
 31
0.0
 12
174.5649384693258
 22
187.9590596820516
 32
0.0
 13
174.5649384693258
 23
187.9590596820516
 33
0.0
  0
SOLID
  5
2325E
330
22F1C
100
AcDbEntity
  8
11000_Left
  6
Continuous
 62
     7
100
AcDbTrace
 10
174.1482718026592
 20
249.9590590525337
 30
0.0
 11
174.9816051359925
 21
249.9590590525337
 31
0.0
 12
174.5649384693259
 22
252.4590590525337
 32
0.0
 13
174.5649384693259
 23
252.4590590525337
 33
0.0
  0
MTEXT
  5
2325F
330
22F1C
100
AcDbEntity
  8
11000_Left
  6
Continuous
 62
     7
370
    13
100
AcDbMText
 10
174.5649384693258
 20
220.2090593672927
 30
0.0
 40
3.5
 41
0.0
 71
     5
 72
     1
  1
\A1;64
 11
0.0000000000000001
 21
1.0
 31
0.0
 73
     1
 44
1.0
1001
ACAD
1000
MTEXTBEGIN
1070
    73
1070
     1
1070
    44
1040
1.0
1070
    74
1070
     0
1000
MTEXTEND
  0
POINT
  5
23260
330
22F1C
100
AcDbEntity
  8
Defpoints
  6
Continuous
 62
     0
100
AcDbPoint
 10
159.6696468253421
 20
187.9590596820516
 30
0.0
  0
POINT
  5
23261
330
22F1C
100
AcDbEntity
  8
Defpoints
  6
Continuous
 62
     0
100
AcDbPoint
 10
160.1198597515665
 20
252.4590590525337
 30
0.0
  0
POINT
  5
23262
330
22F1C
100
AcDbEntity
  8
Defpoints
  6
Continuous
 62
     0
100
AcDbPoint
 10
174.5649384693259
 20
252.4590590525337
 30
0.0
  0
ENDBLK
  5
22F27
330
22F1C
100
AcDbEntity
  8
0
100
AcDbBlockEnd
  0
BLOCK
  5
22F3E
330
22F34
100
AcDbEntity
  8
0
100
AcDbBlockBegin
  2
*D12
 70
     1
 10
0.0
 20
0.0
 30
0.0
  3
*D12
  1

  0
LINE
  5
23045
330
22F34
100
AcDbEntity
  8
11100_LEFT_DIM
  6
Continuous
 62
     7
370
    -2
100
AcDbLine
 10
47.57231737992081
 20
224.1592164398614
 30
0.0
 11
47.57231737992081
 21
277.1727456956869
 31
0.0
  0
LINE
  5
23046
330
22F34
100
AcDbEntity
  8
11100_LEFT_DIM
  6
Continuous
 62
     7
370
    -2
100
AcDbLine
 10
110.772382895263
 20
271.0091280604449
 30
0.0
 11
110.772382895263
 21
277.1727456956869
 31
0.0
  0
LINE
  5
23047
330
22F34
100
AcDbEntity
  8
11100_LEFT_DIM
  6
Continuous
 62
     7
370
    -2
100
AcDbLine
 10
50.07231737992082
 20
276.172745695687
 30
0.0
 11
74.25568347092526
 21
276.172745695687
 31
0.0
  0
LINE
  5
23048
330
22F34
100
AcDbEntity
  8
11100_LEFT_DIM
  6
Continuous
 62
     7
370
    -2
100
AcDbLine
 10
108.272382895263
 20
276.172745695687
 30
0.0
 11
84.08901680425861
 21
276.172745695687
 31
0.0
  0
SOLID
  5
23049
330
22F34
100
AcDbEntity
  8
11100_LEFT_DIM
  6
Continuous
 62
     7
100
AcDbTrace
 10
50.07231737992082
 20
276.5894123623537
 30
0.0
 11
50.07231737992082
 21
275.7560790290203
 31
0.0
 12
47.57231737992081
 22
276.172745695687
 32
0.0
 13
47.57231737992081
 23
276.172745695687
 33
0.0
  0
SOLID
  5
2304A
330
22F34
100
AcDbEntity
  8
11100_LEFT_DIM
  6
Continuous
 62
     7
100
AcDbTrace
 10
108.272382895263
 20
276.5894123623537
 30
0.0
 11
108.272382895263
 21
275.7560790290203
 31
0.0
 12
110.772382895263
 22
276.172745695687
 32
0.0
 13
110.772382895263
 23
276.172745695687
 33
0.0
  0
MTEXT
  5
2304B
330
22F34
100
AcDbEntity
  8
11100_LEFT_DIM
  6
Continuous
 62
     7
370
    13
100
AcDbMText
 10
79.17235013759193
 20
276.172745695687
 30
0.0
 40
3.5
 41
0.0
 71
     5
 72
     1
  1
\A1;63
 73
     1
 44
1.0
1001
ACAD
1000
MTEXTBEGIN
1070
    73
1070
     1
1070
    44
1040
1.0
1070
    74
1070
     0
1000
MTEXTEND
  0
POINT
  5
2304C
330
22F34
100
AcDbEntity
  8
Defpoints
  6
Continuous
 62
     0
100
AcDbPoint
 10
47.57231737992081
 20
222.1592164398614
 30
0.0
  0
POINT
  5
2304D
330
22F34
100
AcDbEntity
  8
Defpoints
  6
Continuous
 62
     0
100
AcDbPoint
 10
110.772382895263
 20
269.0091280604449
 30
0.35
  0
POINT
  5
2304E
330
22F34
100
AcDbEntity
  8
Defpoints
  6
Continuous
 62
     0
100
AcDbPoint
 10
110.772382895263
 20
276.172745695687
 30
0.0
  0
ENDBLK
  5
22F3F
330
22F34
100
AcDbEntity
  8
0
100
AcDbBlockEnd
  0
ENDSEC
  0
SECTION
  2
ENTITIES
  0
INSERT
  5
C5B
330
1F
100
AcDbEntity
  8
90000_FRAME
  6
Continuous
 62
     7
100
AcDbBlockReference
  2
SIEMENS_OUTLINE_BL0
 10
49.88743841592327
 20
49.88556725432579
 30
0.0
  0
LINE
  5
C5C
330
1F
100
AcDbEntity
  8
90000_FRAME
  6
Continuous
 62
     7
100
AcDbLine
 10
117.2415410320022
 20
60.22382648192911
 30
0.0
 11
252.2415410320022
 21
60.22382648192911
 31
0.0
  0
LINE
  5
C5D
330
1F
100
AcDbEntity
  8
90000_FRAME
  6
Continuous
 62
     7
100
AcDbLine
 10
117.2415410320022
 20
60.22382648192911
 30
0.0
 11
117.2415410320022
 21
78.22382648192911
 31
0.0
  0
LINE
  5
C5E
330
1F
100
AcDbEntity
  8
90000_FRAME
  6
Continuous
 62
     7
100
AcDbLine
 10
167.2415410320021
 20
66.2238264819291
 30
0.0
 11
252.2415410320022
 21
66.2238264819291
 31
0.0
  0
LINE
  5
C5F
330
1F
100
AcDbEntity
  8
90000_FRAME
  6
Continuous
 62
     7
100
AcDbLine
 10
117.2415410320022
 20
78.22382648192911
 30
0.0
 11
252.2415410320022
 21
78.22382648192911
 31
0.0
  0
LINE
  5
C60
330
1F
100
AcDbEntity
  8
90000_FRAME
  6
Continuous
 62
     7
100
AcDbLine
 10
167.2415410320021
 20
60.22382648192911
 30
0.0
 11
167.2415410320021
 21
78.22382648192911
 31
0.0
  0
LINE
  5
C61
330
1F
100
AcDbEntity
  8
90000_FRAME
  6
Continuous
 62
     7
100
AcDbLine
 10
209.7415410320023
 20
60.22382648192911
 30
0.0
 11
209.7415410320023
 21
66.2238264819291
 31
0.0
  0
LINE
  5
C62
330
1F
100
AcDbEntity
  8
90000_FRAME
  6
Continuous
 62
     7
100
AcDbLine
 10
252.2415410320022
 20
60.22382648192911
 30
0.0
 11
252.2415410320022
 21
78.22382648192911
 31
0.0
  0
TEXT
  5
C63
330
1F
100
AcDbEntity
  8
90000_FRAME
  6
Continuous
 62
     7
100
AcDbText
 10
167.9015410320021
 20
62.12382648192908
 30
0.0
 40
2.2
  1
Format / Size: DIN A3
 41
0.7994987468660266
 72
     5
 11
201.320588651002
 21
62.12382648192908
 31
0.0
100
AcDbText
  0
TEXT
  5
C64
330
1F
100
AcDbEntity
  8
90000_FRAME
  6
Continuous
 62
     7
100
AcDbText
 10
210.4015410320021
 20
62.12382648192908
 30
0.0
 40
2.2
  1
Massstab / Scale: 1:1
 41
0.7732634338148424
 72
     5
 11
241.306302936802
 21
62.12382648192908
 31
0.0
100
AcDbText
  0
TEXT
  5
C65
330
1F
100
AcDbEntity
  8
90000_FRAME
  6
Continuous
 62
     7
370
    13
100
AcDbText
 10
180.547465555953
 20
70.47382648192911
 30
0.0
 40
3.5
  1
3RB2143_00000536_000_ALL
 41
0.7261321223270531
 72
     5
 11
236.4596389751361
 21
70.47382648192911
 31
0.0
100
AcDbText
  0
LINE
  5
C66
330
1F
100
AcDbEntity
  8
90000_FRAME
  6
Continuous
 62
     7
100
AcDbLine
 10
-147.7584589679968
 20
50.22382648192913
 30
0.0
 11
262.2415410320032
 21
50.22382648192911
 31
0.0
  0
LINE
  5
C67
330
1F
100
AcDbEntity
  8
90000_FRAME
  6
Continuous
 62
     7
100
AcDbLine
 10
262.2415410320032
 20
50.22382648192911
 30
0.0
 11
262.2415410320032
 21
320.2238264819291
 31
0.0
  0
TEXT
  5
C68
330
1F
100
AcDbEntity
  8
91000_TIP
  6
Continuous
 62
     7
100
AcDbText
 10
-143.7051091853329
 20
58.95606310360576
 30
0.0
 40
2.5
  1
Alle Bemassungswerte sind in Millimeter (mm) angegeben.
 41
0.6056311217924568
 72
     5
 11
-70.01998936725062
 21
58.95606310360576
 31
0.0
100
AcDbText
  0
TEXT
  5
C69
330
1F
100
AcDbEntity
  8
91000_TIP
  6
Continuous
 62
     7
100
AcDbText
 10
-143.7051091853329
 20
53.70606310360578
 30
0.0
 40
2.5
  1
All dimensions are in millimeters (mm).
 41
0.7513350295680256
 72
     5
 11
-83.59830681989086
 21
53.70606310360578
 31
0.0
100
AcDbText
  0
LINE
  5
C6A
330
1F
100
AcDbEntity
  8
91000_TIP
  6
Continuous
 62
     7
100
AcDbLine
 10
92.0562111360282
 20
71.5475640042997
 30
0.0
 11
102.0562109318282
 21
74.04756395329968
 31
0.0
  0
LINE
  5
C6C
330
1F
100
AcDbEntity
  8
91000_TIP
  6
Continuous
 62
     7
100
AcDbLine
 10
92.0562111360282
 20
66.54756410649969
 30
0.0
 11
102.0562109318282
 21
64.04756415749961
 31
0.0
  0
LINE
  5
C6D
330
1F
100
AcDbEntity
  8
91000_TIP
  6
Continuous
 62
     7
100
AcDbLine
 10
92.0562111360282
 20
71.5475640042997
 30
0.0
 11
92.0562111360282
 21
66.54756410649969
 31
0.0
  0
LINE
  5
C6E
330
1F
100
AcDbEntity
  8
91000_TIP
  6
Continuous
 62
     7
100
AcDbLine
 10
102.0562109318282
 20
74.04756395329968
 30
0.0
 11
102.0562109318282
 21
64.04756415749961
 31
0.0
  0
LINE
  5
C6F
330
1F
100
AcDbEntity
  8
91000_TIP
  6
CENTER
 62
     7
100
AcDbLine
 10
108.5562107990281
 20
63.3260828489997
 30
0.0
 11
108.5562107990281
 21
74.60946884899965
 31
0.0
  0
CIRCLE
  5
C70
330
1F
100
AcDbEntity
  8
91000_TIP
  6
Continuous
 62
     7
100
AcDbCircle
 10
108.5562107990281
 20
69.04756405539972
 30
0.0
 40
4.9999998979
  0
CIRCLE
  5
C71
330
1F
100
AcDbEntity
  8
91000_TIP
  6
Continuous
 62
     7
100
AcDbCircle
 10
108.5562107990281
 20
69.04756405539972
 30
0.0
 40
2.499999948899997
  0
LINE
  5
13283
330
1F
100
AcDbEntity
  8
90000_FRAME
  6
Continuous
 62
     7
100
AcDbLine
 10
-147.7584589679968
 20
50.22382648192913
 30
0.0
 11
-147.7584589679968
 21
320.2238264819291
 31
0.0
  0
LINE
  5
13284
330
1F
100
AcDbEntity
  8
90000_FRAME
  6
Continuous
 62
     7
100
AcDbLine
 10
-147.7584589679968
 20
320.2238264819291
 30
0.0
 11
262.2415410320032
 21
320.2238264819291
 31
0.0
  0
LINE
  5
22800
330
1F
100
AcDbEntity
  8
10000_FRONT
  6
Continuous
 62
     7
370
    13
100
AcDbLine
 10
-25.66947996134172
 20
210.1591195644255
 30
0.0
 11
-24.66947996134172
 21
210.1591195644255
 31
0.0
  0
LINE
  5
22801
330
1F
100
AcDbEntity
  8
10000_FRONT
  6
Continuous
 62
     7
370
    13
100
AcDbLine
 10
-24.66947996134172
 20
206.9591195644254
 30
0.0
 11
-25.66947996134172
 21
206.9591195644254
 31
0.0
  0
LINE
  5
22802
330
1F
100
AcDbEntity
  8
10000_FRONT
  6
Continuous
 62
     7
370
    13
100
AcDbLine
 10
-24.66947996134172
 20
210.1591195644255
 30
0.0
 11
-24.66947996134172
 21
206.9591195644254
 31
0.0
  0
LINE
  5
22803
330
1F
100
AcDbEntity
  8
10000_FRONT
  6
Continuous
 62
     7
370
     9
100
AcDbLine
 10
-28.51947996134163
 20
227.1591195644252
 30
0.0
 11
-28.51947996134163
 21
224.5591195644256
 31
0.0
  0
LINE
  5
22804
330
1F
100
AcDbEntity
  8
10000_FRONT
  6
Continuous
 62
     7
370
     9
100
AcDbLine
 10
-32.51947996134163
 20
227.1591195644252
 30
0.0
 11
-28.51947996134163
 21
227.1591195644252
 31
0.0
  0
LINE
  5
22805
330
1F
100
AcDbEntity
  8
10000_FRONT
  6
Continuous
 62
     7
370
     9
100
AcDbLine
 10
-32.51947996134163
 20
224.5591195644256
 30
0.0
 11
-32.51947996134163
 21
227.1591195644252
 31
0.0
  0
LINE
  5
22806
330
1F
100
AcDbEntity
  8
10000_FRONT
  6
Continuous
 62
     7
370
     9
100
AcDbLine
 10
-28.51947996134163
 20
224.5591195644256
 30
0.0
 11
-32.51947996134163
 21
224.5591195644256
 31
0.0
  0
LINE
  5
22807
330
1F
100
AcDbEntity
  8
10000_FRONT
  6
Continuous
 62
     7
370
    13
100
AcDbLine
 10
-25.66947996134172
 20
206.9591195644254
 30
0.0
 11
-25.66947996134172
 21
210.1591195644255
 31
0.0
  0
LINE
  5
22808
330
1F
100
AcDbEntity
  8
10000_FRONT
  6
Continuous
 62
     7
370
     9
100
AcDbLine
 10
-31.94285996134136
 20
224.5591195644256
 30
0.0
 11
-31.94285996134136
 21
227.1591195644252
 31
0.0
  0
LINE
  5
22809
330
1F
100
AcDbEntity
  8
10000_FRONT
  6
Continuous
 62
     7
370
     9
100
AcDbLine
 10
-31.10634996134172
 20
227.1591195644252
 30
0.0
 11
-31.10634996134172
 21
224.5591195644256
 31
0.0
  0
LINE
  5
2280A
330
1F
100
AcDbEntity
  8
10000_FRONT
  6
Continuous
 62
     7
370
    13
100
AcDbLine
 10
-25.66946996134152
 20
207.9591095644252
 30
0.0
 11
-25.66947996134172
 21
207.9591095644252
 31
0.0
  0
LINE
  5
2280B
330
1F
100
AcDbEntity
  8
10000_FRONT
  6
Continuous
 62
     7
370
     9
100
AcDbLine
 10
-25.56946996134161
 20
226.0591095644254
 30
0.0
 11
-25.56946996134161
 21
229.2591095644251
 31
0.0
  0
LINE
  5
2280C
330
1F
100
AcDbEntity
  8
10000_FRONT
  6
Continuous
 62
     7
370
     9
100
AcDbLine
 10
-24.56946996134161
 20
229.2591095644251
 30
0.0
 11
-24.56946996134161
 21
226.0591095644254
 31
0.0
  0
LINE
  5
2280D
330
1F
100
AcDbEntity
  8
10000_FRONT
  6
Continuous
 62
     7
370
     9
100
AcDbLine
 10
-24.56946996134161
 20
226.0591095644254
 30
0.0
 11
-25.56946996134161
 21
226.0591095644254
 31
0.0
  0
LINE
  5
2280E
330
1F
100
AcDbEntity
  8
10000_FRONT
  6
Continuous
 62
     7
370
     9
100
AcDbLine
 10
-25.56946996134161
 20
229.2591095644251
 30
0.0
 11
-24.56946996134161
 21
229.2591095644251
 31
0.0
  0
LINE
  5
2280F
330
1F
100
AcDbEntity
  8
10000_FRONT
  6
Continuous
 62
     7
370
     9
100
AcDbLine
 10
-25.56946996134161
 20
228.1591095644255
 30
0.0
 11
-24.56946996134161
 21
228.1591095644255
 31
0.0
  0
LINE
  5
22810
330
1F
100
AcDbEntity
  8
10000_FRONT
  6
Continuous
 62
     7
370
     9
100
AcDbLine
 10
-24.56947996134136
 20
227.1091095644255
 30
0.0
 11
-25.56946996134161
 21
227.1091095644255
 31
0.0
  0
LINE
  5
22813
330
1F
100
AcDbEntity
  8
10000_FRONT
  6
Continuous
 62
     7
370
    13
100
AcDbLine
 10
-9.269479961341403
 20
201.9591195644252
 30
0.0
 11
-22.46947996134145
 21
201.9591195644252
 31
0.0
  0
LINE
  5
22814
330
1F
100
AcDbEntity
  8
10000_FRONT
  6
Continuous
 62
     7
370
    13
100
AcDbLine
 10
-35.49447996134154
 20
236.1591195644252
 30
0.0
 11
-35.49447996134154
 21
230.4091195644252
 31
0.0
  0
ARC
  5
22815
330
1F
100
AcDbEntity
  8
10000_FRONT
  6
Continuous
 62
     7
370
    13
100
AcDbCircle
 10
-22.46947996134145
 20
237.4091195644252
 30
0.0
 40
0.8
100
AcDbArc
 50
0.0
 51
90.0
  0
LINE
  5
22816
330
1F
100
AcDbEntity
  8
10000_FRONT
  6
Continuous
 62
     7
370
    13
100
AcDbLine
 10
-21.66947996134172
 20
237.4091195644252
 30
0.0
 11
-21.66947996134172
 21
201.9591195644252
 31
0.0
  0
LINE
  5
22817
330
1F
100
AcDbEntity
  8
10000_FRONT
  6
Continuous
 62
     7
370
    50
100
AcDbLine
 10
-9.26947996134163
 20
250.9591245644253
 30
0.0
 11
-9.26947996134163
 21
201.9891795644252
 31
0.0
  0
LINE
  5
22818
330
1F
100
AcDbEntity
  8
10000_FRONT
  6
Continuous
 62
     7
370
    50
100
AcDbLine
 10
-9.26947996134163
 20
201.9891795644252
 30
0.0
 11
-9.26947996134163
 21
189.4591195644252
 31
0.0
  0
LINE
  5
22819
330
1F
100
AcDbEntity
  8
10000_FRONT
  6
Continuous
 62
     7
370
    13
100
AcDbLine
 10
-10.76947996134163
 20
187.9591195644252
 30
0.0
 11
-10.76947996134163
 21
187.9591195644252
 31
0.0
  0
LINE
  5
2281A
330
1F
100
AcDbEntity
  8
10000_FRONT
  6
Continuous
 62
     7
370
    13
100
AcDbLine
 10
-10.76947996134163
 20
187.9591195644252
 30
0.0
 11
-21.76947996134163
 21
187.9597225013574
 31
0.0
  0
ARC
  5
2281B
330
1F
100
AcDbEntity
  8
10000_FRONT
  6
Continuous
 62
     7
370
    13
100
AcDbCircle
 10
-10.76947996134163
 20
189.4591195644252
 30
0.0
 40
1.5
100
AcDbArc
 50
270.0
 51
0.0
  0
ARC
  5
2281C
330
1F
100
AcDbEntity
  8
10000_FRONT
  6
Continuous
 62
     7
370
    50
100
AcDbCircle
 10
-10.76947996134163
 20
250.9591245644253
 30
0.0
 40
1.5
100
AcDbArc
 50
0.0
 51
90.0
  0
LINE
  5
2281D
102
{ACAD_REACTORS
330
22E5E
102
}
330
1F
100
AcDbEntity
  8
10000_FRONT
  6
Continuous
 62
     7
370
    13
100
AcDbLine
 10
-10.76946996134143
 20
252.4591245644253
 30
0.0
 11
-10.7694899613416
 21
252.4591245644253
 31
0.0
  0
LINE
  5
2281E
330
1F
100
AcDbEntity
  8
10000_FRONT
  6
Continuous
 62
     7
370
    13
100
AcDbLine
 10
-10.76945996134168
 20
183.9591295644251
 30
0.0
 11
-10.61946996134156
 21
183.9591295644251
 31
0.0
  0
CIRCLE
  5
2281F
330
1F
100
AcDbEntity
  8
10000_FRONT
  6
Continuous
 62
     7
370
    13
100
AcDbCircle
 10
-21.66946996134152
 20
177.4591285644252
 30
0.0
 40
3.6
  0
ARC
  5
22820
330
1F
100
AcDbEntity
  8
10000_FRONT
  6
Continuous
 62
     7
370
    13
100
AcDbCircle
 10
-10.61946996134156
 20
182.5091295644251
 30
0.0
 40
1.45
100
AcDbArc
 50
0.00000118119511
 51
90.00000099999489
  0
LINE
  5
22821
330
1F
100
AcDbEntity
  8
10000_FRONT
  6
Continuous
 62
     7
370
    50
100
AcDbLine
 10
-9.269469961341426
 20
189.4591205644253
 30
0.0
 11
-9.269469961341426
 21
185.4591265644252
 31
0.0
  0
LINE
  5
22822
330
1F
100
AcDbEntity
  8
10000_FRONT
  6
Continuous
 62
     7
370
    50
100
AcDbLine
 10
-9.269469961341426
 20
185.4591265644252
 30
0.0
 11
-9.269469961341426
 21
183.0385355644252
 31
0.0
  0
LINE
  5
22823
330
1F
100
AcDbEntity
  8
10000_FRONT
  6
Continuous
 62
     7
370
    13
100
AcDbLine
 10
-10.76946996134143
 20
187.9591205644253
 30
0.0
 11
-10.7694899613416
 21
187.9591205644253
 31
0.0
  0
LINE
  5
22824
330
1F
100
AcDbEntity
  8
10000_FRONT
  6
Continuous
 62
     7
370
     5
100
AcDbLine
 10
-25.4192599613416
 20
260.4591245644253
 30
0.0
 11
-25.4192599613416
 21
260.0591245644252
 31
0.0
  0
LINE
  5
22825
330
1F
100
AcDbEntity
  8
10000_FRONT
  6
Continuous
 62
     7
370
     5
100
AcDbLine
 10
-17.91925996134159
 20
260.0591245644252
 30
0.0
 11
-17.91925996134159
 21
260.4591245644253
 31
0.0
  0
LINE
  5
22826
330
1F
100
AcDbEntity
  8
10000_FRONT
  6
Continuous
 62
     7
370
     5
100
AcDbLine
 10
-25.4192599613416
 20
259.5591245644252
 30
0.0
 11
-25.4192599613416
 21
259.1591245644251
 31
0.0
  0
LINE
  5
22827
330
1F
100
AcDbEntity
  8
10000_FRONT
  6
Continuous
 62
     7
370
     5
100
AcDbLine
 10
-17.91925996134159
 20
259.1591245644251
 30
0.0
 11
-17.91925996134159
 21
259.5591245644252
 31
0.0
  0
LINE
  5
22828
330
1F
100
AcDbEntity
  8
10000_FRONT
  6
Continuous
 62
     7
370
     5
100
AcDbLine
 10
-25.4192599613416
 20
258.6591245644251
 30
0.0
 11
-25.4192599613416
 21
258.2591245644252
 31
0.0
  0
LINE
  5
22829
330
1F
100
AcDbEntity
  8
10000_FRONT
  6
Continuous
 62
     7
370
     5
100
AcDbLine
 10
-17.91925996134159
 20
258.2591245644252
 30
0.0
 11
-17.91925996134159
 21
258.6591245644251
 31
0.0
  0
LINE
  5
2282A
330
1F
100
AcDbEntity
  8
10000_FRONT
  6
Continuous
 62
     7
370
     5
100
AcDbLine
 10
-25.4192599613416
 20
257.7591245644252
 30
0.0
 11
-25.4192599613416
 21
257.3591245644252
 31
0.0
  0
LINE
  5
2282B
330
1F
100
AcDbEntity
  8
10000_FRONT
  6
Continuous
 62
     7
370
     5
100
AcDbLine
 10
-17.91925996134159
 20
257.3591245644252
 30
0.0
 11
-17.91925996134159
 21
257.7591245644252
 31
0.0
  0
LINE
  5
2282C
330
1F
100
AcDbEntity
  8
10000_FRONT
  6
Continuous
 62
     7
370
     5
100
AcDbLine
 10
-25.4192599613416
 20
256.8591245644252
 30
0.0
 11
-25.4192599613416
 21
256.4591245644253
 31
0.0
  0
LINE
  5
2282D
330
1F
100
AcDbEntity
  8
10000_FRONT
  6
Continuous
 62
     7
370
     5
100
AcDbLine
 10
-17.91925996134159
 20
256.4591245644253
 30
0.0
 11
-17.91925996134159
 21
256.8591245644252
 31
0.0
  0
LINE
  5
2282E
330
1F
100
AcDbEntity
  8
10000_FRONT
  6
Continuous
 62
     7
370
     5
100
AcDbLine
 10
-25.4192599613416
 20
255.9591245644253
 30
0.0
 11
-25.4192599613416
 21
255.5591245644252
 31
0.0
  0
LINE
  5
2282F
330
1F
100
AcDbEntity
  8
10000_FRONT
  6
Continuous
 62
     7
370
     5
100
AcDbLine
 10
-17.91925996134159
 20
255.5591245644252
 30
0.0
 11
-17.91925996134159
 21
255.9591245644253
 31
0.0
  0
LINE
  5
22830
330
1F
100
AcDbEntity
  8
10000_FRONT
  6
Continuous
 62
     7
370
     5
100
AcDbLine
 10
-25.4192599613416
 20
255.0591245644252
 30
0.0
 11
-25.4192599613416
 21
254.6591245644251
 31
0.0
  0
LINE
  5
22831
330
1F
100
AcDbEntity
  8
10000_FRONT
  6
Continuous
 62
     7
370
     5
100
AcDbLine
 10
-17.91925996134159
 20
254.6591245644251
 30
0.0
 11
-17.91925996134159
 21
255.0591245644252
 31
0.0
  0
CIRCLE
  5
22832
330
1F
100
AcDbEntity
  8
10000_FRONT
  6
Continuous
 62
     7
370
    13
100
AcDbCircle
 10
-21.6692599613416
 20
264.2591245644252
 30
0.0
 40
3.0
  0
LINE
  5
22833
330
1F
100
AcDbEntity
  8
10000_FRONT
  6
Continuous
 62
     7
370
    50
100
AcDbLine
 10
-27.1692599613416
 20
268.2591245644252
 30
0.0
 11
-26.59190996134157
 21
269.2591245644252
 31
0.0
  0
LINE
  5
22834
330
1F
100
AcDbEntity
  8
10000_FRONT
  6
Continuous
 62
     7
370
    50
100
AcDbLine
 10
-16.74660996134162
 20
269.2591245644252
 30
0.0
 11
-16.16925996134159
 21
268.2591245644252
 31
0.0
  0
LINE
  5
22835
102
{ACAD_REACTORS
330
22E18
102
}
330
1F
100
AcDbEntity
  8
10000_FRONT
  6
Continuous
 62
     7
370
    50
100
AcDbLine
 10
-16.16925996134159
 20
268.2591245644252
 30
0.0
 11
-16.16925996134159
 21
252.4591245644253
 31
0.0
  0
LINE
  5
22836
102
{ACAD_REACTORS
330
22E18
102
}
330
1F
100
AcDbEntity
  8
10000_FRONT
  6
Continuous
 62
     7
370
    50
100
AcDbLine
 10
-27.1692599613416
 20
252.4591245644253
 30
0.0
 11
-27.1692599613416
 21
268.2591245644252
 31
0.0
  0
LINE
  5
22837
102
{ACAD_REACTORS
330
22E76
102
}
330
1F
100
AcDbEntity
  8
10000_FRONT
  6
Continuous
 62
     7
370
    50
100
AcDbLine
 10
-26.59190996134157
 20
269.2591245644252
 30
0.0
 11
-16.74660996134162
 21
269.2591245644252
 31
0.0
  0
LINE
  5
22838
330
1F
100
AcDbEntity
  8
10000_FRONT
  6
Continuous
 62
     7
370
     5
100
AcDbLine
 10
-25.4192599613416
 20
260.0591245644252
 30
0.0
 11
-17.91925996134159
 21
260.0591245644252
 31
0.0
  0
LINE
  5
22839
330
1F
100
AcDbEntity
  8
10000_FRONT
  6
Continuous
 62
     7
370
     5
100
AcDbLine
 10
-17.91925996134159
 20
260.4591245644253
 30
0.0
 11
-25.4192599613416
 21
260.4591245644253
 31
0.0
  0
LINE
  5
2283A
330
1F
100
AcDbEntity
  8
10000_FRONT
  6
Continuous
 62
     7
370
     5
100
AcDbLine
 10
-25.4192599613416
 20
259.1591245644251
 30
0.0
 11
-17.91925996134159
 21
259.1591245644251
 31
0.0
  0
LINE
  5
2283B
330
1F
100
AcDbEntity
  8
10000_FRONT
  6
Continuous
 62
     7
370
     5
100
AcDbLine
 10
-17.91925996134159
 20
259.5591245644252
 30
0.0
 11
-25.4192599613416
 21
259.5591245644252
 31
0.0
  0
LINE
  5
2283C
330
1F
100
AcDbEntity
  8
10000_FRONT
  6
Continuous
 62
     7
370
     5
100
AcDbLine
 10
-25.4192599613416
 20
258.2591245644252
 30
0.0
 11
-17.91925996134159
 21
258.2591245644252
 31
0.0
  0
LINE
  5
2283D
330
1F
100
AcDbEntity
  8
10000_FRONT
  6
Continuous
 62
     7
370
     5
100
AcDbLine
 10
-17.91925996134159
 20
258.6591245644251
 30
0.0
 11
-25.4192599613416
 21
258.6591245644251
 31
0.0
  0
LINE
  5
2283E
330
1F
100
AcDbEntity
  8
10000_FRONT
  6
Continuous
 62
     7
370
     5
100
AcDbLine
 10
-25.4192599613416
 20
257.3591245644252
 30
0.0
 11
-17.91925996134159
 21
257.3591245644252
 31
0.0
  0
LINE
  5
2283F
330
1F
100
AcDbEntity
  8
10000_FRONT
  6
Continuous
 62
     7
370
     5
100
AcDbLine
 10
-17.91925996134159
 20
257.7591245644252
 30
0.0
 11
-25.4192599613416
 21
257.7591245644252
 31
0.0
  0
LINE
  5
22840
330
1F
100
AcDbEntity
  8
10000_FRONT
  6
Continuous
 62
     7
370
     5
100
AcDbLine
 10
-25.4192599613416
 20
256.4591245644253
 30
0.0
 11
-17.91925996134159
 21
256.4591245644253
 31
0.0
  0
LINE
  5
22841
330
1F
100
AcDbEntity
  8
10000_FRONT
  6
Continuous
 62
     7
370
     5
100
AcDbLine
 10
-17.91925996134159
 20
256.8591245644252
 30
0.0
 11
-25.4192599613416
 21
256.8591245644252
 31
0.0
  0
LINE
  5
22842
330
1F
100
AcDbEntity
  8
10000_FRONT
  6
Continuous
 62
     7
370
     5
100
AcDbLine
 10
-25.4192599613416
 20
255.5591245644252
 30
0.0
 11
-17.91925996134159
 21
255.5591245644252
 31
0.0
  0
LINE
  5
22843
330
1F
100
AcDbEntity
  8
10000_FRONT
  6
Continuous
 62
     7
370
     5
100
AcDbLine
 10
-17.91925996134159
 20
255.9591245644253
 30
0.0
 11
-25.4192599613416
 21
255.9591245644253
 31
0.0
  0
LINE
  5
22844
330
1F
100
AcDbEntity
  8
10000_FRONT
  6
Continuous
 62
     7
370
     5
100
AcDbLine
 10
-25.4192599613416
 20
254.6591245644251
 30
0.0
 11
-17.91925996134159
 21
254.6591245644251
 31
0.0
  0
LINE
  5
22845
330
1F
100
AcDbEntity
  8
10000_FRONT
  6
Continuous
 62
     7
370
     5
100
AcDbLine
 10
-17.91925996134159
 20
255.0591245644252
 30
0.0
 11
-25.4192599613416
 21
255.0591245644252
 31
0.0
  0
LINE
  5
22846
330
1F
100
AcDbEntity
  8
10000_FRONT
  6
Continuous
 62
     7
370
    13
100
AcDbLine
 10
-22.82416996134157
 20
175.459127564425
 30
0.0
 11
-23.97886996134162
 21
177.4591275644251
 31
0.0
  0
LINE
  5
22847
330
1F
100
AcDbEntity
  8
10000_FRONT
  6
Continuous
 62
     7
370
    13
100
AcDbLine
 10
-20.51476996134147
 20
175.459127564425
 30
0.0
 11
-22.82416996134157
 21
175.459127564425
 31
0.0
  0
LINE
  5
22848
330
1F
100
AcDbEntity
  8
10000_FRONT
  6
Continuous
 62
     7
370
    13
100
AcDbLine
 10
-19.36006996134142
 20
177.4591275644251
 30
0.0
 11
-20.51476996134147
 21
175.459127564425
 31
0.0
  0
LINE
  5
22849
330
1F
100
AcDbEntity
  8
10000_FRONT
  6
Continuous
 62
     7
370
    13
100
AcDbLine
 10
-20.51476996134147
 20
179.4591275644251
 30
0.0
 11
-19.36006996134142
 21
177.4591275644251
 31
0.0
  0
LINE
  5
2284A
330
1F
100
AcDbEntity
  8
10000_FRONT
  6
Continuous
 62
     7
370
    13
100
AcDbLine
 10
-22.82416996134157
 20
179.4591275644251
 30
0.0
 11
-20.51476996134147
 21
179.4591275644251
 31
0.0
  0
LINE
  5
2284B
330
1F
100
AcDbEntity
  8
10000_FRONT
  6
Continuous
 62
     7
370
    13
100
AcDbLine
 10
-23.97886996134162
 20
177.4591275644251
 30
0.0
 11
-22.82416996134157
 21
179.4591275644251
 31
0.0
  0
LINE
  5
22901
330
1F
100
AcDbEntity
  8
10000_FRONT
  6
Continuous
 62
     7
370
    13
100
AcDbLine
 10
-65.46947996134189
 20
225.2091195644254
 30
0.0
 11
-60.7194799613419
 21
225.2091195644254
 31
0.0
  0
LINE
  5
22902
330
1F
100
AcDbEntity
  8
10000_FRONT
  6
Continuous
 62
     7
370
    13
100
AcDbLine
 10
-60.7194799613419
 20
221.9091195644252
 30
0.0
 11
-65.46947996134189
 21
221.9091195644252
 31
0.0
  0
LINE
  5
22903
330
1F
100
AcDbEntity
  8
10000_FRONT
  6
Continuous
 62
     7
370
    13
100
AcDbLine
 10
-60.7194799613419
 20
225.2091195644254
 30
0.0
 11
-60.7194799613419
 21
221.9091195644252
 31
0.0
  0
LINE
  5
22904
330
1F
100
AcDbEntity
  8
10000_FRONT
  6
Continuous
 62
     7
370
    13
100
AcDbLine
 10
-61.11947996134154
 20
222.3091195644256
 30
0.0
 11
-61.11947996134154
 21
224.8091195644253
 31
0.0
  0
LINE
  5
22905
330
1F
100
AcDbEntity
  8
10000_FRONT
  6
Continuous
 62
     7
370
    13
100
AcDbLine
 10
-61.11947996134154
 20
224.8091195644253
 30
0.0
 11
-65.46947996134189
 21
224.8091195644253
 31
0.0
  0
LINE
  5
22906
330
1F
100
AcDbEntity
  8
10000_FRONT
  6
Continuous
 62
     7
370
    13
100
AcDbLine
 10
-65.46947996134189
 20
222.3091195644256
 30
0.0
 11
-61.11947996134154
 21
222.3091195644256
 31
0.0
  0
LINE
  5
22907
330
1F
100
AcDbEntity
  8
10000_FRONT
  6
Continuous
 62
     7
370
    13
100
AcDbLine
 10
-65.46947996134189
 20
221.9091195644252
 30
0.0
 11
-65.46947996134189
 21
222.3091195644256
 31
0.0
  0
LINE
  5
22908
330
1F
100
AcDbEntity
  8
10000_FRONT
  6
Continuous
 62
     7
370
    13
100
AcDbLine
 10
-65.46947996134189
 20
224.8091195644253
 30
0.0
 11
-65.46947996134189
 21
225.2091195644254
 31
0.0
  0
LINE
  5
22909
330
1F
100
AcDbEntity
  8
10000_FRONT
  6
Continuous
 62
     7
370
     9
100
AcDbLine
 10
-44.10946996134157
 20
235.5891095644255
 30
0.0
 11
-63.90946996134175
 21
235.5891095644255
 31
0.0
  0
LINE
  5
2290A
330
1F
100
AcDbEntity
  8
10000_FRONT
  6
Continuous
 62
     7
370
     9
100
AcDbLine
 10
-44.10946996134157
 20
228.7891095644253
 30
0.0
 11
-44.10946996134157
 21
235.5891095644255
 31
0.0
  0
LINE
  5
2290B
330
1F
100
AcDbEntity
  8
10000_FRONT
  6
Continuous
 62
     7
370
     9
100
AcDbLine
 10
-63.90946996134175
 20
228.7891095644253
 30
0.0
 11
-44.10946996134157
 21
228.7891095644253
 31
0.0
  0
LINE
  5
2290C
330
1F
100
AcDbEntity
  8
10000_FRONT
  6
Continuous
 62
     7
370
     9
100
AcDbLine
 10
-63.90946996134175
 20
235.5891095644255
 30
0.0
 11
-63.90946996134175
 21
228.7891095644253
 31
0.0
  0
LINE
  5
2290D
330
1F
100
AcDbEntity
  8
10000_FRONT
  6
Continuous
 62
     7
370
    13
100
AcDbLine
 10
-41.16947996134172
 20
204.6591195644252
 30
0.0
 11
-37.16947996134172
 21
204.6591195644252
 31
0.0
  0
CIRCLE
  5
2290E
330
1F
100
AcDbEntity
  8
10000_FRONT
  6
Continuous
 62
     7
370
    13
100
AcDbCircle
 10
-40.26947996134163
 20
218.5591195644253
 30
0.0
 40
3.299999999999998
  0
LINE
  5
2290F
330
1F
100
AcDbEntity
  8
10000_FRONT
  6
Continuous
 62
     7
370
    13
100
AcDbLine
 10
-38.51947996134163
 20
208.7591195644253
 30
0.0
 11
-42.01947996134163
 21
208.7591195644253
 31
0.0
  0
LINE
  5
22910
330
1F
100
AcDbEntity
  8
10000_FRONT
  6
Continuous
 62
     7
370
    13
100
AcDbLine
 10
-42.01947996134163
 20
212.7591195644253
 30
0.0
 11
-38.51947996134163
 21
212.7591195644253
 31
0.0
  0
LINE
  5
22911
330
1F
100
AcDbEntity
  8
10000_FRONT
  6
Continuous
 62
     7
370
    13
100
AcDbLine
 10
-37.16947996134172
 20
204.6591195644252
 30
0.0
 11
-37.16947996134172
 21
203.4591195644252
 31
0.0
  0
LINE
  5
22912
330
1F
100
AcDbEntity
  8
10000_FRONT
  6
Continuous
 62
     7
370
    13
100
AcDbLine
 10
-41.16947996134172
 20
203.4591195644252
 30
0.0
 11
-41.16947996134172
 21
204.6591195644252
 31
0.0
  0
LINE
  5
22913
330
1F
100
AcDbEntity
  8
10000_FRONT
  6
Continuous
 62
     7
370
    13
100
AcDbLine
 10
-37.16947996134172
 20
203.4591195644252
 30
0.0
 11
-41.16947996134172
 21
203.4591195644252
 31
0.0
  0
LINE
  5
22914
330
1F
100
AcDbEntity
  8
10000_FRONT
  6
Continuous
 62
     7
370
    13
100
AcDbLine
 10
-38.51947996134163
 20
212.7591195644253
 30
0.0
 11
-38.51947996134163
 21
208.7591195644253
 31
0.0
  0
CIRCLE
  5
22915
330
1F
100
AcDbEntity
  8
10000_FRONT
  6
Continuous
 62
     7
370
    13
100
AcDbCircle
 10
-40.26946996134141
 20
218.5591095644253
 30
0.0
 40
1.992658299999999
  0
ARC
  5
22916
330
1F
100
AcDbEntity
  8
10000_FRONT
  6
Continuous
 62
     7
370
    13
100
AcDbCircle
 10
-55.51946996134143
 20
217.2091095644252
 30
0.0
 40
0.3
100
AcDbArc
 50
180.0
 51
270.0
  0
ARC
  5
22917
330
1F
100
AcDbEntity
  8
10000_FRONT
  6
Continuous
 62
     7
370
    13
100
AcDbCircle
 10
-57.21946996134171
 20
217.2091095644252
 30
0.0
 40
0.3
100
AcDbArc
 50
270.0
 51
0.0
  0
ARC
  5
22918
330
1F
100
AcDbEntity
  8
10000_FRONT
  6
Continuous
 62
     7
370
    13
100
AcDbCircle
 10
-57.21946996134171
 20
215.5091095644252
 30
0.0
 40
0.3
100
AcDbArc
 50
0.0
 51
90.0
  0
ARC
  5
22919
330
1F
100
AcDbEntity
  8
10000_FRONT
  6
Continuous
 62
     7
370
    13
100
AcDbCircle
 10
-55.51946996134143
 20
215.5091095644252
 30
0.0
 40
0.3
100
AcDbArc
 50
90.0
 51
180.0
  0
LINE
  5
2291A
330
1F
100
AcDbEntity
  8
10000_FRONT
  6
Continuous
 62
     7
370
    13
100
AcDbLine
 10
-56.91946996134197
 20
217.2091095644252
 30
0.0
 11
-56.91946996134197
 21
218.3591095644253
 31
0.0
  0
LINE
  5
2291B
330
1F
100
AcDbEntity
  8
10000_FRONT
  6
Continuous
 62
     7
370
    13
100
AcDbLine
 10
-59.36946996134179
 20
216.9091095644252
 30
0.0
 11
-57.21946996134171
 21
216.9091095644252
 31
0.0
  0
LINE
  5
2291C
330
1F
100
AcDbEntity
  8
10000_FRONT
  6
Continuous
 62
     7
370
    13
100
AcDbLine
 10
-57.21946996134171
 20
215.8091095644254
 30
0.0
 11
-59.36946996134179
 21
215.8091095644254
 31
0.0
  0
LINE
  5
2291D
330
1F
100
AcDbEntity
  8
10000_FRONT
  6
Continuous
 62
     7
370
    13
100
AcDbLine
 10
-56.91946996134197
 20
214.3591095644253
 30
0.0
 11
-56.91946996134197
 21
215.5091095644252
 31
0.0
  0
LINE
  5
2291E
330
1F
100
AcDbEntity
  8
10000_FRONT
  6
Continuous
 62
     7
370
    13
100
AcDbLine
 10
-55.81946996134161
 20
215.5091095644252
 30
0.0
 11
-55.81946996134161
 21
214.3591095644253
 31
0.0
  0
LINE
  5
2291F
330
1F
100
AcDbEntity
  8
10000_FRONT
  6
Continuous
 62
     7
370
    13
100
AcDbLine
 10
-53.36946996134179
 20
215.8091095644254
 30
0.0
 11
-55.51946996134143
 21
215.8091095644254
 31
0.0
  0
LINE
  5
22920
330
1F
100
AcDbEntity
  8
10000_FRONT
  6
Continuous
 62
     7
370
    13
100
AcDbLine
 10
-55.51946996134143
 20
216.9091095644252
 30
0.0
 11
-53.36946996134179
 21
216.9091095644252
 31
0.0
  0
LINE
  5
22921
330
1F
100
AcDbEntity
  8
10000_FRONT
  6
Continuous
 62
     7
370
    13
100
AcDbLine
 10
-55.81946996134161
 20
218.3591095644253
 30
0.0
 11
-55.81946996134161
 21
217.2091095644252
 31
0.0
  0
LINE
  5
22922
330
1F
100
AcDbEntity
  8
10000_FRONT
  6
Continuous
 62
     7
370
    13
100
AcDbLine
 10
-56.91946996134197
 20
218.3591095644253
 30
0.0
 11
-55.81946996134161
 21
218.3591095644253
 31
0.0
  0
LINE
  5
22923
330
1F
100
AcDbEntity
  8
10000_FRONT
  6
Continuous
 62
     7
370
    13
100
AcDbLine
 10
-59.36946996134179
 20
215.8091095644254
 30
0.0
 11
-59.36946996134179
 21
216.9091095644252
 31
0.0
  0
LINE
  5
22924
330
1F
100
AcDbEntity
  8
10000_FRONT
  6
Continuous
 62
     7
370
    13
100
AcDbLine
 10
-55.81946996134161
 20
214.3591095644253
 30
0.0
 11
-56.91946996134197
 21
214.3591095644253
 31
0.0
  0
LINE
  5
22925
330
1F
100
AcDbEntity
  8
10000_FRONT
  6
Continuous
 62
     7
370
    13
100
AcDbLine
 10
-53.36946996134179
 20
216.9091095644252
 30
0.0
 11
-53.36946996134179
 21
215.8091095644254
 31
0.0
  0
CIRCLE
  5
22926
330
1F
100
AcDbEntity
  8
10000_FRONT
  6
Continuous
 62
     7
370
    13
100
AcDbCircle
 10
-56.36946996134179
 20
216.3591095644255
 30
0.0
 40
4.049999999999998
  0
CIRCLE
  5
22927
330
1F
100
AcDbEntity
  8
10000_FRONT
  6
Continuous
 62
     7
370
    13
100
AcDbCircle
 10
-56.36947996134153
 20
216.3591195644255
 30
0.0
 40
4.7
  0
LINE
  5
22932
330
1F
100
AcDbEntity
  8
10000_FRONT
  6
Continuous
 62
     7
370
    13
100
AcDbLine
 10
-42.01947996134163
 20
208.7591195644253
 30
0.0
 11
-42.01947996134163
 21
212.7591195644253
 31
0.0
  0
LINE
  5
22933
330
1F
100
AcDbEntity
  8
10000_FRONT
  6
Continuous
 62
     7
370
    13
100
AcDbLine
 10
-48.27924996134175
 20
210.7328095644251
 30
0.0
 11
-46.54425996134182
 21
210.7328095644251
 31
0.0
  0
LINE
  5
22934
330
1F
100
AcDbEntity
  8
10000_FRONT
  6
Continuous
 62
     7
370
    13
100
AcDbLine
 10
-46.54425996134182
 20
210.7328095644251
 30
0.0
 11
-46.17454996134187
 21
210.7328095644251
 31
0.0
  0
POLYLINE
  5
22935
330
1F
100
AcDbEntity
  8
10000_FRONT
  6
Continuous
 62
     7
370
    13
100
AcDb2dPolyline
 66
     1
 10
0.0
 20
0.0
 30
0.0
 70
     2
  0
VERTEX
  5
22936
330
22935
100
AcDbEntity
  8
10000_FRONT
  6
Continuous
 62
     7
370
    13
100
AcDbVertex
100
AcDb2dVertex
 10
-45.77732996134159
 20
210.3363195644255
 30
0.0
  0
VERTEX
  5
22937
330
22935
100
AcDbEntity
  8
10000_FRONT
  6
Continuous
 62
     7
370
    13
100
AcDbVertex
100
AcDb2dVertex
 10
-45.7771599613418
 20
210.2974895644253
 30
0.0
 42
0.0000025789
 70
     1
  0
VERTEX
  5
22938
330
22935
100
AcDbEntity
  8
10000_FRONT
  6
Continuous
 62
     7
370
    13
100
AcDbVertex
100
AcDb2dVertex
 10
-45.77698996134154
 20
210.2586595644252
 30
0.0
 42
0.0000025787
  0
VERTEX
  5
22939
330
22935
100
AcDbEntity
  8
10000_FRONT
  6
Continuous
 62
     7
370
    13
100
AcDbVertex
100
AcDb2dVertex
 10
-45.77680996134154
 20
210.2198295644252
 30
0.0
 42
0.0000025787
 70
     1
  0
VERTEX
  5
2293A
330
22935
100
AcDbEntity
  8
10000_FRONT
  6
Continuous
 62
     7
370
    13
100
AcDbVertex
100
AcDb2dVertex
 10
-45.77663996134174
 20
210.1809995644255
 30
0.0
 42
0.0000025789
  0
VERTEX
  5
2293B
330
22935
100
AcDbEntity
  8
10000_FRONT
  6
Continuous
 62
     7
370
    13
100
AcDbVertex
100
AcDb2dVertex
 10
-45.77645996134174
 20
210.1421595644253
 30
0.0
 42
0.000002579
 70
     1
  0
VERTEX
  5
2293C
330
22935
100
AcDbEntity
  8
10000_FRONT
  6
Continuous
 62
     7
370
    13
100
AcDbVertex
100
AcDb2dVertex
 10
-45.77628996134193
 20
210.1033295644253
 30
0.0
 42
0.000002579
  0
VERTEX
  5
2293D
330
22935
100
AcDbEntity
  8
10000_FRONT
  6
Continuous
 62
     7
370
    13
100
AcDbVertex
100
AcDb2dVertex
 10
-45.77610996134193
 20
210.0644895644254
 30
0.0
 42
0.000002579
 70
     1
  0
VERTEX
  5
2293E
330
22935
100
AcDbEntity
  8
10000_FRONT
  6
Continuous
 62
     7
370
    13
100
AcDbVertex
100
AcDb2dVertex
 10
-45.77592996134193
 20
210.0256595644252
 30
0.0
 42
0.000002579
  0
VERTEX
  5
2293F
330
22935
100
AcDbEntity
  8
10000_FRONT
  6
Continuous
 62
     7
370
    13
100
AcDbVertex
100
AcDb2dVertex
 10
-45.77575996134167
 20
209.9868195644253
 30
0.0
 42
0.0000025793
 70
     1
  0
VERTEX
  5
22940
330
22935
100
AcDbEntity
  8
10000_FRONT
  6
Continuous
 62
     7
370
    13
100
AcDbVertex
100
AcDb2dVertex
 10
-45.77557996134167
 20
209.9479795644253
 30
0.0
 42
0.0000025799
  0
VERTEX
  5
22941
330
22935
100
AcDbEntity
  8
10000_FRONT
  6
Continuous
 62
     7
370
    13
100
AcDbVertex
100
AcDb2dVertex
 10
-45.77539996134167
 20
209.9091395644254
 30
0.0
 42
0.0000025793
 70
     1
  0
VERTEX
  5
22942
330
22935
100
AcDbEntity
  8
10000_FRONT
  6
Continuous
 62
     7
370
    13
100
AcDbVertex
100
AcDb2dVertex
 10
-45.77522996134144
 20
209.8702995644255
 30
0.0
 42
0.0000025781
  0
VERTEX
  5
22943
330
22935
100
AcDbEntity
  8
10000_FRONT
  6
Continuous
 62
     7
370
    13
100
AcDbVertex
100
AcDb2dVertex
 10
-45.77504996134144
 20
209.8314695644253
 30
0.0
 42
0.00000258
 70
     1
  0
VERTEX
  5
22944
330
22935
100
AcDbEntity
  8
10000_FRONT
  6
Continuous
 62
     7
370
    13
100
AcDbVertex
100
AcDb2dVertex
 10
-45.77486996134143
 20
209.7926195644254
 30
0.0
 42
0.0000025849
  0
VERTEX
  5
22945
330
22935
100
AcDbEntity
  8
10000_FRONT
  6
Continuous
 62
     7
370
    13
100
AcDbVertex
100
AcDb2dVertex
 10
-45.77468996134141
 20
209.7537795644254
 30
0.0
 42
0.0000025784
 70
     1
  0
VERTEX
  5
22946
330
22935
100
AcDbEntity
  8
10000_FRONT
  6
Continuous
 62
     7
370
    13
100
AcDbVertex
100
AcDb2dVertex
 10
-45.77450996134142
 20
209.7149395644253
 30
0.0
 42
0.0000025629
  0
VERTEX
  5
22947
330
22935
100
AcDbEntity
  8
10000_FRONT
  6
Continuous
 62
     7
370
    13
100
AcDbVertex
100
AcDb2dVertex
 10
-45.77432996134144
 20
209.6761095644253
 30
0.0
 42
0.0000025851
 70
     1
  0
VERTEX
  5
22948
330
22935
100
AcDbEntity
  8
10000_FRONT
  6
Continuous
 62
     7
370
    13
100
AcDbVertex
100
AcDb2dVertex
 10
-45.77414996134144
 20
209.6372495644252
 30
0.0
 42
0.0000026377
  0
VERTEX
  5
22949
330
22935
100
AcDbEntity
  8
10000_FRONT
  6
Continuous
 62
     7
370
    13
100
AcDbVertex
100
AcDb2dVertex
 10
-45.77396996134143
 20
209.5983295644252
 30
0.0
 42
0.0000025628
 70
     1
  0
VERTEX
  5
2294A
330
22935
100
AcDbEntity
  8
10000_FRONT
  6
Continuous
 62
     7
370
    13
100
AcDbVertex
100
AcDb2dVertex
 10
-45.77378996134142
 20
209.5595595644253
 30
0.0
 42
0.000002393
  0
VERTEX
  5
2294B
330
22935
100
AcDbEntity
  8
10000_FRONT
  6
Continuous
 62
     7
370
    13
100
AcDbVertex
100
AcDb2dVertex
 10
-45.77360996134141
 20
209.5210195644253
 30
0.0
 42
0.0000026413
 70
     1
  0
VERTEX
  5
2294C
330
22935
100
AcDbEntity
  8
10000_FRONT
  6
Continuous
 62
     7
370
    13
100
AcDbVertex
100
AcDb2dVertex
 10
-45.77341996134166
 20
209.4818695644252
 30
0.0
 42
0.0000031487
  0
VERTEX
  5
2294D
330
22935
100
AcDbEntity
  8
10000_FRONT
  6
Continuous
 62
     7
370
    13
100
AcDbVertex
100
AcDb2dVertex
 10
-45.77323996134166
 20
209.4417895644253
 30
0.0
 42
0.00000239
 70
     1
  0
VERTEX
  5
2294E
330
22935
100
AcDbEntity
  8
10000_FRONT
  6
Continuous
 62
     7
370
    13
100
AcDbVertex
100
AcDb2dVertex
 10
-45.77305996134167
 20
209.4041695644252
 30
0.0
 42
0.0000008204
  0
VERTEX
  5
2294F
330
22935
100
AcDbEntity
  8
10000_FRONT
  6
Continuous
 62
     7
370
    13
100
AcDbVertex
100
AcDb2dVertex
 10
-45.77289996134163
 20
209.3701495644254
 30
0.0
 42
0.0000033713
 70
     1
  0
VERTEX
  5
22950
330
22935
100
AcDbEntity
  8
10000_FRONT
  6
Continuous
 62
     7
370
    13
100
AcDbVertex
100
AcDb2dVertex
 10
-45.77268996134193
 20
209.3264695644254
 30
0.0
 42
0.0000058016
  0
VERTEX
  5
22951
330
22935
100
AcDbEntity
  8
10000_FRONT
  6
Continuous
 62
     7
370
    13
100
AcDbVertex
100
AcDb2dVertex
 10
-45.77236996134184
 20
209.2591795644255
 30
0.0
 42
0.0000028366
 70
     1
  0
VERTEX
  5
22952
330
22935
100
AcDbEntity
  8
10000_FRONT
  6
Continuous
 62
     7
370
    13
100
AcDbVertex
100
AcDb2dVertex
 10
-45.77194996134197
 20
209.1710595644253
 30
0.0
 42
0.0000015031
  0
SEQEND
  5
22953
330
22935
100
AcDbEntity
  8
10000_FRONT
  6
Continuous
 62
     7
370
    13
  0
LINE
  5
22954
330
1F
100
AcDbEntity
  8
10000_FRONT
  6
Continuous
 62
     7
370
    13
100
AcDbLine
 10
-46.16545996134141
 20
208.7671095644256
 30
0.0
 11
-46.52594996134143
 21
208.7671095644256
 31
0.0
  0
LINE
  5
22955
330
1F
100
AcDbEntity
  8
10000_FRONT
  6
Continuous
 62
     7
370
    13
100
AcDbLine
 10
-46.52594996134143
 20
208.7671095644256
 30
0.0
 11
-48.29755996134167
 21
208.7671095644256
 31
0.0
  0
LINE
  5
22956
330
1F
100
AcDbEntity
  8
10000_FRONT
  6
Continuous
 62
     7
370
    13
100
AcDbLine
 10
-48.29755996134167
 20
208.7671095644256
 30
0.0
 11
-48.6580499613417
 21
208.7671095644256
 31
0.0
  0
POLYLINE
  5
22957
330
1F
100
AcDbEntity
  8
10000_FRONT
  6
Continuous
 62
     7
370
    13
100
AcDb2dPolyline
 66
     1
 10
0.0
 20
0.0
 30
0.0
 70
     2
  0
VERTEX
  5
22958
330
22957
100
AcDbEntity
  8
10000_FRONT
  6
Continuous
 62
     7
370
    13
100
AcDbVertex
100
AcDb2dVertex
 10
-49.05155996134158
 20
209.1710595644253
 30
0.0
  0
VERTEX
  5
22959
330
22957
100
AcDbEntity
  8
10000_FRONT
  6
Continuous
 62
     7
370
    13
100
AcDbVertex
100
AcDb2dVertex
 10
-49.05136996134138
 20
209.2099095644252
 30
0.0
 42
0.0000025693
 70
     1
  0
VERTEX
  5
2295A
330
22957
100
AcDbEntity
  8
10000_FRONT
  6
Continuous
 62
     7
370
    13
100
AcDbVertex
100
AcDb2dVertex
 10
-49.05118996134138
 20
209.2487595644254
 30
0.0
 42
0.0000025696
  0
VERTEX
  5
2295B
330
22957
100
AcDbEntity
  8
10000_FRONT
  6
Continuous
 62
     7
370
    13
100
AcDbVertex
100
AcDb2dVertex
 10
-49.05099996134163
 20
209.2876195644255
 30
0.0
 42
0.0000025696
 70
     1
  0
VERTEX
  5
2295C
330
22957
100
AcDbEntity
  8
10000_FRONT
  6
Continuous
 62
     7
370
    13
100
AcDbVertex
100
AcDb2dVertex
 10
-49.05081996134163
 20
209.3264695644254
 30
0.0
 42
0.0000025693
  0
VERTEX
  5
2295D
330
22957
100
AcDbEntity
  8
10000_FRONT
  6
Continuous
 62
     7
370
    13
100
AcDbVertex
100
AcDb2dVertex
 10
-49.05062996134188
 20
209.3653195644253
 30
0.0
 42
0.0000025692
 70
     1
  0
VERTEX
  5
2295E
330
22957
100
AcDbEntity
  8
10000_FRONT
  6
Continuous
 62
     7
370
    13
100
AcDbVertex
100
AcDb2dVertex
 10
-49.05044996134189
 20
209.4041695644252
 30
0.0
 42
0.0000025692
  0
VERTEX
  5
2295F
330
22957
100
AcDbEntity
  8
10000_FRONT
  6
Continuous
 62
     7
370
    13
100
AcDbVertex
100
AcDb2dVertex
 10
-49.05026996134189
 20
209.4430195644254
 30
0.0
 42
0.000002569
 70
     1
  0
VERTEX
  5
22960
330
22957
100
AcDbEntity
  8
10000_FRONT
  6
Continuous
 62
     7
370
    13
100
AcDbVertex
100
AcDb2dVertex
 10
-49.05008996134188
 20
209.4818695644252
 30
0.0
 42
0.0000025689
  0
VERTEX
  5
22961
330
22957
100
AcDbEntity
  8
10000_FRONT
  6
Continuous
 62
     7
370
    13
100
AcDbVertex
100
AcDb2dVertex
 10
-49.04989996134168
 20
209.5207095644257
 30
0.0
 42
0.000002569
 70
     1
  0
VERTEX
  5
22962
330
22957
100
AcDbEntity
  8
10000_FRONT
  6
Continuous
 62
     7
370
    13
100
AcDbVertex
100
AcDb2dVertex
 10
-49.04971996134168
 20
209.5595595644253
 30
0.0
 42
0.0000025691
  0
VERTEX
  5
22963
330
22957
100
AcDbEntity
  8
10000_FRONT
  6
Continuous
 62
     7
370
    13
100
AcDbVertex
100
AcDb2dVertex
 10
-49.04953996134167
 20
209.5984095644255
 30
0.0
 42
0.0000025686
 70
     1
  0
VERTEX
  5
22964
330
22957
100
AcDbEntity
  8
10000_FRONT
  6
Continuous
 62
     7
370
    13
100
AcDbVertex
100
AcDb2dVertex
 10
-49.04935996134168
 20
209.6372495644252
 30
0.0
 42
0.0000025671
  0
VERTEX
  5
22965
330
22957
100
AcDbEntity
  8
10000_FRONT
  6
Continuous
 62
     7
370
    13
100
AcDbVertex
100
AcDb2dVertex
 10
-49.04917996134168
 20
209.6760895644254
 30
0.0
 42
0.000002569
 70
     1
  0
VERTEX
  5
22966
330
22957
100
AcDbEntity
  8
10000_FRONT
  6
Continuous
 62
     7
370
    13
100
AcDbVertex
100
AcDb2dVertex
 10
-49.04899996134168
 20
209.7149395644253
 30
0.0
 42
0.0000025733
  0
VERTEX
  5
22967
330
22957
100
AcDbEntity
  8
10000_FRONT
  6
Continuous
 62
     7
370
    13
100
AcDbVertex
100
AcDb2dVertex
 10
-49.04881996134168
 20
209.7537895644254
 30
0.0
 42
0.0000025669
 70
     1
  0
VERTEX
  5
22968
330
22957
100
AcDbEntity
  8
10000_FRONT
  6
Continuous
 62
     7
370
    13
100
AcDbVertex
100
AcDb2dVertex
 10
-49.04863996134166
 20
209.7926195644254
 30
0.0
 42
0.0000025511
  0
VERTEX
  5
22969
330
22957
100
AcDbEntity
  8
10000_FRONT
  6
Continuous
 62
     7
370
    13
100
AcDbVertex
100
AcDb2dVertex
 10
-49.04845996134167
 20
209.8314395644254
 30
0.0
 42
0.0000025731
 70
     1
  0
VERTEX
  5
2296A
330
22957
100
AcDbEntity
  8
10000_FRONT
  6
Continuous
 62
     7
370
    13
100
AcDbVertex
100
AcDb2dVertex
 10
-49.04827996134168
 20
209.8702995644255
 30
0.0
 42
0.0000026251
  0
VERTEX
  5
2296B
330
22957
100
AcDbEntity
  8
10000_FRONT
  6
Continuous
 62
     7
370
    13
100
AcDbVertex
100
AcDb2dVertex
 10
-49.04810996134187
 20
209.9092195644252
 30
0.0
 42
0.0000025506
 70
     1
  0
VERTEX
  5
2296C
330
22957
100
AcDbEntity
  8
10000_FRONT
  6
Continuous
 62
     7
370
    13
100
AcDbVertex
100
AcDb2dVertex
 10
-49.04792996134188
 20
209.9479795644253
 30
0.0
 42
0.0000023816
  0
VERTEX
  5
2296D
330
22957
100
AcDbEntity
  8
10000_FRONT
  6
Continuous
 62
     7
370
    13
100
AcDbVertex
100
AcDb2dVertex
 10
-49.04774996134189
 20
209.9865095644256
 30
0.0
 42
0.0000026282
 70
     1
  0
VERTEX
  5
2296E
330
22957
100
AcDbEntity
  8
10000_FRONT
  6
Continuous
 62
     7
370
    13
100
AcDbVertex
100
AcDb2dVertex
 10
-49.04756996134189
 20
210.0256595644252
 30
0.0
 42
0.0000031324
  0
VERTEX
  5
2296F
330
22957
100
AcDbEntity
  8
10000_FRONT
  6
Continuous
 62
     7
370
    13
100
AcDbVertex
100
AcDb2dVertex
 10
-49.04738996134188
 20
210.0657195644257
 30
0.0
 42
0.000002378
 70
     1
  0
VERTEX
  5
22970
330
22957
100
AcDbEntity
  8
10000_FRONT
  6
Continuous
 62
     7
370
    13
100
AcDbVertex
100
AcDb2dVertex
 10
-49.04721996134163
 20
210.1033295644253
 30
0.0
 42
0.000000817
  0
VERTEX
  5
22971
330
22957
100
AcDbEntity
  8
10000_FRONT
  6
Continuous
 62
     7
370
    13
100
AcDbVertex
100
AcDb2dVertex
 10
-49.04706996134176
 20
210.1373295644255
 30
0.0
 42
0.0000033533
 70
     1
  0
VERTEX
  5
22972
330
22957
100
AcDbEntity
  8
10000_FRONT
  6
Continuous
 62
     7
370
    13
100
AcDbVertex
100
AcDb2dVertex
 10
-49.04686996134137
 20
210.1809995644255
 30
0.0
 42
0.0000057697
  0
VERTEX
  5
22973
330
22957
100
AcDbEntity
  8
10000_FRONT
  6
Continuous
 62
     7
370
    13
100
AcDbVertex
100
AcDb2dVertex
 10
-49.04656996134168
 20
210.2482495644255
 30
0.0
 42
0.0000028213
 70
     1
  0
VERTEX
  5
22974
330
22957
100
AcDbEntity
  8
10000_FRONT
  6
Continuous
 62
     7
370
    13
100
AcDbVertex
100
AcDb2dVertex
 10
-49.04617996134197
 20
210.3363195644255
 30
0.0
 42
0.0000014952
  0
SEQEND
  5
22975
330
22957
100
AcDbEntity
  8
10000_FRONT
  6
Continuous
 62
     7
370
    13
  0
LINE
  5
22976
330
1F
100
AcDbEntity
  8
10000_FRONT
  6
Continuous
 62
     7
370
    13
100
AcDbLine
 10
-48.64895996134169
 20
210.7328095644251
 30
0.0
 11
-48.27924996134175
 21
210.7328095644251
 31
0.0
  0
ARC
  5
22977
330
1F
100
AcDbEntity
  8
10000_FRONT
  6
Continuous
 62
     7
370
    13
100
AcDbCircle
 10
-46.17454996134187
 20
210.3355888924034
 30
0.0
 40
0.3972206720220015
100
AcDbArc
 50
0.1053934239201011
 51
90.0
  0
ARC
  5
22978
330
1F
100
AcDbEntity
  8
10000_FRONT
  6
Continuous
 62
     7
370
    13
100
AcDbCircle
 10
-46.17603845032568
 20
209.1710595644253
 30
0.0
 40
0.4040884889837744
100
AcDbArc
 50
271.5000972298952
 51
0.0
  0
ARC
  5
22979
330
1F
100
AcDbEntity
  8
10000_FRONT
  6
Continuous
 62
     7
370
    13
100
AcDbCircle
 10
-48.6580499613417
 20
209.1607544741914
 30
0.0
 40
0.393644909766067
100
AcDbArc
 50
178.4999027701048
 51
270.0
  0
ARC
  5
2297A
330
1F
100
AcDbEntity
  8
10000_FRONT
  6
Continuous
 62
     7
370
    13
100
AcDbCircle
 10
-48.64895996134169
 20
210.3355888924034
 30
0.0
 40
0.3972206720220015
100
AcDbArc
 50
90.0
 51
179.8946065760669
  0
LINE
  5
2297E
330
1F
100
AcDbEntity
  8
10000_FRONT
  6
Continuous
 62
     7
370
    13
100
AcDbLine
 10
-65.86947996134154
 20
201.9591195644252
 30
0.0
 11
-79.06947996134134
 21
201.9591195644252
 31
0.0
  0
LINE
  5
2297F
330
1F
100
AcDbEntity
  8
10000_FRONT
  6
Continuous
 62
     7
370
    13
100
AcDbLine
 10
-22.46947996134145
 20
201.9591195644252
 30
0.0
 11
-65.86947996134154
 21
201.9591195644252
 31
0.0
  0
LINE
  5
22980
330
1F
100
AcDbEntity
  8
10000_FRONT
  6
Continuous
 62
     7
370
    13
100
AcDbLine
 10
-39.34447996134146
 20
230.4091195644252
 30
0.0
 11
-39.34447996134146
 21
236.1591195644252
 31
0.0
  0
LINE
  5
22981
330
1F
100
AcDbEntity
  8
10000_FRONT
  6
Continuous
 62
     7
370
    13
100
AcDbLine
 10
-35.49447996134154
 20
230.4091195644252
 30
0.0
 11
-39.34447996134146
 21
230.4091195644252
 31
0.0
  0
LINE
  5
22982
330
1F
100
AcDbEntity
  8
10000_FRONT
  6
Continuous
 62
     7
370
    13
100
AcDbLine
 10
-38.94447996134159
 20
230.8091195644253
 30
0.0
 11
-35.89447996134163
 21
230.8091195644253
 31
0.0
  0
ARC
  5
22983
330
1F
100
AcDbEntity
  8
10000_FRONT
  6
Continuous
 62
     7
370
    13
100
AcDbCircle
 10
-65.86947996134154
 20
237.4091195644252
 30
0.0
 40
0.8
100
AcDbArc
 50
90.0
 51
180.0
  0
LINE
  5
22984
330
1F
100
AcDbEntity
  8
10000_FRONT
  6
Continuous
 62
     7
370
    13
100
AcDbLine
 10
-66.66947996134149
 20
201.9591195644252
 30
0.0
 11
-66.66947996134149
 21
237.4091195644252
 31
0.0
  0
LINE
  5
22985
330
1F
100
AcDbEntity
  8
10000_FRONT
  6
Continuous
 62
     7
370
    13
100
AcDbLine
 10
-65.86947996134154
 20
238.2091195644252
 30
0.0
 11
-22.46947996134145
 21
238.2091195644252
 31
0.0
  0
LINE
  5
22986
330
1F
100
AcDbEntity
  8
10000_FRONT
  6
Continuous
 62
     7
370
    13
100
AcDbLine
 10
-35.89447996134163
 20
230.8091195644253
 30
0.0
 11
-35.89447996134163
 21
236.1591195644252
 31
0.0
  0
LINE
  5
22987
330
1F
100
AcDbEntity
  8
10000_FRONT
  6
Continuous
 62
     7
370
    13
100
AcDbLine
 10
-38.94447996134159
 20
236.1591195644252
 30
0.0
 11
-38.94447996134159
 21
230.8091195644253
 31
0.0
  0
LINE
  5
22988
330
1F
100
AcDbEntity
  8
10000_FRONT
  6
Continuous
 62
     7
370
    13
100
AcDbLine
 10
-39.34447996134146
 20
236.1591195644252
 30
0.0
 11
-38.94447996134159
 21
236.1591195644252
 31
0.0
  0
LINE
  5
22989
330
1F
100
AcDbEntity
  8
10000_FRONT
  6
Continuous
 62
     7
370
    13
100
AcDbLine
 10
-35.89447996134163
 20
236.1591195644252
 30
0.0
 11
-35.49447996134154
 21
236.1591195644252
 31
0.0
  0
LINE
  5
2298A
330
1F
100
AcDbEntity
  8
10000_FRONT
  6
Continuous
 62
     7
370
    50
100
AcDbLine
 10
-79.06947996134158
 20
189.4591195644252
 30
0.0
 11
-79.06947996134158
 21
201.9891795644252
 31
0.0
  0
LINE
  5
2298B
330
1F
100
AcDbEntity
  8
10000_FRONT
  6
Continuous
 62
     7
370
    50
100
AcDbLine
 10
-79.06947996134158
 20
201.9891795644252
 30
0.0
 11
-79.06947996134158
 21
250.9591245644253
 31
0.0
  0
LINE
  5
2298C
330
1F
100
AcDbEntity
  8
10000_FRONT
  6
Continuous
 62
     7
370
    50
100
AcDbLine
 10
-77.56947996134158
 20
252.4591145644253
 30
0.0
 11
-10.76947996134163
 21
252.4591145644253
 31
0.0
  0
LINE
  5
2298D
330
1F
100
AcDbEntity
  8
10000_FRONT
  6
Continuous
 62
     7
370
    13
100
AcDbLine
 10
-66.56947996134204
 20
187.9591185644255
 30
0.0
 11
-77.56947996134158
 21
187.9591195644252
 31
0.0
  0
ARC
  5
2298E
330
1F
100
AcDbEntity
  8
10000_FRONT
  6
Continuous
 62
     7
370
    13
100
AcDbCircle
 10
-77.56947996134158
 20
189.4591195644252
 30
0.0
 40
1.5
100
AcDbArc
 50
180.0
 51
270.0
  0
ARC
  5
2298F
330
1F
100
AcDbEntity
  8
10000_FRONT
  6
Continuous
 62
     7
370
    50
100
AcDbCircle
 10
-77.56947996134158
 20
250.9591245644253
 30
0.0
 40
1.5
100
AcDbArc
 50
90.0
 51
180.0
  0
LINE
  5
22990
330
1F
100
AcDbEntity
  8
10000_FRONT
  6
Continuous
 62
     7
370
    13
100
AcDbLine
 10
-77.7194699613417
 20
183.959127564425
 30
0.0
 11
-77.56946996134161
 21
183.959127564425
 31
0.0
  0
LINE
  5
22991
330
1F
100
AcDbEntity
  8
10000_FRONT
  6
Continuous
 62
     7
370
    13
100
AcDbLine
 10
-37.76946996134143
 20
163.2591285644251
 30
0.0
 11
-50.56946996134161
 21
163.2591275644251
 31
0.0
  0
ARC
  5
22992
330
1F
100
AcDbEntity
  8
10000_FRONT
  6
Continuous
 62
     7
370
    13
100
AcDbCircle
 10
-50.56946996134161
 20
163.6591275644251
 30
0.0
 40
0.4
100
AcDbArc
 50
180.0
 51
270.0
  0
ARC
  5
22993
330
1F
100
AcDbEntity
  8
10000_FRONT
  6
Continuous
 62
     7
370
    13
100
AcDbCircle
 10
-37.76946996134143
 20
163.6591285644253
 30
0.0
 40
0.4
100
AcDbArc
 50
270.0
 51
0.0
  0
LINE
  5
22994
330
1F
100
AcDbEntity
  8
10000_FRONT
  6
Continuous
 62
     7
370
    13
100
AcDbLine
 10
-37.36946996134157
 20
166.8591285644251
 30
0.0
 11
-37.36946996134157
 21
163.6591285644253
 31
0.0
  0
LINE
  5
22995
330
1F
100
AcDbEntity
  8
10000_FRONT
  6
Continuous
 62
     7
370
    13
100
AcDbLine
 10
-50.96946996134171
 20
163.6591275644251
 30
0.0
 11
-50.96946996134171
 21
166.8591275644252
 31
0.0
  0
ARC
  5
22996
330
1F
100
AcDbEntity
  8
10000_FRONT
  6
Continuous
 62
     7
370
    13
100
AcDbCircle
 10
-28.06946996134161
 20
163.6591285644253
 30
0.0
 40
0.4
100
AcDbArc
 50
180.0
 51
270.0
  0
ARC
  5
22997
330
1F
100
AcDbEntity
  8
10000_FRONT
  6
Continuous
 62
     7
370
    13
100
AcDbCircle
 10
-11.51946996134143
 20
166.4591285644253
 30
0.0
 40
0.4
100
AcDbArc
 50
90.00000099999489
 51
180.0
  0
ARC
  5
22998
102
{ACAD_REACTORS
330
22E5E
330
22E76
102
}
330
1F
100
AcDbEntity
  8
10000_FRONT
  6
Continuous
 62
     7
370
    13
100
AcDbCircle
 10
-12.31946996134161
 20
163.6591285644253
 30
0.0
 40
0.4
100
AcDbArc
 50
270.0
 51
0.0
  0
LINE
  5
22999
330
1F
100
AcDbEntity
  8
10000_FRONT
  6
Continuous
 62
     7
370
    13
100
AcDbLine
 10
-11.91946996134152
 20
166.4591285644253
 30
0.0
 11
-11.91946996134152
 21
163.6591285644253
 31
0.0
  0
LINE
  5
2299A
102
{ACAD_REACTORS
330
22E5E
330
22E76
102
}
330
1F
100
AcDbEntity
  8
10000_FRONT
  6
Continuous
 62
     7
370
    13
100
AcDbLine
 10
-12.31946996134161
 20
163.2591285644251
 30
0.0
 11
-28.06946996134161
 21
163.2591285644251
 31
0.0
  0
LINE
  5
2299B
330
1F
100
AcDbEntity
  8
10000_FRONT
  6
Continuous
 62
     7
370
    13
100
AcDbLine
 10
-28.4694699613417
 20
163.6591285644253
 30
0.0
 11
-28.4694699613417
 21
166.8591285644251
 31
0.0
  0
ARC
  5
2299C
330
1F
100
AcDbEntity
  8
10000_FRONT
  6
Continuous
 62
     7
370
    13
100
AcDbCircle
 10
-60.26946996134165
 20
163.6591275644251
 30
0.0
 40
0.4
100
AcDbArc
 50
270.0
 51
0.0
  0
LINE
  5
2299D
330
1F
100
AcDbEntity
  8
10000_FRONT
  6
Continuous
 62
     7
370
    13
100
AcDbLine
 10
-60.26946996134165
 20
163.2591275644251
 30
0.0
 11
-76.01946996134166
 21
163.2591275644251
 31
0.0
  0
LINE
  5
2299E
330
1F
100
AcDbEntity
  8
10000_FRONT
  6
Continuous
 62
     7
370
    13
100
AcDbLine
 10
-59.86946996134157
 20
166.8591275644252
 30
0.0
 11
-59.86946996134157
 21
163.6591275644251
 31
0.0
  0
ARC
  5
2299F
330
1F
100
AcDbEntity
  8
10000_FRONT
  6
Continuous
 62
     7
370
    13
100
AcDbCircle
 10
-76.81946996134161
 20
166.459127564425
 30
0.0
 40
0.4
100
AcDbArc
 50
0.00000118119511
 51
90.00000099999489
  0
LINE
  5
229A0
330
1F
100
AcDbEntity
  8
10000_FRONT
  6
Continuous
 62
     7
370
    13
100
AcDbLine
 10
-76.41946996134151
 20
163.6591275644251
 30
0.0
 11
-76.41946996134151
 21
166.459127564425
 31
0.0
  0
ARC
  5
229A1
330
1F
100
AcDbEntity
  8
10000_FRONT
  6
Continuous
 62
     7
370
    13
100
AcDbCircle
 10
-76.01946996134166
 20
163.6591275644251
 30
0.0
 40
0.4
100
AcDbArc
 50
180.0
 51
270.0
  0
LINE
  5
229A2
330
1F
100
AcDbEntity
  8
10000_FRONT
  6
Continuous
 62
     7
370
    50
100
AcDbLine
 10
-9.169469961341519
 20
182.5091525644251
 30
0.0
 11
-9.169469961341519
 21
168.3591055644253
 31
0.0
  0
CIRCLE
  5
229A3
330
1F
100
AcDbEntity
  8
10000_FRONT
  6
Continuous
 62
     7
370
    13
100
AcDbCircle
 10
-44.16946996134153
 20
177.4591285644252
 30
0.0
 40
3.6
  0
ARC
  5
229A4
330
1F
100
AcDbEntity
  8
10000_FRONT
  6
Continuous
 62
     7
370
    13
100
AcDbCircle
 10
-77.7194699613417
 20
182.5091265644252
 30
0.0
 40
1.45
100
AcDbArc
 50
90.00000099999489
 51
180.0
  0
LINE
  5
229A5
330
1F
100
AcDbEntity
  8
10000_FRONT
  6
Continuous
 62
     7
370
    50
100
AcDbLine
 10
-79.16946996134152
 20
168.3591045644252
 30
0.0
 11
-79.16946996134152
 21
182.5091515644253
 31
0.0
  0
ARC
  5
229A6
102
{ACAD_REACTORS
330
22E46
102
}
330
1F
100
AcDbEntity
  8
10000_FRONT
  6
Continuous
 62
     7
370
    50
100
AcDbCircle
 10
-77.66946996134151
 20
168.3591265644251
 30
0.0
 40
1.5
100
AcDbArc
 50
180.0
 51
270.0
  0
CIRCLE
  5
229A7
330
1F
100
AcDbEntity
  8
10000_FRONT
  6
Continuous
 62
     7
370
    13
100
AcDbCircle
 10
-66.66946996134152
 20
177.4591285644252
 30
0.0
 40
3.6
  0
ARC
  5
229A8
102
{ACAD_REACTORS
330
22E46
102
}
330
1F
100
AcDbEntity
  8
10000_FRONT
  6
Continuous
 62
     7
370
    50
100
AcDbCircle
 10
-10.66946996134152
 20
168.3591295644252
 30
0.0
 40
1.5
100
AcDbArc
 50
270.0
 51
0.0
  0
LINE
  5
229A9
330
1F
100
AcDbEntity
  8
10000_FRONT
  6
Continuous
 62
     7
370
    50
100
AcDbLine
 10
-10.66948996134147
 20
166.8591295644252
 30
0.0
 11
-77.66944996134156
 21
166.8591275644252
 31
0.0
  0
LINE
  5
229AA
330
1F
100
AcDbEntity
  8
10000_FRONT
  6
Continuous
 62
     7
370
    13
100
AcDbLine
 10
-10.76946996134143
 20
183.9591265644252
 30
0.0
 11
-77.56946996134161
 21
183.9591265644252
 31
0.0
  0
ARC
  5
229AB
330
1F
100
AcDbEntity
  8
10000_FRONT
  6
Continuous
 62
     7
370
    13
100
AcDbCircle
 10
-77.56946996134161
 20
185.4591265644252
 30
0.0
 40
1.5
100
AcDbArc
 50
189.00439
 51
270.0
  0
POLYLINE
  5
229AC
330
1F
100
AcDbEntity
  8
10000_FRONT
  6
Continuous
 62
     7
370
    13
100
AcDb2dPolyline
 66
     1
 10
0.0
 20
0.0
 30
0.0
 70
     2
  0
VERTEX
  5
229AD
330
229AC
100
AcDbEntity
  8
10000_FRONT
  6
Continuous
 62
     7
370
    13
100
AcDbVertex
100
AcDb2dVertex
 10
-79.05098996134166
 20
185.2243605644252
 30
0.0
  0
VERTEX
  5
229AE
330
229AC
100
AcDbEntity
  8
10000_FRONT
  6
Continuous
 62
     7
370
    13
100
AcDbVertex
100
AcDb2dVertex
 10
-79.05151996134168
 20
185.2277465644253
 30
0.0
 42
-0.0005630062
 70
     1
  0
VERTEX
  5
229AF
330
229AC
100
AcDbEntity
  8
10000_FRONT
  6
Continuous
 62
     7
370
    13
100
AcDbVertex
100
AcDb2dVertex
 10
-79.05204996134148
 20
185.2311315644253
 30
0.0
 42
-0.0005638182
  0
VERTEX
  5
229B0
330
229AC
100
AcDbEntity
  8
10000_FRONT
  6
Continuous
 62
     7
370
    13
100
AcDbVertex
100
AcDb2dVertex
 10
-79.05255996134155
 20
185.2345175644251
 30
0.0
 42
-0.0005640683
 70
     1
  0
VERTEX
  5
229B1
330
229AC
100
AcDbEntity
  8
10000_FRONT
  6
Continuous
 62
     7
370
    13
100
AcDbVertex
100
AcDb2dVertex
 10
-79.05306996134163
 20
185.2379015644253
 30
0.0
 42
-0.0005636572
  0
VERTEX
  5
229B2
330
229AC
100
AcDbEntity
  8
10000_FRONT
  6
Continuous
 62
     7
370
    13
100
AcDbVertex
100
AcDb2dVertex
 10
-79.05356996134151
 20
185.2412865644252
 30
0.0
 42
-0.0005635188
 70
     1
  0
VERTEX
  5
229B3
330
229AC
100
AcDbEntity
  8
10000_FRONT
  6
Continuous
 62
     7
370
    13
100
AcDbVertex
100
AcDb2dVertex
 10
-79.05405996134162
 20
185.2446705644251
 30
0.0
 42
-0.0005634317
  0
VERTEX
  5
229B4
330
229AC
100
AcDbEntity
  8
10000_FRONT
  6
Continuous
 62
     7
370
    13
100
AcDbVertex
100
AcDb2dVertex
 10
-79.05454996134153
 20
185.248053564425
 30
0.0
 42
-0.0005634072
 70
     1
  0
VERTEX
  5
229B5
330
229AC
100
AcDbEntity
  8
10000_FRONT
  6
Continuous
 62
     7
370
    13
100
AcDbVertex
100
AcDb2dVertex
 10
-79.05501996134148
 20
185.2514365644253
 30
0.0
 42
-0.000563257
  0
VERTEX
  5
229B6
330
229AC
100
AcDbEntity
  8
10000_FRONT
  6
Continuous
 62
     7
370
    13
100
AcDbVertex
100
AcDb2dVertex
 10
-79.05548996134143
 20
185.2548185644252
 30
0.0
 42
-0.000563221
 70
     1
  0
VERTEX
  5
229B7
330
229AC
100
AcDbEntity
  8
10000_FRONT
  6
Continuous
 62
     7
370
    13
100
AcDbVertex
100
AcDb2dVertex
 10
-79.05594996134164
 20
185.2582005644253
 30
0.0
 42
-0.0005631046
  0
VERTEX
  5
229B8
330
229AC
100
AcDbEntity
  8
10000_FRONT
  6
Continuous
 62
     7
370
    13
100
AcDbVertex
100
AcDb2dVertex
 10
-79.05640996134161
 20
185.2615815644253
 30
0.0
 42
-0.0005630888
 70
     1
  0
VERTEX
  5
229B9
330
229AC
100
AcDbEntity
  8
10000_FRONT
  6
Continuous
 62
     7
370
    13
100
AcDbVertex
100
AcDb2dVertex
 10
-79.05684996134164
 20
185.2649615644251
 30
0.0
 42
-0.000562982
  0
VERTEX
  5
229BA
330
229AC
100
AcDbEntity
  8
10000_FRONT
  6
Continuous
 62
     7
370
    13
100
AcDbVertex
100
AcDb2dVertex
 10
-79.05728996134143
 20
185.2683415644252
 30
0.0
 42
-0.0005629783
 70
     1
  0
VERTEX
  5
229BB
330
229AC
100
AcDbEntity
  8
10000_FRONT
  6
Continuous
 62
     7
370
    13
100
AcDbVertex
100
AcDb2dVertex
 10
-79.05771996134149
 20
185.2717205644252
 30
0.0
 42
-0.0005628869
  0
VERTEX
  5
229BC
330
229AC
100
AcDbEntity
  8
10000_FRONT
  6
Continuous
 62
     7
370
    13
100
AcDbVertex
100
AcDb2dVertex
 10
-79.05813996134156
 20
185.2750995644252
 30
0.0
 42
-0.0005628983
 70
     1
  0
VERTEX
  5
229BD
330
229AC
100
AcDbEntity
  8
10000_FRONT
  6
Continuous
 62
     7
370
    13
100
AcDbVertex
100
AcDb2dVertex
 10
-79.05854996134144
 20
185.2784765644252
 30
0.0
 42
-0.0005628238
  0
VERTEX
  5
229BE
330
229AC
100
AcDbEntity
  8
10000_FRONT
  6
Continuous
 62
     7
370
    13
100
AcDbVertex
100
AcDb2dVertex
 10
-79.05895996134154
 20
185.2818535644252
 30
0.0
 42
-0.000562846
 70
     1
  0
VERTEX
  5
229BF
330
229AC
100
AcDbEntity
  8
10000_FRONT
  6
Continuous
 62
     7
370
    13
100
AcDbVertex
100
AcDb2dVertex
 10
-79.05935996134144
 20
185.2852295644251
 30
0.0
 42
-0.0005627768
  0
VERTEX
  5
229C0
330
229AC
100
AcDbEntity
  8
10000_FRONT
  6
Continuous
 62
     7
370
    13
100
AcDbVertex
100
AcDb2dVertex
 10
-79.05974996134159
 20
185.2886045644251
 30
0.0
 42
-0.0005628258
 70
     1
  0
VERTEX
  5
229C1
330
229AC
100
AcDbEntity
  8
10000_FRONT
  6
Continuous
 62
     7
370
    13
100
AcDbVertex
100
AcDb2dVertex
 10
-79.06012996134155
 20
185.2919785644252
 30
0.0
 42
-0.0005628093
  0
VERTEX
  5
229C2
330
229AC
100
AcDbEntity
  8
10000_FRONT
  6
Continuous
 62
     7
370
    13
100
AcDbVertex
100
AcDb2dVertex
 10
-79.06049996134152
 20
185.2953525644251
 30
0.0
 42
-0.0005628123
 70
     1
  0
VERTEX
  5
229C3
330
229AC
100
AcDbEntity
  8
10000_FRONT
  6
Continuous
 62
     7
370
    13
100
AcDbVertex
100
AcDb2dVertex
 10
-79.06086996134148
 20
185.2987245644253
 30
0.0
 42
-0.0005626351
  0
VERTEX
  5
229C4
330
229AC
100
AcDbEntity
  8
10000_FRONT
  6
Continuous
 62
     7
370
    13
100
AcDbVertex
100
AcDb2dVertex
 10
-79.0612299613415
 20
185.3020965644252
 30
0.0
 42
-0.0005624516
 70
     1
  0
VERTEX
  5
229C5
330
229AC
100
AcDbEntity
  8
10000_FRONT
  6
Continuous
 62
     7
370
    13
100
AcDbVertex
100
AcDb2dVertex
 10
-79.06157996134151
 20
185.3054675644252
 30
0.0
 42
-0.0005620121
  0
VERTEX
  5
229C6
330
229AC
100
AcDbEntity
  8
10000_FRONT
  6
Continuous
 62
     7
370
    13
100
AcDbVertex
100
AcDb2dVertex
 10
-79.06191996134158
 20
185.3088365644252
 30
0.0
 42
-0.0005617351
 70
     1
  0
VERTEX
  5
229C7
330
229AC
100
AcDbEntity
  8
10000_FRONT
  6
Continuous
 62
     7
370
    13
100
AcDbVertex
100
AcDb2dVertex
 10
-79.06225996134162
 20
185.3122055644252
 30
0.0
 42
-0.0005613498
  0
VERTEX
  5
229C8
330
229AC
100
AcDbEntity
  8
10000_FRONT
  6
Continuous
 62
     7
370
    13
100
AcDbVertex
100
AcDb2dVertex
 10
-79.0625899613417
 20
185.315573564425
 30
0.0
 42
-0.000561095
 70
     1
  0
VERTEX
  5
229C9
330
229AC
100
AcDbEntity
  8
10000_FRONT
  6
Continuous
 62
     7
370
    13
100
AcDbVertex
100
AcDb2dVertex
 10
-79.06290996134156
 20
185.3189395644253
 30
0.0
 42
-0.0005607046
  0
VERTEX
  5
229CA
330
229AC
100
AcDbEntity
  8
10000_FRONT
  6
Continuous
 62
     7
370
    13
100
AcDbVertex
100
AcDb2dVertex
 10
-79.0632199613417
 20
185.3223055644252
 30
0.0
 42
-0.0005604521
 70
     1
  0
VERTEX
  5
229CB
330
229AC
100
AcDbEntity
  8
10000_FRONT
  6
Continuous
 62
     7
370
    13
100
AcDbVertex
100
AcDb2dVertex
 10
-79.06351996134162
 20
185.3256695644251
 30
0.0
 42
-0.000560072
  0
VERTEX
  5
229CC
330
229AC
100
AcDbEntity
  8
10000_FRONT
  6
Continuous
 62
     7
370
    13
100
AcDbVertex
100
AcDb2dVertex
 10
-79.06381996134154
 20
185.3290335644253
 30
0.0
 42
-0.0005598271
 70
     1
  0
VERTEX
  5
229CD
330
229AC
100
AcDbEntity
  8
10000_FRONT
  6
Continuous
 62
     7
370
    13
100
AcDbVertex
100
AcDb2dVertex
 10
-79.0641099613415
 20
185.3323955644252
 30
0.0
 42
-0.0005594534
  0
VERTEX
  5
229CE
330
229AC
100
AcDbEntity
  8
10000_FRONT
  6
Continuous
 62
     7
370
    13
100
AcDbVertex
100
AcDb2dVertex
 10
-79.0643899613417
 20
185.3357565644252
 30
0.0
 42
-0.0005592151
 70
     1
  0
VERTEX
  5
229CF
330
229AC
100
AcDbEntity
  8
10000_FRONT
  6
Continuous
 62
     7
370
    13
100
AcDbVertex
100
AcDb2dVertex
 10
-79.0646599613417
 20
185.3391165644252
 30
0.0
 42
-0.000558849
  0
VERTEX
  5
229D0
330
229AC
100
AcDbEntity
  8
10000_FRONT
  6
Continuous
 62
     7
370
    13
100
AcDbVertex
100
AcDb2dVertex
 10
-79.0649299613417
 20
185.3424755644252
 30
0.0
 42
-0.0005586174
 70
     1
  0
VERTEX
  5
229D1
330
229AC
100
AcDbEntity
  8
10000_FRONT
  6
Continuous
 62
     7
370
    13
100
AcDbVertex
100
AcDb2dVertex
 10
-79.0651899613415
 20
185.3458325644252
 30
0.0
 42
-0.0005582581
  0
VERTEX
  5
229D2
330
229AC
100
AcDbEntity
  8
10000_FRONT
  6
Continuous
 62
     7
370
    13
100
AcDbVertex
100
AcDb2dVertex
 10
-79.06543996134153
 20
185.3491895644253
 30
0.0
 42
-0.0005580259
 70
     1
  0
VERTEX
  5
229D3
330
229AC
100
AcDbEntity
  8
10000_FRONT
  6
Continuous
 62
     7
370
    13
100
AcDbVertex
100
AcDb2dVertex
 10
-79.06567996134163
 20
185.352544564425
 30
0.0
 42
-0.0005576577
  0
VERTEX
  5
229D4
330
229AC
100
AcDbEntity
  8
10000_FRONT
  6
Continuous
 62
     7
370
    13
100
AcDbVertex
100
AcDb2dVertex
 10
-79.06591996134171
 20
185.355898564425
 30
0.0
 42
-0.0005574247
 70
     1
  0
VERTEX
  5
229D5
330
229AC
100
AcDbEntity
  8
10000_FRONT
  6
Continuous
 62
     7
370
    13
100
AcDbVertex
100
AcDb2dVertex
 10
-79.06613996134161
 20
185.3592505644252
 30
0.0
 42
-0.0005570633
  0
VERTEX
  5
229D6
330
229AC
100
AcDbEntity
  8
10000_FRONT
  6
Continuous
 62
     7
370
    13
100
AcDbVertex
100
AcDb2dVertex
 10
-79.06635996134149
 20
185.3626015644251
 30
0.0
 42
-0.000556837
 70
     1
  0
VERTEX
  5
229D7
330
229AC
100
AcDbEntity
  8
10000_FRONT
  6
Continuous
 62
     7
370
    13
100
AcDbVertex
100
AcDb2dVertex
 10
-79.06656996134166
 20
185.3659515644253
 30
0.0
 42
-0.0005564834
  0
VERTEX
  5
229D8
330
229AC
100
AcDbEntity
  8
10000_FRONT
  6
Continuous
 62
     7
370
    13
100
AcDbVertex
100
AcDb2dVertex
 10
-79.06677996134158
 20
185.3693005644251
 30
0.0
 42
-0.0005562626
 70
     1
  0
VERTEX
  5
229D9
330
229AC
100
AcDbEntity
  8
10000_FRONT
  6
Continuous
 62
     7
370
    13
100
AcDbVertex
100
AcDb2dVertex
 10
-79.06697996134153
 20
185.3726475644252
 30
0.0
 42
-0.0005559131
  0
VERTEX
  5
229DA
330
229AC
100
AcDbEntity
  8
10000_FRONT
  6
Continuous
 62
     7
370
    13
100
AcDbVertex
100
AcDb2dVertex
 10
-79.06716996134149
 20
185.3759935644252
 30
0.0
 42
-0.000555703
 70
     1
  0
VERTEX
  5
229DB
330
229AC
100
AcDbEntity
  8
10000_FRONT
  6
Continuous
 62
     7
370
    13
100
AcDbVertex
100
AcDb2dVertex
 10
-79.06734996134152
 20
185.3793385644253
 30
0.0
 42
-0.0005553722
  0
VERTEX
  5
229DC
330
229AC
100
AcDbEntity
  8
10000_FRONT
  6
Continuous
 62
     7
370
    13
100
AcDbVertex
100
AcDb2dVertex
 10
-79.06751996134153
 20
185.3826815644251
 30
0.0
 42
-0.0005551534
 70
     1
  0
VERTEX
  5
229DD
330
229AC
100
AcDbEntity
  8
10000_FRONT
  6
Continuous
 62
     7
370
    13
100
AcDbVertex
100
AcDb2dVertex
 10
-79.06768996134156
 20
185.3860225644252
 30
0.0
 42
-0.0005547879
  0
VERTEX
  5
229DE
330
229AC
100
AcDbEntity
  8
10000_FRONT
  6
Continuous
 62
     7
370
    13
100
AcDbVertex
100
AcDb2dVertex
 10
-79.0678499613416
 20
185.3893635644253
 30
0.0
 42
-0.0005546329
 70
     1
  0
VERTEX
  5
229DF
330
229AC
100
AcDbEntity
  8
10000_FRONT
  6
Continuous
 62
     7
370
    13
100
AcDbVertex
100
AcDb2dVertex
 10
-79.06799996134146
 20
185.3927015644253
 30
0.0
 42
-0.000554431
  0
VERTEX
  5
229E0
330
229AC
100
AcDbEntity
  8
10000_FRONT
  6
Continuous
 62
     7
370
    13
100
AcDbVertex
100
AcDb2dVertex
 10
-79.06813996134156
 20
185.3960395644253
 30
0.0
 42
-0.0005539263
 70
     1
  0
VERTEX
  5
229E1
330
229AC
100
AcDbEntity
  8
10000_FRONT
  6
Continuous
 62
     7
370
    13
100
AcDbVertex
100
AcDb2dVertex
 10
-79.06827996134166
 20
185.3993745644251
 30
0.0
 42
-0.0005528271
  0
VERTEX
  5
229E2
330
229AC
100
AcDbEntity
  8
10000_FRONT
  6
Continuous
 62
     7
370
    13
100
AcDbVertex
100
AcDb2dVertex
 10
-79.06840996134156
 20
185.4027085644251
 30
0.0
 42
-0.0005525207
 70
     1
  0
VERTEX
  5
229E3
330
229AC
100
AcDbEntity
  8
10000_FRONT
  6
Continuous
 62
     7
370
    13
100
AcDbVertex
100
AcDb2dVertex
 10
-79.06852996134171
 20
185.4060415644252
 30
0.0
 42
-0.000552541
  0
VERTEX
  5
229E4
330
229AC
100
AcDbEntity
  8
10000_FRONT
  6
Continuous
 62
     7
370
    13
100
AcDbVertex
100
AcDb2dVertex
 10
-79.06864996134164
 20
185.4093725644251
 30
0.0
 42
-0.0005504633
 70
     1
  0
VERTEX
  5
229E5
330
229AC
100
AcDbEntity
  8
10000_FRONT
  6
Continuous
 62
     7
370
    13
100
AcDbVertex
100
AcDb2dVertex
 10
-79.06874996134161
 20
185.4127025644251
 30
0.0
 42
-0.0005462603
  0
VERTEX
  5
229E6
330
229AC
100
AcDbEntity
  8
10000_FRONT
  6
Continuous
 62
     7
370
    13
100
AcDbVertex
100
AcDb2dVertex
 10
-79.06884996134158
 20
185.4160285644251
 30
0.0
 42
-0.0005501939
 70
     1
  0
VERTEX
  5
229E7
330
229AC
100
AcDbEntity
  8
10000_FRONT
  6
Continuous
 62
     7
370
    13
100
AcDbVertex
100
AcDb2dVertex
 10
-79.06893996134158
 20
185.4193565644252
 30
0.0
 42
-0.0005602394
  0
VERTEX
  5
229E8
330
229AC
100
AcDbEntity
  8
10000_FRONT
  6
Continuous
 62
     7
370
    13
100
AcDbVertex
100
AcDb2dVertex
 10
-79.06902996134158
 20
185.4226875644253
 30
0.0
 42
-0.0005438412
 70
     1
  0
VERTEX
  5
229E9
330
229AC
100
AcDbEntity
  8
10000_FRONT
  6
Continuous
 62
     7
370
    13
100
AcDbVertex
100
AcDb2dVertex
 10
-79.06910996134161
 20
185.4260035644251
 30
0.0
 42
-0.0005074228
  0
VERTEX
  5
229EA
330
229AC
100
AcDbEntity
  8
10000_FRONT
  6
Continuous
 62
     7
370
    13
100
AcDbVertex
100
AcDb2dVertex
 10
-79.06917996134166
 20
185.4292985644253
 30
0.0
 42
-0.000558612
 70
     1
  0
VERTEX
  5
229EB
330
229AC
100
AcDbEntity
  8
10000_FRONT
  6
Continuous
 62
     7
370
    13
100
AcDbVertex
100
AcDb2dVertex
 10
-79.06923996134151
 20
185.4326445644253
 30
0.0
 42
-0.0006637108
  0
VERTEX
  5
229EC
330
229AC
100
AcDbEntity
  8
10000_FRONT
  6
Continuous
 62
     7
370
    13
100
AcDbVertex
100
AcDb2dVertex
 10
-79.06928996134161
 20
185.4360665644253
 30
0.0
 42
-0.0005043962
 70
     1
  0
VERTEX
  5
229ED
330
229AC
100
AcDbEntity
  8
10000_FRONT
  6
Continuous
 62
     7
370
    13
100
AcDbVertex
100
AcDb2dVertex
 10
-79.06933996134171
 20
185.439278564425
 30
0.0
 42
-0.000175696
  0
VERTEX
  5
229EE
330
229AC
100
AcDbEntity
  8
10000_FRONT
  6
Continuous
 62
     7
370
    13
100
AcDbVertex
100
AcDb2dVertex
 10
-79.06937996134161
 20
185.4421815644252
 30
0.0
 42
-0.0007077573
 70
     1
  0
VERTEX
  5
229EF
330
229AC
100
AcDbEntity
  8
10000_FRONT
  6
Continuous
 62
     7
370
    13
100
AcDbVertex
100
AcDb2dVertex
 10
-79.0694199613415
 20
185.4459055644251
 30
0.0
 42
-0.0012143644
  0
VERTEX
  5
229F0
330
229AC
100
AcDbEntity
  8
10000_FRONT
  6
Continuous
 62
     7
370
    13
100
AcDbVertex
100
AcDb2dVertex
 10
-79.06944996134166
 20
185.4516365644253
 30
0.0
 42
-0.0005945449
 70
     1
  0
VERTEX
  5
229F1
330
229AC
100
AcDbEntity
  8
10000_FRONT
  6
Continuous
 62
     7
370
    13
100
AcDbVertex
100
AcDb2dVertex
 10
-79.06947996134158
 20
185.4591385644252
 30
0.0
 42
-0.0003156783
  0
SEQEND
  5
229F2
330
229AC
100
AcDbEntity
  8
10000_FRONT
  6
Continuous
 62
     7
370
    13
  0
LINE
  5
229F3
330
1F
100
AcDbEntity
  8
10000_FRONT
  6
Continuous
 62
     7
370
    50
100
AcDbLine
 10
-79.06946996134161
 20
183.0995235644252
 30
0.0
 11
-79.06946996134161
 21
185.4591265644252
 31
0.0
  0
LINE
  5
229F4
330
1F
100
AcDbEntity
  8
10000_FRONT
  6
Continuous
 62
     7
370
    50
100
AcDbLine
 10
-79.06946996134161
 20
185.4591265644252
 30
0.0
 11
-79.06946996134161
 21
189.4591265644253
 31
0.0
  0
POLYLINE
  5
229F5
330
1F
100
AcDbEntity
  8
10000_FRONT
  6
Continuous
 62
     7
370
    13
100
AcDb2dPolyline
 66
     1
 10
0.0
 20
0.0
 30
0.0
 70
     2
  0
VERTEX
  5
229F6
330
229F5
100
AcDbEntity
  8
10000_FRONT
  6
Continuous
 62
     7
370
    13
100
AcDbVertex
100
AcDb2dVertex
 10
-79.06947996134158
 20
185.4591385644252
 30
0.0
  0
VERTEX
  5
229F7
330
229F5
100
AcDbEntity
  8
10000_FRONT
  6
Continuous
 62
     7
370
    13
100
AcDbVertex
100
AcDb2dVertex
 10
-79.06946996134161
 20
185.4566015644252
 30
0.0
 42
0.0007822868
 70
     1
  0
VERTEX
  5
229F8
330
229F5
100
AcDbEntity
  8
10000_FRONT
  6
Continuous
 62
     7
370
    13
100
AcDbVertex
100
AcDb2dVertex
 10
-79.06945996134163
 20
185.4540555644252
 30
0.0
 42
0.0007774118
  0
VERTEX
  5
229F9
330
229F5
100
AcDbEntity
  8
10000_FRONT
  6
Continuous
 62
     7
370
    13
100
AcDbVertex
100
AcDb2dVertex
 10
-79.06943996134145
 20
185.4514985644252
 30
0.0
 42
0.0007699972
 70
     1
  0
VERTEX
  5
229FA
330
229F5
100
AcDbEntity
  8
10000_FRONT
  6
Continuous
 62
     7
370
    13
100
AcDbVertex
100
AcDb2dVertex
 10
-79.06940996134153
 20
185.4489325644253
 30
0.0
 42
0.0007606364
  0
VERTEX
  5
229FB
330
229F5
100
AcDbEntity
  8
10000_FRONT
  6
Continuous
 62
     7
370
    13
100
AcDbVertex
100
AcDb2dVertex
 10
-79.06936996134163
 20
185.4463565644252
 30
0.0
 42
0.0007523582
 70
     1
  0
VERTEX
  5
229FC
330
229F5
100
AcDbEntity
  8
10000_FRONT
  6
Continuous
 62
     7
370
    13
100
AcDbVertex
100
AcDb2dVertex
 10
-79.06932996134151
 20
185.4437715644253
 30
0.0
 42
0.0007448663
  0
VERTEX
  5
229FD
330
229F5
100
AcDbEntity
  8
10000_FRONT
  6
Continuous
 62
     7
370
    13
100
AcDbVertex
100
AcDb2dVertex
 10
-79.06926996134166
 20
185.4411775644252
 30
0.0
 42
0.0007375754
 70
     1
  0
VERTEX
  5
229FE
330
229F5
100
AcDbEntity
  8
10000_FRONT
  6
Continuous
 62
     7
370
    13
100
AcDbVertex
100
AcDb2dVertex
 10
-79.06920996134158
 20
185.4385745644253
 30
0.0
 42
0.0007304119
  0
VERTEX
  5
229FF
330
229F5
100
AcDbEntity
  8
10000_FRONT
  6
Continuous
 62
     7
370
    13
100
AcDbVertex
100
AcDb2dVertex
 10
-79.06913996134155
 20
185.4359635644252
 30
0.0
 42
0.0007236317
 70
     1
  0
VERTEX
  5
22A00
330
229F5
100
AcDbEntity
  8
10000_FRONT
  6
Continuous
 62
     7
370
    13
100
AcDbVertex
100
AcDb2dVertex
 10
-79.06906996134171
 20
185.4333445644251
 30
0.0
 42
0.0007171179
  0
VERTEX
  5
22A01
330
229F5
100
AcDbEntity
  8
10000_FRONT
  6
Continuous
 62
     7
370
    13
100
AcDbVertex
100
AcDb2dVertex
 10
-79.06897996134171
 20
185.4307175644252
 30
0.0
 42
0.00071092
 70
     1
  0
VERTEX
  5
22A02
330
229F5
100
AcDbEntity
  8
10000_FRONT
  6
Continuous
 62
     7
370
    13
100
AcDbVertex
100
AcDb2dVertex
 10
-79.06888996134171
 20
185.4280835644253
 30
0.0
 42
0.0007049428
  0
VERTEX
  5
22A03
330
229F5
100
AcDbEntity
  8
10000_FRONT
  6
Continuous
 62
     7
370
    13
100
AcDbVertex
100
AcDb2dVertex
 10
-79.06878996134151
 20
185.4254415644252
 30
0.0
 42
0.000699278
 70
     1
  0
VERTEX
  5
22A04
330
229F5
100
AcDbEntity
  8
10000_FRONT
  6
Continuous
 62
     7
370
    13
100
AcDbVertex
100
AcDb2dVertex
 10
-79.06867996134156
 20
185.4227935644252
 30
0.0
 42
0.0006938347
  0
VERTEX
  5
22A05
330
229F5
100
AcDbEntity
  8
10000_FRONT
  6
Continuous
 62
     7
370
    13
100
AcDbVertex
100
AcDb2dVertex
 10
-79.06856996134161
 20
185.4201385644252
 30
0.0
 42
0.0006886767
 70
     1
  0
VERTEX
  5
22A06
330
229F5
100
AcDbEntity
  8
10000_FRONT
  6
Continuous
 62
     7
370
    13
100
AcDbVertex
100
AcDb2dVertex
 10
-79.06844996134146
 20
185.4174765644251
 30
0.0
 42
0.0006837306
  0
VERTEX
  5
22A07
330
229F5
100
AcDbEntity
  8
10000_FRONT
  6
Continuous
 62
     7
370
    13
100
AcDbVertex
100
AcDb2dVertex
 10
-79.06830996134158
 20
185.4148085644253
 30
0.0
 42
0.0006790724
 70
     1
  0
VERTEX
  5
22A08
330
229F5
100
AcDbEntity
  8
10000_FRONT
  6
Continuous
 62
     7
370
    13
100
AcDbVertex
100
AcDb2dVertex
 10
-79.06817996134146
 20
185.4121355644251
 30
0.0
 42
0.0006746062
  0
VERTEX
  5
22A09
330
229F5
100
AcDbEntity
  8
10000_FRONT
  6
Continuous
 62
     7
370
    13
100
AcDbVertex
100
AcDb2dVertex
 10
-79.06802996134159
 20
185.4094565644252
 30
0.0
 42
0.0006703506
 70
     1
  0
VERTEX
  5
22A0A
330
229F5
100
AcDbEntity
  8
10000_FRONT
  6
Continuous
 62
     7
370
    13
100
AcDbVertex
100
AcDb2dVertex
 10
-79.06787996134153
 20
185.4067715644252
 30
0.0
 42
0.000666168
  0
VERTEX
  5
22A0B
330
229F5
100
AcDbEntity
  8
10000_FRONT
  6
Continuous
 62
     7
370
    13
100
AcDbVertex
100
AcDb2dVertex
 10
-79.06771996134171
 20
185.4040815644252
 30
0.0
 42
0.0006621143
 70
     1
  0
VERTEX
  5
22A0C
330
229F5
100
AcDbEntity
  8
10000_FRONT
  6
Continuous
 62
     7
370
    13
100
AcDbVertex
100
AcDb2dVertex
 10
-79.06754996134146
 20
185.4013865644253
 30
0.0
 42
0.0006581442
  0
VERTEX
  5
22A0D
330
229F5
100
AcDbEntity
  8
10000_FRONT
  6
Continuous
 62
     7
370
    13
100
AcDbVertex
100
AcDb2dVertex
 10
-79.06736996134146
 20
185.3986865644253
 30
0.0
 42
0.0006543004
 70
     1
  0
VERTEX
  5
22A0E
330
229F5
100
AcDbEntity
  8
10000_FRONT
  6
Continuous
 62
     7
370
    13
100
AcDbVertex
100
AcDb2dVertex
 10
-79.06718996134145
 20
185.3959805644253
 30
0.0
 42
0.0006505294
  0
VERTEX
  5
22A0F
330
229F5
100
AcDbEntity
  8
10000_FRONT
  6
Continuous
 62
     7
370
    13
100
AcDbVertex
100
AcDb2dVertex
 10
-79.06699996134171
 20
185.3932705644251
 30
0.0
 42
0.00064688
 70
     1
  0
VERTEX
  5
22A10
330
229F5
100
AcDbEntity
  8
10000_FRONT
  6
Continuous
 62
     7
370
    13
100
AcDbVertex
100
AcDb2dVertex
 10
-79.06679996134153
 20
185.3905555644252
 30
0.0
 42
0.000643305
  0
VERTEX
  5
22A11
330
229F5
100
AcDbEntity
  8
10000_FRONT
  6
Continuous
 62
     7
370
    13
100
AcDbVertex
100
AcDb2dVertex
 10
-79.06659996134158
 20
185.3878355644253
 30
0.0
 42
0.0006398496
 70
     1
  0
VERTEX
  5
22A12
330
229F5
100
AcDbEntity
  8
10000_FRONT
  6
Continuous
 62
     7
370
    13
100
AcDbVertex
100
AcDb2dVertex
 10
-79.06637996134145
 20
185.3851115644251
 30
0.0
 42
0.0006364698
  0
VERTEX
  5
22A13
330
229F5
100
AcDbEntity
  8
10000_FRONT
  6
Continuous
 62
     7
370
    13
100
AcDbVertex
100
AcDb2dVertex
 10
-79.06615996134154
 20
185.3823825644253
 30
0.0
 42
0.000633192
 70
     1
  0
VERTEX
  5
22A14
330
229F5
100
AcDbEntity
  8
10000_FRONT
  6
Continuous
 62
     7
370
    13
100
AcDbVertex
100
AcDb2dVertex
 10
-79.06593996134166
 20
185.3796495644252
 30
0.0
 42
0.0006299761
  0
VERTEX
  5
22A15
330
229F5
100
AcDbEntity
  8
10000_FRONT
  6
Continuous
 62
     7
370
    13
100
AcDbVertex
100
AcDb2dVertex
 10
-79.06569996134158
 20
185.3769115644251
 30
0.0
 42
0.0006269097
 70
     1
  0
VERTEX
  5
22A16
330
229F5
100
AcDbEntity
  8
10000_FRONT
  6
Continuous
 62
     7
370
    13
100
AcDbVertex
100
AcDb2dVertex
 10
-79.06545996134148
 20
185.3741705644251
 30
0.0
 42
0.0006239582
  0
VERTEX
  5
22A17
330
229F5
100
AcDbEntity
  8
10000_FRONT
  6
Continuous
 62
     7
370
    13
100
AcDbVertex
100
AcDb2dVertex
 10
-79.06520996134145
 20
185.3714245644252
 30
0.0
 42
0.0006211959
 70
     1
  0
VERTEX
  5
22A18
330
229F5
100
AcDbEntity
  8
10000_FRONT
  6
Continuous
 62
     7
370
    13
100
AcDbVertex
100
AcDb2dVertex
 10
-79.06494996134165
 20
185.3686755644252
 30
0.0
 42
0.0006186204
  0
VERTEX
  5
22A19
330
229F5
100
AcDbEntity
  8
10000_FRONT
  6
Continuous
 62
     7
370
    13
100
AcDbVertex
100
AcDb2dVertex
 10
-79.06468996134162
 20
185.3659225644252
 30
0.0
 42
0.000616079
 70
     1
  0
VERTEX
  5
22A1A
330
229F5
100
AcDbEntity
  8
10000_FRONT
  6
Continuous
 62
     7
370
    13
100
AcDbVertex
100
AcDb2dVertex
 10
-79.06441996134162
 20
185.3631655644253
 30
0.0
 42
0.0006136078
  0
VERTEX
  5
22A1B
330
229F5
100
AcDbEntity
  8
10000_FRONT
  6
Continuous
 62
     7
370
    13
100
AcDbVertex
100
AcDb2dVertex
 10
-79.06413996134165
 20
185.3604045644253
 30
0.0
 42
0.0006111886
 70
     1
  0
VERTEX
  5
22A1C
330
229F5
100
AcDbEntity
  8
10000_FRONT
  6
Continuous
 62
     7
370
    13
100
AcDbVertex
100
AcDb2dVertex
 10
-79.06385996134146
 20
185.3576405644252
 30
0.0
 42
0.0006088562
  0
VERTEX
  5
22A1D
330
229F5
100
AcDbEntity
  8
10000_FRONT
  6
Continuous
 62
     7
370
    13
100
AcDbVertex
100
AcDb2dVertex
 10
-79.06355996134151
 20
185.3548725644252
 30
0.0
 42
0.000606568
 70
     1
  0
VERTEX
  5
22A1E
330
229F5
100
AcDbEntity
  8
10000_FRONT
  6
Continuous
 62
     7
370
    13
100
AcDbVertex
100
AcDb2dVertex
 10
-79.06325996134158
 20
185.3521025644251
 30
0.0
 42
0.0006043627
  0
VERTEX
  5
22A1F
330
229F5
100
AcDbEntity
  8
10000_FRONT
  6
Continuous
 62
     7
370
    13
100
AcDbVertex
100
AcDb2dVertex
 10
-79.06295996134146
 20
185.3493275644252
 30
0.0
 42
0.0006021993
 70
     1
  0
VERTEX
  5
22A20
330
229F5
100
AcDbEntity
  8
10000_FRONT
  6
Continuous
 62
     7
370
    13
100
AcDbVertex
100
AcDb2dVertex
 10
-79.06263996134156
 20
185.3465505644253
 30
0.0
 42
0.0006001201
  0
VERTEX
  5
22A21
330
229F5
100
AcDbEntity
  8
10000_FRONT
  6
Continuous
 62
     7
370
    13
100
AcDbVertex
100
AcDb2dVertex
 10
-79.0623199613417
 20
185.3437705644252
 30
0.0
 42
0.0005980802
 70
     1
  0
VERTEX
  5
22A22
330
229F5
100
AcDbEntity
  8
10000_FRONT
  6
Continuous
 62
     7
370
    13
100
AcDbVertex
100
AcDb2dVertex
 10
-79.06198996134162
 20
185.3409865644252
 30
0.0
 42
0.0005961247
  0
VERTEX
  5
22A23
330
229F5
100
AcDbEntity
  8
10000_FRONT
  6
Continuous
 62
     7
370
    13
100
AcDbVertex
100
AcDb2dVertex
 10
-79.06165996134155
 20
185.3382005644252
 30
0.0
 42
0.0005942044
 70
     1
  0
VERTEX
  5
22A24
330
229F5
100
AcDbEntity
  8
10000_FRONT
  6
Continuous
 62
     7
370
    13
100
AcDbVertex
100
AcDb2dVertex
 10
-79.06130996134152
 20
185.3354115644253
 30
0.0
 42
0.000592369
  0
VERTEX
  5
22A25
330
229F5
100
AcDbEntity
  8
10000_FRONT
  6
Continuous
 62
     7
370
    13
100
AcDbVertex
100
AcDb2dVertex
 10
-79.06095996134148
 20
185.3326195644251
 30
0.0
 42
0.0005905842
 70
     1
  0
VERTEX
  5
22A26
330
229F5
100
AcDbEntity
  8
10000_FRONT
  6
Continuous
 62
     7
370
    13
100
AcDbVertex
100
AcDb2dVertex
 10
-79.06060996134169
 20
185.3298245644252
 30
0.0
 42
0.0005888951
  0
VERTEX
  5
22A27
330
229F5
100
AcDbEntity
  8
10000_FRONT
  6
Continuous
 62
     7
370
    13
100
AcDbVertex
100
AcDb2dVertex
 10
-79.06023996134148
 20
185.3270275644251
 30
0.0
 42
0.0005872756
 70
     1
  0
VERTEX
  5
22A28
330
229F5
100
AcDbEntity
  8
10000_FRONT
  6
Continuous
 62
     7
370
    13
100
AcDbVertex
100
AcDb2dVertex
 10
-79.05986996134152
 20
185.3242285644252
 30
0.0
 42
0.000585788
  0
VERTEX
  5
22A29
330
229F5
100
AcDbEntity
  8
10000_FRONT
  6
Continuous
 62
     7
370
    13
100
AcDbVertex
100
AcDb2dVertex
 10
-79.05948996134156
 20
185.3214265644252
 30
0.0
 42
0.0005840939
 70
     1
  0
VERTEX
  5
22A2A
330
229F5
100
AcDbEntity
  8
10000_FRONT
  6
Continuous
 62
     7
370
    13
100
AcDbVertex
100
AcDb2dVertex
 10
-79.05910996134164
 20
185.3186215644252
 30
0.0
 42
0.0005822904
  0
VERTEX
  5
22A2B
330
229F5
100
AcDbEntity
  8
10000_FRONT
  6
Continuous
 62
     7
370
    13
100
AcDbVertex
100
AcDb2dVertex
 10
-79.05871996134171
 20
185.3158145644251
 30
0.0
 42
0.0005811952
 70
     1
  0
VERTEX
  5
22A2C
330
229F5
100
AcDbEntity
  8
10000_FRONT
  6
Continuous
 62
     7
370
    13
100
AcDbVertex
100
AcDb2dVertex
 10
-79.05831996134157
 20
185.3130055644253
 30
0.0
 42
0.0005807907
  0
VERTEX
  5
22A2D
330
229F5
100
AcDbEntity
  8
10000_FRONT
  6
Continuous
 62
     7
370
    13
100
AcDbVertex
100
AcDb2dVertex
 10
-79.05790996134169
 20
185.3101945644252
 30
0.0
 42
0.0005779058
 70
     1
  0
VERTEX
  5
22A2E
330
229F5
100
AcDbEntity
  8
10000_FRONT
  6
Continuous
 62
     7
370
    13
100
AcDbVertex
100
AcDb2dVertex
 10
-79.05749996134159
 20
185.3073805644253
 30
0.0
 42
0.0005730307
  0
VERTEX
  5
22A2F
330
229F5
100
AcDbEntity
  8
10000_FRONT
  6
Continuous
 62
     7
370
    13
100
AcDbVertex
100
AcDb2dVertex
 10
-79.05707996134151
 20
185.304566564425
 30
0.0
 42
0.0005766201
 70
     1
  0
VERTEX
  5
22A30
330
229F5
100
AcDbEntity
  8
10000_FRONT
  6
Continuous
 62
     7
370
    13
100
AcDbVertex
100
AcDb2dVertex
 10
-79.05664996134169
 20
185.3017475644253
 30
0.0
 42
0.0005869498
  0
VERTEX
  5
22A31
330
229F5
100
AcDbEntity
  8
10000_FRONT
  6
Continuous
 62
     7
370
    13
100
AcDbVertex
100
AcDb2dVertex
 10
-79.05621996134164
 20
185.2989225644252
 30
0.0
 42
0.0005689708
 70
     1
  0
VERTEX
  5
22A32
330
229F5
100
AcDbEntity
  8
10000_FRONT
  6
Continuous
 62
     7
370
    13
100
AcDbVertex
100
AcDb2dVertex
 10
-79.05577996134161
 20
185.2961065644253
 30
0.0
 42
0.000530193
  0
VERTEX
  5
22A33
330
229F5
100
AcDbEntity
  8
10000_FRONT
  6
Continuous
 62
     7
370
    13
100
AcDbVertex
100
AcDb2dVertex
 10
-79.05532996134161
 20
185.2933055644252
 30
0.0
 42
0.000583923
 70
     1
  0
VERTEX
  5
22A34
330
229F5
100
AcDbEntity
  8
10000_FRONT
  6
Continuous
 62
     7
370
    13
100
AcDbVertex
100
AcDb2dVertex
 10
-79.05487996134161
 20
185.2904575644251
 30
0.0
 42
0.0006943977
  0
VERTEX
  5
22A35
330
229F5
100
AcDbEntity
  8
10000_FRONT
  6
Continuous
 62
     7
370
    13
100
AcDbVertex
100
AcDb2dVertex
 10
-79.05439996134169
 20
185.2875405644251
 30
0.0
 42
0.0005259046
 70
     1
  0
VERTEX
  5
22A36
330
229F5
100
AcDbEntity
  8
10000_FRONT
  6
Continuous
 62
     7
370
    13
100
AcDbVertex
100
AcDb2dVertex
 10
-79.05394996134169
 20
185.2848005644252
 30
0.0
 42
0.0001803911
  0
VERTEX
  5
22A37
330
229F5
100
AcDbEntity
  8
10000_FRONT
  6
Continuous
 62
     7
370
    13
100
AcDbVertex
100
AcDb2dVertex
 10
-79.05352996134161
 20
185.2823235644252
 30
0.0
 42
0.0007399991
 70
     1
  0
VERTEX
  5
22A38
330
229F5
100
AcDbEntity
  8
10000_FRONT
  6
Continuous
 62
     7
370
    13
100
AcDbVertex
100
AcDb2dVertex
 10
-79.05298996134161
 20
185.2791385644252
 30
0.0
 42
0.0012687327
  0
VERTEX
  5
22A39
330
229F5
100
AcDbEntity
  8
10000_FRONT
  6
Continuous
 62
     7
370
    13
100
AcDbVertex
100
AcDb2dVertex
 10
-79.05212996134149
 20
185.2742275644252
 30
0.0
 42
0.0006184114
 70
     1
  0
VERTEX
  5
22A3A
330
229F5
100
AcDbEntity
  8
10000_FRONT
  6
Continuous
 62
     7
370
    13
100
AcDbVertex
100
AcDb2dVertex
 10
-79.05098996134166
 20
185.267794564425
 30
0.0
 42
0.0003272358
  0
SEQEND
  5
22A3B
330
229F5
100
AcDbEntity
  8
10000_FRONT
  6
Continuous
 62
     7
370
    13
  0
POLYLINE
  5
22A3C
330
1F
100
AcDbEntity
  8
10000_FRONT
  6
Continuous
 62
     7
370
    13
100
AcDb2dPolyline
 66
     1
 10
0.0
 20
0.0
 30
0.0
 70
     2
  0
VERTEX
  5
22A3D
330
22A3C
100
AcDbEntity
  8
10000_FRONT
  6
Continuous
 62
     7
370
    13
100
AcDbVertex
100
AcDb2dVertex
 10
-79.05098996134166
 20
185.267794564425
 30
0.0
  0
VERTEX
  5
22A3E
330
22A3C
100
AcDbEntity
  8
10000_FRONT
  6
Continuous
 62
     7
370
    13
100
AcDbVertex
100
AcDb2dVertex
 10
-79.05120996134154
 20
185.2663355644251
 30
0.0
 42
0.0024866226
 70
     1
  0
VERTEX
  5
22A3F
330
22A3C
100
AcDbEntity
  8
10000_FRONT
  6
Continuous
 62
     7
370
    13
100
AcDbVertex
100
AcDb2dVertex
 10
-79.05140996134149
 20
185.2648765644253
 30
0.0
 42
0.002492081
  0
VERTEX
  5
22A40
330
22A3C
100
AcDbEntity
  8
10000_FRONT
  6
Continuous
 62
     7
370
    13
100
AcDbVertex
100
AcDb2dVertex
 10
-79.05159996134148
 20
185.2634175644252
 30
0.0
 42
0.0024991847
 70
     1
  0
VERTEX
  5
22A41
330
22A3C
100
AcDbEntity
  8
10000_FRONT
  6
Continuous
 62
     7
370
    13
100
AcDbVertex
100
AcDb2dVertex
 10
-79.05176996134152
 20
185.2619585644251
 30
0.0
 42
0.0025084782
  0
VERTEX
  5
22A42
330
22A3C
100
AcDbEntity
  8
10000_FRONT
  6
Continuous
 62
     7
370
    13
100
AcDbVertex
100
AcDb2dVertex
 10
-79.05192996134156
 20
185.2604995644253
 30
0.0
 42
0.002516889
 70
     1
  0
VERTEX
  5
22A43
330
22A3C
100
AcDbEntity
  8
10000_FRONT
  6
Continuous
 62
     7
370
    13
100
AcDbVertex
100
AcDb2dVertex
 10
-79.05206996134165
 20
185.2590405644252
 30
0.0
 42
0.002524329
  0
VERTEX
  5
22A44
330
22A3C
100
AcDbEntity
  8
10000_FRONT
  6
Continuous
 62
     7
370
    13
100
AcDbVertex
100
AcDb2dVertex
 10
-79.05219996134156
 20
185.2575825644252
 30
0.0
 42
0.0025315992
 70
     1
  0
VERTEX
  5
22A45
330
22A3C
100
AcDbEntity
  8
10000_FRONT
  6
Continuous
 62
     7
370
    13
100
AcDbVertex
100
AcDb2dVertex
 10
-79.05230996134149
 20
185.2561235644252
 30
0.0
 42
0.002538672
  0
VERTEX
  5
22A46
330
22A3C
100
AcDbEntity
  8
10000_FRONT
  6
Continuous
 62
     7
370
    13
100
AcDbVertex
100
AcDb2dVertex
 10
-79.05240996134148
 20
185.2546655644252
 30
0.0
 42
0.0025456797
 70
     1
  0
VERTEX
  5
22A47
330
22A3C
100
AcDbEntity
  8
10000_FRONT
  6
Continuous
 62
     7
370
    13
100
AcDbVertex
100
AcDb2dVertex
 10
-79.05248996134152
 20
185.2532085644251
 30
0.0
 42
0.002552477
  0
VERTEX
  5
22A48
330
22A3C
100
AcDbEntity
  8
10000_FRONT
  6
Continuous
 62
     7
370
    13
100
AcDbVertex
100
AcDb2dVertex
 10
-79.05255996134155
 20
185.2517525644252
 30
0.0
 42
0.0025581776
 70
     1
  0
VERTEX
  5
22A49
330
22A3C
100
AcDbEntity
  8
10000_FRONT
  6
Continuous
 62
     7
370
    13
100
AcDbVertex
100
AcDb2dVertex
 10
-79.05260996134166
 20
185.2502965644252
 30
0.0
 42
0.0025626626
  0
VERTEX
  5
22A4A
330
22A3C
100
AcDbEntity
  8
10000_FRONT
  6
Continuous
 62
     7
370
    13
100
AcDbVertex
100
AcDb2dVertex
 10
-79.05264996134156
 20
185.248841564425
 30
0.0
 42
0.002570055
 70
     1
  0
VERTEX
  5
22A4B
330
22A3C
100
AcDbEntity
  8
10000_FRONT
  6
Continuous
 62
     7
370
    13
100
AcDbVertex
100
AcDb2dVertex
 10
-79.05266996134151
 20
185.2473885644253
 30
0.0
 42
0.002579731
  0
VERTEX
  5
22A4C
330
22A3C
100
AcDbEntity
  8
10000_FRONT
  6
Continuous
 62
     7
370
    13
100
AcDbVertex
100
AcDb2dVertex
 10
-79.05267996134148
 20
185.2459355644252
 30
0.0
 42
0.0025782657
 70
     1
  0
VERTEX
  5
22A4D
330
22A3C
100
AcDbEntity
  8
10000_FRONT
  6
Continuous
 62
     7
370
    13
100
AcDbVertex
100
AcDb2dVertex
 10
-79.05266996134151
 20
185.2444845644251
 30
0.0
 42
0.0025669659
  0
VERTEX
  5
22A4E
330
22A3C
100
AcDbEntity
  8
10000_FRONT
  6
Continuous
 62
     7
370
    13
100
AcDbVertex
100
AcDb2dVertex
 10
-79.05264996134156
 20
185.2430355644252
 30
0.0
 42
0.0025933257
 70
     1
  0
VERTEX
  5
22A4F
330
22A3C
100
AcDbEntity
  8
10000_FRONT
  6
Continuous
 62
     7
370
    13
100
AcDbVertex
100
AcDb2dVertex
 10
-79.05260996134166
 20
185.2415865644251
 30
0.0
 42
0.0026494344
  0
VERTEX
  5
22A50
330
22A3C
100
AcDbEntity
  8
10000_FRONT
  6
Continuous
 62
     7
370
    13
100
AcDbVertex
100
AcDb2dVertex
 10
-79.05255996134155
 20
185.2401365644252
 30
0.0
 42
0.002578081
 70
     1
  0
VERTEX
  5
22A51
330
22A3C
100
AcDbEntity
  8
10000_FRONT
  6
Continuous
 62
     7
370
    13
100
AcDbVertex
100
AcDb2dVertex
 10
-79.05248996134152
 20
185.2386945644252
 30
0.0
 42
0.0024105679
  0
VERTEX
  5
22A52
330
22A3C
100
AcDbEntity
  8
10000_FRONT
  6
Continuous
 62
     7
370
    13
100
AcDbVertex
100
AcDb2dVertex
 10
-79.05240996134148
 20
185.2372625644252
 30
0.0
 42
0.0026621428
 70
     1
  0
VERTEX
  5
22A53
330
22A3C
100
AcDbEntity
  8
10000_FRONT
  6
Continuous
 62
     7
370
    13
100
AcDbVertex
100
AcDb2dVertex
 10
-79.05230996134149
 20
185.2358095644253
 30
0.0
 42
0.003174656
  0
VERTEX
  5
22A54
330
22A3C
100
AcDbEntity
  8
10000_FRONT
  6
Continuous
 62
     7
370
    13
100
AcDbVertex
100
AcDb2dVertex
 10
-79.05218996134158
 20
185.2343255644252
 30
0.0
 42
0.0024142177
 70
     1
  0
VERTEX
  5
22A55
330
22A3C
100
AcDbEntity
  8
10000_FRONT
  6
Continuous
 62
     7
370
    13
100
AcDbVertex
100
AcDb2dVertex
 10
-79.05206996134165
 20
185.2329325644252
 30
0.0
 42
0.0008341
  0
VERTEX
  5
22A56
330
22A3C
100
AcDbEntity
  8
10000_FRONT
  6
Continuous
 62
     7
370
    13
100
AcDbVertex
100
AcDb2dVertex
 10
-79.05194996134149
 20
185.2316755644253
 30
0.0
 42
0.003403117
 70
     1
  0
VERTEX
  5
22A57
330
22A3C
100
AcDbEntity
  8
10000_FRONT
  6
Continuous
 62
     7
370
    13
100
AcDbVertex
100
AcDb2dVertex
 10
-79.05176996134152
 20
185.2300655644252
 30
0.0
 42
0.0058597136
  0
VERTEX
  5
22A58
330
22A3C
100
AcDbEntity
  8
10000_FRONT
  6
Continuous
 62
     7
370
    13
100
AcDbVertex
100
AcDb2dVertex
 10
-79.05143996134166
 20
185.227593564425
 30
0.0
 42
0.0028695648
 70
     1
  0
VERTEX
  5
22A59
330
22A3C
100
AcDbEntity
  8
10000_FRONT
  6
Continuous
 62
     7
370
    13
100
AcDbVertex
100
AcDb2dVertex
 10
-79.05098996134166
 20
185.2243605644252
 30
0.0
 42
0.001521979
  0
SEQEND
  5
22A5A
330
22A3C
100
AcDbEntity
  8
10000_FRONT
  6
Continuous
 62
     7
370
    13
  0
POLYLINE
  5
22A5B
330
1F
100
AcDbEntity
  8
10000_FRONT
  6
Continuous
 62
     7
370
    13
100
AcDb2dPolyline
 66
     1
 10
0.0
 20
0.0
 30
0.0
 70
     2
  0
VERTEX
  5
22A5C
330
22A5B
100
AcDbEntity
  8
10000_FRONT
  6
Continuous
 62
     7
370
    13
100
AcDbVertex
100
AcDb2dVertex
 10
-79.06947996134158
 20
185.4591385644252
 30
0.0
  0
VERTEX
  5
22A5D
330
22A5B
100
AcDbEntity
  8
10000_FRONT
  6
Continuous
 62
     7
370
    13
100
AcDbVertex
100
AcDb2dVertex
 10
-79.06947996134158
 20
185.4585535644252
 30
0.0
 42
0.0000740059
 70
     1
  0
VERTEX
  5
22A5E
330
22A5B
100
AcDbEntity
  8
10000_FRONT
  6
Continuous
 62
     7
370
    13
100
AcDbVertex
100
AcDb2dVertex
 10
-79.06947996134158
 20
185.4579705644252
 30
0.0
 42
0.0000744454
  0
VERTEX
  5
22A5F
330
22A5B
100
AcDbEntity
  8
10000_FRONT
  6
Continuous
 62
     7
370
    13
100
AcDbVertex
100
AcDb2dVertex
 10
-79.06947996134158
 20
185.4573895644252
 30
0.0
 42
0.0000748532
 70
     1
  0
VERTEX
  5
22A60
330
22A5B
100
AcDbEntity
  8
10000_FRONT
  6
Continuous
 62
     7
370
    13
100
AcDbVertex
100
AcDb2dVertex
 10
-79.06947996134158
 20
185.4568105644252
 30
0.0
 42
0.0000751622
  0
VERTEX
  5
22A61
330
22A5B
100
AcDbEntity
  8
10000_FRONT
  6
Continuous
 62
     7
370
    13
100
AcDbVertex
100
AcDb2dVertex
 10
-79.06946996134161
 20
185.4562315644252
 30
0.0
 42
0.000075495
 70
     1
  0
VERTEX
  5
22A62
330
22A5B
100
AcDbEntity
  8
10000_FRONT
  6
Continuous
 62
     7
370
    13
100
AcDbVertex
100
AcDb2dVertex
 10
-79.06946996134161
 20
185.4556555644253
 30
0.0
 42
0.000075804
  0
VERTEX
  5
22A63
330
22A5B
100
AcDbEntity
  8
10000_FRONT
  6
Continuous
 62
     7
370
    13
100
AcDbVertex
100
AcDb2dVertex
 10
-79.06946996134161
 20
185.4550805644252
 30
0.0
 42
0.0000761188
 70
     1
  0
VERTEX
  5
22A64
330
22A5B
100
AcDbEntity
  8
10000_FRONT
  6
Continuous
 62
     7
370
    13
100
AcDbVertex
100
AcDb2dVertex
 10
-79.06946996134161
 20
185.454506564425
 30
0.0
 42
0.0000763856
  0
VERTEX
  5
22A65
330
22A5B
100
AcDbEntity
  8
10000_FRONT
  6
Continuous
 62
     7
370
    13
100
AcDbVertex
100
AcDb2dVertex
 10
-79.06946996134161
 20
185.4539345644252
 30
0.0
 42
0.000076664
 70
     1
  0
VERTEX
  5
22A66
330
22A5B
100
AcDbEntity
  8
10000_FRONT
  6
Continuous
 62
     7
370
    13
100
AcDbVertex
100
AcDb2dVertex
 10
-79.06945996134163
 20
185.453363564425
 30
0.0
 42
0.0000768996
  0
VERTEX
  5
22A67
330
22A5B
100
AcDbEntity
  8
10000_FRONT
  6
Continuous
 62
     7
370
    13
100
AcDbVertex
100
AcDb2dVertex
 10
-79.06945996134163
 20
185.4527935644252
 30
0.0
 42
0.0000771452
 70
     1
  0
VERTEX
  5
22A68
330
22A5B
100
AcDbEntity
  8
10000_FRONT
  6
Continuous
 62
     7
370
    13
100
AcDbVertex
100
AcDb2dVertex
 10
-79.06945996134163
 20
185.4522255644253
 30
0.0
 42
0.0000773451
  0
VERTEX
  5
22A69
330
22A5B
100
AcDbEntity
  8
10000_FRONT
  6
Continuous
 62
     7
370
    13
100
AcDbVertex
100
AcDb2dVertex
 10
-79.06945996134163
 20
185.4516585644253
 30
0.0
 42
0.0000775557
 70
     1
  0
VERTEX
  5
22A6A
330
22A5B
100
AcDbEntity
  8
10000_FRONT
  6
Continuous
 62
     7
370
    13
100
AcDbVertex
100
AcDb2dVertex
 10
-79.06944996134166
 20
185.4510915644252
 30
0.0
 42
0.0000777194
  0
VERTEX
  5
22A6B
330
22A5B
100
AcDbEntity
  8
10000_FRONT
  6
Continuous
 62
     7
370
    13
100
AcDbVertex
100
AcDb2dVertex
 10
-79.06944996134166
 20
185.4505265644251
 30
0.0
 42
0.0000778947
 70
     1
  0
VERTEX
  5
22A6C
330
22A5B
100
AcDbEntity
  8
10000_FRONT
  6
Continuous
 62
     7
370
    13
100
AcDbVertex
100
AcDb2dVertex
 10
-79.06944996134166
 20
185.449962564425
 30
0.0
 42
0.0000780226
  0
VERTEX
  5
22A6D
330
22A5B
100
AcDbEntity
  8
10000_FRONT
  6
Continuous
 62
     7
370
    13
100
AcDbVertex
100
AcDb2dVertex
 10
-79.06943996134145
 20
185.4494005644252
 30
0.0
 42
0.0000781593
 70
     1
  0
VERTEX
  5
22A6E
330
22A5B
100
AcDbEntity
  8
10000_FRONT
  6
Continuous
 62
     7
370
    13
100
AcDbVertex
100
AcDb2dVertex
 10
-79.06943996134145
 20
185.448837564425
 30
0.0
 42
0.0000782454
  0
VERTEX
  5
22A6F
330
22A5B
100
AcDbEntity
  8
10000_FRONT
  6
Continuous
 62
     7
370
    13
100
AcDbVertex
100
AcDb2dVertex
 10
-79.06943996134145
 20
185.4482765644251
 30
0.0
 42
0.0000783502
 70
     1
  0
VERTEX
  5
22A70
330
22A5B
100
AcDbEntity
  8
10000_FRONT
  6
Continuous
 62
     7
370
    13
100
AcDbVertex
100
AcDb2dVertex
 10
-79.06942996134171
 20
185.4477165644252
 30
0.0
 42
0.0000784121
  0
VERTEX
  5
22A71
330
22A5B
100
AcDbEntity
  8
10000_FRONT
  6
Continuous
 62
     7
370
    13
100
AcDbVertex
100
AcDb2dVertex
 10
-79.06942996134171
 20
185.4471575644251
 30
0.0
 42
0.000078459
 70
     1
  0
VERTEX
  5
22A72
330
22A5B
100
AcDbEntity
  8
10000_FRONT
  6
Continuous
 62
     7
370
    13
100
AcDbVertex
100
AcDb2dVertex
 10
-79.06942996134171
 20
185.4465985644253
 30
0.0
 42
0.0000784314
  0
VERTEX
  5
22A73
330
22A5B
100
AcDbEntity
  8
10000_FRONT
  6
Continuous
 62
     7
370
    13
100
AcDbVertex
100
AcDb2dVertex
 10
-79.0694199613415
 20
185.4460405644251
 30
0.0
 42
0.0000785097
 70
     1
  0
VERTEX
  5
22A74
330
22A5B
100
AcDbEntity
  8
10000_FRONT
  6
Continuous
 62
     7
370
    13
100
AcDbVertex
100
AcDb2dVertex
 10
-79.0694199613415
 20
185.4454835644252
 30
0.0
 42
0.0000786189
  0
VERTEX
  5
22A75
330
22A5B
100
AcDbEntity
  8
10000_FRONT
  6
Continuous
 62
     7
370
    13
100
AcDbVertex
100
AcDb2dVertex
 10
-79.06940996134153
 20
185.4449265644252
 30
0.0
 42
0.0000784116
 70
     1
  0
VERTEX
  5
22A76
330
22A5B
100
AcDbEntity
  8
10000_FRONT
  6
Continuous
 62
     7
370
    13
100
AcDbVertex
100
AcDb2dVertex
 10
-79.06940996134153
 20
185.4443705644252
 30
0.0
 42
0.000077875
  0
VERTEX
  5
22A77
330
22A5B
100
AcDbEntity
  8
10000_FRONT
  6
Continuous
 62
     7
370
    13
100
AcDbVertex
100
AcDb2dVertex
 10
-79.06939996134155
 20
185.4438155644252
 30
0.0
 42
0.000078482
 70
     1
  0
VERTEX
  5
22A78
330
22A5B
100
AcDbEntity
  8
10000_FRONT
  6
Continuous
 62
     7
370
    13
100
AcDbVertex
100
AcDb2dVertex
 10
-79.06939996134155
 20
185.4432605644253
 30
0.0
 42
0.0000799341
  0
VERTEX
  5
22A79
330
22A5B
100
AcDbEntity
  8
10000_FRONT
  6
Continuous
 62
     7
370
    13
100
AcDbVertex
100
AcDb2dVertex
 10
-79.06938996134158
 20
185.4427045644251
 30
0.0
 42
0.0000776067
 70
     1
  0
VERTEX
  5
22A7A
330
22A5B
100
AcDbEntity
  8
10000_FRONT
  6
Continuous
 62
     7
370
    13
100
AcDbVertex
100
AcDb2dVertex
 10
-79.06937996134161
 20
185.4421515644252
 30
0.0
 42
0.0000724079
  0
VERTEX
  5
22A7B
330
22A5B
100
AcDbEntity
  8
10000_FRONT
  6
Continuous
 62
     7
370
    13
100
AcDbVertex
100
AcDb2dVertex
 10
-79.06937996134161
 20
185.4416015644253
 30
0.0
 42
0.0000796596
 70
     1
  0
VERTEX
  5
22A7C
330
22A5B
100
AcDbEntity
  8
10000_FRONT
  6
Continuous
 62
     7
370
    13
100
AcDbVertex
100
AcDb2dVertex
 10
-79.06936996134163
 20
185.4410435644251
 30
0.0
 42
0.000094523
  0
VERTEX
  5
22A7D
330
22A5B
100
AcDbEntity
  8
10000_FRONT
  6
Continuous
 62
     7
370
    13
100
AcDbVertex
100
AcDb2dVertex
 10
-79.06936996134163
 20
185.4404735644252
 30
0.0
 42
0.0000718092
 70
     1
  0
VERTEX
  5
22A7E
330
22A5B
100
AcDbEntity
  8
10000_FRONT
  6
Continuous
 62
     7
370
    13
100
AcDbVertex
100
AcDb2dVertex
 10
-79.06935996134166
 20
185.4399375644252
 30
0.0
 42
0.0000251309
  0
VERTEX
  5
22A7F
330
22A5B
100
AcDbEntity
  8
10000_FRONT
  6
Continuous
 62
     7
370
    13
100
AcDbVertex
100
AcDb2dVertex
 10
-79.06935996134166
 20
185.4394535644252
 30
0.0
 42
0.0001005036
 70
     1
  0
VERTEX
  5
22A80
330
22A5B
100
AcDbEntity
  8
10000_FRONT
  6
Continuous
 62
     7
370
    13
100
AcDbVertex
100
AcDb2dVertex
 10
-79.06934996134146
 20
185.4388315644252
 30
0.0
 42
0.0001717949
  0
VERTEX
  5
22A81
330
22A5B
100
AcDbEntity
  8
10000_FRONT
  6
Continuous
 62
     7
370
    13
100
AcDbVertex
100
AcDb2dVertex
 10
-79.06933996134171
 20
185.4378745644252
 30
0.0
 42
0.0000839369
 70
     1
  0
VERTEX
  5
22A82
330
22A5B
100
AcDbEntity
  8
10000_FRONT
  6
Continuous
 62
     7
370
    13
100
AcDbVertex
100
AcDb2dVertex
 10
-79.06931996134153
 20
185.4366215644251
 30
0.0
 42
0.0000445563
  0
SEQEND
  5
22A83
330
22A5B
100
AcDbEntity
  8
10000_FRONT
  6
Continuous
 62
     7
370
    13
  0
CIRCLE
  5
22A84
102
{ACAD_REACTORS
330
22E2E
102
}
330
1F
100
AcDbEntity
  8
10000_FRONT
  6
Continuous
 62
     7
370
    13
100
AcDbCircle
 10
-44.1692599613416
 20
264.2591245644252
 30
0.0
 40
3.0
  0
LINE
  5
22A85
102
{ACAD_REACTORS
330
22E00
102
}
330
1F
100
AcDbEntity
  8
10000_FRONT
  6
Continuous
 62
     7
370
    50
100
AcDbLine
 10
-39.53528996134151
 20
269.2591245644252
 30
0.0
 11
-48.80323996134142
 21
269.2591245644252
 31
0.0
  0
LINE
  5
22A86
330
1F
100
AcDbEntity
  8
10000_FRONT
  6
Continuous
 62
     7
370
    50
100
AcDbLine
 10
-49.23624996134162
 20
269.0091245644252
 30
0.0
 11
-49.60227996134154
 21
268.3751545644252
 31
0.0
  0
LINE
  5
22A87
330
1F
100
AcDbEntity
  8
10000_FRONT
  6
Continuous
 62
     7
370
    50
100
AcDbLine
 10
-38.73624996134164
 20
268.3751545644252
 30
0.0
 11
-39.10227996134154
 21
269.0091245644252
 31
0.0
  0
LINE
  5
22A88
330
1F
100
AcDbEntity
  8
10000_FRONT
  6
Continuous
 62
     7
370
     5
100
AcDbLine
 10
-47.9192599613416
 20
254.6591245644251
 30
0.0
 11
-47.9192599613416
 21
255.0591245644252
 31
0.0
  0
LINE
  5
22A89
330
1F
100
AcDbEntity
  8
10000_FRONT
  6
Continuous
 62
     7
370
     5
100
AcDbLine
 10
-40.4192599613416
 20
255.0591245644252
 30
0.0
 11
-40.4192599613416
 21
254.6591245644251
 31
0.0
  0
LINE
  5
22A8A
330
1F
100
AcDbEntity
  8
10000_FRONT
  6
Continuous
 62
     7
370
     5
100
AcDbLine
 10
-47.9192599613416
 20
255.5591245644252
 30
0.0
 11
-47.9192599613416
 21
255.9591245644253
 31
0.0
  0
LINE
  5
22A8B
330
1F
100
AcDbEntity
  8
10000_FRONT
  6
Continuous
 62
     7
370
     5
100
AcDbLine
 10
-40.4192599613416
 20
255.9591245644253
 30
0.0
 11
-40.4192599613416
 21
255.5591245644252
 31
0.0
  0
LINE
  5
22A8C
330
1F
100
AcDbEntity
  8
10000_FRONT
  6
Continuous
 62
     7
370
     5
100
AcDbLine
 10
-47.9192599613416
 20
256.4591245644253
 30
0.0
 11
-47.9192599613416
 21
256.8591245644252
 31
0.0
  0
LINE
  5
22A8D
330
1F
100
AcDbEntity
  8
10000_FRONT
  6
Continuous
 62
     7
370
     5
100
AcDbLine
 10
-40.4192599613416
 20
256.8591245644252
 30
0.0
 11
-40.4192599613416
 21
256.4591245644253
 31
0.0
  0
LINE
  5
22A8E
330
1F
100
AcDbEntity
  8
10000_FRONT
  6
Continuous
 62
     7
370
     5
100
AcDbLine
 10
-47.9192599613416
 20
257.3591245644252
 30
0.0
 11
-47.9192599613416
 21
257.7591245644252
 31
0.0
  0
LINE
  5
22A8F
330
1F
100
AcDbEntity
  8
10000_FRONT
  6
Continuous
 62
     7
370
     5
100
AcDbLine
 10
-40.4192599613416
 20
257.7591245644252
 30
0.0
 11
-40.4192599613416
 21
257.3591245644252
 31
0.0
  0
LINE
  5
22A90
330
1F
100
AcDbEntity
  8
10000_FRONT
  6
Continuous
 62
     7
370
     5
100
AcDbLine
 10
-47.9192599613416
 20
258.2591245644252
 30
0.0
 11
-47.9192599613416
 21
258.6591245644251
 31
0.0
  0
LINE
  5
22A91
330
1F
100
AcDbEntity
  8
10000_FRONT
  6
Continuous
 62
     7
370
     5
100
AcDbLine
 10
-40.4192599613416
 20
258.6591245644251
 30
0.0
 11
-40.4192599613416
 21
258.2591245644252
 31
0.0
  0
LINE
  5
22A92
330
1F
100
AcDbEntity
  8
10000_FRONT
  6
Continuous
 62
     7
370
     5
100
AcDbLine
 10
-47.9192599613416
 20
259.1591245644251
 30
0.0
 11
-47.9192599613416
 21
259.5591245644252
 31
0.0
  0
LINE
  5
22A93
330
1F
100
AcDbEntity
  8
10000_FRONT
  6
Continuous
 62
     7
370
     5
100
AcDbLine
 10
-40.4192599613416
 20
259.5591245644252
 30
0.0
 11
-40.4192599613416
 21
259.1591245644251
 31
0.0
  0
LINE
  5
22A94
330
1F
100
AcDbEntity
  8
10000_FRONT
  6
Continuous
 62
     7
370
     5
100
AcDbLine
 10
-47.9192599613416
 20
260.0591245644252
 30
0.0
 11
-47.9192599613416
 21
260.4591245644253
 31
0.0
  0
LINE
  5
22A95
330
1F
100
AcDbEntity
  8
10000_FRONT
  6
Continuous
 62
     7
370
     5
100
AcDbLine
 10
-40.4192599613416
 20
260.4591245644253
 30
0.0
 11
-40.4192599613416
 21
260.0591245644252
 31
0.0
  0
LINE
  5
22A96
330
1F
100
AcDbEntity
  8
10000_FRONT
  6
Continuous
 62
     7
370
    50
100
AcDbLine
 10
-38.6692599613416
 20
252.4591245644253
 30
0.0
 11
-38.6692599613416
 21
268.1251545644252
 31
0.0
  0
LINE
  5
22A97
330
1F
100
AcDbEntity
  8
10000_FRONT
  6
Continuous
 62
     7
370
    50
100
AcDbLine
 10
-49.66925996134158
 20
268.1251545644252
 30
0.0
 11
-49.66925996134158
 21
252.4591245644253
 31
0.0
  0
ARC
  5
22A98
330
1F
100
AcDbEntity
  8
10000_FRONT
  6
Continuous
 62
     7
370
    50
100
AcDbCircle
 10
-39.53528996134151
 20
268.7591245644252
 30
0.0
 40
0.5
100
AcDbArc
 50
30.00000499999583
 51
90.00000500000046
  0
ARC
  5
22A99
330
1F
100
AcDbEntity
  8
10000_FRONT
  6
Continuous
 62
     7
370
    50
100
AcDbCircle
 10
-48.80323996134142
 20
268.7591245644252
 30
0.0
 40
0.5
100
AcDbArc
 50
90.00000500000046
 51
150.0000100000074
  0
ARC
  5
22A9A
330
1F
100
AcDbEntity
  8
10000_FRONT
  6
Continuous
 62
     7
370
    50
100
AcDbCircle
 10
-49.1692599613416
 20
268.1251545644252
 30
0.0
 40
0.5
100
AcDbArc
 50
150.0000100000074
 51
180.0000100000009
  0
ARC
  5
22A9B
330
1F
100
AcDbEntity
  8
10000_FRONT
  6
Continuous
 62
     7
370
    50
100
AcDbCircle
 10
-39.1692599613416
 20
268.1251545644252
 30
0.0
 40
0.5
100
AcDbArc
 50
0.0000050090025416
 51
30.00000499999583
  0
LINE
  5
22A9C
330
1F
100
AcDbEntity
  8
10000_FRONT
  6
Continuous
 62
     7
370
     5
100
AcDbLine
 10
-47.9192599613416
 20
255.0591245644252
 30
0.0
 11
-40.4192599613416
 21
255.0591245644252
 31
0.0
  0
LINE
  5
22A9D
330
1F
100
AcDbEntity
  8
10000_FRONT
  6
Continuous
 62
     7
370
     5
100
AcDbLine
 10
-40.4192599613416
 20
254.6591245644251
 30
0.0
 11
-47.9192599613416
 21
254.6591245644251
 31
0.0
  0
LINE
  5
22A9E
330
1F
100
AcDbEntity
  8
10000_FRONT
  6
Continuous
 62
     7
370
     5
100
AcDbLine
 10
-47.9192599613416
 20
255.9591245644253
 30
0.0
 11
-40.4192599613416
 21
255.9591245644253
 31
0.0
  0
LINE
  5
22A9F
330
1F
100
AcDbEntity
  8
10000_FRONT
  6
Continuous
 62
     7
370
     5
100
AcDbLine
 10
-40.4192599613416
 20
255.5591245644252
 30
0.0
 11
-47.9192599613416
 21
255.5591245644252
 31
0.0
  0
LINE
  5
22AA0
330
1F
100
AcDbEntity
  8
10000_FRONT
  6
Continuous
 62
     7
370
     5
100
AcDbLine
 10
-47.9192599613416
 20
256.8591245644252
 30
0.0
 11
-40.4192599613416
 21
256.8591245644252
 31
0.0
  0
LINE
  5
22AA1
330
1F
100
AcDbEntity
  8
10000_FRONT
  6
Continuous
 62
     7
370
     5
100
AcDbLine
 10
-40.4192599613416
 20
256.4591245644253
 30
0.0
 11
-47.9192599613416
 21
256.4591245644253
 31
0.0
  0
LINE
  5
22AA2
330
1F
100
AcDbEntity
  8
10000_FRONT
  6
Continuous
 62
     7
370
     5
100
AcDbLine
 10
-47.9192599613416
 20
257.7591245644252
 30
0.0
 11
-40.4192599613416
 21
257.7591245644252
 31
0.0
  0
LINE
  5
22AA3
330
1F
100
AcDbEntity
  8
10000_FRONT
  6
Continuous
 62
     7
370
     5
100
AcDbLine
 10
-40.4192599613416
 20
257.3591245644252
 30
0.0
 11
-47.9192599613416
 21
257.3591245644252
 31
0.0
  0
LINE
  5
22AA4
330
1F
100
AcDbEntity
  8
10000_FRONT
  6
Continuous
 62
     7
370
     5
100
AcDbLine
 10
-47.9192599613416
 20
258.6591245644251
 30
0.0
 11
-40.4192599613416
 21
258.6591245644251
 31
0.0
  0
LINE
  5
22AA5
330
1F
100
AcDbEntity
  8
10000_FRONT
  6
Continuous
 62
     7
370
     5
100
AcDbLine
 10
-40.4192599613416
 20
258.2591245644252
 30
0.0
 11
-47.9192599613416
 21
258.2591245644252
 31
0.0
  0
LINE
  5
22AA6
330
1F
100
AcDbEntity
  8
10000_FRONT
  6
Continuous
 62
     7
370
     5
100
AcDbLine
 10
-47.9192599613416
 20
259.5591245644252
 30
0.0
 11
-40.4192599613416
 21
259.5591245644252
 31
0.0
  0
LINE
  5
22AA7
330
1F
100
AcDbEntity
  8
10000_FRONT
  6
Continuous
 62
     7
370
     5
100
AcDbLine
 10
-40.4192599613416
 20
259.1591245644251
 30
0.0
 11
-47.9192599613416
 21
259.1591245644251
 31
0.0
  0
LINE
  5
22AA8
330
1F
100
AcDbEntity
  8
10000_FRONT
  6
Continuous
 62
     7
370
     5
100
AcDbLine
 10
-47.9192599613416
 20
260.4591245644253
 30
0.0
 11
-40.4192599613416
 21
260.4591245644253
 31
0.0
  0
LINE
  5
22AA9
330
1F
100
AcDbEntity
  8
10000_FRONT
  6
Continuous
 62
     7
370
     5
100
AcDbLine
 10
-40.4192599613416
 20
260.0591245644252
 30
0.0
 11
-47.9192599613416
 21
260.0591245644252
 31
0.0
  0
ARC
  5
22AAA
330
1F
100
AcDbEntity
  8
10000_FRONT
  6
Continuous
 62
     7
370
    50
100
AcDbCircle
 10
-61.6692599613416
 20
268.1251545644252
 30
0.0
 40
0.5
100
AcDbArc
 50
0.0
 51
29.9999999999965
  0
ARC
  5
22AAB
330
1F
100
AcDbEntity
  8
10000_FRONT
  6
Continuous
 62
     7
370
    50
100
AcDbCircle
 10
-71.6692599613416
 20
268.1251545644252
 30
0.0
 40
0.5
100
AcDbArc
 50
150.0000000000035
 51
180.0
  0
ARC
  5
22AAC
330
1F
100
AcDbEntity
  8
10000_FRONT
  6
Continuous
 62
     7
370
    50
100
AcDbCircle
 10
-71.30323996134143
 20
268.7591245644252
 30
0.0
 40
0.5
100
AcDbArc
 50
90.0
 51
150.0000000000035
  0
ARC
  5
22AAD
330
1F
100
AcDbEntity
  8
10000_FRONT
  6
Continuous
 62
     7
370
    50
100
AcDbCircle
 10
-62.03528996134149
 20
268.7591245644252
 30
0.0
 40
0.5
100
AcDbArc
 50
29.9999999999965
 51
90.0
  0
LINE
  5
22AAE
330
1F
100
AcDbEntity
  8
10000_FRONT
  6
Continuous
 62
     7
370
    50
100
AcDbLine
 10
-61.1692599613416
 20
252.4591245644253
 30
0.0
 11
-61.1692599613416
 21
268.1251545644252
 31
0.0
  0
LINE
  5
22AAF
330
1F
100
AcDbEntity
  8
10000_FRONT
  6
Continuous
 62
     7
370
     5
100
AcDbLine
 10
-62.9192599613416
 20
260.4591245644253
 30
0.0
 11
-62.9192599613416
 21
260.0591245644252
 31
0.0
  0
LINE
  5
22AB0
330
1F
100
AcDbEntity
  8
10000_FRONT
  6
Continuous
 62
     7
370
     5
100
AcDbLine
 10
-70.4192599613416
 20
260.0591245644252
 30
0.0
 11
-70.4192599613416
 21
260.4591245644253
 31
0.0
  0
LINE
  5
22AB1
330
1F
100
AcDbEntity
  8
10000_FRONT
  6
Continuous
 62
     7
370
     5
100
AcDbLine
 10
-62.9192599613416
 20
259.5591245644252
 30
0.0
 11
-62.9192599613416
 21
259.1591245644251
 31
0.0
  0
LINE
  5
22AB2
330
1F
100
AcDbEntity
  8
10000_FRONT
  6
Continuous
 62
     7
370
     5
100
AcDbLine
 10
-70.4192599613416
 20
259.1591245644251
 30
0.0
 11
-70.4192599613416
 21
259.5591245644252
 31
0.0
  0
LINE
  5
22AB3
330
1F
100
AcDbEntity
  8
10000_FRONT
  6
Continuous
 62
     7
370
     5
100
AcDbLine
 10
-62.9192599613416
 20
258.6591245644251
 30
0.0
 11
-62.9192599613416
 21
258.2591245644252
 31
0.0
  0
LINE
  5
22AB4
330
1F
100
AcDbEntity
  8
10000_FRONT
  6
Continuous
 62
     7
370
     5
100
AcDbLine
 10
-70.4192599613416
 20
258.2591245644252
 30
0.0
 11
-70.4192599613416
 21
258.6591245644251
 31
0.0
  0
LINE
  5
22AB5
330
1F
100
AcDbEntity
  8
10000_FRONT
  6
Continuous
 62
     7
370
     5
100
AcDbLine
 10
-62.9192599613416
 20
257.7591245644252
 30
0.0
 11
-62.9192599613416
 21
257.3591245644252
 31
0.0
  0
LINE
  5
22AB6
330
1F
100
AcDbEntity
  8
10000_FRONT
  6
Continuous
 62
     7
370
     5
100
AcDbLine
 10
-70.4192599613416
 20
257.3591245644252
 30
0.0
 11
-70.4192599613416
 21
257.7591245644252
 31
0.0
  0
LINE
  5
22AB7
330
1F
100
AcDbEntity
  8
10000_FRONT
  6
Continuous
 62
     7
370
     5
100
AcDbLine
 10
-62.9192599613416
 20
256.8591245644252
 30
0.0
 11
-62.9192599613416
 21
256.4591245644253
 31
0.0
  0
LINE
  5
22AB8
330
1F
100
AcDbEntity
  8
10000_FRONT
  6
Continuous
 62
     7
370
     5
100
AcDbLine
 10
-70.4192599613416
 20
256.4591245644253
 30
0.0
 11
-70.4192599613416
 21
256.8591245644252
 31
0.0
  0
LINE
  5
22AB9
330
1F
100
AcDbEntity
  8
10000_FRONT
  6
Continuous
 62
     7
370
     5
100
AcDbLine
 10
-62.9192599613416
 20
255.9591245644253
 30
0.0
 11
-62.9192599613416
 21
255.5591245644252
 31
0.0
  0
LINE
  5
22ABA
330
1F
100
AcDbEntity
  8
10000_FRONT
  6
Continuous
 62
     7
370
     5
100
AcDbLine
 10
-70.4192599613416
 20
255.5591245644252
 30
0.0
 11
-70.4192599613416
 21
255.9591245644253
 31
0.0
  0
LINE
  5
22ABB
330
1F
100
AcDbEntity
  8
10000_FRONT
  6
Continuous
 62
     7
370
     5
100
AcDbLine
 10
-62.9192599613416
 20
255.0591245644252
 30
0.0
 11
-62.9192599613416
 21
254.6591245644251
 31
0.0
  0
LINE
  5
22ABC
330
1F
100
AcDbEntity
  8
10000_FRONT
  6
Continuous
 62
     7
370
     5
100
AcDbLine
 10
-70.4192599613416
 20
254.6591245644251
 30
0.0
 11
-70.4192599613416
 21
255.0591245644252
 31
0.0
  0
CIRCLE
  5
22ABD
330
1F
100
AcDbEntity
  8
10000_FRONT
  6
Continuous
 62
     7
370
    13
100
AcDbCircle
 10
-66.6692599613416
 20
264.2591245644252
 30
0.0
 40
3.0
  0
LINE
  5
22ABE
330
1F
100
AcDbEntity
  8
10000_FRONT
  6
Continuous
 62
     7
370
    50
100
AcDbLine
 10
-61.23624996134163
 20
268.3751545644252
 30
0.0
 11
-61.60227996134153
 21
269.0091245644252
 31
0.0
  0
LINE
  5
22ABF
330
1F
100
AcDbEntity
  8
10000_FRONT
  6
Continuous
 62
     7
370
    50
100
AcDbLine
 10
-71.73624996134162
 20
269.0091245644252
 30
0.0
 11
-72.10227996134154
 21
268.3751545644252
 31
0.0
  0
LINE
  5
22AC0
330
1F
100
AcDbEntity
  8
10000_FRONT
  6
Continuous
 62
     7
370
    50
100
AcDbLine
 10
-72.16925996134159
 20
268.1251545644252
 30
0.0
 11
-72.16925996134159
 21
252.4591245644253
 31
0.0
  0
LINE
  5
22AC1
102
{ACAD_REACTORS
330
22E00
102
}
330
1F
100
AcDbEntity
  8
10000_FRONT
  6
Continuous
 62
     7
370
    50
100
AcDbLine
 10
-62.03528996134149
 20
269.2591245644252
 30
0.0
 11
-71.30323996134143
 21
269.2591245644252
 31
0.0
  0
LINE
  5
22AC2
330
1F
100
AcDbEntity
  8
10000_FRONT
  6
Continuous
 62
     7
370
     5
100
AcDbLine
 10
-70.4192599613416
 20
260.4591245644253
 30
0.0
 11
-62.9192599613416
 21
260.4591245644253
 31
0.0
  0
LINE
  5
22AC3
330
1F
100
AcDbEntity
  8
10000_FRONT
  6
Continuous
 62
     7
370
     5
100
AcDbLine
 10
-62.9192599613416
 20
260.0591245644252
 30
0.0
 11
-70.4192599613416
 21
260.0591245644252
 31
0.0
  0
LINE
  5
22AC4
330
1F
100
AcDbEntity
  8
10000_FRONT
  6
Continuous
 62
     7
370
     5
100
AcDbLine
 10
-70.4192599613416
 20
259.5591245644252
 30
0.0
 11
-62.9192599613416
 21
259.5591245644252
 31
0.0
  0
LINE
  5
22AC5
330
1F
100
AcDbEntity
  8
10000_FRONT
  6
Continuous
 62
     7
370
     5
100
AcDbLine
 10
-62.9192599613416
 20
259.1591245644251
 30
0.0
 11
-70.4192599613416
 21
259.1591245644251
 31
0.0
  0
LINE
  5
22AC6
330
1F
100
AcDbEntity
  8
10000_FRONT
  6
Continuous
 62
     7
370
     5
100
AcDbLine
 10
-70.4192599613416
 20
258.6591245644251
 30
0.0
 11
-62.9192599613416
 21
258.6591245644251
 31
0.0
  0
LINE
  5
22AC7
330
1F
100
AcDbEntity
  8
10000_FRONT
  6
Continuous
 62
     7
370
     5
100
AcDbLine
 10
-62.9192599613416
 20
258.2591245644252
 30
0.0
 11
-70.4192599613416
 21
258.2591245644252
 31
0.0
  0
LINE
  5
22AC8
330
1F
100
AcDbEntity
  8
10000_FRONT
  6
Continuous
 62
     7
370
     5
100
AcDbLine
 10
-70.4192599613416
 20
257.7591245644252
 30
0.0
 11
-62.9192599613416
 21
257.7591245644252
 31
0.0
  0
LINE
  5
22AC9
330
1F
100
AcDbEntity
  8
10000_FRONT
  6
Continuous
 62
     7
370
     5
100
AcDbLine
 10
-62.9192599613416
 20
257.3591245644252
 30
0.0
 11
-70.4192599613416
 21
257.3591245644252
 31
0.0
  0
LINE
  5
22ACA
330
1F
100
AcDbEntity
  8
10000_FRONT
  6
Continuous
 62
     7
370
     5
100
AcDbLine
 10
-70.4192599613416
 20
256.8591245644252
 30
0.0
 11
-62.9192599613416
 21
256.8591245644252
 31
0.0
  0
LINE
  5
22ACB
330
1F
100
AcDbEntity
  8
10000_FRONT
  6
Continuous
 62
     7
370
     5
100
AcDbLine
 10
-62.9192599613416
 20
256.4591245644253
 30
0.0
 11
-70.4192599613416
 21
256.4591245644253
 31
0.0
  0
LINE
  5
22ACC
330
1F
100
AcDbEntity
  8
10000_FRONT
  6
Continuous
 62
     7
370
     5
100
AcDbLine
 10
-70.4192599613416
 20
255.9591245644253
 30
0.0
 11
-62.9192599613416
 21
255.9591245644253
 31
0.0
  0
LINE
  5
22ACD
330
1F
100
AcDbEntity
  8
10000_FRONT
  6
Continuous
 62
     7
370
     5
100
AcDbLine
 10
-62.9192599613416
 20
255.5591245644252
 30
0.0
 11
-70.4192599613416
 21
255.5591245644252
 31
0.0
  0
LINE
  5
22ACE
330
1F
100
AcDbEntity
  8
10000_FRONT
  6
Continuous
 62
     7
370
     5
100
AcDbLine
 10
-70.4192599613416
 20
255.0591245644252
 30
0.0
 11
-62.9192599613416
 21
255.0591245644252
 31
0.0
  0
LINE
  5
22ACF
330
1F
100
AcDbEntity
  8
10000_FRONT
  6
Continuous
 62
     7
370
     5
100
AcDbLine
 10
-62.9192599613416
 20
254.6591245644251
 30
0.0
 11
-70.4192599613416
 21
254.6591245644251
 31
0.0
  0
LINE
  5
22AD0
330
1F
100
AcDbEntity
  8
10000_FRONT
  6
Continuous
 62
     7
370
    13
100
AcDbLine
 10
-45.32416996134156
 20
175.459127564425
 30
0.0
 11
-46.4788699613416
 21
177.4591275644251
 31
0.0
  0
LINE
  5
22AD1
330
1F
100
AcDbEntity
  8
10000_FRONT
  6
Continuous
 62
     7
370
    13
100
AcDbLine
 10
-43.01476996134145
 20
175.459127564425
 30
0.0
 11
-45.32416996134156
 21
175.459127564425
 31
0.0
  0
LINE
  5
22AD2
330
1F
100
AcDbEntity
  8
10000_FRONT
  6
Continuous
 62
     7
370
    13
100
AcDbLine
 10
-41.86006996134142
 20
177.4591275644251
 30
0.0
 11
-43.01476996134145
 21
175.459127564425
 31
0.0
  0
LINE
  5
22AD3
330
1F
100
AcDbEntity
  8
10000_FRONT
  6
Continuous
 62
     7
370
    13
100
AcDbLine
 10
-43.01476996134145
 20
179.4591275644251
 30
0.0
 11
-41.86006996134142
 21
177.4591275644251
 31
0.0
  0
LINE
  5
22AD4
330
1F
100
AcDbEntity
  8
10000_FRONT
  6
Continuous
 62
     7
370
    13
100
AcDbLine
 10
-45.32416996134156
 20
179.4591275644251
 30
0.0
 11
-43.01476996134145
 21
179.4591275644251
 31
0.0
  0
LINE
  5
22AD5
330
1F
100
AcDbEntity
  8
10000_FRONT
  6
Continuous
 62
     7
370
    13
100
AcDbLine
 10
-46.4788699613416
 20
177.4591275644251
 30
0.0
 11
-45.32416996134156
 21
179.4591275644251
 31
0.0
  0
LINE
  5
22AD6
330
1F
100
AcDbEntity
  8
10000_FRONT
  6
Continuous
 62
     7
370
    13
100
AcDbLine
 10
-67.82416996134156
 20
175.4591265644253
 30
0.0
 11
-68.97886996134161
 21
177.4591265644253
 31
0.0
  0
LINE
  5
22AD7
330
1F
100
AcDbEntity
  8
10000_FRONT
  6
Continuous
 62
     7
370
    13
100
AcDbLine
 10
-65.51476996134147
 20
175.4591265644253
 30
0.0
 11
-67.82416996134156
 21
175.4591265644253
 31
0.0
  0
LINE
  5
22AD8
330
1F
100
AcDbEntity
  8
10000_FRONT
  6
Continuous
 62
     7
370
    13
100
AcDbLine
 10
-64.36006996134165
 20
177.4591265644253
 30
0.0
 11
-65.51476996134147
 21
175.4591265644253
 31
0.0
  0
LINE
  5
22AD9
330
1F
100
AcDbEntity
  8
10000_FRONT
  6
Continuous
 62
     7
370
    13
100
AcDbLine
 10
-65.51476996134147
 20
179.4591265644253
 30
0.0
 11
-64.36006996134165
 21
177.4591265644253
 31
0.0
  0
LINE
  5
22ADA
330
1F
100
AcDbEntity
  8
10000_FRONT
  6
Continuous
 62
     7
370
    13
100
AcDbLine
 10
-67.82416996134156
 20
179.4591265644253
 30
0.0
 11
-65.51476996134147
 21
179.4591265644253
 31
0.0
  0
LINE
  5
22ADB
330
1F
100
AcDbEntity
  8
10000_FRONT
  6
Continuous
 62
     7
370
    13
100
AcDbLine
 10
-68.97886996134161
 20
177.4591265644253
 30
0.0
 11
-67.82416996134156
 21
179.4591265644253
 31
0.0
  0
ARC
  5
22B0C
330
1F
100
AcDbEntity
  8
11000_Left
  6
Continuous
 62
     7
370
    13
100
AcDbCircle
 10
165.8209161536733
 20
216.0904250743244
 30
0.0
 40
0.532298145806779
100
AcDbArc
 50
273.376636470923
 51
356.6209114980081
  0
ARC
  5
22B0D
330
1F
100
AcDbEntity
  8
11000_Left
  6
Continuous
 62
     7
370
    13
100
AcDbCircle
 10
165.8501953606553
 20
221.0569504775739
 30
0.0
 40
0.5021048718451584
100
AcDbArc
 50
0.239618137669335
 51
89.76251340194778
  0
LINE
  5
22B0E
330
1F
100
AcDbEntity
  8
11000_Left
  6
Continuous
 62
     7
370
    13
100
AcDbLine
 10
94.37225514796043
 20
191.9591509944354
 30
0.0
 11
93.6722551479613
 21
191.9591519733209
 31
0.0
  0
LINE
  5
22B0F
330
1F
100
AcDbEntity
  8
11000_Left
  6
Continuous
 62
     7
370
    13
100
AcDbLine
 10
93.6722551479613
 20
191.9591519733209
 30
0.0
 11
93.6723157017866
 21
220.9591519732646
 31
0.0
  0
LINE
  5
22B10
330
1F
100
AcDbEntity
  8
11000_Left
  6
Continuous
 62
     7
370
    13
100
AcDbLine
 10
93.6723157017866
 20
220.9591519732646
 30
0.0
 11
94.37231570178573
 21
220.9591509943791
 31
0.0
  0
LINE
  5
22B11
330
1F
100
AcDbEntity
  8
11000_Left
  6
Continuous
 62
     7
370
    13
100
AcDbLine
 10
94.37231570178573
 20
220.9591509943791
 30
0.0
 11
94.37225514796043
 21
191.9591509944354
 31
0.0
  0
ARC
  5
22B12
330
1F
100
AcDbEntity
  8
11000_Left
  6
Continuous
 62
     7
370
    13
100
AcDbCircle
 10
109.3722572455572
 20
193.4591300183173
 30
0.0
 40
3.0
100
AcDbArc
 50
269.9999098771411
 51
359.9999098771411
  0
LINE
  5
22B13
330
1F
100
AcDbEntity
  8
11000_Left
  6
Continuous
 62
     7
370
    13
100
AcDbLine
 10
65.37225305040511
 20
190.4592115482621
 30
0.0
 11
109.3722530503342
 21
190.4591300183203
 31
0.0
  0
ARC
  5
22B14
330
1F
100
AcDbEntity
  8
11000_Left
  6
Continuous
 62
     7
370
    13
100
AcDbCircle
 10
65.37225724562813
 20
193.4592115482593
 30
0.0
 40
3.0
100
AcDbArc
 50
179.999909877141
 51
269.9999098771411
  0
LINE
  5
22B15
330
1F
100
AcDbEntity
  8
11000_Left
  6
Continuous
 62
     7
370
    13
100
AcDbLine
 10
62.37231360423334
 20
219.4592157434292
 30
0.0
 11
62.37225724563131
 21
193.4592157434826
 31
0.0
  0
ARC
  5
22B16
330
1F
100
AcDbEntity
  8
11000_Left
  6
Continuous
 62
     7
370
    13
100
AcDbCircle
 10
65.37231360423016
 20
219.4592115482062
 30
0.0
 40
3.0
100
AcDbArc
 50
89.99990987714111
 51
179.999909877141
  0
LINE
  5
22B17
330
1F
100
AcDbEntity
  8
11000_Left
  6
Continuous
 62
     7
370
    13
100
AcDbLine
 10
109.3723177993827
 20
222.4591300182612
 30
0.0
 11
65.37231779945364
 21
222.459211548203
 31
0.0
  0
ARC
  5
22B18
330
1F
100
AcDbEntity
  8
11000_Left
  6
Continuous
 62
     7
370
    13
100
AcDbCircle
 10
109.3723136041592
 20
219.4591300182641
 30
0.0
 40
3.0
100
AcDbArc
 50
359.9999148771416
 51
89.99990987714111
  0
LINE
  5
22B19
330
1F
100
AcDbEntity
  8
11000_Left
  6
Continuous
 62
     7
370
    13
100
AcDbLine
 10
112.3722572455544
 20
193.4591258230941
 30
0.0
 11
112.3723136041565
 21
219.4591258230407
 31
0.0
  0
LINE
  5
22B1A
330
1F
100
AcDbEntity
  8
11000_Left
  6
Continuous
 62
     7
370
    13
100
AcDbLine
 10
133.0222495543196
 20
187.959116945979
 30
0.0
 11
133.0222295542917
 21
187.959096946007
 31
0.0
  0
POLYLINE
  5
22B1B
330
1F
100
AcDbEntity
  8
11000_Left
  6
Continuous
 62
     7
370
    13
100
AcDb2dPolyline
 66
     1
 10
0.0
 20
0.0
 30
0.0
 70
     2
  0
VERTEX
  5
22B1C
330
22B1B
100
AcDbEntity
  8
11000_Left
  6
Continuous
 62
     7
370
    13
100
AcDbVertex
100
AcDb2dVertex
 10
132.1208095542922
 20
187.9590982065598
 30
0.0
  0
VERTEX
  5
22B1D
330
22B1B
100
AcDbEntity
  8
11000_Left
  6
Continuous
 62
     7
370
    13
100
AcDbVertex
100
AcDb2dVertex
 10
132.1208495542926
 20
187.9590982065039
 30
0.0
 42
0.0000752593
 70
     1
  0
VERTEX
  5
22B1E
330
22B1B
100
AcDbEntity
  8
11000_Left
  6
Continuous
 62
     7
370
    13
100
AcDbVertex
100
AcDb2dVertex
 10
132.1208695542925
 20
187.959098206476
 30
0.0
 42
0.0000706067
  0
VERTEX
  5
22B1F
330
22B1B
100
AcDbEntity
  8
11000_Left
  6
Continuous
 62
     7
370
    13
100
AcDbVertex
100
AcDb2dVertex
 10
132.1209095542924
 20
187.95909820642
 30
0.0
 42
0.0000751733
 70
     1
  0
VERTEX
  5
22B20
330
22B1B
100
AcDbEntity
  8
11000_Left
  6
Continuous
 62
     7
370
    13
100
AcDbVertex
100
AcDb2dVertex
 10
132.1209495542923
 20
187.9590982063641
 30
0.0
 42
0.000090126
  0
VERTEX
  5
22B21
330
22B1B
100
AcDbEntity
  8
11000_Left
  6
Continuous
 62
     7
370
    13
100
AcDbVertex
100
AcDb2dVertex
 10
132.1209895542922
 20
187.9590982063082
 30
0.0
 42
0.0001011907
 70
     1
  0
VERTEX
  5
22B22
330
22B1B
100
AcDbEntity
  8
11000_Left
  6
Continuous
 62
     7
370
    13
100
AcDbVertex
100
AcDb2dVertex
 10
132.1210295542926
 20
187.9590982062522
 30
0.0
 42
0.0001111834
  0
VERTEX
  5
22B23
330
22B1B
100
AcDbEntity
  8
11000_Left
  6
Continuous
 62
     7
370
    13
100
AcDbVertex
100
AcDb2dVertex
 10
132.1210495542925
 20
187.9590982062243
 30
0.0
 42
0.0001206114
 70
     1
  0
VERTEX
  5
22B24
330
22B1B
100
AcDbEntity
  8
11000_Left
  6
Continuous
 62
     7
370
    13
100
AcDbVertex
100
AcDb2dVertex
 10
132.1210895542924
 20
187.9590982061683
 30
0.0
 42
0.0001318721
  0
VERTEX
  5
22B25
330
22B1B
100
AcDbEntity
  8
11000_Left
  6
Continuous
 62
     7
370
    13
100
AcDbVertex
100
AcDb2dVertex
 10
132.1211295542923
 20
187.9590982061124
 30
0.0
 42
0.000141726
 70
     1
  0
VERTEX
  5
22B26
330
22B1B
100
AcDbEntity
  8
11000_Left
  6
Continuous
 62
     7
370
    13
100
AcDbVertex
100
AcDb2dVertex
 10
132.1211695542922
 20
187.9590982060564
 30
0.0
 42
0.000152677
  0
VERTEX
  5
22B27
330
22B1B
100
AcDbEntity
  8
11000_Left
  6
Continuous
 62
     7
370
    13
100
AcDbVertex
100
AcDb2dVertex
 10
132.1212095542926
 20
187.9590982060005
 30
0.0
 42
0.0001624344
 70
     1
  0
VERTEX
  5
22B28
330
22B1B
100
AcDbEntity
  8
11000_Left
  6
Continuous
 62
     7
370
    13
100
AcDbVertex
100
AcDb2dVertex
 10
132.1212295542925
 20
187.9590982059725
 30
0.0
 42
0.0001734767
  0
VERTEX
  5
22B29
330
22B1B
100
AcDbEntity
  8
11000_Left
  6
Continuous
 62
     7
370
    13
100
AcDbVertex
100
AcDb2dVertex
 10
132.1212695542924
 20
187.9590982059166
 30
0.0
 42
0.0001832703
 70
     1
  0
VERTEX
  5
22B2A
330
22B1B
100
AcDbEntity
  8
11000_Left
  6
Continuous
 62
     7
370
    13
100
AcDbVertex
100
AcDb2dVertex
 10
132.1213095542923
 20
187.9590982058607
 30
0.0
 42
0.0001943006
  0
VERTEX
  5
22B2B
330
22B1B
100
AcDbEntity
  8
11000_Left
  6
Continuous
 62
     7
370
    13
100
AcDbVertex
100
AcDb2dVertex
 10
132.1213495542922
 20
187.9590982058046
 30
0.0
 42
0.0002040998
 70
     1
  0
VERTEX
  5
22B2C
330
22B1B
100
AcDbEntity
  8
11000_Left
  6
Continuous
 62
     7
370
    13
100
AcDbVertex
100
AcDb2dVertex
 10
132.1213895542926
 20
187.9590982057488
 30
0.0
 42
0.0002151508
  0
VERTEX
  5
22B2D
330
22B1B
100
AcDbEntity
  8
11000_Left
  6
Continuous
 62
     7
370
    13
100
AcDbVertex
100
AcDb2dVertex
 10
132.1214095542925
 20
187.9590982057209
 30
0.0
 42
0.0002249553
 70
     1
  0
VERTEX
  5
22B2E
330
22B1B
100
AcDbEntity
  8
11000_Left
  6
Continuous
 62
     7
370
    13
100
AcDbVertex
100
AcDb2dVertex
 10
132.1214495542924
 20
187.9590982056649
 30
0.0
 42
0.000235998
  0
VERTEX
  5
22B2F
330
22B1B
100
AcDbEntity
  8
11000_Left
  6
Continuous
 62
     7
370
    13
100
AcDbVertex
100
AcDb2dVertex
 10
132.1214895542923
 20
187.959098205609
 30
0.0
 42
0.0002458378
 70
     1
  0
VERTEX
  5
22B30
330
22B1B
100
AcDbEntity
  8
11000_Left
  6
Continuous
 62
     7
370
    13
100
AcDbVertex
100
AcDb2dVertex
 10
132.1215295542922
 20
187.959098205553
 30
0.0
 42
0.0002569588
  0
VERTEX
  5
22B31
330
22B1B
100
AcDbEntity
  8
11000_Left
  6
Continuous
 62
     7
370
    13
100
AcDbVertex
100
AcDb2dVertex
 10
132.1215695542926
 20
187.9590982054971
 30
0.0
 42
0.0002667186
 70
     1
  0
VERTEX
  5
22B32
330
22B1B
100
AcDbEntity
  8
11000_Left
  6
Continuous
 62
     7
370
    13
100
AcDbVertex
100
AcDb2dVertex
 10
132.1215895542925
 20
187.9590982054691
 30
0.0
 42
0.0002776068
  0
VERTEX
  5
22B33
330
22B1B
100
AcDbEntity
  8
11000_Left
  6
Continuous
 62
     7
370
    13
100
AcDbVertex
100
AcDb2dVertex
 10
132.1216295542924
 20
187.959098205413
 30
0.0
 42
0.0002877102
 70
     1
  0
VERTEX
  5
22B34
330
22B1B
100
AcDbEntity
  8
11000_Left
  6
Continuous
 62
     7
370
    13
100
AcDbVertex
100
AcDb2dVertex
 10
132.1216695542923
 20
187.9590982053573
 30
0.0
 42
0.0002994843
  0
VERTEX
  5
22B35
330
22B1B
100
AcDbEntity
  8
11000_Left
  6
Continuous
 62
     7
370
    13
100
AcDbVertex
100
AcDb2dVertex
 10
132.1217095542922
 20
187.9590982053013
 30
0.0
 42
0.0003083958
 70
     1
  0
VERTEX
  5
22B36
330
22B1B
100
AcDbEntity
  8
11000_Left
  6
Continuous
 62
     7
370
    13
100
AcDbVertex
100
AcDb2dVertex
 10
132.1217295542922
 20
187.9590982052734
 30
0.0
 42
0.0003170954
  0
VERTEX
  5
22B37
330
22B1B
100
AcDbEntity
  8
11000_Left
  6
Continuous
 62
     7
370
    13
100
AcDbVertex
100
AcDb2dVertex
 10
132.1217695542925
 20
187.9590982052174
 30
0.0
 42
0.0003303039
 70
     1
  0
VERTEX
  5
22B38
330
22B1B
100
AcDbEntity
  8
11000_Left
  6
Continuous
 62
     7
370
    13
100
AcDbVertex
100
AcDb2dVertex
 10
132.1218095542924
 20
187.9590982051615
 30
0.0
 42
0.0003496317
  0
VERTEX
  5
22B39
330
22B1B
100
AcDbEntity
  8
11000_Left
  6
Continuous
 62
     7
370
    13
100
AcDbVertex
100
AcDb2dVertex
 10
132.1218495542923
 20
187.9590982051056
 30
0.0
 42
0.0003479092
 70
     1
  0
VERTEX
  5
22B3A
330
22B1B
100
AcDbEntity
  8
11000_Left
  6
Continuous
 62
     7
370
    13
100
AcDbVertex
100
AcDb2dVertex
 10
132.1218895542922
 20
187.9590982050496
 30
0.0
 42
0.0003316837
  0
VERTEX
  5
22B3B
330
22B1B
100
AcDbEntity
  8
11000_Left
  6
Continuous
 62
     7
370
    13
100
AcDbVertex
100
AcDb2dVertex
 10
132.1219095542922
 20
187.9590982050217
 30
0.0
 42
0.0003810172
 70
     1
  0
VERTEX
  5
22B3C
330
22B1B
100
AcDbEntity
  8
11000_Left
  6
Continuous
 62
     7
370
    13
100
AcDbVertex
100
AcDb2dVertex
 10
132.1219495542925
 20
187.9590982049657
 30
0.0
 42
0.000476025
  0
VERTEX
  5
22B3D
330
22B1B
100
AcDbEntity
  8
11000_Left
  6
Continuous
 62
     7
370
    13
100
AcDbVertex
100
AcDb2dVertex
 10
132.1219895542924
 20
187.9590982049098
 30
0.0
 42
0.0003620654
 70
     1
  0
VERTEX
  5
22B3E
330
22B1B
100
AcDbEntity
  8
11000_Left
  6
Continuous
 62
     7
370
    13
100
AcDbVertex
100
AcDb2dVertex
 10
132.1220295543203
 20
187.9591182048538
 30
0.0
 42
0.0001068748
  0
VERTEX
  5
22B3F
330
22B1B
100
AcDbEntity
  8
11000_Left
  6
Continuous
 62
     7
370
    13
100
AcDbVertex
100
AcDb2dVertex
 10
132.1220495543202
 20
187.9591182048258
 30
0.0
 42
0.0005444591
 70
     1
  0
VERTEX
  5
22B40
330
22B1B
100
AcDbEntity
  8
11000_Left
  6
Continuous
 62
     7
370
    13
100
AcDbVertex
100
AcDb2dVertex
 10
132.1220895543201
 20
187.9591182047699
 30
0.0
 42
0.0009827601
  0
VERTEX
  5
22B41
330
22B1B
100
AcDbEntity
  8
11000_Left
  6
Continuous
 62
     7
370
    13
100
AcDbVertex
100
AcDb2dVertex
 10
132.1221495543204
 20
187.959118204686
 30
0.0
 42
0.0004835686
 70
     1
  0
VERTEX
  5
22B42
330
22B1B
100
AcDbEntity
  8
11000_Left
  6
Continuous
 62
     7
370
    13
100
AcDbVertex
100
AcDb2dVertex
 10
132.1222295543202
 20
187.9591182045741
 30
0.0
 42
0.000253897
  0
SEQEND
  5
22B43
330
22B1B
100
AcDbEntity
  8
11000_Left
  6
Continuous
 62
     7
370
    13
  0
LINE
  5
22B44
330
1F
100
AcDbEntity
  8
11000_Left
  6
Continuous
 62
     7
370
    13
100
AcDbLine
 10
165.8522765407606
 20
221.5590510362469
 30
0.0
 11
161.6448765407649
 21
221.5590569199077
 31
0.0
  0
LINE
  5
22B45
330
1F
100
AcDbEntity
  8
11000_Left
  6
Continuous
 62
     7
370
    13
100
AcDbLine
 10
161.6222881503181
 20
215.5590569514897
 30
0.0
 11
165.8522681503139
 21
215.5590510362528
 31
0.0
  0
LINE
  5
22B46
330
1F
100
AcDbEntity
  8
11000_Left
  6
Continuous
 62
     7
370
    13
100
AcDbLine
 10
166.352295841556
 20
221.0590503370158
 30
0.0
 11
166.3522923455366
 21
218.5590503370181
 31
0.0
  0
LINE
  5
22B47
102
{ACAD_REACTORS
330
22F1A
102
}
330
1F
100
AcDbEntity
  8
11000_Left
  6
Continuous
 62
     7
370
    13
100
AcDbLine
 10
166.3522923455366
 20
218.5590503370181
 30
0.0
 11
166.3522888495172
 21
216.0590503370205
 31
0.0
  0
POLYLINE
  5
22B48
330
1F
100
AcDbEntity
  8
11000_Left
  6
Continuous
 62
     7
370
    13
100
AcDb2dPolyline
 66
     1
 10
0.0
 20
0.0
 30
0.0
 70
     2
  0
VERTEX
  5
22B49
330
22B48
100
AcDbEntity
  8
11000_Left
  6
Continuous
 62
     7
370
    13
100
AcDbVertex
100
AcDb2dVertex
 10
162.8022610237233
 20
210.4628353014017
 30
0.0
  0
VERTEX
  5
22B4A
330
22B48
100
AcDbEntity
  8
11000_Left
  6
Continuous
 62
     7
370
    13
100
AcDbVertex
100
AcDb2dVertex
 10
162.8022610237233
 20
210.4628353014017
 30
0.0
 70
     1
  0
VERTEX
  5
22B4B
330
22B48
100
AcDbEntity
  8
11000_Left
  6
Continuous
 62
     7
370
    13
100
AcDbVertex
100
AcDb2dVertex
 10
162.8022610237233
 20
210.4628353014017
 30
0.0
  0
VERTEX
  5
22B4C
330
22B48
100
AcDbEntity
  8
11000_Left
  6
Continuous
 62
     7
370
    13
100
AcDbVertex
100
AcDb2dVertex
 10
162.8022610237233
 20
210.4628353014017
 30
0.0
 70
     1
  0
VERTEX
  5
22B4D
330
22B48
100
AcDbEntity
  8
11000_Left
  6
Continuous
 62
     7
370
    13
100
AcDbVertex
100
AcDb2dVertex
 10
162.8022610237233
 20
210.4628353014017
 30
0.0
  0
VERTEX
  5
22B4E
330
22B48
100
AcDbEntity
  8
11000_Left
  6
Continuous
 62
     7
370
    13
100
AcDbVertex
100
AcDb2dVertex
 10
162.8022610237233
 20
210.4628353014017
 30
0.0
 70
     1
  0
VERTEX
  5
22B4F
330
22B48
100
AcDbEntity
  8
11000_Left
  6
Continuous
 62
     7
370
    13
100
AcDbVertex
100
AcDb2dVertex
 10
162.8022610237233
 20
210.4628353014017
 30
0.0
  0
VERTEX
  5
22B50
330
22B48
100
AcDbEntity
  8
11000_Left
  6
Continuous
 62
     7
370
    13
100
AcDbVertex
100
AcDb2dVertex
 10
162.8022610237233
 20
210.4628353014017
 30
0.0
 42
-0.0000000024
 70
     1
  0
VERTEX
  5
22B51
330
22B48
100
AcDbEntity
  8
11000_Left
  6
Continuous
 62
     7
370
    13
100
AcDbVertex
100
AcDb2dVertex
 10
162.8022610237233
 20
210.4628353014017
 30
0.0
  0
VERTEX
  5
22B52
330
22B48
100
AcDbEntity
  8
11000_Left
  6
Continuous
 62
     7
370
    13
100
AcDbVertex
100
AcDb2dVertex
 10
162.8022610237233
 20
210.4628353014017
 30
0.0
 70
     1
  0
VERTEX
  5
22B53
330
22B48
100
AcDbEntity
  8
11000_Left
  6
Continuous
 62
     7
370
    13
100
AcDbVertex
100
AcDb2dVertex
 10
162.8022610237233
 20
210.4628353014017
 30
0.0
  0
VERTEX
  5
22B54
330
22B48
100
AcDbEntity
  8
11000_Left
  6
Continuous
 62
     7
370
    13
100
AcDbVertex
100
AcDb2dVertex
 10
162.8022610237233
 20
210.4628353014017
 30
0.0
 70
     1
  0
VERTEX
  5
22B55
330
22B48
100
AcDbEntity
  8
11000_Left
  6
Continuous
 62
     7
370
    13
100
AcDbVertex
100
AcDb2dVertex
 10
162.8022610237233
 20
210.4628353014017
 30
0.0
  0
VERTEX
  5
22B56
330
22B48
100
AcDbEntity
  8
11000_Left
  6
Continuous
 62
     7
370
    13
100
AcDbVertex
100
AcDb2dVertex
 10
162.8022610237233
 20
210.4628353014017
 30
0.0
 70
     1
  0
VERTEX
  5
22B57
330
22B48
100
AcDbEntity
  8
11000_Left
  6
Continuous
 62
     7
370
    13
100
AcDbVertex
100
AcDb2dVertex
 10
162.8022810237232
 20
210.4628353013738
 30
0.0
 42
0.0000000058
  0
VERTEX
  5
22B58
330
22B48
100
AcDbEntity
  8
11000_Left
  6
Continuous
 62
     7
370
    13
100
AcDbVertex
100
AcDb2dVertex
 10
162.8022810237232
 20
210.4628353013738
 30
0.0
 70
     1
  0
VERTEX
  5
22B59
330
22B48
100
AcDbEntity
  8
11000_Left
  6
Continuous
 62
     7
370
    13
100
AcDbVertex
100
AcDb2dVertex
 10
162.8022810237232
 20
210.4628353013738
 30
0.0
  0
VERTEX
  5
22B5A
330
22B48
100
AcDbEntity
  8
11000_Left
  6
Continuous
 62
     7
370
    13
100
AcDbVertex
100
AcDb2dVertex
 10
162.8022810237232
 20
210.4628353013738
 30
0.0
 42
-0.0000000041
 70
     1
  0
VERTEX
  5
22B5B
330
22B48
100
AcDbEntity
  8
11000_Left
  6
Continuous
 62
     7
370
    13
100
AcDbVertex
100
AcDb2dVertex
 10
162.8022810237232
 20
210.4628353013738
 30
0.0
  0
SEQEND
  5
22B5C
330
22B48
100
AcDbEntity
  8
11000_Left
  6
Continuous
 62
     7
370
    13
  0
POLYLINE
  5
22B5D
330
1F
100
AcDbEntity
  8
11000_Left
  6
Continuous
 62
     7
370
    13
100
AcDb2dPolyline
 66
     1
 10
0.0
 20
0.0
 30
0.0
 70
     2
  0
VERTEX
  5
22B5E
330
22B5D
100
AcDbEntity
  8
11000_Left
  6
Continuous
 62
     7
370
    13
100
AcDbVertex
100
AcDb2dVertex
 10
163.8917793240409
 20
209.2473937778099
 30
0.0
  0
VERTEX
  5
22B5F
330
22B5D
100
AcDbEntity
  8
11000_Left
  6
Continuous
 62
     7
370
    13
100
AcDbVertex
100
AcDb2dVertex
 10
163.90873932874
 20
209.2507537540923
 30
0.0
 42
0.0114263
 70
     1
  0
VERTEX
  5
22B60
330
22B5D
100
AcDbEntity
  8
11000_Left
  6
Continuous
 62
     7
370
    13
100
AcDbVertex
100
AcDb2dVertex
 10
163.9257393345572
 20
209.2549137303199
 30
0.0
 42
0.010969458
  0
VERTEX
  5
22B61
330
22B5D
100
AcDbEntity
  8
11000_Left
  6
Continuous
 62
     7
370
    13
100
AcDbVertex
100
AcDb2dVertex
 10
163.9427993415215
 20
209.2598937064628
 30
0.0
 42
0.010836218
 70
     1
  0
VERTEX
  5
22B62
330
22B5D
100
AcDbEntity
  8
11000_Left
  6
Continuous
 62
     7
370
    13
100
AcDbVertex
100
AcDb2dVertex
 10
163.9598593496318
 20
209.2656936826058
 30
0.0
 42
0.011198249
  0
VERTEX
  5
22B63
330
22B5D
100
AcDbEntity
  8
11000_Left
  6
Continuous
 62
     7
370
    13
100
AcDbVertex
100
AcDb2dVertex
 10
163.9768193589737
 20
209.2723736588893
 30
0.0
 42
0.011370277
 70
     1
  0
VERTEX
  5
22B64
330
22B5D
100
AcDbEntity
  8
11000_Left
  6
Continuous
 62
     7
370
    13
100
AcDbVertex
100
AcDb2dVertex
 10
163.9936593694615
 20
209.2798736353397
 30
0.0
 42
0.01147697
  0
VERTEX
  5
22B65
330
22B5D
100
AcDbEntity
  8
11000_Left
  6
Continuous
 62
     7
370
    13
100
AcDbVertex
100
AcDb2dVertex
 10
164.0102793811525
 20
209.2882336120981
 30
0.0
 42
0.011547121
 70
     1
  0
VERTEX
  5
22B66
330
22B5D
100
AcDbEntity
  8
11000_Left
  6
Continuous
 62
     7
370
    13
100
AcDbVertex
100
AcDb2dVertex
 10
164.0266593940173
 20
209.2974335891926
 30
0.0
 42
0.011691161
  0
VERTEX
  5
22B67
330
22B5D
100
AcDbEntity
  8
11000_Left
  6
Continuous
 62
     7
370
    13
100
AcDbVertex
100
AcDb2dVertex
 10
164.0426994081133
 20
209.307513566762
 30
0.0
 42
0.011768056
 70
     1
  0
VERTEX
  5
22B68
330
22B5D
100
AcDbEntity
  8
11000_Left
  6
Continuous
 62
     7
370
    13
100
AcDbVertex
100
AcDb2dVertex
 10
164.0583594233001
 20
209.3183735448624
 30
0.0
 42
0.01186711
  0
VERTEX
  5
22B69
330
22B5D
100
AcDbEntity
  8
11000_Left
  6
Continuous
 62
     7
370
    13
100
AcDbVertex
100
AcDb2dVertex
 10
164.0735594396617
 20
209.3300735236066
 30
0.0
 42
0.011916411
 70
     1
  0
VERTEX
  5
22B6A
330
22B5D
100
AcDbEntity
  8
11000_Left
  6
Continuous
 62
     7
370
    13
100
AcDbVertex
100
AcDb2dVertex
 10
164.0882794570851
 20
209.3425335030224
 30
0.0
 42
0.011981794
  0
VERTEX
  5
22B6B
330
22B5D
100
AcDbEntity
  8
11000_Left
  6
Continuous
 62
     7
370
    13
100
AcDbVertex
100
AcDb2dVertex
 10
164.1023994755446
 20
209.3557334832769
 30
0.0
 42
0.012020876
 70
     1
  0
VERTEX
  5
22B6C
330
22B5D
100
AcDbEntity
  8
11000_Left
  6
Continuous
 62
     7
370
    13
100
AcDbVertex
100
AcDb2dVertex
 10
164.1158994949824
 20
209.3696334643982
 30
0.0
 42
0.012072902
  0
VERTEX
  5
22B6D
330
22B5D
100
AcDbEntity
  8
11000_Left
  6
Continuous
 62
     7
370
    13
100
AcDbVertex
100
AcDb2dVertex
 10
164.1287195153431
 20
209.3841934464708
 30
0.0
 42
0.012059956
 70
     1
  0
VERTEX
  5
22B6E
330
22B5D
100
AcDbEntity
  8
11000_Left
  6
Continuous
 62
     7
370
    13
100
AcDbVertex
100
AcDb2dVertex
 10
164.1408395365429
 20
209.3993534295225
 30
0.0
 42
0.012000707
  0
VERTEX
  5
22B6F
330
22B5D
100
AcDbEntity
  8
11000_Left
  6
Continuous
 62
     7
370
    13
100
AcDbVertex
100
AcDb2dVertex
 10
164.1521795585258
 20
209.4150734136639
 30
0.0
 42
0.012073318
 70
     1
  0
VERTEX
  5
22B70
330
22B5D
100
AcDbEntity
  8
11000_Left
  6
Continuous
 62
     7
370
    13
100
AcDbVertex
100
AcDb2dVertex
 10
164.1627395811804
 20
209.4312733988967
 30
0.0
 42
0.012239364
  0
VERTEX
  5
22B71
330
22B5D
100
AcDbEntity
  8
11000_Left
  6
Continuous
 62
     7
370
    13
100
AcDbVertex
100
AcDb2dVertex
 10
164.1724596045057
 20
209.4479533853043
 30
0.0
 42
0.011922005
 70
     1
  0
VERTEX
  5
22B72
330
22B5D
100
AcDbEntity
  8
11000_Left
  6
Continuous
 62
     7
370
    13
100
AcDbVertex
100
AcDb2dVertex
 10
164.1813196282225
 20
209.4649133729149
 30
0.0
 42
0.011191974
  0
VERTEX
  5
22B73
330
22B5D
100
AcDbEntity
  8
11000_Left
  6
Continuous
 62
     7
370
    13
100
AcDbVertex
100
AcDb2dVertex
 10
164.1893196522476
 20
209.4820933617274
 30
0.0
 42
0.012098418
 70
     1
  0
VERTEX
  5
22B74
330
22B5D
100
AcDbEntity
  8
11000_Left
  6
Continuous
 62
     7
370
    13
100
AcDbVertex
100
AcDb2dVertex
 10
164.1964396769713
 20
209.4997733517705
 30
0.0
 42
0.014007664
  0
VERTEX
  5
22B75
330
22B5D
100
AcDbEntity
  8
11000_Left
  6
Continuous
 62
     7
370
    13
100
AcDbVertex
100
AcDb2dVertex
 10
164.2026797025341
 20
209.5180533430445
 30
0.0
 42
0.010947093
 70
     1
  0
VERTEX
  5
22B76
330
22B5D
100
AcDbEntity
  8
11000_Left
  6
Continuous
 62
     7
370
    13
100
AcDbVertex
100
AcDb2dVertex
 10
164.2080197266984
 20
209.5353333355772
 30
0.0
 42
0.0045771717
  0
VERTEX
  5
22B77
330
22B5D
100
AcDbEntity
  8
11000_Left
  6
Continuous
 62
     7
370
    13
100
AcDbVertex
100
AcDb2dVertex
 10
164.2123797486813
 20
209.5510533294795
 30
0.0
 42
0.014538048
 70
     1
  0
VERTEX
  5
22B78
330
22B5D
100
AcDbEntity
  8
11000_Left
  6
Continuous
 62
     7
370
    13
100
AcDbVertex
100
AcDb2dVertex
 10
164.2160997766775
 20
209.5710733242774
 30
0.0
 42
0.024471152
  0
VERTEX
  5
22B79
330
22B5D
100
AcDbEntity
  8
11000_Left
  6
Continuous
 62
     7
370
    13
100
AcDbVertex
100
AcDb2dVertex
 10
164.2194198193291
 20
209.6015733196349
 30
0.0
 42
0.012417968
 70
     1
  0
VERTEX
  5
22B7A
330
22B5D
100
AcDbEntity
  8
11000_Left
  6
Continuous
 62
     7
370
    13
100
AcDbVertex
100
AcDb2dVertex
 10
164.2222998748741
 20
209.6412933156077
 30
0.0
 42
0.0067728232
  0
SEQEND
  5
22B7B
330
22B5D
100
AcDbEntity
  8
11000_Left
  6
Continuous
 62
     7
370
    13
  0
POLYLINE
  5
22B7C
330
1F
100
AcDbEntity
  8
11000_Left
  6
Continuous
 62
     7
370
    13
100
AcDb2dPolyline
 66
     1
 10
0.0
 20
0.0
 30
0.0
 70
     2
  0
VERTEX
  5
22B7D
330
22B7C
100
AcDbEntity
  8
11000_Left
  6
Continuous
 62
     7
370
    13
100
AcDbVertex
100
AcDb2dVertex
 10
164.2223002041991
 20
209.8767933156072
 30
0.0
  0
VERTEX
  5
22B7E
330
22B7C
100
AcDbEntity
  8
11000_Left
  6
Continuous
 62
     7
370
    13
100
AcDbVertex
100
AcDb2dVertex
 10
164.2219402283915
 20
209.8940933161106
 30
0.0
 42
0.011428023
 70
     1
  0
VERTEX
  5
22B7F
330
22B7C
100
AcDbEntity
  8
11000_Left
  6
Continuous
 62
     7
370
    13
100
AcDbVertex
100
AcDb2dVertex
 10
164.2208002528075
 20
209.911553317705
 30
0.0
 42
0.010971099
  0
VERTEX
  5
22B80
330
22B7C
100
AcDbEntity
  8
11000_Left
  6
Continuous
 62
     7
370
    13
100
AcDbVertex
100
AcDb2dVertex
 10
164.2188402775031
 20
209.9292133204457
 30
0.0
 42
0.010837812
 70
     1
  0
VERTEX
  5
22B81
330
22B7C
100
AcDbEntity
  8
11000_Left
  6
Continuous
 62
     7
370
    13
100
AcDbVertex
100
AcDb2dVertex
 10
164.216100302395
 20
209.9470133242775
 30
0.0
 42
0.011199857
  0
VERTEX
  5
22B82
330
22B7C
100
AcDbEntity
  8
11000_Left
  6
Continuous
 62
     7
370
    13
100
AcDbVertex
100
AcDb2dVertex
 10
164.2124803273986
 20
209.9648933293394
 30
0.0
 42
0.011371854
 70
     1
  0
VERTEX
  5
22B83
330
22B7C
100
AcDbEntity
  8
11000_Left
  6
Continuous
 62
     7
370
    13
100
AcDbVertex
100
AcDb2dVertex
 10
164.2080203524019
 20
209.9827733355766
 30
0.0
 42
0.011478493
  0
VERTEX
  5
22B84
330
22B7C
100
AcDbEntity
  8
11000_Left
  6
Continuous
 62
     7
370
    13
100
AcDbVertex
100
AcDb2dVertex
 10
164.2026603773214
 20
210.000593343072
 30
0.0
 42
0.011548569
 70
     1
  0
VERTEX
  5
22B85
330
22B7C
100
AcDbEntity
  8
11000_Left
  6
Continuous
 62
     7
370
    13
100
AcDbVertex
100
AcDb2dVertex
 10
164.1964404021016
 20
210.01831335177
 30
0.0
 42
0.011692531
  0
VERTEX
  5
22B86
330
22B7C
100
AcDbEntity
  8
11000_Left
  6
Continuous
 62
     7
370
    13
100
AcDbVertex
100
AcDb2dVertex
 10
164.1893204266578
 20
210.0358733617269
 30
0.0
 42
0.01176932
 70
     1
  0
VERTEX
  5
22B87
330
22B7C
100
AcDbEntity
  8
11000_Left
  6
Continuous
 62
     7
370
    13
100
AcDbVertex
100
AcDb2dVertex
 10
164.18132045085
 20
210.0531733729137
 30
0.0
 42
0.011868262
  0
VERTEX
  5
22B88
330
22B7C
100
AcDbEntity
  8
11000_Left
  6
Continuous
 62
     7
370
    13
100
AcDbVertex
100
AcDb2dVertex
 10
164.172460474623
 20
210.0701733853033
 30
0.0
 42
0.011917429
 70
     1
  0
VERTEX
  5
22B89
330
22B7C
100
AcDbEntity
  8
11000_Left
  6
Continuous
 62
     7
370
    13
100
AcDbVertex
100
AcDb2dVertex
 10
164.1627404978926
 20
210.0868133988963
 30
0.0
 42
0.011982672
  0
VERTEX
  5
22B8A
330
22B7C
100
AcDbEntity
  8
11000_Left
  6
Continuous
 62
     7
370
    13
100
AcDbVertex
100
AcDb2dVertex
 10
164.1521805205746
 20
210.1030334136634
 30
0.0
 42
0.012021597
 70
     1
  0
VERTEX
  5
22B8B
330
22B7C
100
AcDbEntity
  8
11000_Left
  6
Continuous
 62
     7
370
    13
100
AcDbVertex
100
AcDb2dVertex
 10
164.1408405425295
 20
210.1187334295214
 30
0.0
 42
0.012073464
  0
VERTEX
  5
22B8C
330
22B7C
100
AcDbEntity
  8
11000_Left
  6
Continuous
 62
     7
370
    13
100
AcDbVertex
100
AcDb2dVertex
 10
164.1287205637295
 20
210.1338934464699
 30
0.0
 42
0.012060343
 70
     1
  0
VERTEX
  5
22B8D
330
22B7C
100
AcDbEntity
  8
11000_Left
  6
Continuous
 62
     7
370
    13
100
AcDbVertex
100
AcDb2dVertex
 10
164.1159005841184
 20
210.1484734643975
 30
0.0
 42
0.012000923
  0
VERTEX
  5
22B8E
330
22B7C
100
AcDbEntity
  8
11000_Left
  6
Continuous
 62
     7
370
    13
100
AcDbVertex
100
AcDb2dVertex
 10
164.1024006035281
 20
210.1623534832765
 30
0.0
 42
0.012073356
 70
     1
  0
VERTEX
  5
22B8F
330
22B7C
100
AcDbEntity
  8
11000_Left
  6
Continuous
 62
     7
370
    13
100
AcDbVertex
100
AcDb2dVertex
 10
164.0882806220149
 20
210.1755735030216
 30
0.0
 42
0.012239225
  0
VERTEX
  5
22B90
330
22B7C
100
AcDbEntity
  8
11000_Left
  6
Continuous
 62
     7
370
    13
100
AcDbVertex
100
AcDb2dVertex
 10
164.0735406394396
 20
210.1880335236339
 30
0.0
 42
0.011921692
 70
     1
  0
VERTEX
  5
22B91
330
22B7C
100
AcDbEntity
  8
11000_Left
  6
Continuous
 62
     7
370
    13
100
AcDbVertex
100
AcDb2dVertex
 10
164.0583606557727
 20
210.1997135448618
 30
0.0
 42
0.01119153
  0
VERTEX
  5
22B92
330
22B7C
100
AcDbEntity
  8
11000_Left
  6
Continuous
 62
     7
370
    13
100
AcDbVertex
100
AcDb2dVertex
 10
164.0428406709316
 20
210.210553566565
 30
0.0
 42
0.012097776
 70
     1
  0
VERTEX
  5
22B93
330
22B7C
100
AcDbEntity
  8
11000_Left
  6
Continuous
 62
     7
370
    13
100
AcDbVertex
100
AcDb2dVertex
 10
164.0266606850555
 20
210.2206535891914
 30
0.0
 42
0.01400672
  0
VERTEX
  5
22B94
330
22B7C
100
AcDbEntity
  8
11000_Left
  6
Continuous
 62
     7
370
    13
100
AcDbVertex
100
AcDb2dVertex
 10
164.009740698089
 20
210.2299736128525
 30
0.0
 42
0.0109462
 70
     1
  0
VERTEX
  5
22B95
330
22B7C
100
AcDbEntity
  8
11000_Left
  6
Continuous
 62
     7
370
    13
100
AcDbVertex
100
AcDb2dVertex
 10
163.9936607096394
 20
210.2382336353389
 30
0.0
 42
0.0045767638
  0
VERTEX
  5
22B96
330
22B7C
100
AcDbEntity
  8
11000_Left
  6
Continuous
 62
     7
370
    13
100
AcDbVertex
100
AcDb2dVertex
 10
163.9789207194842
 20
210.2452736559514
 30
0.0
 42
0.014536655
 70
     1
  0
VERTEX
  5
22B97
330
22B7C
100
AcDbEntity
  8
11000_Left
  6
Continuous
 62
     7
370
    13
100
AcDbVertex
100
AcDb2dVertex
 10
163.9598607294408
 20
210.2523936826052
 30
0.0
 42
0.024468357
  0
VERTEX
  5
22B98
330
22B7C
100
AcDbEntity
  8
11000_Left
  6
Continuous
 62
     7
370
    13
100
AcDbVertex
100
AcDb2dVertex
 10
163.9304007414114
 20
210.2609537238022
 30
0.0
 42
0.012416379
 70
     1
  0
VERTEX
  5
22B99
330
22B7C
100
AcDbEntity
  8
11000_Left
  6
Continuous
 62
     7
370
    13
100
AcDbVertex
100
AcDb2dVertex
 10
163.8917807550597
 20
210.2707137778085
 30
0.0
 42
0.0067719197
  0
SEQEND
  5
22B9A
330
22B7C
100
AcDbEntity
  8
11000_Left
  6
Continuous
 62
     7
370
    13
  0
LINE
  5
22B9B
330
1F
100
AcDbEntity
  8
11000_Left
  6
Continuous
 62
     7
370
    13
100
AcDbLine
 10
164.2222798749576
 20
209.6413533156355
 30
0.0
 11
164.2222802041708
 21
209.8767733156353
 31
0.0
  0
LINE
  5
22B9C
330
1F
100
AcDbEntity
  8
11000_Left
  6
Continuous
 62
     7
370
    13
100
AcDbLine
 10
161.1684586457046
 20
208.7623175861215
 30
0.0
 11
161.1673586454251
 21
208.7621175876604
 31
0.0
  0
LINE
  5
22B9D
330
1F
100
AcDbEntity
  8
11000_Left
  6
Continuous
 62
     7
370
    13
100
AcDbLine
 10
162.8875990764404
 20
209.0703351820629
 30
0.0
 11
163.8917593240412
 21
209.2473937778377
 31
0.0
  0
LINE
  5
22B9E
330
1F
100
AcDbEntity
  8
11000_Left
  6
Continuous
 62
     7
370
    13
100
AcDbLine
 10
161.1676386523329
 20
208.7670575872687
 30
0.0
 11
162.8875990764404
 21
209.0703351820629
 31
0.0
  0
LINE
  5
22B9F
330
1F
100
AcDbEntity
  8
11000_Left
  6
Continuous
 62
     7
370
    13
100
AcDbLine
 10
161.1684586457046
 20
208.7623175861215
 30
0.0
 11
161.1684586457046
 21
208.7623175861215
 31
0.0
  0
LINE
  5
22BA0
330
1F
100
AcDbEntity
  8
11000_Left
  6
Continuous
 62
     7
370
    13
100
AcDbLine
 10
161.2703814082588
 20
210.7378174435946
 30
0.0
 11
161.2722814078115
 21
210.7374974409374
 31
0.0
  0
LINE
  5
22BA1
330
1F
100
AcDbEntity
  8
11000_Left
  6
Continuous
 62
     7
370
    13
100
AcDbLine
 10
161.271441401183
 20
210.7327574421117
 30
0.0
 11
161.271441401183
 21
210.7327574421117
 31
0.0
  0
LINE
  5
22BA2
330
1F
100
AcDbEntity
  8
11000_Left
  6
Continuous
 62
     7
370
    13
100
AcDbLine
 10
162.8876010026631
 20
210.4477751820613
 30
0.0
 11
161.271441401183
 21
210.7327574421117
 31
0.0
  0
POLYLINE
  5
22BA3
330
1F
100
AcDbEntity
  8
11000_Left
  6
Continuous
 62
     7
370
    13
100
AcDb2dPolyline
 66
     1
 10
0.0
 20
0.0
 30
0.0
 70
     2
  0
VERTEX
  5
22BA4
330
22BA3
100
AcDbEntity
  8
11000_Left
  6
Continuous
 62
     7
370
    13
100
AcDbVertex
100
AcDb2dVertex
 10
163.8917807550597
 20
210.2707137778085
 30
0.0
  0
VERTEX
  5
22BA5
330
22BA3
100
AcDbEntity
  8
11000_Left
  6
Continuous
 62
     7
370
    13
100
AcDbVertex
100
AcDb2dVertex
 10
163.8915207551158
 20
210.2707537781725
 30
0.0
 42
0.0023463893
 70
     1
  0
VERTEX
  5
22BA6
330
22BA3
100
AcDbEntity
  8
11000_Left
  6
Continuous
 62
     7
370
    13
100
AcDbVertex
100
AcDb2dVertex
 10
163.8907607553116
 20
210.2708937792349
 30
0.0
 42
0.0002247108
  0
VERTEX
  5
22BA7
330
22BA3
100
AcDbEntity
  8
11000_Left
  6
Continuous
 62
     7
370
    13
100
AcDbVertex
100
AcDb2dVertex
 10
163.8895007556193
 20
210.2711137809974
 30
0.0
 42
0.0000773054
 70
     1
  0
VERTEX
  5
22BA8
330
22BA3
100
AcDbEntity
  8
11000_Left
  6
Continuous
 62
     7
370
    13
100
AcDbVertex
100
AcDb2dVertex
 10
163.8877407560667
 20
210.2714337834581
 30
0.0
 42
0.0000383016
  0
VERTEX
  5
22BA9
330
22BA3
100
AcDbEntity
  8
11000_Left
  6
Continuous
 62
     7
370
    13
100
AcDbVertex
100
AcDb2dVertex
 10
163.8854807565978
 20
210.2718137866186
 30
0.0
 42
0.0000220389
 70
     1
  0
VERTEX
  5
22BAA
330
22BA3
100
AcDbEntity
  8
11000_Left
  6
Continuous
 62
     7
370
    13
100
AcDbVertex
100
AcDb2dVertex
 10
163.8827407572971
 20
210.2723137904501
 30
0.0
 42
0.0000142028
  0
VERTEX
  5
22BAB
330
22BA3
100
AcDbEntity
  8
11000_Left
  6
Continuous
 62
     7
370
    13
100
AcDbVertex
100
AcDb2dVertex
 10
163.8794807580802
 20
210.2728737950089
 30
0.0
 42
0.0000095619
 70
     1
  0
VERTEX
  5
22BAC
330
22BA3
100
AcDbEntity
  8
11000_Left
  6
Continuous
 62
     7
370
    13
100
AcDbVertex
100
AcDb2dVertex
 10
163.8757407590037
 20
210.2735338002391
 30
0.0
 42
0.0000066521
  0
VERTEX
  5
22BAD
330
22BA3
100
AcDbEntity
  8
11000_Left
  6
Continuous
 62
     7
370
    13
100
AcDbVertex
100
AcDb2dVertex
 10
163.8715007600663
 20
210.2742938061683
 30
0.0
 42
0.0000047102
 70
     1
  0
VERTEX
  5
22BAE
330
22BA3
100
AcDbEntity
  8
11000_Left
  6
Continuous
 62
     7
370
    13
100
AcDbVertex
100
AcDb2dVertex
 10
163.866780761213
 20
210.2751138127691
 30
0.0
 42
0.0000033371
  0
VERTEX
  5
22BAF
330
22BA3
100
AcDbEntity
  8
11000_Left
  6
Continuous
 62
     7
370
    13
100
AcDbVertex
100
AcDb2dVertex
 10
163.8615807624994
 20
210.2760338200403
 30
0.0
 42
0.0000023618
 70
     1
  0
VERTEX
  5
22BB0
330
22BA3
100
AcDbEntity
  8
11000_Left
  6
Continuous
 62
     7
370
    13
100
AcDbVertex
100
AcDb2dVertex
 10
163.8558807639258
 20
210.2770538280117
 30
0.0
 42
0.0000016042
  0
VERTEX
  5
22BB1
330
22BA3
100
AcDbEntity
  8
11000_Left
  6
Continuous
 62
     7
370
    13
100
AcDbVertex
100
AcDb2dVertex
 10
163.8497007654362
 20
210.2781338366539
 30
0.0
 42
0.0000010324
 70
     1
  0
VERTEX
  5
22BB2
330
22BA3
100
AcDbEntity
  8
11000_Left
  6
Continuous
 62
     7
370
    13
100
AcDbVertex
100
AcDb2dVertex
 10
163.8430407670864
 20
210.2793138459671
 30
0.0
 42
0.0000005318
  0
VERTEX
  5
22BB3
330
22BA3
100
AcDbEntity
  8
11000_Left
  6
Continuous
 62
     7
370
    13
100
AcDbVertex
100
AcDb2dVertex
 10
163.8358807688482
 20
210.2805738559797
 30
0.0
 42
0.0000002322
 70
     1
  0
VERTEX
  5
22BB4
330
22BA3
100
AcDbEntity
  8
11000_Left
  6
Continuous
 62
     7
370
    13
100
AcDbVertex
100
AcDb2dVertex
 10
163.8282607707224
 20
210.2819138666359
 30
0.0
 42
0.000000032
  0
VERTEX
  5
22BB5
330
22BA3
100
AcDbEntity
  8
11000_Left
  6
Continuous
 62
     7
370
    13
100
AcDbVertex
100
AcDb2dVertex
 10
163.820160772708
 20
210.2833338779626
 30
0.0
 42
-0.0000000308
 70
     1
  0
VERTEX
  5
22BB6
330
22BA3
100
AcDbEntity
  8
11000_Left
  6
Continuous
 62
     7
370
    13
100
AcDbVertex
100
AcDb2dVertex
 10
163.8116007748335
 20
210.2848538899327
 30
0.0
  0
VERTEX
  5
22BB7
330
22BA3
100
AcDbEntity
  8
11000_Left
  6
Continuous
 62
     7
370
    13
100
AcDbVertex
100
AcDb2dVertex
 10
163.8025807770429
 20
210.2864339025463
 30
0.0
 70
     1
  0
VERTEX
  5
22BB8
330
22BA3
100
AcDbEntity
  8
11000_Left
  6
Continuous
 62
     7
370
    13
100
AcDbVertex
100
AcDb2dVertex
 10
163.7931007793925
 20
210.2881139158037
 30
0.0
  0
VERTEX
  5
22BB9
330
22BA3
100
AcDbEntity
  8
11000_Left
  6
Continuous
 62
     7
370
    13
100
AcDbVertex
100
AcDb2dVertex
 10
163.7831607818534
 20
210.2898739297038
 30
0.0
 70
     1
  0
VERTEX
  5
22BBA
330
22BA3
100
AcDbEntity
  8
11000_Left
  6
Continuous
 62
     7
370
    13
100
AcDbVertex
100
AcDb2dVertex
 10
163.7727807843987
 20
210.2916939442188
 30
0.0
  0
VERTEX
  5
22BBB
330
22BA3
100
AcDbEntity
  8
11000_Left
  6
Continuous
 62
     7
370
    13
100
AcDbVertex
100
AcDb2dVertex
 10
163.7619607870838
 20
210.2936139593498
 30
0.0
 70
     1
  0
VERTEX
  5
22BBC
330
22BA3
100
AcDbEntity
  8
11000_Left
  6
Continuous
 62
     7
370
    13
100
AcDbVertex
100
AcDb2dVertex
 10
163.7507207898521
 20
210.2955939750679
 30
0.0
  0
VERTEX
  5
22BBD
330
22BA3
100
AcDbEntity
  8
11000_Left
  6
Continuous
 62
     7
370
    13
100
AcDbVertex
100
AcDb2dVertex
 10
163.7390407927334
 20
210.2976539914016
 30
0.0
 70
     1
  0
VERTEX
  5
22BBE
330
22BA3
100
AcDbEntity
  8
11000_Left
  6
Continuous
 62
     7
370
    13
100
AcDbVertex
100
AcDb2dVertex
 10
163.7269407956978
 20
210.2997740083223
 30
0.0
  0
VERTEX
  5
22BBF
330
22BA3
100
AcDbEntity
  8
11000_Left
  6
Continuous
 62
     7
370
    13
100
AcDbVertex
100
AcDb2dVertex
 10
163.7144407988023
 20
210.3019940258022
 30
0.0
 70
     1
  0
VERTEX
  5
22BC0
330
22BA3
100
AcDbEntity
  8
11000_Left
  6
Continuous
 62
     7
370
    13
100
AcDbVertex
100
AcDb2dVertex
 10
163.7015208019627
 20
210.3042540438695
 30
0.0
  0
VERTEX
  5
22BC1
330
22BA3
100
AcDbEntity
  8
11000_Left
  6
Continuous
 62
     7
370
    13
100
AcDbVertex
100
AcDb2dVertex
 10
163.6881808052628
 20
210.3066140625246
 30
0.0
 70
     1
  0
VERTEX
  5
22BC2
330
22BA3
100
AcDbEntity
  8
11000_Left
  6
Continuous
 62
     7
370
    13
100
AcDbVertex
100
AcDb2dVertex
 10
163.6744608086471
 20
210.3090340817106
 30
0.0
  0
VERTEX
  5
22BC3
330
22BA3
100
AcDbEntity
  8
11000_Left
  6
Continuous
 62
     7
370
    13
100
AcDbVertex
100
AcDb2dVertex
 10
163.6603408121154
 20
210.3115141014563
 30
0.0
 70
     1
  0
VERTEX
  5
22BC4
330
22BA3
100
AcDbEntity
  8
11000_Left
  6
Continuous
 62
     7
370
    13
100
AcDbVertex
100
AcDb2dVertex
 10
163.645840815695
 20
210.314074121733
 30
0.0
  0
VERTEX
  5
22BC5
330
22BA3
100
AcDbEntity
  8
11000_Left
  6
Continuous
 62
     7
370
    13
100
AcDbVertex
100
AcDb2dVertex
 10
163.6309608193871
 20
210.316714142541
 30
0.0
 70
     1
  0
VERTEX
  5
22BC6
330
22BA3
100
AcDbEntity
  8
11000_Left
  6
Continuous
 62
     7
370
    13
100
AcDbVertex
100
AcDb2dVertex
 10
163.6157008231348
 20
210.3193941638812
 30
0.0
  0
VERTEX
  5
22BC7
330
22BA3
100
AcDbEntity
  8
11000_Left
  6
Continuous
 62
     7
370
    13
100
AcDbVertex
100
AcDb2dVertex
 10
163.6000808269943
 20
210.3221541857237
 30
0.0
 70
     1
  0
VERTEX
  5
22BC8
330
22BA3
100
AcDbEntity
  8
11000_Left
  6
Continuous
 62
     7
370
    13
100
AcDbVertex
100
AcDb2dVertex
 10
163.5841008309378
 20
210.3249742080711
 30
0.0
  0
VERTEX
  5
22BC9
330
22BA3
100
AcDbEntity
  8
11000_Left
  6
Continuous
 62
     7
370
    13
100
AcDbVertex
100
AcDb2dVertex
 10
163.5677608349656
 20
210.327854230921
 30
0.0
 70
     1
  0
VERTEX
  5
22BCA
330
22BA3
100
AcDbEntity
  8
11000_Left
  6
Continuous
 62
     7
370
    13
100
AcDbVertex
100
AcDb2dVertex
 10
163.5510808390768
 20
210.3307942542457
 30
0.0
  0
VERTEX
  5
22BCB
330
22BA3
100
AcDbEntity
  8
11000_Left
  6
Continuous
 62
     7
370
    13
100
AcDbVertex
100
AcDb2dVertex
 10
163.5340608432716
 20
210.3337942780474
 30
0.0
 70
     1
  0
VERTEX
  5
22BCC
330
22BA3
100
AcDbEntity
  8
11000_Left
  6
Continuous
 62
     7
370
    13
100
AcDbVertex
100
AcDb2dVertex
 10
163.5167008475509
 20
210.3368543023236
 30
0.0
  0
VERTEX
  5
22BCD
330
22BA3
100
AcDbEntity
  8
11000_Left
  6
Continuous
 62
     7
370
    13
100
AcDbVertex
100
AcDb2dVertex
 10
163.499040851914
 20
210.339974327019
 30
0.0
 70
     1
  0
VERTEX
  5
22BCE
330
22BA3
100
AcDbEntity
  8
11000_Left
  6
Continuous
 62
     7
370
    13
100
AcDbVertex
100
AcDb2dVertex
 10
163.481060856333
 20
210.3431343521626
 30
0.0
  0
VERTEX
  5
22BCF
330
22BA3
100
AcDbEntity
  8
11000_Left
  6
Continuous
 62
     7
370
    13
100
AcDbVertex
100
AcDb2dVertex
 10
163.4627808608361
 20
210.3463543777256
 30
0.0
 70
     1
  0
VERTEX
  5
22BD0
330
22BA3
100
AcDbEntity
  8
11000_Left
  6
Continuous
 62
     7
370
    13
100
AcDbVertex
100
AcDb2dVertex
 10
163.4442208654229
 20
210.3496344036802
 30
0.0
  0
VERTEX
  5
22BD1
330
22BA3
100
AcDbEntity
  8
11000_Left
  6
Continuous
 62
     7
370
    13
100
AcDbVertex
100
AcDb2dVertex
 10
163.4253608700653
 20
210.352954430054
 30
0.0
 70
     1
  0
VERTEX
  5
22BD2
330
22BA3
100
AcDbEntity
  8
11000_Left
  6
Continuous
 62
     7
370
    13
100
AcDbVertex
100
AcDb2dVertex
 10
163.4062208747921
 20
210.3563344568196
 30
0.0
  0
VERTEX
  5
22BD3
330
22BA3
100
AcDbEntity
  8
11000_Left
  6
Continuous
 62
     7
370
    13
100
AcDbVertex
100
AcDb2dVertex
 10
163.3868208795745
 20
210.3597544839487
 30
0.0
 70
     1
  0
VERTEX
  5
22BD4
330
22BA3
100
AcDbEntity
  8
11000_Left
  6
Continuous
 62
     7
370
    13
100
AcDbVertex
100
AcDb2dVertex
 10
163.3671608844133
 20
210.3632145114415
 30
0.0
  0
VERTEX
  5
22BD5
330
22BA3
100
AcDbEntity
  8
11000_Left
  6
Continuous
 62
     7
370
    13
100
AcDbVertex
100
AcDb2dVertex
 10
163.3472408893356
 20
210.3667345392975
 30
0.0
 70
     1
  0
VERTEX
  5
22BD6
330
22BA3
100
AcDbEntity
  8
11000_Left
  6
Continuous
 62
     7
370
    13
100
AcDbVertex
100
AcDb2dVertex
 10
163.3270808943139
 20
210.3702945674895
 30
0.0
  0
VERTEX
  5
22BD7
330
22BA3
100
AcDbEntity
  8
11000_Left
  6
Continuous
 62
     7
370
    13
100
AcDbVertex
100
AcDb2dVertex
 10
163.3067008993203
 20
210.373874595989
 30
0.0
 70
     1
  0
VERTEX
  5
22BD8
330
22BA3
100
AcDbEntity
  8
11000_Left
  6
Continuous
 62
     7
370
    13
100
AcDbVertex
100
AcDb2dVertex
 10
163.2860809044107
 20
210.3775146248242
 30
0.0
 42
0.0000000267
  0
VERTEX
  5
22BD9
330
22BA3
100
AcDbEntity
  8
11000_Left
  6
Continuous
 62
     7
370
    13
100
AcDbVertex
100
AcDb2dVertex
 10
163.2652609095567
 20
210.3811946539387
 30
0.0
 42
0.0000000466
 70
     1
  0
VERTEX
  5
22BDA
330
22BA3
100
AcDbEntity
  8
11000_Left
  6
Continuous
 62
     7
370
    13
100
AcDbVertex
100
AcDb2dVertex
 10
163.2442209147306
 20
210.3848946833616
 30
0.0
 42
0.0000000713
  0
VERTEX
  5
22BDB
330
22BA3
100
AcDbEntity
  8
11000_Left
  6
Continuous
 62
     7
370
    13
100
AcDbVertex
100
AcDb2dVertex
 10
163.2229809199607
 20
210.3886347130637
 30
0.0
 42
0.0000000911
 70
     1
  0
VERTEX
  5
22BDC
330
22BA3
100
AcDbEntity
  8
11000_Left
  6
Continuous
 62
     7
370
    13
100
AcDbVertex
100
AcDb2dVertex
 10
163.2015809252466
 20
210.3924147429897
 30
0.0
 42
0.0000001117
  0
VERTEX
  5
22BDD
330
22BA3
100
AcDbEntity
  8
11000_Left
  6
Continuous
 62
     7
370
    13
100
AcDbVertex
100
AcDb2dVertex
 10
163.179980930561
 20
210.3962147731954
 30
0.0
 42
0.000000133
 70
     1
  0
VERTEX
  5
22BDE
330
22BA3
100
AcDbEntity
  8
11000_Left
  6
Continuous
 62
     7
370
    13
100
AcDbVertex
100
AcDb2dVertex
 10
163.1582209359308
 20
210.4000548036244
 30
0.0
 42
0.0000001608
  0
VERTEX
  5
22BDF
330
22BA3
100
AcDbEntity
  8
11000_Left
  6
Continuous
 62
     7
370
    13
100
AcDbVertex
100
AcDb2dVertex
 10
163.1362609413568
 20
210.4039348343337
 30
0.0
 42
0.0000001712
 70
     1
  0
VERTEX
  5
22BE0
330
22BA3
100
AcDbEntity
  8
11000_Left
  6
Continuous
 62
     7
370
    13
100
AcDbVertex
100
AcDb2dVertex
 10
163.1142409467827
 20
210.4078148651269
 30
0.0
 42
0.0000001722
  0
VERTEX
  5
22BE1
330
22BA3
100
AcDbEntity
  8
11000_Left
  6
Continuous
 62
     7
370
    13
100
AcDbVertex
100
AcDb2dVertex
 10
163.0922209522082
 20
210.4116948959196
 30
0.0
 42
0.0000002193
 70
     1
  0
VERTEX
  5
22BE2
330
22BA3
100
AcDbEntity
  8
11000_Left
  6
Continuous
 62
     7
370
    13
100
AcDbVertex
100
AcDb2dVertex
 10
163.0697009577739
 20
210.4156749274115
 30
0.0
 42
0.0000003044
  0
VERTEX
  5
22BE3
330
22BA3
100
AcDbEntity
  8
11000_Left
  6
Continuous
 62
     7
370
    13
100
AcDbVertex
100
AcDb2dVertex
 10
163.0465209634797
 20
210.4197549598263
 30
0.0
 42
0.0000002297
 70
     1
  0
VERTEX
  5
22BE4
330
22BA3
100
AcDbEntity
  8
11000_Left
  6
Continuous
 62
     7
370
    13
100
AcDbVertex
100
AcDb2dVertex
 10
163.0247009688492
 20
210.4235949903397
 30
0.0
 42
0.000000041
  0
VERTEX
  5
22BE5
330
22BA3
100
AcDbEntity
  8
11000_Left
  6
Continuous
 62
     7
370
    13
100
AcDbVertex
100
AcDb2dVertex
 10
163.004900973744
 20
210.4270950180282
 30
0.0
 42
0.0000003918
 70
     1
  0
VERTEX
  5
22BE6
330
22BA3
100
AcDbEntity
  8
11000_Left
  6
Continuous
 62
     7
370
    13
100
AcDbVertex
100
AcDb2dVertex
 10
162.9793009800644
 20
210.4316150538277
 30
0.0
 42
0.000000761
  0
VERTEX
  5
22BE7
330
22BA3
100
AcDbEntity
  8
11000_Left
  6
Continuous
 62
     7
370
    13
100
AcDbVertex
100
AcDb2dVertex
 10
162.9396609898253
 20
210.4385951092603
 30
0.0
 42
0.0000003741
 70
     1
  0
VERTEX
  5
22BE8
330
22BA3
100
AcDbEntity
  8
11000_Left
  6
Continuous
 62
     7
370
    13
100
AcDbVertex
100
AcDb2dVertex
 10
162.8876010026629
 20
210.4477751820613
 30
0.0
 42
0.000000192
  0
SEQEND
  5
22BE9
330
22BA3
100
AcDbEntity
  8
11000_Left
  6
Continuous
 62
     7
370
    13
  0
LINE
  5
22BEA
330
1F
100
AcDbEntity
  8
11000_Left
  6
Continuous
 62
     7
370
    13
100
AcDbLine
 10
161.2722814078115
 20
210.7374974409374
 30
0.0
 11
161.2722814078115
 21
210.7374974409374
 31
0.0
  0
LINE
  5
22BEB
330
1F
100
AcDbEntity
  8
11000_Left
  6
Continuous
 62
     7
370
    13
100
AcDbLine
 10
161.1671786411459
 20
208.7590575879121
 30
0.0
 11
161.1644786411459
 21
208.7590575916876
 31
0.0
  0
LINE
  5
22BEC
330
1F
100
AcDbEntity
  8
11000_Left
  6
Continuous
 62
     7
370
    13
100
AcDbLine
 10
53.87233737714564
 20
236.4592076298785
 30
0.0
 11
53.87233178351448
 21
232.4592076298827
 31
0.0
  0
ARC
  5
22BED
330
1F
100
AcDbEntity
  8
11000_Left
  6
Continuous
 62
     7
370
    50
100
AcDbCircle
 39
0.7
 10
87.67234534803696
 20
242.1591603636904
 30
0.0
 40
0.3
100
AcDbArc
 50
89.99991987714215
 51
179.9999198771421
  0
ARC
  5
22BEE
330
1F
100
AcDbEntity
  8
11000_Left
  6
Continuous
 62
     7
370
    50
100
AcDbCircle
 39
0.7
 10
108.6723579336863
 20
251.1591309971183
 30
0.0
 40
0.3
100
AcDbArc
 50
89.99991987714215
 51
179.9999198771421
  0
ARC
  5
22BEF
330
1F
100
AcDbEntity
  8
11000_Left
  6
Continuous
 62
     7
370
    50
100
AcDbCircle
 39
0.7
 10
106.8723478651518
 20
243.9591335142595
 30
0.0
 40
1.5
100
AcDbArc
 50
269.9999198771422
 51
359.9999198771421
  0
ARC
  5
22BF0
330
1F
100
AcDbEntity
  8
11000_Left
  6
Continuous
 62
     7
370
    50
100
AcDbCircle
 39
0.7
 10
115.07235793368
 20
251.1591220473087
 30
0.0
 40
0.3
100
AcDbArc
 50
359.9999198771421
 51
89.99991987714215
  0
LINE
  5
22BF1
330
1F
100
AcDbEntity
  8
11000_Left
  6
Continuous
 62
     7
370
    13
100
AcDbLine
 10
47.37232758829759
 20
229.4592167195359
 30
0.0
 11
157.1223275881902
 21
229.4590632442832
 31
0.0
  0
LINE
  5
22BF2
330
1F
100
AcDbEntity
  8
11000_Left
  6
Continuous
 62
     7
370
    50
100
AcDbLine
 39
0.7
 10
87.37233178348175
 20
232.4591607832223
 30
0.0
 11
87.37234534803723
 21
242.1591607832126
 31
0.0
  0
LINE
  5
22BF3
330
1F
100
AcDbEntity
  8
11000_Left
  6
Continuous
 62
     7
370
    13
100
AcDbLine
 10
87.3723373771129
 20
236.4591607832182
 30
0.0
 11
54.67233737714514
 21
236.4592065111523
 31
0.0
  0
LINE
  5
22BF4
330
1F
100
AcDbEntity
  8
11000_Left
  6
Continuous
 62
     7
370
    13
100
AcDbLine
 10
53.87233737714564
 20
236.4592076298785
 30
0.0
 11
54.67233737714514
 21
236.4592065111523
 31
0.0
  0
LINE
  5
22BF5
330
1F
100
AcDbEntity
  8
11000_Left
  6
Continuous
 62
     7
370
    50
100
AcDbLine
 39
0.7
 10
87.77234576755905
 20
242.4591602238495
 30
0.0
 11
87.67234576755937
 21
242.4591603636904
 31
0.0
  0
LINE
  5
22BF6
330
1F
100
AcDbEntity
  8
11000_Left
  6
Continuous
 62
     7
370
    50
100
AcDbLine
 39
0.7
 10
106.8723457675403
 20
242.459133514261
 30
0.0
 11
87.77234576755905
 21
242.4591602238495
 31
0.0
  0
LINE
  5
22BF7
330
1F
100
AcDbEntity
  8
11000_Left
  6
Continuous
 62
     7
370
    50
100
AcDbLine
 39
0.7
 10
108.3723579336865
 20
251.1591314166407
 30
0.0
 11
108.3723478651507
 21
243.959131416648
 31
0.0
  0
LINE
  5
22BF8
330
1F
100
AcDbEntity
  8
11000_Left
  6
Continuous
 62
     7
370
    50
100
AcDbLine
 39
0.7
 10
108.6723583532089
 20
251.4591309971183
 30
0.0
 11
115.0723583532026
 21
251.4591220473084
 31
0.0
  0
LINE
  5
22BF9
330
1F
100
AcDbEntity
  8
11000_Left
  6
Continuous
 62
     7
370
    13
100
AcDbLine
 10
150.1085783531684
 20
251.4590730523864
 30
0.0
 11
150.1085983531684
 21
251.4590730523584
 31
0.0
  0
ARC
  5
22BFA
330
1F
100
AcDbEntity
  8
11000_Left
  6
Continuous
 62
     7
370
    50
100
AcDbCircle
 39
0.7
 10
150.9829386328488
 20
251.659071829674
 30
0.0
 40
0.8
100
AcDbArc
 50
89.99991987714215
 51
165.9999198771379
  0
LINE
  5
22BFB
330
1F
100
AcDbEntity
  8
11000_Left
  6
Continuous
 62
     7
370
    50
100
AcDbLine
 39
0.7
 10
150.982939751575
 20
252.4590718296735
 30
0.0
 11
157.1223597515691
 21
252.4590632442609
 31
0.0
  0
LINE
  5
22BFC
330
1F
100
AcDbEntity
  8
11000_Left
  6
Continuous
 62
     7
370
    13
100
AcDbLine
 10
148.5378095432008
 20
245.1590752489553
 30
0.0
 11
148.5378095432008
 21
245.1590752489553
 31
0.0
  0
LINE
  5
22BFD
330
1F
100
AcDbEntity
  8
11000_Left
  6
Continuous
 62
     7
370
    13
100
AcDbLine
 10
157.1223576539573
 20
250.9590632442623
 30
0.0
 11
157.1223275881902
 21
229.4590632442832
 31
0.0
  0
LINE
  5
22BFE
330
1F
100
AcDbEntity
  8
11000_Left
  6
Continuous
 62
     7
370
    13
100
AcDbLine
 10
157.1223597515691
 20
252.4590632442609
 30
0.0
 11
157.1223576539573
 21
250.9590632442623
 31
0.0
  0
ARC
  5
22BFF
330
1F
100
AcDbEntity
  8
11000_Left
  6
Continuous
 62
     7
370
    13
100
AcDbCircle
 10
49.57236156960448
 20
253.7592136430155
 30
0.0
 40
0.8
100
AcDbArc
 50
359.9999198771421
 51
89.99991987714215
  0
LINE
  5
22C00
330
1F
100
AcDbEntity
  8
11000_Left
  6
Continuous
 62
     7
370
    13
100
AcDbLine
 10
46.37235919231443
 20
252.0592181179215
 30
0.0
 11
42.67235919231803
 21
252.0592232920303
 31
0.0
  0
LINE
  5
22C01
330
1F
100
AcDbEntity
  8
11000_Left
  6
Continuous
 62
     7
370
    13
100
AcDbLine
 10
43.47236268833692
 20
254.5592221733015
 30
0.0
 11
49.57236268833092
 21
254.5592136430141
 31
0.0
  0
LINE
  5
22C02
330
1F
100
AcDbEntity
  8
11000_Left
  6
Continuous
 62
     7
370
    13
100
AcDbLine
 10
42.67235919231803
 20
252.0592232920303
 30
0.0
 11
42.67236156961121
 21
253.7592232920289
 31
0.0
  0
ARC
  5
22C03
330
1F
100
AcDbEntity
  8
11000_Left
  6
Continuous
 62
     7
370
    13
100
AcDbCircle
 10
46.37235779390628
 20
251.0592181179226
 30
0.0
 40
1.0
100
AcDbArc
 50
359.9999198771421
 51
89.99991987714215
  0
ARC
  5
22C04
330
1F
100
AcDbEntity
  8
11000_Left
  6
Continuous
 62
     7
370
    13
100
AcDbCircle
 10
43.47236156961048
 20
253.7592221733027
 30
0.0
 40
0.8
100
AcDbArc
 50
89.99991987714215
 51
179.9999198771421
  0
LINE
  5
22C05
330
1F
100
AcDbEntity
  8
11000_Left
  6
Continuous
 62
     7
370
    13
100
AcDbLine
 10
50.37236156960353
 20
253.759212524289
 30
0.0
 11
50.37233178351789
 21
232.4592125243098
 31
0.0
  0
LINE
  5
22C06
330
1F
100
AcDbEntity
  8
11000_Left
  6
Continuous
 62
     7
370
    13
100
AcDbLine
 10
50.32410195223588
 20
254.032832591776
 30
0.0
 11
56.72035737717123
 21
236.4592236471853
 31
0.0
  0
LINE
  5
22C07
330
1F
100
AcDbEntity
  8
11000_Left
  6
Continuous
 62
     7
370
    13
100
AcDbLine
 10
47.37233178352084
 20
232.4592167195332
 30
0.0
 11
47.37232968590933
 21
230.9592167195346
 31
0.0
  0
LINE
  5
22C08
330
1F
100
AcDbEntity
  8
11000_Left
  6
Continuous
 62
     7
370
    13
100
AcDbLine
 10
47.37232968590933
 20
230.9592167195346
 30
0.0
 11
47.37232758829759
 21
229.4592167195359
 31
0.0
  0
LINE
  5
22C09
330
1F
100
AcDbEntity
  8
11000_Left
  6
Continuous
 62
     7
370
    13
100
AcDbLine
 10
47.37233178352084
 20
232.4592167195332
 30
0.0
 11
47.37235779390539
 21
251.059216719515
 31
0.0
  0
ARC
  5
22C0A
330
1F
100
AcDbEntity
  8
11000_Left
  6
Continuous
 62
     7
370
    13
100
AcDbCircle
 10
145.2150720631068
 20
232.659079895485
 30
0.0
 40
0.2
100
AcDbArc
 50
269.9999198771422
 51
345.9999198771379
  0
LINE
  5
22C0B
330
1F
100
AcDbEntity
  8
11000_Left
  6
Continuous
 62
     7
370
    50
100
AcDbLine
 39
0.7
 10
145.409131995452
 20
232.6106996241098
 30
0.0
 11
150.2066989034979
 21
251.8526129151741
 31
0.0
  0
LINE
  5
22C0C
330
1F
100
AcDbEntity
  8
11000_Left
  6
Continuous
 62
     7
370
    13
100
AcDbLine
 39
0.7
 10
115.3723373770856
 20
236.4591216278008
 30
0.0
 11
146.3723373770551
 21
236.4590782771599
 31
0.0
  0
LINE
  5
22C0D
330
1F
100
AcDbEntity
  8
11000_Left
  6
Continuous
 62
     7
370
    50
100
AcDbLine
 39
0.7
 10
47.37233178352084
 20
232.4592167195332
 30
0.0
 11
145.2150717834252
 21
232.4590798954854
 31
0.0
  0
LINE
  5
22C0E
330
1F
100
AcDbEntity
  8
11000_Left
  6
Continuous
 62
     7
370
    50
100
AcDbLine
 39
0.7
 10
115.3723579336797
 20
251.1591216277863
 30
0.0
 11
115.3723317834544
 21
232.4591216278049
 31
0.0
  0
POLYLINE
  5
22C6B
330
1F
100
AcDbEntity
  8
11000_Left
  6
Continuous
 62
     7
370
    13
100
AcDb2dPolyline
 66
     1
 10
0.0
 20
0.0
 30
0.0
 70
     2
  0
VERTEX
  5
22C6C
330
22C6B
100
AcDbEntity
  8
11000_Left
  6
Continuous
 62
     7
370
    13
100
AcDbVertex
100
AcDb2dVertex
 10
127.9040399053108
 20
181.0591241033166
 30
0.0
  0
VERTEX
  5
22C6D
330
22C6B
100
AcDbEntity
  8
11000_Left
  6
Continuous
 62
     7
370
    13
100
AcDbVertex
100
AcDb2dVertex
 10
127.9043399053105
 20
181.0591241028969
 30
0.0
 70
     1
  0
VERTEX
  5
22C6E
330
22C6B
100
AcDbEntity
  8
11000_Left
  6
Continuous
 62
     7
370
    13
100
AcDbVertex
100
AcDb2dVertex
 10
127.9046599053106
 20
181.0591241024494
 30
0.0
  0
VERTEX
  5
22C6F
330
22C6B
100
AcDbEntity
  8
11000_Left
  6
Continuous
 62
     7
370
    13
100
AcDbVertex
100
AcDb2dVertex
 10
127.9049599053107
 20
181.0591241020299
 30
0.0
 70
     1
  0
VERTEX
  5
22C70
330
22C6B
100
AcDbEntity
  8
11000_Left
  6
Continuous
 62
     7
370
    13
100
AcDbVertex
100
AcDb2dVertex
 10
127.9052799053108
 20
181.0591241015824
 30
0.0
  0
VERTEX
  5
22C71
330
22C6B
100
AcDbEntity
  8
11000_Left
  6
Continuous
 62
     7
370
    13
100
AcDbVertex
100
AcDb2dVertex
 10
127.9055999053105
 20
181.0591241011349
 30
0.0
 70
     1
  0
VERTEX
  5
22C72
330
22C6B
100
AcDbEntity
  8
11000_Left
  6
Continuous
 62
     7
370
    13
100
AcDbVertex
100
AcDb2dVertex
 10
127.9058999053106
 20
181.0591241007154
 30
0.0
  0
VERTEX
  5
22C73
330
22C6B
100
AcDbEntity
  8
11000_Left
  6
Continuous
 62
     7
370
    13
100
AcDbVertex
100
AcDb2dVertex
 10
127.9062199053107
 20
181.059124100268
 30
0.0
 70
     1
  0
VERTEX
  5
22C74
330
22C6B
100
AcDbEntity
  8
11000_Left
  6
Continuous
 62
     7
370
    13
100
AcDbVertex
100
AcDb2dVertex
 10
127.9065199053109
 20
181.0591240998484
 30
0.0
  0
VERTEX
  5
22C75
330
22C6B
100
AcDbEntity
  8
11000_Left
  6
Continuous
 62
     7
370
    13
100
AcDbVertex
100
AcDb2dVertex
 10
127.9068399053105
 20
181.059124099401
 30
0.0
 70
     1
  0
VERTEX
  5
22C76
330
22C6B
100
AcDbEntity
  8
11000_Left
  6
Continuous
 62
     7
370
    13
100
AcDbVertex
100
AcDb2dVertex
 10
127.9071399053107
 20
181.0591240989815
 30
0.0
  0
VERTEX
  5
22C77
330
22C6B
100
AcDbEntity
  8
11000_Left
  6
Continuous
 62
     7
370
    13
100
AcDbVertex
100
AcDb2dVertex
 10
127.9074599053108
 20
181.059124098534
 30
0.0
 70
     1
  0
VERTEX
  5
22C78
330
22C6B
100
AcDbEntity
  8
11000_Left
  6
Continuous
 62
     7
370
    13
100
AcDbVertex
100
AcDb2dVertex
 10
127.9077599053105
 20
181.0591240981145
 30
0.0
  0
VERTEX
  5
22C79
330
22C6B
100
AcDbEntity
  8
11000_Left
  6
Continuous
 62
     7
370
    13
100
AcDbVertex
100
AcDb2dVertex
 10
127.9080799053106
 20
181.0591240976668
 30
0.0
 70
     1
  0
VERTEX
  5
22C7A
330
22C6B
100
AcDbEntity
  8
11000_Left
  6
Continuous
 62
     7
370
    13
100
AcDbVertex
100
AcDb2dVertex
 10
127.9083799053107
 20
181.0591240972473
 30
0.0
  0
VERTEX
  5
22C7B
330
22C6B
100
AcDbEntity
  8
11000_Left
  6
Continuous
 62
     7
370
    13
100
AcDbVertex
100
AcDb2dVertex
 10
127.9086599053105
 20
181.0591240968557
 30
0.0
 70
     1
  0
VERTEX
  5
22C7C
330
22C6B
100
AcDbEntity
  8
11000_Left
  6
Continuous
 62
     7
370
    13
100
AcDbVertex
100
AcDb2dVertex
 10
127.9089999053105
 20
181.0591240963803
 30
0.0
  0
VERTEX
  5
22C7D
330
22C6B
100
AcDbEntity
  8
11000_Left
  6
Continuous
 62
     7
370
    13
100
AcDbVertex
100
AcDb2dVertex
 10
127.9095399053105
 20
181.0591240956252
 30
0.0
 70
     1
  0
VERTEX
  5
22C7E
330
22C6B
100
AcDbEntity
  8
11000_Left
  6
Continuous
 62
     7
370
    13
100
AcDbVertex
100
AcDb2dVertex
 10
127.9102599053105
 20
181.0591240946184
 30
0.0
  0
SEQEND
  5
22C7F
330
22C6B
100
AcDbEntity
  8
11000_Left
  6
Continuous
 62
     7
370
    13
  0
POLYLINE
  5
22D0F
330
1F
100
AcDbEntity
  8
11000_Left
  6
Continuous
 62
     7
370
    13
100
AcDb2dPolyline
 66
     1
 10
0.0
 20
0.0
 30
0.0
 70
     2
  0
VERTEX
  5
22D10
330
22D0F
100
AcDbEntity
  8
11000_Left
  6
Continuous
 62
     7
370
    13
100
AcDbVertex
100
AcDb2dVertex
 10
53.67222004799305
 20
166.8592279096564
 30
0.0
  0
VERTEX
  5
22D11
330
22D0F
100
AcDbEntity
  8
11000_Left
  6
Continuous
 62
     7
370
    13
100
AcDbVertex
100
AcDb2dVertex
 10
53.67222004799305
 20
166.8592279096564
 30
0.0
 42
0.002487767
 70
     1
  0
VERTEX
  5
22D12
330
22D0F
100
AcDbEntity
  8
11000_Left
  6
Continuous
 62
     7
370
    13
100
AcDbVertex
100
AcDb2dVertex
 10
53.67222004799305
 20
166.8592279096564
 30
0.0
 42
0.002883234
  0
VERTEX
  5
22D13
330
22D0F
100
AcDbEntity
  8
11000_Left
  6
Continuous
 62
     7
370
    13
100
AcDbVertex
100
AcDb2dVertex
 10
53.67222004799305
 20
166.8592279096564
 30
0.0
 42
0.0034034547
 70
     1
  0
VERTEX
  5
22D14
330
22D0F
100
AcDbEntity
  8
11000_Left
  6
Continuous
 62
     7
370
    13
100
AcDbVertex
100
AcDb2dVertex
 10
53.67222004799305
 20
166.8592279096564
 30
0.0
 42
0.0040461034
  0
VERTEX
  5
22D15
330
22D0F
100
AcDbEntity
  8
11000_Left
  6
Continuous
 62
     7
370
    13
100
AcDbVertex
100
AcDb2dVertex
 10
53.67222004799305
 20
166.8592279096564
 30
0.0
 42
0.0049272323
 70
     1
  0
VERTEX
  5
22D16
330
22D0F
100
AcDbEntity
  8
11000_Left
  6
Continuous
 62
     7
370
    13
100
AcDbVertex
100
AcDb2dVertex
 10
53.67222004799305
 20
166.8592279096564
 30
0.0
 42
0.0060698104
  0
VERTEX
  5
22D17
330
22D0F
100
AcDbEntity
  8
11000_Left
  6
Continuous
 62
     7
370
    13
100
AcDbVertex
100
AcDb2dVertex
 10
53.67222004799305
 20
166.8592279096564
 30
0.0
 42
0.0077295738
 70
     1
  0
VERTEX
  5
22D18
330
22D0F
100
AcDbEntity
  8
11000_Left
  6
Continuous
 62
     7
370
    13
100
AcDbVertex
100
AcDb2dVertex
 10
53.67222004799305
 20
166.8592279096564
 30
0.0
 42
0.010035891
  0
VERTEX
  5
22D19
330
22D0F
100
AcDbEntity
  8
11000_Left
  6
Continuous
 62
     7
370
    13
100
AcDbVertex
100
AcDb2dVertex
 10
53.67222004799305
 20
166.8592279096564
 30
0.0
 42
0.013683978
 70
     1
  0
VERTEX
  5
22D1A
330
22D0F
100
AcDbEntity
  8
11000_Left
  6
Continuous
 62
     7
370
    13
100
AcDbVertex
100
AcDb2dVertex
 10
53.67222004799305
 20
166.8592279096564
 30
0.0
 42
0.019304085
  0
VERTEX
  5
22D1B
330
22D0F
100
AcDbEntity
  8
11000_Left
  6
Continuous
 62
     7
370
    13
100
AcDbVertex
100
AcDb2dVertex
 10
53.67222004799305
 20
166.8592279096564
 30
0.0
 42
0.029347569
 70
     1
  0
VERTEX
  5
22D1C
330
22D0F
100
AcDbEntity
  8
11000_Left
  6
Continuous
 62
     7
370
    13
100
AcDbVertex
100
AcDb2dVertex
 10
53.67222004799305
 20
166.8592279096564
 30
0.0
 42
0.046948389
  0
VERTEX
  5
22D1D
330
22D0F
100
AcDbEntity
  8
11000_Left
  6
Continuous
 62
     7
370
    13
100
AcDbVertex
100
AcDb2dVertex
 10
53.67222004799305
 20
166.8592279096564
 30
0.0
 42
0.080693589
 70
     1
  0
VERTEX
  5
22D1E
330
22D0F
100
AcDbEntity
  8
11000_Left
  6
Continuous
 62
     7
370
    13
100
AcDbVertex
100
AcDb2dVertex
 10
53.67222004799305
 20
166.8592279096564
 30
0.0
 42
0.12381859
  0
VERTEX
  5
22D1F
330
22D0F
100
AcDbEntity
  8
11000_Left
  6
Continuous
 62
     7
370
    13
100
AcDbVertex
100
AcDb2dVertex
 10
53.67222004799305
 20
166.8592279096564
 30
0.0
 42
0.12514078
 70
     1
  0
VERTEX
  5
22D20
330
22D0F
100
AcDbEntity
  8
11000_Left
  6
Continuous
 62
     7
370
    13
100
AcDbVertex
100
AcDb2dVertex
 10
53.67222004799305
 20
166.8592279096564
 30
0.0
 42
0.082399751
  0
VERTEX
  5
22D21
330
22D0F
100
AcDbEntity
  8
11000_Left
  6
Continuous
 62
     7
370
    13
100
AcDbVertex
100
AcDb2dVertex
 10
53.67222004799305
 20
166.8592279096564
 30
0.0
 42
0.048481984
 70
     1
  0
VERTEX
  5
22D22
330
22D0F
100
AcDbEntity
  8
11000_Left
  6
Continuous
 62
     7
370
    13
100
AcDbVertex
100
AcDb2dVertex
 10
53.67222004799305
 20
166.8592279096564
 30
0.0
 42
0.030615462
  0
VERTEX
  5
22D23
330
22D0F
100
AcDbEntity
  8
11000_Left
  6
Continuous
 62
     7
370
    13
100
AcDbVertex
100
AcDb2dVertex
 10
53.67222004799305
 20
166.8592279096564
 30
0.0
 42
0.019386038
 70
     1
  0
VERTEX
  5
22D24
330
22D0F
100
AcDbEntity
  8
11000_Left
  6
Continuous
 62
     7
370
    13
100
AcDbVertex
100
AcDb2dVertex
 10
53.67222004799305
 20
166.8592279096564
 30
0.0
 42
0.012981222
  0
VERTEX
  5
22D25
330
22D0F
100
AcDbEntity
  8
11000_Left
  6
Continuous
 62
     7
370
    13
100
AcDbVertex
100
AcDb2dVertex
 10
53.67222004799305
 20
166.8592279096564
 30
0.0
 42
0.010630019
 70
     1
  0
VERTEX
  5
22D26
330
22D0F
100
AcDbEntity
  8
11000_Left
  6
Continuous
 62
     7
370
    13
100
AcDbVertex
100
AcDb2dVertex
 10
53.67222004799305
 20
166.8592279096564
 30
0.0
 42
0.0094199903
  0
VERTEX
  5
22D27
330
22D0F
100
AcDbEntity
  8
11000_Left
  6
Continuous
 62
     7
370
    13
100
AcDbVertex
100
AcDb2dVertex
 10
53.67222004799305
 20
166.8592279096564
 30
0.0
 42
0.0054392079
 70
     1
  0
VERTEX
  5
22D28
330
22D0F
100
AcDbEntity
  8
11000_Left
  6
Continuous
 62
     7
370
    13
100
AcDbVertex
100
AcDb2dVertex
 10
53.67222004799305
 20
166.8592279096564
 30
0.0
 42
0.0016410084
  0
VERTEX
  5
22D29
330
22D0F
100
AcDbEntity
  8
11000_Left
  6
Continuous
 62
     7
370
    13
100
AcDbVertex
100
AcDb2dVertex
 10
53.67222004799305
 20
166.8592279096564
 30
0.0
 42
0.0060304208
 70
     1
  0
VERTEX
  5
22D2A
330
22D0F
100
AcDbEntity
  8
11000_Left
  6
Continuous
 62
     7
370
    13
100
AcDbVertex
100
AcDb2dVertex
 10
53.67222004799305
 20
166.8592279096564
 30
0.0
 42
0.0073140281
  0
VERTEX
  5
22D2B
330
22D0F
100
AcDbEntity
  8
11000_Left
  6
Continuous
 62
     7
370
    13
100
AcDbVertex
100
AcDb2dVertex
 10
53.67222004799305
 20
166.8592279096564
 30
0.0
 42
0.0027352781
 70
     1
  0
VERTEX
  5
22D2C
330
22D0F
100
AcDbEntity
  8
11000_Left
  6
Continuous
 62
     7
370
    13
100
AcDbVertex
100
AcDb2dVertex
 10
53.67222004799305
 20
166.8592279096564
 30
0.0
 42
0.0012963323
  0
SEQEND
  5
22D2D
330
22D0F
100
AcDbEntity
  8
11000_Left
  6
Continuous
 62
     7
370
    13
  0
LINE
  5
22D2E
330
1F
100
AcDbEntity
  8
11000_Left
  6
Continuous
 62
     7
370
    50
100
AcDbLine
 39
0.7
 10
125.3811000478954
 20
166.8591076314009
 30
0.0
 11
53.67224004796526
 21
166.8592079096278
 31
0.0
  0
LINE
  5
22D2F
330
1F
100
AcDbEntity
  8
11000_Left
  6
Continuous
 62
     7
370
    13
100
AcDbLine
 10
53.27224214557737
 20
168.3592084689894
 30
0.0
 11
53.27226340137531
 21
183.5592084689748
 31
0.0
  0
LINE
  5
22D30
330
1F
100
AcDbEntity
  8
11000_Left
  6
Continuous
 62
     7
370
    13
100
AcDbLine
 10
53.27224060732874
 20
167.259208468991
 30
0.0
 11
53.27224214557737
 21
168.3592084689894
 31
0.0
  0
POLYLINE
  5
22D31
330
1F
100
AcDbEntity
  8
11000_Left
  6
Continuous
 62
     7
370
    50
100
AcDb2dPolyline
 66
     1
 10
0.0
 20
0.0
 30
0.0
 39
0.7
 70
     2
  0
VERTEX
  5
22D32
330
22D31
100
AcDbEntity
  8
11000_Left
  6
Continuous
 62
     7
370
    50
100
AcDbVertex
100
AcDb2dVertex
 10
125.3811400478951
 20
166.8591076313452
 30
0.0
  0
VERTEX
  5
22D33
330
22D31
100
AcDbEntity
  8
11000_Left
  6
Continuous
 62
     7
370
    50
100
AcDbVertex
100
AcDb2dVertex
 10
125.3811400478951
 20
166.8591076313452
 30
0.0
 70
     1
  0
VERTEX
  5
22D34
330
22D31
100
AcDbEntity
  8
11000_Left
  6
Continuous
 62
     7
370
    50
100
AcDbVertex
100
AcDb2dVertex
 10
125.3811400478951
 20
166.8591076313452
 30
0.0
  0
VERTEX
  5
22D35
330
22D31
100
AcDbEntity
  8
11000_Left
  6
Continuous
 62
     7
370
    50
100
AcDbVertex
100
AcDb2dVertex
 10
125.3811400478951
 20
166.8591076313452
 30
0.0
 70
     1
  0
VERTEX
  5
22D36
330
22D31
100
AcDbEntity
  8
11000_Left
  6
Continuous
 62
     7
370
    50
100
AcDbVertex
100
AcDb2dVertex
 10
125.3811400478951
 20
166.8591076313452
 30
0.0
  0
VERTEX
  5
22D37
330
22D31
100
AcDbEntity
  8
11000_Left
  6
Continuous
 62
     7
370
    50
100
AcDbVertex
100
AcDb2dVertex
 10
125.3811400478951
 20
166.8591076313452
 30
0.0
 70
     1
  0
VERTEX
  5
22D38
330
22D31
100
AcDbEntity
  8
11000_Left
  6
Continuous
 62
     7
370
    50
100
AcDbVertex
100
AcDb2dVertex
 10
125.3811400478951
 20
166.8591076313452
 30
0.0
  0
VERTEX
  5
22D39
330
22D31
100
AcDbEntity
  8
11000_Left
  6
Continuous
 62
     7
370
    50
100
AcDbVertex
100
AcDb2dVertex
 10
125.3811400478951
 20
166.8591076313452
 30
0.0
 70
     1
  0
VERTEX
  5
22D3A
330
22D31
100
AcDbEntity
  8
11000_Left
  6
Continuous
 62
     7
370
    50
100
AcDbVertex
100
AcDb2dVertex
 10
125.3811400478951
 20
166.8591076313452
 30
0.0
  0
VERTEX
  5
22D3B
330
22D31
100
AcDbEntity
  8
11000_Left
  6
Continuous
 62
     7
370
    50
100
AcDbVertex
100
AcDb2dVertex
 10
125.3811400478951
 20
166.8591076313452
 30
0.0
 70
     1
  0
VERTEX
  5
22D3C
330
22D31
100
AcDbEntity
  8
11000_Left
  6
Continuous
 62
     7
370
    50
100
AcDbVertex
100
AcDb2dVertex
 10
125.3811400478951
 20
166.8591076313452
 30
0.0
  0
VERTEX
  5
22D3D
330
22D31
100
AcDbEntity
  8
11000_Left
  6
Continuous
 62
     7
370
    50
100
AcDbVertex
100
AcDb2dVertex
 10
125.3811400478951
 20
166.8591076313452
 30
0.0
 70
     1
  0
VERTEX
  5
22D3E
330
22D31
100
AcDbEntity
  8
11000_Left
  6
Continuous
 62
     7
370
    50
100
AcDbVertex
100
AcDb2dVertex
 10
125.3811400478951
 20
166.8591076313452
 30
0.0
  0
VERTEX
  5
22D3F
330
22D31
100
AcDbEntity
  8
11000_Left
  6
Continuous
 62
     7
370
    50
100
AcDbVertex
100
AcDb2dVertex
 10
125.3811400478951
 20
166.8591076313452
 30
0.0
 70
     1
  0
VERTEX
  5
22D40
330
22D31
100
AcDbEntity
  8
11000_Left
  6
Continuous
 62
     7
370
    50
100
AcDbVertex
100
AcDb2dVertex
 10
125.3811400478951
 20
166.8591076313452
 30
0.0
  0
VERTEX
  5
22D41
330
22D31
100
AcDbEntity
  8
11000_Left
  6
Continuous
 62
     7
370
    50
100
AcDbVertex
100
AcDb2dVertex
 10
125.3811400478951
 20
166.8591076313452
 30
0.0
 70
     1
  0
VERTEX
  5
22D42
330
22D31
100
AcDbEntity
  8
11000_Left
  6
Continuous
 62
     7
370
    50
100
AcDbVertex
100
AcDb2dVertex
 10
125.3811400478951
 20
166.8591076313452
 30
0.0
  0
VERTEX
  5
22D43
330
22D31
100
AcDbEntity
  8
11000_Left
  6
Continuous
 62
     7
370
    50
100
AcDbVertex
100
AcDb2dVertex
 10
125.3811400478951
 20
166.8591076313452
 30
0.0
 70
     1
  0
VERTEX
  5
22D44
330
22D31
100
AcDbEntity
  8
11000_Left
  6
Continuous
 62
     7
370
    50
100
AcDbVertex
100
AcDb2dVertex
 10
125.3811400478951
 20
166.8591076313452
 30
0.0
  0
SEQEND
  5
22D45
330
22D31
100
AcDbEntity
  8
11000_Left
  6
Continuous
 62
     7
370
    50
  0
ARC
  5
22D46
330
1F
100
AcDbEntity
  8
11000_Left
  6
Continuous
 62
     7
370
    50
100
AcDbCircle
 39
0.7
 10
125.3811011666214
 20
167.6591076314004
 30
0.0
 40
0.79999212
100
AcDbArc
 50
270.0021319682481
 51
351.6992368771411
  0
ARC
  5
22D47
330
1F
100
AcDbEntity
  8
11000_Left
  6
Continuous
 62
     7
370
    50
100
AcDbCircle
 39
0.7
 10
127.3338428419397
 20
183.1591049006865
 30
0.0
 40
0.8
100
AcDbArc
 50
353.9407198771359
 51
89.99991987714215
  0
ARC
  5
22D48
330
1F
100
AcDbEntity
  8
11000_Left
  6
Continuous
 62
     7
370
    50
100
AcDbCircle
 39
0.7
 10
-269.6359182316212
 20
225.2976200263256
 30
0.0
 40
400.0
100
AcDbArc
 50
353.8468948771348
 51
353.9407198771359
  0
ARC
  5
22D49
330
1F
100
AcDbEntity
  8
11000_Left
  6
Continuous
 62
     7
370
    50
100
AcDbCircle
 39
0.7
 10
-269.6359182316212
 20
225.2976200263256
 30
0.0
 40
400.0
100
AcDbArc
 50
351.6983178771281
 51
351.7998498771266
  0
ARC
  5
22D4A
330
1F
100
AcDbEntity
  8
11000_Left
  6
Continuous
 62
     7
370
    50
100
AcDbCircle
 39
0.7
 10
-269.6359182316212
 20
225.2976200263256
 30
0.0
 40
400.0
100
AcDbArc
 50
351.7998498771266
 51
353.8468948771348
  0
ARC
  5
22D4B
330
1F
100
AcDbEntity
  8
11000_Left
  6
Continuous
 62
     7
370
    50
100
AcDbCircle
 39
0.7
 10
53.67224060732815
 20
167.2592079096282
 30
0.0
 40
0.4
100
AcDbArc
 50
179.9999198771421
 51
269.9999198771422
  0
ARC
  5
22D4C
330
1F
100
AcDbEntity
  8
11000_Left
  6
Continuous
 62
     7
370
    13
100
AcDbCircle
 10
53.67226340137472
 20
183.559207909612
 30
0.0
 40
0.4
100
AcDbArc
 50
89.99991987714215
 51
179.9999198771421
  0
LINE
  5
22D4D
102
{ACAD_REACTORS
330
22F02
102
}
330
1F
100
AcDbEntity
  8
11000_Left
  6
Continuous
 62
     7
370
    13
100
AcDbLine
 10
78.27223557303614
 20
163.6591735087999
 30
0.0
 11
78.27224004794107
 21
166.8591735087968
 31
0.0
  0
ARC
  5
22D4E
330
1F
100
AcDbEntity
  8
11000_Left
  6
Continuous
 62
     7
370
    13
100
AcDbCircle
 10
95.07223557301971
 20
163.6591500155496
 30
0.0
 40
0.4
100
AcDbArc
 50
269.9999206211456
 51
359.999920877137
  0
LINE
  5
22D4F
330
1F
100
AcDbEntity
  8
11000_Left
  6
Continuous
 62
     7
370
    13
100
AcDbLine
 10
95.47223948856141
 20
166.4591494561839
 30
0.0
 11
95.47223557301959
 21
163.6591494561864
 31
0.0
  0
ARC
  5
22D50
330
1F
100
AcDbEntity
  8
11000_Left
  6
Continuous
 62
     7
370
    13
100
AcDbCircle
 10
95.87223948856058
 20
166.459148896821
 30
0.0
 40
0.4
100
AcDbArc
 50
89.99991987714215
 51
179.9999198771421
  0
LINE
  5
22D51
330
1F
100
AcDbEntity
  8
11000_Left
  6
Continuous
 62
     7
370
    13
100
AcDbLine
 10
95.07223501365684
 20
163.2591500155503
 30
0.0
 11
78.67223501367289
 21
163.2591729494376
 31
0.0
  0
ARC
  5
22D52
102
{ACAD_REACTORS
330
22F02
102
}
330
1F
100
AcDbEntity
  8
11000_Left
  6
Continuous
 62
     7
370
    13
100
AcDbCircle
 10
78.67223557303578
 20
163.659172949437
 30
0.0
 40
0.4
100
AcDbArc
 50
179.9999198771421
 51
269.9999198771422
  0
LINE
  5
22D53
330
1F
100
AcDbEntity
  8
11000_Left
  6
Continuous
 62
     7
370
    13
100
AcDbLine
 10
53.67226396073807
 20
183.9592079096114
 30
0.0
 11
127.3338439606659
 21
183.9591049006857
 31
0.0
  0
POLYLINE
  5
22D54
102
{ACAD_REACTORS
330
22F32
102
}
330
1F
100
AcDbEntity
  8
11000_Left
  6
Continuous
 62
     7
370
    13
100
AcDb2dPolyline
 66
     1
 10
0.0
 20
0.0
 30
0.0
 70
     2
  0
VERTEX
  5
22D55
102
{ACAD_REACTORS
330
22F32
102
}
330
22D54
100
AcDbEntity
  8
11000_Left
  6
Continuous
 62
     7
370
    13
100
AcDbVertex
100
AcDb2dVertex
 10
160.1198597515665
 20
252.4590590525337
 30
0.0
  0
VERTEX
  5
22D56
330
22D54
100
AcDbEntity
  8
11000_Left
  6
Continuous
 62
     7
370
    13
100
AcDbVertex
100
AcDb2dVertex
 10
160.1198597515665
 20
252.4590590525337
 30
0.0
 42
0.0000000281
 70
     1
  0
VERTEX
  5
22D57
330
22D54
100
AcDbEntity
  8
11000_Left
  6
Continuous
 62
     7
370
    13
100
AcDbVertex
100
AcDb2dVertex
 10
160.1198597515665
 20
252.4590590525337
 30
0.0
 42
0.000000023
  0
VERTEX
  5
22D58
330
22D54
100
AcDbEntity
  8
11000_Left
  6
Continuous
 62
     7
370
    13
100
AcDbVertex
100
AcDb2dVertex
 10
160.1198597515665
 20
252.4590590525337
 30
0.0
 42
0.0000000377
 70
     1
  0
VERTEX
  5
22D59
330
22D54
100
AcDbEntity
  8
11000_Left
  6
Continuous
 62
     7
370
    13
100
AcDbVertex
100
AcDb2dVertex
 10
160.1198597515665
 20
252.4590590525337
 30
0.0
 42
0.0000000183
  0
VERTEX
  5
22D5A
330
22D54
100
AcDbEntity
  8
11000_Left
  6
Continuous
 62
     7
370
    13
100
AcDbVertex
100
AcDb2dVertex
 10
160.1198597515665
 20
252.4590590525337
 30
0.0
 70
     1
  0
VERTEX
  5
22D5B
330
22D54
100
AcDbEntity
  8
11000_Left
  6
Continuous
 62
     7
370
    13
100
AcDbVertex
100
AcDb2dVertex
 10
160.1198597515665
 20
252.4590590525337
 30
0.0
 42
0.000000022
  0
VERTEX
  5
22D5C
330
22D54
100
AcDbEntity
  8
11000_Left
  6
Continuous
 62
     7
370
    13
100
AcDbVertex
100
AcDb2dVertex
 10
160.1198597515665
 20
252.4590590525337
 30
0.0
 42
0.0000000289
 70
     1
  0
VERTEX
  5
22D5D
330
22D54
100
AcDbEntity
  8
11000_Left
  6
Continuous
 62
     7
370
    13
100
AcDbVertex
100
AcDb2dVertex
 10
160.1198597515665
 20
252.4590590525337
 30
0.0
 42
0.000000034
  0
VERTEX
  5
22D5E
330
22D54
100
AcDbEntity
  8
11000_Left
  6
Continuous
 62
     7
370
    13
100
AcDbVertex
100
AcDb2dVertex
 10
160.1198597515665
 20
252.4590590525337
 30
0.0
 42
0.000000049
 70
     1
  0
VERTEX
  5
22D5F
330
22D54
100
AcDbEntity
  8
11000_Left
  6
Continuous
 62
     7
370
    13
100
AcDbVertex
100
AcDb2dVertex
 10
160.1198597515665
 20
252.4590590525337
 30
0.0
 42
0.000000038
  0
VERTEX
  5
22D60
330
22D54
100
AcDbEntity
  8
11000_Left
  6
Continuous
 62
     7
370
    13
100
AcDbVertex
100
AcDb2dVertex
 10
160.1198597515665
 20
252.4590590525337
 30
0.0
 42
0.0000000519
 70
     1
  0
VERTEX
  5
22D61
330
22D54
100
AcDbEntity
  8
11000_Left
  6
Continuous
 62
     7
370
    13
100
AcDbVertex
100
AcDb2dVertex
 10
160.1198597515665
 20
252.4590590525337
 30
0.0
 42
0.0000000499
  0
VERTEX
  5
22D62
330
22D54
100
AcDbEntity
  8
11000_Left
  6
Continuous
 62
     7
370
    13
100
AcDbVertex
100
AcDb2dVertex
 10
160.1198597515665
 20
252.4590590525337
 30
0.0
 42
0.000000038
 70
     1
  0
VERTEX
  5
22D63
330
22D54
100
AcDbEntity
  8
11000_Left
  6
Continuous
 62
     7
370
    13
100
AcDbVertex
100
AcDb2dVertex
 10
160.1198597515665
 20
252.4590590525337
 30
0.0
 42
0.000000085
  0
VERTEX
  5
22D64
330
22D54
100
AcDbEntity
  8
11000_Left
  6
Continuous
 62
     7
370
    13
100
AcDbVertex
100
AcDb2dVertex
 10
160.1198597515665
 20
252.4590590525337
 30
0.0
 42
0.0000001041
 70
     1
  0
VERTEX
  5
22D65
330
22D54
100
AcDbEntity
  8
11000_Left
  6
Continuous
 62
     7
370
    13
100
AcDbVertex
100
AcDb2dVertex
 10
160.1198597515665
 20
252.4590590525337
 30
0.0
 42
0.000000101
  0
VERTEX
  5
22D66
330
22D54
100
AcDbEntity
  8
11000_Left
  6
Continuous
 62
     7
370
    13
100
AcDbVertex
100
AcDb2dVertex
 10
160.1198597515665
 20
252.4590590525337
 30
0.0
 42
0.0000001378
 70
     1
  0
VERTEX
  5
22D67
330
22D54
100
AcDbEntity
  8
11000_Left
  6
Continuous
 62
     7
370
    13
100
AcDbVertex
100
AcDb2dVertex
 10
160.1198597515665
 20
252.4590590525337
 30
0.0
 42
0.0000001478
  0
VERTEX
  5
22D68
330
22D54
100
AcDbEntity
  8
11000_Left
  6
Continuous
 62
     7
370
    13
100
AcDbVertex
100
AcDb2dVertex
 10
160.1198597515665
 20
252.4590590525337
 30
0.0
 42
0.0000001582
 70
     1
  0
VERTEX
  5
22D69
330
22D54
100
AcDbEntity
  8
11000_Left
  6
Continuous
 62
     7
370
    13
100
AcDbVertex
100
AcDb2dVertex
 10
160.1198597515665
 20
252.4590590525337
 30
0.0
 42
0.0000002017
  0
VERTEX
  5
22D6A
330
22D54
100
AcDbEntity
  8
11000_Left
  6
Continuous
 62
     7
370
    13
100
AcDbVertex
100
AcDb2dVertex
 10
160.1198597515665
 20
252.4590590525337
 30
0.0
 42
0.0000002447
 70
     1
  0
VERTEX
  5
22D6B
330
22D54
100
AcDbEntity
  8
11000_Left
  6
Continuous
 62
     7
370
    13
100
AcDbVertex
100
AcDb2dVertex
 10
160.1198597515665
 20
252.4590590525337
 30
0.0
 42
0.0000002709
  0
VERTEX
  5
22D6C
330
22D54
100
AcDbEntity
  8
11000_Left
  6
Continuous
 62
     7
370
    13
100
AcDbVertex
100
AcDb2dVertex
 10
160.1198597515665
 20
252.4590590525337
 30
0.0
 42
0.0000003553
 70
     1
  0
VERTEX
  5
22D6D
330
22D54
100
AcDbEntity
  8
11000_Left
  6
Continuous
 62
     7
370
    13
100
AcDbVertex
100
AcDb2dVertex
 10
160.1198597515665
 20
252.4590590525337
 30
0.0
 42
0.0000003453
  0
VERTEX
  5
22D6E
330
22D54
100
AcDbEntity
  8
11000_Left
  6
Continuous
 62
     7
370
    13
100
AcDbVertex
100
AcDb2dVertex
 10
160.1198597515665
 20
252.4590590525337
 30
0.0
 42
0.0000004718
 70
     1
  0
VERTEX
  5
22D6F
330
22D54
100
AcDbEntity
  8
11000_Left
  6
Continuous
 62
     7
370
    13
100
AcDbVertex
100
AcDb2dVertex
 10
160.1198597515665
 20
252.4590590525337
 30
0.0
 42
0.0000005757
  0
VERTEX
  5
22D70
330
22D54
100
AcDbEntity
  8
11000_Left
  6
Continuous
 62
     7
370
    13
100
AcDbVertex
100
AcDb2dVertex
 10
160.1198597515665
 20
252.4590590525337
 30
0.0
 42
0.0000007933
 70
     1
  0
VERTEX
  5
22D71
330
22D54
100
AcDbEntity
  8
11000_Left
  6
Continuous
 62
     7
370
    13
100
AcDbVertex
100
AcDb2dVertex
 10
160.1198597515665
 20
252.4590590525337
 30
0.0
 42
0.0000009057
  0
VERTEX
  5
22D72
330
22D54
100
AcDbEntity
  8
11000_Left
  6
Continuous
 62
     7
370
    13
100
AcDbVertex
100
AcDb2dVertex
 10
160.1198597515665
 20
252.4590590525337
 30
0.0
 42
0.0000010188
 70
     1
  0
VERTEX
  5
22D73
330
22D54
100
AcDbEntity
  8
11000_Left
  6
Continuous
 62
     7
370
    13
100
AcDbVertex
100
AcDb2dVertex
 10
160.1198597515665
 20
252.4590590525337
 30
0.0
 42
0.000001445
  0
VERTEX
  5
22D74
330
22D54
100
AcDbEntity
  8
11000_Left
  6
Continuous
 62
     7
370
    13
100
AcDbVertex
100
AcDb2dVertex
 10
160.1198597515665
 20
252.4590590525337
 30
0.0
 42
0.0000022546
 70
     1
  0
VERTEX
  5
22D75
330
22D54
100
AcDbEntity
  8
11000_Left
  6
Continuous
 62
     7
370
    13
100
AcDbVertex
100
AcDb2dVertex
 10
160.1198597515665
 20
252.4590590525337
 30
0.0
 42
0.0000037086
  0
VERTEX
  5
22D76
330
22D54
100
AcDbEntity
  8
11000_Left
  6
Continuous
 62
     7
370
    13
100
AcDbVertex
100
AcDb2dVertex
 10
160.1198597515665
 20
252.4590590525337
 30
0.0
 42
0.0000047074
 70
     1
  0
VERTEX
  5
22D77
330
22D54
100
AcDbEntity
  8
11000_Left
  6
Continuous
 62
     7
370
    13
100
AcDbVertex
100
AcDb2dVertex
 10
160.1198597515665
 20
252.4590590525337
 30
0.0
 42
0.0000038239
  0
VERTEX
  5
22D78
330
22D54
100
AcDbEntity
  8
11000_Left
  6
Continuous
 62
     7
370
    13
100
AcDbVertex
100
AcDb2dVertex
 10
160.1198597515665
 20
252.4590590525337
 30
0.0
 42
0.0000109498
 70
     1
  0
VERTEX
  5
22D79
330
22D54
100
AcDbEntity
  8
11000_Left
  6
Continuous
 62
     7
370
    13
100
AcDbVertex
100
AcDb2dVertex
 10
160.1198597515665
 20
252.4590590525337
 30
0.0
 42
0.0000428849
  0
VERTEX
  5
22D7A
330
22D54
100
AcDbEntity
  8
11000_Left
  6
Continuous
 62
     7
370
    13
100
AcDbVertex
100
AcDb2dVertex
 10
160.1198597515665
 20
252.4590590525337
 30
0.0
 42
0.0001041926
 70
     1
  0
VERTEX
  5
22D7B
330
22D54
100
AcDbEntity
  8
11000_Left
  6
Continuous
 62
     7
370
    13
100
AcDbVertex
100
AcDb2dVertex
 10
160.1198597515665
 20
252.4590590525337
 30
0.0
 42
0.0004233298
  0
SEQEND
  5
22D7C
330
22D54
100
AcDbEntity
  8
11000_Left
  6
Continuous
 62
     7
370
    13
  0
LINE
  5
22D7D
330
1F
100
AcDbEntity
  8
11000_Left
  6
Continuous
 62
     7
370
    13
100
AcDbLine
 10
157.1222516518796
 20
189.4590632443502
 30
0.0
 11
157.1223075882183
 21
229.4590832443111
 31
0.0
  0
LINE
  5
22D7E
330
1F
100
AcDbEntity
  8
11000_Left
  6
Continuous
 62
     7
370
    13
100
AcDbLine
 10
157.1222495542679
 20
187.9590632443518
 30
0.0
 11
157.1222516518796
 21
189.4590632443502
 31
0.0
  0
ARC
  5
22D7F
330
1F
100
AcDbEntity
  8
11000_Left
  6
Continuous
 62
     7
370
    50
100
AcDbCircle
 39
0.7
 10
160.1198386328399
 20
251.6590590525622
 30
0.0
 40
0.8
100
AcDbArc
 50
3.850429877151526
 51
89.99991987714215
  0
ARC
  5
22D80
330
1F
100
AcDbEntity
  8
11000_Left
  6
Continuous
 62
     7
370
    50
100
AcDbCircle
 39
0.7
 10
159.9222506729913
 20
188.7590593288097
 30
0.0
 40
0.8
100
AcDbArc
 50
269.9999198771422
 51
359.9999198771421
  0
LINE
  5
22D81
330
1F
100
AcDbEntity
  8
11000_Left
  6
Continuous
 62
     7
370
    50
100
AcDbLine
 39
0.7
 10
159.9222495542653
 20
187.95905932881
 30
0.0
 11
159.4170440964189
 21
187.9590600352933
 31
0.0
  0
LINE
  5
22D82
330
1F
100
AcDbEntity
  8
11000_Left
  6
Continuous
 62
     7
370
    50
100
AcDbLine
 39
0.7
 10
160.7222516518759
 20
189.4590582100821
 30
0.0
 11
160.7222506729906
 21
188.7590582100831
 31
0.0
  0
LINE
  5
22D83
330
1F
100
AcDbEntity
  8
11000_Left
  6
Continuous
 62
     7
370
    50
100
AcDbLine
 39
0.7
 10
160.722269131973
 20
201.9590582100702
 30
0.0
 11
160.7222516518759
 21
189.4590582100821
 31
0.0
  0
POLYLINE
  5
22DA3
330
1F
100
AcDbEntity
  8
11000_Left
  6
Continuous
 62
     7
370
    50
100
AcDb2dPolyline
 66
     1
 10
0.0
 20
0.0
 30
0.0
 39
0.7
 70
     2
  0
VERTEX
  5
22DA4
330
22DA3
100
AcDbEntity
  8
11000_Left
  6
Continuous
 62
     7
370
    50
100
AcDbVertex
100
AcDb2dVertex
 10
160.9180387079616
 20
251.7127779363529
 30
0.0
  0
VERTEX
  5
22DA5
330
22DA3
100
AcDbEntity
  8
11000_Left
  6
Continuous
 62
     7
370
    50
100
AcDbVertex
100
AcDb2dVertex
 10
160.9180387079616
 20
251.7127779363529
 30
0.0
 70
     1
  0
VERTEX
  5
22DA6
330
22DA3
100
AcDbEntity
  8
11000_Left
  6
Continuous
 62
     7
370
    50
100
AcDbVertex
100
AcDb2dVertex
 10
160.9180387079616
 20
251.7127779363529
 30
0.0
  0
VERTEX
  5
22DA7
330
22DA3
100
AcDbEntity
  8
11000_Left
  6
Continuous
 62
     7
370
    50
100
AcDbVertex
100
AcDb2dVertex
 10
160.9180387079616
 20
251.7127779363529
 30
0.0
 70
     1
  0
VERTEX
  5
22DA8
330
22DA3
100
AcDbEntity
  8
11000_Left
  6
Continuous
 62
     7
370
    50
100
AcDbVertex
100
AcDb2dVertex
 10
160.9180387079616
 20
251.7127779363529
 30
0.0
  0
VERTEX
  5
22DA9
330
22DA3
100
AcDbEntity
  8
11000_Left
  6
Continuous
 62
     7
370
    50
100
AcDbVertex
100
AcDb2dVertex
 10
160.9180387079616
 20
251.7127779363529
 30
0.0
 70
     1
  0
VERTEX
  5
22DAA
330
22DA3
100
AcDbEntity
  8
11000_Left
  6
Continuous
 62
     7
370
    50
100
AcDbVertex
100
AcDb2dVertex
 10
160.9180387079616
 20
251.7127779363529
 30
0.0
  0
VERTEX
  5
22DAB
330
22DA3
100
AcDbEntity
  8
11000_Left
  6
Continuous
 62
     7
370
    50
100
AcDbVertex
100
AcDb2dVertex
 10
160.9180387079616
 20
251.7127779363529
 30
0.0
 70
     1
  0
VERTEX
  5
22DAC
330
22DA3
100
AcDbEntity
  8
11000_Left
  6
Continuous
 62
     7
370
    50
100
AcDbVertex
100
AcDb2dVertex
 10
160.9180387079616
 20
251.7127779363529
 30
0.0
  0
VERTEX
  5
22DAD
330
22DA3
100
AcDbEntity
  8
11000_Left
  6
Continuous
 62
     7
370
    50
100
AcDbVertex
100
AcDb2dVertex
 10
160.9180387079616
 20
251.7127779363529
 30
0.0
 70
     1
  0
VERTEX
  5
22DAE
330
22DA3
100
AcDbEntity
  8
11000_Left
  6
Continuous
 62
     7
370
    50
100
AcDbVertex
100
AcDb2dVertex
 10
160.9180387079616
 20
251.7127779363529
 30
0.0
  0
VERTEX
  5
22DAF
330
22DA3
100
AcDbEntity
  8
11000_Left
  6
Continuous
 62
     7
370
    50
100
AcDbVertex
100
AcDb2dVertex
 10
160.9180387079616
 20
251.7127779363529
 30
0.0
 70
     1
  0
VERTEX
  5
22DB0
330
22DA3
100
AcDbEntity
  8
11000_Left
  6
Continuous
 62
     7
370
    50
100
AcDbVertex
100
AcDb2dVertex
 10
160.9180387079616
 20
251.7127779363529
 30
0.0
  0
VERTEX
  5
22DB1
330
22DA3
100
AcDbEntity
  8
11000_Left
  6
Continuous
 62
     7
370
    50
100
AcDbVertex
100
AcDb2dVertex
 10
160.9180387079616
 20
251.7127779363529
 30
0.0
 70
     1
  0
VERTEX
  5
22DB2
330
22DA3
100
AcDbEntity
  8
11000_Left
  6
Continuous
 62
     7
370
    50
100
AcDbVertex
100
AcDb2dVertex
 10
160.9180387079616
 20
251.7127779363529
 30
0.0
  0
VERTEX
  5
22DB3
330
22DA3
100
AcDbEntity
  8
11000_Left
  6
Continuous
 62
     7
370
    50
100
AcDbVertex
100
AcDb2dVertex
 10
160.9180387079616
 20
251.7127779363529
 30
0.0
 70
     1
  0
VERTEX
  5
22DB4
330
22DA3
100
AcDbEntity
  8
11000_Left
  6
Continuous
 62
     7
370
    50
100
AcDbVertex
100
AcDb2dVertex
 10
160.9180387079616
 20
251.7127779363529
 30
0.0
  0
VERTEX
  5
22DB5
330
22DA3
100
AcDbEntity
  8
11000_Left
  6
Continuous
 62
     7
370
    50
100
AcDbVertex
100
AcDb2dVertex
 10
160.9180387079616
 20
251.7127779363529
 30
0.0
 70
     1
  0
VERTEX
  5
22DB6
330
22DA3
100
AcDbEntity
  8
11000_Left
  6
Continuous
 62
     7
370
    50
100
AcDbVertex
100
AcDb2dVertex
 10
160.9180387079616
 20
251.7127779363529
 30
0.0
  0
SEQEND
  5
22DB7
330
22DA3
100
AcDbEntity
  8
11000_Left
  6
Continuous
 62
     7
370
    50
  0
ARC
  5
22DB8
330
1F
100
AcDbEntity
  8
11000_Left
  6
Continuous
 62
     7
370
    50
100
AcDbCircle
 39
0.7
 10
-188.2896634107481
 20
228.2094560237614
 30
0.0
 40
349.9977448330231
100
AcDbArc
 50
355.698684926081
 51
3.850469045713454
  0
LINE
  5
22DB9
330
1F
100
AcDbEntity
  8
11000_Left
  6
Continuous
 62
     7
370
    50
100
AcDbLine
 39
0.7
 10
157.1223397515691
 20
252.4590632442889
 30
0.0
 11
160.119839751566
 21
252.4590590525617
 31
0.0
  0
LINE
  5
22DBA
330
1F
100
AcDbEntity
  8
11000_Left
  6
Continuous
 62
     7
370
    50
100
AcDbLine
 39
0.7
 10
42.37233178352584
 20
232.4592237115721
 30
0.0
 11
47.37233178352084
 21
232.4592167195332
 31
0.0
  0
LINE
  5
22DBB
330
1F
100
AcDbEntity
  8
11000_Left
  6
Continuous
 62
     7
370
    50
100
AcDbLine
 39
0.7
 10
42.37231737992579
 20
222.1592237115819
 30
0.0
 11
42.37232968591434
 21
230.9592237115734
 31
0.0
  0
LINE
  5
22DBC
330
1F
100
AcDbEntity
  8
11000_Left
  6
Continuous
 62
     7
370
    50
100
AcDbLine
 39
0.7
 10
42.37232968591434
 20
230.9592237115734
 30
0.0
 11
42.37233178352584
 21
232.4592237115721
 31
0.0
  0
ARC
  5
22DBD
330
1F
100
AcDbEntity
  8
11000_Left
  6
Continuous
 62
     7
370
    50
100
AcDbCircle
 39
0.7
 10
127.8439043801877
 20
184.2591041874138
 30
0.0
 40
0.3
100
AcDbArc
 50
269.9999198771422
 51
355.7107698771379
  0
LINE
  5
22DBE
330
1F
100
AcDbEntity
  8
11000_Left
  6
Continuous
 62
     7
370
    13
100
AcDbLine
 10
58.57231094723442
 20
217.5592010573807
 30
0.0
 11
58.57230717153356
 21
214.8592010573829
 31
0.0
  0
LINE
  5
22DBF
330
1F
100
AcDbEntity
  8
11000_Left
  6
Continuous
 62
     7
370
    13
100
AcDbLine
 10
53.17231094723958
 20
217.5592086087826
 30
0.0
 11
58.57231094723442
 21
217.5592010573807
 31
0.0
  0
LINE
  5
22DC0
330
1F
100
AcDbEntity
  8
11000_Left
  6
Continuous
 62
     7
370
    13
100
AcDbLine
 10
53.1723071715387
 20
214.8592086087849
 30
0.0
 11
53.17231094723958
 21
217.5592086087826
 31
0.0
  0
LINE
  5
22DC1
330
1F
100
AcDbEntity
  8
11000_Left
  6
Continuous
 62
     7
370
    13
100
AcDbLine
 10
58.57230717153356
 20
214.8592010573829
 30
0.0
 11
53.1723071715387
 21
214.8592086087849
 31
0.0
  0
LINE
  5
22DC2
330
1F
100
AcDbEntity
  8
11000_Left
  6
Continuous
 62
     7
370
    13
100
AcDbLine
 10
157.1223275881902
 20
229.4590632442832
 30
0.0
 11
157.1223075881903
 21
229.4590632443112
 31
0.0
  0
LINE
  5
22DC3
330
1F
100
AcDbEntity
  8
11000_Left
  6
Continuous
 62
     7
370
    50
100
AcDbLine
 39
0.7
 10
42.37224214558795
 20
168.3592237116341
 30
0.0
 11
42.37226074441127
 21
181.6592237116214
 31
0.0
  0
LINE
  5
22DC4
330
1F
100
AcDbEntity
  8
11000_Left
  6
Continuous
 62
     7
370
    50
100
AcDbLine
 39
0.7
 10
42.37224004797622
 20
166.8592237116358
 30
0.0
 11
42.37224214558795
 21
168.3592237116341
 31
0.0
  0
LINE
  5
22DC5
330
1F
100
AcDbEntity
  8
11000_Left
  6
Continuous
 62
     7
370
    50
100
AcDbLine
 39
0.7
 10
42.37226074441127
 20
181.6592237116214
 30
0.0
 11
47.37226074440626
 21
181.6592167195826
 31
0.0
  0
LINE
  5
22DC7
102
{ACAD_REACTORS
330
22EEA
102
}
330
1F
100
AcDbEntity
  8
11000_Left
  6
Continuous
 62
     7
370
    50
100
AcDbLine
 39
0.7
 10
47.37226074440626
 20
181.6592167195826
 30
0.0
 11
47.3723033958431
 21
212.1592167195528
 31
0.0
  0
LINE
  5
22DC8
330
1F
100
AcDbEntity
  8
11000_Left
  6
Continuous
 62
     7
370
    50
100
AcDbLine
 39
0.7
 10
47.57231737992081
 20
222.1592164398614
 30
0.0
 11
42.37231737992579
 21
222.1592237115819
 31
0.0
  0
LINE
  5
22DC9
330
1F
100
AcDbEntity
  8
11000_Left
  6
Continuous
 62
     7
370
    13
100
AcDbLine
 10
44.77231038788453
 20
217.159220355408
 30
0.0
 11
43.37231737992465
 21
222.159222313174
 31
0.0
  0
ARC
  5
22DCA
330
1F
100
AcDbEntity
  8
11000_Left
  6
Continuous
 62
     7
370
    13
100
AcDbCircle
 10
46.67231668071758
 20
221.659217698429
 30
0.0
 40
0.5
100
AcDbArc
 50
89.99991987714215
 51
179.9999198771421
  0
LINE
  5
22DCB
330
1F
100
AcDbEntity
  8
11000_Left
  6
Continuous
 62
     7
370
    13
100
AcDbLine
 10
45.87231038788353
 20
217.1592188171593
 30
0.0
 11
44.77231038788453
 21
217.159220355408
 31
0.0
  0
LINE
  5
22DCC
330
1F
100
AcDbEntity
  8
11000_Left
  6
Continuous
 62
     7
370
    13
100
AcDbLine
 10
46.37231178629098
 20
218.1592181179546
 30
0.0
 11
45.87231038788353
 21
217.1592188171593
 31
0.0
  0
LINE
  5
22DCD
330
1F
100
AcDbEntity
  8
11000_Left
  6
Continuous
 62
     7
370
    13
100
AcDbLine
 10
46.37231318469867
 20
219.1592181179537
 30
0.0
 11
46.37231178629098
 21
218.1592181179546
 31
0.0
  0
LINE
  5
22DCE
330
1F
100
AcDbEntity
  8
11000_Left
  6
Continuous
 62
     7
370
    13
100
AcDbLine
 10
46.17231366913528
 20
219.5056383976348
 30
0.0
 11
46.37231318469867
 21
219.1592181179537
 31
0.0
  0
LINE
  5
22DCF
330
1F
100
AcDbEntity
  8
11000_Left
  6
Continuous
 62
     7
370
    13
100
AcDbLine
 10
46.17231668071826
 20
221.6592183976329
 30
0.0
 11
46.17231366913528
 21
219.5056383976348
 31
0.0
  0
LINE
  5
22DD3
330
1F
100
AcDbEntity
  8
11000_Left
  6
Continuous
 62
     7
370
    50
100
AcDbLine
 39
0.7
 10
47.57230339584315
 20
212.1592164398712
 30
0.0
 11
47.3723033958431
 21
212.1592167195528
 31
0.0
  0
LINE
  5
22DD4
330
1F
100
AcDbEntity
  8
11000_Left
  6
Continuous
 62
     7
370
    13
100
AcDbLine
 10
43.07226074441087
 20
181.6592227327359
 30
0.0
 11
45.50430493963131
 21
184.6592193317494
 31
0.0
  0
LINE
  5
22DD5
330
1F
100
AcDbEntity
  8
11000_Left
  6
Continuous
 62
     7
370
    13
100
AcDbLine
 10
46.27226354122306
 20
183.659218257829
 30
0.0
 11
47.37226354122184
 21
183.6592167195805
 31
0.0
  0
LINE
  5
22DD6
330
1F
100
AcDbEntity
  8
11000_Left
  6
Continuous
 62
     7
370
    13
100
AcDbLine
 10
46.00430493963084
 20
184.6592186325455
 30
0.0
 11
46.27226354122306
 21
183.659218257829
 31
0.0
  0
LINE
  5
22DD7
330
1F
100
AcDbEntity
  8
11000_Left
  6
Continuous
 62
     7
370
    13
100
AcDbLine
 10
45.50430493963131
 20
184.6592193317494
 30
0.0
 11
46.00430493963084
 21
184.6592186325455
 31
0.0
  0
LINE
  5
22DD8
102
{ACAD_REACTORS
330
22F4A
102
}
330
1F
100
AcDbEntity
  8
11000_Left
  6
Continuous
 62
     7
370
    50
100
AcDbLine
 39
0.7
 10
47.57231737992081
 20
222.1592164398614
 30
0.0
 11
47.57230339584315
 21
212.1592164398712
 31
0.0
  0
LINE
  5
22DD9
102
{ACAD_REACTORS
330
22EEA
102
}
330
1F
100
AcDbEntity
  8
11000_Left
  6
Continuous
 62
     7
370
    50
100
AcDbLine
 39
0.7
 10
49.3722400479694
 20
166.8592139227814
 30
0.0
 11
42.37224004797622
 21
166.8592237116358
 31
0.0
  0
LINE
  5
22DDA
330
1F
100
AcDbEntity
  8
11000_Left
  6
Continuous
 62
     7
370
    50
100
AcDbLine
 39
0.7
 10
53.27224004796562
 20
166.859208468991
 30
0.0
 11
49.3722400479694
 21
166.8592139227814
 31
0.0
  0
LINE
  5
22DDB
330
1F
100
AcDbEntity
  8
11000_Left
  6
Continuous
 62
     7
370
    50
100
AcDbLine
 39
0.7
 10
157.1222695542678
 20
187.9590632443239
 30
0.0
 11
136.112569419773
 21
187.9590926244518
 31
0.0
  0
LINE
  5
22DDC
330
1F
100
AcDbEntity
  8
11000_Left
  6
Continuous
 62
     7
370
    50
100
AcDbLine
 39
0.7
 10
128.1430643488074
 20
184.236663769066
 30
0.0
 11
128.4222695542962
 21
187.9591033786268
 31
0.0
  0
LINE
  5
22DDD
330
1F
100
AcDbEntity
  8
11000_Left
  6
Continuous
 62
     7
370
    50
100
AcDbLine
 39
0.7
 10
53.27224004796562
 20
166.859208468991
 30
0.0
 11
53.27224060758044
 21
167.259388468991
 31
0.0
  0
LINE
  5
22DDE
330
1F
100
AcDbEntity
  8
11000_Left
  6
Continuous
 62
     7
370
    50
100
AcDbLine
 39
0.7
 10
127.8439039606655
 20
183.9591041874138
 30
0.0
 11
127.3338439606659
 21
183.9591049006857
 31
0.0
  0
LINE
  5
22DDF
330
1F
100
AcDbEntity
  8
11000_Left
  6
Continuous
 62
     7
370
    13
100
AcDbLine
 10
113.272381659124
 20
268.1251645644262
 30
0.0
 11
110.7723816591265
 21
268.1251680604457
 31
0.0
  0
LINE
  5
22DE0
102
{ACAD_REACTORS
330
22F4A
102
}
330
1F
100
AcDbEntity
  8
11000_Left
  6
Continuous
 62
     7
370
    50
100
AcDbLine
 39
0.7
 10
110.772382895263
 20
269.0091280604449
 30
0.0
 11
110.772383244865
 21
269.2591280604446
 31
0.0
  0
LINE
  5
22DE1
330
1F
100
AcDbEntity
  8
11000_Left
  6
Continuous
 62
     7
370
    50
100
AcDbLine
 39
0.7
 10
110.7723820087285
 20
268.3751680604455
 30
0.0
 11
110.772382895263
 21
269.0091280604449
 31
0.0
  0
LINE
  5
22DE2
330
1F
100
AcDbEntity
  8
11000_Left
  6
Continuous
 62
     7
370
    50
100
AcDbLine
 39
0.7
 10
110.7723816591265
 20
268.1251680604457
 30
0.0
 11
110.7723820087285
 21
268.3751680604455
 31
0.0
  0
LINE
  5
22DE3
330
1F
100
AcDbEntity
  8
11000_Left
  6
Continuous
 62
     7
370
    50
100
AcDbLine
 39
0.7
 10
110.7723583532067
 20
251.459128060462
 30
0.0
 11
110.7723816591265
 21
268.1251680604457
 31
0.0
  0
LINE
  5
22DE4
330
1F
100
AcDbEntity
  8
11000_Left
  6
Continuous
 62
     7
370
    50
100
AcDbLine
 39
0.7
 10
113.272381659124
 20
268.1251645644262
 30
0.0
 11
113.2723583532042
 21
251.4591245644425
 31
0.0
  0
LINE
  5
22DE5
330
1F
100
AcDbEntity
  8
11000_Left
  6
Continuous
 62
     7
370
    50
100
AcDbLine
 39
0.7
 10
113.272382008726
 20
268.375164564426
 30
0.0
 11
113.272381659124
 21
268.1251645644262
 31
0.0
  0
LINE
  5
22DE6
330
1F
100
AcDbEntity
  8
11000_Left
  6
Continuous
 62
     7
370
    50
100
AcDbLine
 39
0.7
 10
113.2723828952605
 20
269.0091245644254
 30
0.0
 11
113.272382008726
 21
268.375164564426
 31
0.0
  0
LINE
  5
22DE7
330
1F
100
AcDbEntity
  8
11000_Left
  6
Continuous
 62
     7
370
    50
100
AcDbLine
 39
0.7
 10
113.2723832448625
 20
269.2591245644252
 30
0.0
 11
113.2723828952605
 21
269.0091245644254
 31
0.0
  0
LINE
  5
22DE8
330
1F
100
AcDbEntity
  8
11000_Left
  6
Continuous
 62
     7
370
    50
100
AcDbLine
 39
0.7
 10
110.772383244865
 20
269.2591280604446
 30
0.0
 11
113.2723832448625
 21
269.2591245644252
 31
0.0
  0
DIMENSION
  5
22DE9
102
{ACAD_XDICTIONARY
360
22DF6
102
}
102
{ACAD_REACTORS
330
22E00
102
}
330
1F
100
AcDbEntity
  8
10100_FRONT_DIM
  6
Continuous
 62
     7
370
    13
100
AcDbDimension
  2
*D2
 10
-44.16926496134147
 20
275.9998462181963
 30
0.0
 11
-55.41926496134147
 21
275.9998462181963
 31
0.0
 70
    32
 71
     5
 42
22.5
  3
H035
100
AcDbAlignedDimension
 13
-66.66926496134147
 23
269.2591245644252
 33
0.0
 14
-44.16926496134147
 24
269.2591245644252
 34
0.0
100
AcDbRotatedDimension
1001
ACAD
1000
DSTYLE
1002
{
1070
    40
1040
1.0
1002
}
  0
DIMENSION
  5
22E01
102
{ACAD_XDICTIONARY
360
22E0E
102
}
102
{ACAD_REACTORS
330
22E18
102
}
330
1F
100
AcDbEntity
  8
10100_FRONT_DIM
  6
Continuous
 62
     7
370
    13
100
AcDbDimension
  2
*D3
 10
-16.16925996134159
 20
275.9998462181963
 30
0.0
 11
-21.6692599613416
 21
275.9998462181963
 31
0.0
 70
   160
 71
     5
 42
11.0
  3
H035
100
AcDbAlignedDimension
 13
-27.1692599613416
 23
268.2591245644252
 33
0.0
 14
-16.16925996134159
 24
268.2591245644252
 34
0.0
100
AcDbRotatedDimension
1001
ACAD
1000
DSTYLE
1002
{
1070
    40
1040
1.0
1002
}
  0
DIMENSION
  5
22E19
102
{ACAD_XDICTIONARY
360
22E25
102
}
102
{ACAD_REACTORS
330
22E2E
102
}
330
1F
100
AcDbEntity
  8
10100_FRONT_DIM
  6
Continuous
 62
     7
370
    13
100
AcDbDimension
  2
*D4
 10
-46.35158994586888
 20
262.2006212638128
 30
0.0
 11
-34.77311697240424
 21
273.122124886507
 31
0.0
 70
    35
 71
     5
 42
5.999999999999886
  3
H035
100
AcDbDiametricDimension
 15
-41.98692997681418
 25
266.3176278650378
 35
0.0
 40
0.0
1001
ACAD
1000
DSTYLE
1002
{
1070
    40
1040
1.0
1002
}
  0
DIMENSION
  5
22E2F
102
{ACAD_XDICTIONARY
360
22E3C
102
}
102
{ACAD_REACTORS
330
22E46
102
}
330
1F
100
AcDbEntity
  8
10100_FRONT_DIM
  6
Continuous
 62
     7
370
    13
100
AcDbDimension
  2
*D5
 10
-9.169469961341523
 20
151.9835720589703
 30
0.0
 11
-44.16946996134153
 21
151.9835720589703
 31
0.0
 70
    32
 71
     5
 42
70.0
  3
H035
100
AcDbAlignedDimension
 13
-79.16946996134152
 23
168.3591265644251
 33
0.0
 14
-9.169469961341519
 24
168.3591296301186
 34
0.0
100
AcDbRotatedDimension
1001
ACAD
1000
DSTYLE
1002
{
1070
    40
1040
1.0
1002
}
  0
DIMENSION
  5
22E47
102
{ACAD_XDICTIONARY
360
22E54
102
}
102
{ACAD_REACTORS
330
22E5E
102
}
330
1F
100
AcDbEntity
  8
10100_FRONT_DIM
  6
Continuous
 62
     7
370
    13
100
AcDbDimension
  2
*D6
 10
0.7447031174045892
 20
252.4591245644254
 30
0.0
 11
0.7447031174045459
 21
207.8591265644253
 31
0.0
 70
    32
 71
     5
 42
89.19999600000016
  3
H035
100
AcDbAlignedDimension
 13
-12.31946996134161
 23
163.2591285644251
 33
0.0
 14
-12.31946996134161
 24
252.4591245644254
 34
0.0
 50
90.0
100
AcDbRotatedDimension
1001
ACAD
1000
DSTYLE
1002
{
1070
    40
1040
1.0
1002
}
  0
DIMENSION
  5
22E5F
102
{ACAD_XDICTIONARY
360
22E6C
102
}
102
{ACAD_REACTORS
330
22E76
102
}
330
1F
100
AcDbEntity
  8
10100_FRONT_DIM
  6
Continuous
 62
     7
370
    13
100
AcDbDimension
  2
*D7
 10
8.966754470889556
 20
269.2591245644253
 30
0.0
 11
8.966754470889506
 21
216.2591265644253
 31
0.0
 70
    32
 71
     5
 42
105.999996
  3
H035
100
AcDbAlignedDimension
 13
-12.31946996134161
 23
163.2591285644251
 33
0.0
 14
-16.74660996134162
 24
269.2591245644253
 34
0.0
 50
90.0
100
AcDbRotatedDimension
1001
ACAD
1000
DSTYLE
1002
{
1070
    40
1040
1.0
1002
}
  0
LINE
  5
22EBD
330
1F
100
AcDbEntity
  8
11000_Left
  6
ACAD_ISO02W100
 62
     7
370
     9
100
AcDbLine
 10
40.87226354122186
 20
190.1592167195806
 30
0.0
 11
40.87226354122186
 21
213.5592157195805
 31
0.0
  0
LINE
  5
22EBE
330
1F
100
AcDbEntity
  8
11000_Left
  6
ACAD_ISO02W100
 62
     7
370
     9
100
AcDbLine
 10
39.87226354122185
 20
213.5592157195805
 30
0.0
 11
39.87226354122185
 21
190.1592167195806
 31
0.0
  0
ARC
  5
22EBF
330
1F
100
AcDbEntity
  8
11000_Left
  6
ACAD_ISO02W100
 62
     7
370
     9
100
AcDbCircle
 10
41.67226354122249
 20
190.1592167195806
 30
0.0
 40
0.8
100
AcDbArc
 50
180.0
 51
270.0
  0
LINE
  5
22EC0
330
1F
100
AcDbEntity
  8
11000_Left
  6
ACAD_ISO02W100
 62
     7
370
     9
100
AcDbLine
 10
45.57226354122213
 20
189.3592167195803
 30
0.0
 11
41.67226354122158
 21
189.3592167195803
 31
0.0
  0
ARC
  5
22EC1
330
1F
100
AcDbEntity
  8
11000_Left
  6
ACAD_ISO02W100
 62
     7
370
     9
100
AcDbCircle
 10
45.57226354122213
 20
187.5592167195802
 30
0.0
 40
1.8
100
AcDbArc
 50
0.0
 51
90.0
  0
LINE
  5
22EC2
330
1F
100
AcDbEntity
  8
11000_Left
  6
ACAD_ISO02W100
 62
     7
370
     9
100
AcDbLine
 10
46.37226354122184
 20
187.5592167195802
 30
0.0
 11
46.37226354122184
 21
183.8592167195804
 31
0.0
  0
ARC
  5
22EC3
330
1F
100
AcDbEntity
  8
11000_Left
  6
ACAD_ISO02W100
 62
     7
370
     9
100
AcDbCircle
 10
45.57226354122213
 20
187.5592167195802
 30
0.0
 40
0.8
100
AcDbArc
 50
0.0
 51
90.0
  0
LINE
  5
22EC4
330
1F
100
AcDbEntity
  8
11000_Left
  6
ACAD_ISO02W100
 62
     7
370
     9
100
AcDbLine
 10
41.67226354122158
 20
188.3592167195805
 30
0.0
 11
45.57226354122213
 21
188.3592167195805
 31
0.0
  0
ARC
  5
22EC5
330
1F
100
AcDbEntity
  8
11000_Left
  6
ACAD_ISO02W100
 62
     7
370
     9
100
AcDbCircle
 10
41.67226354122249
 20
190.1592167195806
 30
0.0
 40
1.8
100
AcDbArc
 50
180.0
 51
270.0
  0
LINE
  5
22EC6
330
1F
100
AcDbEntity
  8
11000_Left
  6
ACAD_ISO02W100
 62
     7
370
     9
100
AcDbLine
 10
46.37226354122184
 20
218.8592157195806
 30
0.0
 11
46.37226354122184
 21
216.1592157195803
 31
0.0
  0
ARC
  5
22EC7
330
1F
100
AcDbEntity
  8
11000_Left
  6
ACAD_ISO02W100
 62
     7
370
     9
100
AcDbCircle
 10
45.57226354122213
 20
216.1592157195803
 30
0.0
 40
0.8
100
AcDbArc
 50
270.0
 51
0.0
  0
ARC
  5
22EC8
330
1F
100
AcDbEntity
  8
11000_Left
  6
ACAD_ISO02W100
 62
     7
370
     9
100
AcDbCircle
 10
45.57226354122213
 20
216.1592157195803
 30
0.0
 40
1.8
100
AcDbArc
 50
270.0
 51
0.0
  0
LINE
  5
22EC9
330
1F
100
AcDbEntity
  8
11000_Left
  6
ACAD_ISO02W100
 62
     7
370
     9
100
AcDbLine
 10
41.67226354122158
 20
214.3592157195806
 30
0.0
 11
45.57226354122213
 21
214.3592157195806
 31
0.0
  0
ARC
  5
22ECA
330
1F
100
AcDbEntity
  8
11000_Left
  6
ACAD_ISO02W100
 62
     7
370
     9
100
AcDbCircle
 10
41.67226354122249
 20
213.5592157195805
 30
0.0
 40
0.8
100
AcDbArc
 50
90.0
 51
180.0
  0
ARC
  5
22ECB
330
1F
100
AcDbEntity
  8
11000_Left
  6
ACAD_ISO02W100
 62
     7
370
     9
100
AcDbCircle
 10
41.67226354122249
 20
213.5592157195805
 30
0.0
 40
1.8
100
AcDbArc
 50
90.0
 51
180.0
  0
LINE
  5
22ECC
330
1F
100
AcDbEntity
  8
11000_Left
  6
ACAD_ISO02W100
 62
     7
370
     9
100
AcDbLine
 10
41.67226354122158
 20
215.3592157195807
 30
0.0
 11
45.57226354122213
 21
215.3592157195807
 31
0.0
  0
LINE
  5
22ECD
330
1F
100
AcDbEntity
  8
11000_Left
  6
ACAD_ISO02W100
 62
     7
370
     9
100
AcDbLine
 10
47.37226354122184
 20
218.8592157195806
 30
0.0
 11
46.37226354122184
 21
218.8592157195806
 31
0.0
  0
LINE
  5
22ECE
330
1F
100
AcDbEntity
  8
11000_Left
  6
ACAD_ISO02W100
 62
     7
370
     9
100
AcDbLine
 10
46.37226354122184
 20
183.8592167195804
 30
0.0
 11
47.37226354122184
 21
183.8592167195804
 31
0.0
  0
DIMENSION
  5
22ECF
102
{ACAD_XDICTIONARY
360
22EDE
102
}
102
{ACAD_REACTORS
330
22EEA
102
}
330
1F
100
AcDbEntity
  8
11100_LEFT_DIM
  6
Continuous
 62
     7
370
    13
100
AcDbDimension
  2
*D8
 10
42.37224004797622
 20
154.9271277390837
 30
0.0
 11
34.20557338130956
 21
154.9271277390837
 31
0.0
 70
    32
 71
     5
 42
5.000020696430055
  3
H035
100
AcDbAlignedDimension
 13
47.37226074440626
 23
181.6592167195826
 33
0.0
 14
42.37224004797622
 24
166.8592237116358
 34
0.0
100
AcDbRotatedDimension
1001
ACAD
1000
DSTYLE
1002
{
1070
    40
1040
1.0
1002
}
  0
DIMENSION
  5
22EEB
102
{ACAD_XDICTIONARY
360
22EF8
102
}
102
{ACAD_REACTORS
330
22F02
102
}
330
1F
100
AcDbEntity
  8
11100_LEFT_DIM
  6
Continuous
 62
     7
370
    13
100
AcDbDimension
  2
*D9
 10
78.27223557303614
 20
154.9271277390837
 30
0.0
 11
62.82224815872121
 21
154.9271277390837
 31
0.0
 70
    32
 71
     5
 42
30.89997482862987
  3
H035
100
AcDbAlignedDimension
 13
47.37226074440626
 23
166.859216719568
 33
0.0
 14
78.27223557303614
 24
163.6591735088001
 34
0.0
100
AcDbRotatedDimension
1001
ACAD
1000
DSTYLE
1002
{
1070
    40
1040
1.0
1002
}
  0
DIMENSION
  5
22F03
102
{ACAD_XDICTIONARY
360
22F10
102
}
102
{ACAD_REACTORS
330
22F1A
102
}
330
1F
100
AcDbEntity
  8
11100_LEFT_DIM
  6
Continuous
 62
     7
370
    13
100
AcDbDimension
  2
*D10
 10
166.3522923455366
 20
146.7211667599146
 30
0.0
 11
106.8622765449714
 21
146.7211667599146
 31
0.0
 70
    32
 71
     5
 42
118.9800316011303
  3
H035
100
AcDbAlignedDimension
 13
47.37226074440626
 23
166.859216719568
 33
0.0
 14
166.3522923455366
 24
218.5590503370181
 34
0.0
100
AcDbRotatedDimension
1001
ACAD
1000
DSTYLE
1002
{
1070
    40
1040
1.0
1002
}
  0
DIMENSION
  5
22F1B
102
{ACAD_XDICTIONARY
360
22F28
102
}
102
{ACAD_REACTORS
330
22F32
102
}
330
1F
100
AcDbEntity
  8
11000_Left
  6
Continuous
 62
     7
370
    13
100
AcDbDimension
  2
*D11
 10
174.5649384693259
 20
252.4590590525337
 30
0.0
 11
174.5649384693258
 21
220.2090593672927
 31
0.0
 70
    32
 71
     5
 42
64.49999937048204
  3
H035
100
AcDbAlignedDimension
 13
159.6696468253421
 23
187.9590596820516
 33
0.0
 14
160.1198597515665
 24
252.4590590525337
 34
0.0
 50
90.0
100
AcDbRotatedDimension
1001
ACAD
1000
DSTYLE
1002
{
1070
    40
1040
1.0
1002
}
  0
DIMENSION
  5
22F33
102
{ACAD_XDICTIONARY
360
22F40
102
}
102
{ACAD_REACTORS
330
22F4A
102
}
330
1F
100
AcDbEntity
  8
11100_LEFT_DIM
  6
Continuous
 62
     7
370
    13
100
AcDbDimension
  2
*D12
 10
110.772382895263
 20
276.172745695687
 30
0.0
 11
79.17235013759193
 21
276.172745695687
 31
0.0
 70
    32
 71
     5
 42
63.20006551534221
  3
H035
100
AcDbAlignedDimension
 13
47.57231737992081
 23
222.1592164398614
 33
0.0
 14
110.772382895263
 24
269.0091280604449
 34
0.35
100
AcDbRotatedDimension
1001
ACAD
1000
DSTYLE
1002
{
1070
    40
1040
1.0
1002
}
  0
LINE
  5
22F88
330
1F
100
AcDbEntity
  8
11000_Left
  6
Continuous
 62
     7
370
    50
100
AcDbLine
 39
0.7
 10
136.112569419773
 20
187.9590926244518
 30
0.0
 11
128.4222695542962
 21
187.9591033786268
 31
0.0
  0
LINE
  5
22F89
330
1F
100
AcDbEntity
  8
11000_Left
  6
Continuous
 62
     7
370
    50
100
AcDbLine
 39
0.7
 10
158.2529094197296
 20
187.9590616632283
 30
0.0
 11
157.1222495542679
 21
187.9590632443518
 31
0.0
  0
LINE
  5
22F8A
330
1F
100
AcDbEntity
  8
11000_Left
  6
Continuous
 62
     7
370
    50
100
AcDbLine
 39
0.7
 10
159.4170440964189
 20
187.9590600352933
 30
0.0
 11
158.2529094197296
 21
187.9590616632283
 31
0.0
  0
LINE
  5
23126
330
1F
100
AcDbEntity
  8
10000_FRONT
  6
Continuous
 62
     7
370
    13
100
AcDbLine
 10
-22.56947996134158
 20
187.9591675644252
 30
0.0
 11
-21.96929996134144
 21
187.9591675644252
 31
0.0
  0
LINE
  5
23127
330
1F
100
AcDbEntity
  8
10000_FRONT
  6
Continuous
 62
     7
370
    13
100
AcDbLine
 10
-66.36965996134154
 20
187.9591675644252
 30
0.0
 11
-65.76947996134163
 21
187.9591675644252
 31
0.0
  0
LINE
  5
23128
330
1F
100
AcDbEntity
  8
10000_FRONT
  6
Continuous
 62
     7
370
    13
100
AcDbLine
 10
-21.76947996134162
 20
188.1591185644251
 30
0.0
 11
-21.76947996134162
 21
201.9591185644252
 31
0.0
  0
LINE
  5
23129
330
1F
100
AcDbEntity
  8
10000_FRONT
  6
Continuous
 62
     7
370
    13
100
AcDbLine
 10
-21.76947996134162
 20
188.1591185644251
 30
0.0
 11
-21.76947996134162
 21
188.1591185644251
 31
0.0
  0
ARC
  5
2312A
330
1F
100
AcDbEntity
  8
10000_FRONT
  6
Continuous
 62
     7
370
    13
100
AcDbCircle
 10
-21.96933150588665
 20
188.1590756478009
 30
0.0
 40
0.1998515491530626
100
AcDbArc
 50
274.0884055625135
 51
0.012303839835523
  0
ARC
  5
2312B
330
1F
100
AcDbEntity
  8
10000_FRONT
  6
Continuous
 62
     7
370
    13
100
AcDbCircle
 10
-21.96947996134144
 20
188.1591205644251
 30
0.0
 40
0.2
100
AcDbArc
 50
269.999989999999
 51
274.0115599999959
  0
LINE
  5
2312C
330
1F
100
AcDbEntity
  8
10000_FRONT
  6
Continuous
 62
     7
370
    13
100
AcDbLine
 10
-23.96947996134144
 20
188.1591185644251
 30
0.0
 11
-23.96947996134144
 21
187.9591185644252
 31
0.0
  0
LINE
  5
2312D
330
1F
100
AcDbEntity
  8
10000_FRONT
  6
Continuous
 62
     7
370
    13
100
AcDbLine
 10
-23.96947996134144
 20
188.4591185644253
 30
0.0
 11
-23.96947996134144
 21
188.1591185644251
 31
0.0
  0
LINE
  5
2312E
330
1F
100
AcDbEntity
  8
10000_FRONT
  6
Continuous
 62
     7
370
    13
100
AcDbLine
 10
-28.36947996134153
 20
188.4591185644253
 30
0.0
 11
-23.96947996134144
 21
188.4591185644253
 31
0.0
  0
LINE
  5
2312F
330
1F
100
AcDbEntity
  8
10000_FRONT
  6
Continuous
 62
     7
370
    13
100
AcDbLine
 10
-28.36947996134153
 20
188.1591185644251
 30
0.0
 11
-28.36947996134153
 21
187.9591185644252
 31
0.0
  0
LINE
  5
23130
330
1F
100
AcDbEntity
  8
10000_FRONT
  6
Continuous
 62
     7
370
    13
100
AcDbLine
 10
-28.36947996134153
 20
188.1591185644251
 30
0.0
 11
-28.36947996134153
 21
188.4591185644253
 31
0.0
  0
LINE
  5
23131
330
1F
100
AcDbEntity
  8
10000_FRONT
  6
Continuous
 62
     7
370
    13
100
AcDbLine
 10
-31.16947996134172
 20
188.1591185644251
 30
0.0
 11
-31.16947996134172
 21
187.9591185644252
 31
0.0
  0
LINE
  5
23132
330
1F
100
AcDbEntity
  8
10000_FRONT
  6
Continuous
 62
     7
370
    13
100
AcDbLine
 10
-31.16947996134172
 20
188.4591185644253
 30
0.0
 11
-31.16947996134172
 21
188.1591185644251
 31
0.0
  0
LINE
  5
23133
330
1F
100
AcDbEntity
  8
10000_FRONT
  6
Continuous
 62
     7
370
    13
100
AcDbLine
 10
-35.56947996134158
 20
188.4591185644253
 30
0.0
 11
-31.16947996134172
 21
188.4591185644253
 31
0.0
  0
LINE
  5
23134
330
1F
100
AcDbEntity
  8
10000_FRONT
  6
Continuous
 62
     7
370
    13
100
AcDbLine
 10
-35.56947996134158
 20
188.1591185644251
 30
0.0
 11
-35.56947996134158
 21
187.9591185644252
 31
0.0
  0
LINE
  5
23135
330
1F
100
AcDbEntity
  8
10000_FRONT
  6
Continuous
 62
     7
370
    13
100
AcDbLine
 10
-35.56947996134158
 20
188.1591185644251
 30
0.0
 11
-35.56947996134158
 21
188.4591185644253
 31
0.0
  0
LINE
  5
23136
330
1F
100
AcDbEntity
  8
10000_FRONT
  6
Continuous
 62
     7
370
    13
100
AcDbLine
 10
-38.36947996134153
 20
188.1591185644251
 30
0.0
 11
-38.36947996134153
 21
187.9591185644252
 31
0.0
  0
LINE
  5
23137
330
1F
100
AcDbEntity
  8
10000_FRONT
  6
Continuous
 62
     7
370
    13
100
AcDbLine
 10
-38.36947996134153
 20
188.4591185644253
 30
0.0
 11
-38.36947996134153
 21
188.1591185644251
 31
0.0
  0
LINE
  5
23138
330
1F
100
AcDbEntity
  8
10000_FRONT
  6
Continuous
 62
     7
370
    13
100
AcDbLine
 10
-42.76947996134161
 20
188.4591185644253
 30
0.0
 11
-38.36947996134153
 21
188.4591185644253
 31
0.0
  0
LINE
  5
23139
330
1F
100
AcDbEntity
  8
10000_FRONT
  6
Continuous
 62
     7
370
    13
100
AcDbLine
 10
-42.76947996134161
 20
188.1591185644251
 30
0.0
 11
-42.76947996134161
 21
187.9591185644252
 31
0.0
  0
LINE
  5
2313A
330
1F
100
AcDbEntity
  8
10000_FRONT
  6
Continuous
 62
     7
370
    13
100
AcDbLine
 10
-42.76947996134161
 20
188.1591185644251
 30
0.0
 11
-42.76947996134161
 21
188.4591185644253
 31
0.0
  0
LINE
  5
2313B
330
1F
100
AcDbEntity
  8
10000_FRONT
  6
Continuous
 62
     7
370
    13
100
AcDbLine
 10
-45.56947996134158
 20
188.1591185644251
 30
0.0
 11
-45.56947996134158
 21
187.9591185644252
 31
0.0
  0
LINE
  5
2313C
330
1F
100
AcDbEntity
  8
10000_FRONT
  6
Continuous
 62
     7
370
    13
100
AcDbLine
 10
-45.56947996134158
 20
188.4591185644253
 30
0.0
 11
-45.56947996134158
 21
188.1591185644251
 31
0.0
  0
LINE
  5
2313D
330
1F
100
AcDbEntity
  8
10000_FRONT
  6
Continuous
 62
     7
370
    13
100
AcDbLine
 10
-49.96947996134144
 20
188.4591185644253
 30
0.0
 11
-45.56947996134158
 21
188.4591185644253
 31
0.0
  0
LINE
  5
2313E
330
1F
100
AcDbEntity
  8
10000_FRONT
  6
Continuous
 62
     7
370
    13
100
AcDbLine
 10
-57.16947996134147
 20
188.4591185644253
 30
0.0
 11
-52.76947996134161
 21
188.4591185644253
 31
0.0
  0
LINE
  5
2313F
330
1F
100
AcDbEntity
  8
10000_FRONT
  6
Continuous
 62
     7
370
    13
100
AcDbLine
 10
-64.36947996134154
 20
188.4591185644253
 30
0.0
 11
-59.96947996134144
 21
188.4591185644253
 31
0.0
  0
LINE
  5
23140
330
1F
100
AcDbEntity
  8
10000_FRONT
  6
Continuous
 62
     7
370
    13
100
AcDbLine
 10
-64.36947996134154
 20
188.1591185644251
 30
0.0
 11
-64.36947996134154
 21
187.9591185644252
 31
0.0
  0
LINE
  5
23141
330
1F
100
AcDbEntity
  8
10000_FRONT
  6
Continuous
 62
     7
370
    13
100
AcDbLine
 10
-64.36947996134154
 20
188.1591185644251
 30
0.0
 11
-64.36947996134154
 21
188.4591185644253
 31
0.0
  0
LINE
  5
23142
330
1F
100
AcDbEntity
  8
10000_FRONT
  6
Continuous
 62
     7
370
    13
100
AcDbLine
 10
-59.96947996134144
 20
187.9591185644252
 30
0.0
 11
-59.96947996134144
 21
188.1591185644251
 31
0.0
  0
LINE
  5
23143
330
1F
100
AcDbEntity
  8
10000_FRONT
  6
Continuous
 62
     7
370
    13
100
AcDbLine
 10
-59.96947996134144
 20
188.4591185644253
 30
0.0
 11
-59.96947996134144
 21
188.1591185644251
 31
0.0
  0
LINE
  5
23144
330
1F
100
AcDbEntity
  8
10000_FRONT
  6
Continuous
 62
     7
370
    13
100
AcDbLine
 10
-57.16947996134147
 20
188.1591185644251
 30
0.0
 11
-57.16947996134147
 21
187.9591185644252
 31
0.0
  0
LINE
  5
23145
330
1F
100
AcDbEntity
  8
10000_FRONT
  6
Continuous
 62
     7
370
    13
100
AcDbLine
 10
-57.16947996134147
 20
188.1591185644251
 30
0.0
 11
-57.16947996134147
 21
188.4591185644253
 31
0.0
  0
LINE
  5
23146
330
1F
100
AcDbEntity
  8
10000_FRONT
  6
Continuous
 62
     7
370
    13
100
AcDbLine
 10
-52.76947996134161
 20
188.1591185644251
 30
0.0
 11
-52.76947996134161
 21
187.9591185644252
 31
0.0
  0
LINE
  5
23147
330
1F
100
AcDbEntity
  8
10000_FRONT
  6
Continuous
 62
     7
370
    13
100
AcDbLine
 10
-52.76947996134161
 20
188.4591185644253
 30
0.0
 11
-52.76947996134161
 21
188.1591185644251
 31
0.0
  0
LINE
  5
23148
330
1F
100
AcDbEntity
  8
10000_FRONT
  6
Continuous
 62
     7
370
    13
100
AcDbLine
 10
-49.96947996134144
 20
188.1591185644251
 30
0.0
 11
-49.96947996134144
 21
187.9591185644252
 31
0.0
  0
LINE
  5
23149
330
1F
100
AcDbEntity
  8
10000_FRONT
  6
Continuous
 62
     7
370
    13
100
AcDbLine
 10
-49.96947996134144
 20
188.1591185644251
 30
0.0
 11
-49.96947996134144
 21
188.4591185644253
 31
0.0
  0
ARC
  5
2314A
330
1F
100
AcDbEntity
  8
10000_FRONT
  6
Continuous
 62
     7
370
    13
100
AcDbCircle
 10
-66.36954730890488
 20
188.1591001859255
 30
0.0
 40
0.1999326532369145
100
AcDbArc
 50
179.9948302490936
 51
269.9677165815117
  0
LINE
  5
2314B
330
1F
100
AcDbEntity
  8
10000_FRONT
  6
Continuous
 62
     7
370
    13
100
AcDbLine
 10
-66.56947996134158
 20
188.1591185644251
 30
0.0
 11
-66.56947996134158
 21
201.9591185644252
 31
0.0
  0
LINE
  5
2314C
330
1F
100
AcDbEntity
  8
10000_FRONT
  6
Continuous
 62
     7
370
    13
100
AcDbLine
 10
-66.56947996134158
 20
188.1591185644251
 30
0.0
 11
-66.56947996134158
 21
188.1591185644251
 31
0.0
  0
LINE
  5
2314D
330
1F
100
AcDbEntity
  8
10000_FRONT
  6
Continuous
 62
     7
370
    13
100
AcDbLine
 10
-22.56947996134158
 20
187.9591185644252
 30
0.0
 11
-23.96947996134144
 21
187.9591185644252
 31
0.0
  0
LINE
  5
2314E
330
1F
100
AcDbEntity
  8
10000_FRONT
  6
Continuous
 62
     7
370
    13
100
AcDbLine
 10
-21.96947996134144
 20
187.9591185644252
 30
0.0
 11
-21.96947996134144
 21
187.9591185644252
 31
0.0
  0
LINE
  5
2314F
330
1F
100
AcDbEntity
  8
10000_FRONT
  6
Continuous
 62
     7
370
    13
100
AcDbLine
 10
-66.36947996134153
 20
187.9591185644252
 30
0.0
 11
-66.36947996134153
 21
187.9591185644252
 31
0.0
  0
LINE
  5
23150
330
1F
100
AcDbEntity
  8
10000_FRONT
  6
Continuous
 62
     7
370
    13
100
AcDbLine
 10
-64.36947996134154
 20
187.9591185644252
 30
0.0
 11
-65.76947996134163
 21
187.9591185644252
 31
0.0
  0
LINE
  5
23151
330
1F
100
AcDbEntity
  8
10000_FRONT
  6
Continuous
 62
     7
370
    13
100
AcDbLine
 10
-28.36947996134153
 20
187.9591185644252
 30
0.0
 11
-31.16947996134172
 21
187.9591185644252
 31
0.0
  0
LINE
  5
23152
330
1F
100
AcDbEntity
  8
10000_FRONT
  6
Continuous
 62
     7
370
    13
100
AcDbLine
 10
-35.56947996134158
 20
187.9591185644252
 30
0.0
 11
-38.36947996134153
 21
187.9591185644252
 31
0.0
  0
LINE
  5
23153
330
1F
100
AcDbEntity
  8
10000_FRONT
  6
Continuous
 62
     7
370
    13
100
AcDbLine
 10
-42.76947996134161
 20
187.9591185644252
 30
0.0
 11
-45.56947996134158
 21
187.9591185644252
 31
0.0
  0
LINE
  5
23154
330
1F
100
AcDbEntity
  8
10000_FRONT
  6
Continuous
 62
     7
370
    13
100
AcDbLine
 10
-49.96947996134144
 20
187.9591185644252
 30
0.0
 11
-52.76947996134161
 21
187.9591185644252
 31
0.0
  0
LINE
  5
23155
330
1F
100
AcDbEntity
  8
10000_FRONT
  6
Continuous
 62
     7
370
    13
100
AcDbLine
 10
-57.16947996134147
 20
187.9591185644252
 30
0.0
 11
-59.96947996134144
 21
187.9591185644252
 31
0.0
  0
ARC
  5
23156
330
1F
100
AcDbEntity
  8
10000_FRONT
  6
Continuous
 62
     7
370
    13
100
AcDbCircle
 10
-26.18526579914464
 20
195.1434707252412
 30
0.0
 40
2.846583555481651
100
AcDbArc
 50
167.7487691038114
 51
192.2280256494199
1001
AUSTER_FOLIE
1002
{
1000
ZENTRA_MIT_DREHANTRIEB_67_AUSTER
1002
}
1001
AUSTER_ANSICHT
1002
{
1000
R
1002
}
  0
ARC
  5
23157
330
1F
100
AcDbEntity
  8
10000_FRONT
  6
Continuous
 62
     7
370
    13
100
AcDbCircle
 10
-26.18526579914464
 20
195.1434707252412
 30
0.0
 40
1.847463888876104
100
AcDbArc
 50
253.8249522957542
 51
286.151842457459
1001
AUSTER_FOLIE
1002
{
1000
ZENTRA_MIT_DREHANTRIEB_67_AUSTER
1002
}
1001
AUSTER_ANSICHT
1002
{
1000
R
1002
}
  0
ARC
  5
23158
330
1F
100
AcDbEntity
  8
10000_FRONT
  6
Continuous
 62
     7
370
    13
100
AcDbCircle
 10
-26.18526579914464
 20
195.1434707252412
 30
0.0
 40
1.847463888876104
100
AcDbArc
 50
73.82495229579527
 51
106.1518424575129
1001
AUSTER_FOLIE
1002
{
1000
ZENTRA_MIT_DREHANTRIEB_67_AUSTER
1002
}
1001
AUSTER_ANSICHT
1002
{
1000
R
1002
}
  0
ARC
  5
23159
330
1F
100
AcDbEntity
  8
10000_FRONT
  6
Continuous
 62
     7
370
    13
100
AcDbCircle
 10
-26.18526579914464
 20
195.1434707252412
 30
0.0
 40
2.846583555481651
100
AcDbArc
 50
347.7487691038239
 51
12.22802564944571
1001
AUSTER_FOLIE
1002
{
1000
ZENTRA_MIT_DREHANTRIEB_67_AUSTER
1002
}
1001
AUSTER_ANSICHT
1002
{
1000
R
1002
}
  0
CIRCLE
  5
2315A
330
1F
100
AcDbEntity
  8
10000_FRONT
  6
Continuous
 62
     7
370
    13
100
AcDbCircle
 10
-26.18526579914464
 20
195.1434707252412
 30
0.0
 40
3.095750300278881
1001
AUSTER_FOLIE
1002
{
1000
ZENTRA_MIT_DREHANTRIEB_67_AUSTER
1002
}
1001
AUSTER_ANSICHT
1002
{
1000
R
1002
}
  0
LINE
  5
2315B
330
1F
100
AcDbEntity
  8
10000_FRONT
  6
Continuous
 62
     7
370
    13
100
AcDbLine
 10
-25.67113200984999
 20
194.3598657799308
 30
0.0
 11
-25.671094014868
 21
194.539888686723
 31
0.0
1001
AUSTER_FOLIE
1002
{
1000
ZENTRA_MIT_DREHANTRIEB_67_AUSTER
1002
}
1001
AUSTER_ANSICHT
1002
{
1000
R
1002
}
  0
LINE
  5
2315C
330
1F
100
AcDbEntity
  8
10000_FRONT
  6
Continuous
 62
     7
370
    13
100
AcDbLine
 10
-25.67081314660458
 20
195.9268651789092
 30
0.0
 11
-25.6708496015151
 21
195.7468444705968
 31
0.0
1001
AUSTER_FOLIE
1002
{
1000
ZENTRA_MIT_DREHANTRIEB_67_AUSTER
1002
}
1001
AUSTER_ANSICHT
1002
{
1000
R
1002
}
  0
LINE
  5
2315D
330
1F
100
AcDbEntity
  8
10000_FRONT
  6
Continuous
 62
     7
370
    13
100
AcDbLine
 10
-26.69971691251316
 20
194.36007407247
 30
0.0
 11
-26.69968199677418
 21
194.5400969798856
 31
0.0
1001
AUSTER_FOLIE
1002
{
1000
ZENTRA_MIT_DREHANTRIEB_67_AUSTER
1002
}
1001
AUSTER_ANSICHT
1002
{
1000
R
1002
}
  0
LINE
  5
2315E
330
1F
100
AcDbEntity
  8
10000_FRONT
  6
Continuous
 62
     7
370
    13
100
AcDbLine
 10
-26.69939958844884
 20
195.9270756705615
 30
0.0
 11
-26.69943758342082
 21
195.7470527637594
 31
0.0
1001
AUSTER_FOLIE
1002
{
1000
ZENTRA_MIT_DREHANTRIEB_67_AUSTER
1002
}
1001
AUSTER_ANSICHT
1002
{
1000
R
1002
}
  0
LINE
  5
2315F
330
1F
100
AcDbEntity
  8
10000_FRONT
  6
Continuous
 62
     7
370
    13
100
AcDbLine
 10
-25.67113200984999
 20
194.3598657799308
 30
0.0
 11
-25.67133113861995
 21
193.3689302254464
 31
0.0
1001
AUSTER_FOLIE
1002
{
1000
ZENTRA_MIT_DREHANTRIEB_67_AUSTER
1002
}
1001
AUSTER_ANSICHT
1002
{
1000
R
1002
}
  0
LINE
  5
23160
330
1F
100
AcDbEntity
  8
10000_FRONT
  6
Continuous
 62
     7
370
    13
100
AcDbLine
 10
-26.69991912052569
 20
193.3691385186093
 30
0.0
 11
-26.69971845168424
 21
194.3600762715831
 31
0.0
1001
AUSTER_FOLIE
1002
{
1000
ZENTRA_MIT_DREHANTRIEB_67_AUSTER
1002
}
1001
AUSTER_ANSICHT
1002
{
1000
R
1002
}
  0
LINE
  5
23161
330
1F
100
AcDbEntity
  8
10000_FRONT
  6
Continuous
 62
     7
370
    13
100
AcDbLine
 10
-26.69940112851031
 20
195.927073472072
 30
0.0
 11
-26.69920045966932
 21
196.9180112250459
 31
0.0
1001
AUSTER_FOLIE
1002
{
1000
ZENTRA_MIT_DREHANTRIEB_67_AUSTER
1002
}
1001
AUSTER_ANSICHT
1002
{
1000
R
1002
}
  0
LINE
  5
23162
330
1F
100
AcDbEntity
  8
10000_FRONT
  6
Continuous
 62
     7
370
    13
100
AcDbLine
 10
-25.67061247776314
 20
196.9178029318831
 30
0.0
 11
-25.67081314660458
 21
195.9268651789092
 31
0.0
1001
AUSTER_FOLIE
1002
{
1000
ZENTRA_MIT_DREHANTRIEB_67_AUSTER
1002
}
1001
AUSTER_ANSICHT
1002
{
1000
R
1002
}
  0
LINE
  5
23163
330
1F
100
AcDbEntity
  8
10000_FRONT
  6
Continuous
 62
     7
370
    13
100
AcDbLine
 10
-25.6708496015151
 20
195.7468444705968
 30
0.0
 11
-23.40326436432111
 21
195.7463852755558
 31
0.0
1001
AUSTER_FOLIE
1002
{
1000
ZENTRA_MIT_DREHANTRIEB_67_AUSTER
1002
}
1001
AUSTER_ANSICHT
1002
{
1000
R
1002
}
  0
LINE
  5
23164
330
1F
100
AcDbEntity
  8
10000_FRONT
  6
Continuous
 62
     7
370
    13
100
AcDbLine
 10
-28.96702282061482
 20
195.7475119588005
 30
0.0
 11
-26.69943758342082
 21
195.7470527637594
 31
0.0
1001
AUSTER_FOLIE
1002
{
1000
ZENTRA_MIT_DREHANTRIEB_67_AUSTER
1002
}
1001
AUSTER_ANSICHT
1002
{
1000
R
1002
}
  0
LINE
  5
23165
330
1F
100
AcDbEntity
  8
10000_FRONT
  6
Continuous
 62
     7
370
    13
100
AcDbLine
 10
-26.69968199677418
 20
194.5400969798856
 30
0.0
 11
-28.96726723396727
 21
194.5405561749266
 31
0.0
1001
AUSTER_FOLIE
1002
{
1000
ZENTRA_MIT_DREHANTRIEB_67_AUSTER
1002
}
1001
AUSTER_ANSICHT
1002
{
1000
R
1002
}
  0
LINE
  5
23166
330
1F
100
AcDbEntity
  8
10000_FRONT
  6
Continuous
 62
     7
370
    13
100
AcDbLine
 10
-23.403508777674
 20
194.5394294916818
 30
0.0
 11
-25.671094014868
 21
194.539888686723
 31
0.0
1001
AUSTER_FOLIE
1002
{
1000
ZENTRA_MIT_DREHANTRIEB_67_AUSTER
1002
}
1001
AUSTER_ANSICHT
1002
{
1000
R
1002
}
  0
ARC
  5
23167
330
1F
100
AcDbEntity
  8
10000_FRONT
  6
Continuous
 62
     7
370
    13
100
AcDbCircle
 10
-33.40059477673435
 20
195.1813982056725
 30
0.0
 40
2.846583555481651
100
AcDbArc
 50
167.7487691038114
 51
192.2280256494199
1001
AUSTER_FOLIE
1002
{
1000
ZENTRA_MIT_DREHANTRIEB_67_AUSTER
1002
}
1001
AUSTER_ANSICHT
1002
{
1000
R
1002
}
  0
ARC
  5
23168
330
1F
100
AcDbEntity
  8
10000_FRONT
  6
Continuous
 62
     7
370
    13
100
AcDbCircle
 10
-33.40059477673435
 20
195.1813982056725
 30
0.0
 40
1.847463888876104
100
AcDbArc
 50
253.8249522957542
 51
286.151842457459
1001
AUSTER_FOLIE
1002
{
1000
ZENTRA_MIT_DREHANTRIEB_67_AUSTER
1002
}
1001
AUSTER_ANSICHT
1002
{
1000
R
1002
}
  0
ARC
  5
23169
330
1F
100
AcDbEntity
  8
10000_FRONT
  6
Continuous
 62
     7
370
    13
100
AcDbCircle
 10
-33.40059477673435
 20
195.1813982056725
 30
0.0
 40
1.847463888876104
100
AcDbArc
 50
73.82495229579527
 51
106.1518424575129
1001
AUSTER_FOLIE
1002
{
1000
ZENTRA_MIT_DREHANTRIEB_67_AUSTER
1002
}
1001
AUSTER_ANSICHT
1002
{
1000
R
1002
}
  0
ARC
  5
2316A
330
1F
100
AcDbEntity
  8
10000_FRONT
  6
Continuous
 62
     7
370
    13
100
AcDbCircle
 10
-33.40059477673435
 20
195.1813982056725
 30
0.0
 40
2.846583555481651
100
AcDbArc
 50
347.7487691038239
 51
12.22802564944571
1001
AUSTER_FOLIE
1002
{
1000
ZENTRA_MIT_DREHANTRIEB_67_AUSTER
1002
}
1001
AUSTER_ANSICHT
1002
{
1000
R
1002
}
  0
CIRCLE
  5
2316B
330
1F
100
AcDbEntity
  8
10000_FRONT
  6
Continuous
 62
     7
370
    13
100
AcDbCircle
 10
-33.40059477673435
 20
195.1813982056725
 30
0.0
 40
3.095750300278881
1001
AUSTER_FOLIE
1002
{
1000
ZENTRA_MIT_DREHANTRIEB_67_AUSTER
1002
}
1001
AUSTER_ANSICHT
1002
{
1000
R
1002
}
  0
LINE
  5
2316C
330
1F
100
AcDbEntity
  8
10000_FRONT
  6
Continuous
 62
     7
370
    13
100
AcDbLine
 10
-32.8864609874397
 20
194.3977932603622
 30
0.0
 11
-32.88642299245817
 21
194.5778161671543
 31
0.0
1001
AUSTER_FOLIE
1002
{
1000
ZENTRA_MIT_DREHANTRIEB_67_AUSTER
1002
}
1001
AUSTER_ANSICHT
1002
{
1000
R
1002
}
  0
LINE
  5
2316D
330
1F
100
AcDbEntity
  8
10000_FRONT
  6
Continuous
 62
     7
370
    13
100
AcDbLine
 10
-32.88614212419429
 20
195.9647926593406
 30
0.0
 11
-32.8861785791048
 21
195.7847719510281
 31
0.0
1001
AUSTER_FOLIE
1002
{
1000
ZENTRA_MIT_DREHANTRIEB_67_AUSTER
1002
}
1001
AUSTER_ANSICHT
1002
{
1000
R
1002
}
  0
LINE
  5
2316E
330
1F
100
AcDbEntity
  8
10000_FRONT
  6
Continuous
 62
     7
370
    13
100
AcDbLine
 10
-33.91504589010287
 20
194.3980015529013
 30
0.0
 11
-33.91501097436389
 21
194.5780244603169
 31
0.0
1001
AUSTER_FOLIE
1002
{
1000
ZENTRA_MIT_DREHANTRIEB_67_AUSTER
1002
}
1001
AUSTER_ANSICHT
1002
{
1000
R
1002
}
  0
LINE
  5
2316F
330
1F
100
AcDbEntity
  8
10000_FRONT
  6
Continuous
 62
     7
370
    13
100
AcDbLine
 10
-33.914728566039
 20
195.9650031509929
 30
0.0
 11
-33.914766561011
 21
195.7849802441907
 31
0.0
1001
AUSTER_FOLIE
1002
{
1000
ZENTRA_MIT_DREHANTRIEB_67_AUSTER
1002
}
1001
AUSTER_ANSICHT
1002
{
1000
R
1002
}
  0
LINE
  5
23170
330
1F
100
AcDbEntity
  8
10000_FRONT
  6
Continuous
 62
     7
370
    13
100
AcDbLine
 10
-32.8864609874397
 20
194.3977932603622
 30
0.0
 11
-32.88666011620966
 21
193.4068577058778
 31
0.0
1001
AUSTER_FOLIE
1002
{
1000
ZENTRA_MIT_DREHANTRIEB_67_AUSTER
1002
}
1001
AUSTER_ANSICHT
1002
{
1000
R
1002
}
  0
LINE
  5
23171
330
1F
100
AcDbEntity
  8
10000_FRONT
  6
Continuous
 62
     7
370
    13
100
AcDbLine
 10
-33.91524809811539
 20
193.4070659990406
 30
0.0
 11
-33.9150474292744
 21
194.3980037520145
 31
0.0
1001
AUSTER_FOLIE
1002
{
1000
ZENTRA_MIT_DREHANTRIEB_67_AUSTER
1002
}
1001
AUSTER_ANSICHT
1002
{
1000
R
1002
}
  0
LINE
  5
23172
330
1F
100
AcDbEntity
  8
10000_FRONT
  6
Continuous
 62
     7
370
    13
100
AcDbLine
 10
-33.91473010610047
 20
195.9650009525034
 30
0.0
 11
-33.91452943725903
 21
196.9559387054772
 31
0.0
1001
AUSTER_FOLIE
1002
{
1000
ZENTRA_MIT_DREHANTRIEB_67_AUSTER
1002
}
1001
AUSTER_ANSICHT
1002
{
1000
R
1002
}
  0
LINE
  5
23173
330
1F
100
AcDbEntity
  8
10000_FRONT
  6
Continuous
 62
     7
370
    13
100
AcDbLine
 10
-32.88594145535331
 20
196.9557304123144
 30
0.0
 11
-32.88614212419429
 21
195.9647926593406
 31
0.0
1001
AUSTER_FOLIE
1002
{
1000
ZENTRA_MIT_DREHANTRIEB_67_AUSTER
1002
}
1001
AUSTER_ANSICHT
1002
{
1000
R
1002
}
  0
LINE
  5
23174
330
1F
100
AcDbEntity
  8
10000_FRONT
  6
Continuous
 62
     7
370
    13
100
AcDbLine
 10
-32.8861785791048
 20
195.7847719510281
 30
0.0
 11
-30.6185933419108
 21
195.7843127559871
 31
0.0
1001
AUSTER_FOLIE
1002
{
1000
ZENTRA_MIT_DREHANTRIEB_67_AUSTER
1002
}
1001
AUSTER_ANSICHT
1002
{
1000
R
1002
}
  0
LINE
  5
23175
330
1F
100
AcDbEntity
  8
10000_FRONT
  6
Continuous
 62
     7
370
    13
100
AcDbLine
 10
-36.18235179820453
 20
195.7854394392319
 30
0.0
 11
-33.914766561011
 21
195.7849802441907
 31
0.0
1001
AUSTER_FOLIE
1002
{
1000
ZENTRA_MIT_DREHANTRIEB_67_AUSTER
1002
}
1001
AUSTER_ANSICHT
1002
{
1000
R
1002
}
  0
LINE
  5
23176
330
1F
100
AcDbEntity
  8
10000_FRONT
  6
Continuous
 62
     7
370
    13
100
AcDbLine
 10
-33.91501097436389
 20
194.5780244603169
 30
0.0
 11
-36.18259621155789
 21
194.5784836553579
 31
0.0
1001
AUSTER_FOLIE
1002
{
1000
ZENTRA_MIT_DREHANTRIEB_67_AUSTER
1002
}
1001
AUSTER_ANSICHT
1002
{
1000
R
1002
}
  0
LINE
  5
23177
330
1F
100
AcDbEntity
  8
10000_FRONT
  6
Continuous
 62
     7
370
    13
100
AcDbLine
 10
-30.61883775526416
 20
194.5773569721131
 30
0.0
 11
-32.88642299245817
 21
194.5778161671543
 31
0.0
1001
AUSTER_FOLIE
1002
{
1000
ZENTRA_MIT_DREHANTRIEB_67_AUSTER
1002
}
1001
AUSTER_ANSICHT
1002
{
1000
R
1002
}
  0
ARC
  5
23178
330
1F
100
AcDbEntity
  8
10000_FRONT
  6
Continuous
 62
     7
370
    13
100
AcDbCircle
 10
-40.5904635710774
 20
195.1592437871253
 30
0.0
 40
2.846583555481651
100
AcDbArc
 50
167.7487691038114
 51
192.2280256494199
1001
AUSTER_FOLIE
1002
{
1000
ZENTRA_MIT_DREHANTRIEB_67_AUSTER
1002
}
1001
AUSTER_ANSICHT
1002
{
1000
R
1002
}
  0
ARC
  5
23179
330
1F
100
AcDbEntity
  8
10000_FRONT
  6
Continuous
 62
     7
370
    13
100
AcDbCircle
 10
-40.5904635710774
 20
195.1592437871253
 30
0.0
 40
1.847463888876104
100
AcDbArc
 50
253.8249522957542
 51
286.151842457459
1001
AUSTER_FOLIE
1002
{
1000
ZENTRA_MIT_DREHANTRIEB_67_AUSTER
1002
}
1001
AUSTER_ANSICHT
1002
{
1000
R
1002
}
  0
ARC
  5
2317A
330
1F
100
AcDbEntity
  8
10000_FRONT
  6
Continuous
 62
     7
370
    13
100
AcDbCircle
 10
-40.5904635710774
 20
195.1592437871253
 30
0.0
 40
1.847463888876104
100
AcDbArc
 50
73.82495229579527
 51
106.1518424575129
1001
AUSTER_FOLIE
1002
{
1000
ZENTRA_MIT_DREHANTRIEB_67_AUSTER
1002
}
1001
AUSTER_ANSICHT
1002
{
1000
R
1002
}
  0
ARC
  5
2317B
330
1F
100
AcDbEntity
  8
10000_FRONT
  6
Continuous
 62
     7
370
    13
100
AcDbCircle
 10
-40.5904635710774
 20
195.1592437871253
 30
0.0
 40
2.846583555481651
100
AcDbArc
 50
347.7487691038239
 51
12.22802564944571
1001
AUSTER_FOLIE
1002
{
1000
ZENTRA_MIT_DREHANTRIEB_67_AUSTER
1002
}
1001
AUSTER_ANSICHT
1002
{
1000
R
1002
}
  0
CIRCLE
  5
2317C
330
1F
100
AcDbEntity
  8
10000_FRONT
  6
Continuous
 62
     7
370
    13
100
AcDbCircle
 10
-40.5904635710774
 20
195.1592437871253
 30
0.0
 40
3.095750300278881
1001
AUSTER_FOLIE
1002
{
1000
ZENTRA_MIT_DREHANTRIEB_67_AUSTER
1002
}
1001
AUSTER_ANSICHT
1002
{
1000
R
1002
}
  0
LINE
  5
2317D
330
1F
100
AcDbEntity
  8
10000_FRONT
  6
Continuous
 62
     7
370
    13
100
AcDbLine
 10
-40.07632978178275
 20
194.375638841815
 30
0.0
 11
-40.07629178680075
 21
194.5556617486071
 31
0.0
1001
AUSTER_FOLIE
1002
{
1000
ZENTRA_MIT_DREHANTRIEB_67_AUSTER
1002
}
1001
AUSTER_ANSICHT
1002
{
1000
R
1002
}
  0
LINE
  5
2317E
330
1F
100
AcDbEntity
  8
10000_FRONT
  6
Continuous
 62
     7
370
    13
100
AcDbLine
 10
-40.07601091853734
 20
195.9426382407934
 30
0.0
 11
-40.07604737344784
 21
195.7626175324812
 31
0.0
1001
AUSTER_FOLIE
1002
{
1000
ZENTRA_MIT_DREHANTRIEB_67_AUSTER
1002
}
1001
AUSTER_ANSICHT
1002
{
1000
R
1002
}
  0
LINE
  5
2317F
330
1F
100
AcDbEntity
  8
10000_FRONT
  6
Continuous
 62
     7
370
    13
100
AcDbLine
 10
-41.10491468444545
 20
194.3758471343539
 30
0.0
 11
-41.1048797687065
 21
194.5558700417697
 31
0.0
1001
AUSTER_FOLIE
1002
{
1000
ZENTRA_MIT_DREHANTRIEB_67_AUSTER
1002
}
1001
AUSTER_ANSICHT
1002
{
1000
R
1002
}
  0
LINE
  5
23180
330
1F
100
AcDbEntity
  8
10000_FRONT
  6
Continuous
 62
     7
370
    13
100
AcDbLine
 10
-41.10459736038114
 20
195.9428487324457
 30
0.0
 11
-41.10463535535358
 21
195.7628258256434
 31
0.0
1001
AUSTER_FOLIE
1002
{
1000
ZENTRA_MIT_DREHANTRIEB_67_AUSTER
1002
}
1001
AUSTER_ANSICHT
1002
{
1000
R
1002
}
  0
LINE
  5
23181
330
1F
100
AcDbEntity
  8
10000_FRONT
  6
Continuous
 62
     7
370
    13
100
AcDbLine
 10
-40.07632978178275
 20
194.375638841815
 30
0.0
 11
-40.07652891055225
 21
193.3847032873306
 31
0.0
1001
AUSTER_FOLIE
1002
{
1000
ZENTRA_MIT_DREHANTRIEB_67_AUSTER
1002
}
1001
AUSTER_ANSICHT
1002
{
1000
R
1002
}
  0
LINE
  5
23182
330
1F
100
AcDbEntity
  8
10000_FRONT
  6
Continuous
 62
     7
370
    13
100
AcDbLine
 10
-41.10511689245845
 20
193.3849115804934
 30
0.0
 11
-41.104916223617
 21
194.3758493334673
 31
0.0
1001
AUSTER_FOLIE
1002
{
1000
ZENTRA_MIT_DREHANTRIEB_67_AUSTER
1002
}
1001
AUSTER_ANSICHT
1002
{
1000
R
1002
}
  0
LINE
  5
23183
330
1F
100
AcDbEntity
  8
10000_FRONT
  6
Continuous
 62
     7
370
    13
100
AcDbLine
 10
-41.10459890044307
 20
195.9428465339562
 30
0.0
 11
-41.10439823160161
 21
196.9337842869298
 31
0.0
1001
AUSTER_FOLIE
1002
{
1000
ZENTRA_MIT_DREHANTRIEB_67_AUSTER
1002
}
1001
AUSTER_ANSICHT
1002
{
1000
R
1002
}
  0
LINE
  5
23184
330
1F
100
AcDbEntity
  8
10000_FRONT
  6
Continuous
 62
     7
370
    13
100
AcDbLine
 10
-40.0758102496959
 20
196.9335759937673
 30
0.0
 11
-40.07601091853734
 21
195.9426382407934
 31
0.0
1001
AUSTER_FOLIE
1002
{
1000
ZENTRA_MIT_DREHANTRIEB_67_AUSTER
1002
}
1001
AUSTER_ANSICHT
1002
{
1000
R
1002
}
  0
LINE
  5
23185
330
1F
100
AcDbEntity
  8
10000_FRONT
  6
Continuous
 62
     7
370
    13
100
AcDbLine
 10
-40.07604737344784
 20
195.7626175324812
 30
0.0
 11
-37.80846213625386
 21
195.7621583374399
 31
0.0
1001
AUSTER_FOLIE
1002
{
1000
ZENTRA_MIT_DREHANTRIEB_67_AUSTER
1002
}
1001
AUSTER_ANSICHT
1002
{
1000
R
1002
}
  0
LINE
  5
23186
330
1F
100
AcDbEntity
  8
10000_FRONT
  6
Continuous
 62
     7
370
    13
100
AcDbLine
 10
-43.37222059254759
 20
195.763285020685
 30
0.0
 11
-41.10463535535358
 21
195.7628258256434
 31
0.0
1001
AUSTER_FOLIE
1002
{
1000
ZENTRA_MIT_DREHANTRIEB_67_AUSTER
1002
}
1001
AUSTER_ANSICHT
1002
{
1000
R
1002
}
  0
LINE
  5
23187
330
1F
100
AcDbEntity
  8
10000_FRONT
  6
Continuous
 62
     7
370
    13
100
AcDbLine
 10
-41.1048797687065
 20
194.5558700417697
 30
0.0
 11
-43.37246500590003
 21
194.5563292368106
 31
0.0
1001
AUSTER_FOLIE
1002
{
1000
ZENTRA_MIT_DREHANTRIEB_67_AUSTER
1002
}
1001
AUSTER_ANSICHT
1002
{
1000
R
1002
}
  0
LINE
  5
23188
330
1F
100
AcDbEntity
  8
10000_FRONT
  6
Continuous
 62
     7
370
    13
100
AcDbLine
 10
-37.80870654960676
 20
194.5552025535659
 30
0.0
 11
-40.07629178680075
 21
194.5556617486071
 31
0.0
1001
AUSTER_FOLIE
1002
{
1000
ZENTRA_MIT_DREHANTRIEB_67_AUSTER
1002
}
1001
AUSTER_ANSICHT
1002
{
1000
R
1002
}
  0
ARC
  5
23189
330
1F
100
AcDbEntity
  8
10000_FRONT
  6
Continuous
 62
     7
370
    13
100
AcDbCircle
 10
-47.78032936264639
 20
195.2041782872237
 30
0.0
 40
2.846583555481651
100
AcDbArc
 50
167.7487691038114
 51
192.2280256494199
1001
AUSTER_FOLIE
1002
{
1000
ZENTRA_MIT_DREHANTRIEB_67_AUSTER
1002
}
1001
AUSTER_ANSICHT
1002
{
1000
R
1002
}
  0
ARC
  5
2318A
330
1F
100
AcDbEntity
  8
10000_FRONT
  6
Continuous
 62
     7
370
    13
100
AcDbCircle
 10
-47.78032936264639
 20
195.2041782872237
 30
0.0
 40
1.847463888876104
100
AcDbArc
 50
253.8249522957542
 51
286.151842457459
1001
AUSTER_FOLIE
1002
{
1000
ZENTRA_MIT_DREHANTRIEB_67_AUSTER
1002
}
1001
AUSTER_ANSICHT
1002
{
1000
R
1002
}
  0
ARC
  5
2318B
330
1F
100
AcDbEntity
  8
10000_FRONT
  6
Continuous
 62
     7
370
    13
100
AcDbCircle
 10
-47.78032936264639
 20
195.2041782872237
 30
0.0
 40
1.847463888876104
100
AcDbArc
 50
73.82495229579527
 51
106.1518424575129
1001
AUSTER_FOLIE
1002
{
1000
ZENTRA_MIT_DREHANTRIEB_67_AUSTER
1002
}
1001
AUSTER_ANSICHT
1002
{
1000
R
1002
}
  0
ARC
  5
2318C
330
1F
100
AcDbEntity
  8
10000_FRONT
  6
Continuous
 62
     7
370
    13
100
AcDbCircle
 10
-47.78032936264639
 20
195.2041782872237
 30
0.0
 40
2.846583555481651
100
AcDbArc
 50
347.7487691038239
 51
12.22802564944571
1001
AUSTER_FOLIE
1002
{
1000
ZENTRA_MIT_DREHANTRIEB_67_AUSTER
1002
}
1001
AUSTER_ANSICHT
1002
{
1000
R
1002
}
  0
CIRCLE
  5
2318D
330
1F
100
AcDbEntity
  8
10000_FRONT
  6
Continuous
 62
     7
370
    13
100
AcDbCircle
 10
-47.78032936264639
 20
195.2041782872237
 30
0.0
 40
3.095750300278881
1001
AUSTER_FOLIE
1002
{
1000
ZENTRA_MIT_DREHANTRIEB_67_AUSTER
1002
}
1001
AUSTER_ANSICHT
1002
{
1000
R
1002
}
  0
LINE
  5
2318E
330
1F
100
AcDbEntity
  8
10000_FRONT
  6
Continuous
 62
     7
370
    13
100
AcDbLine
 10
-47.26619557335174
 20
194.4205733419134
 30
0.0
 11
-47.26615757836975
 21
194.6005962487053
 31
0.0
1001
AUSTER_FOLIE
1002
{
1000
ZENTRA_MIT_DREHANTRIEB_67_AUSTER
1002
}
1001
AUSTER_ANSICHT
1002
{
1000
R
1002
}
  0
LINE
  5
2318F
330
1F
100
AcDbEntity
  8
10000_FRONT
  6
Continuous
 62
     7
370
    13
100
AcDbLine
 10
-47.26587671010633
 20
195.9875727408918
 30
0.0
 11
-47.26591316501685
 21
195.8075520325794
 31
0.0
1001
AUSTER_FOLIE
1002
{
1000
ZENTRA_MIT_DREHANTRIEB_67_AUSTER
1002
}
1001
AUSTER_ANSICHT
1002
{
1000
R
1002
}
  0
LINE
  5
23190
330
1F
100
AcDbEntity
  8
10000_FRONT
  6
Continuous
 62
     7
370
    13
100
AcDbLine
 10
-48.2947804760149
 20
194.4207816344523
 30
0.0
 11
-48.29474556027594
 21
194.6008045418681
 31
0.0
1001
AUSTER_FOLIE
1002
{
1000
ZENTRA_MIT_DREHANTRIEB_67_AUSTER
1002
}
1001
AUSTER_ANSICHT
1002
{
1000
R
1002
}
  0
LINE
  5
23191
330
1F
100
AcDbEntity
  8
10000_FRONT
  6
Continuous
 62
     7
370
    13
100
AcDbLine
 10
-48.2944631519506
 20
195.9877832325439
 30
0.0
 11
-48.29450114692257
 21
195.8077603257419
 31
0.0
1001
AUSTER_FOLIE
1002
{
1000
ZENTRA_MIT_DREHANTRIEB_67_AUSTER
1002
}
1001
AUSTER_ANSICHT
1002
{
1000
R
1002
}
  0
LINE
  5
23192
330
1F
100
AcDbEntity
  8
10000_FRONT
  6
Continuous
 62
     7
370
    13
100
AcDbLine
 10
-47.26619557335174
 20
194.4205733419134
 30
0.0
 11
-47.26639470212171
 21
193.4296377874288
 31
0.0
1001
AUSTER_FOLIE
1002
{
1000
ZENTRA_MIT_DREHANTRIEB_67_AUSTER
1002
}
1001
AUSTER_ANSICHT
1002
{
1000
R
1002
}
  0
LINE
  5
23193
330
1F
100
AcDbEntity
  8
10000_FRONT
  6
Continuous
 62
     7
370
    13
100
AcDbLine
 10
-48.29498268402743
 20
193.4298460805915
 30
0.0
 11
-48.29478201518599
 21
194.4207838335657
 31
0.0
1001
AUSTER_FOLIE
1002
{
1000
ZENTRA_MIT_DREHANTRIEB_67_AUSTER
1002
}
1001
AUSTER_ANSICHT
1002
{
1000
R
1002
}
  0
LINE
  5
23194
330
1F
100
AcDbEntity
  8
10000_FRONT
  6
Continuous
 62
     7
370
    13
100
AcDbLine
 10
-48.29446469201251
 20
195.9877810340546
 30
0.0
 11
-48.29426402317107
 21
196.9787187870283
 31
0.0
1001
AUSTER_FOLIE
1002
{
1000
ZENTRA_MIT_DREHANTRIEB_67_AUSTER
1002
}
1001
AUSTER_ANSICHT
1002
{
1000
R
1002
}
  0
LINE
  5
23195
330
1F
100
AcDbEntity
  8
10000_FRONT
  6
Continuous
 62
     7
370
    13
100
AcDbLine
 10
-47.26567604126534
 20
196.9785104938654
 30
0.0
 11
-47.26587671010633
 21
195.9875727408918
 31
0.0
1001
AUSTER_FOLIE
1002
{
1000
ZENTRA_MIT_DREHANTRIEB_67_AUSTER
1002
}
1001
AUSTER_ANSICHT
1002
{
1000
R
1002
}
  0
LINE
  5
23196
330
1F
100
AcDbEntity
  8
10000_FRONT
  6
Continuous
 62
     7
370
    13
100
AcDbLine
 10
-47.26591316501685
 20
195.8075520325794
 30
0.0
 11
-44.99832792782284
 21
195.8070928375381
 31
0.0
1001
AUSTER_FOLIE
1002
{
1000
ZENTRA_MIT_DREHANTRIEB_67_AUSTER
1002
}
1001
AUSTER_ANSICHT
1002
{
1000
R
1002
}
  0
LINE
  5
23197
330
1F
100
AcDbEntity
  8
10000_FRONT
  6
Continuous
 62
     7
370
    13
100
AcDbLine
 10
-50.56208638411657
 20
195.8082195207832
 30
0.0
 11
-48.29450114692257
 21
195.8077603257419
 31
0.0
1001
AUSTER_FOLIE
1002
{
1000
ZENTRA_MIT_DREHANTRIEB_67_AUSTER
1002
}
1001
AUSTER_ANSICHT
1002
{
1000
R
1002
}
  0
LINE
  5
23198
330
1F
100
AcDbEntity
  8
10000_FRONT
  6
Continuous
 62
     7
370
    13
100
AcDbLine
 10
-48.29474556027594
 20
194.6008045418681
 30
0.0
 11
-50.56233079746947
 21
194.6012637369089
 31
0.0
1001
AUSTER_FOLIE
1002
{
1000
ZENTRA_MIT_DREHANTRIEB_67_AUSTER
1002
}
1001
AUSTER_ANSICHT
1002
{
1000
R
1002
}
  0
LINE
  5
23199
330
1F
100
AcDbEntity
  8
10000_FRONT
  6
Continuous
 62
     7
370
    13
100
AcDbLine
 10
-44.9985723411762
 20
194.6001370536643
 30
0.0
 11
-47.26615757836975
 21
194.6005962487053
 31
0.0
1001
AUSTER_FOLIE
1002
{
1000
ZENTRA_MIT_DREHANTRIEB_67_AUSTER
1002
}
1001
AUSTER_ANSICHT
1002
{
1000
R
1002
}
  0
ARC
  5
2319A
330
1F
100
AcDbEntity
  8
10000_FRONT
  6
Continuous
 62
     7
370
    13
100
AcDbCircle
 10
-55.00035917569197
 20
195.1403142888083
 30
0.0
 40
2.846583555481651
100
AcDbArc
 50
167.7487691038114
 51
192.2280256494199
1001
AUSTER_FOLIE
1002
{
1000
ZENTRA_MIT_DREHANTRIEB_67_AUSTER
1002
}
1001
AUSTER_ANSICHT
1002
{
1000
R
1002
}
  0
ARC
  5
2319B
330
1F
100
AcDbEntity
  8
10000_FRONT
  6
Continuous
 62
     7
370
    13
100
AcDbCircle
 10
-55.00035917569197
 20
195.1403142888083
 30
0.0
 40
1.847463888876104
100
AcDbArc
 50
253.8249522957542
 51
286.151842457459
1001
AUSTER_FOLIE
1002
{
1000
ZENTRA_MIT_DREHANTRIEB_67_AUSTER
1002
}
1001
AUSTER_ANSICHT
1002
{
1000
R
1002
}
  0
ARC
  5
2319C
330
1F
100
AcDbEntity
  8
10000_FRONT
  6
Continuous
 62
     7
370
    13
100
AcDbCircle
 10
-55.00035917569197
 20
195.1403142888083
 30
0.0
 40
1.847463888876104
100
AcDbArc
 50
73.82495229579527
 51
106.1518424575129
1001
AUSTER_FOLIE
1002
{
1000
ZENTRA_MIT_DREHANTRIEB_67_AUSTER
1002
}
1001
AUSTER_ANSICHT
1002
{
1000
R
1002
}
  0
ARC
  5
2319D
330
1F
100
AcDbEntity
  8
10000_FRONT
  6
Continuous
 62
     7
370
    13
100
AcDbCircle
 10
-55.00035917569197
 20
195.1403142888083
 30
0.0
 40
2.846583555481651
100
AcDbArc
 50
347.7487691038239
 51
12.22802564944571
1001
AUSTER_FOLIE
1002
{
1000
ZENTRA_MIT_DREHANTRIEB_67_AUSTER
1002
}
1001
AUSTER_ANSICHT
1002
{
1000
R
1002
}
  0
CIRCLE
  5
2319E
330
1F
100
AcDbEntity
  8
10000_FRONT
  6
Continuous
 62
     7
370
    13
100
AcDbCircle
 10
-55.00035917569197
 20
195.1403142888083
 30
0.0
 40
3.095750300278881
1001
AUSTER_FOLIE
1002
{
1000
ZENTRA_MIT_DREHANTRIEB_67_AUSTER
1002
}
1001
AUSTER_ANSICHT
1002
{
1000
R
1002
}
  0
LINE
  5
2319F
330
1F
100
AcDbEntity
  8
10000_FRONT
  6
Continuous
 62
     7
370
    13
100
AcDbLine
 10
-54.48622538639732
 20
194.356709343498
 30
0.0
 11
-54.48618739141533
 21
194.5367322502899
 31
0.0
1001
AUSTER_FOLIE
1002
{
1000
ZENTRA_MIT_DREHANTRIEB_67_AUSTER
1002
}
1001
AUSTER_ANSICHT
1002
{
1000
R
1002
}
  0
LINE
  5
231A0
330
1F
100
AcDbEntity
  8
10000_FRONT
  6
Continuous
 62
     7
370
    13
100
AcDbLine
 10
-54.48590652315193
 20
195.9237087424764
 30
0.0
 11
-54.48594297806243
 21
195.7436880341639
 31
0.0
1001
AUSTER_FOLIE
1002
{
1000
ZENTRA_MIT_DREHANTRIEB_67_AUSTER
1002
}
1001
AUSTER_ANSICHT
1002
{
1000
R
1002
}
  0
LINE
  5
231A1
330
1F
100
AcDbEntity
  8
10000_FRONT
  6
Continuous
 62
     7
370
    13
100
AcDbLine
 10
-55.51481028906048
 20
194.3569176360369
 30
0.0
 11
-55.51477537332153
 21
194.5369405434527
 31
0.0
1001
AUSTER_FOLIE
1002
{
1000
ZENTRA_MIT_DREHANTRIEB_67_AUSTER
1002
}
1001
AUSTER_ANSICHT
1002
{
1000
R
1002
}
  0
LINE
  5
231A2
330
1F
100
AcDbEntity
  8
10000_FRONT
  6
Continuous
 62
     7
370
    13
100
AcDbLine
 10
-55.51449296499572
 20
195.9239192341287
 30
0.0
 11
-55.51453095996816
 21
195.7438963273265
 31
0.0
1001
AUSTER_FOLIE
1002
{
1000
ZENTRA_MIT_DREHANTRIEB_67_AUSTER
1002
}
1001
AUSTER_ANSICHT
1002
{
1000
R
1002
}
  0
LINE
  5
231A3
330
1F
100
AcDbEntity
  8
10000_FRONT
  6
Continuous
 62
     7
370
    13
100
AcDbLine
 10
-54.48622538639732
 20
194.356709343498
 30
0.0
 11
-54.48642451516729
 21
193.3657737890134
 31
0.0
1001
AUSTER_FOLIE
1002
{
1000
ZENTRA_MIT_DREHANTRIEB_67_AUSTER
1002
}
1001
AUSTER_ANSICHT
1002
{
1000
R
1002
}
  0
LINE
  5
231A4
330
1F
100
AcDbEntity
  8
10000_FRONT
  6
Continuous
 62
     7
370
    13
100
AcDbLine
 10
-55.51501249707302
 20
193.3659820821761
 30
0.0
 11
-55.51481182823158
 21
194.3569198351503
 31
0.0
1001
AUSTER_FOLIE
1002
{
1000
ZENTRA_MIT_DREHANTRIEB_67_AUSTER
1002
}
1001
AUSTER_ANSICHT
1002
{
1000
R
1002
}
  0
LINE
  5
231A5
330
1F
100
AcDbEntity
  8
10000_FRONT
  6
Continuous
 62
     7
370
    13
100
AcDbLine
 10
-55.51449450505764
 20
195.9239170356392
 30
0.0
 11
-55.51429383621666
 21
196.9148547886129
 31
0.0
1001
AUSTER_FOLIE
1002
{
1000
ZENTRA_MIT_DREHANTRIEB_67_AUSTER
1002
}
1001
AUSTER_ANSICHT
1002
{
1000
R
1002
}
  0
LINE
  5
231A6
330
1F
100
AcDbEntity
  8
10000_FRONT
  6
Continuous
 62
     7
370
    13
100
AcDbLine
 10
-54.48570585431046
 20
196.91464649545
 30
0.0
 11
-54.48590652315193
 21
195.9237087424764
 31
0.0
1001
AUSTER_FOLIE
1002
{
1000
ZENTRA_MIT_DREHANTRIEB_67_AUSTER
1002
}
1001
AUSTER_ANSICHT
1002
{
1000
R
1002
}
  0
LINE
  5
231A7
330
1F
100
AcDbEntity
  8
10000_FRONT
  6
Continuous
 62
     7
370
    13
100
AcDbLine
 10
-54.48594297806243
 20
195.7436880341639
 30
0.0
 11
-52.21835774086843
 21
195.7432288391229
 31
0.0
1001
AUSTER_FOLIE
1002
{
1000
ZENTRA_MIT_DREHANTRIEB_67_AUSTER
1002
}
1001
AUSTER_ANSICHT
1002
{
1000
R
1002
}
  0
LINE
  5
231A8
330
1F
100
AcDbEntity
  8
10000_FRONT
  6
Continuous
 62
     7
370
    13
100
AcDbLine
 10
-57.78211619716216
 20
195.7443555223678
 30
0.0
 11
-55.51453095996816
 21
195.7438963273265
 31
0.0
1001
AUSTER_FOLIE
1002
{
1000
ZENTRA_MIT_DREHANTRIEB_67_AUSTER
1002
}
1001
AUSTER_ANSICHT
1002
{
1000
R
1002
}
  0
LINE
  5
231A9
330
1F
100
AcDbEntity
  8
10000_FRONT
  6
Continuous
 62
     7
370
    13
100
AcDbLine
 10
-55.51477537332153
 20
194.5369405434527
 30
0.0
 11
-57.78236061051506
 21
194.5373997384935
 31
0.0
1001
AUSTER_FOLIE
1002
{
1000
ZENTRA_MIT_DREHANTRIEB_67_AUSTER
1002
}
1001
AUSTER_ANSICHT
1002
{
1000
R
1002
}
  0
LINE
  5
231AA
330
1F
100
AcDbEntity
  8
10000_FRONT
  6
Continuous
 62
     7
370
    13
100
AcDbLine
 10
-52.21860215422179
 20
194.5362730552489
 30
0.0
 11
-54.48618739141533
 21
194.5367322502899
 31
0.0
1001
AUSTER_FOLIE
1002
{
1000
ZENTRA_MIT_DREHANTRIEB_67_AUSTER
1002
}
1001
AUSTER_ANSICHT
1002
{
1000
R
1002
}
  0
ARC
  5
231AB
330
1F
100
AcDbEntity
  8
10000_FRONT
  6
Continuous
 62
     7
370
    13
100
AcDbCircle
 10
-62.1842865022679
 20
195.1593303125461
 30
0.0
 40
2.846583555481651
100
AcDbArc
 50
167.7487691038114
 51
192.2280256494199
1001
AUSTER_FOLIE
1002
{
1000
ZENTRA_MIT_DREHANTRIEB_67_AUSTER
1002
}
1001
AUSTER_ANSICHT
1002
{
1000
R
1002
}
  0
ARC
  5
231AC
330
1F
100
AcDbEntity
  8
10000_FRONT
  6
Continuous
 62
     7
370
    13
100
AcDbCircle
 10
-62.1842865022679
 20
195.1593303125461
 30
0.0
 40
1.847463888876104
100
AcDbArc
 50
253.8249522957542
 51
286.151842457459
1001
AUSTER_FOLIE
1002
{
1000
ZENTRA_MIT_DREHANTRIEB_67_AUSTER
1002
}
1001
AUSTER_ANSICHT
1002
{
1000
R
1002
}
  0
ARC
  5
231AD
330
1F
100
AcDbEntity
  8
10000_FRONT
  6
Continuous
 62
     7
370
    13
100
AcDbCircle
 10
-62.1842865022679
 20
195.1593303125461
 30
0.0
 40
1.847463888876104
100
AcDbArc
 50
73.82495229579527
 51
106.1518424575129
1001
AUSTER_FOLIE
1002
{
1000
ZENTRA_MIT_DREHANTRIEB_67_AUSTER
1002
}
1001
AUSTER_ANSICHT
1002
{
1000
R
1002
}
  0
ARC
  5
231AE
330
1F
100
AcDbEntity
  8
10000_FRONT
  6
Continuous
 62
     7
370
    13
100
AcDbCircle
 10
-62.1842865022679
 20
195.1593303125461
 30
0.0
 40
2.846583555481651
100
AcDbArc
 50
347.7487691038239
 51
12.22802564944571
1001
AUSTER_FOLIE
1002
{
1000
ZENTRA_MIT_DREHANTRIEB_67_AUSTER
1002
}
1001
AUSTER_ANSICHT
1002
{
1000
R
1002
}
  0
CIRCLE
  5
231AF
330
1F
100
AcDbEntity
  8
10000_FRONT
  6
Continuous
 62
     7
370
    13
100
AcDbCircle
 10
-62.1842865022679
 20
195.1593303125461
 30
0.0
 40
3.095750300278881
1001
AUSTER_FOLIE
1002
{
1000
ZENTRA_MIT_DREHANTRIEB_67_AUSTER
1002
}
1001
AUSTER_ANSICHT
1002
{
1000
R
1002
}
  0
LINE
  5
231B0
330
1F
100
AcDbEntity
  8
10000_FRONT
  6
Continuous
 62
     7
370
    13
100
AcDbLine
 10
-61.67015271297326
 20
194.3757253672355
 30
0.0
 11
-61.67011471799172
 21
194.5557482740279
 31
0.0
1001
AUSTER_FOLIE
1002
{
1000
ZENTRA_MIT_DREHANTRIEB_67_AUSTER
1002
}
1001
AUSTER_ANSICHT
1002
{
1000
R
1002
}
  0
LINE
  5
231B1
330
1F
100
AcDbEntity
  8
10000_FRONT
  6
Continuous
 62
     7
370
    13
100
AcDbLine
 10
-61.66983384972832
 20
195.9427247662142
 30
0.0
 11
-61.66987030463836
 21
195.7627040579019
 31
0.0
1001
AUSTER_FOLIE
1002
{
1000
ZENTRA_MIT_DREHANTRIEB_67_AUSTER
1002
}
1001
AUSTER_ANSICHT
1002
{
1000
R
1002
}
  0
LINE
  5
231B2
330
1F
100
AcDbEntity
  8
10000_FRONT
  6
Continuous
 62
     7
370
    13
100
AcDbLine
 10
-62.69873761563643
 20
194.3759336597747
 30
0.0
 11
-62.69870269989746
 21
194.5559565671905
 31
0.0
1001
AUSTER_FOLIE
1002
{
1000
ZENTRA_MIT_DREHANTRIEB_67_AUSTER
1002
}
1001
AUSTER_ANSICHT
1002
{
1000
R
1002
}
  0
LINE
  5
231B3
330
1F
100
AcDbEntity
  8
10000_FRONT
  6
Continuous
 62
     7
370
    13
100
AcDbLine
 10
-62.69842029157256
 20
195.9429352578665
 30
0.0
 11
-62.69845828654501
 21
195.7629123510643
 31
0.0
1001
AUSTER_FOLIE
1002
{
1000
ZENTRA_MIT_DREHANTRIEB_67_AUSTER
1002
}
1001
AUSTER_ANSICHT
1002
{
1000
R
1002
}
  0
LINE
  5
231B4
330
1F
100
AcDbEntity
  8
10000_FRONT
  6
Continuous
 62
     7
370
    13
100
AcDbLine
 10
-61.67015271297326
 20
194.3757253672355
 30
0.0
 11
-61.67035184174324
 21
193.3847898127514
 31
0.0
1001
AUSTER_FOLIE
1002
{
1000
ZENTRA_MIT_DREHANTRIEB_67_AUSTER
1002
}
1001
AUSTER_ANSICHT
1002
{
1000
R
1002
}
  0
LINE
  5
231B5
330
1F
100
AcDbEntity
  8
10000_FRONT
  6
Continuous
 62
     7
370
    13
100
AcDbLine
 10
-62.69893982364941
 20
193.3849981059142
 30
0.0
 11
-62.69873915480797
 21
194.3759358588881
 31
0.0
1001
AUSTER_FOLIE
1002
{
1000
ZENTRA_MIT_DREHANTRIEB_67_AUSTER
1002
}
1001
AUSTER_ANSICHT
1002
{
1000
R
1002
}
  0
LINE
  5
231B6
330
1F
100
AcDbEntity
  8
10000_FRONT
  6
Continuous
 62
     7
370
    13
100
AcDbLine
 10
-62.69842183163451
 20
195.942933059377
 30
0.0
 11
-62.6982211627926
 21
196.9338708123508
 31
0.0
1001
AUSTER_FOLIE
1002
{
1000
ZENTRA_MIT_DREHANTRIEB_67_AUSTER
1002
}
1001
AUSTER_ANSICHT
1002
{
1000
R
1002
}
  0
LINE
  5
231B7
330
1F
100
AcDbEntity
  8
10000_FRONT
  6
Continuous
 62
     7
370
    13
100
AcDbLine
 10
-61.66963318088686
 20
196.933662519188
 30
0.0
 11
-61.66983384972832
 21
195.9427247662142
 31
0.0
1001
AUSTER_FOLIE
1002
{
1000
ZENTRA_MIT_DREHANTRIEB_67_AUSTER
1002
}
1001
AUSTER_ANSICHT
1002
{
1000
R
1002
}
  0
LINE
  5
231B8
330
1F
100
AcDbEntity
  8
10000_FRONT
  6
Continuous
 62
     7
370
    13
100
AcDbLine
 10
-61.66987030463836
 20
195.7627040579019
 30
0.0
 11
-59.40228506744483
 21
195.7622448628607
 31
0.0
1001
AUSTER_FOLIE
1002
{
1000
ZENTRA_MIT_DREHANTRIEB_67_AUSTER
1002
}
1001
AUSTER_ANSICHT
1002
{
1000
R
1002
}
  0
LINE
  5
231B9
330
1F
100
AcDbEntity
  8
10000_FRONT
  6
Continuous
 62
     7
370
    13
100
AcDbLine
 10
-64.96604352373811
 20
195.7633715461055
 30
0.0
 11
-62.69845828654501
 21
195.7629123510643
 31
0.0
1001
AUSTER_FOLIE
1002
{
1000
ZENTRA_MIT_DREHANTRIEB_67_AUSTER
1002
}
1001
AUSTER_ANSICHT
1002
{
1000
R
1002
}
  0
LINE
  5
231BA
330
1F
100
AcDbEntity
  8
10000_FRONT
  6
Continuous
 62
     7
370
    13
100
AcDbLine
 10
-62.69870269989746
 20
194.5559565671905
 30
0.0
 11
-64.96628793709146
 21
194.5564157622315
 31
0.0
1001
AUSTER_FOLIE
1002
{
1000
ZENTRA_MIT_DREHANTRIEB_67_AUSTER
1002
}
1001
AUSTER_ANSICHT
1002
{
1000
R
1002
}
  0
LINE
  5
231BB
330
1F
100
AcDbEntity
  8
10000_FRONT
  6
Continuous
 62
     7
370
    13
100
AcDbLine
 10
-59.40252948079773
 20
194.5552890789867
 30
0.0
 11
-61.67011471799172
 21
194.5557482740279
 31
0.0
1001
AUSTER_FOLIE
1002
{
1000
ZENTRA_MIT_DREHANTRIEB_67_AUSTER
1002
}
1001
AUSTER_ANSICHT
1002
{
1000
R
1002
}
  0
LINE
  5
231BC
330
1F
100
AcDbEntity
  8
10000_FRONT
  6
Continuous
 62
     7
370
    13
100
AcDbLine
 10
-43.68756780706074
 20
201.9591195644252
 30
0.0
 11
-43.68756780706074
 21
200.8559646279868
 31
0.0
  0
LINE
  5
231BD
330
1F
100
AcDbEntity
  8
10000_FRONT
  6
Continuous
 62
     7
370
    13
100
AcDbLine
 10
-51.68107780706099
 20
201.9497820068879
 30
0.0
 11
-51.68107780706099
 21
200.8559646279868
 31
0.0
  0
LINE
  5
231BE
330
1F
100
AcDbEntity
  8
10000_FRONT
  6
Continuous
 62
     7
370
    13
100
AcDbLine
 10
-57.78432780706111
 20
200.8559646279868
 30
0.0
 11
-50.58432780706084
 21
200.8559646279868
 31
0.0
  0
LINE
  5
231BF
330
1F
100
AcDbEntity
  8
10000_FRONT
  6
Continuous
 62
     7
370
    13
100
AcDbLine
 10
-54.92670780706043
 20
200.8559646279868
 30
0.0
 11
-54.92670780706043
 21
200.8559646279868
 31
0.0
  0
LINE
  5
231C0
330
1F
100
AcDbEntity
  8
10000_FRONT
  6
Continuous
 62
     7
370
    13
100
AcDbLine
 10
-40.44810780706096
 20
200.8559646279868
 30
0.0
 11
-40.44810780706096
 21
200.8559646279868
 31
0.0
  0
LINE
  5
231C1
330
1F
100
AcDbEntity
  8
10000_FRONT
  6
Continuous
 62
     7
370
    13
100
AcDbLine
 10
-44.78432780706064
 20
200.8559646279868
 30
0.0
 11
-37.58432780706085
 21
200.8559646279868
 31
0.0
  0
LINE
  5
231C2
330
1F
100
AcDbEntity
  8
10000_FRONT
  6
Continuous
 62
     7
370
    13
100
AcDbLine
 10
-37.58432780706085
 20
200.8559646279868
 30
0.0
 11
-37.58432780706085
 21
199.0559646279866
 31
0.0
  0
LINE
  5
231C3
330
1F
100
AcDbEntity
  8
10000_FRONT
  6
Continuous
 62
     7
370
    13
100
AcDbLine
 10
-23.18432780706075
 20
199.0559646279866
 30
0.0
 11
-64.98432780706092
 21
199.0559646279866
 31
0.0
  0
LINE
  5
231C4
330
1F
100
AcDbEntity
  8
10000_FRONT
  6
Continuous
 62
     7
370
    13
100
AcDbLine
 10
-45.68432780706074
 20
200.8559646279868
 30
0.0
 11
-45.69050780706104
 21
200.8559646279868
 31
0.0
  0
LINE
  5
231C5
330
1F
100
AcDbEntity
  8
10000_FRONT
  6
Continuous
 62
     7
370
    13
100
AcDbLine
 10
-44.78432780706111
 20
200.8559646279868
 30
0.0
 11
-45.68432780706074
 21
200.8559646279868
 31
0.0
  0
LINE
  5
231C6
330
1F
100
AcDbEntity
  8
10000_FRONT
  6
Continuous
 62
     7
370
    13
100
AcDbLine
 10
-49.68432780706073
 20
200.8559646279868
 30
0.0
 11
-50.58432780706084
 21
200.8559646279868
 31
0.0
  0
LINE
  5
231C7
330
1F
100
AcDbEntity
  8
10000_FRONT
  6
Continuous
 62
     7
370
    13
100
AcDbLine
 10
-50.58432780706084
 20
199.0559646279866
 30
0.0
 11
-50.58432780706084
 21
200.8559646279868
 31
0.0
  0
LINE
  5
231C8
330
1F
100
AcDbEntity
  8
10000_FRONT
  6
Continuous
 62
     7
370
    13
100
AcDbLine
 10
-44.78432780706064
 20
200.8559646279868
 30
0.0
 11
-44.78432780706111
 21
199.0559646279866
 31
0.0
  0
LINE
  5
231C9
330
1F
100
AcDbEntity
  8
10000_FRONT
  6
Continuous
 62
     7
370
    13
100
AcDbLine
 10
-23.18432780706075
 20
200.8559646279868
 30
0.0
 11
-23.18432780706075
 21
199.0559646279866
 31
0.0
  0
LINE
  5
231CA
330
1F
100
AcDbEntity
  8
10000_FRONT
  6
Continuous
 62
     7
370
    13
100
AcDbLine
 10
-25.08432780706084
 20
200.8559646279868
 30
0.0
 11
-23.18432780706075
 21
200.8559646279868
 31
0.0
  0
LINE
  5
231CB
330
1F
100
AcDbEntity
  8
10000_FRONT
  6
Continuous
 62
     7
370
    13
100
AcDbLine
 10
-28.98432780706093
 20
200.8559646279868
 30
0.0
 11
-25.08432780706084
 21
200.8559646279868
 31
0.0
  0
LINE
  5
231CC
330
1F
100
AcDbEntity
  8
10000_FRONT
  6
Continuous
 62
     7
370
    13
100
AcDbLine
 10
-25.08432780706084
 20
201.9497820068877
 30
0.0
 11
-25.08432780706084
 21
200.8559646279868
 31
0.0
  0
LINE
  5
231CD
330
1F
100
AcDbEntity
  8
10000_FRONT
  6
Continuous
 62
     7
370
    13
100
AcDbLine
 10
-28.98432780706093
 20
199.0559646279866
 30
0.0
 11
-28.98432780706093
 21
200.8559646279868
 31
0.0
  0
LINE
  5
231CE
330
1F
100
AcDbEntity
  8
10000_FRONT
  6
Continuous
 62
     7
370
    13
100
AcDbLine
 10
-30.38432780706102
 20
200.8559646279868
 30
0.0
 11
-30.38432780706102
 21
199.0559646279866
 31
0.0
  0
LINE
  5
231CF
330
1F
100
AcDbEntity
  8
10000_FRONT
  6
Continuous
 62
     7
370
    13
100
AcDbLine
 10
-36.18432780706076
 20
200.8559646279868
 30
0.0
 11
-30.38432780706102
 21
200.8559646279868
 31
0.0
  0
LINE
  5
231D0
330
1F
100
AcDbEntity
  8
10000_FRONT
  6
Continuous
 62
     7
370
    13
100
AcDbLine
 10
-36.18432780706076
 20
199.0559646279866
 30
0.0
 11
-36.18432780706076
 21
200.8559646279868
 31
0.0
  0
LINE
  5
231D1
330
1F
100
AcDbEntity
  8
10000_FRONT
  6
Continuous
 62
     7
370
    13
100
AcDbLine
 10
-43.38432780706102
 20
199.0559646279866
 30
0.0
 11
-43.38432780706102
 21
200.8559646279868
 31
0.0
  0
LINE
  5
231D2
330
1F
100
AcDbEntity
  8
10000_FRONT
  6
Continuous
 62
     7
370
    13
100
AcDbLine
 10
-64.98432780706092
 20
199.0559646279866
 30
0.0
 11
-64.98432780706092
 21
200.8559646279868
 31
0.0
  0
LINE
  5
231D3
330
1F
100
AcDbEntity
  8
10000_FRONT
  6
Continuous
 62
     7
370
    13
100
AcDbLine
 10
-64.98432780706092
 20
200.8559646279868
 30
0.0
 11
-63.08432780706084
 21
200.8559646279868
 31
0.0
  0
LINE
  5
231D4
330
1F
100
AcDbEntity
  8
10000_FRONT
  6
Continuous
 62
     7
370
    13
100
AcDbLine
 10
-63.08432780706084
 20
200.8559646279868
 30
0.0
 11
-59.18432780706075
 21
200.8559646279868
 31
0.0
  0
LINE
  5
231D5
330
1F
100
AcDbEntity
  8
10000_FRONT
  6
Continuous
 62
     7
370
    13
100
AcDbLine
 10
-63.08432780706084
 20
200.8559646279868
 30
0.0
 11
-63.08432780706084
 21
201.9497820068879
 31
0.0
  0
LINE
  5
231D6
330
1F
100
AcDbEntity
  8
10000_FRONT
  6
Continuous
 62
     7
370
    13
100
AcDbLine
 10
-59.18432780706075
 20
200.8559646279868
 30
0.0
 11
-59.18432780706075
 21
199.0559646279866
 31
0.0
  0
LINE
  5
231D7
330
1F
100
AcDbEntity
  8
10000_FRONT
  6
Continuous
 62
     7
370
    13
100
AcDbLine
 10
-57.78432780706111
 20
199.0559646279866
 30
0.0
 11
-57.78432780706111
 21
200.8559646279868
 31
0.0
  0
LINE
  5
231D8
330
1F
100
AcDbEntity
  8
10000_FRONT
  6
Continuous
 62
     7
370
    13
100
AcDbLine
 10
-51.98432780706093
 20
200.8559646279868
 30
0.0
 11
-51.98432780706093
 21
199.0559646279866
 31
0.0
  0
LINE
  5
231D9
330
1F
100
AcDbEntity
  8
10000_FRONT
  6
Continuous
 62
     7
370
    13
100
AcDbLine
 10
-45.69049780706087
 20
200.8917646279866
 30
0.0
 11
-49.69049780706086
 21
200.8917646279866
 31
0.0
  0
LINE
  5
231DA
330
1F
100
AcDbEntity
  8
10000_FRONT
  6
Continuous
 62
     7
370
    13
100
AcDbLine
 10
-45.69049780706087
 20
201.9497820068877
 30
0.0
 11
-45.69049780706087
 21
200.8917646279866
 31
0.0
  0
LINE
  5
231DB
330
1F
100
AcDbEntity
  8
10000_FRONT
  6
Continuous
 62
     7
370
    13
100
AcDbLine
 10
-49.69049780706086
 20
200.8917646279866
 30
0.0
 11
-49.69049780706086
 21
201.9497820068879
 31
0.0
  0
LINE
  5
23219
330
1F
100
AcDbEntity
  8
10000_FRONT
  6
Continuous
 62
     7
370
    13
100
AcDbLine
 10
-59.36947996134199
 20
206.7091195644251
 30
0.0
 11
-54.06947996134135
 21
206.7091195644251
 31
0.0
  0
LINE
  5
2321A
330
1F
100
AcDbEntity
  8
10000_FRONT
  6
Continuous
 62
     7
370
    13
100
AcDbLine
 10
-54.06947996134135
 20
206.7091195644251
 30
0.0
 11
-54.06947996134135
 21
204.7091195644254
 31
0.0
  0
LINE
  5
2321B
330
1F
100
AcDbEntity
  8
10000_FRONT
  6
Continuous
 62
     7
370
    13
100
AcDbLine
 10
-54.06947996134135
 20
204.7091195644254
 30
0.0
 11
-59.36947996134199
 21
204.7091195644254
 31
0.0
  0
LINE
  5
2321C
330
1F
100
AcDbEntity
  8
10000_FRONT
  6
Continuous
 62
     7
370
    13
100
AcDbLine
 10
-59.36947996134199
 20
204.7091195644254
 30
0.0
 11
-59.36947996134199
 21
206.7091195644251
 31
0.0
  0
LINE
  5
2321D
330
1F
100
AcDbEntity
  8
10000_FRONT
  6
Continuous
 62
     7
370
    13
100
AcDbLine
 10
-59.86947996134198
 20
207.2091195644251
 30
0.0
 11
-53.56947996134135
 21
207.2091195644251
 31
0.0
  0
LINE
  5
2321E
330
1F
100
AcDbEntity
  8
10000_FRONT
  6
Continuous
 62
     7
370
    13
100
AcDbLine
 10
-53.56947996134135
 20
207.2091195644251
 30
0.0
 11
-53.56947996134135
 21
204.7694695644254
 31
0.0
  0
LINE
  5
2321F
330
1F
100
AcDbEntity
  8
10000_FRONT
  6
Continuous
 62
     7
370
    13
100
AcDbLine
 10
-59.86947996134198
 20
204.7694695644254
 30
0.0
 11
-59.86947996134198
 21
207.2091195644251
 31
0.0
  0
LINE
  5
23220
330
1F
100
AcDbEntity
  8
10000_FRONT
  6
Continuous
 62
     7
370
    13
100
AcDbLine
 10
-53.56947996134135
 20
204.7694695644254
 30
0.0
 11
-53.57083996134154
 21
204.2107595644253
 31
0.0
  0
LINE
  5
23221
330
1F
100
AcDbEntity
  8
10000_FRONT
  6
Continuous
 62
     7
370
    13
100
AcDbLine
 10
-53.57083996134154
 20
204.2107595644253
 30
0.0
 11
-59.86811996134179
 21
204.2107595644253
 31
0.0
  0
LINE
  5
23222
330
1F
100
AcDbEntity
  8
10000_FRONT
  6
Continuous
 62
     7
370
    13
100
AcDbLine
 10
-59.86811996134179
 20
204.2107595644253
 30
0.0
 11
-59.86947996134198
 21
204.7694695644254
 31
0.0
  0
ARC
  5
23223
330
1F
100
AcDbEntity
  8
10000_FRONT
  6
Continuous
 62
     7
370
    13
100
AcDbCircle
 10
-29.0944699613417
 20
215.1091095644253
 30
0.0
 40
0.3
100
AcDbArc
 50
180.0
 51
270.0
  0
ARC
  5
23224
330
1F
100
AcDbEntity
  8
10000_FRONT
  6
Continuous
 62
     7
370
    13
100
AcDbCircle
 10
-30.79446996134197
 20
215.1091095644253
 30
0.0
 40
0.3
100
AcDbArc
 50
270.0
 51
0.0
  0
ARC
  5
23225
330
1F
100
AcDbEntity
  8
10000_FRONT
  6
Continuous
 62
     7
370
    13
100
AcDbCircle
 10
-30.79446996134197
 20
213.4091095644254
 30
0.0
 40
0.3
100
AcDbArc
 50
0.0
 51
90.0
  0
ARC
  5
23226
330
1F
100
AcDbEntity
  8
10000_FRONT
  6
Continuous
 62
     7
370
    13
100
AcDbCircle
 10
-29.0944699613417
 20
213.4091095644254
 30
0.0
 40
0.3
100
AcDbArc
 50
90.0
 51
180.0
  0
LINE
  5
23227
330
1F
100
AcDbEntity
  8
10000_FRONT
  6
Continuous
 62
     7
370
    13
100
AcDbLine
 10
-30.49446996134179
 20
215.1091095644253
 30
0.0
 11
-30.49446996134179
 21
216.2591095644252
 31
0.0
  0
LINE
  5
23228
330
1F
100
AcDbEntity
  8
10000_FRONT
  6
Continuous
 62
     7
370
    13
100
AcDbLine
 10
-32.94446996134161
 20
214.8091095644253
 30
0.0
 11
-30.79446996134197
 21
214.8091095644253
 31
0.0
  0
LINE
  5
23229
330
1F
100
AcDbEntity
  8
10000_FRONT
  6
Continuous
 62
     7
370
    13
100
AcDbLine
 10
-30.79446996134197
 20
213.7091095644252
 30
0.0
 11
-32.94446996134161
 21
213.7091095644252
 31
0.0
  0
LINE
  5
2322A
330
1F
100
AcDbEntity
  8
10000_FRONT
  6
Continuous
 62
     7
370
    13
100
AcDbLine
 10
-30.49446996134179
 20
212.2591095644251
 30
0.0
 11
-30.49446996134179
 21
213.4091095644254
 31
0.0
  0
LINE
  5
2322B
330
1F
100
AcDbEntity
  8
10000_FRONT
  6
Continuous
 62
     7
370
    13
100
AcDbLine
 10
-29.39446996134142
 20
213.4091095644254
 30
0.0
 11
-29.39446996134142
 21
212.2591095644251
 31
0.0
  0
LINE
  5
2322C
330
1F
100
AcDbEntity
  8
10000_FRONT
  6
Continuous
 62
     7
370
    13
100
AcDbLine
 10
-26.94446996134161
 20
213.7091095644252
 30
0.0
 11
-29.0944699613417
 21
213.7091095644252
 31
0.0
  0
LINE
  5
2322D
330
1F
100
AcDbEntity
  8
10000_FRONT
  6
Continuous
 62
     7
370
    13
100
AcDbLine
 10
-29.0944699613417
 20
214.8091095644253
 30
0.0
 11
-26.94446996134161
 21
214.8091095644253
 31
0.0
  0
LINE
  5
2322E
330
1F
100
AcDbEntity
  8
10000_FRONT
  6
Continuous
 62
     7
370
    13
100
AcDbLine
 10
-29.39446996134142
 20
216.2591095644252
 30
0.0
 11
-29.39446996134142
 21
215.1091095644253
 31
0.0
  0
LINE
  5
2322F
330
1F
100
AcDbEntity
  8
10000_FRONT
  6
Continuous
 62
     7
370
    13
100
AcDbLine
 10
-30.49446996134179
 20
216.2591095644252
 30
0.0
 11
-29.39446996134142
 21
216.2591095644252
 31
0.0
  0
LINE
  5
23230
330
1F
100
AcDbEntity
  8
10000_FRONT
  6
Continuous
 62
     7
370
    13
100
AcDbLine
 10
-32.94446996134161
 20
213.7091095644252
 30
0.0
 11
-32.94446996134161
 21
214.8091095644253
 31
0.0
  0
LINE
  5
23231
330
1F
100
AcDbEntity
  8
10000_FRONT
  6
Continuous
 62
     7
370
    13
100
AcDbLine
 10
-29.39446996134142
 20
212.2591095644251
 30
0.0
 11
-30.49446996134179
 21
212.2591095644251
 31
0.0
  0
LINE
  5
23232
330
1F
100
AcDbEntity
  8
10000_FRONT
  6
Continuous
 62
     7
370
    13
100
AcDbLine
 10
-26.94446996134161
 20
214.8091095644253
 30
0.0
 11
-26.94446996134161
 21
213.7091095644252
 31
0.0
  0
CIRCLE
  5
23233
330
1F
100
AcDbEntity
  8
10000_FRONT
  6
Continuous
 62
     7
370
    13
100
AcDbCircle
 10
-29.9444699613416
 20
214.2591095644251
 30
0.0
 40
4.049999999999998
  0
CIRCLE
  5
23234
330
1F
100
AcDbEntity
  8
10000_FRONT
  6
Continuous
 62
     7
370
    13
100
AcDbCircle
 10
-29.94447996134135
 20
214.2591195644254
 30
0.0
 40
4.7
  0
ENDSEC
  0
SECTION
  2
OBJECTS
  0
DICTIONARY
  5
C
330
0
100
AcDbDictionary
281
     1
  3
ACAD_COLOR
350
6B
  3
ACAD_GROUP
350
D
  3
ACAD_LAYOUT
350
1A
  3
ACAD_MATERIAL
350
6A
  3
ACAD_MLINESTYLE
350
17
  3
ACAD_PLOTSETTINGS
350
19
  3
ACAD_PLOTSTYLENAME
350
E
  3
ACDBHEADERROUNDTRIPXREC
350
23265
  3
AcDbVariableDictionary
350
5E
  3
DWGPROPS
350
23264
  0
DICTIONARY
  5
22DF6
330
22DE9
100
AcDbDictionary
280
     1
281
     1
  3
ACAD_DIMASSOC
360
22E00
  0
DICTIONARY
  5
22E0E
330
22E01
100
AcDbDictionary
280
     1
281
     1
  3
ACAD_DIMASSOC
360
22E18
  0
DICTIONARY
  5
22E25
330
22E19
100
AcDbDictionary
280
     1
281
     1
  3
ACAD_DIMASSOC
360
22E2E
  0
DICTIONARY
  5
22E3C
330
22E2F
100
AcDbDictionary
280
     1
281
     1
  3
ACAD_DIMASSOC
360
22E46
  0
DICTIONARY
  5
22E54
330
22E47
100
AcDbDictionary
280
     1
281
     1
  3
ACAD_DIMASSOC
360
22E5E
  0
DICTIONARY
  5
22E6C
330
22E5F
100
AcDbDictionary
280
     1
281
     1
  3
ACAD_DIMASSOC
360
22E76
  0
DICTIONARY
  5
22EDE
330
22ECF
100
AcDbDictionary
280
     1
281
     1
  3
ACAD_DIMASSOC
360
22EEA
  0
DICTIONARY
  5
22EF8
330
22EEB
100
AcDbDictionary
280
     1
281
     1
  3
ACAD_DIMASSOC
360
22F02
  0
DICTIONARY
  5
22F10
330
22F03
100
AcDbDictionary
280
     1
281
     1
  3
ACAD_DIMASSOC
360
22F1A
  0
DICTIONARY
  5
22F28
330
22F1B
100
AcDbDictionary
280
     1
281
     1
  3
ACAD_DIMASSOC
360
22F32
  0
DICTIONARY
  5
22F40
330
22F33
100
AcDbDictionary
280
     1
281
     1
  3
ACAD_DIMASSOC
360
22F4A
  0
DICTIONARY
  5
6B
102
{ACAD_REACTORS
330
C
102
}
330
C
100
AcDbDictionary
281
     1
  0
DICTIONARY
  5
D
102
{ACAD_REACTORS
330
C
102
}
330
C
100
AcDbDictionary
281
     1
  0
DICTIONARY
  5
1A
102
{ACAD_REACTORS
330
C
102
}
330
C
100
AcDbDictionary
281
     1
  3
Layout1
350
51
  3
Layout2
350
56
  3
Model
350
22
  0
DICTIONARY
  5
6A
102
{ACAD_REACTORS
330
C
102
}
330
C
100
AcDbDictionary
281
     1
  0
DICTIONARY
  5
17
102
{ACAD_REACTORS
330
C
102
}
330
C
100
AcDbDictionary
281
     1
  3
Standard
350
18
  0
DICTIONARY
  5
19
102
{ACAD_REACTORS
330
C
102
}
330
C
100
AcDbDictionary
281
     1
  0
ACDBDICTIONARYWDFLT
  5
E
102
{ACAD_REACTORS
330
C
102
}
330
C
100
AcDbDictionary
281
     1
  3
Normal
350
F
100
AcDbDictionaryWithDefault
340
F
  0
DICTIONARY
  5
23265
102
{ACAD_REACTORS
330
C
102
}
330
C
100
AcDbDictionary
281
     1
  3
COLORDICT
350
23267
  3
MATERIALDICT
350
23266
  0
DICTIONARY
  5
5E
102
{ACAD_REACTORS
330
C
102
}
330
C
100
AcDbDictionary
281
     1
  3
DIMASSOC
350
5F
  3
HIDETEXT
350
63
  3
PROJECTNAME
350
876
  0
XRECORD
  5
23264
102
{ACAD_REACTORS
330
C
102
}
330
C
100
AcDbXrecord
280
     1
  1
DWGPROPS COOKIE
  2

  3

  4

  6

  7

  8

  9

300
=
301
=
302
=
303
=
304
=
305
=
306
=
307
=
308
=
309
=
 40
1.928348344907407
 41
2453200.47923772
 42
2453389.334110637
  1

 90
        0
  0
DIMASSOC
  5
22E00
102
{ACAD_REACTORS
330
22DF6
102
}
330
22DF6
100
AcDbDimAssoc
330
22DE9
 90
        3
 70
     0
 71
     0
  1
AcDbOsnapPointRef
 72
     2
331
22AC1
 73
     2
 91
        0
 40
0.5
 10
0.0
 20
0.0
 30
0.0
 75
     0
  1
AcDbOsnapPointRef
 72
     2
331
22A85
 73
     2
 91
        0
 40
0.5
 10
0.0
 20
0.0
 30
0.0
 75
     0
  0
DIMASSOC
  5
22E18
102
{ACAD_REACTORS
330
22E0E
102
}
330
22E0E
100
AcDbDimAssoc
330
22E01
 90
        3
 70
     0
 71
     0
  1
AcDbOsnapPointRef
 72
     1
331
22836
 73
     2
 91
        0
 40
1.0
 10
0.0
 20
0.0
 30
2.000000000000000E+50
 75
     0
  1
AcDbOsnapPointRef
 72
     8
331
22835
 73
     2
 91
        0
 40
0.0000000000000036
 10
0.0
 20
0.0
 30
0.0
 75
     1
  1
AcDbOsnapPointRef
 72
     1
331
22836
 73
     2
 91
        0
 40
1.0
 10
0.0
 20
0.0
 30
2.000000000000000E+50
 75
     0
  0
DIMASSOC
  5
22E2E
102
{ACAD_REACTORS
330
22E25
102
}
330
22E25
100
AcDbDimAssoc
330
22E19
 90
        2
 70
     0
 71
     0
  1
AcDbOsnapPointRef
 72
     3
331
22A84
 73
     2
 91
        0
 40
0.0
 10
0.0
 20
0.0
 30
0.0
 75
     0
  0
DIMASSOC
  5
22E46
102
{ACAD_REACTORS
330
22E3C
102
}
330
22E3C
100
AcDbDimAssoc
330
22E2F
 90
        3
 70
     0
 71
     0
  1
AcDbOsnapPointRef
 72
    13
331
229A6
 73
     2
 91
        0
 40
3.141592653589792
 10
0.0
 20
0.0
 30
2.000000000000000E+50
 75
     0
  1
AcDbOsnapPointRef
 72
     8
331
229A8
 73
     2
 91
        0
 40
0.0
 10
0.0
 20
0.0
 30
0.0
 75
     1
  1
AcDbOsnapPointRef
 72
    13
331
229A6
 73
     2
 91
        0
 40
3.141592653589792
 10
0.0
 20
0.0
 30
2.000000000000000E+50
 75
     0
  0
DIMASSOC
  5
22E5E
102
{ACAD_REACTORS
330
22E54
102
}
330
22E54
100
AcDbDimAssoc
330
22E47
 90
        3
 70
     0
 71
     0
  1
AcDbOsnapPointRef
 72
     6
331
2299A
 73
     2
 91
        0
 40
0.0
 10
0.0
 20
0.0
 30
0.0
332
22998
 74
     2
 92
        0
 75
     0
  1
AcDbOsnapPointRef
 72
     8
331
2281D
 73
     2
 91
        0
 40
77499.99931460478
 10
0.0
 20
0.0
 30
0.0
 75
     1
  1
AcDbOsnapPointRef
 72
     6
331
2299A
 73
     2
 91
        0
 40
0.0
 10
0.0
 20
0.0
 30
0.0
332
22998
 74
     2
 92
        0
 75
     0
  0
DIMASSOC
  5
22E76
102
{ACAD_REACTORS
330
22E6C
102
}
330
22E6C
100
AcDbDimAssoc
330
22E5F
 90
        3
 70
     0
 71
     0
  1
AcDbOsnapPointRef
 72
     6
331
2299A
 73
     2
 91
        0
 40
0.0
 10
0.0
 20
0.0
 30
0.0
332
22998
 74
     2
 92
        0
 75
     0
  1
AcDbOsnapPointRef
 72
     1
331
22837
 73
     2
 91
        0
 40
1.0
 10
0.0
 20
0.0
 30
2.000000000000000E+50
 75
     0
  0
DIMASSOC
  5
22EEA
102
{ACAD_REACTORS
330
22EDE
102
}
330
22EDE
100
AcDbDimAssoc
330
22ECF
 90
        3
 70
     0
 71
     0
  1
AcDbOsnapPointRef
 72
    13
331
22DC7
 73
     2
 91
        0
 40
0.0
 10
0.0
 20
0.0
 30
2.000000000000000E+50
 75
     0
  1
AcDbOsnapPointRef
 72
     1
331
22DD9
 73
     2
 91
        0
 40
1.0
 10
0.0
 20
0.0
 30
2.000000000000000E+50
 75
     0
  0
DIMASSOC
  5
22F02
102
{ACAD_REACTORS
330
22EF8
102
}
330
22EF8
100
AcDbDimAssoc
330
22EEB
 90
        2
 70
     0
 71
     0
  1
AcDbOsnapPointRef
 72
     6
331
22D4D
 73
     2
 91
        0
 40
0.0000000000000711
 10
0.0
 20
0.0
 30
0.0
332
22D52
 74
     2
 92
        0
 75
     0
  0
DIMASSOC
  5
22F1A
102
{ACAD_REACTORS
330
22F10
102
}
330
22F10
100
AcDbDimAssoc
330
22F03
 90
        2
 70
     0
 71
     0
  1
AcDbOsnapPointRef
 72
    13
331
22B47
 73
     2
 91
        0
 40
0.0
 10
0.0
 20
0.0
 30
2.000000000000000E+50
 75
     0
  0
DIMASSOC
  5
22F32
102
{ACAD_REACTORS
330
22F28
102
}
330
22F28
100
AcDbDimAssoc
330
22F1B
 90
        2
 70
     0
 71
     0
  1
AcDbOsnapPointRef
 72
     1
331
22D54
331
22D55
 73
     2
 91
        0
 40
0.0
 10
0.0
 20
0.0
 30
2.000000000000000E+50
 75
     0
  0
DIMASSOC
  5
22F4A
102
{ACAD_REACTORS
330
22F40
102
}
330
22F40
100
AcDbDimAssoc
330
22F33
 90
        3
 70
     0
 71
     0
  1
AcDbOsnapPointRef
 72
    13
331
22DD8
 73
     2
 91
        0
 40
0.0
 10
0.0
 20
0.0
 30
2.000000000000000E+50
 75
     0
  1
AcDbOsnapPointRef
 72
     2
331
22DE0
 73
     2
 91
        0
 40
0.5000000000000001
 10
0.0
 20
0.0
 30
0.0
 75
     0
  0
LAYOUT
  5
51
102
{ACAD_XDICTIONARY
360
2326A
102
}
102
{ACAD_REACTORS
330
1A
102
}
330
1A
100
AcDbPlotSettings
  1

  2
None
  4

  6

 40
0.0
 41
0.0
 42
0.0
 43
0.0
 44
0.0
 45
0.0
 46
0.0
 47
0.0
 48
0.0
 49
0.0
140
0.0
141
0.0
142
1.0
143
1.0
 70
   688
 72
     0
 73
     0
 74
     5
  7

 75
    16
147
1.0
148
0.0
149
0.0
100
AcDbLayout
  1
Layout1
 70
     1
 71
     1
 10
0.0
 20
0.0
 11
12.0
 21
9.0
 12
0.0
 22
0.0
 32
0.0
 14
0.0
 24
0.0
 34
0.0
 15
0.0
 25
0.0
 35
0.0
146
0.0
 13
0.0
 23
0.0
 33
0.0
 16
1.0
 26
0.0
 36
0.0
 17
0.0
 27
1.0
 37
0.0
 76
     0
330
50
  0
LAYOUT
  5
56
102
{ACAD_XDICTIONARY
360
2326C
102
}
102
{ACAD_REACTORS
330
1A
102
}
330
1A
100
AcDbPlotSettings
  1

  2
None
  4

  6

 40
0.0
 41
0.0
 42
0.0
 43
0.0
 44
0.0
 45
0.0
 46
0.0
 47
0.0
 48
0.0
 49
0.0
140
0.0
141
0.0
142
1.0
143
1.0
 70
   688
 72
     0
 73
     0
 74
     5
  7

 75
    16
147
1.0
148
0.0
149
0.0
100
AcDbLayout
  1
Layout2
 70
     1
 71
     2
 10
0.0
 20
0.0
 11
12.0
 21
9.0
 12
0.0
 22
0.0
 32
0.0
 14
0.0
 24
0.0
 34
0.0
 15
0.0
 25
0.0
 35
0.0
146
0.0
 13
0.0
 23
0.0
 33
0.0
 16
1.0
 26
0.0
 36
0.0
 17
0.0
 27
1.0
 37
0.0
 76
     0
330
55
  0
LAYOUT
  5
22
102
{ACAD_XDICTIONARY
360
23268
102
}
102
{ACAD_REACTORS
330
1A
102
}
330
1A
100
AcDbPlotSettings
  1

  2
\\AMBW779A\A_P00873 (Canon iR2200-3300 PCL6)
  4
A3
  6

 40
4.815416812896728
 41
4.815412044525146
 42
4.815399169921875
 43
4.8154296875
 44
419.9466552734373
 45
296.9259948730469
 46
0.0
 47
0.0
 48
0.0
 49
0.0
140
0.0
141
0.0
142
1.0
143
1.0
 70
 11952
 72
     1
 73
     0
 74
     1
  7

 75
    16
147
1.0
148
147.7931014861506
149
-50.22195520822402
100
AcDbLayout
  1
Model
 70
     1
 71
     0
 10
0.0
 20
0.0
 11
12.0
 21
9.0
 12
0.0
 22
0.0
 32
0.0
 14
0.0
 24
0.0
 34
0.0
 15
0.0
 25
0.0
 35
0.0
146
0.0
 13
0.0
 23
0.0
 33
0.0
 16
1.0
 26
0.0
 36
0.0
 17
0.0
 27
1.0
 37
0.0
 76
     0
330
1F
  0
MLINESTYLE
  5
18
102
{ACAD_REACTORS
330
17
102
}
330
17
100
AcDbMlineStyle
  2
STANDARD
 70
     0
  3

 62
   256
 51
90.0
 52
90.0
 71
     2
 49
0.5
 62
   256
  6
BYLAYER
 49
-0.5
 62
   256
  6
BYLAYER
  0
ACDBPLACEHOLDER
  5
F
102
{ACAD_REACTORS
330
E
102
}
330
E
  0
XRECORD
  5
23267
102
{ACAD_REACTORS
330
23265
102
}
330
23265
100
AcDbXrecord
280
     1
340
6B
  0
XRECORD
  5
23266
102
{ACAD_REACTORS
330
23265
102
}
330
23265
100
AcDbXrecord
280
     1
340
6A
  0
DICTIONARYVAR
  5
5F
102
{ACAD_REACTORS
330
5E
102
}
330
5E
100
DictionaryVariables
280
     0
  1
2
  0
DICTIONARYVAR
  5
63
102
{ACAD_REACTORS
330
5E
102
}
330
5E
100
DictionaryVariables
280
     0
  1
1
  0
DICTIONARYVAR
  5
876
102
{ACAD_REACTORS
330
5E
102
}
330
5E
100
DictionaryVariables
280
     0
  1

  0
DICTIONARY
  5
2326A
330
51
100
AcDbDictionary
280
     1
281
     1
  3
ACAD_XREC_ROUNDTRIP
360
2326B
  0
DICTIONARY
  5
2326C
330
56
100
AcDbDictionary
280
     1
281
     1
  3
ACAD_XREC_ROUNDTRIP
360
2326D
  0
DICTIONARY
  5
23268
330
22
100
AcDbDictionary
280
     1
281
     1
  3
ACAD_XREC_ROUNDTRIP
360
23269
  0
XRECORD
  5
2326B
102
{ACAD_REACTORS
330
2326A
102
}
330
2326A
100
AcDbXrecord
280
     1
102
SHADEPLOT
 70
     0
102
SHADEPLOTRESLEVEL
 70
     2
102
SHADEPLOTCUSTOMDPI
 70
   300
  0
XRECORD
  5
2326D
102
{ACAD_REACTORS
330
2326C
102
}
330
2326C
100
AcDbXrecord
280
     1
102
SHADEPLOT
 70
     0
102
SHADEPLOTRESLEVEL
 70
     2
102
SHADEPLOTCUSTOMDPI
 70
   300
  0
XRECORD
  5
23269
102
{ACAD_REACTORS
330
23268
102
}
330
23268
100
AcDbXrecord
280
     1
102
SHADEPLOT
 70
     0
102
SHADEPLOTRESLEVEL
 70
     2
102
SHADEPLOTCUSTOMDPI
 70
   300
  0
ENDSEC
  0
EOF
