  0
SECTION
  2
HEADER
  9
$ACADVER
  1
AC1015
  9
$ACADMAINTVER
 70
    14
  9
$DWGCODEPAGE
  3
ANSI_1252
  9
$INSBASE
 10
0.0
 20
0.0
 30
0.0
  9
$EXTMIN
 10
46.41815288739531
 20
83.62641985624383
 30
-0.0015258207003583
  9
$EXTMAX
 10
316.4483651151513
 20
283.6400763595477
 30
0.0000000349246037
  9
$LIMMIN
 10
0.0
 20
0.0
  9
$LIMMAX
 10
420.0
 20
297.0
  9
$ORTHOMODE
 70
     0
  9
$REGENMODE
 70
     1
  9
$FILLMODE
 70
     1
  9
$QTEXTMODE
 70
     0
  9
$MIRRTEXT
 70
     0
  9
$LTSCALE
 40
1.0
  9
$ATTMODE
 70
     1
  9
$TEXTSIZE
 40
4.945867574227346
  9
$TRACEWID
 40
1.0
  9
$TEXTSTYLE
  7
Standard
  9
$CLAYER
  8
11100_Left_Dim
  9
$CELTYPE
  6
ByLayer
  9
$CECOLOR
 62
     6
  9
$CELTSCALE
 40
1.0
  9
$DISPSILH
 70
     0
  9
$DIMSCALE
 40
1.0
  9
$DIMASZ
 40
2.5
  9
$DIMEXO
 40
0.625
  9
$DIMDLI
 40
3.75
  9
$DIMRND
 40
0.0
  9
$DIMDLE
 40
0.0
  9
$DIMEXE
 40
1.25
  9
$DIMTP
 40
0.0
  9
$DIMTM
 40
0.0
  9
$DIMTXT
 40
2.5
  9
$DIMCEN
 40
2.5
  9
$DIMTSZ
 40
0.0
  9
$DIMTOL
 70
     0
  9
$DIMLIM
 70
     0
  9
$DIMTIH
 70
     0
  9
$DIMTOH
 70
     0
  9
$DIMSE1
 70
     0
  9
$DIMSE2
 70
     0
  9
$DIMTAD
 70
     1
  9
$DIMZIN
 70
     8
  9
$DIMBLK
  1

  9
$DIMASO
 70
     1
  9
$DIMSHO
 70
     1
  9
$DIMPOST
  1

  9
$DIMAPOST
  1

  9
$DIMALT
 70
     0
  9
$DIMALTD
 70
     3
  9
$DIMALTF
 40
0.03937007874016
  9
$DIMLFAC
 40
1.0
  9
$DIMTOFL
 70
     1
  9
$DIMTVP
 40
0.0
  9
$DIMTIX
 70
     0
  9
$DIMSOXD
 70
     0
  9
$DIMSAH
 70
     0
  9
$DIMBLK1
  1

  9
$DIMBLK2
  1

  9
$DIMSTYLE
  2
ISO-25
  9
$DIMCLRD
 70
     0
  9
$DIMCLRE
 70
     0
  9
$DIMCLRT
 70
     0
  9
$DIMTFAC
 40
1.0
  9
$DIMGAP
 40
0.625
  9
$DIMJUST
 70
     0
  9
$DIMSD1
 70
     0
  9
$DIMSD2
 70
     0
  9
$DIMTOLJ
 70
     0
  9
$DIMTZIN
 70
     8
  9
$DIMALTZ
 70
     0
  9
$DIMALTTZ
 70
     0
  9
$DIMUPT
 70
     0
  9
$DIMDEC
 70
     2
  9
$DIMTDEC
 70
     2
  9
$DIMALTU
 70
     2
  9
$DIMALTTD
 70
     3
  9
$DIMTXSTY
  7
Standard
  9
$DIMAUNIT
 70
     0
  9
$DIMADEC
 70
     0
  9
$DIMALTRND
 40
0.0
  9
$DIMAZIN
 70
     0
  9
$DIMDSEP
 70
    44
  9
$DIMATFIT
 70
     3
  9
$DIMFRAC
 70
     0
  9
$DIMLDRBLK
  1

  9
$DIMLUNIT
 70
     2
  9
$DIMLWD
 70
    -2
  9
$DIMLWE
 70
    -2
  9
$DIMTMOVE
 70
     0
  9
$LUNITS
 70
     2
  9
$LUPREC
 70
     4
  9
$SKETCHINC
 40
1.0
  9
$FILLETRAD
 40
10.0
  9
$AUNITS
 70
     0
  9
$AUPREC
 70
     0
  9
$MENU
  1
.
  9
$ELEVATION
 40
0.0
  9
$PELEVATION
 40
0.0
  9
$THICKNESS
 40
0.0
  9
$LIMCHECK
 70
     0
  9
$CHAMFERA
 40
10.0
  9
$CHAMFERB
 40
10.0
  9
$CHAMFERC
 40
20.0
  9
$CHAMFERD
 40
0.0
  9
$SKPOLY
 70
     0
  9
$TDCREATE
 40
2453453.687577789
  9
$TDUCREATE
 40
2453453.604244456
  9
$TDUPDATE
 40
2453823.372794085
  9
$TDUUPDATE
 40
2453823.289460752
  9
$TDINDWG
 40
1.0754533449
  9
$TDUSRTIMER
 40
1.0754491667
  9
$USRTIMER
 70
     1
  9
$ANGBASE
 50
0.0
  9
$ANGDIR
 70
     0
  9
$PDMODE
 70
     0
  9
$PDSIZE
 40
0.0
  9
$PLINEWID
 40
0.0
  9
$SPLFRAME
 70
     0
  9
$SPLINETYPE
 70
     6
  9
$SPLINESEGS
 70
     8
  9
$HANDSEED
  5
616FE
  9
$SURFTAB1
 70
     6
  9
$SURFTAB2
 70
     6
  9
$SURFTYPE
 70
     6
  9
$SURFU
 70
     6
  9
$SURFV
 70
     6
  9
$UCSBASE
  2

  9
$UCSNAME
  2

  9
$UCSORG
 10
0.0
 20
0.0
 30
0.0
  9
$UCSXDIR
 10
1.0
 20
0.0
 30
0.0
  9
$UCSYDIR
 10
0.0
 20
1.0
 30
0.0
  9
$UCSORTHOREF
  2

  9
$UCSORTHOVIEW
 70
     0
  9
$UCSORGTOP
 10
0.0
 20
0.0
 30
0.0
  9
$UCSORGBOTTOM
 10
0.0
 20
0.0
 30
0.0
  9
$UCSORGLEFT
 10
0.0
 20
0.0
 30
0.0
  9
$UCSORGRIGHT
 10
0.0
 20
0.0
 30
0.0
  9
$UCSORGFRONT
 10
0.0
 20
0.0
 30
0.0
  9
$UCSORGBACK
 10
0.0
 20
0.0
 30
0.0
  9
$PUCSBASE
  2

  9
$PUCSNAME
  2

  9
$PUCSORG
 10
0.0
 20
0.0
 30
0.0
  9
$PUCSXDIR
 10
1.0
 20
0.0
 30
0.0
  9
$PUCSYDIR
 10
0.0
 20
1.0
 30
0.0
  9
$PUCSORTHOREF
  2

  9
$PUCSORTHOVIEW
 70
     0
  9
$PUCSORGTOP
 10
0.0
 20
0.0
 30
0.0
  9
$PUCSORGBOTTOM
 10
0.0
 20
0.0
 30
0.0
  9
$PUCSORGLEFT
 10
0.0
 20
0.0
 30
0.0
  9
$PUCSORGRIGHT
 10
0.0
 20
0.0
 30
0.0
  9
$PUCSORGFRONT
 10
0.0
 20
0.0
 30
0.0
  9
$PUCSORGBACK
 10
0.0
 20
0.0
 30
0.0
  9
$USERI1
 70
     0
  9
$USERI2
 70
     0
  9
$USERI3
 70
     0
  9
$USERI4
 70
     0
  9
$USERI5
 70
     0
  9
$USERR1
 40
0.0
  9
$USERR2
 40
0.0
  9
$USERR3
 40
0.0
  9
$USERR4
 40
0.0
  9
$USERR5
 40
0.0
  9
$WORLDVIEW
 70
     1
  9
$SHADEDGE
 70
     3
  9
$SHADEDIF
 70
    70
  9
$TILEMODE
 70
     1
  9
$MAXACTVP
 70
    64
  9
$PINSBASE
 10
0.0
 20
0.0
 30
0.0
  9
$PLIMCHECK
 70
     0
  9
$PEXTMIN
 10
0.0
 20
0.0
 30
0.0
  9
$PEXTMAX
 10
0.0
 20
0.0
 30
0.0
  9
$PLIMMIN
 10
0.0
 20
0.0
  9
$PLIMMAX
 10
12.0
 20
9.0
  9
$UNITMODE
 70
     0
  9
$VISRETAIN
 70
     1
  9
$PLINEGEN
 70
     0
  9
$PSLTSCALE
 70
     1
  9
$TREEDEPTH
 70
  3020
  9
$CMLSTYLE
  2
Standard
  9
$CMLJUST
 70
     0
  9
$CMLSCALE
 40
20.0
  9
$PROXYGRAPHICS
 70
     1
  9
$MEASUREMENT
 70
     1
  9
$CELWEIGHT
370
    -1
  9
$ENDCAPS
280
     0
  9
$JOINSTYLE
280
     0
  9
$LWDISPLAY
290
     0
  9
$INSUNITS
 70
     4
  9
$HYPERLINKBASE
  1

  9
$STYLESHEET
  1

  9
$XEDIT
290
     1
  9
$CEPSNTYPE
380
     0
  9
$PSTYLEMODE
290
     1
  9
$FINGERPRINTGUID
  2
{FDEAD578-A652-11D2-9A35-0060089B3A3F}
  9
$VERSIONGUID
  2
{087143D7-C9C1-4BFB-858D-15F53C863A67}
  9
$EXTNAMES
290
     1
  9
$PSVPSCALE
 40
0.0
  9
$OLESTARTUP
290
     0
  0
ENDSEC
  0
SECTION
  2
CLASSES
  0
CLASS
  1
ACDBDICTIONARYWDFLT
  2
AcDbDictionaryWithDefault
  3
AutoCAD 2000
 90
        0
280
     0
281
     0
  0
CLASS
  1
DICTIONARYVAR
  2
AcDbDictionaryVar
  3
AutoCAD 2000
 90
        0
280
     0
281
     0
  0
CLASS
  1
DIMASSOC
  2
AcDbDimAssoc
  3
"AcDbDimAssoc|Product Desc:     AcDim ARX App For Dimension|Company:          Autodesk, Inc.|WEB Address:      www.autodesk.com"
 90
        0
280
     0
281
     0
  0
CLASS
  1
ACDBPLACEHOLDER
  2
AcDbPlaceHolder
  3
AutoCAD 2000
 90
        0
280
     0
281
     0
  0
CLASS
  1
LAYOUT
  2
AcDbLayout
  3
AutoCAD 2000
 90
        0
280
     0
281
     0
  0
ENDSEC
  0
SECTION
  2
TABLES
  0
TABLE
  2
VPORT
  5
8
330
0
100
AcDbSymbolTable
 70
     5
  0
VPORT
  5
616FD
330
8
100
AcDbSymbolTableRecord
100
AcDbViewportTableRecord
  2
*Active
 70
     0
 10
0.0
 20
0.0
 11
1.0
 21
1.0
 12
181.0394429414742
 22
183.6412516843502
 13
0.0
 23
0.0
 14
10.0
 24
10.0
 15
10.0
 25
10.0
 16
0.0
 26
0.0
 36
1.0
 17
0.0
 27
0.0
 37
0.0
 40
205.8453098824772
 41
1.541927409261576
 42
50.0
 43
0.0
 44
0.0
 50
0.0
 51
0.0
 71
     0
 72
  1000
 73
     1
 74
     3
 75
     0
 76
     0
 77
     0
 78
     0
281
     0
 65
     1
110
0.0
120
0.0
130
0.0
111
1.0
121
0.0
131
0.0
112
0.0
122
1.0
132
0.0
 79
     0
146
0.0
  0
ENDTAB
  0
TABLE
  2
LTYPE
  5
5
330
0
100
AcDbSymbolTable
 70
     2
  0
LTYPE
  5
14
330
5
100
AcDbSymbolTableRecord
100
AcDbLinetypeTableRecord
  2
ByBlock
 70
     0
  3

 72
    65
 73
     0
 40
0.0
  0
LTYPE
  5
15
330
5
100
AcDbSymbolTableRecord
100
AcDbLinetypeTableRecord
  2
ByLayer
 70
     0
  3

 72
    65
 73
     0
 40
0.0
  0
LTYPE
  5
16
330
5
100
AcDbSymbolTableRecord
100
AcDbLinetypeTableRecord
  2
Continuous
 70
     0
  3
Solid line
 72
    65
 73
     0
 40
0.0
  0
LTYPE
  5
2BDE
330
5
100
AcDbSymbolTableRecord
100
AcDbLinetypeTableRecord
  2
CENTER
 70
     0
  3
____ _ ____ _ ____ _ ____ _ ____ _ ____ _ ____
 72
    65
 73
     4
 40
2.0
 49
1.25
 74
     0
 49
-0.25
 74
     0
 49
0.25
 74
     0
 49
-0.25
 74
     0
  0
ENDTAB
  0
TABLE
  2
LAYER
  5
2
330
0
100
AcDbSymbolTable
 70
     8
  0
LAYER
  5
10
330
2
100
AcDbSymbolTableRecord
100
AcDbLayerTableRecord
  2
0
 70
     0
 62
     7
  6
Continuous
370
    -3
390
F
  0
LAYER
  5
171B
330
2
100
AcDbSymbolTableRecord
100
AcDbLayerTableRecord
  2
Defpoints
 70
     0
 62
     7
  6
Continuous
290
     0
370
    -3
390
F
  0
LAYER
  5
2BDF
330
2
100
AcDbSymbolTableRecord
100
AcDbLayerTableRecord
  2
90000_FRAME
 70
     0
 62
     7
  6
Continuous
370
    -3
390
F
  0
LAYER
  5
2BE0
330
2
100
AcDbSymbolTableRecord
100
AcDbLayerTableRecord
  2
91000_TIP
 70
     0
 62
     7
  6
Continuous
370
    -3
390
F
  0
LAYER
  5
2D47
330
2
100
AcDbSymbolTableRecord
100
AcDbLayerTableRecord
  2
10000_Front
 70
     0
 62
     7
  6
Continuous
370
    -3
390
F
  0
LAYER
  5
2D48
330
2
100
AcDbSymbolTableRecord
100
AcDbLayerTableRecord
  2
10100_Front_Dim
 70
     0
 62
     7
  6
Continuous
370
    -3
390
F
  0
LAYER
  5
2F54
330
2
100
AcDbSymbolTableRecord
100
AcDbLayerTableRecord
  2
11000_Left
 70
     0
 62
     7
  6
Continuous
370
    -3
390
F
  0
LAYER
  5
2F55
330
2
100
AcDbSymbolTableRecord
100
AcDbLayerTableRecord
  2
11100_Left_Dim
 70
     0
 62
     7
  6
Continuous
370
    -3
390
F
  0
ENDTAB
  0
TABLE
  2
STYLE
  5
3
330
0
100
AcDbSymbolTable
 70
     1
  0
STYLE
  5
11
330
3
100
AcDbSymbolTableRecord
100
AcDbTextStyleTableRecord
  2
Standard
 70
     0
 40
0.0
 41
1.0
 50
0.0
 71
     0
 42
4.945867574227346
  3
txt
  4

  0
ENDTAB
  0
TABLE
  2
VIEW
  5
6
330
0
100
AcDbSymbolTable
 70
     0
  0
ENDTAB
  0
TABLE
  2
UCS
  5
7
330
0
100
AcDbSymbolTable
 70
     0
  0
ENDTAB
  0
TABLE
  2
APPID
  5
9
330
0
100
AcDbSymbolTable
 70
     3
  0
APPID
  5
12
330
9
100
AcDbSymbolTableRecord
100
AcDbRegAppTableRecord
  2
ACAD
 70
     0
  0
APPID
  5
344C
330
9
100
AcDbSymbolTableRecord
100
AcDbRegAppTableRecord
  2
AUSTER_ANSICHT
 70
     0
  0
APPID
  5
344D
330
9
100
AcDbSymbolTableRecord
100
AcDbRegAppTableRecord
  2
AUSTER_FOLIE
 70
     0
  0
ENDTAB
  0
TABLE
  2
DIMSTYLE
  5
A
330
0
100
AcDbSymbolTable
 70
     3
100
AcDbDimStyleTable
 71
     2
340
2F56
340
27
  0
DIMSTYLE
105
27
330
A
100
AcDbSymbolTableRecord
100
AcDbDimStyleTableRecord
  2
ISO-25
 70
     0
 41
2.5
 42
0.625
 43
3.75
 44
1.25
 73
     0
 74
     0
 77
     1
 78
     8
140
2.5
141
2.5
143
0.03937007874016
147
0.625
171
     3
172
     1
271
     2
272
     2
274
     3
278
    44
283
     0
284
     8
340
11
  0
DIMSTYLE
105
2F56
102
{ACAD_REACTORS
330
6155B
330
61542
330
61585
330
614DA
330
614F2
330
6152A
102
}
330
A
100
AcDbSymbolTableRecord
100
AcDbDimStyleTableRecord
  2
H035
 70
     0
 40
0.0
 41
2.5
 42
0.0
 43
3.75
 44
2.0
 73
     0
 74
     0
 77
     1
 78
     8
140
5.0
141
2.5
143
0.0394
147
1.0
171
     4
172
     1
176
   256
177
   256
178
     2
271
     0
272
     2
273
     8
274
     4
277
     6
340
11
  0
DIMSTYLE
105
49B5
330
A
100
AcDbSymbolTableRecord
100
AcDbDimStyleTableRecord
  2
STANDARD
 70
     0
 41
0.125
 43
0.25
 44
0.125
 47
0.005
 48
-0.005
140
3.0
147
0.0625
171
     0
172
     1
271
     3
272
     3
274
     0
279
     2
340
11
  0
ENDTAB
  0
TABLE
  2
BLOCK_RECORD
  5
1
330
0
100
AcDbSymbolTable
 70
     9
  0
BLOCK_RECORD
  5
1F
330
1
100
AcDbSymbolTableRecord
100
AcDbBlockTableRecord
  2
*Model_Space
340
22
  0
BLOCK_RECORD
  5
50
330
1
100
AcDbSymbolTableRecord
100
AcDbBlockTableRecord
  2
*Paper_Space
340
51
  0
BLOCK_RECORD
  5
55
330
1
100
AcDbSymbolTableRecord
100
AcDbBlockTableRecord
  2
*Paper_Space0
340
56
  0
BLOCK_RECORD
  5
2B73
330
1
100
AcDbSymbolTableRecord
100
AcDbBlockTableRecord
  2
SIEMENS_OUTLINE_BL0
340
0
102
{BLKREFS
331
2BFF
102
}
  0
BLOCK_RECORD
  5
614DB
330
1
100
AcDbSymbolTableRecord
100
AcDbBlockTableRecord
  2
*D2
340
0
  0
BLOCK_RECORD
  5
614F3
330
1
100
AcDbSymbolTableRecord
100
AcDbBlockTableRecord
  2
*D3
340
0
  0
BLOCK_RECORD
  5
6150F
330
1
100
AcDbSymbolTableRecord
100
AcDbBlockTableRecord
  2
*D4
340
0
  0
BLOCK_RECORD
  5
6152B
330
1
100
AcDbSymbolTableRecord
100
AcDbBlockTableRecord
  2
*D5
340
0
  0
BLOCK_RECORD
  5
61543
330
1
100
AcDbSymbolTableRecord
100
AcDbBlockTableRecord
  2
*D6
340
0
  0
BLOCK_RECORD
  5
6155C
330
1
100
AcDbSymbolTableRecord
100
AcDbBlockTableRecord
  2
*D7
340
0
  0
BLOCK_RECORD
  5
61586
330
1
100
AcDbSymbolTableRecord
100
AcDbBlockTableRecord
  2
*D8
340
0
  0
ENDTAB
  0
ENDSEC
  0
SECTION
  2
BLOCKS
  0
BLOCK
  5
20
330
1F
100
AcDbEntity
  8
0
100
AcDbBlockBegin
  2
*Model_Space
 70
     0
 10
0.0
 20
0.0
 30
0.0
  3
*Model_Space
  1

  0
ENDBLK
  5
21
330
1F
100
AcDbEntity
  8
0
100
AcDbBlockEnd
  0
BLOCK
  5
52
330
50
100
AcDbEntity
 67
     1
  8
0
100
AcDbBlockBegin
  2
*Paper_Space
 70
     0
 10
0.0
 20
0.0
 30
0.0
  3
*Paper_Space
  1

  0
ENDBLK
  5
53
330
50
100
AcDbEntity
 67
     1
  8
0
100
AcDbBlockEnd
  0
BLOCK
  5
57
330
55
100
AcDbEntity
  8
0
100
AcDbBlockBegin
  2
*Paper_Space0
 70
     0
 10
0.0
 20
0.0
 30
0.0
  3
*Paper_Space0
  1

  0
ENDBLK
  5
58
330
55
100
AcDbEntity
  8
0
100
AcDbBlockEnd
  0
BLOCK
  5
2B74
330
2B73
100
AcDbEntity
  8
0
  6
Continuous
 62
     7
100
AcDbBlockBegin
  2
SIEMENS_OUTLINE_BL0
 70
     0
 10
0.0
 20
0.0
 30
0.0
  3
SIEMENS_OUTLINE_BL0
  1

  0
LINE
  5
2B75
330
2B73
100
AcDbEntity
  8
0
  6
Continuous
 62
     7
100
AcDbLine
 10
79.186200508
 20
21.4145478991
 30
0.0
 11
79.186200508
 21
16.6612788158
 31
0.0
  0
LINE
  5
2B76
330
2B73
100
AcDbEntity
  8
0
  6
Continuous
 62
     7
100
AcDbLine
 10
80.61218123299999
 20
21.4145478991
 30
0.0
 11
80.61218123299999
 21
16.6612788158
 31
0.0
  0
LINE
  5
2B77
330
2B73
100
AcDbEntity
  8
0
  6
Continuous
 62
     7
100
AcDbLine
 10
79.186200508
 20
16.6612788158
 30
0.0
 11
80.61218123299999
 21
16.6612788158
 31
0.0
  0
LINE
  5
2B78
330
2B73
100
AcDbEntity
  8
0
  6
Continuous
 62
     7
100
AcDbLine
 10
79.186200508
 20
21.4145478991
 30
0.0
 11
80.61218123299999
 21
21.4145478991
 31
0.0
  0
LINE
  5
2B79
330
2B73
100
AcDbEntity
  8
0
  6
Continuous
 62
     7
100
AcDbLine
 10
81.7054331221
 20
21.4145478991
 30
0.0
 11
81.7054331221
 21
16.6612788158
 31
0.0
  0
LINE
  5
2B7A
330
2B73
100
AcDbEntity
  8
0
  6
Continuous
 62
     7
100
AcDbLine
 10
81.7054331221
 20
16.6612788158
 30
0.0
 11
85.2703849346
 21
16.6612788158
 31
0.0
  0
LINE
  5
2B7B
330
2B73
100
AcDbEntity
  8
0
  6
Continuous
 62
     7
100
AcDbLine
 10
85.2703849346
 20
17.56439994169999
 30
0.0
 11
83.0838811563
 21
17.56439994169999
 31
0.0
  0
LINE
  5
2B7C
330
2B73
100
AcDbEntity
  8
0
  6
Continuous
 62
     7
100
AcDbLine
 10
85.2703849346
 20
17.56439994169999
 30
0.0
 11
85.2703849346
 21
16.6612788158
 31
0.0
  0
LINE
  5
2B7D
330
2B73
100
AcDbEntity
  8
0
  6
Continuous
 62
     7
100
AcDbLine
 10
85.2228522438
 20
21.4145478991
 30
0.0
 11
81.7054331221
 21
21.4145478991
 31
0.0
  0
LINE
  5
2B7E
330
2B73
100
AcDbEntity
  8
0
  6
Continuous
 62
     7
100
AcDbLine
 10
85.2228522438
 20
20.5351931187
 30
0.0
 11
83.0838811563
 21
20.5351931187
 31
0.0
  0
LINE
  5
2B7F
330
2B73
100
AcDbEntity
  8
0
  6
Continuous
 62
     7
100
AcDbLine
 10
85.2228522438
 20
21.4145478991
 30
0.0
 11
85.2228522438
 21
20.5351931187
 31
0.0
  0
LINE
  5
2B80
330
2B73
100
AcDbEntity
  8
0
  6
Continuous
 62
     7
100
AcDbLine
 10
84.9376560988
 20
18.68141817619999
 30
0.0
 11
83.0838811563
 21
18.68141817619999
 31
0.0
  0
LINE
  5
2B81
330
2B73
100
AcDbEntity
  8
0
  6
Continuous
 62
     7
100
AcDbLine
 10
84.9376560988
 20
19.46570757499999
 30
0.0
 11
84.9376560988
 21
18.68141817619999
 31
0.0
  0
LINE
  5
2B82
330
2B73
100
AcDbEntity
  8
0
  6
Continuous
 62
     7
100
AcDbLine
 10
84.9376560988
 20
19.46570757499999
 30
0.0
 11
83.0838811563
 21
19.46570757499999
 31
0.0
  0
LINE
  5
2B83
330
2B73
100
AcDbEntity
  8
0
  6
Continuous
 62
     7
100
AcDbLine
 10
83.0838811563
 20
20.5351931187
 30
0.0
 11
83.0838811563
 21
19.46570757499999
 31
0.0
  0
LINE
  5
2B84
330
2B73
100
AcDbEntity
  8
0
  6
Continuous
 62
     7
100
AcDbLine
 10
83.0838811563
 20
18.68141817619999
 30
0.0
 11
83.0838811563
 21
17.56439994169999
 31
0.0
  0
LINE
  5
2B85
330
2B73
100
AcDbEntity
  8
0
  6
Continuous
 62
     7
100
AcDbLine
 10
86.0784406788
 20
16.6612788158
 30
0.0
 11
86.0784406788
 21
21.4145478991
 31
0.0
  0
LINE
  5
2B86
330
2B73
100
AcDbEntity
  8
0
  6
Continuous
 62
     7
100
AcDbLine
 10
86.0784406788
 20
16.6612788158
 30
0.0
 11
87.02909449539999
 21
16.6612788158
 31
0.0
  0
LINE
  5
2B87
330
2B73
100
AcDbEntity
  8
0
  6
Continuous
 62
     7
100
AcDbLine
 10
91.92496165120001
 20
21.4145478991
 30
0.0
 11
91.92496165120001
 21
16.6612788158
 31
0.0
  0
LINE
  5
2B88
330
2B73
100
AcDbEntity
  8
0
  6
Continuous
 62
     7
100
AcDbLine
 10
91.92496165120001
 20
16.6612788158
 30
0.0
 11
90.54651361700001
 21
16.6612788158
 31
0.0
  0
LINE
  5
2B89
330
2B73
100
AcDbEntity
  8
0
  6
Continuous
 62
     7
100
AcDbLine
 10
88.3600098387
 20
16.61374612499999
 30
0.0
 11
89.21559827370002
 21
16.61374612499999
 31
0.0
  0
LINE
  5
2B8A
330
2B73
100
AcDbEntity
  8
0
  6
Continuous
 62
     7
100
AcDbLine
 10
88.3600098387
 20
16.61374612499999
 30
0.0
 11
87.02909449539999
 21
19.7033710291
 31
0.0
  0
LINE
  5
2B8B
330
2B73
100
AcDbEntity
  8
0
  6
Continuous
 62
     7
100
AcDbLine
 10
87.02909449539999
 20
16.6612788158
 30
0.0
 11
87.02909449539999
 21
19.7033710291
 31
0.0
  0
LINE
  5
2B8C
330
2B73
100
AcDbEntity
  8
0
  6
Continuous
 62
     7
100
AcDbLine
 10
90.54651361700001
 20
19.75090372
 30
0.0
 11
89.21559827370002
 21
16.61374612499999
 31
0.0
  0
LINE
  5
2B8D
330
2B73
100
AcDbEntity
  8
0
  6
Continuous
 62
     7
100
AcDbLine
 10
87.78961754870001
 20
21.4145478991
 30
0.0
 11
86.0784406788
 21
21.4145478991
 31
0.0
  0
LINE
  5
2B8E
330
2B73
100
AcDbEntity
  8
0
  6
Continuous
 62
     7
100
AcDbLine
 10
91.92496165120001
 20
21.4145478991
 30
0.0
 11
90.2137847812
 21
21.4145478991
 31
0.0
  0
LINE
  5
2B8F
330
2B73
100
AcDbEntity
  8
0
  6
Continuous
 62
     7
100
AcDbLine
 10
87.78961754870001
 20
21.4145478991
 30
0.0
 11
89.0254675104
 21
18.51505375829998
 31
0.0
  0
LINE
  5
2B90
330
2B73
100
AcDbEntity
  8
0
  6
Continuous
 62
     7
100
AcDbLine
 10
90.2137847812
 20
21.4145478991
 30
0.0
 11
89.0254675104
 21
18.51505375829998
 31
0.0
  0
LINE
  5
2B91
330
2B73
100
AcDbEntity
  8
0
  6
Continuous
 62
     7
100
AcDbLine
 10
90.54651361700001
 20
19.75090372
 30
0.0
 11
90.54651361700001
 21
16.6612788158
 31
0.0
  0
LINE
  5
2B92
330
2B73
100
AcDbEntity
  8
0
  6
Continuous
 62
     7
100
AcDbLine
 10
93.01821354030002
 20
21.4145478991
 30
0.0
 11
93.01821354030002
 21
16.6612788158
 31
0.0
  0
LINE
  5
2B93
330
2B73
100
AcDbEntity
  8
0
  6
Continuous
 62
     7
100
AcDbLine
 10
93.01821354030002
 20
16.6612788158
 30
0.0
 11
96.5831653528
 21
16.6612788158
 31
0.0
  0
LINE
  5
2B94
330
2B73
100
AcDbEntity
  8
0
  6
Continuous
 62
     7
100
AcDbLine
 10
96.5831653528
 20
17.56439994169999
 30
0.0
 11
94.3966615745
 21
17.56439994169999
 31
0.0
  0
LINE
  5
2B95
330
2B73
100
AcDbEntity
  8
0
  6
Continuous
 62
     7
100
AcDbLine
 10
96.5831653528
 20
17.56439994169999
 30
0.0
 11
96.5831653528
 21
16.6612788158
 31
0.0
  0
LINE
  5
2B96
330
2B73
100
AcDbEntity
  8
0
  6
Continuous
 62
     7
100
AcDbLine
 10
96.53563266200002
 20
21.4145478991
 30
0.0
 11
93.01821354030002
 21
21.4145478991
 31
0.0
  0
LINE
  5
2B97
330
2B73
100
AcDbEntity
  8
0
  6
Continuous
 62
     7
100
AcDbLine
 10
96.53563266200002
 20
20.5351931187
 30
0.0
 11
94.3966615745
 21
20.5351931187
 31
0.0
  0
LINE
  5
2B98
330
2B73
100
AcDbEntity
  8
0
  6
Continuous
 62
     7
100
AcDbLine
 10
96.53563266200002
 20
21.4145478991
 30
0.0
 11
96.53563266200002
 21
20.5351931187
 31
0.0
  0
LINE
  5
2B99
330
2B73
100
AcDbEntity
  8
0
  6
Continuous
 62
     7
100
AcDbLine
 10
96.25043651700002
 20
18.68141817619999
 30
0.0
 11
94.3966615745
 21
18.68141817619999
 31
0.0
  0
LINE
  5
2B9A
330
2B73
100
AcDbEntity
  8
0
  6
Continuous
 62
     7
100
AcDbLine
 10
96.25043651700002
 20
19.46570757499999
 30
0.0
 11
96.25043651700002
 21
18.68141817619999
 31
0.0
  0
LINE
  5
2B9B
330
2B73
100
AcDbEntity
  8
0
  6
Continuous
 62
     7
100
AcDbLine
 10
96.25043651700002
 20
19.46570757499999
 30
0.0
 11
94.3966615745
 21
19.46570757499999
 31
0.0
  0
LINE
  5
2B9C
330
2B73
100
AcDbEntity
  8
0
  6
Continuous
 62
     7
100
AcDbLine
 10
94.3966615745
 20
20.5351931187
 30
0.0
 11
94.3966615745
 21
19.46570757499999
 31
0.0
  0
LINE
  5
2B9D
330
2B73
100
AcDbEntity
  8
0
  6
Continuous
 62
     7
100
AcDbLine
 10
94.3966615745
 20
18.68141817619999
 30
0.0
 11
94.3966615745
 21
17.56439994169999
 31
0.0
  0
LINE
  5
2B9E
330
2B73
100
AcDbEntity
  8
0
  6
Continuous
 62
     7
100
AcDbLine
 10
97.3674547515
 20
16.6612788158
 30
0.0
 11
97.3674547515
 21
21.4145478991
 31
0.0
  0
LINE
  5
2B9F
330
2B73
100
AcDbEntity
  8
0
  6
Continuous
 62
     7
100
AcDbLine
 10
101.5503315447999
 20
21.4145478991
 30
0.0
 11
101.5503315447999
 21
16.6612788158
 31
0.0
  0
LINE
  5
2BA0
330
2B73
100
AcDbEntity
  8
0
  6
Continuous
 62
     7
100
AcDbLine
 10
97.3674547515
 20
16.6612788158
 30
0.0
 11
98.3181085682
 21
16.6612788158
 31
0.0
  0
LINE
  5
2BA1
330
2B73
100
AcDbEntity
  8
0
  6
Continuous
 62
     7
100
AcDbLine
 10
101.5503315447999
 20
21.4145478991
 30
0.0
 11
100.5996777281999
 21
21.4145478991
 31
0.0
  0
LINE
  5
2BA2
330
2B73
100
AcDbEntity
  8
0
  6
Continuous
 62
     7
100
AcDbLine
 10
98.91226720360002
 20
21.4145478991
 30
0.0
 11
97.3674547515
 21
21.4145478991
 31
0.0
  0
LINE
  5
2BA3
330
2B73
100
AcDbEntity
  8
0
  6
Continuous
 62
     7
100
AcDbLine
 10
101.5503315447999
 20
16.6612788158
 30
0.0
 11
100.0292854381999
 21
16.6612788158
 31
0.0
  0
LINE
  5
2BA4
330
2B73
100
AcDbEntity
  8
0
  6
Continuous
 62
     7
100
AcDbLine
 10
100.0292854381999
 20
16.6612788158
 30
0.0
 11
98.3181085682
 21
19.7033710291
 31
0.0
  0
LINE
  5
2BA5
330
2B73
100
AcDbEntity
  8
0
  6
Continuous
 62
     7
100
AcDbLine
 10
98.91226720360002
 20
21.4145478991
 30
0.0
 11
100.5996777281999
 21
18.4675210675
 31
0.0
  0
LINE
  5
2BA6
330
2B73
100
AcDbEntity
  8
0
  6
Continuous
 62
     7
100
AcDbLine
 10
100.5996777281999
 20
21.4145478991
 30
0.0
 11
100.5996777281999
 21
18.4675210675
 31
0.0
  0
LINE
  5
2BA7
330
2B73
100
AcDbEntity
  8
0
  6
Continuous
 62
     7
100
AcDbLine
 10
98.3181085682
 20
16.6612788158
 30
0.0
 11
98.3181085682
 21
19.7033710291
 31
0.0
  0
LINE
  5
2BA8
330
2B73
100
AcDbEntity
  8
0
  6
Continuous
 62
     7
100
AcDbLine
 10
102.3583872889999
 20
16.75634419749999
 30
0.0
 11
102.3583872889999
 21
17.7069980142
 31
0.0
  0
LINE
  5
2BA9
330
2B73
100
AcDbEntity
  8
0
  6
Continuous
 62
     7
100
AcDbLine
 10
105.6856756473
 20
20.4163613916
 30
0.0
 11
105.6856756473
 21
21.36701520829995
 31
0.0
  0
ARC
  5
2BAA
330
2B73
100
AcDbEntity
  8
0
  6
Continuous
 62
     7
100
AcDbCircle
 10
104.063028414
 20
18.61843736089998
 30
0.0
 40
1.111619360599997
100
AcDbArc
 50
277.7099956934
 51
295.6884927745998
  0
ARC
  5
2BAB
330
2B73
100
AcDbEntity
  8
0
  6
Continuous
 62
     7
100
AcDbCircle
 10
104.3473383967
 20
17.8936115972
 30
0.0
 40
0.3401689265
100
AcDbArc
 50
305.503221255
 51
72.46528985229999
  0
ARC
  5
2BAC
330
2B73
100
AcDbEntity
  8
0
  6
Continuous
 62
     7
100
AcDbCircle
 10
103.7813445885999
 20
21.2953185068
 30
0.0
 40
4.756794641099999
100
AcDbArc
 50
252.5939200548001
 51
280.9816604255999
  0
ARC
  5
2BAD
330
2B73
100
AcDbEntity
  8
0
  6
Continuous
 62
     7
100
AcDbCircle
 10
104.2361799517
 20
18.6773047703
 30
0.0
 40
2.100726595299998
100
AcDbArc
 50
282.4058358519998
 51
311.8644433928
  0
ARC
  5
2BAE
330
2B73
100
AcDbEntity
  8
0
  6
Continuous
 62
     7
100
AcDbCircle
 10
103.9626156045999
 20
20.2856464918
 30
0.0
 40
0.3029626476
100
AcDbArc
 50
154.4400348282
 51
221.8201698800999
  0
ARC
  5
2BAF
330
2B73
100
AcDbEntity
  8
0
  6
Continuous
 62
     7
100
AcDbCircle
 10
104.0418367559
 20
20.2064253405
 30
0.0
 40
0.4103089737
100
AcDbArc
 50
102.8287828680998
 51
149.2259639003
  0
ARC
  5
2BB0
330
2B73
100
AcDbEntity
  8
0
  6
Continuous
 62
     7
100
AcDbCircle
 10
104.4588635915999
 20
18.46409001059998
 30
0.0
 40
2.201836557
100
AcDbArc
 50
84.0400061857
 51
103.3427657870999
  0
ARC
  5
2BB1
330
2B73
100
AcDbEntity
  8
0
  6
Continuous
 62
     7
100
AcDbCircle
 10
104.1178997669
 20
16.0467260867
 30
0.0
 40
4.642373736499997
100
AcDbArc
 50
70.2625858546
 51
82.95241863799999
  0
ARC
  5
2BB2
330
2B73
100
AcDbEntity
  8
0
  6
Continuous
 62
     7
100
AcDbCircle
 10
103.6038815646999
 20
20.7183489764
 30
0.0
 40
3.258755990899997
100
AcDbArc
 50
247.5300206145
 51
280.7579522143
  0
ARC
  5
2BB3
330
2B73
100
AcDbEntity
  8
0
  6
Continuous
 62
     7
100
AcDbCircle
 10
97.21891509270001
 20
2.4668290159
 30
0.0
 40
17.3316084133
100
AcDbArc
 50
65.34146746500001
 51
67.39977707359999
  0
ARC
  5
2BB4
330
2B73
100
AcDbEntity
  8
0
  6
Continuous
 62
     7
100
AcDbCircle
 10
108.0147774981
 20
28.259255379
 30
0.0
 40
10.6291642039
100
AcDbArc
 50
242.8620101252
 51
247.1042029186
  0
ARC
  5
2BB5
330
2B73
100
AcDbEntity
  8
0
  6
Continuous
 62
     7
100
AcDbCircle
 10
104.1598762715
 20
20.725323882
 30
0.0
 40
2.166291629199998
100
AcDbArc
 50
227.3119280793999
 51
242.7040315235
  0
ARC
  5
2BB6
330
2B73
100
AcDbEntity
  8
0
  6
Continuous
 62
     7
100
AcDbCircle
 10
103.5558454618999
 20
20.0196462412
 30
0.0
 40
1.238521734
100
AcDbArc
 50
194.7952194236
 51
225.7176549047
  0
ARC
  5
2BB7
330
2B73
100
AcDbEntity
  8
0
  6
Continuous
 62
     7
100
AcDbCircle
 10
103.6180035961
 20
20.05986621039999
 30
0.0
 40
1.309092072899999
100
AcDbArc
 50
164.1974860461
 51
195.8025139539
  0
ARC
  5
2BB8
330
2B73
100
AcDbEntity
  8
0
  6
Continuous
 62
     7
100
AcDbCircle
 10
104.1750273167
 20
19.1715990505
 30
0.0
 40
2.366924815299999
100
AcDbArc
 50
86.22180229280001
 51
120.4272602309
  0
ARC
  5
2BB9
330
2B73
100
AcDbEntity
  8
0
  6
Continuous
 62
     7
100
AcDbCircle
 10
103.9061705341999
 20
12.4754312294
 30
0.0
 40
9.0679051661
100
AcDbArc
 50
78.68270492259998
 51
87.3147599624
  0
ARC
  5
2BBA
330
2B73
100
AcDbEntity
  8
0
  6
Continuous
 62
     7
100
AcDbCircle
 10
103.4501013557999
 20
20.1673739729
 30
0.0
 40
1.119747444
100
AcDbArc
 50
142.8139179029998
 51
167.1522951416999
  0
ARC
  5
2BBB
330
2B73
100
AcDbEntity
  8
0
  6
Continuous
 62
     7
100
AcDbCircle
 10
103.7954106973999
 20
19.86079227619999
 30
0.0
 40
1.580546684499998
100
AcDbArc
 50
121.2140948535
 51
141.5254768286
  0
ARC
  5
2BBC
330
2B73
100
AcDbEntity
  8
0
  6
Continuous
 62
     7
100
AcDbCircle
 10
104.372585063
 20
20.6718496049
 30
0.0
 40
0.8661276051999998
100
AcDbArc
 50
222.7760387596
 51
239.0362434679
  0
ARC
  5
2BBD
330
2B73
100
AcDbEntity
  8
0
  6
Continuous
 62
     7
100
AcDbCircle
 10
101.8658754847
 20
13.3415774063
 30
0.0
 40
6.858773576299999
100
AcDbArc
 50
59.90202725600001
 51
68.2036481279
  0
ARC
  5
2BBE
330
2B73
100
AcDbEntity
  8
0
  6
Continuous
 62
     7
100
AcDbCircle
 10
105.2743699785
 20
22.26746391349998
 30
0.0
 40
2.698741017099999
100
AcDbArc
 50
240.0481997804
 51
251.3779673736999
  0
ARC
  5
2BBF
330
2B73
100
AcDbEntity
  8
0
  6
Continuous
 62
     7
100
AcDbCircle
 10
104.6089128116999
 20
18.1105652982
 30
0.0
 40
1.4334474881
100
AcDbArc
 50
315.8904553224
 51
333.5229264372998
  0
ARC
  5
2BC0
330
2B73
100
AcDbEntity
  8
0
  6
Continuous
 62
     7
100
AcDbCircle
 10
104.6135510555
 20
18.057158148
 30
0.0
 40
1.406228711899998
100
AcDbArc
 50
335.3867972702
 51
24.3915119402
  0
ARC
  5
2BC1
330
2B73
100
AcDbEntity
  8
0
  6
Continuous
 62
     7
100
AcDbCircle
 10
104.5413461519
 20
17.97930145619999
 30
0.0
 40
1.504702514799999
100
AcDbArc
 50
25.95629166050001
 51
59.4834829668
  0
LINE
  5
2BC2
330
2B73
100
AcDbEntity
  8
0
  6
Continuous
 62
     7
100
AcDbLine
 10
74.7656602606
 20
16.75634419749999
 30
0.0
 11
74.7656602606
 21
17.7069980142
 31
0.0
  0
LINE
  5
2BC3
330
2B73
100
AcDbEntity
  8
0
  6
Continuous
 62
     7
100
AcDbLine
 10
78.09294861879997
 20
20.4163613916
 30
0.0
 11
78.09294861879997
 21
21.36701520829995
 31
0.0
  0
ARC
  5
2BC4
330
2B73
100
AcDbEntity
  8
0
  6
Continuous
 62
     7
100
AcDbCircle
 10
76.4703013855
 20
18.61843736089998
 30
0.0
 40
1.111619360599997
100
AcDbArc
 50
277.7099956934
 51
295.6884927745998
  0
ARC
  5
2BC5
330
2B73
100
AcDbEntity
  8
0
  6
Continuous
 62
     7
100
AcDbCircle
 10
76.7546113683
 20
17.8936115972
 30
0.0
 40
0.3401689265
100
AcDbArc
 50
305.5032212556
 51
72.4652898515
  0
ARC
  5
2BC6
330
2B73
100
AcDbEntity
  8
0
  6
Continuous
 62
     7
100
AcDbCircle
 10
76.1886175602
 20
21.2953185068
 30
0.0
 40
4.756794641099999
100
AcDbArc
 50
252.5939200545
 51
280.9816604253
  0
ARC
  5
2BC7
330
2B73
100
AcDbEntity
  8
0
  6
Continuous
 62
     7
100
AcDbCircle
 10
76.64345292330001
 20
18.6773047703
 30
0.0
 40
2.100726595299998
100
AcDbArc
 50
282.4058358513
 51
311.8644433923
  0
ARC
  5
2BC8
330
2B73
100
AcDbEntity
  8
0
  6
Continuous
 62
     7
100
AcDbCircle
 10
76.3698885762
 20
20.2856464918
 30
0.0
 40
0.3029626476
100
AcDbArc
 50
154.4400348282
 51
221.8201698800999
  0
ARC
  5
2BC9
330
2B73
100
AcDbEntity
  8
0
  6
Continuous
 62
     7
100
AcDbCircle
 10
76.4491097276
 20
20.2064253405
 30
0.0
 40
0.4103089737
100
AcDbArc
 50
102.8287828727
 51
149.2259639027
  0
ARC
  5
2BCA
330
2B73
100
AcDbEntity
  8
0
  6
Continuous
 62
     7
100
AcDbCircle
 10
76.8661365632
 20
18.46409001059998
 30
0.0
 40
2.201836557
100
AcDbArc
 50
84.0400061859
 51
103.3427657871998
  0
ARC
  5
2BCB
330
2B73
100
AcDbEntity
  8
0
  6
Continuous
 62
     7
100
AcDbCircle
 10
76.5251727384
 20
16.0467260867
 30
0.0
 40
4.642373736499997
100
AcDbArc
 50
70.2625858546
 51
82.9524186379
  0
ARC
  5
2BCC
330
2B73
100
AcDbEntity
  8
0
  6
Continuous
 62
     7
100
AcDbCircle
 10
76.0111545363
 20
20.7183489764
 30
0.0
 40
3.258755990899997
100
AcDbArc
 50
247.5300206148
 51
280.7579522145
  0
ARC
  5
2BCD
330
2B73
100
AcDbEntity
  8
0
  6
Continuous
 62
     7
100
AcDbCircle
 10
69.6261880643
 20
2.4668290159
 30
0.0
 40
17.3316084133
100
AcDbArc
 50
65.34146746500001
 51
67.39977707359999
  0
ARC
  5
2BCE
330
2B73
100
AcDbEntity
  8
0
  6
Continuous
 62
     7
100
AcDbCircle
 10
80.4220504697
 20
28.259255379
 30
0.0
 40
10.6291642039
100
AcDbArc
 50
242.8620101252
 51
247.1042029184999
  0
ARC
  5
2BCF
330
2B73
100
AcDbEntity
  8
0
  6
Continuous
 62
     7
100
AcDbCircle
 10
76.56714924310001
 20
20.725323882
 30
0.0
 40
2.166291629199998
100
AcDbArc
 50
227.3119280793999
 51
242.7040315235
  0
ARC
  5
2BD0
330
2B73
100
AcDbEntity
  8
0
  6
Continuous
 62
     7
100
AcDbCircle
 10
75.9631184335
 20
20.0196462412
 30
0.0
 40
1.238521734
100
AcDbArc
 50
194.7952194234
 51
225.7176549041999
  0
ARC
  5
2BD1
330
2B73
100
AcDbEntity
  8
0
  6
Continuous
 62
     7
100
AcDbCircle
 10
76.58230028830002
 20
19.1715990505
 30
0.0
 40
2.366924815299999
100
AcDbArc
 50
86.22180229280001
 51
120.4272602309
  0
ARC
  5
2BD2
330
2B73
100
AcDbEntity
  8
0
  6
Continuous
 62
     7
100
AcDbCircle
 10
76.3134435058
 20
12.4754312294
 30
0.0
 40
9.0679051661
100
AcDbArc
 50
78.68270492259998
 51
87.3147599624
  0
ARC
  5
2BD3
330
2B73
100
AcDbEntity
  8
0
  6
Continuous
 62
     7
100
AcDbCircle
 10
76.20268366899998
 20
19.86079227619999
 30
0.0
 40
1.580546684599998
100
AcDbArc
 50
121.2140948540999
 51
141.5254768289998
  0
ARC
  5
2BD4
330
2B73
100
AcDbEntity
  8
0
  6
Continuous
 62
     7
100
AcDbCircle
 10
76.7798580346
 20
20.6718496049
 30
0.0
 40
0.8661276051999998
100
AcDbArc
 50
222.7760387596
 51
239.0362434679
  0
ARC
  5
2BD5
330
2B73
100
AcDbEntity
  8
0
  6
Continuous
 62
     7
100
AcDbCircle
 10
74.2731484563
 20
13.3415774063
 30
0.0
 40
6.858773576299999
100
AcDbArc
 50
59.90202725620001
 51
68.20364812820002
  0
ARC
  5
2BD6
330
2B73
100
AcDbEntity
  8
0
  6
Continuous
 62
     7
100
AcDbCircle
 10
77.6816429501
 20
22.26746391349998
 30
0.0
 40
2.698741017099999
100
AcDbArc
 50
240.0481997804
 51
251.3779673734
  0
ARC
  5
2BD7
330
2B73
100
AcDbEntity
  8
0
  6
Continuous
 62
     7
100
AcDbCircle
 10
77.0161857833
 20
18.1105652982
 30
0.0
 40
1.4334474881
100
AcDbArc
 50
315.8904553225998
 51
333.5229264375
  0
ARC
  5
2BD8
330
2B73
100
AcDbEntity
  8
0
  6
Continuous
 62
     7
100
AcDbCircle
 10
77.020824027
 20
18.057158148
 30
0.0
 40
1.406228711899998
100
AcDbArc
 50
335.3867972703
 51
24.3915119403
  0
ARC
  5
2BD9
330
2B73
100
AcDbEntity
  8
0
  6
Continuous
 62
     7
100
AcDbCircle
 10
76.94861912350001
 20
17.97930145619999
 30
0.0
 40
1.504702514699999
100
AcDbArc
 50
25.9562916611
 51
59.4834829676
  0
LINE
  5
2BDA
330
2B73
100
AcDbEntity
  8
0
  6
Continuous
 62
     7
100
AcDbLine
 10
74.9574888499
 20
20.8337423583
 30
0.0
 11
75.2315546745
 21
21.10781543579999
 31
0.0
  0
ARC
  5
2BDB
330
2B73
100
AcDbEntity
  8
0
  6
Continuous
 62
     7
100
AcDbCircle
 10
76.0252765676
 20
20.05986621039999
 30
0.0
 40
1.309092072899999
100
AcDbArc
 50
164.1974860461
 51
195.8025139539
  0
ARC
  5
2BDC
330
2B73
100
AcDbEntity
  8
0
  6
Continuous
 62
     7
100
AcDbCircle
 10
75.8573743274
 20
20.1673739729
 30
0.0
 40
1.119747444
100
AcDbArc
 50
142.8139179029998
 51
167.1522951416999
  0
ENDBLK
  5
2BDD
330
2B73
100
AcDbEntity
  8
0
100
AcDbBlockEnd
  0
BLOCK
  5
614E5
330
614DB
100
AcDbEntity
  8
0
 62
     6
100
AcDbBlockBegin
  2
*D2
 70
     1
 10
0.0
 20
0.0
 30
0.0
  3
*D2
  1

  0
LINE
  5
61686
330
614DB
100
AcDbEntity
  8
10100_Front_Dim
  6
Continuous
370
    -2
100
AcDbLine
 10
148.8819166782366
 20
185.0905767451877
 30
0.0
 11
148.8819166782366
 21
135.0988842854695
 31
0.0
  0
LINE
  5
61687
330
614DB
100
AcDbEntity
  8
10100_Front_Dim
  6
Continuous
370
    -2
100
AcDbLine
 10
157.4819166782366
 20
185.0905767451877
 30
0.0
 11
157.4819166782366
 21
135.0988842854695
 31
0.0
  0
LINE
  5
61688
330
614DB
100
AcDbEntity
  8
10100_Front_Dim
  6
Continuous
370
    -2
100
AcDbLine
 10
151.3819166782366
 20
137.0988842854695
 30
0.0
 11
154.9819166782366
 21
137.0988842854695
 31
0.0
  0
MTEXT
  5
61689
330
614DB
100
AcDbEntity
  8
10100_Front_Dim
  6
Continuous
 62
     7
370
    13
100
AcDbMText
 10
153.4653835756176
 20
130.908260228654
 30
0.0
 40
5.0
 41
0.0
 71
     5
 72
     1
  1
\A1;9
 73
     1
 44
1.0
  0
SOLID
  5
6168A
330
614DB
100
AcDbEntity
  8
10100_Front_Dim
  6
Continuous
100
AcDbTrace
 10
151.3819166782366
 20
137.5155509521362
 30
0.0
 11
151.3819166782366
 21
136.6822176188029
 31
0.0
 12
148.8819166782366
 22
137.0988842854695
 32
0.0
 13
148.8819166782366
 23
137.0988842854695
 33
0.0
  0
SOLID
  5
6168B
330
614DB
100
AcDbEntity
  8
10100_Front_Dim
  6
Continuous
100
AcDbTrace
 10
154.9819166782366
 20
137.5155509521362
 30
0.0
 11
154.9819166782366
 21
136.6822176188029
 31
0.0
 12
157.4819166782366
 22
137.0988842854695
 32
0.0
 13
157.4819166782366
 23
137.0988842854695
 33
0.0
  0
POINT
  5
6168C
330
614DB
100
AcDbEntity
  8
Defpoints
  6
Continuous
 62
     0
100
AcDbPoint
 10
148.8819166782366
 20
185.0905767451877
 30
0.0
  0
POINT
  5
6168D
330
614DB
100
AcDbEntity
  8
Defpoints
  6
Continuous
 62
     0
100
AcDbPoint
 10
157.4819166782366
 20
185.0905767451877
 30
0.0
  0
POINT
  5
6168E
330
614DB
100
AcDbEntity
  8
Defpoints
  6
Continuous
 62
     0
100
AcDbPoint
 10
157.4819166782366
 20
137.0988842854695
 30
0.0
  0
ENDBLK
  5
614E6
330
614DB
100
AcDbEntity
  8
0
 62
     6
100
AcDbBlockEnd
  0
BLOCK
  5
614FF
330
614F3
100
AcDbEntity
  8
0
 62
     6
100
AcDbBlockBegin
  2
*D3
 70
     1
 10
0.0
 20
0.0
 30
0.0
  3
*D3
  1

  0
LINE
  5
6168F
330
614F3
100
AcDbEntity
  8
10100_Front_Dim
  6
Continuous
370
    -2
100
AcDbLine
 10
151.0319166782366
 20
184.3405767451877
 30
0.0
 11
151.0319166782366
 21
147.9182852531508
 31
0.0
  0
LINE
  5
61690
330
614F3
100
AcDbEntity
  8
10100_Front_Dim
  6
Continuous
370
    -2
100
AcDbLine
 10
155.3319166782366
 20
184.3405767451877
 30
0.0
 11
155.3319166782366
 21
147.9182852531508
 31
0.0
  0
LINE
  5
61691
330
614F3
100
AcDbEntity
  8
10100_Front_Dim
  6
Continuous
370
    -2
100
AcDbLine
 10
148.5319166782366
 20
149.9182852531508
 30
0.0
 11
146.0319166782366
 21
149.9182852531508
 31
0.0
  0
LINE
  5
61692
330
614F3
100
AcDbEntity
  8
10100_Front_Dim
  6
Continuous
370
    -2
100
AcDbLine
 10
157.8319166782366
 20
149.9182852531508
 30
0.0
 11
160.3319166782366
 21
149.9182852531508
 31
0.0
  0
MTEXT
  5
61693
330
614F3
100
AcDbEntity
  8
10100_Front_Dim
  6
Continuous
 62
     7
370
    13
100
AcDbMText
 10
153.4653835756176
 20
144.4800125174088
 30
0.0
 40
5.0
 41
0.0
 71
     5
 72
     1
  1
\A1;4
 73
     1
 44
1.0
  0
LINE
  5
61694
330
614F3
100
AcDbEntity
  8
10100_Front_Dim
  6
Continuous
370
    -2
100
AcDbLine
 10
151.0319166782366
 20
149.9182852531508
 30
0.0
 11
155.3319166782366
 21
149.9182852531508
 31
0.0
  0
SOLID
  5
61695
330
614F3
100
AcDbEntity
  8
10100_Front_Dim
  6
Continuous
100
AcDbTrace
 10
148.5319166782366
 20
150.3349519198174
 30
0.0
 11
148.5319166782366
 21
149.5016185864841
 31
0.0
 12
151.0319166782366
 22
149.9182852531508
 32
0.0
 13
151.0319166782366
 23
149.9182852531508
 33
0.0
  0
SOLID
  5
61696
330
614F3
100
AcDbEntity
  8
10100_Front_Dim
  6
Continuous
100
AcDbTrace
 10
157.8319166782366
 20
150.3349519198174
 30
0.0
 11
157.8319166782366
 21
149.5016185864841
 31
0.0
 12
155.3319166782366
 22
149.9182852531508
 32
0.0
 13
155.3319166782366
 23
149.9182852531508
 33
0.0
  0
POINT
  5
61697
330
614F3
100
AcDbEntity
  8
Defpoints
  6
Continuous
 62
     0
100
AcDbPoint
 10
151.0319166782366
 20
184.3405767451877
 30
0.0
  0
POINT
  5
61698
330
614F3
100
AcDbEntity
  8
Defpoints
  6
Continuous
 62
     0
100
AcDbPoint
 10
155.3319166782366
 20
184.3405767451877
 30
0.0
  0
POINT
  5
61699
330
614F3
100
AcDbEntity
  8
Defpoints
  6
Continuous
 62
     0
100
AcDbPoint
 10
155.3319166782366
 20
149.9182852531508
 30
0.0
  0
ENDBLK
  5
61500
330
614F3
100
AcDbEntity
  8
0
 62
     6
100
AcDbBlockEnd
  0
BLOCK
  5
6151B
330
6150F
100
AcDbEntity
  8
0
 62
     6
100
AcDbBlockBegin
  2
*D4
 70
     1
 10
0.0
 20
0.0
 30
0.0
  3
*D4
  1

  0
LINE
  5
616A4
330
6150F
100
AcDbEntity
  8
10100_Front_Dim
  6
Continuous
370
    -2
100
AcDbLine
 10
151.8944115517881
 20
216.3405826775806
 30
0.0
 11
151.8944115517881
 21
224.0047354973688
 31
0.0
  0
LINE
  5
616A5
330
6150F
100
AcDbEntity
  8
10100_Front_Dim
  6
Continuous
370
    -2
100
AcDbLine
 10
154.469421756702
 20
216.3405827899366
 30
0.0
 11
154.469421756702
 21
224.0047354973688
 31
0.0
  0
LINE
  5
616A6
330
6150F
100
AcDbEntity
  8
10100_Front_Dim
  6
Continuous
370
    -2
100
AcDbLine
 10
149.3944115517881
 20
222.0047354973688
 30
0.0
 11
146.8944115517881
 21
222.0047354973688
 31
0.0
  0
LINE
  5
616A7
330
6150F
100
AcDbEntity
  8
10100_Front_Dim
  6
Continuous
370
    -2
100
AcDbLine
 10
156.969421756702
 20
222.0047354973688
 30
0.0
 11
159.469421756702
 21
222.0047354973688
 31
0.0
  0
MTEXT
  5
616A8
330
6150F
100
AcDbEntity
  8
10100_Front_Dim
  6
Continuous
 62
     7
370
    13
100
AcDbMText
 10
153.181916654245
 20
228.0047354973688
 30
0.0
 40
5.0
 41
0.0
 71
     5
 72
     1
  1
\A1;3
 73
     1
 44
1.0
  0
LINE
  5
616A9
330
6150F
100
AcDbEntity
  8
10100_Front_Dim
  6
Continuous
370
    -2
100
AcDbLine
 10
151.8944115517881
 20
222.0047354973688
 30
0.0
 11
154.469421756702
 21
222.0047354973688
 31
0.0
  0
SOLID
  5
616AA
330
6150F
100
AcDbEntity
  8
10100_Front_Dim
  6
Continuous
100
AcDbTrace
 10
149.3944115517881
 20
222.4214021640355
 30
0.0
 11
149.3944115517881
 21
221.5880688307022
 31
0.0
 12
151.8944115517881
 22
222.0047354973688
 32
0.0
 13
151.8944115517881
 23
222.0047354973688
 33
0.0
  0
SOLID
  5
616AB
330
6150F
100
AcDbEntity
  8
10100_Front_Dim
  6
Continuous
100
AcDbTrace
 10
156.969421756702
 20
222.4214021640355
 30
0.0
 11
156.969421756702
 21
221.5880688307022
 31
0.0
 12
154.469421756702
 22
222.0047354973688
 32
0.0
 13
154.469421756702
 23
222.0047354973688
 33
0.0
  0
POINT
  5
616AC
330
6150F
100
AcDbEntity
  8
Defpoints
  6
Continuous
 62
     0
100
AcDbPoint
 10
151.8944115517881
 20
216.3405826775806
 30
0.0
  0
POINT
  5
616AD
330
6150F
100
AcDbEntity
  8
Defpoints
  6
Continuous
 62
     0
100
AcDbPoint
 10
154.469421756702
 20
216.3405827899366
 30
0.0
  0
POINT
  5
616AE
330
6150F
100
AcDbEntity
  8
Defpoints
  6
Continuous
 62
     0
100
AcDbPoint
 10
154.469421756702
 20
222.0047354973688
 30
0.0
  0
ENDBLK
  5
6151C
330
6150F
100
AcDbEntity
  8
0
 62
     6
100
AcDbBlockEnd
  0
BLOCK
  5
61535
330
6152B
100
AcDbEntity
  8
0
 62
     6
100
AcDbBlockBegin
  2
*D5
 70
     1
 10
0.0
 20
0.0
 30
0.0
  3
*D5
  1

  0
LINE
  5
6169A
330
6152B
100
AcDbEntity
  8
10100_Front_Dim
  6
Continuous
370
    -2
100
AcDbLine
 10
156.6819106782366
 20
216.3405867451878
 30
0.0
 11
168.0657860365887
 21
216.3405867451878
 31
0.0
  0
LINE
  5
6169B
330
6152B
100
AcDbEntity
  8
10100_Front_Dim
  6
Continuous
370
    -2
100
AcDbLine
 10
156.7319166782366
 20
184.3405767451877
 30
0.0
 11
168.0657860365887
 21
184.3405767451877
 31
0.0
  0
LINE
  5
6169C
330
6152B
100
AcDbEntity
  8
10100_Front_Dim
  6
Continuous
370
    -2
100
AcDbLine
 10
166.0657860365887
 20
213.8405867451878
 30
0.0
 11
166.0657860365887
 21
205.5072484118544
 31
0.0
  0
LINE
  5
6169D
330
6152B
100
AcDbEntity
  8
10100_Front_Dim
  6
Continuous
370
    -2
100
AcDbLine
 10
166.0657860365887
 20
186.8405767451877
 30
0.0
 11
166.0657860365887
 21
195.1739150785211
 31
0.0
  0
SOLID
  5
6169E
330
6152B
100
AcDbEntity
  8
10100_Front_Dim
  6
Continuous
100
AcDbTrace
 10
165.6491193699221
 20
213.8405867451878
 30
0.0
 11
166.4824527032554
 21
213.8405867451878
 31
0.0
 12
166.0657860365887
 22
216.3405867451878
 32
0.0
 13
166.0657860365887
 23
216.3405867451878
 33
0.0
  0
SOLID
  5
6169F
330
6152B
100
AcDbEntity
  8
10100_Front_Dim
  6
Continuous
100
AcDbTrace
 10
165.6491193699221
 20
186.8405767451877
 30
0.0
 11
166.4824527032554
 21
186.8405767451877
 31
0.0
 12
166.0657860365887
 22
184.3405767451877
 32
0.0
 13
166.0657860365887
 23
184.3405767451877
 33
0.0
  0
MTEXT
  5
616A0
330
6152B
100
AcDbEntity
  8
10100_Front_Dim
  6
Continuous
 62
     7
370
    13
100
AcDbMText
 10
166.0657860365887
 20
200.3405817451878
 30
0.0
 40
5.0
 41
0.0
 71
     5
 72
     1
  1
\A1;32
 11
0.0000000000000001
 21
1.0
 31
0.0
 73
     1
 44
1.0
  0
POINT
  5
616A1
330
6152B
100
AcDbEntity
  8
Defpoints
  6
Continuous
 62
     0
100
AcDbPoint
 10
156.6819106782366
 20
216.3405867451878
 30
0.0
  0
POINT
  5
616A2
330
6152B
100
AcDbEntity
  8
Defpoints
  6
Continuous
 62
     0
100
AcDbPoint
 10
156.7319166782366
 20
184.3405767451877
 30
0.0
  0
POINT
  5
616A3
330
6152B
100
AcDbEntity
  8
Defpoints
  6
Continuous
 62
     0
100
AcDbPoint
 10
166.0657860365887
 20
184.3405767451877
 30
0.0
  0
ENDBLK
  5
61536
330
6152B
100
AcDbEntity
  8
0
 62
     6
100
AcDbBlockEnd
  0
BLOCK
  5
6154D
330
61543
100
AcDbEntity
  8
0
 62
     6
100
AcDbBlockBegin
  2
*D6
 70
     1
 10
0.0
 20
0.0
 30
0.0
  3
*D6
  1

  0
LINE
  5
616E5
330
61543
100
AcDbEntity
  8
11100_Left_Dim
  6
Continuous
370
    -2
100
AcDbLine
 10
189.363626450423
 20
185.0905767451877
 30
0.0
 11
189.363626450423
 21
134.4267401519402
 31
0.0
  0
LINE
  5
616E6
330
61543
100
AcDbEntity
  8
11100_Left_Dim
  6
Continuous
370
    -2
100
AcDbLine
 10
217.363626450423
 20
185.0905767451877
 30
0.0
 11
217.363626450423
 21
134.4267401519402
 31
0.0
  0
LINE
  5
616E7
330
61543
100
AcDbEntity
  8
11100_Left_Dim
  6
Continuous
370
    -2
100
AcDbLine
 10
191.863626450423
 20
136.4267401519402
 30
0.0
 11
198.1969597837563
 21
136.4267401519402
 31
0.0
  0
LINE
  5
616E8
330
61543
100
AcDbEntity
  8
11100_Left_Dim
  6
Continuous
370
    -2
100
AcDbLine
 10
214.863626450423
 20
136.4267401519402
 30
0.0
 11
208.5302931170896
 21
136.4267401519402
 31
0.0
  0
SOLID
  5
616E9
330
61543
100
AcDbEntity
  8
11100_Left_Dim
  6
Continuous
100
AcDbTrace
 10
191.863626450423
 20
136.8434068186069
 30
0.0
 11
191.863626450423
 21
136.0100734852736
 31
0.0
 12
189.363626450423
 22
136.4267401519402
 32
0.0
 13
189.363626450423
 23
136.4267401519402
 33
0.0
  0
SOLID
  5
616EA
330
61543
100
AcDbEntity
  8
11100_Left_Dim
  6
Continuous
100
AcDbTrace
 10
214.863626450423
 20
136.8434068186069
 30
0.0
 11
214.863626450423
 21
136.0100734852736
 31
0.0
 12
217.363626450423
 22
136.4267401519402
 32
0.0
 13
217.363626450423
 23
136.4267401519402
 33
0.0
  0
MTEXT
  5
616EB
330
61543
100
AcDbEntity
  8
11100_Left_Dim
  6
Continuous
 62
     7
370
    13
100
AcDbMText
 10
203.363626450423
 20
136.4267401519402
 30
0.0
 40
5.0
 41
0.0
 71
     5
 72
     1
  1
\A1;28
 73
     1
 44
1.0
  0
POINT
  5
616EC
330
61543
100
AcDbEntity
  8
Defpoints
  6
Continuous
 62
     0
100
AcDbPoint
 10
189.363626450423
 20
185.0905767451877
 30
0.0
  0
POINT
  5
616ED
330
61543
100
AcDbEntity
  8
Defpoints
  6
Continuous
 62
     0
100
AcDbPoint
 10
217.363626450423
 20
185.0905767451877
 30
0.0
  0
POINT
  5
616EE
330
61543
100
AcDbEntity
  8
Defpoints
  6
Continuous
 62
     0
100
AcDbPoint
 10
217.363626450423
 20
136.4267401519402
 30
0.0
  0
ENDBLK
  5
6154E
330
61543
100
AcDbEntity
  8
0
 62
     6
100
AcDbBlockEnd
  0
BLOCK
  5
61566
330
6155C
100
AcDbEntity
  8
0
 62
     6
100
AcDbBlockBegin
  2
*D7
 70
     1
 10
0.0
 20
0.0
 30
0.0
  3
*D7
  1

  0
LINE
  5
616DB
330
6155C
100
AcDbEntity
  8
11100_Left_Dim
  6
Continuous
370
    -2
100
AcDbLine
 10
194.388626450423
 20
160.5405767451877
 30
0.0
 11
194.388626450423
 21
141.7870930274306
 31
0.0
  0
LINE
  5
616DC
330
6155C
100
AcDbEntity
  8
11100_Left_Dim
  6
Continuous
370
    -2
100
AcDbLine
 10
212.388626450423
 20
160.5405767451877
 30
0.0
 11
212.388626450423
 21
141.7870930274306
 31
0.0
  0
LINE
  5
616DD
330
6155C
100
AcDbEntity
  8
11100_Left_Dim
  6
Continuous
370
    -2
100
AcDbLine
 10
196.8886264504229
 20
143.7870930274306
 30
0.0
 11
199.0552931170896
 21
143.7870930274306
 31
0.0
  0
LINE
  5
616DE
330
6155C
100
AcDbEntity
  8
11100_Left_Dim
  6
Continuous
370
    -2
100
AcDbLine
 10
209.8886264504229
 20
143.7870930274306
 30
0.0
 11
207.7219597837563
 21
143.7870930274306
 31
0.0
  0
SOLID
  5
616DF
330
6155C
100
AcDbEntity
  8
11100_Left_Dim
  6
Continuous
100
AcDbTrace
 10
196.8886264504229
 20
144.2037596940972
 30
0.0
 11
196.8886264504229
 21
143.3704263607639
 31
0.0
 12
194.388626450423
 22
143.7870930274306
 32
0.0
 13
194.388626450423
 23
143.7870930274306
 33
0.0
  0
SOLID
  5
616E0
330
6155C
100
AcDbEntity
  8
11100_Left_Dim
  6
Continuous
100
AcDbTrace
 10
209.8886264504229
 20
144.2037596940972
 30
0.0
 11
209.8886264504229
 21
143.3704263607639
 31
0.0
 12
212.388626450423
 22
143.7870930274306
 32
0.0
 13
212.388626450423
 23
143.7870930274306
 33
0.0
  0
MTEXT
  5
616E1
330
6155C
100
AcDbEntity
  8
11100_Left_Dim
  6
Continuous
 62
     7
370
    13
100
AcDbMText
 10
203.3886264504229
 20
143.7870930274306
 30
0.0
 40
5.0
 41
0.0
 71
     5
 72
     1
  1
\A1;18
 73
     1
 44
1.0
  0
POINT
  5
616E2
330
6155C
100
AcDbEntity
  8
Defpoints
  6
Continuous
 62
     0
100
AcDbPoint
 10
194.388626450423
 20
160.5405767451877
 30
0.0
  0
POINT
  5
616E3
330
6155C
100
AcDbEntity
  8
Defpoints
  6
Continuous
 62
     0
100
AcDbPoint
 10
212.388626450423
 20
160.5405767451877
 30
0.0
  0
POINT
  5
616E4
330
6155C
100
AcDbEntity
  8
Defpoints
  6
Continuous
 62
     0
100
AcDbPoint
 10
212.388626450423
 20
143.7870930274306
 30
0.0
  0
ENDBLK
  5
61567
330
6155C
100
AcDbEntity
  8
0
 62
     6
100
AcDbBlockEnd
  0
BLOCK
  5
61590
330
61586
100
AcDbEntity
  8
0
 62
     6
100
AcDbBlockBegin
  2
*D8
 70
     1
 10
0.0
 20
0.0
 30
0.0
  3
*D8
  1

  0
LINE
  5
616CF
330
61586
100
AcDbEntity
  8
11100_Left_Dim
  6
Continuous
370
    -2
100
AcDbLine
 10
197.538626450423
 20
182.6405767451878
 30
0.0
 11
197.538626450423
 21
149.8834814720106
 31
0.0
  0
LINE
  5
616D0
330
61586
100
AcDbEntity
  8
11100_Left_Dim
  6
Continuous
370
    -2
100
AcDbLine
 10
209.688626450423
 20
182.6405767451878
 30
0.0
 11
209.688626450423
 21
149.8834814720106
 31
0.0
  0
LINE
  5
616D1
330
61586
100
AcDbEntity
  8
11100_Left_Dim
  6
Continuous
370
    -2
100
AcDbLine
 10
195.038626450423
 20
151.8834814720106
 30
0.0
 11
192.538626450423
 21
151.8834814720106
 31
0.0
  0
LINE
  5
616D2
330
61586
100
AcDbEntity
  8
11100_Left_Dim
  6
Continuous
370
    -2
100
AcDbLine
 10
212.188626450423
 20
151.8834814720106
 30
0.0
 11
214.688626450423
 21
151.8834814720106
 31
0.0
  0
LINE
  5
616D3
330
61586
100
AcDbEntity
  8
11100_Left_Dim
  6
Continuous
370
    -2
100
AcDbLine
 10
197.538626450423
 20
151.8834814720106
 30
0.0
 11
199.2802931170896
 21
151.8834814720106
 31
0.0
  0
LINE
  5
616D4
330
61586
100
AcDbEntity
  8
11100_Left_Dim
  6
Continuous
370
    -2
100
AcDbLine
 10
209.688626450423
 20
151.8834814720106
 30
0.0
 11
207.9469597837563
 21
151.8834814720106
 31
0.0
  0
SOLID
  5
616D5
330
61586
100
AcDbEntity
  8
11100_Left_Dim
  6
Continuous
100
AcDbTrace
 10
195.038626450423
 20
152.3001481386773
 30
0.0
 11
195.038626450423
 21
151.466814805344
 31
0.0
 12
197.538626450423
 22
151.8834814720106
 32
0.0
 13
197.538626450423
 23
151.8834814720106
 33
0.0
  0
SOLID
  5
616D6
330
61586
100
AcDbEntity
  8
11100_Left_Dim
  6
Continuous
100
AcDbTrace
 10
212.188626450423
 20
152.3001481386773
 30
0.0
 11
212.188626450423
 21
151.466814805344
 31
0.0
 12
209.688626450423
 22
151.8834814720106
 32
0.0
 13
209.688626450423
 23
151.8834814720106
 33
0.0
  0
MTEXT
  5
616D7
330
61586
100
AcDbEntity
  8
11100_Left_Dim
  6
Continuous
 62
     7
370
    13
100
AcDbMText
 10
203.613626450423
 20
151.8834814720106
 30
0.0
 40
5.0
 41
0.0
 71
     5
 72
     1
  1
\A1;12
 73
     1
 44
1.0
  0
POINT
  5
616D8
330
61586
100
AcDbEntity
  8
Defpoints
  6
Continuous
 62
     0
100
AcDbPoint
 10
197.538626450423
 20
182.6405767451878
 30
0.0
  0
POINT
  5
616D9
330
61586
100
AcDbEntity
  8
Defpoints
  6
Continuous
 62
     0
100
AcDbPoint
 10
209.688626450423
 20
182.6405767451878
 30
0.0
  0
POINT
  5
616DA
330
61586
100
AcDbEntity
  8
Defpoints
  6
Continuous
 62
     0
100
AcDbPoint
 10
209.688626450423
 20
151.8834814720106
 30
0.0
  0
ENDBLK
  5
61591
330
61586
100
AcDbEntity
  8
0
 62
     6
100
AcDbBlockEnd
  0
ENDSEC
  0
SECTION
  2
ENTITIES
  0
LINE
  5
2BFE
330
1F
100
AcDbEntity
  8
90000_FRAME
  6
Continuous
 62
     7
100
AcDbLine
 10
316.4444837220524
 20
283.6397225845828
 30
0.0
 11
46.44448372205238
 21
283.6397225845828
 31
0.0
  0
INSERT
  5
2BFF
330
1F
100
AcDbEntity
  8
90000_FRAME
  6
Continuous
 62
     7
100
AcDbBlockReference
  2
SIEMENS_OUTLINE_BL0
 10
109.0903811059734
 20
78.3014633569795
 30
0.0
  0
LINE
  5
2C00
330
1F
100
AcDbEntity
  8
90000_FRAME
  6
Continuous
 62
     7
100
AcDbLine
 10
176.4444837220525
 20
88.6397225845828
 30
0.0
 11
311.4444837220523
 21
88.6397225845828
 31
0.0
  0
LINE
  5
2C01
330
1F
100
AcDbEntity
  8
90000_FRAME
  6
Continuous
 62
     7
100
AcDbLine
 10
176.4444837220525
 20
88.6397225845828
 30
0.0
 11
176.4444837220525
 21
106.6397225845828
 31
0.0
  0
LINE
  5
2C02
330
1F
100
AcDbEntity
  8
90000_FRAME
  6
Continuous
 62
     7
100
AcDbLine
 10
226.4444837220524
 20
94.63972258458278
 30
0.0
 11
311.4444837220523
 21
94.63972258458278
 31
0.0
  0
LINE
  5
2C03
330
1F
100
AcDbEntity
  8
90000_FRAME
  6
Continuous
 62
     7
100
AcDbLine
 10
176.4444837220525
 20
106.6397225845828
 30
0.0
 11
311.4444837220523
 21
106.6397225845828
 31
0.0
  0
LINE
  5
2C04
330
1F
100
AcDbEntity
  8
90000_FRAME
  6
Continuous
 62
     7
100
AcDbLine
 10
226.4444837220524
 20
88.6397225845828
 30
0.0
 11
226.4444837220524
 21
106.6397225845828
 31
0.0
  0
LINE
  5
2C05
330
1F
100
AcDbEntity
  8
90000_FRAME
  6
Continuous
 62
     7
100
AcDbLine
 10
268.9444837220526
 20
88.6397225845828
 30
0.0
 11
268.9444837220526
 21
94.63972258458278
 31
0.0
  0
LINE
  5
2C06
330
1F
100
AcDbEntity
  8
90000_FRAME
  6
Continuous
 62
     7
100
AcDbLine
 10
311.4444837220523
 20
88.6397225845828
 30
0.0
 11
311.4444837220523
 21
106.6397225845828
 31
0.0
  0
TEXT
  5
2C07
330
1F
100
AcDbEntity
  8
90000_FRAME
  6
Continuous
 62
     7
100
AcDbText
 10
227.1044837220525
 20
90.53972258458269
 30
0.0
 40
2.2
  1
Format / Size: DIN A4
 41
0.7994987468660241
 72
     5
 11
260.5235313410523
 21
90.53972258458269
 31
0.0
100
AcDbText
  0
TEXT
  5
2C08
330
1F
100
AcDbEntity
  8
90000_FRAME
  6
Continuous
 62
     7
100
AcDbText
 10
269.6044837220525
 20
90.53972258458269
 30
0.0
 40
2.2
  1
Massstab / Scale: 1:1
 41
0.7732634338148409
 72
     5
 11
300.5092456268523
 21
90.53972258458269
 31
0.0
100
AcDbText
  0
TEXT
  5
2C09
330
1F
100
AcDbEntity
  8
90000_FRAME
  6
Continuous
 62
     7
100
AcDbText
 10
239.7504082460029
 20
101.514045083679
 30
0.0
 40
3.5
  1
3RT1916_00001241_000_ALL
 41
0.7547200011588328
 72
     5
 11
295.6625816651865
 21
101.514045083679
 31
0.0
100
AcDbText
  0
TEXT
  5
2C0A
330
1F
100
AcDbEntity
  8
91000_TIP
  6
Continuous
 62
     7
100
AcDbText
 10
51.75059397854511
 20
95.95746017596686
 30
0.0
 40
2.5
  1
Alle Bemassungswerte sind in Millimeter (mm) angegeben.
 41
0.6056311217924572
 72
     5
 11
125.4357137966274
 21
95.95746017596686
 31
0.0
100
AcDbText
  0
TEXT
  5
2C0B
330
1F
100
AcDbEntity
  8
91000_TIP
  6
Continuous
 62
     7
100
AcDbText
 10
51.75059397854511
 20
90.70746017596674
 30
0.0
 40
2.5
  1
All dimensions are in millimeters (mm).
 41
0.7513350295680272
 72
     5
 11
111.8573963439872
 21
90.70746017596674
 31
0.0
100
AcDbText
  0
LINE
  5
2C0C
330
1F
100
AcDbEntity
  8
91000_TIP
  6
Continuous
 62
     7
100
AcDbLine
 10
151.2591538260783
 20
99.9634601069534
 30
0.0
 11
161.2591536218785
 21
102.4634600559534
 31
0.0
  0
LINE
  5
2C0D
330
1F
100
AcDbEntity
  8
91000_TIP
  6
CENTER
 62
     7
100
AcDbLine
 10
149.9796433540774
 20
97.46346015805338
 30
0.0
 11
173.5816326181774
 21
97.46346015805338
 31
0.0
  0
LINE
  5
2C0E
330
1F
100
AcDbEntity
  8
91000_TIP
  6
Continuous
 62
     7
100
AcDbLine
 10
151.2591538260783
 20
94.96346020915341
 30
0.0
 11
161.2591536218785
 21
92.46346026015327
 31
0.0
  0
LINE
  5
2C0F
330
1F
100
AcDbEntity
  8
91000_TIP
  6
Continuous
 62
     7
100
AcDbLine
 10
151.2591538260783
 20
99.9634601069534
 30
0.0
 11
151.2591538260783
 21
94.96346020915341
 31
0.0
  0
LINE
  5
2C10
330
1F
100
AcDbEntity
  8
91000_TIP
  6
Continuous
 62
     7
100
AcDbLine
 10
161.2591536218785
 20
102.4634600559534
 30
0.0
 11
161.2591536218785
 21
92.46346026015327
 31
0.0
  0
LINE
  5
2C11
330
1F
100
AcDbEntity
  8
91000_TIP
  6
CENTER
 62
     7
100
AcDbLine
 10
167.7591534890785
 20
91.74197895165336
 30
0.0
 11
167.7591534890785
 21
103.0253649516531
 31
0.0
  0
CIRCLE
  5
2C12
330
1F
100
AcDbEntity
  8
91000_TIP
  6
Continuous
 62
     7
100
AcDbCircle
 10
167.7591534890785
 20
97.46346015805338
 30
0.0
 40
4.9999998979
  0
CIRCLE
  5
2C13
330
1F
100
AcDbEntity
  8
91000_TIP
  6
Continuous
 62
     7
100
AcDbCircle
 10
167.7591534890785
 20
97.46346015805338
 30
0.0
 40
2.499999948899997
  0
LINE
  5
2C14
330
1F
100
AcDbEntity
  8
90000_FRAME
  6
Continuous
 62
     7
100
AcDbLine
 10
46.44448372205238
 20
83.6397225845828
 30
0.0
 11
46.44448372205238
 21
283.6397225845828
 31
0.0
  0
LINE
  5
2C15
330
1F
100
AcDbEntity
  8
90000_FRAME
  6
Continuous
 62
     7
100
AcDbLine
 10
316.4444837220524
 20
83.6397225845828
 30
0.0
 11
46.44448372205238
 21
83.6397225845828
 31
0.0
  0
LINE
  5
2C16
330
1F
100
AcDbEntity
  8
90000_FRAME
  6
Continuous
 62
     7
100
AcDbLine
 10
316.4444837220524
 20
83.6397225845828
 30
0.0
 11
316.4444837220526
 21
283.6397225845828
 31
0.0
  0
TEXT
  5
32DD
330
1F
100
AcDbEntity
  8
90000_FRAME
  6
Continuous
 62
     7
100
AcDbText
 10
239.7504082460029
 20
95.93736000806606
 30
0.0
 40
3.5
  1
Überspannungsbegrenzer ohne LED
 41
0.5209208703650638
 72
     5
 11
295.6625816651865
 21
95.93736000806606
 31
0.0
100
AcDbText
  0
LINE
  5
60234
102
{ACAD_REACTORS
330
614F1
102
}
330
1F
100
AcDbEntity
  8
10000_Front
  6
Continuous
 62
     7
100
AcDbLine
 10
148.8819166782366
 20
185.0905767451877
 30
0.0
 11
148.8819166782366
 21
214.3405767451877
 31
0.0
  0
LINE
  5
60235
102
{ACAD_REACTORS
330
614F1
102
}
330
1F
100
AcDbEntity
  8
10000_Front
  6
Continuous
 62
     7
100
AcDbLine
 10
157.4819166782366
 20
214.3405767451877
 30
0.0
 11
157.4819166782366
 21
185.0905767451877
 31
0.0
  0
LINE
  5
60236
330
1F
100
AcDbEntity
  8
10000_Front
  6
Continuous
 62
     7
100
AcDbLine
 10
154.3319166782366
 20
172.0405767451878
 30
0.0
 11
154.3319166782366
 21
168.0405767451878
 31
0.0
  0
LINE
  5
60237
330
1F
100
AcDbEntity
  8
10000_Front
  6
Continuous
 62
     7
100
AcDbLine
 10
153.5319166782366
 20
168.0405767451878
 30
0.0
 11
153.5319166782366
 21
172.0405767451878
 31
0.0
  0
LINE
  5
60238
330
1F
100
AcDbEntity
  8
10000_Front
  6
Continuous
 62
     7
100
AcDbLine
 10
153.5319166782366
 20
168.0405767451878
 30
0.0
 11
154.3319166782366
 21
168.0405767451878
 31
0.0
  0
LINE
  5
60239
330
1F
100
AcDbEntity
  8
10000_Front
  6
Continuous
 62
     7
100
AcDbLine
 10
153.5319166782366
 20
166.0405767451878
 30
0.0
 11
154.3319166782366
 21
166.0405767451878
 31
0.0
  0
LINE
  5
6023A
330
1F
100
AcDbEntity
  8
10000_Front
  6
Continuous
 62
     7
100
AcDbLine
 10
154.3319166782366
 20
161.7190767451878
 30
0.0
 11
153.5319166782366
 21
161.7190767451878
 31
0.0
  0
LINE
  5
6023B
330
1F
100
AcDbEntity
  8
10000_Front
  6
Continuous
 62
     7
100
AcDbLine
 10
153.5319166782366
 20
160.5405767451878
 30
0.0
 11
154.3319166782366
 21
160.5405767451878
 31
0.0
  0
LINE
  5
6023C
330
1F
100
AcDbEntity
  8
10000_Front
  6
Continuous
 62
     7
100
AcDbLine
 10
154.3319166782366
 20
161.7190767451878
 30
0.0
 11
154.3319166782366
 21
160.5405767451878
 31
0.0
  0
LINE
  5
6023D
330
1F
100
AcDbEntity
  8
10000_Front
  6
Continuous
 62
     7
100
AcDbLine
 10
154.3319166782366
 20
166.0405767451878
 30
0.0
 11
154.3319166782366
 21
161.7190767451878
 31
0.0
  0
LINE
  5
6023E
330
1F
100
AcDbEntity
  8
10000_Front
  6
Continuous
 62
     7
100
AcDbLine
 10
154.3319166782366
 20
168.0405767451878
 30
0.0
 11
154.3319166782366
 21
166.0405767451878
 31
0.0
  0
LINE
  5
6023F
330
1F
100
AcDbEntity
  8
10000_Front
  6
Continuous
 62
     7
100
AcDbLine
 10
153.5319166782366
 20
166.0405767451878
 30
0.0
 11
153.5319166782366
 21
168.0405767451878
 31
0.0
  0
LINE
  5
60240
330
1F
100
AcDbEntity
  8
10000_Front
  6
Continuous
 62
     7
100
AcDbLine
 10
153.5319166782366
 20
161.7190767451878
 30
0.0
 11
153.5319166782366
 21
166.0405767451878
 31
0.0
  0
LINE
  5
60241
330
1F
100
AcDbEntity
  8
10000_Front
  6
Continuous
 62
     7
100
AcDbLine
 10
153.5319166782366
 20
160.5405767451878
 30
0.0
 11
153.5319166782366
 21
161.7190767451878
 31
0.0
  0
ARC
  5
60244
330
1F
100
AcDbEntity
  8
10000_Front
  6
Continuous
 62
     7
100
AcDbCircle
 10
156.7319166782366
 20
185.0905767451877
 30
0.0
 40
0.75
100
AcDbArc
 50
270.0
 51
0.0
  0
ARC
  5
60245
330
1F
100
AcDbEntity
  8
10000_Front
  6
Continuous
 62
     7
100
AcDbCircle
 10
149.6319166782366
 20
185.0905767451877
 30
0.0
 40
0.75
100
AcDbArc
 50
180.0
 51
270.0
  0
LINE
  5
60246
102
{ACAD_REACTORS
330
6150D
330
61541
102
}
330
1F
100
AcDbEntity
  8
10000_Front
  6
Continuous
 62
     7
100
AcDbLine
 10
156.7319166782366
 20
184.3405767451877
 30
0.0
 11
149.6319166782366
 21
184.3405767451877
 31
0.0
  0
LINE
  5
60248
330
1F
100
AcDbEntity
  8
10000_Front
  6
Continuous
 62
     7
100
AcDbLine
 10
152.5494146782366
 20
173.3405767451877
 30
0.0
 11
152.2319166782366
 21
173.3405767451877
 31
0.0
  0
LINE
  5
6024A
330
1F
100
AcDbEntity
  8
10000_Front
  6
Continuous
 62
     7
100
AcDbLine
 10
151.9319166782366
 20
173.6405767451878
 30
0.0
 11
151.9319166782366
 21
184.3405867451878
 31
0.0
  0
ARC
  5
602A8
330
1F
100
AcDbEntity
  8
10000_Front
  6
Continuous
 62
     7
100
AcDbCircle
 10
152.2319166782366
 20
173.6405767451878
 30
0.0
 40
0.3
100
AcDbArc
 50
180.0
 51
270.0
  0
LINE
  5
602AB
330
1F
100
AcDbEntity
  8
10000_Front
  6
Continuous
 62
     7
100
AcDbLine
 10
151.9319146782366
 20
182.1405767451878
 30
0.0
 11
151.0319166782366
 21
182.1405767451878
 31
0.0
  0
LINE
  5
602AD
102
{ACAD_REACTORS
330
6150D
102
}
330
1F
100
AcDbEntity
  8
10000_Front
  6
Continuous
 62
     7
100
AcDbLine
 10
151.0319166782366
 20
183.8003867451878
 30
0.0
 11
151.0319166782366
 21
184.3405867451878
 31
0.0
  0
LINE
  5
602AE
330
1F
100
AcDbEntity
  8
10000_Front
  6
Continuous
 62
     7
100
AcDbLine
 10
151.0319166782366
 20
183.5405767451878
 30
0.0
 11
151.0319166782366
 21
183.8003867451878
 31
0.0
  0
LINE
  5
602AF
330
1F
100
AcDbEntity
  8
10000_Front
  6
Continuous
 62
     7
100
AcDbLine
 10
151.0319166782366
 20
183.1405767451878
 30
0.0
 11
151.0319166782366
 21
183.5405767451878
 31
0.0
  0
LINE
  5
602B0
330
1F
100
AcDbEntity
  8
10000_Front
  6
Continuous
 62
     7
100
AcDbLine
 10
151.0319166782366
 20
182.1405767451878
 30
0.0
 11
151.0319166782366
 21
183.1405767451878
 31
0.0
  0
LINE
  5
602B1
330
1F
100
AcDbEntity
  8
10000_Front
  6
Continuous
 62
     7
100
AcDbLine
 10
153.5319166782366
 20
176.5253767451877
 30
0.0
 11
153.5319166782366
 21
183.6405767451878
 31
0.0
  0
LINE
  5
602B2
330
1F
100
AcDbEntity
  8
10000_Front
  6
Continuous
 62
     7
100
AcDbLine
 10
152.5319166782366
 20
184.3405767451877
 30
0.0
 11
152.5319166782366
 21
173.5405767451878
 31
0.0
  0
LINE
  5
602B3
102
{ACAD_REACTORS
330
6150D
102
}
330
1F
100
AcDbEntity
  8
10000_Front
  6
Continuous
 62
     7
100
AcDbLine
 10
155.3319166782366
 20
184.3405867451878
 30
0.0
 11
155.3319166782366
 21
176.3405767451877
 31
0.0
  0
LINE
  5
602B4
330
1F
100
AcDbEntity
  8
10000_Front
  6
Continuous
 62
     7
100
AcDbLine
 10
154.3319166782366
 20
183.6405767451878
 30
0.0
 11
154.3319166782366
 21
176.3405767451877
 31
0.0
  0
LINE
  5
602B5
330
1F
100
AcDbEntity
  8
10000_Front
  6
Continuous
 62
     7
100
AcDbLine
 10
154.3319166782366
 20
176.3405767451877
 30
0.0
 11
153.5319166782366
 21
176.3405767451877
 31
0.0
  0
LINE
  5
602B6
330
1F
100
AcDbEntity
  8
10000_Front
  6
Continuous
 62
     7
100
AcDbLine
 10
153.5319166782366
 20
172.0405767451878
 30
0.0
 11
154.3319166782366
 21
172.0405767451878
 31
0.0
  0
LINE
  5
602B8
330
1F
100
AcDbEntity
  8
10000_Front
  6
Continuous
 62
     7
100
AcDbLine
 10
154.3319166782366
 20
173.3405767451877
 30
0.0
 11
154.3319166782366
 21
172.0405767451878
 31
0.0
  0
LINE
  5
602B9
330
1F
100
AcDbEntity
  8
10000_Front
  6
Continuous
 62
     7
100
AcDbLine
 10
153.5319166782366
 20
176.3405767451877
 30
0.0
 11
153.5319166782366
 21
176.5253767451877
 31
0.0
  0
LINE
  5
602BA
330
1F
100
AcDbEntity
  8
10000_Front
  6
Continuous
 62
     7
100
AcDbLine
 10
153.5319166782366
 20
172.0405767451878
 30
0.0
 11
153.5319166782366
 21
176.3405767451877
 31
0.0
  0
LINE
  5
602BC
330
1F
100
AcDbEntity
  8
10000_Front
  6
Continuous
 62
     7
100
AcDbLine
 10
154.3319166782366
 20
176.3405767451877
 30
0.0
 11
155.3319166782366
 21
176.3405767451877
 31
0.0
  0
POLYLINE
  5
602BD
330
1F
100
AcDbEntity
  8
10000_Front
  6
Continuous
 62
     7
100
AcDb2dPolyline
 66
     1
 10
0.0
 20
0.0
 30
0.0
 70
     2
  0
VERTEX
  5
602BE
330
602BD
100
AcDbEntity
  8
10000_Front
  6
Continuous
 62
     7
100
AcDbVertex
100
AcDb2dVertex
 10
152.5494126782366
 20
173.3405767451877
 30
0.0
  0
VERTEX
  5
602BF
330
602BD
100
AcDbEntity
  8
10000_Front
  6
Continuous
 62
     7
100
AcDbVertex
100
AcDb2dVertex
 10
152.5486746782366
 20
173.3407467451877
 30
0.0
 42
-0.10170943
 70
     1
  0
VERTEX
  5
602C0
330
602BD
100
AcDbEntity
  8
10000_Front
  6
Continuous
 62
     7
100
AcDbVertex
100
AcDb2dVertex
 10
152.5479466782366
 20
173.3412267451878
 30
0.0
 42
-0.077434054
  0
VERTEX
  5
602C1
330
602BD
100
AcDbEntity
  8
10000_Front
  6
Continuous
 62
     7
100
AcDbVertex
100
AcDb2dVertex
 10
152.5472276782366
 20
173.3420267451878
 30
0.0
 42
-0.05036143
 70
     1
  0
VERTEX
  5
602C2
330
602BD
100
AcDbEntity
  8
10000_Front
  6
Continuous
 62
     7
100
AcDbVertex
100
AcDb2dVertex
 10
152.5465186782366
 20
173.3431367451879
 30
0.0
 42
-0.033038891
  0
VERTEX
  5
602C3
330
602BD
100
AcDbEntity
  8
10000_Front
  6
Continuous
 62
     7
100
AcDbVertex
100
AcDb2dVertex
 10
152.5458206782366
 20
173.3445467451878
 30
0.0
 42
-0.022508782
 70
     1
  0
VERTEX
  5
602C4
330
602BD
100
AcDbEntity
  8
10000_Front
  6
Continuous
 62
     7
100
AcDbVertex
100
AcDb2dVertex
 10
152.5451336782366
 20
173.3462567451878
 30
0.0
 42
-0.01632052
  0
VERTEX
  5
602C5
330
602BD
100
AcDbEntity
  8
10000_Front
  6
Continuous
 62
     7
100
AcDbVertex
100
AcDb2dVertex
 10
152.5444586782366
 20
173.3482667451878
 30
0.0
 42
-0.01218713
 70
     1
  0
VERTEX
  5
602C6
330
602BD
100
AcDbEntity
  8
10000_Front
  6
Continuous
 62
     7
100
AcDbVertex
100
AcDb2dVertex
 10
152.5437946782366
 20
173.3505567451878
 30
0.0
 42
-0.0094948851
  0
VERTEX
  5
602C7
330
602BD
100
AcDbEntity
  8
10000_Front
  6
Continuous
 62
     7
100
AcDbVertex
100
AcDb2dVertex
 10
152.5431436782366
 20
173.3531267451878
 30
0.0
 42
-0.0075535996
 70
     1
  0
VERTEX
  5
602C8
330
602BD
100
AcDbEntity
  8
10000_Front
  6
Continuous
 62
     7
100
AcDbVertex
100
AcDb2dVertex
 10
152.5425056782366
 20
173.3559667451878
 30
0.0
 42
-0.0061959
  0
VERTEX
  5
602C9
330
602BD
100
AcDbEntity
  8
10000_Front
  6
Continuous
 62
     7
100
AcDbVertex
100
AcDb2dVertex
 10
152.5418816782366
 20
173.3590867451878
 30
0.0
 42
-0.0051527097
 70
     1
  0
VERTEX
  5
602CA
330
602BD
100
AcDbEntity
  8
10000_Front
  6
Continuous
 62
     7
100
AcDbVertex
100
AcDb2dVertex
 10
152.5412716782366
 20
173.3624667451878
 30
0.0
 42
-0.0043823411
  0
VERTEX
  5
602CB
330
602BD
100
AcDbEntity
  8
10000_Front
  6
Continuous
 62
     7
100
AcDbVertex
100
AcDb2dVertex
 10
152.5406756782366
 20
173.3660967451878
 30
0.0
 42
-0.003763569
 70
     1
  0
VERTEX
  5
602CC
330
602BD
100
AcDbEntity
  8
10000_Front
  6
Continuous
 62
     7
100
AcDbVertex
100
AcDb2dVertex
 10
152.5400956782366
 20
173.3699867451878
 30
0.0
 42
-0.0032888923
  0
VERTEX
  5
602CD
330
602BD
100
AcDbEntity
  8
10000_Front
  6
Continuous
 62
     7
100
AcDbVertex
100
AcDb2dVertex
 10
152.5395306782366
 20
173.3741267451878
 30
0.0
 42
-0.0028945644
 70
     1
  0
VERTEX
  5
602CE
330
602BD
100
AcDbEntity
  8
10000_Front
  6
Continuous
 62
     7
100
AcDbVertex
100
AcDb2dVertex
 10
152.5389816782366
 20
173.3784967451878
 30
0.0
 42
-0.0025835761
  0
VERTEX
  5
602CF
330
602BD
100
AcDbEntity
  8
10000_Front
  6
Continuous
 62
     7
100
AcDbVertex
100
AcDb2dVertex
 10
152.5384486782366
 20
173.3831067451878
 30
0.0
 42
-0.0023183059
 70
     1
  0
VERTEX
  5
602D0
330
602BD
100
AcDbEntity
  8
10000_Front
  6
Continuous
 62
     7
100
AcDbVertex
100
AcDb2dVertex
 10
152.5379336782366
 20
173.3879467451877
 30
0.0
 42
-0.0021048481
  0
VERTEX
  5
602D1
330
602BD
100
AcDbEntity
  8
10000_Front
  6
Continuous
 62
     7
100
AcDbVertex
100
AcDb2dVertex
 10
152.5374356782366
 20
173.3930067451878
 30
0.0
 42
-0.0019190932
 70
     1
  0
VERTEX
  5
602D2
330
602BD
100
AcDbEntity
  8
10000_Front
  6
Continuous
 62
     7
100
AcDbVertex
100
AcDb2dVertex
 10
152.5369556782366
 20
173.3982867451878
 30
0.0
 42
-0.0017677358
  0
VERTEX
  5
602D3
330
602BD
100
AcDbEntity
  8
10000_Front
  6
Continuous
 62
     7
100
AcDbVertex
100
AcDb2dVertex
 10
152.5364946782366
 20
173.4037767451878
 30
0.0
 42
-0.0016329454
 70
     1
  0
VERTEX
  5
602D4
330
602BD
100
AcDbEntity
  8
10000_Front
  6
Continuous
 62
     7
100
AcDbVertex
100
AcDb2dVertex
 10
152.5360526782366
 20
173.4094667451877
 30
0.0
 42
-0.0015216051
  0
VERTEX
  5
602D5
330
602BD
100
AcDbEntity
  8
10000_Front
  6
Continuous
 62
     7
100
AcDbVertex
100
AcDb2dVertex
 10
152.5356306782366
 20
173.4153667451878
 30
0.0
 42
-0.0014231196
 70
     1
  0
VERTEX
  5
602D6
330
602BD
100
AcDbEntity
  8
10000_Front
  6
Continuous
 62
     7
100
AcDbVertex
100
AcDb2dVertex
 10
152.5352276782366
 20
173.4214567451878
 30
0.0
 42
-0.0013432488
  0
VERTEX
  5
602D7
330
602BD
100
AcDbEntity
  8
10000_Front
  6
Continuous
 62
     7
100
AcDbVertex
100
AcDb2dVertex
 10
152.5348456782366
 20
173.4277367451878
 30
0.0
 42
-0.0012646472
 70
     1
  0
VERTEX
  5
602D8
330
602BD
100
AcDbEntity
  8
10000_Front
  6
Continuous
 62
     7
100
AcDbVertex
100
AcDb2dVertex
 10
152.5344846782366
 20
173.4341967451878
 30
0.0
 42
-0.0011953231
  0
VERTEX
  5
602D9
330
602BD
100
AcDbEntity
  8
10000_Front
  6
Continuous
 62
     7
100
AcDbVertex
100
AcDb2dVertex
 10
152.5341456782366
 20
173.4408267451878
 30
0.0
 42
-0.0011488442
 70
     1
  0
VERTEX
  5
602DA
330
602BD
100
AcDbEntity
  8
10000_Front
  6
Continuous
 62
     7
100
AcDbVertex
100
AcDb2dVertex
 10
152.5338276782366
 20
173.4476367451878
 30
0.0
 42
-0.001124459
  0
VERTEX
  5
602DB
330
602BD
100
AcDbEntity
  8
10000_Front
  6
Continuous
 62
     7
100
AcDbVertex
100
AcDb2dVertex
 10
152.5335336782366
 20
173.4546367451878
 30
0.0
 42
-0.0010467548
 70
     1
  0
VERTEX
  5
602DC
330
602BD
100
AcDbEntity
  8
10000_Front
  6
Continuous
 62
     7
100
AcDbVertex
100
AcDb2dVertex
 10
152.5332616782366
 20
173.4617467451879
 30
0.0
 42
-0.0009426904
  0
VERTEX
  5
602DD
330
602BD
100
AcDbEntity
  8
10000_Front
  6
Continuous
 62
     7
100
AcDbVertex
100
AcDb2dVertex
 10
152.5330136782366
 20
173.4689667451878
 30
0.0
 42
-0.0010121439
 70
     1
  0
VERTEX
  5
602DE
330
602BD
100
AcDbEntity
  8
10000_Front
  6
Continuous
 62
     7
100
AcDbVertex
100
AcDb2dVertex
 10
152.5327896782366
 20
173.4764667451877
 30
0.0
 42
-0.001176784
  0
VERTEX
  5
602DF
330
602BD
100
AcDbEntity
  8
10000_Front
  6
Continuous
 62
     7
100
AcDbVertex
100
AcDb2dVertex
 10
152.5325886782366
 20
173.4843067451877
 30
0.0
 42
-0.00085628
 70
     1
  0
VERTEX
  5
602E0
330
602BD
100
AcDbEntity
  8
10000_Front
  6
Continuous
 62
     7
100
AcDbVertex
100
AcDb2dVertex
 10
152.5324146782366
 20
173.4917567451878
 30
0.0
 42
-0.0002677594
  0
VERTEX
  5
602E1
330
602BD
100
AcDbEntity
  8
10000_Front
  6
Continuous
 62
     7
100
AcDbVertex
100
AcDb2dVertex
 10
152.5322696782366
 20
173.4985667451878
 30
0.0
 42
-0.0011958576
 70
     1
  0
VERTEX
  5
602E2
330
602BD
100
AcDbEntity
  8
10000_Front
  6
Continuous
 62
     7
100
AcDbVertex
100
AcDb2dVertex
 10
152.5321426782366
 20
173.5075767451878
 30
0.0
 42
-0.0019928357
  0
VERTEX
  5
602E3
330
602BD
100
AcDbEntity
  8
10000_Front
  6
Continuous
 62
     7
100
AcDbVertex
100
AcDb2dVertex
 10
152.5320266782366
 20
173.5217767451878
 30
0.0
 42
-0.000931976
 70
     1
  0
VERTEX
  5
602E4
330
602BD
100
AcDbEntity
  8
10000_Front
  6
Continuous
 62
     7
100
AcDbVertex
100
AcDb2dVertex
 10
152.5319216782366
 20
173.5405767451878
 30
0.0
 42
-0.0004800276
  0
SEQEND
  5
602E5
330
602BD
100
AcDbEntity
  8
10000_Front
  6
Continuous
 62
     7
  0
LINE
  5
602E7
330
1F
100
AcDbEntity
  8
10000_Front
  6
Continuous
 62
     7
100
AcDbLine
 10
155.3319166782366
 20
173.6107267451878
 30
0.0
 11
155.3319166782366
 21
173.3405767451877
 31
0.0
  0
LINE
  5
602E8
330
1F
100
AcDbEntity
  8
10000_Front
  6
Continuous
 62
     7
100
AcDbLine
 10
155.3319166782366
 20
176.3405767451877
 30
0.0
 11
155.3319166782366
 21
173.6107267451878
 31
0.0
  0
LINE
  5
602E9
330
1F
100
AcDbEntity
  8
10000_Front
  6
Continuous
 62
     7
100
AcDbLine
 10
153.5319186782366
 20
173.3405767451877
 30
0.0
 11
152.5494146782366
 21
173.3405767451877
 31
0.0
  0
LINE
  5
602EA
330
1F
100
AcDbEntity
  8
10000_Front
  6
Continuous
 62
     7
100
AcDbLine
 10
155.3319166782366
 20
173.3405767451877
 30
0.0
 11
154.3319166782366
 21
173.3405767451877
 31
0.0
  0
LINE
  5
602EB
330
1F
100
AcDbEntity
  8
10000_Front
  6
Continuous
 62
     7
100
AcDbLine
 10
154.3319166782366
 20
173.3405767451877
 30
0.0
 11
154.3319166782366
 21
173.6107267451878
 31
0.0
  0
LINE
  5
602EC
330
1F
100
AcDbEntity
  8
10000_Front
  6
Continuous
 62
     7
100
AcDbLine
 10
154.3319166782366
 20
173.6107267451878
 30
0.0
 11
154.3319166782366
 21
176.3405767451877
 31
0.0
  0
LINE
  5
602ED
330
1F
100
AcDbEntity
  8
10000_Front
  6
Continuous
 62
     7
100
AcDbLine
 10
153.5319166782366
 20
183.6405767451878
 30
0.0
 11
154.3319166782366
 21
183.6405767451878
 31
0.0
  0
LINE
  5
602EE
330
1F
100
AcDbEntity
  8
10000_Front
  6
Continuous
 62
     7
100
AcDbLine
 10
154.3319166782366
 20
183.6405767451878
 30
0.0
 11
154.3319166782366
 21
184.3405867451878
 31
0.0
  0
LINE
  5
602EF
330
1F
100
AcDbEntity
  8
10000_Front
  6
Continuous
 62
     7
100
AcDbLine
 10
153.5319166782366
 20
184.3405867451878
 30
0.0
 11
153.5319166782366
 21
183.6405767451878
 31
0.0
  0
LINE
  5
602F4
330
1F
100
AcDbEntity
  8
10000_Front
  6
Continuous
 62
     7
100
AcDbLine
 10
156.6819106782366
 20
216.3405767451877
 30
0.0
 11
149.6819186782366
 21
216.3405767451877
 31
0.0
  0
POLYLINE
  5
602FA
330
1F
100
AcDbEntity
  8
10000_Front
  6
Continuous
 62
     7
100
AcDb2dPolyline
 66
     1
 10
0.0
 20
0.0
 30
0.0
 70
     2
  0
VERTEX
  5
602FB
330
602FA
100
AcDbEntity
  8
10000_Front
  6
Continuous
 62
     7
100
AcDbVertex
100
AcDb2dVertex
 10
149.6819186782366
 20
216.3405867451878
 30
0.0
  0
VERTEX
  5
602FC
330
602FA
100
AcDbEntity
  8
10000_Front
  6
Continuous
 62
     7
100
AcDbVertex
100
AcDb2dVertex
 10
149.6437926782366
 20
216.3396967451878
 30
0.0
 42
0.012803196
 70
     1
  0
VERTEX
  5
602FD
330
602FA
100
AcDbEntity
  8
10000_Front
  6
Continuous
 62
     7
100
AcDbVertex
100
AcDb2dVertex
 10
149.6051596782366
 20
216.3368867451877
 30
0.0
 42
0.012156266
  0
VERTEX
  5
602FE
330
602FA
100
AcDbEntity
  8
10000_Front
  6
Continuous
 62
     7
100
AcDbVertex
100
AcDb2dVertex
 10
149.5659776782366
 20
216.3320967451878
 30
0.0
 42
0.011974403
 70
     1
  0
VERTEX
  5
602FF
330
602FA
100
AcDbEntity
  8
10000_Front
  6
Continuous
 62
     7
100
AcDbVertex
100
AcDb2dVertex
 10
149.5264166782366
 20
216.3253167451878
 30
0.0
 42
0.012481163
  0
VERTEX
  5
60300
330
602FA
100
AcDbEntity
  8
10000_Front
  6
Continuous
 62
     7
100
AcDbVertex
100
AcDb2dVertex
 10
149.4866496782366
 20
216.3163567451877
 30
0.0
 42
0.012720286
 70
     1
  0
VERTEX
  5
60301
330
602FA
100
AcDbEntity
  8
10000_Front
  6
Continuous
 62
     7
100
AcDbVertex
100
AcDb2dVertex
 10
149.4468426782366
 20
216.3052567451878
 30
0.0
 42
0.01287606
  0
VERTEX
  5
60302
330
602FA
100
AcDbEntity
  8
10000_Front
  6
Continuous
 62
     7
100
AcDbVertex
100
AcDb2dVertex
 10
149.4071576782366
 20
216.2918867451879
 30
0.0
 42
0.012977718
 70
     1
  0
VERTEX
  5
60303
330
602FA
100
AcDbEntity
  8
10000_Front
  6
Continuous
 62
     7
100
AcDbVertex
100
AcDb2dVertex
 10
149.3677676782366
 20
216.2763167451879
 30
0.0
 42
0.013185052
  0
VERTEX
  5
60304
330
602FA
100
AcDbEntity
  8
10000_Front
  6
Continuous
 62
     7
100
AcDbVertex
100
AcDb2dVertex
 10
149.3288756782366
 20
216.2584367451878
 30
0.0
 42
0.013294929
 70
     1
  0
VERTEX
  5
60305
330
602FA
100
AcDbEntity
  8
10000_Front
  6
Continuous
 62
     7
100
AcDbVertex
100
AcDb2dVertex
 10
149.2906476782366
 20
216.2383567451878
 30
0.0
 42
0.013439589
  0
VERTEX
  5
60306
330
602FA
100
AcDbEntity
  8
10000_Front
  6
Continuous
 62
     7
100
AcDbVertex
100
AcDb2dVertex
 10
149.2533036782366
 20
216.2160367451878
 30
0.0
 42
0.01351191
 70
     1
  0
VERTEX
  5
60307
330
602FA
100
AcDbEntity
  8
10000_Front
  6
Continuous
 62
     7
100
AcDbVertex
100
AcDb2dVertex
 10
149.2169906782366
 20
216.1916067451878
 30
0.0
 42
0.013609891
  0
VERTEX
  5
60308
330
602FA
100
AcDbEntity
  8
10000_Front
  6
Continuous
 62
     7
100
AcDbVertex
100
AcDb2dVertex
 10
149.1819406782366
 20
216.1650567451877
 30
0.0
 42
0.01366403
 70
     1
  0
VERTEX
  5
60309
330
602FA
100
AcDbEntity
  8
10000_Front
  6
Continuous
 62
     7
100
AcDbVertex
100
AcDb2dVertex
 10
149.1482706782366
 20
216.1365767451878
 30
0.0
 42
0.013733862
  0
VERTEX
  5
6030A
330
602FA
100
AcDbEntity
  8
10000_Front
  6
Continuous
 62
     7
100
AcDbVertex
100
AcDb2dVertex
 10
149.1162086782366
 20
216.1061867451878
 30
0.0
 42
0.0137242
 70
     1
  0
VERTEX
  5
6030B
330
602FA
100
AcDbEntity
  8
10000_Front
  6
Continuous
 62
     7
100
AcDbVertex
100
AcDb2dVertex
 10
149.0858356782366
 20
216.0741267451879
 30
0.0
 42
0.013660515
  0
VERTEX
  5
6030C
330
602FA
100
AcDbEntity
  8
10000_Front
  6
Continuous
 62
     7
100
AcDbVertex
100
AcDb2dVertex
 10
149.0573606782366
 20
216.0404767451878
 30
0.0
 42
0.013733983
 70
     1
  0
VERTEX
  5
6030D
330
602FA
100
AcDbEntity
  8
10000_Front
  6
Continuous
 62
     7
100
AcDbVertex
100
AcDb2dVertex
 10
149.0308186782366
 20
216.0053967451878
 30
0.0
 42
0.013898894
  0
VERTEX
  5
6030E
330
602FA
100
AcDbEntity
  8
10000_Front
  6
Continuous
 62
     7
100
AcDbVertex
100
AcDb2dVertex
 10
149.0063906782366
 20
215.9690067451878
 30
0.0
 42
0.013545074
 70
     1
  0
VERTEX
  5
6030F
330
602FA
100
AcDbEntity
  8
10000_Front
  6
Continuous
 62
     7
100
AcDbVertex
100
AcDb2dVertex
 10
148.9840746782366
 20
215.9317367451878
 30
0.0
 42
0.012727612
  0
VERTEX
  5
60310
330
602FA
100
AcDbEntity
  8
10000_Front
  6
Continuous
 62
     7
100
AcDbVertex
100
AcDb2dVertex
 10
148.9640246782366
 20
215.8938067451877
 30
0.0
 42
0.01368755
 70
     1
  0
VERTEX
  5
60311
330
602FA
100
AcDbEntity
  8
10000_Front
  6
Continuous
 62
     7
100
AcDbVertex
100
AcDb2dVertex
 10
148.9461376782366
 20
215.8546067451878
 30
0.0
 42
0.015726889
  0
VERTEX
  5
60312
330
602FA
100
AcDbEntity
  8
10000_Front
  6
Continuous
 62
     7
100
AcDbVertex
100
AcDb2dVertex
 10
148.9305096782366
 20
215.8140067451877
 30
0.0
 42
0.012376985
 70
     1
  0
VERTEX
  5
60313
330
602FA
100
AcDbEntity
  8
10000_Front
  6
Continuous
 62
     7
100
AcDbVertex
100
AcDb2dVertex
 10
148.9172056782366
 20
215.7755267451878
 30
0.0
 42
0.0053924431
  0
VERTEX
  5
60314
330
602FA
100
AcDbEntity
  8
10000_Front
  6
Continuous
 62
     7
100
AcDbVertex
100
AcDb2dVertex
 10
148.9063496782366
 20
215.7404767451879
 30
0.0
 42
0.01618659
 70
     1
  0
VERTEX
  5
60315
330
602FA
100
AcDbEntity
  8
10000_Front
  6
Continuous
 62
     7
100
AcDbVertex
100
AcDb2dVertex
 10
148.8971586782366
 20
215.6959467451877
 30
0.0
 42
0.027068159
  0
VERTEX
  5
60316
330
602FA
100
AcDbEntity
  8
10000_Front
  6
Continuous
 62
     7
100
AcDbVertex
100
AcDb2dVertex
 10
148.8889986782366
 20
215.6283767451878
 30
0.0
 42
0.013868649
 70
     1
  0
VERTEX
  5
60317
330
602FA
100
AcDbEntity
  8
10000_Front
  6
Continuous
 62
     7
100
AcDbVertex
100
AcDb2dVertex
 10
148.8819236782366
 20
215.5404467451879
 30
0.0
 42
0.0076247278
  0
SEQEND
  5
60318
330
602FA
100
AcDbEntity
  8
10000_Front
  6
Continuous
 62
     7
  0
LINE
  5
60395
330
1F
100
AcDbEntity
  8
10000_Front
  6
Continuous
 62
     7
100
AcDbLine
 10
148.8819166782366
 20
215.1907367451878
 30
0.0
 11
148.8819166782366
 21
215.5404467451879
 31
0.0
  0
LINE
  5
60396
330
1F
100
AcDbEntity
  8
10000_Front
  6
Continuous
 62
     7
100
AcDbLine
 10
148.8819166782366
 20
214.3405767451877
 30
0.0
 11
148.8819166782366
 21
215.1907367451878
 31
0.0
  0
POLYLINE
  5
60399
102
{ACAD_REACTORS
330
61541
102
}
330
1F
100
AcDbEntity
  8
10000_Front
  6
Continuous
 62
     7
100
AcDb2dPolyline
 66
     1
 10
0.0
 20
0.0
 30
0.0
 70
     2
  0
VERTEX
  5
6039A
330
60399
100
AcDbEntity
  8
10000_Front
  6
Continuous
 62
     7
100
AcDbVertex
100
AcDb2dVertex
 10
157.4819186782366
 20
215.5404467451879
 30
0.0
  0
VERTEX
  5
6039B
330
60399
100
AcDbEntity
  8
10000_Front
  6
Continuous
 62
     7
100
AcDbVertex
100
AcDb2dVertex
 10
157.4810366782366
 20
215.5785767451878
 30
0.0
 42
0.012803471
 70
     1
  0
VERTEX
  5
6039C
330
60399
100
AcDbEntity
  8
10000_Front
  6
Continuous
 62
     7
100
AcDbVertex
100
AcDb2dVertex
 10
157.4782386782366
 20
215.6172067451878
 30
0.0
 42
0.012156509
  0
VERTEX
  5
6039D
330
60399
100
AcDbEntity
  8
10000_Front
  6
Continuous
 62
     7
100
AcDbVertex
100
AcDb2dVertex
 10
157.4734566782366
 20
215.6563867451878
 30
0.0
 42
0.011974624
 70
     1
  0
VERTEX
  5
6039E
330
60399
100
AcDbEntity
  8
10000_Front
  6
Continuous
 62
     7
100
AcDbVertex
100
AcDb2dVertex
 10
157.4666816782366
 20
215.6959467451877
 30
0.0
 42
0.012481374
  0
VERTEX
  5
6039F
330
60399
100
AcDbEntity
  8
10000_Front
  6
Continuous
 62
     7
100
AcDbVertex
100
AcDb2dVertex
 10
157.4577296782366
 20
215.7357167451878
 30
0.0
 42
0.012720476
 70
     1
  0
VERTEX
  5
603A0
330
60399
100
AcDbEntity
  8
10000_Front
  6
Continuous
 62
     7
100
AcDbVertex
100
AcDb2dVertex
 10
157.4466346782366
 20
215.7755267451878
 30
0.0
 42
0.012876226
  0
VERTEX
  5
603A1
330
60399
100
AcDbEntity
  8
10000_Front
  6
Continuous
 62
     7
100
AcDbVertex
100
AcDb2dVertex
 10
157.4332686782366
 20
215.8152167451879
 30
0.0
 42
0.012977855
 70
     1
  0
VERTEX
  5
603A2
330
60399
100
AcDbEntity
  8
10000_Front
  6
Continuous
 62
     7
100
AcDbVertex
100
AcDb2dVertex
 10
157.4177016782366
 20
215.8546067451878
 30
0.0
 42
0.01318516
  0
VERTEX
  5
603A3
330
60399
100
AcDbEntity
  8
10000_Front
  6
Continuous
 62
     7
100
AcDbVertex
100
AcDb2dVertex
 10
157.3998296782366
 20
215.8935067451878
 30
0.0
 42
0.013295004
 70
     1
  0
VERTEX
  5
603A4
330
60399
100
AcDbEntity
  8
10000_Front
  6
Continuous
 62
     7
100
AcDbVertex
100
AcDb2dVertex
 10
157.3797626782366
 20
215.9317367451878
 30
0.0
 42
0.013439631
  0
VERTEX
  5
603A5
330
60399
100
AcDbEntity
  8
10000_Front
  6
Continuous
 62
     7
100
AcDbVertex
100
AcDb2dVertex
 10
157.3574426782366
 20
215.9690867451877
 30
0.0
 42
0.013511915
 70
     1
  0
VERTEX
  5
603A6
330
60399
100
AcDbEntity
  8
10000_Front
  6
Continuous
 62
     7
100
AcDbVertex
100
AcDb2dVertex
 10
157.3330186782366
 20
216.0053967451878
 30
0.0
 42
0.01360986
  0
VERTEX
  5
603A7
330
60399
100
AcDbEntity
  8
10000_Front
  6
Continuous
 62
     7
100
AcDbVertex
100
AcDb2dVertex
 10
157.3064776782366
 20
216.0404567451879
 30
0.0
 42
0.013663962
 70
     1
  0
VERTEX
  5
603A8
330
60399
100
AcDbEntity
  8
10000_Front
  6
Continuous
 62
     7
100
AcDbVertex
100
AcDb2dVertex
 10
157.2780006782366
 20
216.0741267451879
 30
0.0
 42
0.013733758
  0
VERTEX
  5
603A9
330
60399
100
AcDbEntity
  8
10000_Front
  6
Continuous
 62
     7
100
AcDbVertex
100
AcDb2dVertex
 10
157.2476206782366
 20
216.1061967451879
 30
0.0
 42
0.01372406
 70
     1
  0
VERTEX
  5
603AA
330
60399
100
AcDbEntity
  8
10000_Front
  6
Continuous
 62
     7
100
AcDbVertex
100
AcDb2dVertex
 10
157.2155636782366
 20
216.1365767451878
 30
0.0
 42
0.013660344
  0
VERTEX
  5
603AB
330
60399
100
AcDbEntity
  8
10000_Front
  6
Continuous
 62
     7
100
AcDbVertex
100
AcDb2dVertex
 10
157.1819126782366
 20
216.1650567451877
 30
0.0
 42
0.013733779
 70
     1
  0
VERTEX
  5
603AC
330
60399
100
AcDbEntity
  8
10000_Front
  6
Continuous
 62
     7
100
AcDbVertex
100
AcDb2dVertex
 10
157.1468426782366
 20
216.1916067451878
 30
0.0
 42
0.013898659
  0
VERTEX
  5
603AD
330
60399
100
AcDbEntity
  8
10000_Front
  6
Continuous
 62
     7
100
AcDbVertex
100
AcDb2dVertex
 10
157.1104516782366
 20
216.2160367451878
 30
0.0
 42
0.013544818
 70
     1
  0
VERTEX
  5
603AE
330
60399
100
AcDbEntity
  8
10000_Front
  6
Continuous
 62
     7
100
AcDbVertex
100
AcDb2dVertex
 10
157.0731846782366
 20
216.2383567451878
 30
0.0
 42
0.012727352
  0
VERTEX
  5
603AF
330
60399
100
AcDbEntity
  8
10000_Front
  6
Continuous
 62
     7
100
AcDbVertex
100
AcDb2dVertex
 10
157.0352616782366
 20
216.2584167451878
 30
0.0
 42
0.013687252
 70
     1
  0
VERTEX
  5
603B0
330
60399
100
AcDbEntity
  8
10000_Front
  6
Continuous
 62
     7
100
AcDbVertex
100
AcDb2dVertex
 10
156.9960636782366
 20
216.2763167451879
 30
0.0
 42
0.015726529
  0
VERTEX
  5
603B1
330
60399
100
AcDbEntity
  8
10000_Front
  6
Continuous
 62
     7
100
AcDbVertex
100
AcDb2dVertex
 10
156.9554676782366
 20
216.2919467451877
 30
0.0
 42
0.012376688
 70
     1
  0
VERTEX
  5
603B2
330
60399
100
AcDbEntity
  8
10000_Front
  6
Continuous
 62
     7
100
AcDbVertex
100
AcDb2dVertex
 10
156.9169876782366
 20
216.3052567451878
 30
0.0
 42
0.00539231
  0
VERTEX
  5
603B3
330
60399
100
AcDbEntity
  8
10000_Front
  6
Continuous
 62
     7
100
AcDbVertex
100
AcDb2dVertex
 10
156.8819376782366
 20
216.3161167451879
 30
0.0
 42
0.016186194
 70
     1
  0
VERTEX
  5
603B4
330
60399
100
AcDbEntity
  8
10000_Front
  6
Continuous
 62
     7
100
AcDbVertex
100
AcDb2dVertex
 10
156.8374126782366
 20
216.3253167451878
 30
0.0
 42
0.027067494
  0
VERTEX
  5
603B5
102
{ACAD_REACTORS
330
61541
102
}
330
60399
100
AcDbEntity
  8
10000_Front
  6
Continuous
 62
     7
100
AcDbVertex
100
AcDb2dVertex
 10
156.7698366782366
 20
216.3334967451879
 30
0.0
 42
0.013868315
 70
     1
  0
VERTEX
  5
603B6
330
60399
100
AcDbEntity
  8
10000_Front
  6
Continuous
 62
     7
100
AcDbVertex
100
AcDb2dVertex
 10
156.6819106782366
 20
216.3405867451878
 30
0.0
 42
0.0076245479
  0
SEQEND
  5
603B7
330
60399
100
AcDbEntity
  8
10000_Front
  6
Continuous
 62
     7
  0
LINE
  5
60434
330
1F
100
AcDbEntity
  8
10000_Front
  6
Continuous
 62
     7
100
AcDbLine
 10
157.4819166782366
 20
215.1907367451878
 30
0.0
 11
157.4819166782366
 21
214.3405767451877
 31
0.0
  0
LINE
  5
60435
330
1F
100
AcDbEntity
  8
10000_Front
  6
Continuous
 62
     7
100
AcDbLine
 10
157.4819166782366
 20
215.5404467451879
 30
0.0
 11
157.4819166782366
 21
215.1907367451878
 31
0.0
  0
LINE
  5
60439
102
{ACAD_REACTORS
330
61559
102
}
330
1F
100
AcDbEntity
  8
11000_Left
  6
Continuous
 62
     7
100
AcDbLine
 10
189.363626450423
 20
185.0905767451877
 30
0.0
 11
189.363626450423
 21
214.3405767451877
 31
0.0
  0
LINE
  5
6043A
102
{ACAD_REACTORS
330
61559
102
}
330
1F
100
AcDbEntity
  8
11000_Left
  6
Continuous
 62
     7
100
AcDbLine
 10
217.363626450423
 20
214.3405767451877
 30
0.0
 11
217.363626450423
 21
185.0905767451877
 31
0.0
  0
LINE
  5
6043B
330
1F
100
AcDbEntity
  8
11000_Left
  6
Continuous
 62
     7
100
AcDbLine
 10
195.0886264504229
 20
172.0405767451878
 30
0.0
 11
195.288626450423
 21
168.0405767451878
 31
0.0
  0
LINE
  5
6043C
330
1F
100
AcDbEntity
  8
11000_Left
  6
Continuous
 62
     7
100
AcDbLine
 10
193.488626450423
 20
168.0405767451878
 30
0.0
 11
193.688626450423
 21
172.0405767451878
 31
0.0
  0
LINE
  5
6043D
330
1F
100
AcDbEntity
  8
11000_Left
  6
Continuous
 62
     7
100
AcDbLine
 10
192.888626450423
 20
172.0405767451878
 30
0.0
 11
192.688626450423
 21
168.0405767451878
 31
0.0
  0
LINE
  5
6043E
330
1F
100
AcDbEntity
  8
11000_Left
  6
Continuous
 62
     7
100
AcDbLine
 10
196.088626450423
 20
168.0405767451878
 30
0.0
 11
195.8886264504229
 21
172.0405767451878
 31
0.0
  0
LINE
  5
6043F
330
1F
100
AcDbEntity
  8
11000_Left
  6
Continuous
 62
     7
100
AcDbLine
 10
213.0886264504229
 20
172.0405767451878
 30
0.0
 11
213.288626450423
 21
168.0405767451878
 31
0.0
  0
LINE
  5
60440
330
1F
100
AcDbEntity
  8
11000_Left
  6
Continuous
 62
     7
100
AcDbLine
 10
211.488626450423
 20
168.0405767451878
 30
0.0
 11
211.688626450423
 21
172.0405767451878
 31
0.0
  0
LINE
  5
60441
330
1F
100
AcDbEntity
  8
11000_Left
  6
Continuous
 62
     7
100
AcDbLine
 10
210.888626450423
 20
172.0405767451878
 30
0.0
 11
210.688626450423
 21
168.0405767451878
 31
0.0
  0
LINE
  5
60442
330
1F
100
AcDbEntity
  8
11000_Left
  6
Continuous
 62
     7
100
AcDbLine
 10
214.088626450423
 20
168.0405767451878
 30
0.0
 11
213.8886264504229
 21
172.0405767451878
 31
0.0
  0
LINE
  5
60443
330
1F
100
AcDbEntity
  8
11000_Left
  6
Continuous
 62
     7
100
AcDbLine
 10
193.488626450423
 20
166.0405767451878
 30
0.0
 11
193.488626450423
 21
168.0405767451878
 31
0.0
  0
LINE
  5
60444
330
1F
100
AcDbEntity
  8
11000_Left
  6
Continuous
 62
     7
100
AcDbLine
 10
193.890856450423
 20
161.7934367451878
 30
0.0
 11
193.488626450423
 21
166.0405767451878
 31
0.0
  0
ARC
  5
60445
330
1F
100
AcDbEntity
  8
11000_Left
  6
Continuous
 62
     7
100
AcDbCircle
 10
194.388626450423
 20
161.8405767451877
 30
0.0
 40
0.5
100
AcDbArc
 50
185.4100800000005
 51
354.5899199999993
  0
LINE
  5
60446
330
1F
100
AcDbEntity
  8
11000_Left
  6
Continuous
 62
     7
100
AcDbLine
 10
195.288626450423
 20
166.0405767451878
 30
0.0
 11
194.886396450423
 21
161.7934367451878
 31
0.0
  0
LINE
  5
60447
330
1F
100
AcDbEntity
  8
11000_Left
  6
Continuous
 62
     7
100
AcDbLine
 10
195.288626450423
 20
168.0405767451878
 30
0.0
 11
195.288626450423
 21
166.0405767451878
 31
0.0
  0
LINE
  5
60448
330
1F
100
AcDbEntity
  8
11000_Left
  6
Continuous
 62
     7
100
AcDbLine
 10
196.088626450423
 20
166.0405767451878
 30
0.0
 11
196.088626450423
 21
168.0405767451878
 31
0.0
  0
LINE
  5
60449
330
1F
100
AcDbEntity
  8
11000_Left
  6
Continuous
 62
     7
100
AcDbLine
 10
195.682936450423
 20
161.7190767451878
 30
0.0
 11
196.088626450423
 21
166.0405767451878
 31
0.0
  0
ARC
  5
6044A
102
{ACAD_REACTORS
330
61572
102
}
330
1F
100
AcDbEntity
  8
11000_Left
  6
Continuous
 62
     7
100
AcDbCircle
 10
194.388626450423
 20
161.8405767451877
 30
0.0
 40
1.3
100
AcDbArc
 50
185.3630499999986
 51
354.6369500000013
  0
LINE
  5
6044B
330
1F
100
AcDbEntity
  8
11000_Left
  6
Continuous
 62
     7
100
AcDbLine
 10
192.688626450423
 20
166.0405767451878
 30
0.0
 11
193.094316450423
 21
161.7190767451878
 31
0.0
  0
LINE
  5
6044C
330
1F
100
AcDbEntity
  8
11000_Left
  6
Continuous
 62
     7
100
AcDbLine
 10
192.688626450423
 20
168.0405767451878
 30
0.0
 11
192.688626450423
 21
166.0405767451878
 31
0.0
  0
LINE
  5
6044D
330
1F
100
AcDbEntity
  8
11000_Left
  6
Continuous
 62
     7
100
AcDbLine
 10
211.488626450423
 20
166.0405767451878
 30
0.0
 11
211.488626450423
 21
168.0405767451878
 31
0.0
  0
LINE
  5
6044E
330
1F
100
AcDbEntity
  8
11000_Left
  6
Continuous
 62
     7
100
AcDbLine
 10
211.890856450423
 20
161.7934367451878
 30
0.0
 11
211.488626450423
 21
166.0405767451878
 31
0.0
  0
ARC
  5
6044F
330
1F
100
AcDbEntity
  8
11000_Left
  6
Continuous
 62
     7
100
AcDbCircle
 10
212.388626450423
 20
161.8405767451877
 30
0.0
 40
0.5
100
AcDbArc
 50
185.4100800000005
 51
354.5899199999993
  0
LINE
  5
60450
330
1F
100
AcDbEntity
  8
11000_Left
  6
Continuous
 62
     7
100
AcDbLine
 10
213.288626450423
 20
166.0405767451878
 30
0.0
 11
212.886396450423
 21
161.7934367451878
 31
0.0
  0
LINE
  5
60451
330
1F
100
AcDbEntity
  8
11000_Left
  6
Continuous
 62
     7
100
AcDbLine
 10
213.288626450423
 20
168.0405767451878
 30
0.0
 11
213.288626450423
 21
166.0405767451878
 31
0.0
  0
LINE
  5
60452
330
1F
100
AcDbEntity
  8
11000_Left
  6
Continuous
 62
     7
100
AcDbLine
 10
214.088626450423
 20
166.0405767451878
 30
0.0
 11
214.088626450423
 21
168.0405767451878
 31
0.0
  0
LINE
  5
60453
330
1F
100
AcDbEntity
  8
11000_Left
  6
Continuous
 62
     7
100
AcDbLine
 10
213.6829364504229
 20
161.7190767451878
 30
0.0
 11
214.088626450423
 21
166.0405767451878
 31
0.0
  0
ARC
  5
60454
102
{ACAD_REACTORS
330
61572
102
}
330
1F
100
AcDbEntity
  8
11000_Left
  6
Continuous
 62
     7
100
AcDbCircle
 10
212.388626450423
 20
161.8405767451877
 30
0.0
 40
1.3
100
AcDbArc
 50
185.3630499999986
 51
354.6369500000013
  0
LINE
  5
60455
330
1F
100
AcDbEntity
  8
11000_Left
  6
Continuous
 62
     7
100
AcDbLine
 10
210.688626450423
 20
166.0405767451878
 30
0.0
 11
211.094316450423
 21
161.7190767451878
 31
0.0
  0
LINE
  5
60456
330
1F
100
AcDbEntity
  8
11000_Left
  6
Continuous
 62
     7
100
AcDbLine
 10
210.688626450423
 20
168.0405767451878
 30
0.0
 11
210.688626450423
 21
166.0405767451878
 31
0.0
  0
LINE
  5
60458
330
1F
100
AcDbEntity
  8
11000_Left
  6
Continuous
 62
     7
100
AcDbLine
 10
216.613626450423
 20
184.3405767451877
 30
0.0
 11
190.113626450423
 21
184.3405767451877
 31
0.0
  0
LINE
  5
60459
330
1F
100
AcDbEntity
  8
11000_Left
  6
Continuous
 62
     7
100
AcDbLine
 10
198.038626450423
 20
182.1405767451878
 30
0.0
 11
198.838626450423
 21
182.1405767451878
 31
0.0
  0
ARC
  5
6045B
330
1F
100
AcDbEntity
  8
11000_Left
  6
Continuous
 62
     7
100
AcDbCircle
 10
190.113626450423
 20
185.0905767451877
 30
0.0
 40
0.75
100
AcDbArc
 50
180.0
 51
270.0
  0
LINE
  5
6045C
330
1F
100
AcDbEntity
  8
11000_Left
  6
Continuous
 62
     7
100
AcDbLine
 10
193.688626450423
 20
172.0405767451878
 30
0.0
 11
193.688626450423
 21
184.3405867451878
 31
0.0
  0
LINE
  5
6045D
330
1F
100
AcDbEntity
  8
11000_Left
  6
Continuous
 62
     7
100
AcDbLine
 10
195.0886264504229
 20
184.3405867451878
 30
0.0
 11
195.0886264504229
 21
172.0405767451878
 31
0.0
  0
LINE
  5
6045E
330
1F
100
AcDbEntity
  8
11000_Left
  6
Continuous
 62
     7
100
AcDbLine
 10
192.3886264504229
 20
183.6405767451878
 30
0.0
 11
193.084006450423
 21
176.4659967451878
 31
0.0
  0
LINE
  5
6045F
330
1F
100
AcDbEntity
  8
11000_Left
  6
Continuous
 62
     7
100
AcDbLine
 10
195.697586450423
 20
176.5253767451877
 30
0.0
 11
196.388626450423
 21
183.6405767451878
 31
0.0
  0
LINE
  5
60466
330
1F
100
AcDbEntity
  8
11000_Left
  6
Continuous
 62
     7
100
AcDbLine
 10
196.388626450423
 20
183.6405767451878
 30
0.0
 11
196.388626450423
 21
176.3405767451877
 31
0.0
  0
LINE
  5
60467
330
1F
100
AcDbEntity
  8
11000_Left
  6
Continuous
 62
     7
100
AcDbLine
 10
192.3886264504229
 20
183.6405767451878
 30
0.0
 11
192.3886264504229
 21
176.3405767451877
 31
0.0
  0
LINE
  5
60468
330
1F
100
AcDbEntity
  8
11000_Left
  6
Continuous
 62
     7
100
AcDbLine
 10
193.0886264504229
 20
176.2793067451878
 30
0.0
 11
192.888626450423
 21
172.0405767451878
 31
0.0
  0
ARC
  5
60469
330
1F
100
AcDbEntity
  8
11000_Left
  6
Continuous
 62
     7
100
AcDbCircle
 10
191.790076450423
 20
176.3405767451877
 30
0.0
 40
1.3
100
AcDbArc
 50
357.2985600000011
 51
5.535979999999988
  0
ARC
  5
6046A
330
1F
100
AcDbEntity
  8
11000_Left
  6
Continuous
 62
     7
100
AcDbCircle
 10
196.991466450423
 20
176.3997067451878
 30
0.0
 40
1.2999695
100
AcDbArc
 50
174.4527200000006
 51
182.6069599999992
  0
LINE
  5
6046B
330
1F
100
AcDbEntity
  8
11000_Left
  6
Continuous
 62
     7
100
AcDbLine
 10
195.8886264504229
 20
172.0405767451878
 30
0.0
 11
195.692846450423
 21
176.3405767451877
 31
0.0
  0
LINE
  5
605A5
330
1F
100
AcDbEntity
  8
11000_Left
  6
Continuous
 62
     7
100
AcDbLine
 10
195.0886264504229
 20
173.3405767451877
 30
0.0
 11
194.788626450423
 21
173.3405767451877
 31
0.0
  0
LINE
  5
605A6
330
1F
100
AcDbEntity
  8
11000_Left
  6
Continuous
 62
     7
100
AcDbLine
 10
193.988626450423
 20
173.3405767451877
 30
0.0
 11
193.688626450423
 21
173.3405767451877
 31
0.0
  0
LINE
  5
605A7
330
1F
100
AcDbEntity
  8
11000_Left
  6
Continuous
 62
     7
100
AcDbLine
 10
194.044616450423
 20
173.3405767451877
 30
0.0
 11
193.988626450423
 21
173.3405767451877
 31
0.0
  0
LINE
  5
605A8
330
1F
100
AcDbEntity
  8
11000_Left
  6
Continuous
 62
     7
100
AcDbLine
 10
194.732646450423
 20
173.3405767451877
 30
0.0
 11
194.044616450423
 21
173.3405767451877
 31
0.0
  0
LINE
  5
605A9
330
1F
100
AcDbEntity
  8
11000_Left
  6
Continuous
 62
     7
100
AcDbLine
 10
194.788626450423
 20
173.3405767451877
 30
0.0
 11
194.732646450423
 21
173.3405767451877
 31
0.0
  0
ARC
  5
605AA
330
1F
100
AcDbEntity
  8
11000_Left
  6
Continuous
 62
     7
100
AcDbCircle
 10
195.817136450423
 20
173.6405767451878
 30
0.0
 40
0.3
100
AcDbArc
 50
272.3486099999997
 51
354.2894099999993
  0
LINE
  5
605AB
330
1F
100
AcDbEntity
  8
11000_Left
  6
Continuous
 62
     7
100
AcDbLine
 10
196.115646450423
 20
173.6107267451878
 30
0.0
 11
196.388626450423
 21
176.3405767451877
 31
0.0
  0
ARC
  5
605AC
330
1F
100
AcDbEntity
  8
11000_Left
  6
Continuous
 62
     7
100
AcDbCircle
 10
192.960126450423
 20
173.6405767451878
 30
0.0
 40
0.3
100
AcDbArc
 50
185.7105900000006
 51
268.0613099999996
  0
LINE
  5
605AD
330
1F
100
AcDbEntity
  8
11000_Left
  6
Continuous
 62
     7
100
AcDbLine
 10
192.3886264504229
 20
176.3405767451877
 30
0.0
 11
192.661616450423
 21
173.6107267451878
 31
0.0
  0
LINE
  5
605AE
330
1F
100
AcDbEntity
  8
11000_Left
  6
Continuous
 62
     7
100
AcDbLine
 10
196.388626450423
 20
184.3405867451878
 30
0.0
 11
196.388626450423
 21
183.6405767451878
 31
0.0
  0
LINE
  5
605AF
330
1F
100
AcDbEntity
  8
11000_Left
  6
Continuous
 62
     7
100
AcDbLine
 10
192.3886264504229
 20
183.6405767451878
 30
0.0
 11
192.3886264504229
 21
184.3405867451878
 31
0.0
  0
LINE
  5
605B0
330
1F
100
AcDbEntity
  8
11000_Left
  6
Continuous
 62
     7
100
AcDbLine
 10
197.5886264504229
 20
184.3405867451878
 30
0.0
 11
197.5886264504229
 21
183.8003867451878
 31
0.0
  0
LINE
  5
605B1
330
1F
100
AcDbEntity
  8
11000_Left
  6
Continuous
 62
     7
100
AcDbLine
 10
197.5886264504229
 20
183.8003867451878
 30
0.0
 11
198.038626450423
 21
183.5405767451878
 31
0.0
  0
LINE
  5
605B2
330
1F
100
AcDbEntity
  8
11000_Left
  6
Continuous
 62
     7
100
AcDbLine
 10
198.038626450423
 20
183.5405767451878
 30
0.0
 11
198.038626450423
 21
183.1405767451878
 31
0.0
  0
ARC
  5
605B3
102
{ACAD_REACTORS
330
6159C
102
}
330
1F
100
AcDbEntity
  8
11000_Left
  6
Continuous
 62
     7
100
AcDbCircle
 10
198.038626450423
 20
182.6405767451878
 30
0.0
 40
0.5
100
AcDbArc
 50
90.0
 51
270.0
  0
ARC
  5
605B6
330
1F
100
AcDbEntity
  8
11000_Left
  6
Continuous
 62
     7
100
AcDbCircle
 10
216.613626450423
 20
185.0905767451877
 30
0.0
 40
0.75
100
AcDbArc
 50
270.0
 51
0.0
  0
ARC
  5
605B7
330
1F
100
AcDbEntity
  8
11000_Left
  6
Continuous
 62
     7
100
AcDbCircle
 10
198.838626450423
 20
182.4405767451879
 30
0.0
 40
0.3
100
AcDbArc
 50
270.0
 51
0.0
  0
LINE
  5
605B8
330
1F
100
AcDbEntity
  8
11000_Left
  6
Continuous
 62
     7
100
AcDbLine
 10
199.138626450423
 20
182.4405767451879
 30
0.0
 11
199.138626450423
 21
183.8405767451877
 31
0.0
  0
ARC
  5
605B9
330
1F
100
AcDbEntity
  8
11000_Left
  6
Continuous
 62
     7
100
AcDbCircle
 10
199.638626450423
 20
183.8405767451877
 30
0.0
 40
0.5
100
AcDbArc
 50
90.0
 51
180.0
  0
ARC
  5
605BA
330
1F
100
AcDbEntity
  8
11000_Left
  6
Continuous
 62
     7
100
AcDbCircle
 10
207.138626450423
 20
183.8405767451877
 30
0.0
 40
0.5
100
AcDbArc
 50
0.0
 51
90.0
  0
LINE
  5
605BB
330
1F
100
AcDbEntity
  8
11000_Left
  6
Continuous
 62
     7
100
AcDbLine
 10
207.6386264504229
 20
183.8405767451877
 30
0.0
 11
207.6386264504229
 21
182.4405767451879
 31
0.0
  0
ARC
  5
605BC
330
1F
100
AcDbEntity
  8
11000_Left
  6
Continuous
 62
     7
100
AcDbCircle
 10
207.938626450423
 20
182.4405767451879
 30
0.0
 40
0.3
100
AcDbArc
 50
180.0
 51
270.0
  0
LINE
  5
605BD
330
1F
100
AcDbEntity
  8
11000_Left
  6
Continuous
 62
     7
100
AcDbLine
 10
207.938626450423
 20
182.1405767451878
 30
0.0
 11
209.188626450423
 21
182.1405767451878
 31
0.0
  0
ARC
  5
605BE
102
{ACAD_REACTORS
330
6159C
102
}
330
1F
100
AcDbEntity
  8
11000_Left
  6
Continuous
 62
     7
100
AcDbCircle
 10
209.188626450423
 20
182.6405767451878
 30
0.0
 40
0.5
100
AcDbArc
 50
270.0
 51
90.0
  0
LINE
  5
605BF
330
1F
100
AcDbEntity
  8
11000_Left
  6
Continuous
 62
     7
100
AcDbLine
 10
209.188626450423
 20
183.1405767451878
 30
0.0
 11
208.738626450423
 21
183.1405767451878
 31
0.0
  0
LINE
  5
605C0
330
1F
100
AcDbEntity
  8
11000_Left
  6
Continuous
 62
     7
100
AcDbLine
 10
208.738626450423
 20
183.1405767451878
 30
0.0
 11
208.738626450423
 21
183.5405767451878
 31
0.0
  0
LINE
  5
605C1
330
1F
100
AcDbEntity
  8
11000_Left
  6
Continuous
 62
     7
100
AcDbLine
 10
208.738626450423
 20
183.5405767451878
 30
0.0
 11
209.188626450423
 21
183.8003867451878
 31
0.0
  0
LINE
  5
605C2
330
1F
100
AcDbEntity
  8
11000_Left
  6
Continuous
 62
     7
100
AcDbLine
 10
209.188626450423
 20
183.8003867451878
 30
0.0
 11
209.188626450423
 21
184.3405767451877
 31
0.0
  0
LINE
  5
605C3
330
1F
100
AcDbEntity
  8
11000_Left
  6
Continuous
 62
     7
100
AcDbLine
 10
211.688626450423
 20
172.0405767451878
 30
0.0
 11
211.688626450423
 21
184.3405867451878
 31
0.0
  0
LINE
  5
605C4
330
1F
100
AcDbEntity
  8
11000_Left
  6
Continuous
 62
     7
100
AcDbLine
 10
213.0886264504229
 20
184.3405867451878
 30
0.0
 11
213.0886264504229
 21
172.0405767451878
 31
0.0
  0
LINE
  5
605C5
330
1F
100
AcDbEntity
  8
11000_Left
  6
Continuous
 62
     7
100
AcDbLine
 10
210.388626450423
 20
183.6405767451878
 30
0.0
 11
211.084006450423
 21
176.4659967451878
 31
0.0
  0
LINE
  5
605C6
330
1F
100
AcDbEntity
  8
11000_Left
  6
Continuous
 62
     7
100
AcDbLine
 10
213.697586450423
 20
176.5253767451877
 30
0.0
 11
214.388626450423
 21
183.6405767451878
 31
0.0
  0
LINE
  5
605CB
330
1F
100
AcDbEntity
  8
11000_Left
  6
Continuous
 62
     7
100
AcDbLine
 10
214.388626450423
 20
183.6405767451878
 30
0.0
 11
214.388626450423
 21
176.3405767451877
 31
0.0
  0
LINE
  5
605CC
330
1F
100
AcDbEntity
  8
11000_Left
  6
Continuous
 62
     7
100
AcDbLine
 10
210.388626450423
 20
176.3405767451877
 30
0.0
 11
210.388626450423
 21
183.6405767451878
 31
0.0
  0
LINE
  5
605CF
330
1F
100
AcDbEntity
  8
11000_Left
  6
Continuous
 62
     7
100
AcDbLine
 10
211.0886264504229
 20
176.2793067451878
 30
0.0
 11
210.888626450423
 21
172.0405767451878
 31
0.0
  0
ARC
  5
605D0
330
1F
100
AcDbEntity
  8
11000_Left
  6
Continuous
 62
     7
100
AcDbCircle
 10
209.790076450423
 20
176.3405767451877
 30
0.0
 40
1.3
100
AcDbArc
 50
357.2985600000011
 51
5.535979999999988
  0
ARC
  5
605D1
330
1F
100
AcDbEntity
  8
11000_Left
  6
Continuous
 62
     7
100
AcDbCircle
 10
214.991466450423
 20
176.3997067451878
 30
0.0
 40
1.2999695
100
AcDbArc
 50
174.4527200000006
 51
182.6069599999992
  0
LINE
  5
605D2
330
1F
100
AcDbEntity
  8
11000_Left
  6
Continuous
 62
     7
100
AcDbLine
 10
213.8886264504229
 20
172.0405767451878
 30
0.0
 11
213.6928464504229
 21
176.3405767451877
 31
0.0
  0
LINE
  5
6070A
330
1F
100
AcDbEntity
  8
11000_Left
  6
Continuous
 62
     7
100
AcDbLine
 10
211.988626450423
 20
173.3405767451877
 30
0.0
 11
211.688626450423
 21
173.3405767451877
 31
0.0
  0
LINE
  5
6070B
330
1F
100
AcDbEntity
  8
11000_Left
  6
Continuous
 62
     7
100
AcDbLine
 10
212.044616450423
 20
173.3405767451877
 30
0.0
 11
211.988626450423
 21
173.3405767451877
 31
0.0
  0
LINE
  5
6070C
330
1F
100
AcDbEntity
  8
11000_Left
  6
Continuous
 62
     7
100
AcDbLine
 10
212.732646450423
 20
173.3405767451877
 30
0.0
 11
212.044616450423
 21
173.3405767451877
 31
0.0
  0
LINE
  5
6070D
330
1F
100
AcDbEntity
  8
11000_Left
  6
Continuous
 62
     7
100
AcDbLine
 10
212.788626450423
 20
173.3405767451877
 30
0.0
 11
212.732646450423
 21
173.3405767451877
 31
0.0
  0
LINE
  5
6070E
330
1F
100
AcDbEntity
  8
11000_Left
  6
Continuous
 62
     7
100
AcDbLine
 10
213.0886264504229
 20
173.3405767451877
 30
0.0
 11
212.788626450423
 21
173.3405767451877
 31
0.0
  0
ARC
  5
6070F
330
1F
100
AcDbEntity
  8
11000_Left
  6
Continuous
 62
     7
100
AcDbCircle
 10
213.817136450423
 20
173.6405767451878
 30
0.0
 40
0.3
100
AcDbArc
 50
272.3486099999997
 51
354.2894099999993
  0
LINE
  5
60710
330
1F
100
AcDbEntity
  8
11000_Left
  6
Continuous
 62
     7
100
AcDbLine
 10
214.115646450423
 20
173.6107267451878
 30
0.0
 11
214.388626450423
 21
176.3405767451877
 31
0.0
  0
ARC
  5
60711
330
1F
100
AcDbEntity
  8
11000_Left
  6
Continuous
 62
     7
100
AcDbCircle
 10
210.960126450423
 20
173.6405767451878
 30
0.0
 40
0.3
100
AcDbArc
 50
185.7105900000006
 51
268.0613099999996
  0
LINE
  5
60712
330
1F
100
AcDbEntity
  8
11000_Left
  6
Continuous
 62
     7
100
AcDbLine
 10
210.388626450423
 20
176.3405767451877
 30
0.0
 11
210.661616450423
 21
173.6107267451878
 31
0.0
  0
LINE
  5
60715
330
1F
100
AcDbEntity
  8
11000_Left
  6
Continuous
 62
     7
100
AcDbLine
 10
214.388626450423
 20
184.3405867451878
 30
0.0
 11
214.388626450423
 21
183.6405767451878
 31
0.0
  0
LINE
  5
60716
330
1F
100
AcDbEntity
  8
11000_Left
  6
Continuous
 62
     7
100
AcDbLine
 10
210.388626450423
 20
183.6405767451878
 30
0.0
 11
210.388626450423
 21
184.3405867451878
 31
0.0
  0
LINE
  5
60718
330
1F
100
AcDbEntity
  8
11000_Left
  6
Continuous
 62
     7
100
AcDbLine
 10
216.613626450423
 20
214.3405767451877
 30
0.0
 11
190.113626450423
 21
214.3405767451877
 31
0.0
  0
ARC
  5
6071A
330
1F
100
AcDbEntity
  8
11000_Left
  6
Continuous
 62
     7
100
AcDbCircle
 10
203.363626450423
 20
-33.65941925481218
 30
0.0
 40
250.0
100
AcDbArc
 50
86.96364900000002
 51
93.03635099999997
  0
LINE
  5
6071B
330
1F
100
AcDbEntity
  8
11000_Left
  6
Continuous
 62
     7
100
AcDbLine
 10
189.363626450423
 20
214.3405767451877
 30
0.0
 11
190.113626450423
 21
214.3405767451877
 31
0.0
  0
LINE
  5
60797
330
1F
100
AcDbEntity
  8
11000_Left
  6
Continuous
 62
     7
100
AcDbLine
 10
189.363626450423
 20
214.3405767451877
 30
0.0
 11
189.363626450423
 21
215.1907367451878
 31
0.0
  0
LINE
  5
60798
330
1F
100
AcDbEntity
  8
11000_Left
  6
Continuous
 62
     7
100
AcDbLine
 10
189.363626450423
 20
214.3405767451877
 30
0.0
 11
189.363626450423
 21
214.3405767451877
 31
0.0
  0
ARC
  5
60799
330
1F
100
AcDbEntity
  8
11000_Left
  6
Continuous
 62
     7
100
AcDbCircle
 10
190.163626450423
 20
215.1907367451878
 30
0.0
 40
0.8
100
AcDbArc
 50
93.03635000000019
 51
180.0
  0
LINE
  5
6079C
330
1F
100
AcDbEntity
  8
11000_Left
  6
Continuous
 62
     7
100
AcDbLine
 10
216.613626450423
 20
214.3405767451877
 30
0.0
 11
217.363626450423
 21
214.3405767451877
 31
0.0
  0
LINE
  5
60818
330
1F
100
AcDbEntity
  8
11000_Left
  6
Continuous
 62
     7
100
AcDbLine
 10
217.363626450423
 20
215.1907367451878
 30
0.0
 11
217.363626450423
 21
214.3405767451877
 31
0.0
  0
ARC
  5
60819
330
1F
100
AcDbEntity
  8
11000_Left
  6
Continuous
 62
     7
100
AcDbCircle
 10
216.563626450423
 20
215.1907367451878
 30
0.0
 40
0.8
100
AcDbArc
 50
0.0000000009998646
 51
86.96364999999982
  0
DIMENSION
  5
614DA
102
{ACAD_XDICTIONARY
360
614E7
102
}
102
{ACAD_REACTORS
330
614F1
102
}
330
1F
100
AcDbEntity
  8
10100_Front_Dim
  6
Continuous
 62
     7
370
    13
100
AcDbDimension
  2
*D2
 10
157.4819166782366
 20
137.0988842854695
 30
0.0
 11
153.4653835756176
 21
130.908260228654
 31
0.0
 70
   160
 71
     5
 42
8.600000000000022
  3
H035
100
AcDbAlignedDimension
 13
148.8819166782366
 23
185.0905767451877
 33
0.0
 14
157.4819166782366
 24
185.0905767451877
 34
0.0
100
AcDbRotatedDimension
1001
ACAD
1000
DSTYLE
1002
{
1070
    40
1040
1.0
1070
    77
1070
     0
1070
   178
1070
     7
1070
   279
1070
     2
1002
}
  0
DIMENSION
  5
614F2
102
{ACAD_XDICTIONARY
360
61501
102
}
102
{ACAD_REACTORS
330
6150D
102
}
330
1F
100
AcDbEntity
  8
10100_Front_Dim
  6
Continuous
 62
     7
370
    13
100
AcDbDimension
  2
*D3
 10
155.3319166782366
 20
149.9182852531508
 30
0.0
 11
153.4653835756176
 21
144.4800125174088
 31
0.0
 70
   160
 71
     5
 42
4.299999999999982
  3
H035
100
AcDbAlignedDimension
 13
151.0319166782366
 23
184.3405767451877
 33
0.0
 14
155.3319166782366
 24
184.3405767451877
 34
0.0
100
AcDbRotatedDimension
1001
ACAD
1000
DSTYLE
1002
{
1070
    40
1040
1.0
1070
    77
1070
     0
1070
   178
1070
     7
1070
   279
1070
     2
1002
}
  0
DIMENSION
  5
6152A
102
{ACAD_XDICTIONARY
360
61537
102
}
102
{ACAD_REACTORS
330
61541
102
}
330
1F
100
AcDbEntity
  8
10100_Front_Dim
  6
Continuous
 62
     7
370
    13
100
AcDbDimension
  2
*D5
 10
166.0657860365887
 20
184.3405767451877
 30
0.0
 11
166.0657860365887
 21
200.3405817451878
 31
0.0
 70
    32
 71
     5
 42
32.00001000000009
  3
H035
100
AcDbAlignedDimension
 13
156.6819106782366
 23
216.3405867451878
 33
0.0
 14
156.7319166782366
 24
184.3405767451877
 34
0.0
 50
90.0
100
AcDbRotatedDimension
1001
ACAD
1000
DSTYLE
1002
{
1070
    40
1040
1.0
1070
    77
1070
     0
1070
   178
1070
     7
1070
   279
1070
     2
1002
}
  0
DIMENSION
  5
61542
102
{ACAD_XDICTIONARY
360
6154F
102
}
102
{ACAD_REACTORS
330
61559
102
}
330
1F
100
AcDbEntity
  8
11100_Left_Dim
  6
Continuous
 62
     7
370
    13
100
AcDbDimension
  2
*D6
 10
217.363626450423
 20
136.4267401519402
 30
0.0
 11
203.363626450423
 21
136.4267401519402
 31
0.0
 70
    32
 71
     5
 42
28.0
  3
H035
100
AcDbAlignedDimension
 13
189.363626450423
 23
185.0905767451877
 33
0.0
 14
217.363626450423
 24
185.0905767451877
 34
0.0
100
AcDbRotatedDimension
1001
ACAD
1000
DSTYLE
1002
{
1070
    40
1040
1.0
1070
    77
1070
     0
1070
   178
1070
     7
1070
   279
1070
     2
1002
}
  0
DIMENSION
  5
6155B
102
{ACAD_XDICTIONARY
360
61568
102
}
102
{ACAD_REACTORS
330
61572
102
}
330
1F
100
AcDbEntity
  8
11100_Left_Dim
  6
Continuous
 62
     7
370
    13
100
AcDbDimension
  2
*D7
 10
212.388626450423
 20
143.7870930274306
 30
0.0
 11
203.3886264504229
 21
143.7870930274306
 31
0.0
 70
    32
 71
     5
 42
18.0
  3
H035
100
AcDbAlignedDimension
 13
194.388626450423
 23
160.5405767451877
 33
0.0
 14
212.388626450423
 24
160.5405767451877
 34
0.0
100
AcDbRotatedDimension
1001
ACAD
1000
DSTYLE
1002
{
1070
    40
1040
1.0
1070
    77
1070
     0
1070
   178
1070
     7
1070
   279
1070
     2
1002
}
  0
DIMENSION
  5
61585
102
{ACAD_XDICTIONARY
360
61592
102
}
102
{ACAD_REACTORS
330
6159C
102
}
330
1F
100
AcDbEntity
  8
11100_Left_Dim
  6
Continuous
 62
     7
370
    13
100
AcDbDimension
  2
*D8
 10
209.688626450423
 20
151.8834814720106
 30
0.0
 11
203.613626450423
 21
151.8834814720106
 31
0.0
 70
    32
 71
     5
 42
12.14999999999997
  3
H035
100
AcDbAlignedDimension
 13
197.538626450423
 23
182.6405767451878
 33
0.0
 14
209.688626450423
 24
182.6405767451878
 34
0.0
100
AcDbRotatedDimension
1001
ACAD
1000
DSTYLE
1002
{
1070
    40
1040
1.0
1070
    77
1070
     0
1070
   178
1070
     7
1070
   279
1070
     2
1002
}
  0
ENDSEC
  0
SECTION
  2
OBJECTS
  0
DICTIONARY
  5
C
330
0
100
AcDbDictionary
281
     1
  3
ACAD_COLOR
350
6B
  3
ACAD_GROUP
350
D
  3
ACAD_LAYOUT
350
1A
  3
ACAD_MATERIAL
350
6A
  3
ACAD_MLINESTYLE
350
17
  3
ACAD_PLOTSETTINGS
350
19
  3
ACAD_PLOTSTYLENAME
350
E
  3
AcDbVariableDictionary
350
5E
  3
DWGPROPS
350
1D206
  0
DICTIONARY
  5
614E7
330
614DA
100
AcDbDictionary
280
     1
281
     1
  3
ACAD_DIMASSOC
360
614F1
  0
DICTIONARY
  5
61501
330
614F2
100
AcDbDictionary
280
     1
281
     1
  3
ACAD_DIMASSOC
360
6150D
  0
DICTIONARY
  5
61537
330
6152A
100
AcDbDictionary
280
     1
281
     1
  3
ACAD_DIMASSOC
360
61541
  0
DICTIONARY
  5
6154F
330
61542
100
AcDbDictionary
280
     1
281
     1
  3
ACAD_DIMASSOC
360
61559
  0
DICTIONARY
  5
61568
330
6155B
100
AcDbDictionary
280
     1
281
     1
  3
ACAD_DIMASSOC
360
61572
  0
DICTIONARY
  5
61592
330
61585
100
AcDbDictionary
280
     1
281
     1
  3
ACAD_DIMASSOC
360
6159C
  0
DICTIONARY
  5
6B
102
{ACAD_REACTORS
330
C
102
}
330
C
100
AcDbDictionary
281
     1
  0
DICTIONARY
  5
D
102
{ACAD_REACTORS
330
C
102
}
330
C
100
AcDbDictionary
281
     1
  0
DICTIONARY
  5
1A
102
{ACAD_REACTORS
330
C
102
}
330
C
100
AcDbDictionary
281
     1
  3
Layout1
350
51
  3
Layout2
350
56
  3
Model
350
22
  0
DICTIONARY
  5
6A
102
{ACAD_REACTORS
330
C
102
}
330
C
100
AcDbDictionary
281
     1
  0
DICTIONARY
  5
17
102
{ACAD_REACTORS
330
C
102
}
330
C
100
AcDbDictionary
281
     1
  3
Standard
350
18
  0
DICTIONARY
  5
19
102
{ACAD_REACTORS
330
C
102
}
330
C
100
AcDbDictionary
281
     1
  0
ACDBDICTIONARYWDFLT
  5
E
102
{ACAD_REACTORS
330
C
102
}
330
C
100
AcDbDictionary
281
     1
  3
Normal
350
F
100
AcDbDictionaryWithDefault
340
F
  0
DICTIONARY
  5
5E
102
{ACAD_REACTORS
330
C
102
}
330
C
100
AcDbDictionary
281
     1
  3
DIMASSOC
350
5F
  3
HIDETEXT
350
63
  3
PROJECTNAME
350
2C50
  0
XRECORD
  5
1D206
102
{ACAD_REACTORS
330
C
102
}
330
C
100
AcDbXrecord
280
     1
  1
DWGPROPS COOKIE
  2

  3

  4

  6

  7

  8

  9

300
=
301
=
302
=
303
=
304
=
305
=
306
=
307
=
308
=
309
=
 40
0.4278546412037037
 41
2453453.645911123
 42
2453780.704394618
  1

 90
        0
  0
DIMASSOC
  5
614F1
102
{ACAD_REACTORS
330
614E7
102
}
330
614E7
100
AcDbDimAssoc
330
614DA
 90
        3
 70
     0
 71
     0
  1
AcDbOsnapPointRef
 72
    13
331
60234
 73
     2
 91
        0
 40
0.0
 10
148.8819166782366
 20
185.0905767451877
 30
0.0
 75
     0
  1
AcDbOsnapPointRef
 72
     1
331
60235
 73
     2
 91
        0
 40
1.0
 10
157.4819166782366
 20
185.0905767451877
 30
0.0
 75
     0
  0
DIMASSOC
  5
6150D
102
{ACAD_REACTORS
330
61501
102
}
330
61501
100
AcDbDimAssoc
330
614F2
 90
        3
 70
     0
 71
     0
  1
AcDbOsnapPointRef
 72
     6
331
60246
 73
     2
 91
        0
 40
0.8028169014084465
 10
151.0319166782366
 20
184.3405767451877
 30
0.0
332
602AD
 74
     2
 92
        0
 75
     0
  1
AcDbOsnapPointRef
 72
     6
331
602B3
 73
     2
 91
        0
 40
0.0000012499984486
 10
155.3319166782366
 20
184.3405767451877
 30
0.0
332
60246
 74
     2
 92
        0
 75
     0
  0
DIMASSOC
  5
61541
102
{ACAD_REACTORS
330
61537
102
}
330
61537
100
AcDbDimAssoc
330
6152A
 90
        3
 70
     0
 71
     0
  1
AcDbOsnapPointRef
 72
     1
331
60399
331
603B5
 73
     2
 91
        0
 40
1.518069280215127
 10
156.6819106782366
 20
216.3405867451878
 30
0.0
 75
     0
  1
AcDbOsnapPointRef
 72
    13
331
60246
 73
     2
 91
        0
 40
0.0
 10
156.7319166782366
 20
184.3405767451877
 30
0.0
 75
     0
  0
DIMASSOC
  5
61559
102
{ACAD_REACTORS
330
6154F
102
}
330
6154F
100
AcDbDimAssoc
330
61542
 90
        3
 70
     0
 71
     0
  1
AcDbOsnapPointRef
 72
    13
331
60439
 73
     2
 91
        0
 40
0.0
 10
189.363626450423
 20
185.0905767451877
 30
0.0
 75
     0
  1
AcDbOsnapPointRef
 72
     1
331
6043A
 73
     2
 91
        0
 40
1.0
 10
217.363626450423
 20
185.0905767451877
 30
0.0
 75
     0
  0
DIMASSOC
  5
61572
102
{ACAD_REACTORS
330
61568
102
}
330
61568
100
AcDbDimAssoc
330
6155B
 90
        3
 70
     0
 71
     0
  1
AcDbOsnapPointRef
 72
     5
331
6044A
 73
     2
 91
        0
 40
4.712388980384689
 10
194.388626450423
 20
160.5405767451877
 30
0.0
 75
     0
  1
AcDbOsnapPointRef
 72
     5
331
60454
 73
     2
 91
        0
 40
4.712388980384689
 10
212.388626450423
 20
160.5405767451877
 30
0.0
 75
     0
  0
DIMASSOC
  5
6159C
102
{ACAD_REACTORS
330
61592
102
}
330
61592
100
AcDbDimAssoc
330
61585
 90
        3
 70
     0
 71
     0
  1
AcDbOsnapPointRef
 72
     5
331
605B3
 73
     2
 91
        0
 40
3.141592653589793
 10
197.538626450423
 20
182.6405767451878
 30
0.0
 75
     0
  1
AcDbOsnapPointRef
 72
     5
331
605BE
 73
     2
 91
        0
 40
6.283185307179586
 10
209.688626450423
 20
182.6405767451878
 30
0.0
 75
     0
  0
LAYOUT
  5
51
102
{ACAD_XDICTIONARY
360
1D20C
102
}
102
{ACAD_REACTORS
330
1A
102
}
330
1A
100
AcDbPlotSettings
  1

  2
None
  4

  6

 40
0.0
 41
0.0
 42
0.0
 43
0.0
 44
0.0
 45
0.0
 46
0.0
 47
0.0
 48
0.0
 49
0.0
140
0.0
141
0.0
142
1.0
143
1.0
 70
   688
 72
     0
 73
     0
 74
     5
  7

 75
    16
147
1.0
148
0.0
149
0.0
100
AcDbLayout
  1
Layout1
 70
     1
 71
     1
 10
0.0
 20
0.0
 11
12.0
 21
9.0
 12
0.0
 22
0.0
 32
0.0
 14
0.0
 24
0.0
 34
0.0
 15
0.0
 25
0.0
 35
0.0
146
0.0
 13
0.0
 23
0.0
 33
0.0
 16
1.0
 26
0.0
 36
0.0
 17
0.0
 27
1.0
 37
0.0
 76
     0
330
50
  0
LAYOUT
  5
56
102
{ACAD_XDICTIONARY
360
1D20E
102
}
102
{ACAD_REACTORS
330
1A
102
}
330
1A
100
AcDbPlotSettings
  1

  2
None
  4

  6

 40
0.0
 41
0.0
 42
0.0
 43
0.0
 44
0.0
 45
0.0
 46
0.0
 47
0.0
 48
0.0
 49
0.0
140
0.0
141
0.0
142
1.0
143
1.0
 70
   688
 72
     0
 73
     0
 74
     5
  7

 75
    16
147
1.0
148
0.0
149
0.0
100
AcDbLayout
  1
Layout2
 70
     1
 71
     2
 10
0.0
 20
0.0
 11
12.0
 21
9.0
 12
0.0
 22
0.0
 32
0.0
 14
0.0
 24
0.0
 34
0.0
 15
0.0
 25
0.0
 35
0.0
146
0.0
 13
0.0
 23
0.0
 33
0.0
 16
1.0
 26
0.0
 36
0.0
 17
0.0
 27
1.0
 37
0.0
 76
     0
330
55
  0
LAYOUT
  5
22
102
{ACAD_XDICTIONARY
360
1D20A
102
}
102
{ACAD_REACTORS
330
1A
102
}
330
1A
100
AcDbPlotSettings
  1

  2
\\ambw779a\A_P00390 (HP LaserJet 5000 Series PCL 6)
  4
A4
  6

 40
4.233333110809326
 41
4.233341693878172
 42
7.789321899414062
 43
4.23333740234375
 44
209.9733276367186
 45
296.9259948730469
 46
0.0
 47
0.0
 48
0.0
 49
0.0
140
0.0
141
0.0
142
1.0
143
1.010421706829464
 70
 11952
 72
     1
 73
     1
 74
     1
  7

 75
     0
147
0.9896857848965199
148
-46.41815288739531
149
-83.62641985624383
100
AcDbLayout
  1
Model
 70
     1
 71
     0
 10
0.0
 20
0.0
 11
12.0
 21
9.0
 12
0.0
 22
0.0
 32
0.0
 14
0.0
 24
0.0
 34
0.0
 15
0.0
 25
0.0
 35
0.0
146
0.0
 13
0.0
 23
0.0
 33
0.0
 16
1.0
 26
0.0
 36
0.0
 17
0.0
 27
1.0
 37
0.0
 76
     0
330
1F
  0
MLINESTYLE
  5
18
102
{ACAD_REACTORS
330
17
102
}
330
17
100
AcDbMlineStyle
  2
STANDARD
 70
     0
  3

 62
   256
 51
90.0
 52
90.0
 71
     2
 49
0.5
 62
   256
  6
BYLAYER
 49
-0.5
 62
   256
  6
BYLAYER
  0
ACDBPLACEHOLDER
  5
F
102
{ACAD_REACTORS
330
E
102
}
330
E
  0
DICTIONARYVAR
  5
5F
102
{ACAD_REACTORS
330
5E
102
}
330
5E
100
DictionaryVariables
280
     0
  1
2
  0
DICTIONARYVAR
  5
63
102
{ACAD_REACTORS
330
5E
102
}
330
5E
100
DictionaryVariables
280
     0
  1
1
  0
DICTIONARYVAR
  5
2C50
102
{ACAD_REACTORS
330
5E
102
}
330
5E
100
DictionaryVariables
280
     0
  1

  0
DICTIONARY
  5
1D20C
330
51
100
AcDbDictionary
280
     1
281
     1
  3
ACAD_XREC_ROUNDTRIP
360
1D20D
  0
DICTIONARY
  5
1D20E
330
56
100
AcDbDictionary
280
     1
281
     1
  3
ACAD_XREC_ROUNDTRIP
360
1D20F
  0
DICTIONARY
  5
1D20A
330
22
100
AcDbDictionary
280
     1
281
     1
  3
ACAD_XREC_ROUNDTRIP
360
1D20B
  0
XRECORD
  5
1D20D
102
{ACAD_REACTORS
330
1D20C
102
}
330
1D20C
100
AcDbXrecord
280
     1
102
SHADEPLOT
 70
     0
102
SHADEPLOTRESLEVEL
 70
     2
102
SHADEPLOTCUSTOMDPI
 70
   300
  0
XRECORD
  5
1D20F
102
{ACAD_REACTORS
330
1D20E
102
}
330
1D20E
100
AcDbXrecord
280
     1
102
SHADEPLOT
 70
     0
102
SHADEPLOTRESLEVEL
 70
     2
102
SHADEPLOTCUSTOMDPI
 70
   300
  0
XRECORD
  5
1D20B
102
{ACAD_REACTORS
330
1D20A
102
}
330
1D20A
100
AcDbXrecord
280
     1
102
SHADEPLOT
 70
     0
102
SHADEPLOTRESLEVEL
 70
     2
102
SHADEPLOTCUSTOMDPI
 70
   300
  0
ENDSEC
  0
EOF
