  0
SECTION
  2
HEADER
  9
$ACADVER
  1
AC1014
  9
$ACADMAINTVER
 70
     9
  9
$DWGCODEPAGE
  3
ANSI_1252
  9
$INSBASE
 10
0.0
 20
0.0
 30
0.0
  9
$EXTMIN
 10
452.7721173685344
 20
293.8639674127796
 30
0.0
  9
$EXTMAX
 10
519.4391173685253
 20
389.5309674127797
 30
0.0
  9
$LIMMIN
 10
0.0
 20
0.0
  9
$LIMMAX
 10
420.0
 20
297.0
  9
$ORTHOMODE
 70
     0
  9
$REGENMODE
 70
     1
  9
$FILLMODE
 70
     1
  9
$QTEXTMODE
 70
     0
  9
$MIRRTEXT
 70
     1
  9
$DRAGMODE
 70
     2
  9
$LTSCALE
 40
1.0
  9
$OSMODE
 70
    39
  9
$ATTMODE
 70
     1
  9
$TEXTSIZE
 40
2.5
  9
$TRACEWID
 40
1.0
  9
$TEXTSTYLE
  7
STANDARD
  9
$CLAYER
  8
DIM
  9
$CELTYPE
  6
BYLAYER
  9
$CECOLOR
 62
   256
  9
$CELTSCALE
 40
1.0
  9
$DELOBJ
 70
     1
  9
$DISPSILH
 70
     0
  9
$DIMSCALE
 40
1.0
  9
$DIMASZ
 40
2.5
  9
$DIMEXO
 40
0.625
  9
$DIMDLI
 40
3.75
  9
$DIMRND
 40
0.0
  9
$DIMDLE
 40
0.0
  9
$DIMEXE
 40
1.25
  9
$DIMTP
 40
0.0
  9
$DIMTM
 40
0.0
  9
$DIMTXT
 40
2.5
  9
$DIMCEN
 40
2.5
  9
$DIMTSZ
 40
0.0
  9
$DIMTOL
 70
     0
  9
$DIMLIM
 70
     0
  9
$DIMTIH
 70
     0
  9
$DIMTOH
 70
     0
  9
$DIMSE1
 70
     0
  9
$DIMSE2
 70
     0
  9
$DIMTAD
 70
     1
  9
$DIMZIN
 70
     8
  9
$DIMBLK
  1

  9
$DIMASO
 70
     1
  9
$DIMSHO
 70
     1
  9
$DIMPOST
  1

  9
$DIMAPOST
  1

  9
$DIMALT
 70
     0
  9
$DIMALTD
 70
     3
  9
$DIMALTF
 40
0.03937007874016
  9
$DIMLFAC
 40
1.0
  9
$DIMTOFL
 70
     1
  9
$DIMTVP
 40
0.0
  9
$DIMTIX
 70
     0
  9
$DIMSOXD
 70
     0
  9
$DIMSAH
 70
     0
  9
$DIMBLK1
  1

  9
$DIMBLK2
  1

  9
$DIMSTYLE
  2
ISO-25
  9
$DIMCLRD
 70
     0
  9
$DIMCLRE
 70
     0
  9
$DIMCLRT
 70
     0
  9
$DIMTFAC
 40
1.0
  9
$DIMGAP
 40
0.625
  9
$DIMJUST
 70
     0
  9
$DIMSD1
 70
     0
  9
$DIMSD2
 70
     0
  9
$DIMTOLJ
 70
     0
  9
$DIMTZIN
 70
     8
  9
$DIMALTZ
 70
     0
  9
$DIMALTTZ
 70
     0
  9
$DIMFIT
 70
     3
  9
$DIMUPT
 70
     0
  9
$DIMUNIT
 70
     2
  9
$DIMDEC
 70
     2
  9
$DIMTDEC
 70
     2
  9
$DIMALTU
 70
     2
  9
$DIMALTTD
 70
     3
  9
$DIMTXSTY
  7
STANDARD
  9
$DIMAUNIT
 70
     0
  9
$LUNITS
 70
     2
  9
$LUPREC
 70
     4
  9
$SKETCHINC
 40
1.0
  9
$FILLETRAD
 40
10.0
  9
$AUNITS
 70
     0
  9
$AUPREC
 70
     0
  9
$MENU
  1
.
  9
$ELEVATION
 40
0.0
  9
$PELEVATION
 40
0.0
  9
$THICKNESS
 40
0.0
  9
$LIMCHECK
 70
     0
  9
$BLIPMODE
 70
     0
  9
$CHAMFERA
 40
10.0
  9
$CHAMFERB
 40
10.0
  9
$CHAMFERC
 40
20.0
  9
$CHAMFERD
 40
0.0
  9
$SKPOLY
 70
     0
  9
$TDCREATE
 40
2453880.622500359
  9
$TDUPDATE
 40
2453880.623196608
  9
$TDINDWG
 40
0.0006966088
  9
$TDUSRTIMER
 40
0.0006966088
  9
$USRTIMER
 70
     1
  9
$ANGBASE
 50
0.0
  9
$ANGDIR
 70
     0
  9
$PDMODE
 70
     0
  9
$PDSIZE
 40
0.0
  9
$PLINEWID
 40
0.0
  9
$COORDS
 70
     1
  9
$SPLFRAME
 70
     0
  9
$SPLINETYPE
 70
     6
  9
$SPLINESEGS
 70
     8
  9
$ATTDIA
 70
     0
  9
$ATTREQ
 70
     1
  9
$HANDLING
 70
 22529
  9
$HANDSEED
  5
3AF
  9
$SURFTAB1
 70
     6
  9
$SURFTAB2
 70
     6
  9
$SURFTYPE
 70
     6
  9
$SURFU
 70
     6
  9
$SURFV
 70
     6
  9
$UCSNAME
  2

  9
$UCSORG
 10
0.0
 20
0.0
 30
0.0
  9
$UCSXDIR
 10
1.0
 20
0.0
 30
0.0
  9
$UCSYDIR
 10
0.0
 20
1.0
 30
0.0
  9
$PUCSNAME
  2

  9
$PUCSORG
 10
0.0
 20
0.0
 30
0.0
  9
$PUCSXDIR
 10
1.0
 20
0.0
 30
0.0
  9
$PUCSYDIR
 10
0.0
 20
1.0
 30
0.0
  9
$USERI1
 70
     0
  9
$USERI2
 70
     0
  9
$USERI3
 70
     0
  9
$USERI4
 70
     0
  9
$USERI5
 70
     0
  9
$USERR1
 40
0.0
  9
$USERR2
 40
0.0
  9
$USERR3
 40
0.0
  9
$USERR4
 40
0.0
  9
$USERR5
 40
0.0
  9
$WORLDVIEW
 70
     1
  9
$SHADEDGE
 70
     3
  9
$SHADEDIF
 70
    70
  9
$TILEMODE
 70
     1
  9
$MAXACTVP
 70
    64
  9
$PINSBASE
 10
0.0
 20
0.0
 30
0.0
  9
$PLIMCHECK
 70
     0
  9
$PEXTMIN
 10
0.0
 20
0.0
 30
0.0
  9
$PEXTMAX
 10
0.0
 20
0.0
 30
0.0
  9
$PLIMMIN
 10
0.0
 20
0.0
  9
$PLIMMAX
 10
12.0
 20
9.0
  9
$UNITMODE
 70
     0
  9
$VISRETAIN
 70
     1
  9
$PLINEGEN
 70
     0
  9
$PSLTSCALE
 70
     1
  9
$TREEDEPTH
 70
  3020
  9
$PICKSTYLE
 70
     1
  9
$CMLSTYLE
  2
STANDARD
  9
$CMLJUST
 70
     0
  9
$CMLSCALE
 40
20.0
  9
$PROXYGRAPHICS
 70
     1
  9
$MEASUREMENT
 70
     1
  0
ENDSEC
  0
SECTION
  2
CLASSES
  0
CLASS
  1
ACDBDICTIONARYWDFLT
  2
AcDbDictionaryWithDefault
  3
AutoCAD 2000
 90
        0
280
     0
281
     0
  0
CLASS
  1
ACDBPLACEHOLDER
  2
AcDbPlaceHolder
  3
AutoCAD 2000
 90
        0
280
     0
281
     0
  0
CLASS
  1
LAYOUT
  2
AcDbLayout
  3
AutoCAD 2000
 90
        0
280
     0
281
     0
  0
CLASS
  1
DICTIONARYVAR
  2
AcDbDictionaryVar
  3
AutoCAD 2000
 90
        0
280
     0
281
     0
  0
CLASS
  1
LONG_TRANSACTION
  2
AcDbLongTransaction
  3
AutoCAD 2000
 90
        0
280
     0
281
     0
  0
CLASS
  1
LWPOLYLINE
  2
AcDbPolyline
  3
AutoCAD 2000
 90
        0
280
     0
281
     1
  0
CLASS
  1
HATCH
  2
AcDbHatch
  3
AutoCAD 2000
 90
        0
280
     0
281
     1
  0
CLASS
  1
XRECORD
  2
AcDbXrecord
  3
AutoCAD 2000
 90
        0
280
     0
281
     0
  0
ENDSEC
  0
SECTION
  2
TABLES
  0
TABLE
  2
VPORT
  5
8
330
0
100
AcDbSymbolTable
 70
     2
  0
VPORT
  5
387
330
8
100
AcDbSymbolTableRecord
100
AcDbViewportTableRecord
  2
*ACTIVE
 70
     0
 10
0.0
 20
0.0
 11
1.0
 21
1.0
 12
486.4369027699233
 22
341.8814623188731
 13
0.0
 23
0.0
 14
10.0
 24
10.0
 15
10.0
 25
10.0
 16
0.0
 26
0.0
 36
1.0
 17
0.0
 27
0.0
 37
0.0
 40
112.1508740649299
 41
1.595679012345678
 42
50.0
 43
0.0
 44
0.0
 50
0.0
 51
0.0
 71
     0
 72
   100
 73
     1
 74
     3
 75
     0
 76
     0
 77
     0
 78
     0
  0
ENDTAB
  0
TABLE
  2
LTYPE
  5
5
330
0
100
AcDbSymbolTable
 70
     2
  0
LTYPE
  5
14
330
5
100
AcDbSymbolTableRecord
100
AcDbLinetypeTableRecord
  2
BYBLOCK
 70
     0
  3

 72
    65
 73
     0
 40
0.0
  0
LTYPE
  5
15
330
5
100
AcDbSymbolTableRecord
100
AcDbLinetypeTableRecord
  2
BYLAYER
 70
     0
  3

 72
    65
 73
     0
 40
0.0
  0
LTYPE
  5
16
330
5
100
AcDbSymbolTableRecord
100
AcDbLinetypeTableRecord
  2
CONTINUOUS
 70
     0
  3
Solid line
 72
    65
 73
     0
 40
0.0
  0
LTYPE
  5
FA
330
5
100
AcDbSymbolTableRecord
100
AcDbLinetypeTableRecord
  2
CENTER2
 70
     0
  3

 72
    65
 73
     4
 40
25.4
 49
19.05
 74
     0
 49
-3.174999999999998
 74
     0
 49
3.174999999999998
 74
     0
 49
-3.174999999999998
 74
     0
  0
ENDTAB
  0
TABLE
  2
LAYER
  5
2
330
0
100
AcDbSymbolTable
 70
     5
  0
LAYER
  5
10
330
2
100
AcDbSymbolTableRecord
100
AcDbLayerTableRecord
  2
0
 70
     0
 62
     7
  6
CONTINUOUS
  0
LAYER
  5
FB
330
2
100
AcDbSymbolTableRecord
100
AcDbLayerTableRecord
  2
DEFPOINTS
 70
     0
 62
     1
  6
CONTINUOUS
  0
LAYER
  5
FC
330
2
100
AcDbSymbolTableRecord
100
AcDbLayerTableRecord
  2
DIM
 70
     0
 62
     7
  6
CONTINUOUS
  0
LAYER
  5
FD
330
2
100
AcDbSymbolTableRecord
100
AcDbLayerTableRecord
  2
DRAW
 70
     0
 62
     7
  6
CONTINUOUS
  0
LAYER
  5
FE
330
2
100
AcDbSymbolTableRecord
100
AcDbLayerTableRecord
  2
CARTOUCHE
 70
     0
 62
     7
  6
CONTINUOUS
  0
ENDTAB
  0
TABLE
  2
STYLE
  5
3
330
0
100
AcDbSymbolTable
 70
     6
  0
STYLE
  5
11
330
3
100
AcDbSymbolTableRecord
100
AcDbTextStyleTableRecord
  2
STANDARD
 70
     0
 40
0.0
 41
1.0
 50
0.0
 71
     0
 42
2.5
  3
txt
  4

  0
STYLE
  5
FF
330
3
100
AcDbSymbolTableRecord
100
AcDbTextStyleTableRecord
  2
TSTYLE1
 70
     0
 40
0.6
 41
0.6
 50
0.0
 71
     0
 42
0.2
  3
ARIAL.TTF
  4

1001
ACAD
1000
Arial
1071
    32000
  0
STYLE
  5
100
330
3
100
AcDbSymbolTableRecord
100
AcDbTextStyleTableRecord
  2
TSTYLE2
 70
     0
 40
0.7
 41
0.4600000000000001
 50
0.0
 71
     0
 42
0.2
  3
ARIAL.TTF
  4

1001
ACAD
1000
Arial
1071
    32000
  0
STYLE
  5
101
330
3
100
AcDbSymbolTableRecord
100
AcDbTextStyleTableRecord
  2
TSTYLE3
 70
     0
 40
0.6
 41
0.4600000000000001
 50
0.0
 71
     0
 42
0.2
  3
ARIAL.TTF
  4

1001
ACAD
1000
Arial
1071
    32000
  0
STYLE
  5
102
330
3
100
AcDbSymbolTableRecord
100
AcDbTextStyleTableRecord
  2
TSTYLE4
 70
     0
 40
1.0
 41
0.4600000000000001
 50
0.0
 71
     0
 42
0.2
  3
ARIAL.TTF
  4

1001
ACAD
1000
Arial
1071
    32000
  0
STYLE
  5
103
330
3
100
AcDbSymbolTableRecord
100
AcDbTextStyleTableRecord
  2
TSTYLE6
 70
     0
 40
1.6
 41
0.95
 50
0.0
 71
     0
 42
0.2
  3
ARIAL.TTF
  4

1001
ACAD
1000
Arial
1071
    32000
  0
ENDTAB
  0
TABLE
  2
VIEW
  5
6
330
0
100
AcDbSymbolTable
 70
     0
  0
ENDTAB
  0
TABLE
  2
UCS
  5
7
330
0
100
AcDbSymbolTable
 70
     0
  0
ENDTAB
  0
TABLE
  2
APPID
  5
9
330
0
100
AcDbSymbolTable
 70
     1
  0
APPID
  5
12
330
9
100
AcDbSymbolTableRecord
100
AcDbRegAppTableRecord
  2
ACAD
 70
     0
  0
ENDTAB
  0
TABLE
  2
DIMSTYLE
  5
A
330
0
100
AcDbSymbolTable
 70
     6
  0
DIMSTYLE
105
27
330
A
100
AcDbSymbolTableRecord
100
AcDbDimStyleTableRecord
  2
ISO-25
 70
     0
  3

  4

  5

  6

  7

 40
1.0
 41
2.5
 42
0.625
 43
3.75
 44
1.25
 45
0.0
 46
0.0
 47
0.0
 48
0.0
140
2.5
141
2.5
142
0.0
143
0.03937007874016
144
1.0
145
0.0
146
1.0
147
0.625
 71
     0
 72
     0
 73
     0
 74
     0
 75
     0
 76
     0
 77
     1
 78
     8
170
     0
171
     3
172
     1
173
     0
174
     0
175
     0
176
     0
177
     0
178
     0
270
     2
271
     2
272
     2
273
     2
274
     3
340
11
275
     0
280
     0
281
     0
282
     0
283
     0
284
     8
285
     0
286
     0
287
     3
288
     0
  0
DIMSTYLE
105
104
330
A
100
AcDbSymbolTableRecord
100
AcDbDimStyleTableRecord
  2
STANDARD
 70
     0
  3

  4

  5

  6

  7

 40
1.0
 41
0.18
 42
0.063
 43
0.38
 44
0.18
 45
0.0
 46
0.0
 47
0.0
 48
0.0
140
0.18
141
0.09
142
0.0
143
25.4
144
1.0
145
0.0
146
1.0
147
0.09
 71
     0
 72
     0
 73
     1
 74
     1
 75
     0
 76
     0
 77
     0
 78
     0
170
     0
171
     2
172
     0
173
     0
174
     0
175
     0
176
     0
177
     0
178
     0
270
     2
271
     4
272
     4
273
     2
274
     2
340
11
275
     0
280
     0
281
     0
282
     0
283
     1
284
     0
285
     0
286
     0
287
     3
288
     0
  0
DIMSTYLE
105
105
102
{ACAD_REACTORS
330
184
330
10A
330
1D4
330
24E
102
}
330
A
100
AcDbSymbolTableRecord
100
AcDbDimStyleTableRecord
  2
DSTYLE4
 70
     0
  3

  4

  5

  6

  7

 40
1.0
 41
1.399999999999999
 42
1.28
 43
0.38
 44
0.533
 45
0.0
 46
0.0
 47
0.0
 48
0.0
140
1.6
141
0.09
142
0.0
143
25.4
144
1.0
145
0.7
146
0.6
147
0.0
 71
     0
 72
     0
 73
     0
 74
     0
 75
     0
 76
     0
 77
     0
 78
     8
170
     0
171
     2
172
     0
173
     0
174
     0
175
     0
176
     0
177
     0
178
     2
270
     2
271
     1
272
     4
273
     2
274
     2
340
103
275
     0
280
     0
281
     0
282
     0
283
     1
284
     0
285
     0
286
     0
287
     3
288
     0
  0
DIMSTYLE
105
106
102
{ACAD_REACTORS
330
192
330
25C
102
}
330
A
100
AcDbSymbolTableRecord
100
AcDbDimStyleTableRecord
  2
DSTYLE5
 70
     0
  3

  4

  5

  6

  7

 40
1.0
 41
1.399999999999999
 42
1.28
 43
0.38
 44
0.533
 45
0.0
 46
0.0
 47
0.0
 48
0.0
140
1.6
141
0.09
142
0.0
143
25.4
144
1.0
145
0.7
146
0.6
147
0.0
 71
     0
 72
     0
 73
     0
 74
     0
 75
     0
 76
     0
 77
     0
 78
     8
170
     0
171
     2
172
     0
173
     0
174
     0
175
     0
176
     0
177
     0
178
     2
270
     2
271
     2
272
     4
273
     2
274
     2
340
103
275
     0
280
     0
281
     0
282
     0
283
     1
284
     0
285
     0
286
     0
287
     3
288
     0
  0
DIMSTYLE
105
107
102
{ACAD_REACTORS
330
10B
330
190
330
180
330
1B0
330
1AF
330
1BC
330
18F
330
1D5
330
24A
330
259
330
25A
330
279
330
27A
330
286
102
}
330
A
100
AcDbSymbolTableRecord
100
AcDbDimStyleTableRecord
  2
DSTYLE6
 70
     0
  3

  4

  5

  6

  7

 40
1.0
 41
1.399999999999999
 42
1.28
 43
0.38
 44
0.533
 45
0.0
 46
0.0
 47
0.0
 48
0.0
140
1.6
141
0.09
142
0.0
143
25.4
144
1.0
145
0.7
146
0.6
147
0.0
 71
     0
 72
     0
 73
     0
 74
     0
 75
     0
 76
     0
 77
     0
 78
     8
170
     0
171
     2
172
     0
173
     0
174
     1
175
     0
176
     0
177
     0
178
     2
270
     2
271
     2
272
     4
273
     2
274
     2
340
103
275
     0
280
     0
281
     0
282
     0
283
     1
284
     0
285
     0
286
     0
287
     3
288
     0
  0
DIMSTYLE
105
108
102
{ACAD_REACTORS
330
181
330
24B
102
}
330
A
100
AcDbSymbolTableRecord
100
AcDbDimStyleTableRecord
  2
DSTYLE7
 70
     0
  3

  4

  5

  6

  7

 40
1.0
 41
1.399999999999999
 42
1.28
 43
0.38
 44
0.533
 45
0.0
 46
0.0
 47
0.0
 48
0.0
140
1.6
141
0.09
142
0.0
143
25.4
144
1.0
145
0.7
146
0.6
147
0.0
 71
     0
 72
     0
 73
     0
 74
     0
 75
     0
 76
     0
 77
     0
 78
     8
170
     0
171
     2
172
     0
173
     0
174
     1
175
     0
176
     0
177
     0
178
     2
270
     2
271
     1
272
     4
273
     2
274
     2
340
103
275
     0
280
     0
281
     0
282
     0
283
     1
284
     0
285
     0
286
     0
287
     3
288
     0
  0
ENDTAB
  0
TABLE
  2
BLOCK_RECORD
  5
1
330
0
100
AcDbSymbolTable
 70
    25
  0
BLOCK_RECORD
  5
1F
102
{ACAD_XDICTIONARY
360
3A9
102
}
330
1
100
AcDbSymbolTableRecord
100
AcDbBlockTableRecord
  2
*MODEL_SPACE
  0
BLOCK_RECORD
  5
50
102
{ACAD_XDICTIONARY
360
3AB
102
}
330
1
100
AcDbSymbolTableRecord
100
AcDbBlockTableRecord
  2
*PAPER_SPACE
  0
BLOCK_RECORD
  5
6C
330
1
100
AcDbSymbolTableRecord
100
AcDbBlockTableRecord
  2
LW_POLYLINE_1
  0
BLOCK_RECORD
  5
73
330
1
100
AcDbSymbolTableRecord
100
AcDbBlockTableRecord
  2
*D2
  0
BLOCK_RECORD
  5
7F
330
1
100
AcDbSymbolTableRecord
100
AcDbBlockTableRecord
  2
*D3
  0
BLOCK_RECORD
  5
8B
330
1
100
AcDbSymbolTableRecord
100
AcDbBlockTableRecord
  2
*D4
  0
BLOCK_RECORD
  5
98
330
1
100
AcDbSymbolTableRecord
100
AcDbBlockTableRecord
  2
*D5
  0
BLOCK_RECORD
  5
A4
330
1
100
AcDbSymbolTableRecord
100
AcDbBlockTableRecord
  2
*D6
  0
BLOCK_RECORD
  5
B0
330
1
100
AcDbSymbolTableRecord
100
AcDbBlockTableRecord
  2
*D7
  0
BLOCK_RECORD
  5
BC
330
1
100
AcDbSymbolTableRecord
100
AcDbBlockTableRecord
  2
*D8
  0
BLOCK_RECORD
  5
C9
330
1
100
AcDbSymbolTableRecord
100
AcDbBlockTableRecord
  2
*D9
  0
BLOCK_RECORD
  5
D5
330
1
100
AcDbSymbolTableRecord
100
AcDbBlockTableRecord
  2
*D10
  0
BLOCK_RECORD
  5
E2
330
1
100
AcDbSymbolTableRecord
100
AcDbBlockTableRecord
  2
*D11
  0
BLOCK_RECORD
  5
EE
330
1
100
AcDbSymbolTableRecord
100
AcDbBlockTableRecord
  2
*D12
  0
BLOCK_RECORD
  5
29A
330
1
100
AcDbSymbolTableRecord
100
AcDbBlockTableRecord
  2
*D14
  0
BLOCK_RECORD
  5
2A7
330
1
100
AcDbSymbolTableRecord
100
AcDbBlockTableRecord
  2
*D15
  0
BLOCK_RECORD
  5
2B3
330
1
100
AcDbSymbolTableRecord
100
AcDbBlockTableRecord
  2
*D16
  0
BLOCK_RECORD
  5
2BF
330
1
100
AcDbSymbolTableRecord
100
AcDbBlockTableRecord
  2
*D17
  0
BLOCK_RECORD
  5
2CB
330
1
100
AcDbSymbolTableRecord
100
AcDbBlockTableRecord
  2
*D18
  0
BLOCK_RECORD
  5
2D8
330
1
100
AcDbSymbolTableRecord
100
AcDbBlockTableRecord
  2
*D19
  0
BLOCK_RECORD
  5
2E4
330
1
100
AcDbSymbolTableRecord
100
AcDbBlockTableRecord
  2
*D20
  0
BLOCK_RECORD
  5
2F0
330
1
100
AcDbSymbolTableRecord
100
AcDbBlockTableRecord
  2
*D21
  0
BLOCK_RECORD
  5
2FD
330
1
100
AcDbSymbolTableRecord
100
AcDbBlockTableRecord
  2
*D22
  0
BLOCK_RECORD
  5
309
330
1
100
AcDbSymbolTableRecord
100
AcDbBlockTableRecord
  2
*D23
  0
BLOCK_RECORD
  5
315
330
1
100
AcDbSymbolTableRecord
100
AcDbBlockTableRecord
  2
*D24
  0
ENDTAB
  0
ENDSEC
  0
SECTION
  2
BLOCKS
  0
BLOCK
  5
20
330
1F
100
AcDbEntity
  8
0
100
AcDbBlockBegin
  2
*MODEL_SPACE
 70
     0
 10
0.0
 20
0.0
 30
0.0
  3
*MODEL_SPACE
  1

  0
ENDBLK
  5
21
330
1F
100
AcDbEntity
  8
0
100
AcDbBlockEnd
  0
BLOCK
  5
52
330
50
100
AcDbEntity
 67
     1
  8
0
100
AcDbBlockBegin
  2
*PAPER_SPACE
 70
     0
 10
0.0
 20
0.0
 30
0.0
  3
*PAPER_SPACE
  1

  0
ENDBLK
  5
53
330
50
100
AcDbEntity
 67
     1
  8
0
100
AcDbBlockEnd
  0
BLOCK
  5
71
330
6C
100
AcDbEntity
  8
0
100
AcDbBlockBegin
  2
LW_POLYLINE_1
 70
     0
 10
0.0
 20
0.0
 30
0.0
  3
LW_POLYLINE_1
  1

  0
LINE
  5
6D
330
6C
100
AcDbEntity
  8
DEFPOINTS
  6
CONTINUOUS
 62
     4
100
AcDbLine
 10
-14397.133
 20
1675.616
 30
0.0
 11
-14397.133
 21
1579.949
 31
0.0
  0
LINE
  5
6E
330
6C
100
AcDbEntity
  8
DEFPOINTS
  6
CONTINUOUS
 62
     4
100
AcDbLine
 10
-14397.133
 20
1579.949
 30
0.0
 11
-14463.79999999999
 21
1579.949
 31
0.0
  0
LINE
  5
6F
330
6C
100
AcDbEntity
  8
DEFPOINTS
  6
CONTINUOUS
 62
     4
100
AcDbLine
 10
-14463.79999999999
 20
1579.949
 30
0.0
 11
-14463.79999999999
 21
1675.615
 31
0.0
  0
LINE
  5
70
330
6C
100
AcDbEntity
  8
DEFPOINTS
  6
CONTINUOUS
 62
     4
100
AcDbLine
 10
-14463.79999999999
 20
1675.615
 30
0.0
 11
-14397.133
 21
1675.616
 31
0.0
  0
ENDBLK
  5
72
330
6C
100
AcDbEntity
  8
0
100
AcDbBlockEnd
  0
BLOCK
  5
7D
330
73
100
AcDbEntity
  8
0
100
AcDbBlockBegin
  2
*D2
 70
     1
 10
0.0
 20
0.0
 30
0.0
  3
*D2
  1

  0
LINE
  5
74
330
73
100
AcDbEntity
  8
DIM
  6
CONTINUOUS
 62
     0
100
AcDbLine
 10
-14456.938
 20
1630.522999999999
 30
0.0
 11
-14456.938
 21
1658.304
 31
0.0
  0
LINE
  5
75
330
73
100
AcDbEntity
  8
DIM
  6
CONTINUOUS
 62
     0
100
AcDbLine
 10
-14427.938
 20
1630.522999999999
 30
0.0
 11
-14427.938
 21
1658.304
 31
0.0
  0
LINE
  5
76
330
73
100
AcDbEntity
  8
DIM
  6
CONTINUOUS
 62
     0
100
AcDbLine
 10
-14455.538
 20
1657.771
 30
0.0
 11
-14429.338
 21
1657.771
 31
0.0
  0
SOLID
  5
77
330
73
100
AcDbEntity
  8
DIM
  6
CONTINUOUS
 62
     0
100
AcDbTrace
 10
-14455.538
 20
1658.004333333333
 30
0.0
 11
-14455.538
 21
1657.537666666666
 31
0.0
 12
-14456.938
 22
1657.771
 32
0.0
 13
-14456.938
 23
1657.771
 33
0.0
  0
SOLID
  5
78
330
73
100
AcDbEntity
  8
DIM
  6
CONTINUOUS
 62
     0
100
AcDbTrace
 10
-14429.338
 20
1658.004333333333
 30
0.0
 11
-14429.338
 21
1657.537666666666
 31
0.0
 12
-14427.938
 22
1657.771
 32
0.0
 13
-14427.938
 23
1657.771
 33
0.0
  0
MTEXT
  5
79
330
73
100
AcDbEntity
  8
DIM
  6
CONTINUOUS
 62
     2
100
AcDbMText
 10
-14442.438
 20
1658.914683492496
 30
0.0
 40
1.6
 41
0.0
 71
     5
 72
     5
  1
\A1;29
  7
TSTYLE6
1001
ACAD
1000
MTEXTBEGIN
1070
    73
1070
     1
1070
    44
1040
1.0
1070
    74
1070
     0
1000
MTEXTEND
  0
POINT
  5
7A
330
73
100
AcDbEntity
  8
DEFPOINTS
  6
CONTINUOUS
 62
     0
100
AcDbPoint
 10
-14456.938
 20
1629.242999999998
 30
0.0
  0
POINT
  5
7B
330
73
100
AcDbEntity
  8
DEFPOINTS
  6
CONTINUOUS
 62
     0
100
AcDbPoint
 10
-14427.938
 20
1629.242999999998
 30
0.0
  0
POINT
  5
7C
330
73
100
AcDbEntity
  8
DEFPOINTS
  6
CONTINUOUS
 62
     0
100
AcDbPoint
 10
-14427.938
 20
1657.771
 30
0.0
  0
ENDBLK
  5
7E
330
73
100
AcDbEntity
  8
0
100
AcDbBlockEnd
  0
BLOCK
  5
89
330
7F
100
AcDbEntity
  8
0
100
AcDbBlockBegin
  2
*D3
 70
     1
 10
0.0
 20
0.0
 30
0.0
  3
*D3
  1

  0
LINE
  5
80
330
7F
100
AcDbEntity
  8
DIM
  6
CONTINUOUS
 62
     0
100
AcDbLine
 10
-14413.66
 20
1630.564
 30
0.0
 11
-14413.66
 21
1658.304
 31
0.0
  0
LINE
  5
81
330
7F
100
AcDbEntity
  8
DIM
  6
CONTINUOUS
 62
     0
100
AcDbLine
 10
-14401.26
 20
1630.564
 30
0.0
 11
-14401.26
 21
1658.304
 31
0.0
  0
LINE
  5
82
330
7F
100
AcDbEntity
  8
DIM
  6
CONTINUOUS
 62
     0
100
AcDbLine
 10
-14412.26
 20
1657.771
 30
0.0
 11
-14402.66
 21
1657.771
 31
0.0
  0
SOLID
  5
83
330
7F
100
AcDbEntity
  8
DIM
  6
CONTINUOUS
 62
     0
100
AcDbTrace
 10
-14412.26
 20
1658.004333333333
 30
0.0
 11
-14412.26
 21
1657.537666666666
 31
0.0
 12
-14413.66
 22
1657.771
 32
0.0
 13
-14413.66
 23
1657.771
 33
0.0
  0
SOLID
  5
84
330
7F
100
AcDbEntity
  8
DIM
  6
CONTINUOUS
 62
     0
100
AcDbTrace
 10
-14402.66
 20
1658.004333333333
 30
0.0
 11
-14402.66
 21
1657.537666666666
 31
0.0
 12
-14401.26
 22
1657.771
 32
0.0
 13
-14401.26
 23
1657.771
 33
0.0
  0
MTEXT
  5
85
330
7F
100
AcDbEntity
  8
DIM
  6
CONTINUOUS
 62
     2
100
AcDbMText
 10
-14407.46
 20
1658.895583901773
 30
0.0
 40
1.6
 41
0.0
 71
     5
 72
     5
  1
\A1;12.4
  7
TSTYLE6
1001
ACAD
1000
MTEXTBEGIN
1070
    73
1070
     1
1070
    44
1040
1.0
1070
    74
1070
     0
1000
MTEXTEND
  0
POINT
  5
86
330
7F
100
AcDbEntity
  8
DEFPOINTS
  6
CONTINUOUS
 62
     0
100
AcDbPoint
 10
-14413.66
 20
1629.283999999999
 30
0.0
  0
POINT
  5
87
330
7F
100
AcDbEntity
  8
DEFPOINTS
  6
CONTINUOUS
 62
     0
100
AcDbPoint
 10
-14401.26
 20
1629.283999999999
 30
0.0
  0
POINT
  5
88
330
7F
100
AcDbEntity
  8
DEFPOINTS
  6
CONTINUOUS
 62
     0
100
AcDbPoint
 10
-14401.26
 20
1657.771
 30
0.0
  0
ENDBLK
  5
8A
330
7F
100
AcDbEntity
  8
0
100
AcDbBlockEnd
  0
BLOCK
  5
96
330
8B
100
AcDbEntity
  8
0
100
AcDbBlockBegin
  2
*D4
 70
     1
 10
0.0
 20
0.0
 30
0.0
  3
*D4
  1

  0
LINE
  5
8C
330
8B
100
AcDbEntity
  8
DIM
  6
CONTINUOUS
 62
     0
100
AcDbLine
 10
-14410.70999999999
 20
1622.203999999999
 30
0.0
 11
-14410.70999999999
 21
1617.157
 31
0.0
  0
LINE
  5
8D
330
8B
100
AcDbEntity
  8
DIM
  6
CONTINUOUS
 62
     0
100
AcDbLine
 10
-14411.70999999999
 20
1622.203999999999
 30
0.0
 11
-14411.70999999999
 21
1617.157
 31
0.0
  0
LINE
  5
8E
330
8B
100
AcDbEntity
  8
DIM
  6
CONTINUOUS
 62
     0
100
AcDbLine
 10
-14413.10999999999
 20
1617.69
 30
0.0
 11
-14414.50999999999
 21
1617.69
 31
0.0
  0
LINE
  5
8F
330
8B
100
AcDbEntity
  8
DIM
  6
CONTINUOUS
 62
     0
100
AcDbLine
 10
-14409.30999999999
 20
1617.69
 30
0.0
 11
-14406.24305457026
 21
1617.69
 31
0.0
  0
SOLID
  5
90
330
8B
100
AcDbEntity
  8
DIM
  6
CONTINUOUS
 62
     0
100
AcDbTrace
 10
-14413.10999999999
 20
1617.923333333333
 30
0.0
 11
-14413.10999999999
 21
1617.456666666666
 31
0.0
 12
-14411.70999999999
 22
1617.69
 32
0.0
 13
-14411.70999999999
 23
1617.69
 33
0.0
  0
SOLID
  5
91
330
8B
100
AcDbEntity
  8
DIM
  6
CONTINUOUS
 62
     0
100
AcDbTrace
 10
-14409.30999999999
 20
1617.923333333333
 30
0.0
 11
-14409.30999999999
 21
1617.456666666666
 31
0.0
 12
-14410.70999999999
 22
1617.69
 32
0.0
 13
-14410.70999999999
 23
1617.69
 33
0.0
  0
MTEXT
  5
92
330
8B
100
AcDbEntity
  8
DIM
  6
CONTINUOUS
 62
     2
100
AcDbMText
 10
-14406.523
 20
1618.814583901773
 30
0.0
 40
1.6
 41
0.0
 71
     5
 72
     5
  1
\A1;1
  7
TSTYLE6
1001
ACAD
1000
MTEXTBEGIN
1070
    73
1070
     1
1070
    44
1040
1.0
1070
    74
1070
     0
1000
MTEXTEND
  0
POINT
  5
93
330
8B
100
AcDbEntity
  8
DEFPOINTS
  6
CONTINUOUS
 62
     0
100
AcDbPoint
 10
-14410.70999999999
 20
1623.483999999999
 30
0.0
  0
POINT
  5
94
330
8B
100
AcDbEntity
  8
DEFPOINTS
  6
CONTINUOUS
 62
     0
100
AcDbPoint
 10
-14411.70999999999
 20
1623.483999999999
 30
0.0
  0
POINT
  5
95
330
8B
100
AcDbEntity
  8
DEFPOINTS
  6
CONTINUOUS
 62
     0
100
AcDbPoint
 10
-14411.70999999999
 20
1617.69
 30
0.0
  0
ENDBLK
  5
97
330
8B
100
AcDbEntity
  8
0
100
AcDbBlockEnd
  0
BLOCK
  5
A2
330
98
100
AcDbEntity
  8
0
100
AcDbBlockBegin
  2
*D5
 70
     1
 10
0.0
 20
0.0
 30
0.0
  3
*D5
  1

  0
LINE
  5
99
330
98
100
AcDbEntity
  8
DIM
  6
CONTINUOUS
 62
     0
100
AcDbLine
 10
-14434.408
 20
1620.402
 30
0.0
 11
-14434.408
 21
1617.226
 31
0.0
  0
LINE
  5
9A
330
98
100
AcDbEntity
  8
DIM
  6
CONTINUOUS
 62
     0
100
AcDbLine
 10
-14429.458
 20
1620.445
 30
0.0
 11
-14429.458
 21
1617.226
 31
0.0
  0
LINE
  5
9B
330
98
100
AcDbEntity
  8
DIM
  6
CONTINUOUS
 62
     0
100
AcDbLine
 10
-14433.008
 20
1617.759
 30
0.0
 11
-14430.858
 21
1617.759
 31
0.0
  0
SOLID
  5
9C
330
98
100
AcDbEntity
  8
DIM
  6
CONTINUOUS
 62
     0
100
AcDbTrace
 10
-14433.008
 20
1617.992333333333
 30
0.0
 11
-14433.008
 21
1617.525666666665
 31
0.0
 12
-14434.408
 22
1617.759
 32
0.0
 13
-14434.408
 23
1617.759
 33
0.0
  0
SOLID
  5
9D
330
98
100
AcDbEntity
  8
DIM
  6
CONTINUOUS
 62
     0
100
AcDbTrace
 10
-14430.858
 20
1617.992333333333
 30
0.0
 11
-14430.858
 21
1617.525666666665
 31
0.0
 12
-14429.458
 22
1617.759
 32
0.0
 13
-14429.458
 23
1617.759
 33
0.0
  0
MTEXT
  5
9E
330
98
100
AcDbEntity
  8
DIM
  6
CONTINUOUS
 62
     2
100
AcDbMText
 10
-14431.933
 20
1618.898099590722
 30
0.0
 40
1.6
 41
0.0
 71
     5
 72
     5
  1
\A1;5
  7
TSTYLE6
1001
ACAD
1000
MTEXTBEGIN
1070
    73
1070
     1
1070
    44
1040
1.0
1070
    74
1070
     0
1000
MTEXTEND
  0
POINT
  5
9F
330
98
100
AcDbEntity
  8
DEFPOINTS
  6
CONTINUOUS
 62
     0
100
AcDbPoint
 10
-14434.408
 20
1621.682
 30
0.0
  0
POINT
  5
A0
330
98
100
AcDbEntity
  8
DEFPOINTS
  6
CONTINUOUS
 62
     0
100
AcDbPoint
 10
-14429.458
 20
1621.725
 30
0.0
  0
POINT
  5
A1
330
98
100
AcDbEntity
  8
DEFPOINTS
  6
CONTINUOUS
 62
     0
100
AcDbPoint
 10
-14429.458
 20
1617.759
 30
0.0
  0
ENDBLK
  5
A3
330
98
100
AcDbEntity
  8
0
100
AcDbBlockEnd
  0
BLOCK
  5
AE
330
A4
100
AcDbEntity
  8
0
100
AcDbBlockBegin
  2
*D6
 70
     1
 10
0.0
 20
0.0
 30
0.0
  3
*D6
  1

  0
LINE
  5
A5
330
A4
100
AcDbEntity
  8
DIM
  6
CONTINUOUS
 62
     0
100
AcDbLine
 10
-14426.658
 20
1627.742999999999
 30
0.0
 11
-14421.058
 21
1627.742999999999
 31
0.0
  0
LINE
  5
A6
330
A4
100
AcDbEntity
  8
DIM
  6
CONTINUOUS
 62
     0
100
AcDbLine
 10
-14427.928
 20
1622.742999999999
 30
0.0
 11
-14421.058
 21
1622.742999999999
 31
0.0
  0
LINE
  5
A7
330
A4
100
AcDbEntity
  8
DIM
  6
CONTINUOUS
 62
     0
100
AcDbLine
 10
-14421.591
 20
1626.343
 30
0.0
 11
-14421.591
 21
1624.142999999999
 31
0.0
  0
SOLID
  5
A8
330
A4
100
AcDbEntity
  8
DIM
  6
CONTINUOUS
 62
     0
100
AcDbTrace
 10
-14421.82433333333
 20
1626.343
 30
0.0
 11
-14421.35766666666
 21
1626.343
 31
0.0
 12
-14421.591
 22
1627.742999999999
 32
0.0
 13
-14421.591
 23
1627.742999999999
 33
0.0
  0
SOLID
  5
A9
330
A4
100
AcDbEntity
  8
DIM
  6
CONTINUOUS
 62
     0
100
AcDbTrace
 10
-14421.82433333333
 20
1624.142999999999
 30
0.0
 11
-14421.35766666666
 21
1624.142999999999
 31
0.0
 12
-14421.591
 22
1622.742999999999
 32
0.0
 13
-14421.591
 23
1622.742999999999
 33
0.0
  0
MTEXT
  5
AA
330
A4
100
AcDbEntity
  8
DIM
  6
CONTINUOUS
 62
     2
100
AcDbMText
 10
-14422.73009959071
 20
1625.243
 30
0.0
 40
1.6
 41
0.0
 71
     5
 72
     5
  1
\A1;5
  7
TSTYLE6
 11
0.0000000000000001
 21
1.0
 31
0.0
1001
ACAD
1000
MTEXTBEGIN
1070
    73
1070
     1
1070
    44
1040
1.0
1070
    74
1070
     0
1000
MTEXTEND
  0
POINT
  5
AB
330
A4
100
AcDbEntity
  8
DEFPOINTS
  6
CONTINUOUS
 62
     0
100
AcDbPoint
 10
-14427.938
 20
1627.742999999999
 30
0.0
  0
POINT
  5
AC
330
A4
100
AcDbEntity
  8
DEFPOINTS
  6
CONTINUOUS
 62
     0
100
AcDbPoint
 10
-14429.208
 20
1622.742999999999
 30
0.0
  0
POINT
  5
AD
330
A4
100
AcDbEntity
  8
DEFPOINTS
  6
CONTINUOUS
 62
     0
100
AcDbPoint
 10
-14421.591
 20
1622.742999999999
 30
0.0
  0
ENDBLK
  5
AF
330
A4
100
AcDbEntity
  8
0
100
AcDbBlockEnd
  0
BLOCK
  5
BA
330
B0
100
AcDbEntity
  8
0
100
AcDbBlockBegin
  2
*D7
 70
     1
 10
0.0
 20
0.0
 30
0.0
  3
*D7
  1

  0
LINE
  5
B1
330
B0
100
AcDbEntity
  8
DIM
  6
CONTINUOUS
 62
     0
100
AcDbLine
 10
-14434.408
 20
1620.402
 30
0.0
 11
-14434.408
 21
1617.226
 31
0.0
  0
LINE
  5
B2
330
B0
100
AcDbEntity
  8
DIM
  6
CONTINUOUS
 62
     0
100
AcDbLine
 10
-14439.408
 20
1620.38
 30
0.0
 11
-14439.408
 21
1617.226
 31
0.0
  0
LINE
  5
B3
330
B0
100
AcDbEntity
  8
DIM
  6
CONTINUOUS
 62
     0
100
AcDbLine
 10
-14435.808
 20
1617.759
 30
0.0
 11
-14438.00799999999
 21
1617.759
 31
0.0
  0
SOLID
  5
B4
330
B0
100
AcDbEntity
  8
DIM
  6
CONTINUOUS
 62
     0
100
AcDbTrace
 10
-14435.808
 20
1617.992333333333
 30
0.0
 11
-14435.808
 21
1617.525666666665
 31
0.0
 12
-14434.408
 22
1617.759
 32
0.0
 13
-14434.408
 23
1617.759
 33
0.0
  0
SOLID
  5
B5
330
B0
100
AcDbEntity
  8
DIM
  6
CONTINUOUS
 62
     0
100
AcDbTrace
 10
-14438.00799999999
 20
1617.992333333333
 30
0.0
 11
-14438.00799999999
 21
1617.525666666665
 31
0.0
 12
-14439.408
 22
1617.759
 32
0.0
 13
-14439.408
 23
1617.759
 33
0.0
  0
MTEXT
  5
B6
330
B0
100
AcDbEntity
  8
DIM
  6
CONTINUOUS
 62
     2
100
AcDbMText
 10
-14436.908
 20
1618.898099590722
 30
0.0
 40
1.6
 41
0.0
 71
     5
 72
     5
  1
\A1;5
  7
TSTYLE6
1001
ACAD
1000
MTEXTBEGIN
1070
    73
1070
     1
1070
    44
1040
1.0
1070
    74
1070
     0
1000
MTEXTEND
  0
POINT
  5
B7
330
B0
100
AcDbEntity
  8
DEFPOINTS
  6
CONTINUOUS
 62
     0
100
AcDbPoint
 10
-14434.408
 20
1621.682
 30
0.0
  0
POINT
  5
B8
330
B0
100
AcDbEntity
  8
DEFPOINTS
  6
CONTINUOUS
 62
     0
100
AcDbPoint
 10
-14439.408
 20
1621.66
 30
0.0
  0
POINT
  5
B9
330
B0
100
AcDbEntity
  8
DEFPOINTS
  6
CONTINUOUS
 62
     0
100
AcDbPoint
 10
-14439.408
 20
1617.759
 30
0.0
  0
ENDBLK
  5
BB
330
B0
100
AcDbEntity
  8
0
100
AcDbBlockEnd
  0
BLOCK
  5
C7
330
BC
100
AcDbEntity
  8
0
100
AcDbBlockBegin
  2
*D8
 70
     1
 10
0.0
 20
0.0
 30
0.0
  3
*D8
  1

  0
LINE
  5
BD
330
BC
100
AcDbEntity
  8
DIM
  6
CONTINUOUS
 62
     0
100
AcDbLine
 10
-14454.188
 20
1622.162999999999
 30
0.0
 11
-14454.188
 21
1617.137
 31
0.0
  0
LINE
  5
BE
330
BC
100
AcDbEntity
  8
DIM
  6
CONTINUOUS
 62
     0
100
AcDbLine
 10
-14454.58799999999
 20
1622.162999999999
 30
0.0
 11
-14454.58799999999
 21
1617.137
 31
0.0
  0
LINE
  5
BF
330
BC
100
AcDbEntity
  8
DIM
  6
CONTINUOUS
 62
     0
100
AcDbLine
 10
-14455.98799999999
 20
1617.67
 30
0.0
 11
-14457.38799999999
 21
1617.67
 31
0.0
  0
LINE
  5
C0
330
BC
100
AcDbEntity
  8
DIM
  6
CONTINUOUS
 62
     0
100
AcDbLine
 10
-14452.788
 20
1617.67
 30
0.0
 11
-14447.1604542974
 21
1617.67
 31
0.0
  0
SOLID
  5
C1
330
BC
100
AcDbEntity
  8
DIM
  6
CONTINUOUS
 62
     0
100
AcDbTrace
 10
-14455.98799999999
 20
1617.903333333333
 30
0.0
 11
-14455.98799999999
 21
1617.436666666666
 31
0.0
 12
-14454.58799999999
 22
1617.67
 32
0.0
 13
-14454.58799999999
 23
1617.67
 33
0.0
  0
SOLID
  5
C2
330
BC
100
AcDbEntity
  8
DIM
  6
CONTINUOUS
 62
     0
100
AcDbTrace
 10
-14452.788
 20
1617.903333333333
 30
0.0
 11
-14452.788
 21
1617.436666666666
 31
0.0
 12
-14454.188
 22
1617.67
 32
0.0
 13
-14454.188
 23
1617.67
 33
0.0
  0
MTEXT
  5
C3
330
BC
100
AcDbEntity
  8
DIM
  6
CONTINUOUS
 62
     2
100
AcDbMText
 10
-14448.541
 20
1618.813683492496
 30
0.0
 40
1.6
 41
0.0
 71
     5
 72
     5
  1
\A1;0.4
  7
TSTYLE6
1001
ACAD
1000
MTEXTBEGIN
1070
    73
1070
     1
1070
    44
1040
1.0
1070
    74
1070
     0
1000
MTEXTEND
  0
POINT
  5
C4
330
BC
100
AcDbEntity
  8
DEFPOINTS
  6
CONTINUOUS
 62
     0
100
AcDbPoint
 10
-14454.188
 20
1623.442999999999
 30
0.0
  0
POINT
  5
C5
330
BC
100
AcDbEntity
  8
DEFPOINTS
  6
CONTINUOUS
 62
     0
100
AcDbPoint
 10
-14454.58799999999
 20
1623.442999999999
 30
0.0
  0
POINT
  5
C6
330
BC
100
AcDbEntity
  8
DEFPOINTS
  6
CONTINUOUS
 62
     0
100
AcDbPoint
 10
-14454.58799999999
 20
1617.67
 30
0.0
  0
ENDBLK
  5
C8
330
BC
100
AcDbEntity
  8
0
100
AcDbBlockEnd
  0
BLOCK
  5
D3
330
C9
100
AcDbEntity
  8
0
100
AcDbBlockBegin
  2
*D9
 70
     1
 10
0.0
 20
0.0
 30
0.0
  3
*D9
  1

  0
LINE
  5
CA
330
C9
100
AcDbEntity
  8
DIM
  6
CONTINUOUS
 62
     0
100
AcDbLine
 10
-14454.388
 20
1620.56
 30
0.0
 11
-14454.388
 21
1612.315
 31
0.0
  0
LINE
  5
CB
330
C9
100
AcDbEntity
  8
DIM
  6
CONTINUOUS
 62
     0
100
AcDbLine
 10
-14434.408
 20
1620.402
 30
0.0
 11
-14434.408
 21
1612.315
 31
0.0
  0
LINE
  5
CC
330
C9
100
AcDbEntity
  8
DIM
  6
CONTINUOUS
 62
     0
100
AcDbLine
 10
-14452.988
 20
1612.848
 30
0.0
 11
-14435.808
 21
1612.848
 31
0.0
  0
SOLID
  5
CD
330
C9
100
AcDbEntity
  8
DIM
  6
CONTINUOUS
 62
     0
100
AcDbTrace
 10
-14452.988
 20
1613.081333333333
 30
0.0
 11
-14452.988
 21
1612.614666666666
 31
0.0
 12
-14454.388
 22
1612.848
 32
0.0
 13
-14454.388
 23
1612.848
 33
0.0
  0
SOLID
  5
CE
330
C9
100
AcDbEntity
  8
DIM
  6
CONTINUOUS
 62
     0
100
AcDbTrace
 10
-14435.808
 20
1613.081333333333
 30
0.0
 11
-14435.808
 21
1612.614666666666
 31
0.0
 12
-14434.408
 22
1612.848
 32
0.0
 13
-14434.408
 23
1612.848
 33
0.0
  0
MTEXT
  5
CF
330
C9
100
AcDbEntity
  8
DIM
  6
CONTINUOUS
 62
     2
100
AcDbMText
 10
-14444.398
 20
1613.991683492496
 30
0.0
 40
1.6
 41
0.0
 71
     5
 72
     5
  1
\A1;20
  7
TSTYLE6
1001
ACAD
1000
MTEXTBEGIN
1070
    73
1070
     1
1070
    44
1040
1.0
1070
    74
1070
     0
1000
MTEXTEND
  0
POINT
  5
D0
330
C9
100
AcDbEntity
  8
DEFPOINTS
  6
CONTINUOUS
 62
     0
100
AcDbPoint
 10
-14454.388
 20
1621.839999999999
 30
0.0
  0
POINT
  5
D1
330
C9
100
AcDbEntity
  8
DEFPOINTS
  6
CONTINUOUS
 62
     0
100
AcDbPoint
 10
-14434.408
 20
1621.682
 30
0.0
  0
POINT
  5
D2
330
C9
100
AcDbEntity
  8
DEFPOINTS
  6
CONTINUOUS
 62
     0
100
AcDbPoint
 10
-14434.408
 20
1612.848
 30
0.0
  0
ENDBLK
  5
D4
330
C9
100
AcDbEntity
  8
0
100
AcDbBlockEnd
  0
BLOCK
  5
E0
330
D5
100
AcDbEntity
  8
0
100
AcDbBlockBegin
  2
*D10
 70
     1
 10
0.0
 20
0.0
 30
0.0
  3
*D10
  1

  0
LINE
  5
D6
330
D5
100
AcDbEntity
  8
DIM
  6
CONTINUOUS
 62
     0
100
AcDbLine
 10
-14454.388
 20
1620.56
 30
0.0
 11
-14454.388
 21
1612.315
 31
0.0
  0
LINE
  5
D7
330
D5
100
AcDbEntity
  8
DIM
  6
CONTINUOUS
 62
     0
100
AcDbLine
 10
-14456.938
 20
1626.463
 30
0.0
 11
-14456.938
 21
1612.315
 31
0.0
  0
LINE
  5
D8
330
D5
100
AcDbEntity
  8
DIM
  6
CONTINUOUS
 62
     0
100
AcDbLine
 10
-14452.988
 20
1612.848
 30
0.0
 11
-14451.58799999999
 21
1612.848
 31
0.0
  0
LINE
  5
D9
330
D5
100
AcDbEntity
  8
DIM
  6
CONTINUOUS
 62
     0
100
AcDbLine
 10
-14458.33799999999
 20
1612.848
 30
0.0
 11
-14462.54263847203
 21
1612.848
 31
0.0
  0
SOLID
  5
DA
330
D5
100
AcDbEntity
  8
DIM
  6
CONTINUOUS
 62
     0
100
AcDbTrace
 10
-14452.988
 20
1613.081333333333
 30
0.0
 11
-14452.988
 21
1612.614666666666
 31
0.0
 12
-14454.388
 22
1612.848
 32
0.0
 13
-14454.388
 23
1612.848
 33
0.0
  0
SOLID
  5
DB
330
D5
100
AcDbEntity
  8
DIM
  6
CONTINUOUS
 62
     0
100
AcDbTrace
 10
-14458.33799999999
 20
1613.081333333333
 30
0.0
 11
-14458.33799999999
 21
1612.614666666666
 31
0.0
 12
-14456.938
 22
1612.848
 32
0.0
 13
-14456.938
 23
1612.848
 33
0.0
  0
MTEXT
  5
DC
330
D5
100
AcDbEntity
  8
DIM
  6
CONTINUOUS
 62
     2
100
AcDbMText
 10
-14461.14031923601
 20
1613.991683492496
 30
0.0
 40
1.6
 41
0.0
 71
     5
 72
     5
  1
\A1;2.5
  7
TSTYLE6
1001
ACAD
1000
MTEXTBEGIN
1070
    73
1070
     1
1070
    44
1040
1.0
1070
    74
1070
     0
1000
MTEXTEND
  0
POINT
  5
DD
330
D5
100
AcDbEntity
  8
DEFPOINTS
  6
CONTINUOUS
 62
     0
100
AcDbPoint
 10
-14454.388
 20
1621.839999999999
 30
0.0
  0
POINT
  5
DE
330
D5
100
AcDbEntity
  8
DEFPOINTS
  6
CONTINUOUS
 62
     0
100
AcDbPoint
 10
-14456.938
 20
1627.742999999999
 30
0.0
  0
POINT
  5
DF
330
D5
100
AcDbEntity
  8
DEFPOINTS
  6
CONTINUOUS
 62
     0
100
AcDbPoint
 10
-14456.938
 20
1612.848
 30
0.0
  0
ENDBLK
  5
E1
330
D5
100
AcDbEntity
  8
0
100
AcDbBlockEnd
  0
BLOCK
  5
EC
330
E2
100
AcDbEntity
  8
0
100
AcDbBlockBegin
  2
*D11
 70
     1
 10
0.0
 20
0.0
 30
0.0
  3
*D11
  1

  0
LINE
  5
E3
330
E2
100
AcDbEntity
  8
DIM
  6
CONTINUOUS
 62
     0
100
AcDbLine
 10
-14426.863
 20
1652.743
 30
0.0
 11
-14421.058
 21
1652.743
 31
0.0
  0
LINE
  5
E4
330
E2
100
AcDbEntity
  8
DIM
  6
CONTINUOUS
 62
     0
100
AcDbLine
 10
-14426.658
 20
1627.742999999999
 30
0.0
 11
-14421.058
 21
1627.742999999999
 31
0.0
  0
LINE
  5
E5
330
E2
100
AcDbEntity
  8
DIM
  6
CONTINUOUS
 62
     0
100
AcDbLine
 10
-14421.591
 20
1651.342999999999
 30
0.0
 11
-14421.591
 21
1629.143
 31
0.0
  0
SOLID
  5
E6
330
E2
100
AcDbEntity
  8
DIM
  6
CONTINUOUS
 62
     0
100
AcDbTrace
 10
-14421.82433333333
 20
1651.342999999999
 30
0.0
 11
-14421.35766666666
 21
1651.342999999999
 31
0.0
 12
-14421.591
 22
1652.743
 32
0.0
 13
-14421.591
 23
1652.743
 33
0.0
  0
SOLID
  5
E7
330
E2
100
AcDbEntity
  8
DIM
  6
CONTINUOUS
 62
     0
100
AcDbTrace
 10
-14421.82433333333
 20
1629.143
 30
0.0
 11
-14421.35766666666
 21
1629.143
 31
0.0
 12
-14421.591
 22
1627.742999999999
 32
0.0
 13
-14421.591
 23
1627.742999999999
 33
0.0
  0
MTEXT
  5
E8
330
E2
100
AcDbEntity
  8
DIM
  6
CONTINUOUS
 62
     2
100
AcDbMText
 10
-14422.73468349249
 20
1640.242999999997
 30
0.0
 40
1.6
 41
0.0
 71
     5
 72
     5
  1
\A1;25
  7
TSTYLE6
 11
0.0000000000000001
 21
1.0
 31
0.0
1001
ACAD
1000
MTEXTBEGIN
1070
    73
1070
     1
1070
    44
1040
1.0
1070
    74
1070
     0
1000
MTEXTEND
  0
POINT
  5
E9
330
E2
100
AcDbEntity
  8
DEFPOINTS
  6
CONTINUOUS
 62
     0
100
AcDbPoint
 10
-14428.143
 20
1652.743
 30
0.0
  0
POINT
  5
EA
330
E2
100
AcDbEntity
  8
DEFPOINTS
  6
CONTINUOUS
 62
     0
100
AcDbPoint
 10
-14427.938
 20
1627.742999999999
 30
0.0
  0
POINT
  5
EB
330
E2
100
AcDbEntity
  8
DEFPOINTS
  6
CONTINUOUS
 62
     0
100
AcDbPoint
 10
-14421.591
 20
1627.742999999999
 30
0.0
  0
ENDBLK
  5
ED
330
E2
100
AcDbEntity
  8
0
100
AcDbBlockEnd
  0
BLOCK
  5
F8
330
EE
100
AcDbEntity
  8
0
100
AcDbBlockBegin
  2
*D12
 70
     1
 10
0.0
 20
0.0
 30
0.0
  3
*D12
  1

  0
LINE
  5
EF
330
EE
100
AcDbEntity
  8
DIM
  6
CONTINUOUS
 62
     0
100
AcDbLine
 10
-14403.71
 20
1620.438
 30
0.0
 11
-14403.71
 21
1612.538999999999
 31
0.0
  0
LINE
  5
F0
330
EE
100
AcDbEntity
  8
DIM
  6
CONTINUOUS
 62
     0
100
AcDbLine
 10
-14411.21699999998
 20
1620.438
 30
0.0
 11
-14411.21699999998
 21
1612.538999999999
 31
0.0
  0
LINE
  5
F1
330
EE
100
AcDbEntity
  8
DIM
  6
CONTINUOUS
 62
     0
100
AcDbLine
 10
-14405.10999999998
 20
1613.072
 30
0.0
 11
-14409.817
 21
1613.072
 31
0.0
  0
SOLID
  5
F2
330
EE
100
AcDbEntity
  8
DIM
  6
CONTINUOUS
 62
     0
100
AcDbTrace
 10
-14405.10999999998
 20
1613.305333333333
 30
0.0
 11
-14405.10999999998
 21
1612.838666666666
 31
0.0
 12
-14403.71
 22
1613.072
 32
0.0
 13
-14403.71
 23
1613.072
 33
0.0
  0
SOLID
  5
F3
330
EE
100
AcDbEntity
  8
DIM
  6
CONTINUOUS
 62
     0
100
AcDbTrace
 10
-14409.817
 20
1613.305333333333
 30
0.0
 11
-14409.817
 21
1612.838666666666
 31
0.0
 12
-14411.21699999998
 22
1613.072
 32
0.0
 13
-14411.21699999998
 23
1613.072
 33
0.0
  0
MTEXT
  5
F4
330
EE
100
AcDbEntity
  8
DIM
  6
CONTINUOUS
 62
     2
100
AcDbMText
 10
-14407.467
 20
1614.211099590723
 30
0.0
 40
1.6
 41
0.0
 71
     5
 72
     5
  1
\A1;7.5
  7
TSTYLE6
1001
ACAD
1000
MTEXTBEGIN
1070
    73
1070
     1
1070
    44
1040
1.0
1070
    74
1070
     0
1000
MTEXTEND
  0
POINT
  5
F5
330
EE
100
AcDbEntity
  8
DEFPOINTS
  6
CONTINUOUS
 62
     0
100
AcDbPoint
 10
-14403.71
 20
1621.717999999999
 30
0.0
  0
POINT
  5
F6
330
EE
100
AcDbEntity
  8
DEFPOINTS
  6
CONTINUOUS
 62
     0
100
AcDbPoint
 10
-14411.21699999998
 20
1621.717999999999
 30
0.0
  0
POINT
  5
F7
330
EE
100
AcDbEntity
  8
DEFPOINTS
  6
CONTINUOUS
 62
     0
100
AcDbPoint
 10
-14411.21699999998
 20
1613.072
 30
0.0
  0
ENDBLK
  5
F9
330
EE
100
AcDbEntity
  8
0
100
AcDbBlockEnd
  0
BLOCK
  5
2A5
330
29A
100
AcDbEntity
  8
0
100
AcDbBlockBegin
  2
*D14
 70
     1
 10
0.0
 20
0.0
 30
0.0
  3
*D14
  1

  0
LINE
  5
321
330
29A
100
AcDbEntity
  8
DIM
  6
CONTINUOUS
 62
     0
100
AcDbLine
 10
462.1841173685238
 20
334.4749674127788
 30
0.0
 11
462.1841173685238
 21
326.2299674127797
 31
0.0
  0
LINE
  5
322
330
29A
100
AcDbEntity
  8
DIM
  6
CONTINUOUS
 62
     0
100
AcDbLine
 10
459.6341173685245
 20
340.3779674127788
 30
0.0
 11
459.6341173685245
 21
326.2299674127797
 31
0.0
  0
LINE
  5
323
330
29A
100
AcDbEntity
  8
DIM
  6
CONTINUOUS
 62
     0
100
AcDbLine
 10
463.5841173685238
 20
326.7629674127797
 30
0.0
 11
464.9841173685238
 21
326.7629674127797
 31
0.0
  0
LINE
  5
324
330
29A
100
AcDbEntity
  8
DIM
  6
CONTINUOUS
 62
     0
100
AcDbLine
 10
458.2341173685246
 20
326.7629674127797
 30
0.0
 11
454.0294788964918
 21
326.7629674127797
 31
0.0
  0
SOLID
  5
325
330
29A
100
AcDbEntity
  8
DIM
  6
CONTINUOUS
 62
     0
100
AcDbTrace
 10
463.5841173685238
 20
326.996300746113
 30
0.0
 11
463.5841173685238
 21
326.5296340794463
 31
0.0
 12
462.1841173685238
 22
326.7629674127797
 32
0.0
 13
462.1841173685238
 23
326.7629674127797
 33
0.0
  0
SOLID
  5
326
330
29A
100
AcDbEntity
  8
DIM
  6
CONTINUOUS
 62
     0
100
AcDbTrace
 10
458.2341173685246
 20
326.996300746113
 30
0.0
 11
458.2341173685246
 21
326.5296340794463
 31
0.0
 12
459.6341173685245
 22
326.7629674127797
 32
0.0
 13
459.6341173685245
 23
326.7629674127797
 33
0.0
  0
MTEXT
  5
327
330
29A
100
AcDbEntity
  8
DIM
  6
CONTINUOUS
 62
     2
100
AcDbMText
 10
455.4317981325082
 20
327.9066509052763
 30
0.0
 40
1.6
 41
0.0
 71
     5
 72
     1
  1
\A1;2.5
  7
TSTYLE6
1001
ACAD
1000
MTEXTBEGIN
1070
    73
1070
     1
1070
    44
1040
1.0
1070
    74
1070
     0
1000
MTEXTEND
  0
POINT
  5
328
330
29A
100
AcDbEntity
  8
DEFPOINTS
  6
CONTINUOUS
 62
     0
100
AcDbPoint
 10
462.1841173685238
 20
335.7549674127787
 30
0.0
  0
POINT
  5
329
330
29A
100
AcDbEntity
  8
DEFPOINTS
  6
CONTINUOUS
 62
     0
100
AcDbPoint
 10
459.6341173685245
 20
341.6579674127788
 30
0.0
  0
POINT
  5
32A
330
29A
100
AcDbEntity
  8
DEFPOINTS
  6
CONTINUOUS
 62
     0
100
AcDbPoint
 10
459.6341173685245
 20
326.7629674127797
 30
0.0
  0
ENDBLK
  5
2A6
330
29A
100
AcDbEntity
  8
0
100
AcDbBlockEnd
  0
BLOCK
  5
2B1
330
2A7
100
AcDbEntity
  8
0
100
AcDbBlockBegin
  2
*D15
 70
     1
 10
0.0
 20
0.0
 30
0.0
  3
*D15
  1

  0
LINE
  5
32B
330
2A7
100
AcDbEntity
  8
DIM
  6
CONTINUOUS
 62
     0
100
AcDbLine
 10
489.9141173685245
 20
341.6579674127788
 30
0.0
 11
495.5141173685244
 21
341.6579674127788
 31
0.0
  0
LINE
  5
32C
330
2A7
100
AcDbEntity
  8
DIM
  6
CONTINUOUS
 62
     0
100
AcDbLine
 10
488.644117368524
 20
336.6579674127788
 30
0.0
 11
495.5141173685244
 21
336.6579674127788
 31
0.0
  0
LINE
  5
32D
330
2A7
100
AcDbEntity
  8
DIM
  6
CONTINUOUS
 62
     0
100
AcDbLine
 10
494.9811173685244
 20
340.2579674127788
 30
0.0
 11
494.9811173685244
 21
338.0579674127787
 31
0.0
  0
SOLID
  5
32E
330
2A7
100
AcDbEntity
  8
DIM
  6
CONTINUOUS
 62
     0
100
AcDbTrace
 10
494.747784035191
 20
340.2579674127788
 30
0.0
 11
495.2144507018577
 21
340.2579674127788
 31
0.0
 12
494.9811173685244
 22
341.6579674127788
 32
0.0
 13
494.9811173685244
 23
341.6579674127788
 33
0.0
  0
SOLID
  5
32F
330
2A7
100
AcDbEntity
  8
DIM
  6
CONTINUOUS
 62
     0
100
AcDbTrace
 10
494.747784035191
 20
338.0579674127787
 30
0.0
 11
495.2144507018577
 21
338.0579674127787
 31
0.0
 12
494.9811173685244
 22
336.6579674127788
 32
0.0
 13
494.9811173685244
 23
336.6579674127788
 33
0.0
  0
MTEXT
  5
330
330
2A7
100
AcDbEntity
  8
DIM
  6
CONTINUOUS
 62
     2
100
AcDbMText
 10
493.8420177778012
 20
339.1579674127797
 30
0.0
 40
1.6
 41
0.0
 71
     5
 72
     1
  1
\A1;5
  7
TSTYLE6
 11
0.0000000000000001
 21
1.0
 31
0.0
1001
ACAD
1000
MTEXTBEGIN
1070
    73
1070
     1
1070
    44
1040
1.0
1070
    74
1070
     0
1000
MTEXTEND
  0
POINT
  5
331
330
2A7
100
AcDbEntity
  8
DEFPOINTS
  6
CONTINUOUS
 62
     0
100
AcDbPoint
 10
488.6341173685245
 20
341.6579674127788
 30
0.0
  0
POINT
  5
332
330
2A7
100
AcDbEntity
  8
DEFPOINTS
  6
CONTINUOUS
 62
     0
100
AcDbPoint
 10
487.3641173685241
 20
336.6579674127788
 30
0.0
  0
POINT
  5
333
330
2A7
100
AcDbEntity
  8
DEFPOINTS
  6
CONTINUOUS
 62
     0
100
AcDbPoint
 10
494.9811173685244
 20
336.6579674127788
 30
0.0
  0
ENDBLK
  5
2B2
330
2A7
100
AcDbEntity
  8
0
100
AcDbBlockEnd
  0
BLOCK
  5
2BD
330
2B3
100
AcDbEntity
  8
0
100
AcDbBlockBegin
  2
*D16
 70
     1
 10
0.0
 20
0.0
 30
0.0
  3
*D16
  1

  0
LINE
  5
334
330
2B3
100
AcDbEntity
  8
DIM
  6
CONTINUOUS
 62
     0
100
AcDbLine
 10
482.1641173685234
 20
334.3169674127798
 30
0.0
 11
482.1641173685234
 21
331.1409674127797
 31
0.0
  0
LINE
  5
335
330
2B3
100
AcDbEntity
  8
DIM
  6
CONTINUOUS
 62
     0
100
AcDbLine
 10
477.1641173685233
 20
334.2949674127798
 30
0.0
 11
477.1641173685233
 21
331.1409674127797
 31
0.0
  0
LINE
  5
336
330
2B3
100
AcDbEntity
  8
DIM
  6
CONTINUOUS
 62
     0
100
AcDbLine
 10
480.7641173685234
 20
331.6739674127798
 30
0.0
 11
478.5641173685234
 21
331.6739674127798
 31
0.0
  0
SOLID
  5
337
330
2B3
100
AcDbEntity
  8
DIM
  6
CONTINUOUS
 62
     0
100
AcDbTrace
 10
480.7641173685234
 20
331.9073007461131
 30
0.0
 11
480.7641173685234
 21
331.4406340794464
 31
0.0
 12
482.1641173685234
 22
331.6739674127798
 32
0.0
 13
482.1641173685234
 23
331.6739674127798
 33
0.0
  0
SOLID
  5
338
330
2B3
100
AcDbEntity
  8
DIM
  6
CONTINUOUS
 62
     0
100
AcDbTrace
 10
478.5641173685234
 20
331.9073007461131
 30
0.0
 11
478.5641173685234
 21
331.4406340794464
 31
0.0
 12
477.1641173685233
 22
331.6739674127798
 32
0.0
 13
477.1641173685233
 23
331.6739674127798
 33
0.0
  0
MTEXT
  5
339
330
2B3
100
AcDbEntity
  8
DIM
  6
CONTINUOUS
 62
     2
100
AcDbMText
 10
479.6641173685234
 20
332.8130670035028
 30
0.0
 40
1.6
 41
0.0
 71
     5
 72
     1
  1
\A1;5
  7
TSTYLE6
1001
ACAD
1000
MTEXTBEGIN
1070
    73
1070
     1
1070
    44
1040
1.0
1070
    74
1070
     0
1000
MTEXTEND
  0
POINT
  5
33A
330
2B3
100
AcDbEntity
  8
DEFPOINTS
  6
CONTINUOUS
 62
     0
100
AcDbPoint
 10
482.1641173685234
 20
335.5969674127798
 30
0.0
  0
POINT
  5
33B
330
2B3
100
AcDbEntity
  8
DEFPOINTS
  6
CONTINUOUS
 62
     0
100
AcDbPoint
 10
477.1641173685233
 20
335.5749674127798
 30
0.0
  0
POINT
  5
33C
330
2B3
100
AcDbEntity
  8
DEFPOINTS
  6
CONTINUOUS
 62
     0
100
AcDbPoint
 10
477.1641173685233
 20
331.6739674127798
 30
0.0
  0
ENDBLK
  5
2BE
330
2B3
100
AcDbEntity
  8
0
100
AcDbBlockEnd
  0
BLOCK
  5
2C9
330
2BF
100
AcDbEntity
  8
0
100
AcDbBlockBegin
  2
*D17
 70
     1
 10
0.0
 20
0.0
 30
0.0
  3
*D17
  1

  0
LINE
  5
33D
330
2BF
100
AcDbEntity
  8
DIM
  6
CONTINUOUS
 62
     0
100
AcDbLine
 10
462.1841173685238
 20
334.4749674127788
 30
0.0
 11
462.1841173685238
 21
326.2299674127797
 31
0.0
  0
LINE
  5
33E
330
2BF
100
AcDbEntity
  8
DIM
  6
CONTINUOUS
 62
     0
100
AcDbLine
 10
482.1641173685234
 20
334.3169674127798
 30
0.0
 11
482.1641173685234
 21
326.2299674127797
 31
0.0
  0
LINE
  5
33F
330
2BF
100
AcDbEntity
  8
DIM
  6
CONTINUOUS
 62
     0
100
AcDbLine
 10
463.5841173685238
 20
326.7629674127797
 30
0.0
 11
480.7641173685234
 21
326.7629674127797
 31
0.0
  0
SOLID
  5
340
330
2BF
100
AcDbEntity
  8
DIM
  6
CONTINUOUS
 62
     0
100
AcDbTrace
 10
463.5841173685238
 20
326.996300746113
 30
0.0
 11
463.5841173685238
 21
326.5296340794463
 31
0.0
 12
462.1841173685238
 22
326.7629674127797
 32
0.0
 13
462.1841173685238
 23
326.7629674127797
 33
0.0
  0
SOLID
  5
341
330
2BF
100
AcDbEntity
  8
DIM
  6
CONTINUOUS
 62
     0
100
AcDbTrace
 10
480.7641173685234
 20
326.996300746113
 30
0.0
 11
480.7641173685234
 21
326.5296340794463
 31
0.0
 12
482.1641173685234
 22
326.7629674127797
 32
0.0
 13
482.1641173685234
 23
326.7629674127797
 33
0.0
  0
MTEXT
  5
342
330
2BF
100
AcDbEntity
  8
DIM
  6
CONTINUOUS
 62
     2
100
AcDbMText
 10
472.1741173685236
 20
327.9066509052763
 30
0.0
 40
1.6
 41
0.0
 71
     5
 72
     1
  1
\A1;20
  7
TSTYLE6
1001
ACAD
1000
MTEXTBEGIN
1070
    73
1070
     1
1070
    44
1040
1.0
1070
    74
1070
     0
1000
MTEXTEND
  0
POINT
  5
343
330
2BF
100
AcDbEntity
  8
DEFPOINTS
  6
CONTINUOUS
 62
     0
100
AcDbPoint
 10
462.1841173685238
 20
335.7549674127787
 30
0.0
  0
POINT
  5
344
330
2BF
100
AcDbEntity
  8
DEFPOINTS
  6
CONTINUOUS
 62
     0
100
AcDbPoint
 10
482.1641173685234
 20
335.5969674127798
 30
0.0
  0
POINT
  5
345
330
2BF
100
AcDbEntity
  8
DEFPOINTS
  6
CONTINUOUS
 62
     0
100
AcDbPoint
 10
482.1641173685234
 20
326.7629674127797
 30
0.0
  0
ENDBLK
  5
2CA
330
2BF
100
AcDbEntity
  8
0
100
AcDbBlockEnd
  0
BLOCK
  5
2D6
330
2CB
100
AcDbEntity
  8
0
100
AcDbBlockBegin
  2
*D18
 70
     1
 10
0.0
 20
0.0
 30
0.0
  3
*D18
  1

  0
LINE
  5
346
330
2CB
100
AcDbEntity
  8
DIM
  6
CONTINUOUS
 62
     0
100
AcDbLine
 10
462.3841173685246
 20
336.0779674127789
 30
0.0
 11
462.3841173685246
 21
331.0519674127798
 31
0.0
  0
LINE
  5
347
330
2CB
100
AcDbEntity
  8
DIM
  6
CONTINUOUS
 62
     0
100
AcDbLine
 10
461.984117368534
 20
336.0779674127789
 30
0.0
 11
461.984117368534
 21
331.0519674127798
 31
0.0
  0
LINE
  5
348
330
2CB
100
AcDbEntity
  8
DIM
  6
CONTINUOUS
 62
     0
100
AcDbLine
 10
460.584117368534
 20
331.5849674127798
 30
0.0
 11
459.184117368534
 21
331.5849674127798
 31
0.0
  0
LINE
  5
349
330
2CB
100
AcDbEntity
  8
DIM
  6
CONTINUOUS
 62
     0
100
AcDbLine
 10
463.7841173685245
 20
331.5849674127798
 30
0.0
 11
469.4116630711157
 21
331.5849674127798
 31
0.0
  0
SOLID
  5
34A
330
2CB
100
AcDbEntity
  8
DIM
  6
CONTINUOUS
 62
     0
100
AcDbTrace
 10
460.584117368534
 20
331.8183007461132
 30
0.0
 11
460.584117368534
 21
331.3516340794464
 31
0.0
 12
461.984117368534
 22
331.5849674127798
 32
0.0
 13
461.984117368534
 23
331.5849674127798
 33
0.0
  0
SOLID
  5
34B
330
2CB
100
AcDbEntity
  8
DIM
  6
CONTINUOUS
 62
     0
100
AcDbTrace
 10
463.7841173685245
 20
331.8183007461132
 30
0.0
 11
463.7841173685245
 21
331.3516340794464
 31
0.0
 12
462.3841173685246
 22
331.5849674127798
 32
0.0
 13
462.3841173685246
 23
331.5849674127798
 33
0.0
  0
MTEXT
  5
34C
330
2CB
100
AcDbEntity
  8
DIM
  6
CONTINUOUS
 62
     2
100
AcDbMText
 10
468.0311173685236
 20
332.7286509052764
 30
0.0
 40
1.6
 41
0.0
 71
     5
 72
     1
  1
\A1;0.4
  7
TSTYLE6
1001
ACAD
1000
MTEXTBEGIN
1070
    73
1070
     1
1070
    44
1040
1.0
1070
    74
1070
     0
1000
MTEXTEND
  0
POINT
  5
34D
330
2CB
100
AcDbEntity
  8
DEFPOINTS
  6
CONTINUOUS
 62
     0
100
AcDbPoint
 10
462.3841173685246
 20
337.3579674127788
 30
0.0
  0
POINT
  5
34E
330
2CB
100
AcDbEntity
  8
DEFPOINTS
  6
CONTINUOUS
 62
     0
100
AcDbPoint
 10
461.984117368534
 20
337.3579674127788
 30
0.0
  0
POINT
  5
34F
330
2CB
100
AcDbEntity
  8
DEFPOINTS
  6
CONTINUOUS
 62
     0
100
AcDbPoint
 10
461.984117368534
 20
331.5849674127798
 30
0.0
  0
ENDBLK
  5
2D7
330
2CB
100
AcDbEntity
  8
0
100
AcDbBlockEnd
  0
BLOCK
  5
2E2
330
2D8
100
AcDbEntity
  8
0
100
AcDbBlockBegin
  2
*D19
 70
     1
 10
0.0
 20
0.0
 30
0.0
  3
*D19
  1

  0
LINE
  5
350
330
2D8
100
AcDbEntity
  8
DIM
  6
CONTINUOUS
 62
     0
100
AcDbLine
 10
512.8621173685255
 20
334.3529674127789
 30
0.0
 11
512.8621173685255
 21
326.4539674127798
 31
0.0
  0
LINE
  5
351
330
2D8
100
AcDbEntity
  8
DIM
  6
CONTINUOUS
 62
     0
100
AcDbLine
 10
505.355117368535
 20
334.3529674127789
 30
0.0
 11
505.355117368535
 21
326.4539674127798
 31
0.0
  0
LINE
  5
352
330
2D8
100
AcDbEntity
  8
DIM
  6
CONTINUOUS
 62
     0
100
AcDbLine
 10
511.4621173685256
 20
326.9869674127799
 30
0.0
 11
506.755117368535
 21
326.9869674127799
 31
0.0
  0
SOLID
  5
353
330
2D8
100
AcDbEntity
  8
DIM
  6
CONTINUOUS
 62
     0
100
AcDbTrace
 10
511.4621173685256
 20
327.2203007461132
 30
0.0
 11
511.4621173685256
 21
326.7536340794465
 31
0.0
 12
512.8621173685255
 22
326.9869674127799
 32
0.0
 13
512.8621173685255
 23
326.9869674127799
 33
0.0
  0
SOLID
  5
354
330
2D8
100
AcDbEntity
  8
DIM
  6
CONTINUOUS
 62
     0
100
AcDbTrace
 10
506.755117368535
 20
327.2203007461132
 30
0.0
 11
506.755117368535
 21
326.7536340794465
 31
0.0
 12
505.355117368535
 22
326.9869674127799
 32
0.0
 13
505.355117368535
 23
326.9869674127799
 33
0.0
  0
MTEXT
  5
355
330
2D8
100
AcDbEntity
  8
DIM
  6
CONTINUOUS
 62
     2
100
AcDbMText
 10
509.1051173685259
 20
328.1260670035029
 30
0.0
 40
1.6
 41
0.0
 71
     5
 72
     1
  1
\A1;7.5
  7
TSTYLE6
1001
ACAD
1000
MTEXTBEGIN
1070
    73
1070
     1
1070
    44
1040
1.0
1070
    74
1070
     0
1000
MTEXTEND
  0
POINT
  5
356
330
2D8
100
AcDbEntity
  8
DEFPOINTS
  6
CONTINUOUS
 62
     0
100
AcDbPoint
 10
512.8621173685255
 20
335.6329674127789
 30
0.0
  0
POINT
  5
357
330
2D8
100
AcDbEntity
  8
DEFPOINTS
  6
CONTINUOUS
 62
     0
100
AcDbPoint
 10
505.355117368535
 20
335.6329674127789
 30
0.0
  0
POINT
  5
358
330
2D8
100
AcDbEntity
  8
DEFPOINTS
  6
CONTINUOUS
 62
     0
100
AcDbPoint
 10
505.355117368535
 20
326.9869674127799
 30
0.0
  0
ENDBLK
  5
2E3
330
2D8
100
AcDbEntity
  8
0
100
AcDbBlockEnd
  0
BLOCK
  5
2EE
330
2E4
100
AcDbEntity
  8
0
100
AcDbBlockBegin
  2
*D20
 70
     1
 10
0.0
 20
0.0
 30
0.0
  3
*D20
  1

  0
LINE
  5
359
330
2E4
100
AcDbEntity
  8
DIM
  6
CONTINUOUS
 62
     0
100
AcDbLine
 10
482.1641173685234
 20
334.3169674127798
 30
0.0
 11
482.1641173685234
 21
331.1409674127797
 31
0.0
  0
LINE
  5
35A
330
2E4
100
AcDbEntity
  8
DIM
  6
CONTINUOUS
 62
     0
100
AcDbLine
 10
487.1141173685241
 20
334.3599674127797
 30
0.0
 11
487.1141173685241
 21
331.1409674127797
 31
0.0
  0
LINE
  5
35B
330
2E4
100
AcDbEntity
  8
DIM
  6
CONTINUOUS
 62
     0
100
AcDbLine
 10
483.5641173685234
 20
331.6739674127798
 30
0.0
 11
485.7141173685241
 21
331.6739674127798
 31
0.0
  0
SOLID
  5
35C
330
2E4
100
AcDbEntity
  8
DIM
  6
CONTINUOUS
 62
     0
100
AcDbTrace
 10
483.5641173685234
 20
331.9073007461131
 30
0.0
 11
483.5641173685234
 21
331.4406340794464
 31
0.0
 12
482.1641173685234
 22
331.6739674127798
 32
0.0
 13
482.1641173685234
 23
331.6739674127798
 33
0.0
  0
SOLID
  5
35D
330
2E4
100
AcDbEntity
  8
DIM
  6
CONTINUOUS
 62
     0
100
AcDbTrace
 10
485.7141173685241
 20
331.9073007461131
 30
0.0
 11
485.7141173685241
 21
331.4406340794464
 31
0.0
 12
487.1141173685241
 22
331.6739674127798
 32
0.0
 13
487.1141173685241
 23
331.6739674127798
 33
0.0
  0
MTEXT
  5
35E
330
2E4
100
AcDbEntity
  8
DIM
  6
CONTINUOUS
 62
     2
100
AcDbMText
 10
484.6391173685238
 20
332.8130670035028
 30
0.0
 40
1.6
 41
0.0
 71
     5
 72
     1
  1
\A1;5
  7
TSTYLE6
1001
ACAD
1000
MTEXTBEGIN
1070
    73
1070
     1
1070
    44
1040
1.0
1070
    74
1070
     0
1000
MTEXTEND
  0
POINT
  5
35F
330
2E4
100
AcDbEntity
  8
DEFPOINTS
  6
CONTINUOUS
 62
     0
100
AcDbPoint
 10
482.1641173685234
 20
335.5969674127798
 30
0.0
  0
POINT
  5
360
330
2E4
100
AcDbEntity
  8
DEFPOINTS
  6
CONTINUOUS
 62
     0
100
AcDbPoint
 10
487.1141173685241
 20
335.6399674127796
 30
0.0
  0
POINT
  5
361
330
2E4
100
AcDbEntity
  8
DEFPOINTS
  6
CONTINUOUS
 62
     0
100
AcDbPoint
 10
487.1141173685241
 20
331.6739674127798
 30
0.0
  0
ENDBLK
  5
2EF
330
2E4
100
AcDbEntity
  8
0
100
AcDbBlockEnd
  0
BLOCK
  5
2FB
330
2F0
100
AcDbEntity
  8
0
100
AcDbBlockBegin
  2
*D21
 70
     1
 10
0.0
 20
0.0
 30
0.0
  3
*D21
  1

  0
LINE
  5
362
330
2F0
100
AcDbEntity
  8
DIM
  6
CONTINUOUS
 62
     0
100
AcDbLine
 10
505.8621173685346
 20
336.1189674127788
 30
0.0
 11
505.8621173685346
 21
331.0719674127798
 31
0.0
  0
LINE
  5
363
330
2F0
100
AcDbEntity
  8
DIM
  6
CONTINUOUS
 62
     0
100
AcDbLine
 10
504.8621173685346
 20
336.1189674127788
 30
0.0
 11
504.8621173685346
 21
331.0719674127798
 31
0.0
  0
LINE
  5
364
330
2F0
100
AcDbEntity
  8
DIM
  6
CONTINUOUS
 62
     0
100
AcDbLine
 10
503.4621173685346
 20
331.6049674127798
 30
0.0
 11
502.0621173685346
 21
331.6049674127798
 31
0.0
  0
LINE
  5
365
330
2F0
100
AcDbEntity
  8
DIM
  6
CONTINUOUS
 62
     0
100
AcDbLine
 10
507.2621173685346
 20
331.6049674127798
 30
0.0
 11
510.3290627982643
 21
331.6049674127798
 31
0.0
  0
SOLID
  5
366
330
2F0
100
AcDbEntity
  8
DIM
  6
CONTINUOUS
 62
     0
100
AcDbTrace
 10
503.4621173685346
 20
331.8383007461132
 30
0.0
 11
503.4621173685346
 21
331.3716340794464
 31
0.0
 12
504.8621173685346
 22
331.6049674127798
 32
0.0
 13
504.8621173685346
 23
331.6049674127798
 33
0.0
  0
SOLID
  5
367
330
2F0
100
AcDbEntity
  8
DIM
  6
CONTINUOUS
 62
     0
100
AcDbTrace
 10
507.2621173685346
 20
331.8383007461132
 30
0.0
 11
507.2621173685346
 21
331.3716340794464
 31
0.0
 12
505.8621173685346
 22
331.6049674127798
 32
0.0
 13
505.8621173685346
 23
331.6049674127798
 33
0.0
  0
MTEXT
  5
368
330
2F0
100
AcDbEntity
  8
DIM
  6
CONTINUOUS
 62
     2
100
AcDbMText
 10
510.0491173685236
 20
332.7295513145533
 30
0.0
 40
1.6
 41
0.0
 71
     5
 72
     1
  1
\A1;1
  7
TSTYLE6
1001
ACAD
1000
MTEXTBEGIN
1070
    73
1070
     1
1070
    44
1040
1.0
1070
    74
1070
     0
1000
MTEXTEND
  0
POINT
  5
369
330
2F0
100
AcDbEntity
  8
DEFPOINTS
  6
CONTINUOUS
 62
     0
100
AcDbPoint
 10
505.8621173685346
 20
337.3989674127788
 30
0.0
  0
POINT
  5
36A
330
2F0
100
AcDbEntity
  8
DEFPOINTS
  6
CONTINUOUS
 62
     0
100
AcDbPoint
 10
504.8621173685346
 20
337.3989674127788
 30
0.0
  0
POINT
  5
36B
330
2F0
100
AcDbEntity
  8
DEFPOINTS
  6
CONTINUOUS
 62
     0
100
AcDbPoint
 10
504.8621173685346
 20
331.6049674127798
 30
0.0
  0
ENDBLK
  5
2FC
330
2F0
100
AcDbEntity
  8
0
100
AcDbBlockEnd
  0
BLOCK
  5
307
330
2FD
100
AcDbEntity
  8
0
100
AcDbBlockBegin
  2
*D22
 70
     1
 10
0.0
 20
0.0
 30
0.0
  3
*D22
  1

  0
LINE
  5
36C
330
2FD
100
AcDbEntity
  8
DIM
  6
CONTINUOUS
 62
     0
100
AcDbLine
 10
459.6341173685245
 20
344.4379674127787
 30
0.0
 11
459.6341173685245
 21
372.2189674127797
 31
0.0
  0
LINE
  5
36D
330
2FD
100
AcDbEntity
  8
DIM
  6
CONTINUOUS
 62
     0
100
AcDbLine
 10
488.6341173685245
 20
344.4379674127787
 30
0.0
 11
488.6341173685245
 21
372.2189674127797
 31
0.0
  0
LINE
  5
36E
330
2FD
100
AcDbEntity
  8
DIM
  6
CONTINUOUS
 62
     0
100
AcDbLine
 10
461.0341173685245
 20
371.6859674127797
 30
0.0
 11
487.2341173685246
 21
371.6859674127797
 31
0.0
  0
SOLID
  5
36F
330
2FD
100
AcDbEntity
  8
DIM
  6
CONTINUOUS
 62
     0
100
AcDbTrace
 10
461.0341173685245
 20
371.9193007461131
 30
0.0
 11
461.0341173685245
 21
371.4526340794463
 31
0.0
 12
459.6341173685245
 22
371.6859674127797
 32
0.0
 13
459.6341173685245
 23
371.6859674127797
 33
0.0
  0
SOLID
  5
370
330
2FD
100
AcDbEntity
  8
DIM
  6
CONTINUOUS
 62
     0
100
AcDbTrace
 10
487.2341173685246
 20
371.9193007461131
 30
0.0
 11
487.2341173685246
 21
371.4526340794463
 31
0.0
 12
488.6341173685245
 22
371.6859674127797
 32
0.0
 13
488.6341173685245
 23
371.6859674127797
 33
0.0
  0
MTEXT
  5
371
330
2FD
100
AcDbEntity
  8
DIM
  6
CONTINUOUS
 62
     2
100
AcDbMText
 10
474.1341173685245
 20
372.8296509052763
 30
0.0
 40
1.6
 41
0.0
 71
     5
 72
     1
  1
\A1;29
  7
TSTYLE6
1001
ACAD
1000
MTEXTBEGIN
1070
    73
1070
     1
1070
    44
1040
1.0
1070
    74
1070
     0
1000
MTEXTEND
  0
POINT
  5
372
330
2FD
100
AcDbEntity
  8
DEFPOINTS
  6
CONTINUOUS
 62
     0
100
AcDbPoint
 10
459.6341173685245
 20
343.1579674127788
 30
0.0
  0
POINT
  5
373
330
2FD
100
AcDbEntity
  8
DEFPOINTS
  6
CONTINUOUS
 62
     0
100
AcDbPoint
 10
488.6341173685245
 20
343.1579674127788
 30
0.0
  0
POINT
  5
374
330
2FD
100
AcDbEntity
  8
DEFPOINTS
  6
CONTINUOUS
 62
     0
100
AcDbPoint
 10
488.6341173685245
 20
371.6859674127797
 30
0.0
  0
ENDBLK
  5
308
330
2FD
100
AcDbEntity
  8
0
100
AcDbBlockEnd
  0
BLOCK
  5
313
330
309
100
AcDbEntity
  8
0
100
AcDbBlockBegin
  2
*D23
 70
     1
 10
0.0
 20
0.0
 30
0.0
  3
*D23
  1

  0
LINE
  5
375
330
309
100
AcDbEntity
  8
DIM
  6
CONTINUOUS
 62
     0
100
AcDbLine
 10
502.9121173685248
 20
344.4789674127789
 30
0.0
 11
502.9121173685248
 21
372.2189674127797
 31
0.0
  0
LINE
  5
376
330
309
100
AcDbEntity
  8
DIM
  6
CONTINUOUS
 62
     0
100
AcDbLine
 10
515.3121173685244
 20
344.4789674127789
 30
0.0
 11
515.3121173685244
 21
372.2189674127797
 31
0.0
  0
LINE
  5
377
330
309
100
AcDbEntity
  8
DIM
  6
CONTINUOUS
 62
     0
100
AcDbLine
 10
504.3121173685248
 20
371.6859674127797
 30
0.0
 11
513.9121173685245
 21
371.6859674127797
 31
0.0
  0
SOLID
  5
378
330
309
100
AcDbEntity
  8
DIM
  6
CONTINUOUS
 62
     0
100
AcDbTrace
 10
504.3121173685248
 20
371.9193007461131
 30
0.0
 11
504.3121173685248
 21
371.4526340794463
 31
0.0
 12
502.9121173685248
 22
371.6859674127797
 32
0.0
 13
502.9121173685248
 23
371.6859674127797
 33
0.0
  0
SOLID
  5
379
330
309
100
AcDbEntity
  8
DIM
  6
CONTINUOUS
 62
     0
100
AcDbTrace
 10
513.9121173685245
 20
371.9193007461131
 30
0.0
 11
513.9121173685245
 21
371.4526340794463
 31
0.0
 12
515.3121173685244
 22
371.6859674127797
 32
0.0
 13
515.3121173685244
 23
371.6859674127797
 33
0.0
  0
MTEXT
  5
37A
330
309
100
AcDbEntity
  8
DIM
  6
CONTINUOUS
 62
     2
100
AcDbMText
 10
509.1121173685255
 20
372.8105513145532
 30
0.0
 40
1.6
 41
0.0
 71
     5
 72
     1
  1
\A1;12.4
  7
TSTYLE6
1001
ACAD
1000
MTEXTBEGIN
1070
    73
1070
     1
1070
    44
1040
1.0
1070
    74
1070
     0
1000
MTEXTEND
  0
POINT
  5
37B
330
309
100
AcDbEntity
  8
DEFPOINTS
  6
CONTINUOUS
 62
     0
100
AcDbPoint
 10
502.9121173685248
 20
343.1989674127789
 30
0.0
  0
POINT
  5
37C
330
309
100
AcDbEntity
  8
DEFPOINTS
  6
CONTINUOUS
 62
     0
100
AcDbPoint
 10
515.3121173685244
 20
343.1989674127789
 30
0.0
  0
POINT
  5
37D
330
309
100
AcDbEntity
  8
DEFPOINTS
  6
CONTINUOUS
 62
     0
100
AcDbPoint
 10
515.3121173685244
 20
371.6859674127797
 30
0.0
  0
ENDBLK
  5
314
330
309
100
AcDbEntity
  8
0
100
AcDbBlockEnd
  0
BLOCK
  5
31F
330
315
100
AcDbEntity
  8
0
100
AcDbBlockBegin
  2
*D24
 70
     1
 10
0.0
 20
0.0
 30
0.0
  3
*D24
  1

  0
LINE
  5
37E
330
315
100
AcDbEntity
  8
DIM
  6
CONTINUOUS
 62
     0
100
AcDbLine
 10
489.7091173685246
 20
366.6579674127797
 30
0.0
 11
495.5141173685243
 21
366.6579674127797
 31
0.0
  0
LINE
  5
37F
330
315
100
AcDbEntity
  8
DIM
  6
CONTINUOUS
 62
     0
100
AcDbLine
 10
489.9141173685245
 20
341.6579674127788
 30
0.0
 11
495.5141173685243
 21
341.6579674127788
 31
0.0
  0
LINE
  5
380
330
315
100
AcDbEntity
  8
DIM
  6
CONTINUOUS
 62
     0
100
AcDbLine
 10
494.9811173685243
 20
365.2579674127797
 30
0.0
 11
494.9811173685243
 21
343.0579674127788
 31
0.0
  0
SOLID
  5
381
330
315
100
AcDbEntity
  8
DIM
  6
CONTINUOUS
 62
     0
100
AcDbTrace
 10
494.7477840351909
 20
365.2579674127797
 30
0.0
 11
495.2144507018577
 21
365.2579674127797
 31
0.0
 12
494.9811173685243
 22
366.6579674127797
 32
0.0
 13
494.9811173685243
 23
366.6579674127797
 33
0.0
  0
SOLID
  5
382
330
315
100
AcDbEntity
  8
DIM
  6
CONTINUOUS
 62
     0
100
AcDbTrace
 10
494.7477840351909
 20
343.0579674127788
 30
0.0
 11
495.2144507018577
 21
343.0579674127788
 31
0.0
 12
494.9811173685243
 22
341.6579674127788
 32
0.0
 13
494.9811173685243
 23
341.6579674127788
 33
0.0
  0
MTEXT
  5
383
330
315
100
AcDbEntity
  8
DIM
  6
CONTINUOUS
 62
     2
100
AcDbMText
 10
493.8374338760277
 20
354.1579674127793
 30
0.0
 40
1.6
 41
0.0
 71
     5
 72
     1
  1
\A1;25
  7
TSTYLE6
 11
0.0000000000000001
 21
1.0
 31
0.0
1001
ACAD
1000
MTEXTBEGIN
1070
    73
1070
     1
1070
    44
1040
1.0
1070
    74
1070
     0
1000
MTEXTEND
  0
POINT
  5
384
330
315
100
AcDbEntity
  8
DEFPOINTS
  6
CONTINUOUS
 62
     0
100
AcDbPoint
 10
488.4291173685246
 20
366.6579674127797
 30
0.0
  0
POINT
  5
385
330
315
100
AcDbEntity
  8
DEFPOINTS
  6
CONTINUOUS
 62
     0
100
AcDbPoint
 10
488.6341173685245
 20
341.6579674127788
 30
0.0
  0
POINT
  5
386
330
315
100
AcDbEntity
  8
DEFPOINTS
  6
CONTINUOUS
 62
     0
100
AcDbPoint
 10
494.9811173685243
 20
341.6579674127788
 30
0.0
  0
ENDBLK
  5
320
330
315
100
AcDbEntity
  8
0
100
AcDbBlockEnd
  0
ENDSEC
  0
SECTION
  2
ENTITIES
  0
DIMENSION
  5
1D4
330
1F
100
AcDbEntity
  8
DIM
  6
CONTINUOUS
 62
     3
100
AcDbDimension
  2
*D14
 10
459.6341173685245
 20
326.7629674127797
 30
0.0
 11
455.4317981325082
 21
326.7629674127797
 31
0.0
 70
   160
  1
<>
  3
DSTYLE4
100
AcDbAlignedDimension
 13
462.1841173685238
 23
335.7549674127787
 33
0.0
 14
459.6341173685245
 24
341.6579674127788
 34
0.0
100
AcDbRotatedDimension
1001
ACAD
1000
DSTYLE
1002
{
1070
     6
1000

1070
   173
1070
     1
1070
     7
1000

1002
}
  0
DIMENSION
  5
1D5
330
1F
100
AcDbEntity
  8
DIM
  6
CONTINUOUS
 62
     3
100
AcDbDimension
  2
*D15
 10
494.9811173685244
 20
336.6579674127788
 30
0.0
 11
494.9811173685243
 21
339.1579674127797
 31
0.0
 70
   160
  1
5
  3
DSTYLE6
100
AcDbAlignedDimension
 13
488.6341173685245
 23
341.6579674127788
 33
0.0
 14
487.3641173685241
 24
336.6579674127788
 34
0.0
 50
90.0
100
AcDbRotatedDimension
1001
ACAD
1000
DSTYLE
1002
{
1070
     6
1000

1070
   173
1070
     1
1070
     7
1000

1002
}
  0
LINE
  5
1D6
330
1F
100
AcDbEntity
  8
DRAW
  6
CONTINUOUS
100
AcDbLine
 10
504.8621173685346
 20
341.698967412779
 30
0.0
 11
504.8621173685346
 21
337.3989674127788
 31
0.0
  0
LINE
  5
1D7
330
1F
100
AcDbEntity
  8
DRAW
  6
CONTINUOUS
100
AcDbLine
 10
505.8621173685346
 20
341.698967412779
 30
0.0
 11
505.8621173685346
 21
337.3989674127788
 31
0.0
  0
LINE
  5
1D8
330
1F
100
AcDbEntity
  8
DRAW
  6
CONTINUOUS
100
AcDbLine
 10
512.3621173685346
 20
341.698967412779
 30
0.0
 11
512.3621173685346
 21
337.3989674127788
 31
0.0
  0
LINE
  5
1D9
330
1F
100
AcDbEntity
  8
DRAW
  6
CONTINUOUS
100
AcDbLine
 10
513.3621173685346
 20
341.698967412779
 30
0.0
 11
513.3621173685346
 21
337.3989674127788
 31
0.0
  0
LINE
  5
1DA
330
1F
100
AcDbEntity
  8
DRAW
  6
CENTER2
100
AcDbLine
 10
512.8621173685255
 20
335.6329674127789
 30
0.0
 11
512.8621173685255
 21
344.6789674127797
 31
0.0
  0
LINE
  5
1DB
330
1F
100
AcDbEntity
  8
DRAW
  6
CENTER2
100
AcDbLine
 10
505.355117368535
 20
335.6329674127789
 30
0.0
 11
505.3621173685346
 21
344.6349674127798
 31
0.0
  0
LINE
  5
1DC
330
1F
100
AcDbEntity
  8
DRAW
  6
CONTINUOUS
100
AcDbLine
 10
482.4141173685234
 20
341.6579674127788
 30
0.0
 11
482.4141173685234
 21
337.0749674127798
 31
0.0
  0
LINE
  5
1DD
330
1F
100
AcDbEntity
  8
DRAW
  6
CONTINUOUS
100
AcDbLine
 10
481.9141173685234
 20
341.6579674127788
 30
0.0
 11
481.9141173685234
 21
337.0749674127798
 31
0.0
  0
LINE
  5
1DE
330
1F
100
AcDbEntity
  8
DRAW
  6
CONTINUOUS
100
AcDbLine
 10
486.8641173685241
 20
341.6579674127788
 30
0.0
 11
486.8641173685241
 21
337.2409674127798
 31
0.0
  0
LINE
  5
1DF
330
1F
100
AcDbEntity
  8
DRAW
  6
CONTINUOUS
100
AcDbLine
 10
487.3641173685241
 20
341.6579674127788
 30
0.0
 11
487.3641173685241
 21
337.2409674127798
 31
0.0
  0
LINE
  5
1E0
330
1F
100
AcDbEntity
  8
DRAW
  6
CONTINUOUS
100
AcDbLine
 10
476.9641173685244
 20
341.6579674127788
 30
0.0
 11
476.9641173685244
 21
337.2409674127798
 31
0.0
  0
LINE
  5
1E1
330
1F
100
AcDbEntity
  8
DRAW
  6
CONTINUOUS
100
AcDbLine
 10
477.3641173685241
 20
341.6579674127788
 30
0.0
 11
477.3641173685241
 21
337.2409674127798
 31
0.0
  0
LINE
  5
1E2
330
1F
100
AcDbEntity
  8
DRAW
  6
CONTINUOUS
100
AcDbLine
 10
462.3841173685246
 20
341.6579674127788
 30
0.0
 11
462.3841173685246
 21
337.3579674127788
 31
0.0
  0
LINE
  5
1E3
330
1F
100
AcDbEntity
  8
DRAW
  6
CONTINUOUS
100
AcDbLine
 10
461.984117368534
 20
341.6579674127788
 30
0.0
 11
461.984117368534
 21
337.3579674127788
 31
0.0
  0
LINE
  5
1E4
330
1F
100
AcDbEntity
  8
DRAW
  6
CENTER2
100
AcDbLine
 10
487.1141173685241
 20
335.6399674127796
 30
0.0
 11
487.1141173685241
 21
344.9309674127789
 31
0.0
  0
LINE
  5
1E5
330
1F
100
AcDbEntity
  8
DRAW
  6
CENTER2
100
AcDbLine
 10
482.1641173685234
 20
335.5969674127798
 30
0.0
 11
482.1641173685234
 21
344.9309674127789
 31
0.0
  0
LINE
  5
1E6
330
1F
100
AcDbEntity
  8
DRAW
  6
CENTER2
100
AcDbLine
 10
477.1641173685233
 20
335.5749674127798
 30
0.0
 11
477.1641173685233
 21
344.9049674127788
 31
0.0
  0
LINE
  5
1E7
330
1F
100
AcDbEntity
  8
DRAW
  6
CENTER2
100
AcDbLine
 10
462.1841173685238
 20
335.7549674127787
 30
0.0
 11
462.1841173685238
 21
345.0609674127797
 31
0.0
  0
INSERT
  5
1E8
330
1F
100
AcDbEntity
  8
CARTOUCHE
100
AcDbBlockReference
  2
LW_POLYLINE_1
 10
14916.57211736852
 20
-1286.08503258722
 30
0.0
  0
LINE
  5
1E9
330
1F
100
AcDbEntity
  8
CARTOUCHE
  6
CONTINUOUS
 62
     4
100
AcDbLine
 10
519.4391173685248
 20
295.5309674127797
 30
0.0
 11
452.7721173685344
 21
295.5309674127797
 31
0.0
  0
LINE
  5
1EA
330
1F
100
AcDbEntity
  8
CARTOUCHE
  6
CONTINUOUS
 62
     4
100
AcDbLine
 10
519.4391173685248
 20
298.8649674127798
 30
0.0
 11
467.7721173685345
 21
298.8649674127798
 31
0.0
  0
LINE
  5
1EB
330
1F
100
AcDbEntity
  8
CARTOUCHE
  6
CONTINUOUS
 62
     4
100
AcDbLine
 10
519.4391173685248
 20
304.4789674127789
 30
0.0
 11
452.7721173685344
 21
304.4789674127789
 31
0.0
  0
TEXT
  5
1EC
330
1F
100
AcDbEntity
  8
CARTOUCHE
  6
CONTINUOUS
 62
     4
100
AcDbText
 10
475.6791173685246
 20
297.7389674127789
 30
0.0
 40
0.6
  1
REV.
 41
0.4600000000000001
  7
TSTYLE3
100
AcDbText
  0
TEXT
  5
1ED
330
1F
100
AcDbEntity
  8
CARTOUCHE
  6
CONTINUOUS
 62
     7
100
AcDbText
 10
476.2541173685235
 20
296.1229674127796
 30
0.0
 40
0.7
  1
0
 41
0.4600000000000001
  7
TSTYLE2
100
AcDbText
  0
LINE
  5
1EE
330
1F
100
AcDbEntity
  8
CARTOUCHE
  6
CONTINUOUS
 62
     2
100
AcDbLine
 10
465.9251173685347
 20
300.36696741278
 30
0.0
 11
465.9251173685347
 21
300.25196741278
 31
0.0
  0
LINE
  5
1EF
330
1F
100
AcDbEntity
  8
CARTOUCHE
  6
CONTINUOUS
 62
     2
100
AcDbLine
 10
466.2571173685351
 20
299.7259674127799
 30
0.0
 11
466.2571173685351
 21
299.8059674127798
 31
0.0
  0
ARC
  5
1F0
330
1F
100
AcDbEntity
  8
CARTOUCHE
  6
CONTINUOUS
 62
     2
100
AcDbCircle
 10
466.0951173685348
 20
299.7909674127797
 30
0.0
 40
0.168
100
AcDbArc
 50
5.368000000001589
 51
179.9939999999974
  0
LINE
  5
1F1
330
1F
100
AcDbEntity
  8
CARTOUCHE
  6
CONTINUOUS
 62
     2
100
AcDbLine
 10
466.8671173685247
 20
299.7259674127799
 30
0.0
 11
466.2571173685351
 21
299.7259674127799
 31
0.0
  0
SPLINE
  5
1F2
330
1F
100
AcDbEntity
  8
CARTOUCHE
  6
CONTINUOUS
 62
     2
100
AcDbSpline
210
0.0
220
0.0
230
1.0
 70
     8
 71
     3
 72
    16
 73
    12
 74
    10
 42
0.0000000001
 43
0.0000000001
 44
0.000001
 12
0.1358608543894892
 22
0.9907279284670226
 32
0.0
 13
-0.8123777522849703
 23
-0.583131535412397
 33
0.0
 40
0.0
 40
0.0
 40
0.0
 40
0.0
 40
0.2064201816579142
 40
0.3098111432763313
 40
0.41320197674256
 40
0.6180952023178471
 40
0.823658444022265
 40
0.92705017391223
 40
1.030440132276014
 40
1.236790233921526
 40
1.443566468678886
 40
1.443566468678886
 40
1.443566468678886
 40
1.443566468678886
 10
466.866623743715
 20
299.7263091057716
 30
0.0
 10
466.8759718844628
 20
299.7944778520941
 30
0.0
 10
466.8775071339923
 20
299.8989118765016
 30
0.0
 10
466.8571413157628
 20
300.0353433134521
 30
0.0
 10
466.8225048736643
 20
300.1681917037865
 30
0.0
 10
466.7181473831432
 20
300.3181284779175
 30
0.0
 10
466.5490090716047
 20
300.3745739528813
 30
0.0
 10
466.4134595601941
 20
300.396066796912
 30
0.0
 10
466.2751678191544
 20
300.3927847066934
 30
0.0
 10
466.1042763591781
 20
300.3591667800503
 30
0.0
 10
465.9812167711142
 20
300.2924019346389
 30
0.0
 10
465.9252233001748
 20
300.2522093535519
 30
0.0
 11
466.866623743715
 21
299.7263091057716
 31
0.0
 11
466.8705582221059
 21
299.9326924338597
 31
0.0
 11
466.8553406122641
 21
300.0349573719347
 31
0.0
 11
466.8269208243741
 21
300.1343655588698
 31
0.0
 11
466.7053897354248
 21
300.2993246597047
 31
0.0
 11
466.515437784264
 21
300.3779030832217
 31
0.0
 11
466.4131486082838
 21
300.3929625158968
 31
0.0
 11
466.3097671793052
 21
300.3916315766527
 31
0.0
 11
466.1078168087438
 21
300.3492469990117
 31
0.0
 11
465.9252233001748
 21
300.2522093535519
 31
0.0
  0
LINE
  5
1F3
330
1F
100
AcDbEntity
  8
CARTOUCHE
  6
CONTINUOUS
 62
     2
100
AcDbLine
 10
464.5531173685335
 20
299.4819674127798
 30
0.0
 11
465.1401173685349
 21
299.4819674127798
 31
0.0
  0
LINE
  5
1F4
330
1F
100
AcDbEntity
  8
CARTOUCHE
  6
CONTINUOUS
 62
     2
100
AcDbLine
 10
465.3501173685249
 20
300.36696741278
 30
0.0
 11
465.9251173685347
 21
300.36696741278
 31
0.0
  0
LINE
  5
1F5
330
1F
100
AcDbEntity
  8
CARTOUCHE
  6
CONTINUOUS
 62
     2
100
AcDbLine
 10
465.9251173685347
 20
299.0739674127789
 30
0.0
 11
465.3501173685249
 21
299.0739674127789
 31
0.0
  0
LINE
  5
1F6
330
1F
100
AcDbEntity
  8
CARTOUCHE
  6
CONTINUOUS
 62
     2
100
AcDbLine
 10
465.9251173685347
 20
299.7909674127797
 30
0.0
 11
465.9251173685347
 21
299.0739674127789
 31
0.0
  0
LINE
  5
1F7
330
1F
100
AcDbEntity
  8
CARTOUCHE
  6
CONTINUOUS
 62
     2
100
AcDbLine
 10
465.3501173685249
 20
299.0739674127789
 30
0.0
 11
465.3501173685249
 21
300.36696741278
 31
0.0
  0
LINE
  5
1F8
330
1F
100
AcDbEntity
  8
CARTOUCHE
  6
CONTINUOUS
 62
     4
100
AcDbLine
 10
467.7721173685345
 20
304.4789674127789
 30
0.0
 11
467.7721173685345
 21
293.8639674127796
 31
0.0
  0
LINE
  5
1F9
330
1F
100
AcDbEntity
  8
CARTOUCHE
  6
CONTINUOUS
 62
     2
100
AcDbLine
 10
464.1571173685238
 20
299.6119674127799
 30
0.0
 11
464.1221173685239
 21
299.6119674127799
 31
0.0
  0
LINE
  5
1FA
330
1F
100
AcDbEntity
  8
CARTOUCHE
  6
CONTINUOUS
 62
     2
100
AcDbLine
 10
464.1221173685239
 20
299.6119674127799
 30
0.0
 11
463.8941173685248
 21
299.6119674127799
 31
0.0
  0
LINE
  5
1FB
330
1F
100
AcDbEntity
  8
CARTOUCHE
  6
CONTINUOUS
 62
     2
100
AcDbLine
 10
463.8941173685248
 20
299.8899674127796
 30
0.0
 11
464.1571173685238
 21
299.8899674127796
 31
0.0
  0
LINE
  5
1FC
330
1F
100
AcDbEntity
  8
CARTOUCHE
  6
CONTINUOUS
 62
     2
100
AcDbLine
 10
462.5021173685249
 20
300.3039674127796
 30
0.0
 11
462.5021173685249
 21
300.8049674127799
 31
0.0
  0
LINE
  5
1FD
330
1F
100
AcDbEntity
  8
CARTOUCHE
  6
CONTINUOUS
 62
     2
100
AcDbLine
 10
462.5021173685249
 20
299.7339674127797
 30
0.0
 11
462.5021173685249
 21
299.7829674127797
 31
0.0
  0
SPLINE
  5
1FE
330
1F
100
AcDbEntity
  8
CARTOUCHE
  6
CONTINUOUS
 62
     2
100
AcDbSpline
210
0.0
220
0.0
230
1.0
 70
     8
 71
     3
 72
    24
 73
    20
 74
    18
 42
0.0000000001
 43
0.0000000001
 44
0.000001
 12
-0.1341089933502361
 22
0.9909665876822419
 32
0.0
 13
0.0921211276909414
 23
0.9957478083495587
 33
0.0
 40
0.0
 40
0.0
 40
0.0
 40
0.0
 40
0.1271768249628787
 40
0.2549536580760263
 40
0.3192669075155948
 40
0.3835805423160168
 40
0.4478933075756153
 40
0.5122063665132153
 40
0.6403049728218578
 40
0.7689150594679175
 40
0.8975001445696708
 40
1.02495124522595
 40
1.15257055068808
 40
1.216884667881096
 40
1.281198235302696
 40
1.409358411360994
 40
1.537979476776191
 40
1.666002315619824
 40
1.793274532009129
 40
1.793274532009129
 40
1.793274532009129
 40
1.793274532009129
 10
462.5025216875433
 20
299.7834591326989
 30
0.0
 10
462.4968365022189
 20
299.8254684607875
 30
0.0
 10
462.4586860963675
 20
299.9086601865194
 30
0.0
 10
462.3636158348584
 20
299.9652062659535
 30
0.0
 10
462.2822610214777
 20
299.9907936366291
 30
0.0
 10
462.220031199301
 20
300.0073899263425
 30
0.0
 10
462.1556965819648
 20
300.0148820011987
 30
0.0
 10
462.0701470461606
 20
300.0053461054804
 30
0.0
 10
461.9680473362438
 20
299.965514083634
 30
0.0
 10
461.8732090714764
 20
299.8734692703956
 30
0.0
 10
461.8319034608765
 20
299.7431388495758
 30
0.0
 10
461.8812439919622
 20
299.6165982585269
 30
0.0
 10
461.9640819444442
 20
299.5440352910237
 30
0.0
 10
462.0436864714555
 20
299.5119723751186
 30
0.0
 10
462.1264008008447
 20
299.4895253932194
 30
0.0
 10
462.2358627324556
 20
299.4863336963553
 30
0.0
 10
462.3590055076467
 20
299.5287185599426
 30
0.0
 10
462.4648337695553
 20
299.607135891106
 30
0.0
 10
462.4986135341774
 20
299.6915654324602
 30
0.0
 10
462.5025216875433
 20
299.7338091093047
 30
0.0
 11
462.5025216875433
 21
299.7834591326989
 31
0.0
 11
462.4493771315733
 21
299.8990004173247
 31
0.0
 11
462.3430581776169
 21
299.9698748813018
 31
0.0
 11
462.2820915636252
 21
299.9903508617226
 31
0.0
 11
462.2196791309156
 21
300.0058728418128
 31
0.0
 11
462.1557024486442
 21
300.0124391165468
 31
0.0
 11
462.0917281426841
 21
300.0058468110716
 31
0.0
 11
461.9728050392163
 21
299.9582384493289
 31
0.0
 11
461.8821257147333
 21
299.8670363103337
 31
0.0
 11
461.8470204319833
 21
299.7433359980948
 31
0.0
 11
461.8895486955148
 21
299.6231896159658
 31
0.0
 11
461.9848523593423
 21
299.5383137446399
 31
0.0
 11
462.044054061083
 21
299.5131847541338
 31
0.0
 11
462.1062379120153
 21
299.4967711840509
 31
0.0
 11
462.2343685564151
 21
299.4940193333898
 31
0.0
 11
462.3563365722325
 21
299.5348504687587
 31
0.0
 11
462.4558375397842
 21
299.6154072592867
 31
0.0
 11
462.5025216875433
 21
299.7338091093047
 31
0.0
  0
LINE
  5
1FF
330
1F
100
AcDbEntity
  8
CARTOUCHE
  6
CONTINUOUS
 62
     2
100
AcDbLine
 10
462.5021173685249
 20
300.8049674127799
 30
0.0
 11
463.1011173685233
 21
300.8049674127799
 31
0.0
  0
LINE
  5
200
330
1F
100
AcDbEntity
  8
CARTOUCHE
  6
CONTINUOUS
 62
     2
100
AcDbLine
 10
463.1011173685233
 20
299.0709674127797
 30
0.0
 11
462.5021173685249
 21
299.0709674127797
 31
0.0
  0
LINE
  5
201
330
1F
100
AcDbEntity
  8
CARTOUCHE
  6
CONTINUOUS
 62
     2
100
AcDbLine
 10
463.1011173685233
 20
300.8049674127799
 30
0.0
 11
463.1011173685233
 21
299.0709674127797
 31
0.0
  0
LINE
  5
202
330
1F
100
AcDbEntity
  8
CARTOUCHE
  6
CONTINUOUS
 62
     2
100
AcDbLine
 10
462.5021173685249
 20
299.0709674127797
 30
0.0
 11
462.5021173685249
 21
299.1729674127789
 31
0.0
  0
ARC
  5
203
330
1F
100
AcDbEntity
  8
CARTOUCHE
  6
CONTINUOUS
 62
     2
100
AcDbCircle
 10
460.6641173685233
 20
299.9519674127798
 30
0.0
 40
0.4060000000000001
100
AcDbArc
 50
2.806999999994058
 51
66.54600000004184
  0
ARC
  5
204
330
1F
100
AcDbEntity
  8
CARTOUCHE
  6
CONTINUOUS
 62
     2
100
AcDbCircle
 10
460.2581173685353
 20
299.6899674127798
 30
0.0
 40
0.217
100
AcDbArc
 50
0.0
 51
97.15100000001617
  0
LINE
  5
205
330
1F
100
AcDbEntity
  8
CARTOUCHE
  6
CONTINUOUS
 62
     2
100
AcDbLine
 10
459.8691173685233
 20
300.2219674127798
 30
0.0
 11
459.8691173685233
 21
300.36696741278
 31
0.0
  0
LINE
  5
206
330
1F
100
AcDbEntity
  8
CARTOUCHE
  6
CONTINUOUS
 62
     2
100
AcDbLine
 10
458.9811173685243
 20
300.8089674127798
 30
0.0
 11
458.9811173685243
 21
300.5109674127798
 31
0.0
  0
LINE
  5
207
330
1F
100
AcDbEntity
  8
CARTOUCHE
  6
CONTINUOUS
 62
     2
100
AcDbLine
 10
459.8691173685233
 20
300.36696741278
 30
0.0
 11
459.270117368525
 21
300.36696741278
 31
0.0
  0
ARC
  5
208
330
1F
100
AcDbEntity
  8
CARTOUCHE
  6
CONTINUOUS
 62
     2
100
AcDbCircle
 10
460.4611173685348
 20
299.2119674127798
 30
0.0
 40
1.171
100
AcDbArc
 50
71.87200000000046
 51
120.4059999999593
  0
ARC
  5
209
330
1F
100
AcDbEntity
  8
CARTOUCHE
  6
CONTINUOUS
 62
     2
100
AcDbCircle
 10
460.2531173685342
 20
299.4699674127798
 30
0.0
 40
0.4360000000000002
100
AcDbArc
 50
92.9629999999733
 51
152.0029999999889
  0
LINE
  5
20A
330
1F
100
AcDbEntity
  8
CARTOUCHE
  6
CONTINUOUS
 62
     2
100
AcDbLine
 10
460.4751173685249
 20
299.0739674127789
 30
0.0
 11
461.069117368524
 21
299.0739674127789
 31
0.0
  0
LINE
  5
20B
330
1F
100
AcDbEntity
  8
CARTOUCHE
  6
CONTINUOUS
 62
     2
100
AcDbLine
 10
459.270117368525
 20
299.0739674127789
 30
0.0
 11
459.8691173685233
 21
299.0739674127789
 31
0.0
  0
LINE
  5
20C
330
1F
100
AcDbEntity
  8
CARTOUCHE
  6
CONTINUOUS
 62
     2
100
AcDbLine
 10
460.4751173685249
 20
299.6899674127798
 30
0.0
 11
460.4751173685249
 21
299.0739674127789
 31
0.0
  0
LINE
  5
20D
330
1F
100
AcDbEntity
  8
CARTOUCHE
  6
CONTINUOUS
 62
     2
100
AcDbLine
 10
461.069117368524
 20
299.0739674127789
 30
0.0
 11
461.069117368524
 21
299.9719674127798
 31
0.0
  0
LINE
  5
20E
330
1F
100
AcDbEntity
  8
CARTOUCHE
  6
CONTINUOUS
 62
     2
100
AcDbLine
 10
459.270117368525
 20
300.36696741278
 30
0.0
 11
459.270117368525
 21
299.0739674127789
 31
0.0
  0
LINE
  5
20F
330
1F
100
AcDbEntity
  8
CARTOUCHE
  6
CONTINUOUS
 62
     2
100
AcDbLine
 10
459.8691173685233
 20
299.0739674127789
 30
0.0
 11
459.8691173685233
 21
299.6749674127798
 31
0.0
  0
LINE
  5
210
330
1F
100
AcDbEntity
  8
CARTOUCHE
  6
CONTINUOUS
 62
     2
100
AcDbLine
 10
458.9811173685243
 20
300.36696741278
 30
0.0
 11
458.9811173685243
 21
299.0739674127789
 31
0.0
  0
SPLINE
  5
211
330
1F
100
AcDbEntity
  8
CARTOUCHE
  6
CONTINUOUS
 62
     2
100
AcDbSpline
210
0.0
220
0.0
230
1.0
 70
     8
 71
     3
 72
    25
 73
    21
 74
    19
 42
0.0000000001
 43
0.0000000001
 44
0.000001
 12
-0.7486966541836996
 22
0.6629127544512428
 32
0.0
 13
0.8109899425055193
 23
0.5850600936270518
 33
0.0
 40
0.0
 40
0.0
 40
0.0
 40
0.0
 40
0.1179945287956231
 40
0.2366236119855479
 40
0.3553212362165421
 40
0.474017795252413
 40
0.592714280365933
 40
0.7114131537463252
 40
0.9479861212613261
 40
1.184572962655414
 40
1.421047121127842
 40
1.657527417371069
 40
1.894144894830213
 40
2.130469423119881
 40
2.367003632488637
 40
2.485702139839288
 40
2.60439854947553
 40
2.841586135737227
 40
3.078700733864945
 40
3.316074819003298
 40
3.316074819003298
 40
3.316074819003298
 40
3.316074819003298
 10
462.5025216875433
 20
300.3036795744737
 30
0.0
 10
462.4730743179028
 20
300.3297529338385
 30
0.0
 10
462.4020957811051
 20
300.3698311069108
 30
0.0
 10
462.2846504524676
 20
300.3890447480098
 30
0.0
 10
462.1678640653845
 20
300.4097784617701
 30
0.0
 10
462.0490402961253
 20
300.4167857467939
 30
0.0
 10
461.9303548331584
 20
300.4125362105514
 30
0.0
 10
461.7728987673261
 20
300.3973669585011
 30
0.0
 10
461.5828186265328
 20
300.3287456961814
 30
0.0
 10
461.4007104654565
 20
300.1710063636049
 30
0.0
 10
461.2751638546052
 20
299.9656686227749
 30
0.0
 10
461.229742265086
 20
299.7276254139226
 30
0.0
 10
461.2735736580485
 20
299.4907138975725
 30
0.0
 10
461.3917810785352
 20
299.2793423596668
 30
0.0
 10
461.5525943336705
 20
299.157291909397
 30
0.0
 10
461.6963465830716
 20
299.0907170000903
 30
0.0
 10
461.8513207499908
 20
299.0536142397274
 30
0.0
 10
462.0497303631067
 20
299.0524878432943
 30
0.0
 10
462.2883264142396
 20
299.0601679338839
 30
0.0
 10
462.4383523556571
 20
299.1263661434249
 30
0.0
 10
462.5025216875433
 20
299.1726588449168
 30
0.0
 11
462.5025216875433
 21
300.3036795744737
 31
0.0
 11
462.4004865546753
 21
300.3629390300659
 31
0.0
 11
462.2848205971836
 21
300.3892874763207
 31
0.0
 11
462.167526873905
 21
300.4074898262079
 31
0.0
 11
462.0490624039571
 21
300.4149094632928
 31
0.0
 11
461.9304194432147
 21
300.4113450206236
 31
0.0
 11
461.812494706664
 21
300.3978107265957
 31
0.0
 11
461.5904555169249
 21
300.3161690815939
 31
0.0
 11
461.4101086676941
 21
300.1630405189578
 31
0.0
 11
461.2885160280653
 21
299.9602221797285
 31
0.0
 11
461.2446200262834
 21
299.7278515662267
 31
0.0
 11
461.2860004723057
 21
299.4948804883499
 31
0.0
 11
461.4041744676155
 21
299.2902241407589
 31
0.0
 11
461.5895835922324
 21
299.1433503631299
 31
0.0
 11
461.6977248489251
 21
299.0944136095797
 31
0.0
 11
461.8129449086568
 21
299.0658974096718
 31
0.0
 11
462.0498335303432
 21
299.0539928880307
 31
0.0
 11
462.2859782053142
 21
299.0754177559488
 31
0.0
 11
462.5025216875433
 21
299.1726588449168
 31
0.0
  0
LINE
  5
212
330
1F
100
AcDbEntity
  8
CARTOUCHE
  6
CONTINUOUS
 62
     2
100
AcDbLine
 10
458.1341173685245
 20
300.5079674127789
 30
0.0
 11
458.1341173685245
 21
300.8089674127798
 31
0.0
  0
LINE
  5
213
330
1F
100
AcDbEntity
  8
CARTOUCHE
  6
CONTINUOUS
 62
     2
100
AcDbLine
 10
458.1341173685245
 20
300.0009674127797
 30
0.0
 11
458.1341173685245
 21
300.36696741278
 31
0.0
  0
LINE
  5
214
330
1F
100
AcDbEntity
  8
CARTOUCHE
  6
CONTINUOUS
 62
     2
100
AcDbLine
 10
458.3751173685246
 20
300.5109674127798
 30
0.0
 11
458.3751173685246
 21
300.8089674127798
 31
0.0
  0
LINE
  5
215
330
1F
100
AcDbEntity
  8
CARTOUCHE
  6
CONTINUOUS
 62
     2
100
AcDbLine
 10
457.9101173685244
 20
300.36696741278
 30
0.0
 11
457.926117368524
 21
300.4529674127795
 31
0.0
  0
ARC
  5
216
330
1F
100
AcDbEntity
  8
CARTOUCHE
  6
CONTINUOUS
 62
     2
100
AcDbCircle
 10
458.0071173685241
 20
300.4199674127799
 30
0.0
 40
0.088
100
AcDbArc
 50
95.8450000000518
 51
157.8079999999799
  0
LINE
  5
217
330
1F
100
AcDbEntity
  8
CARTOUCHE
  6
CONTINUOUS
 62
     2
100
AcDbLine
 10
458.1341173685245
 20
300.8089674127798
 30
0.0
 11
457.6351173685248
 21
300.8089674127798
 31
0.0
  0
LINE
  5
218
330
1F
100
AcDbEntity
  8
CARTOUCHE
  6
CONTINUOUS
 62
     2
100
AcDbLine
 10
457.9291173685247
 20
300.0009674127797
 30
0.0
 11
458.1341173685245
 21
300.0009674127797
 31
0.0
  0
LINE
  5
219
330
1F
100
AcDbEntity
  8
CARTOUCHE
  6
CONTINUOUS
 62
     2
100
AcDbLine
 10
458.1341173685245
 20
300.36696741278
 30
0.0
 11
457.9101173685244
 21
300.36696741278
 31
0.0
  0
LINE
  5
21A
330
1F
100
AcDbEntity
  8
CARTOUCHE
  6
CONTINUOUS
 62
     2
100
AcDbLine
 10
457.998117368535
 20
300.5079674127789
 30
0.0
 11
458.1341173685245
 21
300.5079674127789
 31
0.0
  0
LINE
  5
21B
330
1F
100
AcDbEntity
  8
CARTOUCHE
  6
CONTINUOUS
 62
     2
100
AcDbLine
 10
457.3301173685244
 20
300.5079674127789
 30
0.0
 11
457.3301173685244
 21
300.36696741278
 31
0.0
  0
LINE
  5
21C
330
1F
100
AcDbEntity
  8
CARTOUCHE
  6
CONTINUOUS
 62
     2
100
AcDbLine
 10
457.3301173685244
 20
300.36696741278
 30
0.0
 11
457.1511173685244
 21
300.36696741278
 31
0.0
  0
LINE
  5
21D
330
1F
100
AcDbEntity
  8
CARTOUCHE
  6
CONTINUOUS
 62
     2
100
AcDbLine
 10
457.1511173685244
 20
300.36696741278
 30
0.0
 11
457.1511173685244
 21
300.0009674127797
 31
0.0
  0
LINE
  5
21E
330
1F
100
AcDbEntity
  8
CARTOUCHE
  6
CONTINUOUS
 62
     2
100
AcDbLine
 10
457.1511173685244
 20
300.0009674127797
 30
0.0
 11
457.3301173685244
 21
300.0009674127797
 31
0.0
  0
ARC
  5
21F
330
1F
100
AcDbEntity
  8
CARTOUCHE
  6
CONTINUOUS
 62
     2
100
AcDbCircle
 10
457.6321173685242
 20
300.5069674127799
 30
0.0
 40
0.302
100
AcDbArc
 50
90.0
 51
180.0
  0
LINE
  5
220
330
1F
100
AcDbEntity
  8
CARTOUCHE
  6
CONTINUOUS
 62
     2
100
AcDbLine
 10
457.3301173685244
 20
299.0739674127789
 30
0.0
 11
457.9291173685247
 21
299.0739674127789
 31
0.0
  0
LINE
  5
221
330
1F
100
AcDbEntity
  8
CARTOUCHE
  6
CONTINUOUS
 62
     2
100
AcDbLine
 10
457.3301173685244
 20
300.0009674127797
 30
0.0
 11
457.3301173685244
 21
299.0739674127789
 31
0.0
  0
LINE
  5
222
330
1F
100
AcDbEntity
  8
CARTOUCHE
  6
CONTINUOUS
 62
     2
100
AcDbLine
 10
457.9291173685247
 20
299.0739674127789
 30
0.0
 11
457.9291173685247
 21
300.0009674127797
 31
0.0
  0
LINE
  5
223
330
1F
100
AcDbEntity
  8
CARTOUCHE
  6
CONTINUOUS
 62
     2
100
AcDbLine
 10
458.3751173685246
 20
299.0739674127789
 30
0.0
 11
458.3751173685246
 21
300.36696741278
 31
0.0
  0
ARC
  5
224
330
1F
100
AcDbEntity
  8
CARTOUCHE
  6
CONTINUOUS
 62
     2
100
AcDbCircle
 10
455.0721173685246
 20
300.1719674127798
 30
0.0
 40
1.252999999999999
100
AcDbArc
 50
82.92000000002708
 51
97.42599999998908
  0
LINE
  5
225
330
1F
100
AcDbEntity
  8
CARTOUCHE
  6
CONTINUOUS
 62
     2
100
AcDbLine
 10
455.5461173685229
 20
299.2539674127797
 30
0.0
 11
455.5461173685229
 21
300.36696741278
 31
0.0
  0
LINE
  5
226
330
1F
100
AcDbEntity
  8
CARTOUCHE
  6
CONTINUOUS
 62
     2
100
AcDbLine
 10
455.5461173685229
 20
300.36696741278
 30
0.0
 11
455.9241173685236
 21
300.36696741278
 31
0.0
  0
LINE
  5
227
330
1F
100
AcDbEntity
  8
CARTOUCHE
  6
CONTINUOUS
 62
     2
100
AcDbLine
 10
455.8901173685257
 20
300.6979674127796
 30
0.0
 11
455.5461173685229
 21
300.6979674127796
 31
0.0
  0
LINE
  5
228
330
1F
100
AcDbEntity
  8
CARTOUCHE
  6
CONTINUOUS
 62
     2
100
AcDbLine
 10
455.2261173685232
 20
299.4669674127799
 30
0.0
 11
454.7351173685342
 21
300.0009674127797
 31
0.0
  0
LINE
  5
229
330
1F
100
AcDbEntity
  8
CARTOUCHE
  6
CONTINUOUS
 62
     2
100
AcDbLine
 10
454.7351173685342
 20
300.0009674127797
 30
0.0
 11
454.8111173685242
 21
300.0009674127797
 31
0.0
  0
ARC
  5
22A
330
1F
100
AcDbEntity
  8
CARTOUCHE
  6
CONTINUOUS
 62
     2
100
AcDbCircle
 10
454.7561173685239
 20
300.1479674127797
 30
0.0
 40
0.157
100
AcDbArc
 50
290.5819999999769
 51
349.5980000000075
  0
LINE
  5
22B
330
1F
100
AcDbEntity
  8
CARTOUCHE
  6
CONTINUOUS
 62
     2
100
AcDbLine
 10
455.2261173685232
 20
301.4159674127797
 30
0.0
 11
455.2261173685232
 21
299.4669674127799
 31
0.0
  0
LINE
  5
22C
330
1F
100
AcDbEntity
  8
CARTOUCHE
  6
CONTINUOUS
 62
     2
100
AcDbLine
 10
454.9101173685244
 20
300.1189674127797
 30
0.0
 11
454.9101173685244
 21
301.4149674127797
 31
0.0
  0
LINE
  5
22D
330
1F
100
AcDbEntity
  8
CARTOUCHE
  6
CONTINUOUS
 62
     2
100
AcDbLine
 10
455.5461173685229
 20
300.6979674127796
 30
0.0
 11
455.5461173685229
 21
301.3319674127799
 31
0.0
  0
LINE
  5
22E
330
1F
100
AcDbEntity
  8
CARTOUCHE
  6
CONTINUOUS
 62
     2
100
AcDbLine
 10
454.5941173685236
 20
300.3399674127797
 30
0.0
 11
453.8301173685245
 21
300.3399674127797
 31
0.0
  0
LINE
  5
22F
330
1F
100
AcDbEntity
  8
CARTOUCHE
  6
CONTINUOUS
 62
     2
100
AcDbLine
 10
453.8311173685229
 20
300.0009674127797
 30
0.0
 11
454.2311173685243
 21
300.0009674127797
 31
0.0
  0
LINE
  5
230
330
1F
100
AcDbEntity
  8
CARTOUCHE
  6
CONTINUOUS
 62
     2
100
AcDbLine
 10
454.5941173685236
 20
301.3299674127797
 30
0.0
 11
454.5941173685236
 21
300.3399674127797
 31
0.0
  0
ARC
  5
231
330
1F
100
AcDbEntity
  8
CARTOUCHE
  6
CONTINUOUS
 62
     2
100
AcDbCircle
 10
455.0721173685246
 20
300.1719674127798
 30
0.0
 40
1.252999999999999
100
AcDbArc
 50
112.4409999999792
 51
172.3039999999958
  0
LINE
  5
232
330
1F
100
AcDbEntity
  8
CARTOUCHE
  6
CONTINUOUS
 62
     2
100
AcDbLine
 10
454.2311173685243
 20
300.0009674127797
 30
0.0
 11
455.163117368525
 21
299.0869674127798
 31
0.0
  0
ARC
  5
233
330
1F
100
AcDbEntity
  8
CARTOUCHE
  6
CONTINUOUS
 62
     2
100
AcDbCircle
 10
455.3091173685238
 20
299.2759674127798
 30
0.0
 40
0.239
100
AcDbArc
 50
232.3549999999925
 51
354.6040000000033
  0
CIRCLE
  5
234
330
1F
100
AcDbEntity
  8
CARTOUCHE
  6
CONTINUOUS
 62
     2
100
AcDbCircle
 10
455.0721173685246
 20
300.1719674127798
 30
0.0
 40
1.585999999999999
  0
ARC
  5
235
330
1F
100
AcDbEntity
  8
CARTOUCHE
  6
CONTINUOUS
 62
     2
100
AcDbCircle
 10
455.0721173685246
 20
300.1719674127798
 30
0.0
 40
1.252999999999999
100
AcDbArc
 50
187.8689999999937
 51
67.74399999997583
  0
ARC
  5
236
330
1F
100
AcDbEntity
  8
CARTOUCHE
  6
CONTINUOUS
 62
     2
100
AcDbCircle
 10
455.9071173685238
 20
300.5319674127799
 30
0.0
 40
0.167
100
AcDbArc
 50
275.840000000005
 51
95.84000000000504
  0
LINE
  5
237
330
1F
100
AcDbEntity
  8
CARTOUCHE
  6
CONTINUOUS
 62
     2
100
AcDbLine
 10
458.3751173685246
 20
300.36696741278
 30
0.0
 11
458.9811173685243
 21
300.36696741278
 31
0.0
  0
LINE
  5
238
330
1F
100
AcDbEntity
  8
CARTOUCHE
  6
CONTINUOUS
 62
     2
100
AcDbLine
 10
458.9811173685243
 20
299.0739674127789
 30
0.0
 11
458.3751173685246
 21
299.0739674127789
 31
0.0
  0
LINE
  5
239
330
1F
100
AcDbEntity
  8
CARTOUCHE
  6
CONTINUOUS
 62
     2
100
AcDbLine
 10
458.3751173685246
 20
300.8089674127798
 30
0.0
 11
458.9811173685243
 21
300.8089674127798
 31
0.0
  0
LINE
  5
23A
330
1F
100
AcDbEntity
  8
CARTOUCHE
  6
CONTINUOUS
 62
     2
100
AcDbLine
 10
458.9811173685243
 20
300.5109674127798
 30
0.0
 11
458.3751173685246
 21
300.5109674127798
 31
0.0
  0
TEXT
  5
23B
330
1F
100
AcDbEntity
  8
CARTOUCHE
  6
CONTINUOUS
 62
     1
100
AcDbText
 10
456.6031173685346
 20
296.9669674127799
 30
0.0
 40
0.6
  1
www.findernet.com
 41
0.6
  7
TSTYLE1
100
AcDbText
  0
TEXT
  5
23C
330
1F
100
AcDbEntity
  8
CARTOUCHE
  6
CONTINUOUS
 62
     1
100
AcDbText
 10
457.6791173685246
 20
294.3969674127799
 30
0.0
 40
0.6
  1
MOD. UT 902
 41
0.6
  7
TSTYLE1
100
AcDbText
  0
LINE
  5
23D
330
1F
100
AcDbEntity
  8
CARTOUCHE
  6
CONTINUOUS
 62
     2
100
AcDbLine
 10
465.1741173685236
 20
299.6159674127797
 30
0.0
 11
464.1571173685238
 21
299.6119674127799
 31
0.0
  0
LINE
  5
23E
330
1F
100
AcDbEntity
  8
CARTOUCHE
  6
CONTINUOUS
 62
     2
100
AcDbLine
 10
464.1571173685238
 20
299.8899674127796
 30
0.0
 11
464.5531173685335
 21
299.8899674127796
 31
0.0
  0
SPLINE
  5
23F
330
1F
100
AcDbEntity
  8
CARTOUCHE
  6
CONTINUOUS
 62
     2
100
AcDbSpline
210
0.0
220
0.0
230
1.0
 70
     8
 71
     3
 72
    36
 73
    32
 74
    30
 42
0.0000000001
 43
0.0000000001
 44
0.000001
 12
0.2679235453343056
 22
0.9634401765836299
 32
0.0
 13
0.1610223945205464
 23
0.9869507528052599
 33
0.0
 40
0.0
 40
0.0
 40
0.0
 40
0.0
 40
0.1867669255847577
 40
0.3743854476891826
 40
0.5622988087797122
 40
0.7502101105305531
 40
0.937738582436588
 40
1.12552377507751
 40
1.500710296512022
 40
1.875856211767644
 40
2.063772751439854
 40
2.251686114423255
 40
2.43959685818509
 40
2.627510395401255
 40
2.815422740562821
 40
3.002717673969633
 40
3.190628206666925
 40
3.284586989954831
 40
3.378543728066325
 40
3.565908880457627
 40
3.753823532427855
 40
3.941738671480927
 40
4.129653089146596
 40
4.31756815471552
 40
4.505483311124636
 40
4.5994408342109
 40
4.693398122029735
 40
4.787355474456164
 40
4.881313032320874
 40
5.068285653960368
 40
5.254870600889711
 40
5.254870600889711
 40
5.254870600889711
 40
5.254870600889711
 10
465.1743229463732
 20
299.6157590536859
 30
0.0
 10
465.1910026986578
 20
299.6757386402743
 30
0.0
 10
465.1928593202858
 20
299.8047161581569
 30
0.0
 10
465.1398117949475
 20
299.9855909232149
 30
0.0
 10
465.0471449134723
 20
300.1520413166921
 30
0.0
 10
464.9053314995436
 20
300.2796124292329
 30
0.0
 10
464.7374051770098
 20
300.3671590348831
 30
0.0
 10
464.4945456958334
 20
300.4323524465291
 30
0.0
 10
464.1803256629717
 20
300.4538973440801
 30
0.0
 10
463.8670768878846
 20
300.4177246468257
 30
0.0
 10
463.628417019452
 20
300.3372454126272
 30
0.0
 10
463.4695306653044
 20
300.2312685343963
 30
0.0
 10
463.3526943152385
 20
300.0804143129952
 30
0.0
 10
463.2798019929167
 20
299.9052589217401
 30
0.0
 10
463.2546116058425
 20
299.7161881793585
 30
0.0
 10
463.2916351315196
 20
299.5294868416544
 30
0.0
 10
463.3596642022148
 20
299.3865159186658
 30
0.0
 10
463.4362506590015
 20
299.2871879917844
 30
0.0
 10
463.5215901044089
 20
299.1947901918009
 30
0.0
 10
463.6606793413985
 20
299.11741974266
 30
0.0
 10
463.837178867983
 20
299.0526280824417
 30
0.0
 10
464.0230264257142
 20
299.0197769526425
 30
0.0
 10
464.2107180121962
 20
299.0060061117948
 30
0.0
 10
464.3988098909652
 20
299.0147661437909
 30
0.0
 10
464.5541783311585
 20
299.036372390954
 30
0.0
 10
464.6762997981463
 20
299.0648895212757
 30
0.0
 10
464.7653280673135
 20
299.0955781601633
 30
0.0
 10
464.8507005931275
 20
299.1348397469717
 30
0.0
 10
464.9622762813271
 20
299.1918881485123
 30
0.0
 10
465.0769509728006
 20
299.3029960615871
 30
0.0
 10
465.1299581452165
 20
299.4208756061753
 30
0.0
 10
465.1399729301951
 20
299.4822589907867
 30
0.0
 11
465.1743229463732
 21
299.6157590536859
 31
0.0
 11
465.1836024400649
 21
299.8022958550839
 31
0.0
 11
465.1332655796846
 21
299.9830357301366
 31
0.0
 11
465.0389444991738
 21
300.1455625289995
 31
0.0
 11
464.9008683411243
 21
300.273020865033
 31
0.0
 11
464.7350965806431
 21
300.3606944130717
 31
0.0
 11
464.5544762798849
 21
300.4120713352938
 31
0.0
 11
464.1805141229247
 21
300.4423573507685
 31
0.0
 11
463.8085820648552
 21
300.3933572258336
 31
0.0
 11
463.6317935099227
 21
300.3296513612588
 31
0.0
 11
463.4765372355555
 21
300.2237885729707
 31
0.0
 11
463.3600177787061
 21
300.0763651108698
 31
0.0
 11
463.2877466691256
 21
299.9029050288927
 31
0.0
 11
463.2649804434144
 21
299.7163768404957
 31
0.0
 11
463.2990033426554
 21
299.5321979883908
 31
0.0
 11
463.3806498942062
 21
299.3629519501307
 31
0.0
 11
463.4373597418248
 21
299.2880370078557
 31
0.0
 11
463.5025135455066
 21
299.2203402390078
 31
0.0
 11
463.6621032743637
 21
299.1221729231385
 31
0.0
 11
463.8387070288731
 21
299.0579620904357
 31
0.0
 11
464.0233329800171
 21
299.0229569845278
 31
0.0
 11
464.2107835107758
 21
299.0097612748757
 31
0.0
 11
464.3985338662437
 21
299.0176274075817
 31
0.0
 11
464.5845266433147
 21
299.0444377168828
 31
0.0
 11
464.6758717519165
 21
299.0664396917407
 31
0.0
 11
464.7647177554549
 21
299.0970069778886
 31
0.0
 11
464.8504527858344
 21
299.1354450755709
 31
0.0
 11
464.9329470161842
 21
299.1804197457268
 31
0.0
 11
465.0673697523156
 21
299.3103784588838
 31
0.0
 11
465.1399729301951
 21
299.4822589907867
 31
0.0
  0
SPLINE
  5
240
330
1F
100
AcDbEntity
  8
CARTOUCHE
  6
CONTINUOUS
 62
     2
100
AcDbSpline
210
0.0
220
0.0
230
1.0
 70
     8
 71
     3
 72
    14
 73
    10
 74
     8
 42
0.0000000001
 43
0.0000000001
 44
0.000001
 12
0.1873467659339826
 22
-0.9822938406068102
 32
0.0
 13
0.7770129286758434
 23
0.6294846373586802
 33
0.0
 40
0.0
 40
0.0
 40
0.0
 40
0.0
 40
0.1124597949049207
 40
0.2249226182836778
 40
0.3373846185667847
 40
0.4498471364147033
 40
0.5623116920169502
 40
0.6744538181773761
 40
0.7869164194294385
 40
0.7869164194294385
 40
0.7869164194294385
 40
0.7869164194294385
 10
463.893622342975
 20
299.6118590518479
 30
0.0
 10
463.9006453359327
 20
299.5750361972308
 30
0.0
 10
463.931752733709
 20
299.5027032441574
 30
0.0
 10
464.0235592865256
 20
299.4324773143064
 30
0.0
 10
464.1288641933099
 20
299.3908884975399
 30
0.0
 10
464.2405391792551
 20
299.3723837107768
 30
0.0
 10
464.3541326522601
 20
299.3777136607491
 30
0.0
 10
464.4610197366082
 20
299.4169666269058
 30
0.0
 10
464.5238943552558
 20
299.4586611641981
 30
0.0
 10
464.5530226536443
 20
299.4822589907867
 30
0.0
 11
463.893622342975
 21
299.6118590518479
 31
0.0
 11
463.9392769235142
 21
299.5090821868527
 31
0.0
 11
464.0258100335045
 21
299.4372496978078
 31
0.0
 11
464.1299265690645
 21
299.3947356101946
 31
0.0
 11
464.2408771513341
 21
299.3763567180776
 31
0.0
 11
464.3531217292416
 21
299.3833856099429
 31
0.0
 11
464.4588375649941
 21
299.4208022350605
 31
0.0
 11
464.5530226536443
 21
299.4822589907867
 31
0.0
  0
SPLINE
  5
241
330
1F
100
AcDbEntity
  8
CARTOUCHE
  6
CONTINUOUS
 62
     2
100
AcDbSpline
210
0.0
220
0.0
230
1.0
 70
     8
 71
     3
 72
    17
 73
    13
 74
    11
 42
0.0000000001
 43
0.0000000001
 44
0.000001
 12
-0.0762450288391399
 22
0.9970891111517158
 32
0.0
 13
-0.2154301143865144
 23
-0.9765192603402216
 33
0.0
 40
0.0
 40
0.0
 40
0.0
 40
0.0
 40
0.1232856918349627
 40
0.247430755818164
 40
0.3718602164976559
 40
0.4342705873239999
 40
0.4966769893719293
 40
0.5590936952231092
 40
0.6214981123780642
 40
0.6839084060168336
 40
0.7463173082830866
 40
0.8702039188937098
 40
0.8702039188937098
 40
0.8702039188937098
 40
0.8702039188937098
 10
464.5530226536443
 20
299.8901091829466
 30
0.0
 10
464.5498893466012
 20
299.9310847899097
 30
0.0
 10
464.5155399295211
 20
300.0127994728058
 30
0.0
 10
464.4116675918347
 20
300.0870472597379
 30
0.0
 10
464.3109933605096
 20
300.1173925396757
 30
0.0
 10
464.2278189821761
 20
300.1233086295516
 30
0.0
 10
464.1655430364743
 20
300.1196932770339
 30
0.0
 10
464.103385853416
 20
300.1064436429278
 30
0.0
 10
464.0513919545463
 20
300.0707317758452
 30
0.0
 10
463.994167899858
 20
300.0450134193143
 30
0.0
 10
463.9318162569828
 20
299.9887415702447
 30
0.0
 10
463.9025186452066
 20
299.9304350700664
 30
0.0
 10
463.893622342975
 20
299.8901091829466
 30
0.0
 11
464.5530226536443
 21
299.8901091829466
 31
0.0
 11
464.5070274743934
 21
300.0044946969058
 31
0.0
 11
464.4089937305921
 21
300.0806615669919
 31
0.0
 11
464.2900887169067
 21
300.1173259798115
 31
0.0
 11
464.2278511938252
 21
300.1219662769799
 31
0.0
 11
464.1655655398058
 21
300.1180888700039
 31
0.0
 11
464.1050760001649
 21
300.1026993498048
 31
0.0
 11
464.0505219432047
 21
300.0723990101489
 31
0.0
 11
463.9958821818249
 21
300.0422402908097
 31
0.0
 11
463.9491826582047
 21
300.0008393807709
 31
0.0
 11
463.893622342975
 21
299.8901091829466
 31
0.0
  0
TEXT
  5
242
330
1F
100
AcDbEntity
  8
CARTOUCHE
  6
CONTINUOUS
 62
     4
100
AcDbText
 10
509.8041173685246
 20
297.7379674127789
 30
0.0
 40
0.6
  1
SCALE
 41
0.4600000000000001
  7
TSTYLE3
100
AcDbText
  0
TEXT
  5
243
330
1F
100
AcDbEntity
  8
CARTOUCHE
  6
CONTINUOUS
 62
     7
100
AcDbText
 10
510.3781173685251
 20
296.1219674127799
 30
0.0
 40
0.7
  1
3:1
 41
0.4600000000000001
  7
TSTYLE2
100
AcDbText
  0
LINE
  5
244
330
1F
100
AcDbEntity
  8
CARTOUCHE
  6
CONTINUOUS
 62
     4
100
AcDbLine
 10
502.2161173685231
 20
298.8649674127798
 30
0.0
 11
502.2161173685231
 21
295.5309674127797
 31
0.0
  0
TEXT
  5
245
330
1F
100
AcDbEntity
  8
CARTOUCHE
  6
CONTINUOUS
 62
     4
100
AcDbText
 10
492.8031173685262
 20
297.7379674127789
 30
0.0
 40
0.6
  1
DATE
 41
0.4600000000000001
  7
TSTYLE3
100
AcDbText
  0
TEXT
  5
246
330
1F
100
AcDbEntity
  8
CARTOUCHE
  6
CONTINUOUS
 62
     7
100
AcDbText
 10
491.7361173685235
 20
296.1219674127799
 30
0.0
 40
0.7
  1
24/03/06
 41
0.4600000000000001
  7
TSTYLE2
100
AcDbText
  0
TEXT
  5
247
330
1F
100
AcDbEntity
  8
CARTOUCHE
  6
CONTINUOUS
 62
     7
100
AcDbText
 10
492.0131173685344
 20
300.3099674127797
 30
0.0
 40
1.0
  1
50.12
 41
0.4600000000000001
  7
TSTYLE4
100
AcDbText
  0
TEXT
  5
248
330
1F
100
AcDbEntity
  8
CARTOUCHE
  6
CONTINUOUS
 62
     4
100
AcDbText
 10
491.0701173685242
 20
303.0089674127798
 30
0.0
 40
0.6
  1
PRODUCT TYPE
 41
0.4600000000000001
  7
TSTYLE3
100
AcDbText
  0
LINE
  5
249
330
1F
100
AcDbEntity
  8
CARTOUCHE
  6
CONTINUOUS
 62
     4
100
AcDbLine
 10
484.9941173685233
 20
298.8649674127798
 30
0.0
 11
484.9941173685233
 21
295.5309674127797
 31
0.0
  0
DIMENSION
  5
24A
330
1F
100
AcDbEntity
  8
DIM
  6
CONTINUOUS
 62
     3
100
AcDbDimension
  2
*D16
 10
477.1641173685233
 20
331.6739674127798
 30
0.0
 11
479.6641173685234
 21
331.6739674127798
 31
0.0
 70
   160
  1
5
  3
DSTYLE6
100
AcDbAlignedDimension
 13
482.1641173685234
 23
335.5969674127798
 33
0.0
 14
477.1641173685233
 24
335.5749674127798
 34
0.0
100
AcDbRotatedDimension
1001
ACAD
1000
DSTYLE
1002
{
1070
     6
1000

1070
   173
1070
     1
1070
     7
1000

1002
}
  0
DIMENSION
  5
24B
330
1F
100
AcDbEntity
  8
DIM
  6
CONTINUOUS
 62
     3
100
AcDbDimension
  2
*D17
 10
482.1641173685234
 20
326.7629674127797
 30
0.0
 11
472.1741173685236
 21
326.7629674127797
 31
0.0
 70
   160
  1
<>
  3
DSTYLE7
100
AcDbAlignedDimension
 13
462.1841173685238
 23
335.7549674127787
 33
0.0
 14
482.1641173685234
 24
335.5969674127798
 34
0.0
100
AcDbRotatedDimension
1001
ACAD
1000
DSTYLE
1002
{
1070
     6
1000

1070
   173
1070
     1
1070
     7
1000

1002
}
  0
POINT
  5
24C
330
1F
100
AcDbEntity
  8
DRAW
  6
CONTINUOUS
100
AcDbPoint
 10
477.1641173685233
 20
335.5749674127798
 30
0.0
  0
POINT
  5
24D
330
1F
100
AcDbEntity
  8
DRAW
  6
CONTINUOUS
100
AcDbPoint
 10
462.1841173685238
 20
335.7549674127787
 30
0.0
  0
DIMENSION
  5
24E
330
1F
100
AcDbEntity
  8
DIM
  6
CONTINUOUS
 62
     3
100
AcDbDimension
  2
*D18
 10
461.984117368534
 20
331.5849674127798
 30
0.0
 11
468.0311173685236
 21
331.5849674127798
 31
0.0
 70
   160
  1
<>
  3
DSTYLE4
100
AcDbAlignedDimension
 13
462.3841173685246
 23
337.3579674127788
 33
0.0
 14
461.984117368534
 24
337.3579674127788
 34
0.0
 50
180.0
100
AcDbRotatedDimension
1001
ACAD
1000
DSTYLE
1002
{
1070
     6
1000

1070
   173
1070
     1
1070
     7
1000

1002
}
  0
LINE
  5
24F
330
1F
100
AcDbEntity
  8
DRAW
  6
CONTINUOUS
100
AcDbLine
 10
477.3641173685241
 20
337.0989674127797
 30
0.0
 11
476.9641173685244
 21
337.0989674127797
 31
0.0
  0
LINE
  5
250
330
1F
100
AcDbEntity
  8
DRAW
  6
CONTINUOUS
100
AcDbLine
 10
477.3641173685241
 20
336.6579674127788
 30
0.0
 11
476.9641173685244
 21
336.6579674127788
 31
0.0
  0
LINE
  5
251
330
1F
100
AcDbEntity
  8
DRAW
  6
CONTINUOUS
100
AcDbLine
 10
476.9641173685244
 20
337.0989674127797
 30
0.0
 11
476.9641173685244
 21
336.6579674127788
 31
0.0
  0
LINE
  5
252
330
1F
100
AcDbEntity
  8
DRAW
  6
CONTINUOUS
100
AcDbLine
 10
476.9641173685244
 20
337.0989674127797
 30
0.0
 11
476.9641173685244
 21
337.2409674127798
 31
0.0
  0
LINE
  5
253
330
1F
100
AcDbEntity
  8
DRAW
  6
CONTINUOUS
100
AcDbLine
 10
477.3641173685241
 20
337.0989674127797
 30
0.0
 11
477.3641173685241
 21
336.6579674127788
 31
0.0
  0
LINE
  5
254
330
1F
100
AcDbEntity
  8
DRAW
  6
CONTINUOUS
100
AcDbLine
 10
477.3641173685241
 20
337.0989674127797
 30
0.0
 11
477.3641173685241
 21
337.2409674127798
 31
0.0
  0
LINE
  5
255
330
1F
100
AcDbEntity
  8
DRAW
  6
CONTINUOUS
100
AcDbLine
 10
462.3841173685246
 20
336.8579674127797
 30
0.0
 11
462.3841173685246
 21
337.3579674127788
 31
0.0
  0
LINE
  5
256
330
1F
100
AcDbEntity
  8
DRAW
  6
CONTINUOUS
100
AcDbLine
 10
461.984117368534
 20
336.8579674127797
 30
0.0
 11
461.984117368534
 21
337.3579674127788
 31
0.0
  0
LINE
  5
257
330
1F
100
AcDbEntity
  8
DRAW
  6
CONTINUOUS
100
AcDbLine
 10
461.984117368534
 20
336.8579674127797
 30
0.0
 11
462.3841173685246
 21
336.8579674127797
 31
0.0
  0
LINE
  5
258
330
1F
100
AcDbEntity
  8
DRAW
  6
CONTINUOUS
100
AcDbLine
 10
462.3841173685246
 20
337.3579674127788
 30
0.0
 11
461.984117368534
 21
337.3579674127788
 31
0.0
  0
DIMENSION
  5
259
330
1F
100
AcDbEntity
  8
DIM
  6
CONTINUOUS
 62
     3
100
AcDbDimension
  2
*D19
 10
505.355117368535
 20
326.9869674127799
 30
0.0
 11
509.1051173685259
 21
326.9869674127799
 31
0.0
 70
   160
  1
7.5
  3
DSTYLE6
100
AcDbAlignedDimension
 13
512.8621173685255
 23
335.6329674127789
 33
0.0
 14
505.355117368535
 24
335.6329674127789
 34
0.0
 50
180.0
100
AcDbRotatedDimension
1001
ACAD
1000
DSTYLE
1002
{
1070
   173
1070
     1
1002
}
  0
DIMENSION
  5
25A
330
1F
100
AcDbEntity
  8
DIM
  6
CONTINUOUS
 62
     3
100
AcDbDimension
  2
*D20
 10
487.1141173685241
 20
331.6739674127798
 30
0.0
 11
484.6391173685238
 21
331.6739674127798
 31
0.0
 70
   160
  1
5
  3
DSTYLE6
100
AcDbAlignedDimension
 13
482.1641173685234
 23
335.5969674127798
 33
0.0
 14
487.1141173685241
 24
335.6399674127796
 34
0.0
100
AcDbRotatedDimension
1001
ACAD
1000
DSTYLE
1002
{
1070
     6
1000

1070
   173
1070
     1
1070
     7
1000

1002
}
  0
POINT
  5
25B
330
1F
100
AcDbEntity
  8
DRAW
  6
CONTINUOUS
100
AcDbPoint
 10
487.3641173685241
 20
336.6579674127788
 30
0.0
  0
DIMENSION
  5
25C
330
1F
100
AcDbEntity
  8
DIM
  6
CONTINUOUS
 62
     3
100
AcDbDimension
  2
*D21
 10
504.8621173685346
 20
331.6049674127798
 30
0.0
 11
510.0491173685236
 21
331.6049674127798
 31
0.0
 70
   160
  1
1
  3
DSTYLE5
100
AcDbAlignedDimension
 13
505.8621173685346
 23
337.3989674127788
 33
0.0
 14
504.8621173685346
 24
337.3989674127788
 34
0.0
 50
180.0
100
AcDbRotatedDimension
1001
ACAD
1000
DSTYLE
1002
{
1070
     6
1000

1070
   173
1070
     1
1070
     7
1000

1002
}
  0
LINE
  5
25D
330
1F
100
AcDbEntity
  8
DRAW
  6
CONTINUOUS
100
AcDbLine
 10
505.8621173685346
 20
337.11696741278
 30
0.0
 11
505.8621173685346
 21
337.28196741278
 31
0.0
  0
LINE
  5
25E
330
1F
100
AcDbEntity
  8
DRAW
  6
CONTINUOUS
100
AcDbLine
 10
505.5031173685251
 20
336.7579674127796
 30
0.0
 11
505.8621173685346
 21
337.11696741278
 31
0.0
  0
ARC
  5
25F
330
1F
100
AcDbEntity
  8
DRAW
  6
CONTINUOUS
100
AcDbCircle
 10
505.3621173685346
 20
336.8989674127788
 30
0.0
 40
0.2
100
AcDbArc
 50
224.9999999999908
 51
270.0039999999889
  0
ARC
  5
260
330
1F
100
AcDbEntity
  8
DRAW
  6
CONTINUOUS
100
AcDbCircle
 10
505.3621173685346
 20
336.8989674127788
 30
0.0
 40
0.2
100
AcDbArc
 50
270.0129999999608
 51
315.0000000000092
  0
LINE
  5
261
330
1F
100
AcDbEntity
  8
DRAW
  6
CONTINUOUS
100
AcDbLine
 10
504.8621173685346
 20
337.11696741278
 30
0.0
 11
505.2201173685348
 21
336.7579674127796
 31
0.0
  0
LINE
  5
262
330
1F
100
AcDbEntity
  8
DRAW
  6
CONTINUOUS
100
AcDbLine
 10
504.8621173685346
 20
337.28196741278
 30
0.0
 11
504.8621173685346
 21
337.11696741278
 31
0.0
  0
LINE
  5
263
330
1F
100
AcDbEntity
  8
DRAW
  6
CONTINUOUS
100
AcDbLine
 10
512.3621173685346
 20
337.11696741278
 30
0.0
 11
512.3621173685346
 21
337.28196741278
 31
0.0
  0
LINE
  5
264
330
1F
100
AcDbEntity
  8
DRAW
  6
CONTINUOUS
100
AcDbLine
 10
512.7201173685348
 20
336.7579674127796
 30
0.0
 11
512.3621173685346
 21
337.11696741278
 31
0.0
  0
ARC
  5
265
330
1F
100
AcDbEntity
  8
DRAW
  6
CONTINUOUS
100
AcDbCircle
 10
512.8621173685255
 20
336.8989674127788
 30
0.0
 40
0.2
100
AcDbArc
 50
269.9499999999817
 51
315.0000000000092
  0
ARC
  5
266
330
1F
100
AcDbEntity
  8
DRAW
  6
CONTINUOUS
100
AcDbCircle
 10
512.8621173685255
 20
336.8989674127788
 30
0.0
 40
0.2
100
AcDbArc
 50
224.9999999999908
 51
269.9399999999831
  0
LINE
  5
267
330
1F
100
AcDbEntity
  8
DRAW
  6
CONTINUOUS
100
AcDbLine
 10
513.3621173685346
 20
337.11696741278
 30
0.0
 11
513.0031173685251
 21
336.7579674127796
 31
0.0
  0
LINE
  5
268
330
1F
100
AcDbEntity
  8
DRAW
  6
CONTINUOUS
100
AcDbLine
 10
513.3621173685346
 20
337.28196741278
 30
0.0
 11
513.3621173685346
 21
337.11696741278
 31
0.0
  0
LINE
  5
269
330
1F
100
AcDbEntity
  8
DRAW
  6
CONTINUOUS
100
AcDbLine
 10
505.8621173685346
 20
337.28196741278
 30
0.0
 11
505.8621173685346
 21
337.3989674127788
 31
0.0
  0
LINE
  5
26A
330
1F
100
AcDbEntity
  8
DRAW
  6
CONTINUOUS
100
AcDbLine
 10
504.8621173685346
 20
337.3989674127788
 30
0.0
 11
504.8621173685346
 21
337.28196741278
 31
0.0
  0
LINE
  5
26B
330
1F
100
AcDbEntity
  8
DRAW
  6
CONTINUOUS
100
AcDbLine
 10
512.3621173685346
 20
337.28196741278
 30
0.0
 11
512.3621173685346
 21
337.3989674127788
 31
0.0
  0
LINE
  5
26C
330
1F
100
AcDbEntity
  8
DRAW
  6
CONTINUOUS
100
AcDbLine
 10
513.3621173685346
 20
337.3989674127788
 30
0.0
 11
513.3621173685346
 21
337.28196741278
 31
0.0
  0
LINE
  5
26D
330
1F
100
AcDbEntity
  8
DRAW
  6
CONTINUOUS
100
AcDbLine
 10
481.9141173685234
 20
336.6579674127788
 30
0.0
 11
482.4141173685234
 21
336.6579674127788
 31
0.0
  0
LINE
  5
26E
330
1F
100
AcDbEntity
  8
DRAW
  6
CONTINUOUS
100
AcDbLine
 10
481.9141173685234
 20
337.0749674127798
 30
0.0
 11
482.4141173685234
 21
337.0749674127798
 31
0.0
  0
LINE
  5
26F
330
1F
100
AcDbEntity
  8
DRAW
  6
CONTINUOUS
100
AcDbLine
 10
482.4141173685234
 20
336.6579674127788
 30
0.0
 11
482.4141173685234
 21
336.7159674127799
 31
0.0
  0
LINE
  5
270
330
1F
100
AcDbEntity
  8
DRAW
  6
CONTINUOUS
100
AcDbLine
 10
482.4141173685234
 20
337.0749674127798
 30
0.0
 11
482.4141173685234
 21
336.7159674127799
 31
0.0
  0
LINE
  5
271
330
1F
100
AcDbEntity
  8
DRAW
  6
CONTINUOUS
100
AcDbLine
 10
481.9141173685234
 20
336.6579674127788
 30
0.0
 11
481.9141173685234
 21
336.7159674127799
 31
0.0
  0
LINE
  5
272
330
1F
100
AcDbEntity
  8
DRAW
  6
CONTINUOUS
100
AcDbLine
 10
481.9141173685234
 20
337.0749674127798
 30
0.0
 11
481.9141173685234
 21
336.7159674127799
 31
0.0
  0
LINE
  5
273
330
1F
100
AcDbEntity
  8
DRAW
  6
CONTINUOUS
100
AcDbLine
 10
486.8641173685241
 20
337.0989674127797
 30
0.0
 11
486.8641173685241
 21
336.6579674127788
 31
0.0
  0
LINE
  5
274
330
1F
100
AcDbEntity
  8
DRAW
  6
CONTINUOUS
100
AcDbLine
 10
486.8641173685241
 20
337.0989674127797
 30
0.0
 11
486.8641173685241
 21
337.2409674127798
 31
0.0
  0
LINE
  5
275
330
1F
100
AcDbEntity
  8
DRAW
  6
CONTINUOUS
100
AcDbLine
 10
486.8641173685241
 20
336.6579674127788
 30
0.0
 11
487.3641173685241
 21
336.6579674127788
 31
0.0
  0
LINE
  5
276
330
1F
100
AcDbEntity
  8
DRAW
  6
CONTINUOUS
100
AcDbLine
 10
486.8641173685241
 20
337.0989674127797
 30
0.0
 11
487.3641173685241
 21
337.0989674127797
 31
0.0
  0
LINE
  5
277
330
1F
100
AcDbEntity
  8
DRAW
  6
CONTINUOUS
100
AcDbLine
 10
487.3641173685241
 20
337.0989674127797
 30
0.0
 11
487.3641173685241
 21
336.6579674127788
 31
0.0
  0
LINE
  5
278
330
1F
100
AcDbEntity
  8
DRAW
  6
CONTINUOUS
100
AcDbLine
 10
487.3641173685241
 20
337.0989674127797
 30
0.0
 11
487.3641173685241
 21
337.2409674127798
 31
0.0
  0
DIMENSION
  5
279
330
1F
100
AcDbEntity
  8
DIM
  6
CONTINUOUS
 62
     3
100
AcDbDimension
  2
*D22
 10
488.6341173685245
 20
371.6859674127797
 30
0.0
 11
474.1341173685245
 21
371.6859674127797
 31
0.0
 70
   161
  1
29
  3
DSTYLE6
100
AcDbAlignedDimension
 13
459.6341173685245
 23
343.1579674127788
 33
0.0
 14
488.6341173685245
 24
343.1579674127788
 34
0.0
1001
ACAD
1000
DSTYLE
1002
{
1070
     6
1000

1070
   173
1070
     1
1070
     7
1000

1002
}
  0
DIMENSION
  5
27A
330
1F
100
AcDbEntity
  8
DIM
  6
CONTINUOUS
 62
     3
100
AcDbDimension
  2
*D23
 10
515.3121173685244
 20
371.6859674127797
 30
0.0
 11
509.1121173685255
 21
371.6859674127797
 31
0.0
 70
   161
  1
12.4
  3
DSTYLE6
100
AcDbAlignedDimension
 13
502.9121173685248
 23
343.1989674127789
 33
0.0
 14
515.3121173685244
 24
343.1989674127789
 34
0.0
1001
ACAD
1000
DSTYLE
1002
{
1070
     6
1000

1070
   173
1070
     1
1070
     7
1000

1002
}
  0
LINE
  5
27B
330
1F
100
AcDbEntity
  8
DRAW
  6
CONTINUOUS
100
AcDbLine
 10
476.9341173685238
 20
341.6579674127788
 30
0.0
 11
487.3341173685235
 21
341.6579674127788
 31
0.0
  0
LINE
  5
27C
330
1F
100
AcDbEntity
  8
DRAW
  6
CONTINUOUS
100
AcDbLine
 10
487.3341173685235
 20
343.1579674127788
 30
0.0
 11
476.9341173685238
 21
343.1579674127788
 31
0.0
  0
LINE
  5
27D
330
1F
100
AcDbEntity
  8
DRAW
  6
CONTINUOUS
100
AcDbLine
 10
460.0391173685234
 20
366.6579674127797
 30
0.0
 11
488.2291173685239
 21
366.6579674127797
 31
0.0
  0
POINT
  5
27E
330
1F
100
AcDbEntity
  8
DRAW
  6
CONTINUOUS
100
AcDbPoint
 10
459.6341173685245
 20
341.6579674127788
 30
0.0
  0
POINT
  5
27F
330
1F
100
AcDbEntity
  8
DRAW
  6
CONTINUOUS
100
AcDbPoint
 10
459.6341173685245
 20
343.1579674127788
 30
0.0
  0
LINE
  5
280
330
1F
100
AcDbEntity
  8
DRAW
  6
CONTINUOUS
100
AcDbLine
 10
460.0391173685234
 20
366.6579674127797
 30
0.0
 11
459.8391173685245
 21
366.6579674127797
 31
0.0
  0
LINE
  5
281
330
1F
100
AcDbEntity
  8
DRAW
  6
CONTINUOUS
100
AcDbLine
 10
459.6341173685245
 20
343.1579674127788
 30
0.0
 11
459.8391173685245
 21
366.6579674127797
 31
0.0
  0
LINE
  5
282
330
1F
100
AcDbEntity
  8
DRAW
  6
CONTINUOUS
100
AcDbLine
 10
476.9341173685238
 20
341.6579674127788
 30
0.0
 11
476.9341173685238
 21
343.1579674127788
 31
0.0
  0
LINE
  5
283
330
1F
100
AcDbEntity
  8
DRAW
  6
CONTINUOUS
100
AcDbLine
 10
459.6341173685245
 20
343.1579674127788
 30
0.0
 11
476.9341173685238
 21
343.1579674127788
 31
0.0
  0
LINE
  5
284
330
1F
100
AcDbEntity
  8
DRAW
  6
CONTINUOUS
100
AcDbLine
 10
459.6341173685245
 20
341.6579674127788
 30
0.0
 11
459.6341173685245
 21
343.1579674127788
 31
0.0
  0
LINE
  5
285
330
1F
100
AcDbEntity
  8
DRAW
  6
CONTINUOUS
100
AcDbLine
 10
476.9341173685238
 20
341.6579674127788
 30
0.0
 11
459.6341173685245
 21
341.6579674127788
 31
0.0
  0
DIMENSION
  5
286
330
1F
100
AcDbEntity
  8
DIM
  6
CONTINUOUS
 62
     3
100
AcDbDimension
  2
*D24
 10
494.9811173685243
 20
341.6579674127788
 30
0.0
 11
493.8374338760277
 21
354.1579674127793
 31
0.0
 70
    32
  3
DSTYLE6
100
AcDbAlignedDimension
 13
488.4291173685246
 23
366.6579674127797
 33
0.0
 14
488.6341173685245
 24
341.6579674127788
 34
0.0
 50
90.0
100
AcDbRotatedDimension
1001
ACAD
1000
DSTYLE
1002
{
1070
   173
1070
     1
1002
}
  0
POINT
  5
287
330
1F
100
AcDbEntity
  8
DRAW
  6
CONTINUOUS
100
AcDbPoint
 10
488.6341173685245
 20
341.6579674127788
 30
0.0
  0
POINT
  5
288
330
1F
100
AcDbEntity
  8
DRAW
  6
CONTINUOUS
100
AcDbPoint
 10
488.6341173685245
 20
343.1579674127788
 30
0.0
  0
POINT
  5
289
330
1F
100
AcDbEntity
  8
DRAW
  6
CONTINUOUS
100
AcDbPoint
 10
515.3121173685244
 20
343.1989674127789
 30
0.0
  0
POINT
  5
28A
330
1F
100
AcDbEntity
  8
DRAW
  6
CONTINUOUS
100
AcDbPoint
 10
502.9121173685248
 20
343.1989674127789
 30
0.0
  0
LINE
  5
28B
330
1F
100
AcDbEntity
  8
DRAW
  6
CONTINUOUS
100
AcDbLine
 10
515.1071173685336
 20
366.698967412779
 30
0.0
 11
514.9071173685237
 21
366.698967412779
 31
0.0
  0
LINE
  5
28C
330
1F
100
AcDbEntity
  8
DRAW
  6
CONTINUOUS
100
AcDbLine
 10
503.3171173685254
 20
366.698967412779
 30
0.0
 11
514.9071173685237
 21
366.698967412779
 31
0.0
  0
LINE
  5
28D
330
1F
100
AcDbEntity
  8
DRAW
  6
CONTINUOUS
100
AcDbLine
 10
515.3121173685244
 20
343.1989674127789
 30
0.0
 11
515.1071173685336
 21
366.698967412779
 31
0.0
  0
LINE
  5
28E
330
1F
100
AcDbEntity
  8
DRAW
  6
CONTINUOUS
100
AcDbLine
 10
503.3171173685254
 20
366.698967412779
 30
0.0
 11
503.1171173685248
 21
366.698967412779
 31
0.0
  0
LINE
  5
28F
330
1F
100
AcDbEntity
  8
DRAW
  6
CONTINUOUS
100
AcDbLine
 10
502.9121173685248
 20
343.1989674127789
 30
0.0
 11
503.1171173685248
 21
366.698967412779
 31
0.0
  0
LINE
  5
290
330
1F
100
AcDbEntity
  8
DRAW
  6
CONTINUOUS
100
AcDbLine
 10
502.9121173685248
 20
341.698967412779
 30
0.0
 11
502.9121173685248
 21
343.1989674127789
 31
0.0
  0
LINE
  5
291
330
1F
100
AcDbEntity
  8
DRAW
  6
CONTINUOUS
100
AcDbLine
 10
502.9121173685248
 20
343.1989674127789
 30
0.0
 11
515.3121173685244
 21
343.1989674127789
 31
0.0
  0
LINE
  5
292
330
1F
100
AcDbEntity
  8
DRAW
  6
CONTINUOUS
100
AcDbLine
 10
515.3121173685244
 20
341.698967412779
 30
0.0
 11
515.3121173685244
 21
343.1989674127789
 31
0.0
  0
LINE
  5
293
330
1F
100
AcDbEntity
  8
DRAW
  6
CONTINUOUS
100
AcDbLine
 10
515.3121173685244
 20
341.698967412779
 30
0.0
 11
502.9121173685248
 21
341.698967412779
 31
0.0
  0
LINE
  5
294
330
1F
100
AcDbEntity
  8
DRAW
  6
CONTINUOUS
100
AcDbLine
 10
488.4291173685246
 20
366.6579674127797
 30
0.0
 11
488.2291173685239
 21
366.6579674127797
 31
0.0
  0
LINE
  5
295
330
1F
100
AcDbEntity
  8
DRAW
  6
CONTINUOUS
100
AcDbLine
 10
488.6341173685245
 20
343.1579674127788
 30
0.0
 11
488.4291173685246
 21
366.6579674127797
 31
0.0
  0
LINE
  5
296
330
1F
100
AcDbEntity
  8
DRAW
  6
CONTINUOUS
100
AcDbLine
 10
488.6341173685245
 20
343.1579674127788
 30
0.0
 11
487.3341173685235
 21
343.1579674127788
 31
0.0
  0
LINE
  5
297
330
1F
100
AcDbEntity
  8
DRAW
  6
CONTINUOUS
100
AcDbLine
 10
487.3341173685235
 20
341.6579674127788
 30
0.0
 11
487.3341173685235
 21
343.1579674127788
 31
0.0
  0
LINE
  5
298
330
1F
100
AcDbEntity
  8
DRAW
  6
CONTINUOUS
100
AcDbLine
 10
488.6341173685245
 20
341.6579674127788
 30
0.0
 11
488.6341173685245
 21
343.1579674127788
 31
0.0
  0
LINE
  5
299
330
1F
100
AcDbEntity
  8
DRAW
  6
CONTINUOUS
100
AcDbLine
 10
488.6341173685245
 20
341.6579674127788
 30
0.0
 11
487.3341173685235
 21
341.6579674127788
 31
0.0
  0
ENDSEC
  0
SECTION
  2
OBJECTS
  0
DICTIONARY
  5
C
330
0
100
AcDbDictionary
  3
ACAD_GROUP
350
D
  3
ACAD_LAYOUT
350
1A
  3
ACAD_MLINESTYLE
350
17
  3
ACAD_PLOTSETTINGS
350
19
  3
ACAD_PLOTSTYLENAME
350
E
  3
ACDBHEADERROUNDTRIPXREC
350
388
  3
ACDBVARIABLEDICTIONARY
350
5E
  0
DICTIONARY
  5
3A9
330
1F
100
AcDbDictionary
280
     1
  3
ACAD_LAYOUTSELFREF
360
3AA
  0
DICTIONARY
  5
3AB
330
50
100
AcDbDictionary
280
     1
  3
ACAD_LAYOUTSELFREF
360
3AC
  0
DICTIONARY
  5
D
102
{ACAD_REACTORS
330
C
102
}
330
C
100
AcDbDictionary
  0
DICTIONARY
  5
1A
102
{ACAD_REACTORS
330
C
102
}
330
C
100
AcDbDictionary
  0
DICTIONARY
  5
17
102
{ACAD_REACTORS
330
C
102
}
330
C
100
AcDbDictionary
  3
STANDARD
350
18
  0
DICTIONARY
  5
19
102
{ACAD_REACTORS
330
C
102
}
330
C
100
AcDbDictionary
  0
ACDBDICTIONARYWDFLT
  5
E
102
{ACAD_REACTORS
330
C
102
}
330
C
100
AcDbDictionary
281
     1
  3
Normal
350
F
100
AcDbDictionaryWithDefault
340
F
  0
DICTIONARY
  5
388
102
{ACAD_REACTORS
330
C
102
}
330
C
100
AcDbDictionary
  3
CEPSNTYPE
350
392
  3
DIMSTYLEDATA
350
396
  3
FINGERPRINTGUID
350
393
  3
HYPERLINKBASE
350
38B
  3
INSUNITS
350
391
  3
LAYOUTDICT
350
38D
  3
LWETCUNION
350
390
  3
PLOTSETDICT
350
38E
  3
PLOTSTYLNAMDICT
350
38F
  3
PSVPSCALE
350
395
  3
PUCSBASE
350
399
  3
PUCSORGBACK
350
39F
  3
PUCSORGBOTTOM
350
39B
  3
PUCSORGFRONT
350
39E
  3
PUCSORGLEFT
350
39C
  3
PUCSORGRIGHT
350
39D
  3
PUCSORGTOP
350
39A
  3
PUCSORTHOREF
350
397
  3
PUCSORTHOVIEW
350
398
  3
STYLESHEET
350
38C
  3
TSTACKALIGN
350
389
  3
TSTACKSIZE
350
38A
  3
UCSBASE
350
3A2
  3
UCSORGBACK
350
3A8
  3
UCSORGBOTTOM
350
3A4
  3
UCSORGFRONT
350
3A7
  3
UCSORGLEFT
350
3A5
  3
UCSORGRIGHT
350
3A6
  3
UCSORGTOP
350
3A3
  3
UCSORTHOREF
350
3A0
  3
UCSORTHOVIEW
350
3A1
  3
VERSIONGUID
350
394
  0
DICTIONARY
  5
5E
102
{ACAD_REACTORS
330
C
102
}
330
C
100
AcDbDictionary
  3
DIMASSOC
350
5F
  3
HIDETEXT
350
63
  0
XRECORD
  5
3AA
102
{ACAD_REACTORS
330
3A9
102
}
330
3A9
100
AcDbXrecord
340
1F
  0
XRECORD
  5
3AC
102
{ACAD_REACTORS
330
3AB
102
}
330
3AB
100
AcDbXrecord
340
50
  0
MLINESTYLE
  5
18
102
{ACAD_REACTORS
330
17
102
}
330
17
100
AcDbMlineStyle
  2
STANDARD
 70
     0
  3

 62
   256
 51
90.0
 52
90.0
 71
     2
 49
0.5
 62
   256
  6
BYLAYER
 49
-0.5
 62
   256
  6
BYLAYER
  0
ACDBPLACEHOLDER
  5
F
102
{ACAD_REACTORS
330
E
102
}
330
E
100
AcDbPlaceHolder
280
     0
  0
XRECORD
  5
392
102
{ACAD_REACTORS
330
388
102
}
330
388
100
AcDbXrecord
 90
        0
  0
XRECORD
  5
396
102
{ACAD_REACTORS
330
388
102
}
330
388
100
AcDbXrecord
1000
DSTYLE
1002
{
1070
   278
 70
    44
1002
}
  0
XRECORD
  5
393
102
{ACAD_REACTORS
330
388
102
}
330
388
100
AcDbXrecord
  1
{FDEAD578-A652-11D2-9A35-0060089B3A3F}
  0
XRECORD
  5
38B
102
{ACAD_REACTORS
330
388
102
}
330
388
100
AcDbXrecord
  1

  0
XRECORD
  5
391
102
{ACAD_REACTORS
330
388
102
}
330
388
100
AcDbXrecord
 90
        4
  0
XRECORD
  5
38D
102
{ACAD_REACTORS
330
388
102
}
330
388
100
AcDbXrecord
340
1A
  0
XRECORD
  5
390
102
{ACAD_REACTORS
330
388
102
}
330
388
100
AcDbXrecord
 90
    10781
  0
XRECORD
  5
38E
102
{ACAD_REACTORS
330
388
102
}
330
388
100
AcDbXrecord
340
19
  0
XRECORD
  5
38F
102
{ACAD_REACTORS
330
388
102
}
330
388
100
AcDbXrecord
340
E
  0
XRECORD
  5
395
102
{ACAD_REACTORS
330
388
102
}
330
388
100
AcDbXrecord
 40
0.0
  0
XRECORD
  5
399
102
{ACAD_REACTORS
330
388
102
}
330
388
100
AcDbXrecord
340
0
  0
XRECORD
  5
39F
102
{ACAD_REACTORS
330
388
102
}
330
388
100
AcDbXrecord
 10
0.0
 20
0.0
 30
0.0
  0
XRECORD
  5
39B
102
{ACAD_REACTORS
330
388
102
}
330
388
100
AcDbXrecord
 10
0.0
 20
0.0
 30
0.0
  0
XRECORD
  5
39E
102
{ACAD_REACTORS
330
388
102
}
330
388
100
AcDbXrecord
 10
0.0
 20
0.0
 30
0.0
  0
XRECORD
  5
39C
102
{ACAD_REACTORS
330
388
102
}
330
388
100
AcDbXrecord
 10
0.0
 20
0.0
 30
0.0
  0
XRECORD
  5
39D
102
{ACAD_REACTORS
330
388
102
}
330
388
100
AcDbXrecord
 10
0.0
 20
0.0
 30
0.0
  0
XRECORD
  5
39A
102
{ACAD_REACTORS
330
388
102
}
330
388
100
AcDbXrecord
 10
0.0
 20
0.0
 30
0.0
  0
XRECORD
  5
397
102
{ACAD_REACTORS
330
388
102
}
330
388
100
AcDbXrecord
340
0
  0
XRECORD
  5
398
102
{ACAD_REACTORS
330
388
102
}
330
388
100
AcDbXrecord
 70
     0
  0
XRECORD
  5
38C
102
{ACAD_REACTORS
330
388
102
}
330
388
100
AcDbXrecord
  1

  0
XRECORD
  5
389
102
{ACAD_REACTORS
330
388
102
}
330
388
100
AcDbXrecord
 90
        1
  0
XRECORD
  5
38A
102
{ACAD_REACTORS
330
388
102
}
330
388
100
AcDbXrecord
 90
       70
  0
XRECORD
  5
3A2
102
{ACAD_REACTORS
330
388
102
}
330
388
100
AcDbXrecord
340
0
  0
XRECORD
  5
3A8
102
{ACAD_REACTORS
330
388
102
}
330
388
100
AcDbXrecord
 10
0.0
 20
0.0
 30
0.0
  0
XRECORD
  5
3A4
102
{ACAD_REACTORS
330
388
102
}
330
388
100
AcDbXrecord
 10
0.0
 20
0.0
 30
0.0
  0
XRECORD
  5
3A7
102
{ACAD_REACTORS
330
388
102
}
330
388
100
AcDbXrecord
 10
0.0
 20
0.0
 30
0.0
  0
XRECORD
  5
3A5
102
{ACAD_REACTORS
330
388
102
}
330
388
100
AcDbXrecord
 10
0.0
 20
0.0
 30
0.0
  0
XRECORD
  5
3A6
102
{ACAD_REACTORS
330
388
102
}
330
388
100
AcDbXrecord
 10
0.0
 20
0.0
 30
0.0
  0
XRECORD
  5
3A3
102
{ACAD_REACTORS
330
388
102
}
330
388
100
AcDbXrecord
 10
0.0
 20
0.0
 30
0.0
  0
XRECORD
  5
3A0
102
{ACAD_REACTORS
330
388
102
}
330
388
100
AcDbXrecord
340
0
  0
XRECORD
  5
3A1
102
{ACAD_REACTORS
330
388
102
}
330
388
100
AcDbXrecord
 70
     0
  0
XRECORD
  5
394
102
{ACAD_REACTORS
330
388
102
}
330
388
100
AcDbXrecord
  1
{26EEE475-DA64-4888-B9F6-DC49BA9D3172}
  0
DICTIONARYVAR
  5
5F
102
{ACAD_REACTORS
330
5E
102
}
330
5E
100
DictionaryVariables
280
     0
  1
2
  0
DICTIONARYVAR
  5
63
102
{ACAD_REACTORS
330
5E
102
}
330
5E
100
DictionaryVariables
280
     0
  1
1
  0
ENDSEC
  0
EOF
