0
SECTION
2
HEADER
9
$EXTMAX
10
594.0000000000
20
420.0000000000
9
$EXTMIN
10
0.0000000000
20
0.0000000000
9
$LIMMIN
10
0.0000000000
20
0.0000000000
9
$LIMMAX
10
594.0000000000
20
420.0000000000
9
$VIEWCTR
10
297.0000000000
20
210.0000000000
9
$VIEWSIZE
40
420.0000000000
9
$CLAYER
8
0
9
$LTSCALE
40
32.6700000000
9
$CELTYPE
6
BYLAYER
9
$DIMSCALE
40
1
9
$DIMASZ
40
3.5000000000
9
$DIMEXO
40
3.7125000000
9
$DIMDLI
40
22.5720000000
9
$DIMEXE
40
10.6920000000
9
$DIMCEN
40
5.3460000000
9
$DIMLFAC
40
1.0000000000
0
ENDSEC
0
SECTION
2
TABLES
0
TABLE
2
LTYPE
70
6
0
LTYPE
2
BYBLOCK
70
0
3

72
65
73
0
40
0.0
0
LTYPE
2
BYLAYER
70
0
3

72
65
73
0
40
0.0
0
LTYPE
2
CONTINUOUS
70
64
3
Solid line
72
65
73
0
40
0
0
LTYPE
2
CENTER
70
64
3
____ _ ____ _ ____ _ ____ _ ____ _ ____ _ ____
72
65
73
4
40
0.6
49
0.375
49
-0.075
49
0.075
49
-0.075
0
LTYPE
2
HIDDEN
70
64
3
- - - - - - - - - - - - - - - - - - - -
72
65
73
2
40
0.2
49
0.1
49
-0.1
0
LTYPE
2
PHANTOM
70
64
3
_____ _ _ _____ _ _ _____ _ _ _____
72
65
73
6
40
0.8
49
0.45
49
-0.05
49
0.1
49
-0.05
49
0.1
49
-0.05
0
LTYPE
2
DOT
70
64
3
. . . . . . . . . . . . . . . . . . . .
72
65
73
2
40
0.2
49
0.1
49
-0.1
0
LTYPE
2
DASHED
70
64
3
- - - - - - - - - - - - - - - - - - - -
72
65
73
2
40
0.2
49
0.1
49
-0.1
0
ENDTAB
0
TABLE
2
LAYER
70
36
0
LAYER
2
0
70
0
62
7
6
CONTINUOUS
0
LAYER
2
DEFAULT_1
70
0
62
7
6
CENTER
0
LAYER
2
DEFAULT_2
70
0
62
8
6
HIDDEN
0
LAYER
2
DEFAULT_3
70
0
62
7
6
PHANTOM
0
LAYER
2
10000_FRONT
70
0
62
7
6
CONTINUOUS
0
LAYER
2
10100_DIM_FRONT
70
0
62
7
6
CONTINUOUS
0
LAYER
2
10300_FRONT_GERMAN_ENGLISH
70
0
62
7
6
CONTINUOUS
0
LAYER
2
11000_LEFT
70
0
62
7
6
CONTINUOUS
0
LAYER
2
11100_DIM_LEFT
70
0
62
7
6
CONTINUOUS
0
LAYER
2
11300_LEFT_GERMAN_ENGLISH
70
0
62
7
6
CONTINUOUS
0
LAYER
2
12000_RIGHT
70
0
62
7
6
CONTINUOUS
0
LAYER
2
12100_DIM_RIGHT
70
0
62
7
6
CONTINUOUS
0
LAYER
2
12300_RIGHT_GERMAN_ENGLISH
70
0
62
7
6
CONTINUOUS
0
LAYER
2
13000_TOP
70
0
62
7
6
CONTINUOUS
0
LAYER
2
13100_DIM_TOP
70
0
62
7
6
CONTINUOUS
0
LAYER
2
13300_TOP_GERMAN_ENGLISH
70
0
62
7
6
CONTINUOUS
0
LAYER
2
14000_BOTTOM
70
0
62
7
6
CONTINUOUS
0
LAYER
2
14100_DIM_BOTTOM
70
0
62
7
6
CONTINUOUS
0
LAYER
2
14300_BOTTOM_GERMAN_ENGLISH
70
0
62
7
6
CONTINUOUS
0
LAYER
2
15000_BACK
70
0
62
7
6
CONTINUOUS
0
LAYER
2
15100_DIM_BACK
70
0
62
7
6
CONTINUOUS
0
LAYER
2
15300_BACK_GERMAN_ENGLISH
70
0
62
7
6
CONTINUOUS
0
LAYER
2
20000_FRONT_O
70
0
62
7
6
CONTINUOUS
0
LAYER
2
20100_DIM_FRONT_O
70
0
62
7
6
CONTINUOUS
0
LAYER
2
20300_FRONT_O_GERMAN_ENGLISH
70
0
62
7
6
CONTINUOUS
0
LAYER
2
40000_ISO
70
0
62
7
6
CONTINUOUS
0
LAYER
2
40300_ISO_GERMAN_ENGLISH
70
0
62
7
6
CONTINUOUS
0
LAYER
2
50000_WIRING
70
0
62
7
6
CONTINUOUS
0
LAYER
2
50300_WIRING_GERMAN_ENGLISH
70
0
62
7
6
CONTINUOUS
0
LAYER
2
90000_FRAME
70
0
62
7
6
CONTINUOUS
0
LAYER
2
91000_TIP
70
0
62
7
6
CONTINUOUS
0
ENDTAB
0
ENDSEC
0
SECTION
2
BLOCKS
0
BLOCK
8
10100_DIM_FRONT
62
7
6
CONTINUOUS
2
*D0
70
65
10
0.0000000000
20
0.0000000000
0
TEXT
8
10100_DIM_FRONT
62
7
6
CONTINUOUS
10
246.7144746765
20
175.9764455247
40
3.5000000000
1
15
72
5
11
251.2144746765
21
175.9764455247
0
LINE
8
10100_DIM_FRONT
62
7
6
CONTINUOUS
10
241.2823140742
20
181.7923187380
11
241.2823140742
21
173.1014455247
0
LINE
8
10100_DIM_FRONT
62
7
6
CONTINUOUS
10
256.2823140742
20
181.7923187380
11
256.2823140742
21
173.1014455247
0
LINE
8
10100_DIM_FRONT
62
7
6
CONTINUOUS
10
241.2823140742
20
175.1014455247
11
248.7823140742
21
175.1014455247
0
LINE
8
10100_DIM_FRONT
62
7
6
CONTINUOUS
10
256.2823140742
20
175.1014455247
11
248.7823140742
21
175.1014455247
0
SOLID
8
10100_DIM_FRONT
62
7
6
CONTINUOUS
10
244.7823140742
20
175.6014455247
11
241.2823140742
21
175.1014455247
12
244.7823140742
22
174.6014455247
13
244.7823140742
23
174.6014455247
0
SOLID
8
10100_DIM_FRONT
62
7
6
CONTINUOUS
10
252.7823140742
20
174.6014455247
11
256.2823140742
21
175.1014455247
12
252.7823140742
22
175.6014455247
13
252.7823140742
23
175.6014455247
0
ENDBLK
8
0
0
BLOCK
8
11100_DIM_LEFT
62
7
6
CONTINUOUS
2
*D1
70
65
10
0.0000000000
20
0.0000000000
0
TEXT
8
11100_DIM_LEFT
62
7
6
CONTINUOUS
10
355.6665166393
20
170.0944269614
40
3.5000000000
1
43.5
72
5
11
365.4165166393
21
170.0944269614
0
LINE
8
11100_DIM_LEFT
62
7
6
CONTINUOUS
10
339.4829186692
20
181.2423187380
11
339.4829186692
21
167.2194269614
0
LINE
8
11100_DIM_LEFT
62
7
6
CONTINUOUS
10
382.9829186692
20
220.3202592065
11
382.9829186692
21
167.2194269614
0
LINE
8
11100_DIM_LEFT
62
7
6
CONTINUOUS
10
339.4829186692
20
169.2194269614
11
361.2329186692
21
169.2194269614
0
LINE
8
11100_DIM_LEFT
62
7
6
CONTINUOUS
10
382.9829186692
20
169.2194269614
11
361.2329186692
21
169.2194269614
0
SOLID
8
11100_DIM_LEFT
62
7
6
CONTINUOUS
10
342.9829186692
20
169.7194269614
11
339.4829186692
21
169.2194269614
12
342.9829186692
22
168.7194269614
13
342.9829186692
23
168.7194269614
0
SOLID
8
11100_DIM_LEFT
62
7
6
CONTINUOUS
10
379.4829186692
20
168.7194269614
11
382.9829186692
21
169.2194269614
12
379.4829186692
22
169.7194269614
13
379.4829186692
23
169.7194269614
0
ENDBLK
8
0
0
BLOCK
8
11100_DIM_LEFT
62
7
6
CONTINUOUS
2
*D2
70
65
10
0.0000000000
20
0.0000000000
0
TEXT
8
11100_DIM_LEFT
62
7
6
CONTINUOUS
10
388.4745883794
20
244.0061625176
40
3.5000000000
1
132
50
90.0000000000
72
5
11
388.4745883794
21
251.2561625176
0
LINE
8
11100_DIM_LEFT
62
7
6
CONTINUOUS
10
382.7829186692
20
313.2923187380
11
391.3495883794
21
313.2923187380
0
LINE
8
11100_DIM_LEFT
62
7
6
CONTINUOUS
10
374.9829186692
20
181.2923187380
11
391.3495883794
21
181.2923187380
0
LINE
8
11100_DIM_LEFT
62
7
6
CONTINUOUS
10
389.3495883794
20
313.2923187380
11
389.3495883794
21
247.2923187380
0
LINE
8
11100_DIM_LEFT
62
7
6
CONTINUOUS
10
389.3495883794
20
181.2923187380
11
389.3495883794
21
247.2923187380
0
SOLID
8
11100_DIM_LEFT
62
7
6
CONTINUOUS
10
389.8495883794
20
309.7923187380
11
389.3495883794
21
313.2923187380
12
388.8495883794
22
309.7923187380
13
388.8495883794
23
309.7923187380
0
SOLID
8
11100_DIM_LEFT
62
7
6
CONTINUOUS
10
388.8495883794
20
184.7923187380
11
389.3495883794
21
181.2923187380
12
389.8495883794
22
184.7923187380
13
389.8495883794
23
184.7923187380
0
ENDBLK
8
0
0
BLOCK
8
10100_DIM_FRONT
62
7
6
CONTINUOUS
2
*D3
70
65
10
0.0000000000
20
0.0000000000
0
TEXT
8
10100_DIM_FRONT
62
7
6
CONTINUOUS
10
242.7512265919
20
168.7371234883
40
3.5000000000
1
22
72
5
11
248.2512265919
21
168.7371234883
0
LINE
8
10100_DIM_FRONT
62
7
6
CONTINUOUS
10
234.2823140742
20
208.4423187380
11
234.2823140742
21
165.8621234883
0
LINE
8
10100_DIM_FRONT
62
7
6
CONTINUOUS
10
256.2823140742
20
181.7923187380
11
256.2823140742
21
165.8621234883
0
LINE
8
10100_DIM_FRONT
62
7
6
CONTINUOUS
10
234.2823140742
20
167.8621234883
11
245.2823140742
21
167.8621234883
0
LINE
8
10100_DIM_FRONT
62
7
6
CONTINUOUS
10
256.2823140742
20
167.8621234883
11
245.2823140742
21
167.8621234883
0
SOLID
8
10100_DIM_FRONT
62
7
6
CONTINUOUS
10
237.7823140742
20
168.3621234883
11
234.2823140742
21
167.8621234883
12
237.7823140742
22
167.3621234883
13
237.7823140742
23
167.3621234883
0
SOLID
8
10100_DIM_FRONT
62
7
6
CONTINUOUS
10
252.7823140742
20
167.3621234883
11
256.2823140742
21
167.8621234883
12
252.7823140742
22
168.3621234883
13
252.7823140742
23
168.3621234883
0
ENDBLK
8
0
0
ENDSEC
0
SECTION
2
ENTITIES
0
DIMENSION
8
10100_DIM_FRONT
62
7
6
CONTINUOUS
2
*D0
10
256.2823140742
20
175.1014455247
11
248.9644746765
21
177.7264455247
70
128
13
241.2823140742
23
181.7923187380
14
256.2823140742
24
181.7923187380
0
DIMENSION
8
11100_DIM_LEFT
62
7
6
CONTINUOUS
2
*D1
10
382.9829186692
20
169.2194269614
11
360.5415166393
21
171.8444269614
70
128
13
339.4829186692
23
181.2423187380
14
382.9829186692
24
220.3202592065
0
DIMENSION
8
11100_DIM_LEFT
62
7
6
CONTINUOUS
2
*D2
10
389.3495883794
20
181.2923187380
11
386.7245883794
21
247.6311625176
70
128
13
382.7829186692
23
313.2923187380
14
374.9829186692
24
181.2923187380
50
270.000000
0
DIMENSION
8
10100_DIM_FRONT
62
7
6
CONTINUOUS
2
*D3
10
256.2823140742
20
167.8621234883
11
245.5012265919
21
170.4871234883
70
128
13
234.2823140742
23
208.4423187380
14
256.2823140742
24
181.7923187380
0
TEXT
8
90000_FRAME
62
7
6
CONTINUOUS
10
499.6600000000
20
11.9000000000
40
2.2000000000
1
Format / Size: DIN A2
72
5
11
533.2361904762
21
11.9000000000
0
TEXT
8
90000_FRAME
62
7
6
CONTINUOUS
10
542.1600000000
20
11.9000000000
40
2.2000000000
1
Massstab / Scale: 1:1
72
5
11
573.0647619048
21
11.9000000000
0
TEXT
8
90000_FRAME
62
7
6
CONTINUOUS
10
517.2916666666
20
20.2500000000
40
3.5000000000
1
6ES71934CB200AA0_001
72
5
11
570.9583333333
21
20.2500000000
0
TEXT
8
10300_FRONT_GERMAN_ENGLISH
62
7
6
CONTINUOUS
10
234.2621581820
20
320.6167148243
40
3.5000000000
1
Vorne / Front
72
5
11
266.8454915153
21
320.6167148243
0
TEXT
8
13300_TOP_GERMAN_ENGLISH
62
7
6
CONTINUOUS
10
234.2611502173
20
134.2966748674
40
3.5000000000
1
Oben / Top
72
5
11
260.6778168840
21
134.2966748674
0
TEXT
8
11300_LEFT_GERMAN_ENGLISH
62
7
6
CONTINUOUS
10
339.5060064382
20
320.6324828765
40
3.5000000000
1
Links / Left
72
5
11
368.0060064382
21
320.6324828765
0
TEXT
8
91000_TIP
62
7
6
CONTINUOUS
10
11.2756234532
20
15.1898618139
40
3.5000000000
1
Alle Bemassungswerte sind in Millimeter (mm) angegeben.
72
5
11
145.8589567865
21
15.1898618139
0
TEXT
8
91000_TIP
62
7
6
CONTINUOUS
10
11.2756234532
20
9.9398618139
40
3.5000000000
1
All dimensions are in millimeters (mm).
72
5
11
104.4422901199
21
9.9398618139
0
LINE
8
90000_FRAME
62
7
6
CONTINUOUS
10
0.0000000000
20
420.0000000000
11
0.0000000000
21
0.0000000000
0
LINE
8
90000_FRAME
62
7
6
CONTINUOUS
10
5.0000000000
20
415.0000000000
11
5.0000000000
21
5.0000000000
0
LINE
8
91000_TIP
62
7
6
CONTINUOUS
10
422.7797812733
20
20.8043438692
11
432.7797810691
21
23.3043438181
0
LINE
8
90000_FRAME
62
7
6
CONTINUOUS
10
0.0000000000
20
0.0000000000
11
594.0000000000
21
0.0000000000
0
LINE
8
90000_FRAME
62
7
6
CONTINUOUS
10
5.0000000000
20
5.0000000000
11
589.0000000000
21
5.0000000000
0
LINE
8
90000_FRAME
62
7
6
CONTINUOUS
10
449.0000000000
20
10.0000000000
11
584.0000000000
21
10.0000000000
0
LINE
8
90000_FRAME
62
7
6
CONTINUOUS
10
499.0000000000
20
16.0000000000
11
584.0000000000
21
16.0000000000
0
LINE
8
90000_FRAME
62
7
6
CONTINUOUS
10
472.3969334385
20
16.7492119180
11
473.2525218735
21
16.7492119180
0
LINE
8
90000_FRAME
62
7
6
CONTINUOUS
10
485.5872551446
20
16.7967446088
11
484.0662090379
21
16.7967446088
0
LINE
8
90000_FRAME
62
7
6
CONTINUOUS
10
475.9618852509
20
16.7967446088
11
474.5834372168
21
16.7967446088
0
LINE
8
90000_FRAME
62
7
6
CONTINUOUS
10
463.2231241078
20
16.7967446088
11
464.6491048328
21
16.7967446088
0
LINE
8
90000_FRAME
62
7
6
CONTINUOUS
10
465.7423567219
20
16.7967446088
11
469.3073085344
21
16.7967446088
0
LINE
8
90000_FRAME
62
7
6
CONTINUOUS
10
470.1153642785
20
16.7967446088
11
471.0660180952
21
16.7967446088
0
LINE
8
90000_FRAME
62
7
6
CONTINUOUS
10
477.0551371401
20
16.7967446088
11
480.6200889526
21
16.7967446088
0
LINE
8
90000_FRAME
62
7
6
CONTINUOUS
10
481.4043783513
20
16.7967446088
11
482.3550321680
21
16.7967446088
0
LINE
8
90000_FRAME
62
7
6
CONTINUOUS
10
480.6200889526
20
17.6998657346
11
478.4335851743
21
17.6998657346
0
LINE
8
90000_FRAME
62
7
6
CONTINUOUS
10
469.3073085344
20
17.6998657346
11
467.1208047561
21
17.6998657346
0
LINE
8
91000_TIP
62
7
6
CENTER
10
421.5002708014
20
18.3043439202
11
445.1022600655
21
18.3043439202
0
LINE
8
90000_FRAME
62
7
6
CONTINUOUS
10
480.2873601167
20
18.8168839692
11
478.4335851743
21
18.8168839692
0
LINE
8
90000_FRAME
62
7
6
CONTINUOUS
10
468.9745796985
20
18.8168839692
11
467.1208047561
21
18.8168839692
0
LINE
8
90000_FRAME
62
7
6
CONTINUOUS
10
480.2873601167
20
19.6011733680
11
478.4335851743
21
19.6011733680
0
LINE
8
90000_FRAME
62
7
6
CONTINUOUS
10
468.9745796985
20
19.6011733680
11
467.1208047561
21
19.6011733680
0
LINE
8
90000_FRAME
62
7
6
CONTINUOUS
10
480.5725562617
20
20.6706589117
11
478.4335851743
21
20.6706589117
0
LINE
8
90000_FRAME
62
7
6
CONTINUOUS
10
469.2597758435
20
20.6706589117
11
467.1208047561
21
20.6706589117
0
LINE
8
90000_FRAME
62
7
6
CONTINUOUS
10
485.5872551446
20
21.5500136921
11
484.6366013279
21
21.5500136921
0
LINE
8
90000_FRAME
62
7
6
CONTINUOUS
10
482.9491908034
20
21.5500136921
11
481.4043783513
21
21.5500136921
0
LINE
8
90000_FRAME
62
7
6
CONTINUOUS
10
480.5725562617
20
21.5500136921
11
477.0551371401
21
21.5500136921
0
LINE
8
90000_FRAME
62
7
6
CONTINUOUS
10
475.9618852509
20
21.5500136921
11
474.2507083810
21
21.5500136921
0
LINE
8
90000_FRAME
62
7
6
CONTINUOUS
10
471.8265411485
20
21.5500136921
11
470.1153642785
21
21.5500136921
0
LINE
8
90000_FRAME
62
7
6
CONTINUOUS
10
469.2597758435
20
21.5500136921
11
465.7423567219
21
21.5500136921
0
LINE
8
90000_FRAME
62
7
6
CONTINUOUS
10
463.2231241078
20
21.5500136921
11
464.6491048328
21
21.5500136921
0
LINE
8
90000_FRAME
62
7
6
CONTINUOUS
10
449.0000000000
20
28.0000000000
11
584.0000000000
21
28.0000000000
0
LINE
8
91000_TIP
62
7
6
CONTINUOUS
10
422.7797812733
20
15.8043439713
11
432.7797810691
21
13.3043440223
0
LINE
8
13000_TOP
62
7
6
CONTINUOUS
10
241.4823140742
20
83.4133284115
11
256.0823140742
21
83.4133284115
0
LINE
8
13000_TOP
62
7
6
CONTINUOUS
10
248.0323140742
20
85.4133284115
11
249.5323140742
21
85.4133284115
0
LINE
8
13000_TOP
62
7
6
CONTINUOUS
10
251.0323140742
20
87.9133284115
11
246.5323140742
21
87.9133284115
0
LINE
8
10000_FRONT
62
7
6
CONTINUOUS
10
250.4823140742
20
307.3523187380
11
249.9823140742
21
306.8523187380
0
LINE
8
10000_FRONT
62
7
6
CONTINUOUS
10
242.3939905769
20
303.3810806408
11
242.2965119133
21
303.3152525665
0
LINE
8
10000_FRONT
62
7
6
CONTINUOUS
10
252.2183878530
20
304.5902953297
11
251.9375374426
21
304.4069619328
0
LINE
8
10000_FRONT
62
7
6
CONTINUOUS
10
253.1077501882
20
303.4902953208
11
253.3886005987
21
303.6736286432
0
LINE
8
10000_FRONT
62
7
6
CONTINUOUS
10
256.2112960261
20
303.3318808210
11
256.1543507096
21
303.3035825430
0
LINE
8
10000_FRONT
62
7
6
CONTINUOUS
10
252.0779621710
20
304.7736286074
11
251.8907282461
21
304.6819620282
0
LINE
8
10000_FRONT
62
7
6
CONTINUOUS
10
253.2481758703
20
303.3069619807
11
253.4354097952
21
303.3986286447
0
LINE
8
10000_FRONT
62
7
6
CONTINUOUS
10
252.2183878530
20
304.8194619566
11
252.0779621710
21
304.7736286074
0
LINE
8
10000_FRONT
62
7
6
CONTINUOUS
10
253.1077501882
20
303.2611286454
11
253.2481758703
21
303.3069619807
0
LINE
8
13000_TOP
62
7
6
CONTINUOUS
10
242.4073140742
20
91.9133284115
11
255.1573140742
21
91.9133284115
0
LINE
8
13000_TOP
62
7
6
CONTINUOUS
10
234.5823140742
20
105.2633284115
11
241.0823140742
21
105.2633284115
0
LINE
8
13000_TOP
62
7
6
CONTINUOUS
10
235.6823140742
20
107.6133284115
11
241.0823140742
21
107.6133284115
0
LINE
8
13000_TOP
62
7
6
CONTINUOUS
10
242.4073140742
20
108.4133284115
11
255.1573140742
21
108.4133284115
0
LINE
8
13000_TOP
62
7
6
CONTINUOUS
10
241.6066728850
20
117.0590726192
11
241.5713093565
21
117.0654396858
0
LINE
8
13000_TOP
62
7
6
CONTINUOUS
10
241.5713093565
20
117.0654396858
11
241.5409364055
21
117.0729015010
0
LINE
8
13000_TOP
62
7
6
CONTINUOUS
10
241.5409364055
20
117.0729015010
11
241.5169103553
21
117.0810398981
0
LINE
8
13000_TOP
62
7
6
CONTINUOUS
10
241.5169103553
20
117.0810398981
11
241.4997198478
21
117.0893636345
0
LINE
8
10000_FRONT
62
7
6
CONTINUOUS
10
251.6098778356
20
299.2277953774
11
251.7034943212
21
299.4111285359
0
LINE
8
10000_FRONT
62
7
6
CONTINUOUS
10
251.7503035177
20
304.5444619805
11
251.6098778356
21
304.3152953536
0
LINE
8
10000_FRONT
62
7
6
CONTINUOUS
10
253.5758345236
20
303.5361286402
11
253.7162602056
21
303.7652953118
0
LINE
8
10000_FRONT
62
7
6
CONTINUOUS
10
252.5460474600
20
295.3319618851
11
252.4056217779
21
295.1027953774
0
LINE
8
10000_FRONT
62
7
6
CONTINUOUS
10
253.5758345236
20
296.1111285836
11
253.7162602056
21
296.3402950913
0
LINE
8
10000_FRONT
62
7
6
CONTINUOUS
10
253.5758345236
20
294.1402957589
11
253.7162602056
21
294.3694617898
0
LINE
8
10000_FRONT
62
7
6
CONTINUOUS
10
242.4592297956
20
303.4797641885
11
242.3939905769
21
303.3810806408
0
LINE
8
10000_FRONT
62
7
6
CONTINUOUS
10
251.9375374426
20
304.4069619328
11
251.8439200033
21
304.2694620043
0
LINE
8
10000_FRONT
62
7
6
CONTINUOUS
10
253.3886005987
20
303.6736286432
11
253.4822180380
21
303.8111286313
0
LINE
8
10000_FRONT
62
7
6
CONTINUOUS
10
251.9375374426
20
299.2736284882
11
251.8439200033
21
299.1361286789
0
LINE
8
10000_FRONT
62
7
6
CONTINUOUS
10
252.8268988241
20
297.1194617898
11
252.9205162634
21
297.2569620759
0
LINE
8
10000_FRONT
62
7
6
CONTINUOUS
10
252.4524309744
20
296.5236284882
11
252.3588135351
21
296.3861286789
0
LINE
8
10000_FRONT
62
7
6
CONTINUOUS
10
252.6396648992
20
295.0569617898
11
252.7332813848
21
295.1944615990
0
LINE
8
10000_FRONT
62
7
6
CONTINUOUS
10
253.4822180380
20
294.4152953774
11
253.3886005987
21
294.2777955681
0
LINE
8
10000_FRONT
62
7
6
CONTINUOUS
10
251.7503035177
20
297.3027951867
11
251.6098778356
21
297.1194617898
0
LINE
8
10000_FRONT
62
7
6
CONTINUOUS
10
244.4823140742
20
283.4523187380
11
244.9823140742
21
283.9523187380
0
LINE
8
10000_FRONT
62
7
6
CONTINUOUS
10
243.6734675802
20
280.5626876010
11
245.5119452112
21
282.4011652321
0
LINE
8
10000_FRONT
62
7
6
CONTINUOUS
10
246.6180482108
20
282.5173187380
11
246.0069199581
21
281.9061904852
0
LINE
8
10000_FRONT
62
7
6
CONTINUOUS
10
244.1684423270
20
280.0677128541
11
243.5573140742
21
279.4565846014
0
LINE
8
10000_FRONT
62
7
6
CONTINUOUS
10
252.5476576841
20
284.0275108288
11
251.0374655932
21
282.5173187380
0
LINE
8
10000_FRONT
62
7
6
CONTINUOUS
10
243.6734675802
20
274.0219498750
11
244.1684423270
21
274.5169246218
0
LINE
8
10000_FRONT
62
7
6
CONTINUOUS
10
242.7823140742
20
270.5923187380
11
243.2823140742
21
271.0923187380
0
LINE
8
10000_FRONT
62
7
6
CONTINUOUS
10
245.5119452112
20
272.1834722439
11
246.0069199581
21
272.6784469907
0
LINE
8
10000_FRONT
62
7
6
CONTINUOUS
10
251.8907282461
20
304.6819620282
11
251.7503035177
21
304.5444619805
0
LINE
8
10000_FRONT
62
7
6
CONTINUOUS
10
253.4354097952
20
303.3986286447
11
253.5758345236
21
303.5361286402
0
LINE
8
10000_FRONT
62
7
6
CONTINUOUS
10
251.7034943212
20
299.4111285359
11
251.8907282461
21
299.5944619328
0
LINE
8
10000_FRONT
62
7
6
CONTINUOUS
10
251.8907282461
20
297.0736286789
11
251.9843456854
21
297.1652953774
0
LINE
8
10000_FRONT
62
7
6
CONTINUOUS
10
252.8268988241
20
297.5319621712
11
252.6396648992
21
297.3486287743
0
LINE
8
10000_FRONT
62
7
6
CONTINUOUS
10
252.4524309744
20
296.1111285836
11
252.6396648992
21
296.2944619805
0
LINE
8
10000_FRONT
62
7
6
CONTINUOUS
10
253.4354097952
20
296.3861286789
11
253.2949841131
21
296.2486288697
0
LINE
8
10000_FRONT
62
7
6
CONTINUOUS
10
256.2514436026
20
303.3705661930
11
256.2112960261
21
303.3318808210
0
LINE
8
10000_FRONT
62
7
6
CONTINUOUS
10
251.9375374426
20
297.4402954728
11
251.7503035177
21
297.3027951867
0
LINE
8
10000_FRONT
62
7
6
CONTINUOUS
10
252.7332813848
20
295.4694621712
11
252.5460474600
21
295.3319618851
0
LINE
8
10000_FRONT
62
7
6
CONTINUOUS
10
253.3886005987
20
294.0027949959
11
253.5758345236
21
294.1402957589
0
LINE
8
10000_FRONT
62
7
6
CONTINUOUS
10
252.0779621710
20
299.3652954251
11
251.9375374426
21
299.2736284882
0
LINE
8
10000_FRONT
62
7
6
CONTINUOUS
10
252.9205162634
20
297.2569620759
11
253.0609409918
21
297.3486287743
0
LINE
8
10000_FRONT
62
7
6
CONTINUOUS
10
252.7332813848
20
295.1944615990
11
252.8737070669
21
295.2861287743
0
LINE
8
10000_FRONT
62
7
6
CONTINUOUS
10
253.3417923559
20
295.9736287743
11
253.5758345236
21
296.1111285836
0
LINE
8
10000_FRONT
62
7
6
CONTINUOUS
10
251.9843456854
20
297.1652953774
11
252.0779621710
21
297.2111284882
0
LINE
8
10000_FRONT
62
7
6
CONTINUOUS
10
253.0141327490
20
297.6236288697
11
252.8268988241
21
297.5319621712
0
LINE
8
10000_FRONT
62
7
6
CONTINUOUS
10
253.3886005987
20
294.2777955681
11
253.2013666738
21
294.1861283928
0
LINE
8
10000_FRONT
62
7
6
CONTINUOUS
10
253.2013666738
20
293.9111287743
11
253.3886005987
21
294.0027949959
0
LINE
8
10000_FRONT
62
7
6
CONTINUOUS
10
252.9673245062
20
295.5611288697
11
252.7332813848
21
295.4694621712
0
LINE
8
10000_FRONT
62
7
6
CONTINUOUS
10
253.7630694021
20
288.3194615990
11
252.0311539282
21
287.6777951867
0
LINE
8
10000_FRONT
62
7
6
CONTINUOUS
10
251.5630686392
20
287.8152949959
11
253.5290262808
21
288.5027949959
0
LINE
8
10000_FRONT
62
7
6
CONTINUOUS
10
252.0779621710
20
297.4861285836
11
251.9375374426
21
297.4402954728
0
LINE
8
10000_FRONT
62
7
6
CONTINUOUS
10
252.3588135351
20
296.3861286789
11
252.2183878530
21
296.3402950913
0
LINE
8
10000_FRONT
62
7
6
CONTINUOUS
10
253.2949841131
20
296.2486288697
11
253.1545584310
21
296.2027952820
0
LINE
8
10000_FRONT
62
7
6
CONTINUOUS
10
252.8737070669
20
295.2861287743
11
253.0141327490
21
295.3319618851
0
LINE
8
13000_TOP
62
7
6
CONTINUOUS
10
255.9962984489
20
117.0660752332
11
255.9612783824
21
117.0595901512
0
LINE
8
13000_TOP
62
7
6
CONTINUOUS
10
255.9612783824
20
117.0595901512
11
255.9229709875
21
117.0544443617
0
LINE
8
13000_TOP
62
7
6
CONTINUOUS
10
255.9229709875
20
117.0544443617
11
255.8836836289
21
117.0507517357
0
LINE
8
13000_TOP
62
7
6
CONTINUOUS
10
255.8836836289
20
117.0507517357
11
255.8457504644
21
117.0484430364
0
LINE
8
13000_TOP
62
7
6
CONTINUOUS
10
235.4820285407
20
111.6600824760
11
241.2804932516
21
111.9132489127
0
LINE
8
13000_TOP
62
7
6
CONTINUOUS
10
249.8424392932
20
125.8732267873
11
250.0323140742
21
125.8811881644
0
LINE
8
13000_TOP
62
7
6
CONTINUOUS
10
243.0924392932
20
125.8732267873
11
243.2823140742
21
125.8811881644
0
LINE
8
13000_TOP
62
7
6
CONTINUOUS
10
255.8457504644
20
117.0484430364
11
255.8113205310
21
117.0472998909
0
LINE
8
13000_TOP
62
7
6
CONTINUOUS
10
235.6823140742
20
116.9133284115
11
239.2823140742
21
117.0133284115
0
LINE
8
13000_TOP
62
7
6
CONTINUOUS
10
255.8113205310
20
117.0472998909
11
255.7823140742
21
117.0470011250
0
LINE
8
13000_TOP
62
7
6
CONTINUOUS
10
246.5323140742
20
112.5133284115
11
251.0323140742
21
112.5133284115
0
LINE
8
13000_TOP
62
7
6
CONTINUOUS
10
234.5823140742
20
113.1133284115
11
241.0823140742
21
113.1133284115
0
LINE
8
13000_TOP
62
7
6
CONTINUOUS
10
241.2823140742
20
113.7133284115
11
241.2759632415
21
113.7133284115
0
LINE
8
13000_TOP
62
7
6
CONTINUOUS
10
246.5323140742
20
114.1133284115
11
251.0323140742
21
114.1133284115
0
LINE
8
13000_TOP
62
7
6
CONTINUOUS
10
240.9823140742
20
114.8133284115
11
235.2823140742
21
114.8133284115
0
LINE
8
13000_TOP
62
7
6
CONTINUOUS
10
251.0323140742
20
115.0133284115
11
246.5323140742
21
115.0133284115
0
LINE
8
13000_TOP
62
7
6
CONTINUOUS
10
241.2555191550
20
115.7133284115
11
239.2823140742
21
115.7133284115
0
LINE
8
13000_TOP
62
7
6
CONTINUOUS
10
239.2823140742
20
117.0133284115
11
241.2555191550
21
117.0133284115
0
LINE
8
13000_TOP
62
7
6
CONTINUOUS
10
255.7823140742
20
117.0470011250
11
241.7823140742
21
117.0470011250
0
LINE
8
13000_TOP
62
7
6
CONTINUOUS
10
246.5323140742
20
117.1408623485
11
251.0323140742
21
117.1408623485
0
LINE
8
13000_TOP
62
7
6
CONTINUOUS
10
235.2823140742
20
117.2133284115
11
240.9823140742
21
117.2133284115
0
LINE
8
13000_TOP
62
7
6
CONTINUOUS
10
242.4823140742
20
117.2683962855
11
246.5323140742
21
117.2683962855
0
LINE
8
13000_TOP
62
7
6
CONTINUOUS
10
251.0323140742
20
117.2683962855
11
255.0823140742
21
117.2683962855
0
LINE
8
13000_TOP
62
7
6
CONTINUOUS
10
234.5823140742
20
117.5633284115
11
241.0823140742
21
117.5633284115
0
LINE
8
13000_TOP
62
7
6
CONTINUOUS
10
241.4823140742
20
117.8651495089
11
242.4823140742
21
117.8651495089
0
LINE
8
13000_TOP
62
7
6
CONTINUOUS
10
255.0823140742
20
117.8651495089
11
256.0823140742
21
117.8651495089
0
LINE
8
13000_TOP
62
7
6
CONTINUOUS
10
242.7823140742
20
118.6133284115
11
248.0323140742
21
118.6133284115
0
LINE
8
13000_TOP
62
7
6
CONTINUOUS
10
249.5323140742
20
118.6133284115
11
254.7823140742
21
118.6133284115
0
LINE
8
13000_TOP
62
7
6
CONTINUOUS
10
234.5823140742
20
123.8633284115
11
241.0823140742
21
123.8633284115
0
LINE
8
13000_TOP
62
7
6
CONTINUOUS
10
254.2823140742
20
125.8811881644
11
250.0323140742
21
125.8811881644
0
LINE
8
13000_TOP
62
7
6
CONTINUOUS
10
247.5323140742
20
125.8811881644
11
243.2823140742
21
125.8811881644
0
LINE
8
13000_TOP
62
7
6
CONTINUOUS
10
246.5323140742
20
126.0937447261
11
251.0323140742
21
126.0937447261
0
LINE
8
13000_TOP
62
7
6
CONTINUOUS
10
243.3823140742
20
126.2000230069
11
246.5323140742
21
126.2000230069
0
LINE
8
13000_TOP
62
7
6
CONTINUOUS
10
251.0323140742
20
126.2000230069
11
254.1823140742
21
126.2000230069
0
LINE
8
13000_TOP
62
7
6
CONTINUOUS
10
253.2823140742
20
126.4869048479
11
244.2823140742
21
126.4869048479
0
LINE
8
13000_TOP
62
7
6
CONTINUOUS
10
241.2823140742
20
126.9133284115
11
256.2823140742
21
126.9133284115
0
LINE
8
13000_TOP
62
7
6
CONTINUOUS
10
241.7823140742
20
117.0470011250
11
241.7546282041
21
117.0472732492
0
LINE
8
13000_TOP
62
7
6
CONTINUOUS
10
239.2823140742
20
115.7133284115
11
235.6823140742
21
115.8133284115
0
LINE
8
13000_TOP
62
7
6
CONTINUOUS
10
241.7546282041
20
117.0472732492
11
241.7212111726
21
117.0483377913
0
LINE
8
13000_TOP
62
7
6
CONTINUOUS
10
247.5323140742
20
125.8811881644
11
247.7221888553
21
125.8732267873
0
LINE
8
13000_TOP
62
7
6
CONTINUOUS
10
254.2823140742
20
125.8811881644
11
254.4721888553
21
125.8732267873
0
LINE
8
13000_TOP
62
7
6
CONTINUOUS
10
241.7212111726
20
117.0483377913
11
241.6839605230
21
117.0505254321
0
LINE
8
13000_TOP
62
7
6
CONTINUOUS
10
241.6839605230
20
117.0505254321
11
241.6450041358
21
117.0540724486
0
LINE
8
13000_TOP
62
7
6
CONTINUOUS
10
241.6450041358
20
117.0540724486
11
241.6066728850
21
117.0590726192
0
LINE
8
13000_TOP
62
7
6
CONTINUOUS
10
247.7221888553
20
125.8732267873
11
247.8847694645
21
125.8502926412
0
LINE
8
13000_TOP
62
7
6
CONTINUOUS
10
254.4721888553
20
125.8732267873
11
254.6347694645
21
125.8502926412
0
LINE
8
13000_TOP
62
7
6
CONTINUOUS
10
256.0823140742
20
117.8651495089
11
256.1589543720
21
117.8502160857
0
LINE
8
13000_TOP
62
7
6
CONTINUOUS
10
247.8847694645
20
125.8502926412
11
247.9936579356
21
125.8158852768
0
LINE
8
13000_TOP
62
7
6
CONTINUOUS
10
254.6347694645
20
125.8502926412
11
254.7436579356
21
125.8158852768
0
LINE
8
13000_TOP
62
7
6
CONTINUOUS
10
256.1589543720
20
117.8502160857
11
256.2237354305
21
117.8078509491
0
LINE
8
13000_TOP
62
7
6
CONTINUOUS
10
247.9936579356
20
125.8158852768
11
248.0323140742
21
125.7749098835
0
LINE
8
13000_TOP
62
7
6
CONTINUOUS
10
254.7436579356
20
125.8158852768
11
254.7823140742
21
125.7749098835
0
LINE
8
13000_TOP
62
7
6
CONTINUOUS
10
256.2237354305
20
117.8078509491
11
256.2670470295
21
117.7444855122
0
LINE
8
10000_FRONT
62
7
6
CONTINUOUS
10
234.2823140742
20
252.9384800574
11
234.2823140742
21
250.2326204233
0
LINE
8
13000_TOP
62
7
6
CONTINUOUS
10
234.2823140742
20
116.2133284115
11
234.2823140742
21
115.8133284115
0
LINE
8
13000_TOP
62
7
6
CONTINUOUS
10
234.2823140742
20
105.5633284115
11
234.2823140742
21
112.8133284115
0
LINE
8
13000_TOP
62
7
6
CONTINUOUS
10
234.2823140742
20
117.8633284115
11
234.2823140742
21
123.5633284115
0
LINE
8
10000_FRONT
62
7
6
CONTINUOUS
10
234.2823140742
20
208.4423187380
11
234.2823140742
21
215.3423187380
0
LINE
8
10000_FRONT
62
7
6
CONTINUOUS
10
234.2823140742
20
257.6923187380
11
234.2823140742
21
266.5923187380
0
LINE
8
13000_TOP
62
7
6
CONTINUOUS
10
235.1823140742
20
108.1133284115
11
235.1823140742
21
111.3469966598
0
LINE
8
13000_TOP
62
7
6
CONTINUOUS
10
235.1823140742
20
116.3133284115
11
235.1823140742
21
116.4133284115
0
LINE
8
10000_FRONT
62
7
6
CONTINUOUS
10
235.1823140742
20
283.5523187380
11
235.1823140742
21
307.2523187380
0
LINE
8
10000_FRONT
62
7
6
CONTINUOUS
10
234.2823295690
20
266.5954484330
11
234.2823305240
21
266.5955236974
0
LINE
8
10000_FRONT
62
7
6
CONTINUOUS
10
251.6098778356
20
304.3152953536
11
251.5630686392
21
304.0402953178
0
LINE
8
10000_FRONT
62
7
6
CONTINUOUS
10
251.5630686392
20
298.9527952820
11
251.6098778356
21
299.2277953774
0
LINE
8
10000_FRONT
62
7
6
CONTINUOUS
10
238.1059870935
20
247.5923187380
11
238.2823140742
21
248.5923187380
0
LINE
8
10000_FRONT
62
7
6
CONTINUOUS
10
242.4823140742
20
303.5969467216
11
242.4592297956
21
303.4797641885
0
LINE
8
10000_FRONT
62
7
6
CONTINUOUS
10
251.8439200033
20
304.2694620043
11
251.7971117605
21
304.0402953178
0
LINE
8
10000_FRONT
62
7
6
CONTINUOUS
10
251.8439200033
20
299.1361286789
11
251.7971117605
21
298.9069621712
0
LINE
8
10000_FRONT
62
7
6
CONTINUOUS
10
251.6098778356
20
297.1194617898
11
251.5630686392
21
296.8902952820
0
LINE
8
10000_FRONT
62
7
6
CONTINUOUS
10
253.4822180380
20
303.8111286313
11
253.5290262808
21
304.0402953178
0
LINE
8
10000_FRONT
62
7
6
CONTINUOUS
10
252.5460474600
20
297.1652953774
11
252.4992392172
21
296.9361288697
0
LINE
8
10000_FRONT
62
7
6
CONTINUOUS
10
252.4056217779
20
295.1027953774
11
252.3588135351
21
294.8736283928
0
LINE
8
10000_FRONT
62
7
6
CONTINUOUS
10
253.7162602056
20
296.3402950913
11
253.7630694021
21
296.5694620759
0
LINE
8
10000_FRONT
62
7
6
CONTINUOUS
10
252.7800905813
20
296.9361288697
11
252.8268988241
21
297.1194617898
0
LINE
8
10000_FRONT
62
7
6
CONTINUOUS
10
252.5928566564
20
294.8736283928
11
252.6396648992
21
295.0569617898
0
LINE
8
10000_FRONT
62
7
6
CONTINUOUS
10
253.4822180380
20
296.5694620759
11
253.4354097952
21
296.3861286789
0
LINE
8
10000_FRONT
62
7
6
CONTINUOUS
10
253.5290262808
20
294.5986287743
11
253.4822180380
21
294.4152953774
0
LINE
8
10000_FRONT
62
7
6
CONTINUOUS
10
252.7332813848
20
296.4777953774
11
252.7800905813
21
296.6611287743
0
LINE
8
10000_FRONT
62
7
6
CONTINUOUS
10
251.8439200033
20
296.9361288697
11
251.8907282461
21
297.0736286789
0
LINE
8
10000_FRONT
62
7
6
CONTINUOUS
10
252.4992392172
20
296.6611287743
11
252.4524309744
21
296.5236284882
0
LINE
8
10000_FRONT
62
7
6
CONTINUOUS
10
252.6396648992
20
297.3486287743
11
252.5460474600
21
297.1652953774
0
LINE
8
10000_FRONT
62
7
6
CONTINUOUS
10
252.6396648992
20
296.2944619805
11
252.7332813848
21
296.4777953774
0
LINE
8
10000_FRONT
62
7
6
CONTINUOUS
10
256.2748515589
20
303.4147239363
11
256.2514436026
21
303.3705661930
0
LINE
8
10000_FRONT
62
7
6
CONTINUOUS
10
255.5175061650
20
281.0576623478
11
254.0073140742
21
279.5474702570
0
LINE
8
10000_FRONT
62
7
6
CONTINUOUS
10
250.9465799376
20
272.0673187380
11
251.5577081904
21
272.6784469907
0
LINE
8
10000_FRONT
62
7
6
CONTINUOUS
10
253.3961858215
20
274.5169246218
11
254.0073140742
21
275.1280528746
0
LINE
8
10000_FRONT
62
7
6
CONTINUOUS
10
253.8911605683
20
274.0219498750
11
252.0526829372
21
272.1834722439
0
LINE
8
11000_LEFT
62
7
6
CONTINUOUS
10
357.2521078216
20
302.6163683916
11
357.2989590713
21
302.6353641448
0
LINE
8
11000_LEFT
62
7
6
CONTINUOUS
10
357.2521078216
20
299.5163683916
11
357.2989590713
21
299.5353641448
0
LINE
8
11000_LEFT
62
7
6
CONTINUOUS
10
356.8810531032
20
303.7366571174
11
357.3066498011
21
303.9023187380
0
LINE
8
11000_LEFT
62
7
6
CONTINUOUS
10
356.8810531032
20
300.6366571174
11
357.3066498011
21
300.8023187380
0
LINE
8
11000_LEFT
62
7
6
CONTINUOUS
10
356.8810531032
20
297.5366571174
11
357.3066498011
21
297.7023187380
0
LINE
8
13000_TOP
62
7
6
CONTINUOUS
10
256.0260923481
20
117.0736028034
11
255.9962984489
21
117.0660752332
0
LINE
8
13000_TOP
62
7
6
CONTINUOUS
10
241.4056737764
20
117.8502160857
11
241.4823140742
21
117.8651495089
0
LINE
8
13000_TOP
62
7
6
CONTINUOUS
10
249.6798586840
20
125.8502926412
11
249.8424392932
21
125.8732267873
0
LINE
8
13000_TOP
62
7
6
CONTINUOUS
10
242.9298586840
20
125.8502926412
11
243.0924392932
21
125.8732267873
0
LINE
8
10000_FRONT
62
7
6
CONTINUOUS
10
241.2823140742
20
182.4431570225
11
241.3010882827
21
182.3367402973
0
LINE
8
10000_FRONT
62
7
6
CONTINUOUS
10
254.3630690683
20
215.1306323723
11
254.3951523412
21
214.8029727653
0
LINE
8
10000_FRONT
62
7
6
CONTINUOUS
10
241.2781014367
20
215.6423187380
11
241.2820696999
21
215.5580781506
0
LINE
8
10000_FRONT
62
7
6
CONTINUOUS
10
241.2820696999
20
215.5580781506
11
241.2821837422
21
215.5431494760
0
LINE
8
10000_FRONT
62
7
6
CONTINUOUS
10
238.1823140742
20
302.5223187380
11
238.1823140742
21
300.5223187380
0
LINE
8
10000_FRONT
62
7
6
CONTINUOUS
10
238.1823140742
20
290.2823187380
11
238.1823140742
21
288.2823187380
0
LINE
8
10000_FRONT
62
7
6
CONTINUOUS
10
238.2823140742
20
248.5923187380
11
238.2823140742
21
249.5923187380
0
LINE
8
10000_FRONT
62
7
6
CONTINUOUS
10
240.1823140742
20
302.5223187380
11
240.1823140742
21
300.5223187380
0
LINE
8
10000_FRONT
62
7
6
CONTINUOUS
10
240.1823140742
20
290.2823187380
11
240.1823140742
21
288.2823187380
0
LINE
8
10000_FRONT
62
7
6
CONTINUOUS
10
241.2759632415
20
215.3423187387
11
241.2759632415
21
212.4923187380
0
LINE
8
13000_TOP
62
7
6
CONTINUOUS
10
241.2759632415
20
111.9133284115
11
241.2759632415
21
113.7133284115
0
LINE
8
13000_TOP
62
7
6
CONTINUOUS
10
241.2823140742
20
83.6133284115
11
241.2823140742
21
126.9133284115
0
LINE
8
10000_FRONT
62
7
6
CONTINUOUS
10
241.2823140742
20
181.7923187380
11
241.2823140742
21
312.7923187380
0
LINE
8
13000_TOP
62
7
6
CONTINUOUS
10
241.4823140742
20
117.1107680935
11
241.4823140742
21
117.8651495089
0
LINE
8
10000_FRONT
62
7
6
CONTINUOUS
10
241.8630688299
20
189.8497811989
11
241.8630688299
21
190.1306320862
0
LINE
8
10000_FRONT
62
7
6
CONTINUOUS
10
241.8630688299
20
214.1944617943
11
241.8630688299
21
214.4285044388
0
LINE
8
10000_FRONT
62
7
6
CONTINUOUS
10
241.8630690087
20
228.1923344285
11
241.8630690087
21
228.5668022782
0
LINE
8
10000_FRONT
62
7
6
CONTINUOUS
10
241.8823140742
20
183.0923187380
11
241.8823140742
21
187.9923187380
0
LINE
8
10000_FRONT
62
7
6
CONTINUOUS
10
241.8823140742
20
195.5923187380
11
241.8823140742
21
200.4923187380
0
LINE
8
10000_FRONT
62
7
6
CONTINUOUS
10
241.8823140742
20
208.0923187380
11
241.8823140742
21
212.9923187380
0
LINE
8
10000_FRONT
62
7
6
CONTINUOUS
10
241.8823140742
20
220.5923187380
11
241.8823140742
21
225.4923187380
0
LINE
8
10000_FRONT
62
7
6
CONTINUOUS
10
241.8823140742
20
245.4523187380
11
241.8823140742
21
251.4523187380
0
LINE
8
10000_FRONT
62
7
6
CONTINUOUS
10
242.0555690039
20
226.6944620759
11
242.0555690039
21
228.5199940354
0
LINE
8
10000_FRONT
62
7
6
CONTINUOUS
10
242.2480690588
20
228.8944618851
11
242.2480690588
21
226.6944620759
0
LINE
8
10000_FRONT
62
7
6
CONTINUOUS
10
242.3764021505
20
202.7242493347
11
242.3764021505
21
202.9114832596
0
LINE
8
13000_TOP
62
7
6
CONTINUOUS
10
242.4073140742
20
91.9133284115
11
242.4073140742
21
108.4133284115
0
LINE
8
10000_FRONT
62
7
6
CONTINUOUS
10
242.4823140742
20
306.8228844344
11
242.4823140742
21
303.5969467216
0
LINE
8
13000_TOP
62
7
6
CONTINUOUS
10
242.4823140742
20
117.8651495089
11
242.4823140742
21
117.2683962855
0
LINE
8
10000_FRONT
62
7
6
CONTINUOUS
10
242.4823140742
20
306.8722499336
11
242.4823140742
21
311.5923187380
0
LINE
8
10000_FRONT
62
7
6
CONTINUOUS
10
242.6330692877
20
191.0199934677
11
242.6330692877
21
190.1306320862
0
LINE
8
10000_FRONT
62
7
6
CONTINUOUS
10
242.6330692877
20
189.1944619850
11
242.6330692877
21
189.8497811989
0
LINE
8
10000_FRONT
62
7
6
CONTINUOUS
10
242.7823140742
20
270.5923187380
11
242.7823140742
21
256.8923187380
0
LINE
8
10000_FRONT
62
7
6
CONTINUOUS
10
242.7823140742
20
256.7923187380
11
242.7823140742
21
235.7923187380
0
LINE
8
10000_FRONT
62
7
6
CONTINUOUS
10
242.7823140742
20
232.9923187380
11
242.7823140742
21
230.4923187380
0
LINE
8
13000_TOP
62
7
6
CONTINUOUS
10
242.7823140742
20
125.7749098835
11
242.7823140742
21
118.6133284115
0
LINE
8
10000_FRONT
62
7
6
CONTINUOUS
10
242.8255694021
20
191.3944622711
11
242.8255694021
21
190.1306320862
0
LINE
8
10000_FRONT
62
7
6
CONTINUOUS
10
242.8255694021
20
189.8497811989
11
242.8255694021
21
189.1944619850
0
LINE
8
10000_FRONT
62
7
6
CONTINUOUS
10
242.8255694021
20
203.2859511093
11
242.8255694021
21
203.3795685486
0
LINE
8
10000_FRONT
62
7
6
CONTINUOUS
10
242.8255694021
20
215.7859511093
11
242.8255694021
21
215.8795685486
0
LINE
8
10000_FRONT
62
7
6
CONTINUOUS
10
242.8573140742
20
275.9423187380
11
242.8573140742
21
278.6423187380
0
LINE
8
10000_FRONT
62
7
6
CONTINUOUS
10
242.8576519598
20
202.2093558029
11
242.8576519598
21
202.3965897278
0
LINE
8
10000_FRONT
62
7
6
CONTINUOUS
10
242.9823140742
20
309.7923187380
11
242.9823140742
21
308.7923187380
0
LINE
8
10000_FRONT
62
7
6
CONTINUOUS
10
242.9823140742
20
225.4923187380
11
242.9823140742
21
220.5923187380
0
LINE
8
10000_FRONT
62
7
6
CONTINUOUS
10
242.9823140742
20
212.9923187380
11
242.9823140742
21
208.0923187380
0
LINE
8
10000_FRONT
62
7
6
CONTINUOUS
10
242.9823140742
20
200.4923187380
11
242.9823140742
21
195.5923187380
0
LINE
8
10000_FRONT
62
7
6
CONTINUOUS
10
242.9823140742
20
187.9923187380
11
242.9823140742
21
183.0923187380
0
LINE
8
10000_FRONT
62
7
6
CONTINUOUS
10
242.9859860052
20
203.3795685486
11
242.9859860052
21
203.2859511093
0
LINE
8
10000_FRONT
62
7
6
CONTINUOUS
10
243.0180685629
20
215.8795685486
11
243.0180685629
21
215.7859511093
0
LINE
8
10000_FRONT
62
7
6
CONTINUOUS
10
243.0180685629
20
214.4285044388
11
243.0180685629
21
214.1944617943
0
LINE
8
10000_FRONT
62
7
6
CONTINUOUS
10
243.0180685629
20
202.3965897278
11
243.0180685629
21
202.2093558029
0
LINE
8
10000_FRONT
62
7
6
CONTINUOUS
10
243.1464026083
20
190.1306320862
11
243.1464026083
21
189.8497811989
0
LINE
8
13000_TOP
62
7
6
CONTINUOUS
10
243.1573140742
20
91.9133284115
11
243.1573140742
21
108.4133284115
0
LINE
8
10000_FRONT
62
7
6
CONTINUOUS
10
243.1823140742
20
309.7923187380
11
243.1823140742
21
308.7923187380
0
LINE
8
13000_TOP
62
7
6
CONTINUOUS
10
243.3823140742
20
126.9133284115
11
243.3823140742
21
126.2000230069
0
LINE
8
10000_FRONT
62
7
6
CONTINUOUS
10
243.3823140742
20
183.0923187380
11
243.3823140742
21
187.9923187380
0
LINE
8
10000_FRONT
62
7
6
CONTINUOUS
10
243.3823140742
20
195.5923187380
11
243.3823140742
21
200.4923187380
0
LINE
8
10000_FRONT
62
7
6
CONTINUOUS
10
243.3823140742
20
208.0923187380
11
243.3823140742
21
212.9923187380
0
LINE
8
10000_FRONT
62
7
6
CONTINUOUS
10
243.3823140742
20
220.5923187380
11
243.3823140742
21
225.4923187380
0
LINE
8
10000_FRONT
62
7
6
CONTINUOUS
10
243.5573140742
20
279.4565846014
11
243.5573140742
21
278.6423187380
0
LINE
8
10000_FRONT
62
7
6
CONTINUOUS
10
243.5573140742
20
275.9423187380
11
243.5573140742
21
275.1280528746
0
LINE
8
13000_TOP
62
7
6
CONTINUOUS
10
243.9073140742
20
91.9133284115
11
243.9073140742
21
108.4133284115
0
LINE
8
10000_FRONT
62
7
6
CONTINUOUS
10
244.1823140742
20
269.6973187380
11
244.1823140742
21
267.8473187380
0
LINE
8
10000_FRONT
62
7
6
CONTINUOUS
10
244.1823140742
20
264.6173187380
11
244.1823140742
21
262.7673187380
0
LINE
8
10000_FRONT
62
7
6
CONTINUOUS
10
244.1823140742
20
259.5373187380
11
244.1823140742
21
257.6873187380
0
LINE
8
10000_FRONT
62
7
6
CONTINUOUS
10
244.1823140742
20
254.4573187380
11
244.1823140742
21
252.6073187380
0
LINE
8
10000_FRONT
62
7
6
CONTINUOUS
10
244.1823140742
20
249.3773187380
11
244.1823140742
21
247.5273187380
0
LINE
8
10000_FRONT
62
7
6
CONTINUOUS
10
244.1823140742
20
244.2973187380
11
244.1823140742
21
242.4473187380
0
LINE
8
10000_FRONT
62
7
6
CONTINUOUS
10
244.1823140742
20
239.2173187380
11
244.1823140742
21
237.3673187380
0
LINE
8
13000_TOP
62
7
6
CONTINUOUS
10
244.2823140742
20
126.2000230069
11
244.2823140742
21
126.9133284115
0
LINE
8
10000_FRONT
62
7
6
CONTINUOUS
10
244.4823140742
20
307.3523187380
11
244.4823140742
21
283.4523187380
0
LINE
8
13000_TOP
62
7
6
CONTINUOUS
10
244.6573140742
20
91.9133284115
11
244.6573140742
21
108.4133284115
0
LINE
8
10000_FRONT
62
7
6
CONTINUOUS
10
244.9823140742
20
306.8523187380
11
244.9823140742
21
283.9523187380
0
LINE
8
10000_FRONT
62
7
6
CONTINUOUS
10
245.1823140742
20
259.5373187380
11
245.1823140742
21
260.2123187380
0
LINE
8
10000_FRONT
62
7
6
CONTINUOUS
10
245.1823140742
20
264.6173187380
11
245.1823140742
21
265.2923187380
0
LINE
8
13000_TOP
62
7
6
CONTINUOUS
10
245.4073140742
20
91.9133284115
11
245.4073140742
21
108.4133284115
0
LINE
8
13000_TOP
62
7
6
CONTINUOUS
10
246.1573140742
20
91.9133284115
11
246.1573140742
21
108.4133284115
0
LINE
8
10000_FRONT
62
7
6
CONTINUOUS
10
246.2123140742
20
285.2423187380
11
246.2123140742
21
305.5623187380
0
LINE
8
10000_FRONT
62
7
6
CONTINUOUS
10
246.3823140742
20
302.9773187380
11
246.3823140742
21
300.5273187380
0
LINE
8
10000_FRONT
62
7
6
CONTINUOUS
10
246.3823140742
20
297.8973187380
11
246.3823140742
21
295.4473187380
0
LINE
8
10000_FRONT
62
7
6
CONTINUOUS
10
246.3823140742
20
292.8173187380
11
246.3823140742
21
290.3673187380
0
LINE
8
10000_FRONT
62
7
6
CONTINUOUS
10
246.3823140742
20
287.7373187380
11
246.3823140742
21
285.2873187380
0
LINE
8
10000_FRONT
62
7
6
CONTINUOUS
10
246.3823140742
20
259.5373187380
11
246.3823140742
21
260.2123187380
0
LINE
8
10000_FRONT
62
7
6
CONTINUOUS
10
246.3823140742
20
264.6173187380
11
246.3823140742
21
265.2923187380
0
LINE
8
10000_FRONT
62
7
6
CONTINUOUS
10
246.4823140742
20
305.5173187380
11
246.4823140742
21
303.0673187380
0
LINE
8
10000_FRONT
62
7
6
CONTINUOUS
10
246.4823140742
20
300.4373187380
11
246.4823140742
21
297.9873187380
0
LINE
8
10000_FRONT
62
7
6
CONTINUOUS
10
246.4823140742
20
295.3573187380
11
246.4823140742
21
292.9073187380
0
LINE
8
10000_FRONT
62
7
6
CONTINUOUS
10
246.4823140742
20
290.2773187380
11
246.4823140742
21
287.8273187380
0
LINE
8
13000_TOP
62
7
6
CONTINUOUS
10
246.5323140742
20
126.2000230069
11
246.5323140742
21
126.0937447261
0
LINE
8
13000_TOP
62
7
6
CONTINUOUS
10
246.5323140742
20
117.2683962855
11
246.5323140742
21
117.1408623485
0
LINE
8
13000_TOP
62
7
6
CONTINUOUS
10
246.5323140742
20
115.0133284115
11
246.5323140742
21
112.5133284115
0
LINE
8
13000_TOP
62
7
6
CONTINUOUS
10
246.5323140742
20
87.9133284115
11
246.5323140742
21
86.9133284115
0
LINE
8
13000_TOP
62
7
6
CONTINUOUS
10
246.9073140742
20
91.9133284115
11
246.9073140742
21
108.4133284115
0
LINE
8
10000_FRONT
62
7
6
CONTINUOUS
10
247.3323140742
20
251.4423187380
11
247.3323140742
21
250.5423187380
0
LINE
8
10000_FRONT
62
7
6
CONTINUOUS
10
247.3823140742
20
269.6973187380
11
247.3823140742
21
267.8473187380
0
LINE
8
10000_FRONT
62
7
6
CONTINUOUS
10
247.3823140742
20
264.6173187380
11
247.3823140742
21
262.7673187380
0
LINE
8
10000_FRONT
62
7
6
CONTINUOUS
10
247.3823140742
20
259.5373187380
11
247.3823140742
21
257.6873187380
0
LINE
8
10000_FRONT
62
7
6
CONTINUOUS
10
247.3823140742
20
237.3673187380
11
247.3823140742
21
239.2173187380
0
LINE
8
10000_FRONT
62
7
6
CONTINUOUS
10
247.3823140742
20
242.4473187380
11
247.3823140742
21
244.2973187380
0
LINE
8
10000_FRONT
62
7
6
CONTINUOUS
10
247.3823140742
20
247.5273187380
11
247.3823140742
21
249.3773187380
0
LINE
8
10000_FRONT
62
7
6
CONTINUOUS
10
247.3823140742
20
252.6073187380
11
247.3823140742
21
254.4573187380
0
LINE
8
10000_FRONT
62
7
6
CONTINUOUS
10
247.4323140742
20
272.0673187380
11
247.4323140742
21
271.3673187380
0
LINE
8
10000_FRONT
62
7
6
CONTINUOUS
10
247.4323140742
20
282.5173187380
11
247.4323140742
21
283.2173187380
0
LINE
8
10000_FRONT
62
7
6
CONTINUOUS
10
247.6323140742
20
235.2923187380
11
247.6323140742
21
236.0923187380
0
LINE
8
13000_TOP
62
7
6
CONTINUOUS
10
247.6573140742
20
91.9133284115
11
247.6573140742
21
108.4133284115
0
LINE
8
10000_FRONT
62
7
6
CONTINUOUS
10
247.7823140742
20
236.0923187380
11
247.7823140742
21
235.5923187380
0
LINE
8
13000_TOP
62
7
6
CONTINUOUS
10
248.0323140742
20
118.6133284115
11
248.0323140742
21
125.7749098835
0
LINE
8
10000_FRONT
62
7
6
CONTINUOUS
10
248.1823140742
20
225.4923187380
11
248.1823140742
21
220.5923187380
0
LINE
8
10000_FRONT
62
7
6
CONTINUOUS
10
248.1823140742
20
212.9923187380
11
248.1823140742
21
208.0923187380
0
LINE
8
10000_FRONT
62
7
6
CONTINUOUS
10
248.1823140742
20
200.4923187380
11
248.1823140742
21
195.5923187380
0
LINE
8
10000_FRONT
62
7
6
CONTINUOUS
10
248.1823140742
20
187.9923187380
11
248.1823140742
21
183.0923187380
0
LINE
8
13000_TOP
62
7
6
CONTINUOUS
10
248.4073140742
20
91.9133284115
11
248.4073140742
21
108.4133284115
0
LINE
8
10000_FRONT
62
7
6
CONTINUOUS
10
248.4823140742
20
285.2873187380
11
248.4823140742
21
287.7373187380
0
LINE
8
10000_FRONT
62
7
6
CONTINUOUS
10
248.4823140742
20
290.3673187380
11
248.4823140742
21
292.8173187380
0
LINE
8
10000_FRONT
62
7
6
CONTINUOUS
10
248.4823140742
20
295.4473187380
11
248.4823140742
21
297.8973187380
0
LINE
8
10000_FRONT
62
7
6
CONTINUOUS
10
248.4823140742
20
300.5273187380
11
248.4823140742
21
302.9773187380
0
LINE
8
10000_FRONT
62
7
6
CONTINUOUS
10
248.5823140742
20
287.8273187380
11
248.5823140742
21
290.2773187380
0
LINE
8
10000_FRONT
62
7
6
CONTINUOUS
10
248.5823140742
20
292.9073187380
11
248.5823140742
21
295.3573187380
0
LINE
8
10000_FRONT
62
7
6
CONTINUOUS
10
248.5823140742
20
297.9873187380
11
248.5823140742
21
300.4373187380
0
LINE
8
10000_FRONT
62
7
6
CONTINUOUS
10
248.5823140742
20
303.0673187380
11
248.5823140742
21
305.5173187380
0
LINE
8
10000_FRONT
62
7
6
CONTINUOUS
10
248.7523140742
20
285.2423187380
11
248.7523140742
21
305.5623187380
0
LINE
8
10000_FRONT
62
7
6
CONTINUOUS
10
248.7823140742
20
256.7923187380
11
248.7823140742
21
266.9923187380
0
LINE
8
13000_TOP
62
7
6
CONTINUOUS
10
249.1573140742
20
91.9133284115
11
249.1573140742
21
108.4133284115
0
LINE
8
10000_FRONT
62
7
6
CONTINUOUS
10
249.3823140742
20
265.3423187380
11
249.3823140742
21
264.0923187380
0
LINE
8
10000_FRONT
62
7
6
CONTINUOUS
10
249.3823140742
20
183.0923187380
11
249.3823140742
21
187.9923187380
0
LINE
8
10000_FRONT
62
7
6
CONTINUOUS
10
249.3823140742
20
195.5923187380
11
249.3823140742
21
200.4923187380
0
LINE
8
10000_FRONT
62
7
6
CONTINUOUS
10
249.3823140742
20
208.0923187380
11
249.3823140742
21
212.9923187380
0
LINE
8
10000_FRONT
62
7
6
CONTINUOUS
10
249.3823140742
20
220.5923187380
11
249.3823140742
21
225.4923187380
0
LINE
8
13000_TOP
62
7
6
CONTINUOUS
10
249.5323140742
20
125.7749098835
11
249.5323140742
21
118.6133284115
0
LINE
8
10000_FRONT
62
7
6
CONTINUOUS
10
249.7823140742
20
236.0923187380
11
249.7823140742
21
235.5923187380
0
LINE
8
13000_TOP
62
7
6
CONTINUOUS
10
249.9073140742
20
91.9133284115
11
249.9073140742
21
108.4133284115
0
LINE
8
10000_FRONT
62
7
6
CONTINUOUS
10
249.9323140742
20
235.2923187380
11
249.9323140742
21
236.0923187380
0
LINE
8
10000_FRONT
62
7
6
CONTINUOUS
10
249.9823140742
20
283.9523187380
11
249.9823140742
21
306.8523187380
0
LINE
8
10000_FRONT
62
7
6
CONTINUOUS
10
250.1323140742
20
272.0673187380
11
250.1323140742
21
271.3673187380
0
LINE
8
10000_FRONT
62
7
6
CONTINUOUS
10
250.1323140742
20
282.5173187380
11
250.1323140742
21
283.2173187380
0
LINE
8
10000_FRONT
62
7
6
CONTINUOUS
10
250.1823140742
20
269.6973187380
11
250.1823140742
21
267.8473187380
0
LINE
8
10000_FRONT
62
7
6
CONTINUOUS
10
250.1823140742
20
254.4573187380
11
250.1823140742
21
252.6073187380
0
LINE
8
10000_FRONT
62
7
6
CONTINUOUS
10
250.1823140742
20
249.3773187380
11
250.1823140742
21
247.5273187380
0
LINE
8
10000_FRONT
62
7
6
CONTINUOUS
10
250.1823140742
20
244.2973187380
11
250.1823140742
21
242.4473187380
0
LINE
8
10000_FRONT
62
7
6
CONTINUOUS
10
250.1823140742
20
239.2173187380
11
250.1823140742
21
237.3673187380
0
LINE
8
10000_FRONT
62
7
6
CONTINUOUS
10
250.2323140742
20
250.5423187380
11
250.2323140742
21
251.4423187380
0
LINE
8
10000_FRONT
62
7
6
CONTINUOUS
10
250.4823140742
20
283.4523187380
11
250.4823140742
21
307.3523187380
0
LINE
8
13000_TOP
62
7
6
CONTINUOUS
10
250.6573140742
20
91.9133284115
11
250.6573140742
21
108.4133284115
0
LINE
8
13000_TOP
62
7
6
CONTINUOUS
10
251.0323140742
20
126.2000230069
11
251.0323140742
21
126.0937447261
0
LINE
8
13000_TOP
62
7
6
CONTINUOUS
10
251.0323140742
20
117.2683962855
11
251.0323140742
21
117.1408623485
0
LINE
8
13000_TOP
62
7
6
CONTINUOUS
10
251.0323140742
20
86.9133284115
11
251.0323140742
21
87.9133284115
0
LINE
8
13000_TOP
62
7
6
CONTINUOUS
10
251.0323140742
20
112.5133284115
11
251.0323140742
21
115.0133284115
0
LINE
8
13000_TOP
62
7
6
CONTINUOUS
10
251.4073140742
20
91.9133284115
11
251.4073140742
21
108.4133284115
0
LINE
8
10000_FRONT
62
7
6
CONTINUOUS
10
251.5630686392
20
296.8902952820
11
251.5630686392
21
296.6611287743
0
LINE
8
10000_FRONT
62
7
6
CONTINUOUS
10
251.5630686392
20
295.4694621712
11
251.5630686392
21
293.9111287743
0
LINE
8
10000_FRONT
62
7
6
CONTINUOUS
10
251.5630686392
20
285.2944619805
11
251.5630686392
21
287.0361287743
0
LINE
8
10000_FRONT
62
7
6
CONTINUOUS
10
251.5630686392
20
287.4027955681
11
251.5630686392
21
287.8152949959
0
LINE
8
10000_FRONT
62
7
6
CONTINUOUS
10
251.5630686392
20
289.1902949959
11
251.5630686392
21
289.6027953774
0
LINE
8
10000_FRONT
62
7
6
CONTINUOUS
10
251.5630686392
20
290.9777953774
11
251.5630686392
21
292.6277949959
0
LINE
8
10000_FRONT
62
7
6
CONTINUOUS
10
251.5630686392
20
293.2694623620
11
251.5630686392
21
293.5444619805
0
LINE
8
10000_FRONT
62
7
6
CONTINUOUS
10
251.5630686392
20
298.7694618851
11
251.5630686392
21
298.9527952820
0
LINE
8
10000_FRONT
62
7
6
CONTINUOUS
10
251.5630686392
20
301.1069619805
11
251.5630686392
21
301.3819619566
0
LINE
8
10000_FRONT
62
7
6
CONTINUOUS
10
251.5630686392
20
305.5069620759
11
251.5630686392
21
305.7819619328
0
LINE
8
10000_FRONT
62
7
6
CONTINUOUS
10
251.7971117605
20
298.9069621712
11
251.7971117605
21
298.7236287743
0
LINE
8
10000_FRONT
62
7
6
CONTINUOUS
10
251.7971117605
20
287.0361287743
11
251.7971117605
21
286.3027951867
0
LINE
8
10000_FRONT
62
7
6
CONTINUOUS
10
251.7971117605
20
286.0277955681
11
251.7971117605
21
285.2944619805
0
LINE
8
10000_FRONT
62
7
6
CONTINUOUS
10
251.7971117605
20
294.1402957589
11
251.7971117605
21
295.4694621712
0
LINE
8
10000_FRONT
62
7
6
CONTINUOUS
10
251.8439200033
20
292.6277949959
11
251.8439200033
21
291.2527949959
0
LINE
8
10000_FRONT
62
7
6
CONTINUOUS
10
251.8439200033
20
296.6611287743
11
251.8439200033
21
296.9361288697
0
LINE
8
10000_FRONT
62
7
6
CONTINUOUS
10
252.0779621710
20
298.2652952820
11
252.0779621710
21
298.0361287743
0
LINE
8
10000_FRONT
62
7
6
CONTINUOUS
10
252.0779621710
20
297.2111284882
11
252.0779621710
21
297.4861285836
0
LINE
8
13000_TOP
62
7
6
CONTINUOUS
10
252.1573140742
20
91.9133284115
11
252.1573140742
21
108.4133284115
0
LINE
8
10000_FRONT
62
7
6
CONTINUOUS
10
252.3588135351
20
294.8736283928
11
252.3588135351
21
294.5986287743
0
LINE
8
10000_FRONT
62
7
6
CONTINUOUS
10
252.4524309744
20
291.2527949959
11
252.4524309744
21
292.4444615990
0
LINE
8
10000_FRONT
62
7
6
CONTINUOUS
10
252.4992392172
20
296.9361288697
11
252.4992392172
21
296.6611287743
0
LINE
8
10000_FRONT
62
7
6
CONTINUOUS
10
252.5928566564
20
294.5986287743
11
252.5928566564
21
294.8736283928
0
LINE
8
10000_FRONT
62
7
6
CONTINUOUS
10
252.7332813848
20
292.4444615990
11
252.7332813848
21
291.2527949959
0
LINE
8
10000_FRONT
62
7
6
CONTINUOUS
10
252.7332813848
20
289.9694621712
11
252.7332813848
21
290.6111285836
0
LINE
8
10000_FRONT
62
7
6
CONTINUOUS
10
252.7332813848
20
302.2069620043
11
252.7332813848
21
302.8486286551
0
LINE
8
10000_FRONT
62
7
6
CONTINUOUS
10
252.7800905813
20
293.9111287743
11
252.7800905813
21
294.2319619805
0
LINE
8
10000_FRONT
62
7
6
CONTINUOUS
10
252.7800905813
20
296.6611287743
11
252.7800905813
21
296.9361288697
0
LINE
8
10000_FRONT
62
7
6
CONTINUOUS
10
252.8268988241
20
301.1069619805
11
252.8268988241
21
300.3277952820
0
LINE
8
10000_FRONT
62
7
6
CONTINUOUS
10
252.8268988241
20
301.3819619566
11
252.8268988241
21
301.8402953297
0
LINE
8
13000_TOP
62
7
6
CONTINUOUS
10
252.9073140742
20
91.9133284115
11
252.9073140742
21
108.4133284115
0
LINE
8
10000_FRONT
62
7
6
CONTINUOUS
10
252.9673245062
20
302.8486286551
11
252.9673245062
21
302.2069620043
0
LINE
8
10000_FRONT
62
7
6
CONTINUOUS
10
252.9673245062
20
290.6111285836
11
252.9673245062
21
289.9694621712
0
LINE
8
10000_FRONT
62
7
6
CONTINUOUS
10
253.1077501882
20
301.8402953297
11
253.1077501882
21
301.3819619566
0
LINE
8
10000_FRONT
62
7
6
CONTINUOUS
10
253.1077501882
20
301.1069619805
11
253.1077501882
21
300.0069620759
0
LINE
8
10000_FRONT
62
7
6
CONTINUOUS
10
253.1545584310
20
296.2027952820
11
253.1545584310
21
295.9277951867
0
LINE
8
10000_FRONT
62
7
6
CONTINUOUS
10
253.2013666738
20
294.1861283928
11
253.2013666738
21
293.9111287743
0
LINE
8
13000_TOP
62
7
6
CONTINUOUS
10
253.2823140742
20
126.9133284115
11
253.2823140742
21
126.2000230069
0
LINE
8
10000_FRONT
62
7
6
CONTINUOUS
10
253.3823140742
20
269.6973187380
11
253.3823140742
21
267.8473187380
0
LINE
8
10000_FRONT
62
7
6
CONTINUOUS
10
253.3823140742
20
237.3673187380
11
253.3823140742
21
239.2173187380
0
LINE
8
10000_FRONT
62
7
6
CONTINUOUS
10
253.3823140742
20
242.4473187380
11
253.3823140742
21
244.2973187380
0
LINE
8
10000_FRONT
62
7
6
CONTINUOUS
10
253.3823140742
20
247.5273187380
11
253.3823140742
21
249.3773187380
0
LINE
8
10000_FRONT
62
7
6
CONTINUOUS
10
253.3823140742
20
252.6073187380
11
253.3823140742
21
254.4573187380
0
LINE
8
10000_FRONT
62
7
6
CONTINUOUS
10
253.3823140742
20
260.2423187380
11
253.3823140742
21
261.4923187380
0
LINE
8
10000_FRONT
62
7
6
CONTINUOUS
10
253.4822180380
20
296.9361288697
11
253.4822180380
21
296.5694620759
0
LINE
8
10000_FRONT
62
7
6
CONTINUOUS
10
253.4822180380
20
291.2527949959
11
253.4822180380
21
292.6277949959
0
LINE
8
10000_FRONT
62
7
6
CONTINUOUS
10
253.5290262808
20
294.8736283928
11
253.5290262808
21
294.5986287743
0
LINE
8
10000_FRONT
62
7
6
CONTINUOUS
10
253.5290262808
20
298.3569619805
11
253.5290262808
21
299.6402952820
0
LINE
8
13000_TOP
62
7
6
CONTINUOUS
10
253.6573140742
20
91.9133284115
11
253.6573140742
21
108.4133284115
0
LINE
8
10000_FRONT
62
7
6
CONTINUOUS
10
253.7630694021
20
305.7819619328
11
253.7630694021
21
305.5069620759
0
LINE
8
10000_FRONT
62
7
6
CONTINUOUS
10
253.7630694021
20
301.3819619566
11
253.7630694021
21
301.1069619805
0
LINE
8
10000_FRONT
62
7
6
CONTINUOUS
10
253.7630694021
20
299.6402952820
11
253.7630694021
21
297.9902951867
0
LINE
8
10000_FRONT
62
7
6
CONTINUOUS
10
253.7630694021
20
293.5444619805
11
253.7630694021
21
293.2694623620
0
LINE
8
10000_FRONT
62
7
6
CONTINUOUS
10
253.7630694021
20
292.6277949959
11
253.7630694021
21
290.9777953774
0
LINE
8
10000_FRONT
62
7
6
CONTINUOUS
10
253.7630694021
20
289.6027953774
11
253.7630694021
21
289.3277957589
0
LINE
8
10000_FRONT
62
7
6
CONTINUOUS
10
253.7630694021
20
288.6861283928
11
253.7630694021
21
288.3194615990
0
LINE
8
10000_FRONT
62
7
6
CONTINUOUS
10
253.7630694021
20
287.6777951867
11
253.7630694021
21
287.4027955681
0
LINE
8
10000_FRONT
62
7
6
CONTINUOUS
10
253.7630694021
20
286.3027951867
11
253.7630694021
21
286.0277955681
0
LINE
8
10000_FRONT
62
7
6
CONTINUOUS
10
253.7630694021
20
294.5986287743
11
253.7630694021
21
294.8736283928
0
LINE
8
10000_FRONT
62
7
6
CONTINUOUS
10
253.7630694021
20
296.5694620759
11
253.7630694021
21
296.9361288697
0
LINE
8
10000_FRONT
62
7
6
CONTINUOUS
10
253.9823140742
20
256.8923187380
11
253.9823140742
21
266.9923187380
0
LINE
8
10000_FRONT
62
7
6
CONTINUOUS
10
254.0073140742
20
275.1280528746
11
254.0073140742
21
275.9423187380
0
LINE
8
10000_FRONT
62
7
6
CONTINUOUS
10
254.0073140742
20
278.6423187380
11
254.0073140742
21
279.5474702570
0
LINE
8
10000_FRONT
62
7
6
CONTINUOUS
10
254.1823140742
20
225.4923187380
11
254.1823140742
21
220.5923187380
0
LINE
8
10000_FRONT
62
7
6
CONTINUOUS
10
254.1823140742
20
212.9923187380
11
254.1823140742
21
208.0923187380
0
LINE
8
10000_FRONT
62
7
6
CONTINUOUS
10
254.1823140742
20
200.4923187380
11
254.1823140742
21
195.5923187380
0
LINE
8
10000_FRONT
62
7
6
CONTINUOUS
10
254.1823140742
20
187.9923187380
11
254.1823140742
21
183.0923187380
0
LINE
8
13000_TOP
62
7
6
CONTINUOUS
10
254.1823140742
20
126.9133284115
11
254.1823140742
21
126.2000230069
0
LINE
8
10000_FRONT
62
7
6
CONTINUOUS
10
254.3630688299
20
228.8944618851
11
254.3630688299
21
227.6774408967
0
LINE
8
10000_FRONT
62
7
6
CONTINUOUS
10
254.3630690683
20
215.4582919792
11
254.3630690683
21
215.1306323723
0
LINE
8
10000_FRONT
62
7
6
CONTINUOUS
10
254.3630690683
20
189.8965894417
11
254.3630690683
21
189.7561642364
0
LINE
8
10000_FRONT
62
7
6
CONTINUOUS
10
254.3630690683
20
203.6604189590
11
254.3630690683
21
203.8944620804
0
LINE
8
10000_FRONT
62
7
6
CONTINUOUS
10
254.3951523412
20
190.8327595428
11
254.3951523412
21
190.6923338608
0
LINE
8
13000_TOP
62
7
6
CONTINUOUS
10
254.4073140742
20
91.9133284115
11
254.4073140742
21
108.4133284115
0
LINE
8
10000_FRONT
62
7
6
CONTINUOUS
10
254.5234856714
20
189.8965894417
11
254.5234856714
21
189.7561642364
0
LINE
8
10000_FRONT
62
7
6
CONTINUOUS
10
254.5234856714
20
215.3646745399
11
254.5234856714
21
215.4582919792
0
LINE
8
10000_FRONT
62
7
6
CONTINUOUS
10
254.5234854330
20
227.9114830643
11
254.5234854330
21
228.6604192406
0
LINE
8
10000_FRONT
62
7
6
CONTINUOUS
10
254.5555689443
20
214.9902066902
11
254.5555689443
21
214.8497810081
0
LINE
8
10000_FRONT
62
7
6
CONTINUOUS
10
254.5555689443
20
190.8327595428
11
254.5555689443
21
190.7391430572
0
LINE
8
10000_FRONT
62
7
6
CONTINUOUS
10
254.5823140742
20
183.0923187380
11
254.5823140742
21
187.9923187380
0
LINE
8
10000_FRONT
62
7
6
CONTINUOUS
10
254.5823140742
20
195.5923187380
11
254.5823140742
21
200.4923187380
0
LINE
8
10000_FRONT
62
7
6
CONTINUOUS
10
254.5823140742
20
208.0923187380
11
254.5823140742
21
212.9923187380
0
LINE
8
10000_FRONT
62
7
6
CONTINUOUS
10
254.5823140742
20
220.5923187380
11
254.5823140742
21
225.4923187380
0
LINE
8
10000_FRONT
62
7
6
CONTINUOUS
10
254.7073140742
20
278.6423187380
11
254.7073140742
21
275.9423187380
0
LINE
8
10000_FRONT
62
7
6
CONTINUOUS
10
254.7823140742
20
232.9923187380
11
254.7823140742
21
230.4923187380
0
LINE
8
13000_TOP
62
7
6
CONTINUOUS
10
254.7823140742
20
118.6133284115
11
254.7823140742
21
125.7749098835
0
LINE
8
10000_FRONT
62
7
6
CONTINUOUS
10
254.7823140742
20
235.7923187380
11
254.7823140742
21
256.7923187380
0
LINE
8
10000_FRONT
62
7
6
CONTINUOUS
10
254.7823140742
20
256.8923187380
11
254.7823140742
21
270.5923187380
0
LINE
8
13000_TOP
62
7
6
CONTINUOUS
10
255.0823140742
20
117.8651495089
11
255.0823140742
21
117.2683962855
0
LINE
8
10000_FRONT
62
7
6
CONTINUOUS
10
255.0823140742
20
303.5969467216
11
255.0823140742
21
306.8228844344
0
LINE
8
10000_FRONT
62
7
6
CONTINUOUS
10
255.0823140742
20
306.8722499336
11
255.0823140742
21
311.5923187380
0
LINE
8
13000_TOP
62
7
6
CONTINUOUS
10
255.1573140742
20
91.9133284115
11
255.1573140742
21
108.4133284115
0
LINE
8
10000_FRONT
62
7
6
CONTINUOUS
10
255.3255689253
20
190.7391430572
11
255.3255689253
21
190.8327595428
0
LINE
8
10000_FRONT
62
7
6
CONTINUOUS
10
255.3576519598
20
227.4433982522
11
255.3576519598
21
227.3497812897
0
LINE
8
10000_FRONT
62
7
6
CONTINUOUS
10
255.3576524366
20
189.7561642364
11
255.3576524366
21
189.8965894417
0
LINE
8
10000_FRONT
62
7
6
CONTINUOUS
10
255.3576524366
20
214.8497810081
11
255.3576524366
21
214.9902066902
0
LINE
8
10000_FRONT
62
7
6
CONTINUOUS
10
255.4539024938
20
228.6604192406
11
255.4539024938
21
228.8944618851
0
LINE
8
10000_FRONT
62
7
6
CONTINUOUS
10
255.4859857668
20
190.6923338608
11
255.4859857668
21
190.8327595428
0
LINE
8
10000_FRONT
62
7
6
CONTINUOUS
10
255.5180690397
20
203.8944620804
11
255.5180690397
21
203.6604189590
0
LINE
8
10000_FRONT
62
7
6
CONTINUOUS
10
255.5180690397
20
189.7561642364
11
255.5180690397
21
189.8965894417
0
LINE
8
10000_FRONT
62
7
6
CONTINUOUS
10
255.5180690397
20
214.8029727653
11
255.5180690397
21
215.0370154098
0
LINE
8
10000_FRONT
62
7
6
CONTINUOUS
10
255.5180685629
20
227.3029725701
11
255.5180685629
21
227.4902064950
0
LINE
8
10000_FRONT
62
7
6
CONTINUOUS
10
255.6823140742
20
251.4523187380
11
255.6823140742
21
245.4523187380
0
LINE
8
10000_FRONT
62
7
6
CONTINUOUS
10
255.6823140742
20
225.4923187380
11
255.6823140742
21
220.5923187380
0
LINE
8
10000_FRONT
62
7
6
CONTINUOUS
10
255.6823140742
20
212.9923187380
11
255.6823140742
21
208.0923187380
0
LINE
8
10000_FRONT
62
7
6
CONTINUOUS
10
255.6823140742
20
200.4923187380
11
255.6823140742
21
195.5923187380
0
LINE
8
10000_FRONT
62
7
6
CONTINUOUS
10
255.6823140742
20
187.9923187380
11
255.6823140742
21
183.0923187380
0
LINE
8
13000_TOP
62
7
6
CONTINUOUS
10
256.0823140742
20
117.8651495089
11
256.0823140742
21
117.1107680935
0
LINE
8
13000_TOP
62
7
6
CONTINUOUS
10
256.2823140742
20
83.6133284115
11
256.2823140742
21
126.9133284115
0
LINE
8
10000_FRONT
62
7
6
CONTINUOUS
10
256.2823140742
20
181.7923187380
11
256.2823140742
21
312.7923187380
0
LINE
8
10000_FRONT
62
7
6
CONTINUOUS
10
241.2784629475
20
215.4421507965
11
241.2759632415
21
215.3423187387
0
LINE
8
10000_FRONT
62
7
6
CONTINUOUS
10
241.2821837422
20
215.5431494760
11
241.2784629475
21
215.4421507965
0
LINE
8
10000_FRONT
62
7
6
CONTINUOUS
10
254.3951523412
20
215.7859511093
11
254.3630690683
21
215.4582919792
0
LINE
8
10000_FRONT
62
7
6
CONTINUOUS
10
254.5234856714
20
215.4582919792
11
254.5555689443
21
215.7391428665
0
LINE
8
10000_FRONT
62
7
6
CONTINUOUS
10
256.2823140742
20
303.4601386642
11
256.2748515589
21
303.4147239363
0
LINE
8
10000_FRONT
62
7
6
CONTINUOUS
10
253.7162602056
20
303.7652953118
11
253.7630694021
21
304.0402953178
0
LINE
8
10000_FRONT
62
7
6
CONTINUOUS
10
241.8951523412
20
215.8795685486
11
241.9272358526
21
216.0668024734
0
LINE
8
10000_FRONT
62
7
6
CONTINUOUS
10
243.0180685629
20
215.7859511093
11
242.9859860052
21
215.5987171844
0
LINE
8
10000_FRONT
62
7
6
CONTINUOUS
10
241.8951523412
20
203.3795685486
11
241.9272358526
21
203.5668024734
0
LINE
8
10000_FRONT
62
7
6
CONTINUOUS
10
242.9859860052
20
203.2859511093
11
242.9539024938
21
203.0987171844
0
LINE
8
10000_FRONT
62
7
6
CONTINUOUS
10
253.7162602056
20
294.3694617898
11
253.7630694021
21
294.5986287743
0
LINE
8
10000_FRONT
62
7
6
CONTINUOUS
10
243.0180685629
20
202.2093558029
11
242.9859860052
21
202.0689301208
0
LINE
8
10000_FRONT
62
7
6
CONTINUOUS
10
255.3576519598
20
227.3497812897
11
255.3255694021
21
227.2093556077
0
LINE
8
10000_FRONT
62
7
6
CONTINUOUS
10
254.5555689443
20
215.7391428665
11
254.5876524557
21
215.8795685486
0
LINE
8
10000_FRONT
62
7
6
CONTINUOUS
10
254.5876524557
20
215.1306323723
11
254.5555689443
21
214.9902066902
0
LINE
8
10000_FRONT
62
7
6
CONTINUOUS
10
255.3255689253
20
214.7093558029
11
255.3576524366
21
214.8497810081
0
LINE
8
10000_FRONT
62
7
6
CONTINUOUS
10
256.2823140742
20
219.8023809995
11
256.2635544799
21
219.7292643297
0
LINE
8
10000_FRONT
62
7
6
CONTINUOUS
10
256.2823140742
20
207.3023809995
11
256.2635544799
21
207.2292643297
0
LINE
8
10000_FRONT
62
7
6
CONTINUOUS
10
255.4539024938
20
227.0689299256
11
255.5180685629
21
227.3029725701
0
LINE
8
10000_FRONT
62
7
6
CONTINUOUS
10
254.4593191255
20
216.0199942306
11
254.3951523412
21
215.7859511093
0
LINE
8
10000_FRONT
62
7
6
CONTINUOUS
10
255.4539022554
20
214.5689301208
11
255.5180690397
21
214.8029727653
0
LINE
8
10000_FRONT
62
7
6
CONTINUOUS
10
242.7614023794
20
215.5987171844
11
242.8255694021
21
215.7859511093
0
LINE
8
10000_FRONT
62
7
6
CONTINUOUS
10
242.7614023794
20
203.0987171844
11
242.8255694021
21
203.2859511093
0
LINE
8
10000_FRONT
62
7
6
CONTINUOUS
10
242.8255694021
20
202.1157383636
11
242.8576519598
21
202.2093558029
0
LINE
8
10000_FRONT
62
7
6
CONTINUOUS
10
242.1197359670
20
216.0199942306
11
242.0555689443
21
215.8795685486
0
LINE
8
10000_FRONT
62
7
6
CONTINUOUS
10
242.9859860052
20
215.5987171844
11
242.9218189825
21
215.4582919792
0
LINE
8
10000_FRONT
62
7
6
CONTINUOUS
10
242.1197359670
20
203.5199942306
11
242.0555689443
21
203.3795685486
0
LINE
8
10000_FRONT
62
7
6
CONTINUOUS
10
242.9539024938
20
203.0987171844
11
242.8897354711
21
202.9582919792
0
LINE
8
10000_FRONT
62
7
6
CONTINUOUS
10
242.9859860052
20
202.0689301208
11
242.9218189825
21
201.9285044388
0
LINE
8
10000_FRONT
62
7
6
CONTINUOUS
10
255.3255694021
20
227.2093556077
11
255.2614023794
21
227.0689299256
0
LINE
8
10000_FRONT
62
7
6
CONTINUOUS
10
254.5876524557
20
215.8795685486
11
254.6518190016
21
216.0199942306
0
LINE
8
10000_FRONT
62
7
6
CONTINUOUS
10
255.2614023794
20
214.5689301208
11
255.3255689253
21
214.7093558029
0
LINE
8
10000_FRONT
62
7
6
CONTINUOUS
10
255.3576519598
20
226.8816960007
11
255.4539024938
21
227.0689299256
0
LINE
8
10000_FRONT
62
7
6
CONTINUOUS
10
254.5555689443
20
216.2072281555
11
254.4593191255
21
216.0199942306
0
LINE
8
10000_FRONT
62
7
6
CONTINUOUS
10
255.3576524366
20
214.3816961960
11
255.4539022554
21
214.5689301208
0
LINE
8
10000_FRONT
62
7
6
CONTINUOUS
10
241.8630690087
20
228.5668022782
11
242.0555690039
21
228.8944618851
0
LINE
8
10000_FRONT
62
7
6
CONTINUOUS
10
242.0555690039
20
228.5199940354
11
241.8630690087
21
228.1923344285
0
LINE
8
10000_FRONT
62
7
6
CONTINUOUS
10
241.9272358526
20
216.0668024734
11
242.0555689443
21
216.2540363983
0
LINE
8
10000_FRONT
62
7
6
CONTINUOUS
10
241.9272358526
20
203.5668024734
11
242.0555689443
21
203.7540363983
0
LINE
8
10000_FRONT
62
7
6
CONTINUOUS
10
242.6972353567
20
203.0051002220
11
242.7614023794
21
203.0987171844
0
LINE
8
10000_FRONT
62
7
6
CONTINUOUS
10
242.7614023794
20
202.0221214012
11
242.8255694021
21
202.1157383636
0
LINE
8
10000_FRONT
62
7
6
CONTINUOUS
10
241.8630688299
20
214.4285044388
11
242.7614023794
21
215.5987171844
0
LINE
8
10000_FRONT
62
7
6
CONTINUOUS
10
242.9218189825
20
215.4582919792
11
242.1197359670
21
214.4285044388
0
LINE
8
10000_FRONT
62
7
6
CONTINUOUS
10
254.5876524557
20
227.6774408967
11
254.7159855474
21
227.8178661019
0
LINE
8
10000_FRONT
62
7
6
CONTINUOUS
10
254.7823140742
20
235.7923187380
11
254.2823140742
21
235.2923187380
0
LINE
8
10000_FRONT
62
7
6
CONTINUOUS
10
242.2159855474
20
216.1136107162
11
242.1197359670
21
216.0199942306
0
LINE
8
10000_FRONT
62
7
6
CONTINUOUS
10
255.2614023794
20
227.0689299256
11
255.1651527990
21
226.9753129632
0
LINE
8
10000_FRONT
62
7
6
CONTINUOUS
10
254.6839020361
20
228.0519087464
11
254.5234854330
21
227.9114830643
0
LINE
8
10000_FRONT
62
7
6
CONTINUOUS
10
255.1972353567
20
226.7412703187
11
255.3576519598
21
226.8816960007
0
LINE
8
11000_LEFT
62
7
6
CONTINUOUS
10
356.8810531032
20
291.3366571174
11
356.8729186692
21
291.3324947816
0
LINE
8
11000_LEFT
62
7
6
CONTINUOUS
10
356.8810531032
20
288.2366571174
11
356.8729186692
21
288.2324947816
0
LINE
8
11000_LEFT
62
7
6
CONTINUOUS
10
357.2521078216
20
296.4163683916
11
357.2989590713
21
296.4353641448
0
LINE
8
11000_LEFT
62
7
6
CONTINUOUS
10
357.2521078216
20
293.3163683916
11
357.2989590713
21
293.3353641448
0
LINE
8
11000_LEFT
62
7
6
CONTINUOUS
10
357.2521078216
20
290.2163683916
11
357.2989590713
21
290.2353641448
0
LINE
8
11000_LEFT
62
7
6
CONTINUOUS
10
357.2521078216
20
287.1163683916
11
357.2989590713
21
287.1353641448
0
LINE
8
11000_LEFT
62
7
6
CONTINUOUS
10
356.8810531032
20
294.4366571174
11
357.3066498011
21
294.6023187380
0
LINE
8
11000_LEFT
62
7
6
CONTINUOUS
10
356.8810531032
20
291.3366571174
11
357.3066498011
21
291.5023187380
0
LINE
8
11000_LEFT
62
7
6
CONTINUOUS
10
356.8810531032
20
288.2366571174
11
357.3066498011
21
288.4023187380
0
LINE
8
10000_FRONT
62
7
6
CONTINUOUS
10
241.3589706177
20
194.6621336064
11
241.4551219790
21
194.6121329608
0
LINE
8
10000_FRONT
62
7
6
CONTINUOUS
10
254.6197357286
20
189.5689298347
11
254.7480690588
21
189.4753128723
0
LINE
8
10000_FRONT
62
7
6
CONTINUOUS
10
254.5555689443
20
190.3646752075
11
254.6197357286
21
190.3178660110
0
LINE
8
10000_FRONT
62
7
6
CONTINUOUS
10
255.2614023794
20
190.0838238434
11
255.1330690492
21
190.1774403290
0
LINE
8
10000_FRONT
62
7
6
CONTINUOUS
10
255.3255689253
20
190.2710577682
11
255.2614023794
21
190.3178660110
0
LINE
8
10000_FRONT
62
7
6
CONTINUOUS
10
242.1839020361
20
201.7412705139
11
242.0555689443
21
201.8348874763
0
LINE
8
10000_FRONT
62
7
6
CONTINUOUS
10
242.1197359670
20
202.0221214012
11
242.1839020361
21
201.9753131584
0
LINE
8
10000_FRONT
62
7
6
CONTINUOUS
10
254.5234856714
20
189.3816959099
11
254.6839022745
21
189.2412707046
0
LINE
8
10000_FRONT
62
7
6
CONTINUOUS
10
255.3255689253
20
191.2072283462
11
255.1651523222
21
191.3476530746
0
LINE
8
10000_FRONT
62
7
6
CONTINUOUS
10
242.0555689443
20
201.8348874763
11
241.9593193640
21
201.9285044388
0
LINE
8
10000_FRONT
62
7
6
CONTINUOUS
10
242.7934858907
20
202.5838236526
11
242.6972353567
21
202.6774406151
0
LINE
8
10000_FRONT
62
7
6
CONTINUOUS
10
242.7614023794
20
203.5199942306
11
242.6651527990
21
203.6136107162
0
LINE
8
10000_FRONT
62
7
6
CONTINUOUS
10
254.6197357286
20
190.5987173752
11
254.7480690588
21
190.4582916931
0
LINE
8
10000_FRONT
62
7
6
CONTINUOUS
10
255.4539022554
20
190.1306320862
11
255.3255689253
21
190.2710577682
0
LINE
8
10000_FRONT
62
7
6
CONTINUOUS
10
255.2614023794
20
190.9731852249
11
255.1330690492
21
191.1136109070
0
LINE
8
10000_FRONT
62
7
6
CONTINUOUS
10
241.3010736686
20
194.7292643297
11
241.3589706177
21
194.6621336064
0
LINE
8
10000_FRONT
62
7
6
CONTINUOUS
10
241.3010736686
20
207.2292643297
11
241.3589706177
21
207.1621336064
0
LINE
8
10000_FRONT
62
7
6
CONTINUOUS
10
242.0555689443
20
202.1157383636
11
242.1197359670
21
202.0221214012
0
LINE
8
10000_FRONT
62
7
6
CONTINUOUS
10
242.8255694021
20
203.7540363983
11
242.9539024938
21
203.5668024734
0
LINE
8
10000_FRONT
62
7
6
CONTINUOUS
10
254.4272356142
20
189.5221215919
11
254.5234856714
21
189.3816959099
0
LINE
8
10000_FRONT
62
7
6
CONTINUOUS
10
254.4593191255
20
190.5050999359
11
254.5555689443
21
190.3646752075
0
LINE
8
10000_FRONT
62
7
6
CONTINUOUS
10
255.4218189825
20
191.0668026642
11
255.3255689253
21
191.2072283462
0
LINE
8
10000_FRONT
62
7
6
CONTINUOUS
10
242.8576519598
20
216.2540363983
11
242.9859860052
21
216.0668024734
0
LINE
8
10000_FRONT
62
7
6
CONTINUOUS
10
254.5234856714
20
189.7561642364
11
254.6197357286
21
189.5689298347
0
LINE
8
10000_FRONT
62
7
6
CONTINUOUS
10
255.3576524366
20
189.8965894417
11
255.2614023794
21
190.0838238434
0
LINE
8
10000_FRONT
62
7
6
CONTINUOUS
10
241.9593193640
20
201.9285044388
11
241.8951523412
21
202.0689301208
0
LINE
8
10000_FRONT
62
7
6
CONTINUOUS
10
242.9218189825
20
202.7242493347
11
242.9859860052
21
202.5838236526
0
LINE
8
10000_FRONT
62
7
6
CONTINUOUS
10
242.8255694021
20
203.3795685486
11
242.7614023794
21
203.5199942306
0
LINE
8
10000_FRONT
62
7
6
CONTINUOUS
10
242.8255694021
20
215.8795685486
11
242.7614023794
21
216.0199942306
0
LINE
8
10000_FRONT
62
7
6
CONTINUOUS
10
254.5555689443
20
190.7391430572
11
254.6197357286
21
190.5987173752
0
LINE
8
10000_FRONT
62
7
6
CONTINUOUS
10
255.3255689253
20
190.8327595428
11
255.2614023794
21
190.9731852249
0
LINE
8
10000_FRONT
62
7
6
CONTINUOUS
10
242.0234854330
20
202.2093558029
11
242.0555689443
21
202.1157383636
0
LINE
8
10000_FRONT
62
7
6
CONTINUOUS
10
242.8576519598
20
202.3965897278
11
242.7934858907
21
202.5838236526
0
LINE
8
10000_FRONT
62
7
6
CONTINUOUS
10
254.3951523412
20
190.6923338608
11
254.4593191255
21
190.5050999359
0
LINE
8
10000_FRONT
62
7
6
CONTINUOUS
10
254.3630690683
20
189.7561642364
11
254.4272356142
21
189.5221215919
0
LINE
8
10000_FRONT
62
7
6
CONTINUOUS
10
255.5180690397
20
189.8965894417
11
255.4539022554
21
190.1306320862
0
LINE
8
10000_FRONT
62
7
6
CONTINUOUS
10
255.4859857668
20
190.8327595428
11
255.4218189825
21
191.0668026642
0
LINE
8
10000_FRONT
62
7
6
CONTINUOUS
10
254.3951523412
20
214.8029727653
11
254.4593191255
21
214.5689301208
0
LINE
8
10000_FRONT
62
7
6
CONTINUOUS
10
255.5180690397
20
215.0370154098
11
255.4539022554
21
215.2710575775
0
LINE
8
10000_FRONT
62
7
6
CONTINUOUS
10
241.2823140742
20
194.8023809995
11
241.3010736686
21
194.7292643297
0
LINE
8
10000_FRONT
62
7
6
CONTINUOUS
10
241.2823140742
20
207.3023809995
11
241.3010736686
21
207.2292643297
0
LINE
8
10000_FRONT
62
7
6
CONTINUOUS
10
241.2823140742
20
219.8023809995
11
241.3010736686
21
219.7292643297
0
LINE
8
10000_FRONT
62
7
6
CONTINUOUS
10
241.8951523412
20
202.0689301208
11
241.8630688299
21
202.2093558029
0
LINE
8
10000_FRONT
62
7
6
CONTINUOUS
10
254.5555689443
20
214.8497810081
11
254.5876524557
21
214.7093558029
0
LINE
8
10000_FRONT
62
7
6
CONTINUOUS
10
255.3576524366
20
214.9902066902
11
255.3255689253
21
215.1306323723
0
LINE
8
10000_FRONT
62
7
6
CONTINUOUS
10
255.4539022554
20
215.8795685486
11
255.4218189825
21
216.0199942306
0
LINE
8
13000_TOP
62
7
6
CONTINUOUS
10
256.2670470295
20
117.7444855122
11
256.2823140742
21
117.6695199888
0
LINE
8
10000_FRONT
62
7
6
CONTINUOUS
10
242.9859860052
20
202.5838236526
11
243.0180685629
21
202.3965897278
0
LINE
8
10000_FRONT
62
7
6
CONTINUOUS
10
242.9539024938
20
203.5668024734
11
242.9859860052
21
203.3795685486
0
LINE
8
10000_FRONT
62
7
6
CONTINUOUS
10
242.9859860052
20
216.0668024734
11
243.0180685629
21
215.8795685486
0
LINE
8
10000_FRONT
62
7
6
CONTINUOUS
10
241.2823140742
20
303.4601386642
11
241.2897765896
21
303.4147239363
0
LINE
8
10000_FRONT
62
7
6
CONTINUOUS
10
256.2823140742
20
194.8023809995
11
256.2635544799
21
194.7292643297
0
LINE
8
10000_FRONT
62
7
6
CONTINUOUS
10
254.4593191255
20
191.0668026642
11
254.3951523412
21
190.8327595428
0
LINE
8
10000_FRONT
62
7
6
CONTINUOUS
10
254.4272356142
20
190.1306320862
11
254.3630690683
21
189.8965894417
0
LINE
8
10000_FRONT
62
7
6
CONTINUOUS
10
255.4539022554
20
189.5221215919
11
255.5180690397
21
189.7561642364
0
LINE
8
10000_FRONT
62
7
6
CONTINUOUS
10
254.6839022745
20
201.6944617943
11
255.3255689253
21
203.6604189590
0
LINE
8
10000_FRONT
62
7
6
CONTINUOUS
10
255.5180690397
20
203.6604189590
11
254.8764023889
21
201.6944617943
0
LINE
8
10000_FRONT
62
7
6
CONTINUOUS
10
255.4218189825
20
190.5050999359
11
255.4859857668
21
190.6923338608
0
LINE
8
10000_FRONT
62
7
6
CONTINUOUS
10
254.6197357286
20
190.9731852249
11
254.5555689443
21
190.8327595428
0
LINE
8
10000_FRONT
62
7
6
CONTINUOUS
10
255.2614023794
20
190.5987173752
11
255.3255689253
21
190.7391430572
0
LINE
8
10000_FRONT
62
7
6
CONTINUOUS
10
254.6197357286
20
190.0838238434
11
254.5234856714
21
189.8965894417
0
LINE
8
10000_FRONT
62
7
6
CONTINUOUS
10
255.2614023794
20
189.5689298347
11
255.3576524366
21
189.7561642364
0
LINE
8
10000_FRONT
62
7
6
CONTINUOUS
10
241.8630688299
20
190.1306320862
11
242.6330692877
21
191.3944622711
0
LINE
8
10000_FRONT
62
7
6
CONTINUOUS
10
242.0876524557
20
190.1306320862
11
242.6330692877
21
191.0199934677
0
LINE
8
10000_FRONT
62
7
6
CONTINUOUS
10
254.6518190016
20
215.2242493347
11
254.5876524557
21
215.1306323723
0
LINE
8
10000_FRONT
62
7
6
CONTINUOUS
10
254.5555689443
20
191.2072283462
11
254.4593191255
21
191.0668026642
0
LINE
8
10000_FRONT
62
7
6
CONTINUOUS
10
255.3255689253
20
190.3646752075
11
255.4218189825
21
190.5050999359
0
LINE
8
10000_FRONT
62
7
6
CONTINUOUS
10
255.3576524366
20
189.3816959099
11
255.4539022554
21
189.5221215919
0
LINE
8
10000_FRONT
62
7
6
CONTINUOUS
10
256.2635544799
20
219.7292643297
11
256.2056575308
21
219.6621336064
0
LINE
8
10000_FRONT
62
7
6
CONTINUOUS
10
256.2635544799
20
207.2292643297
11
256.2056575308
21
207.1621336064
0
LINE
8
10000_FRONT
62
7
6
CONTINUOUS
10
256.2635544799
20
194.7292643297
11
256.2056575308
21
194.6621336064
0
LINE
8
10000_FRONT
62
7
6
CONTINUOUS
10
242.8897354711
20
202.9582919792
11
242.7614023794
21
202.8178662971
0
LINE
8
10000_FRONT
62
7
6
CONTINUOUS
10
254.7480690588
20
191.1136109070
11
254.6197357286
21
190.9731852249
0
LINE
8
10000_FRONT
62
7
6
CONTINUOUS
10
254.5555689443
20
190.2710577682
11
254.4272356142
21
190.1306320862
0
LINE
8
10000_FRONT
62
7
6
CONTINUOUS
10
254.6518190016
20
216.0199942306
11
254.7480690588
21
216.1136107162
0
LINE
8
10000_FRONT
62
7
6
CONTINUOUS
10
242.2159855474
20
203.6136107162
11
242.1197359670
21
203.5199942306
0
LINE
8
10000_FRONT
62
7
6
CONTINUOUS
10
254.7159857858
20
215.5519089416
11
254.5234856714
21
215.3646745399
0
LINE
8
10000_FRONT
62
7
6
CONTINUOUS
10
254.7480690588
20
215.3178662971
11
254.6518190016
21
215.2242493347
0
LINE
8
10000_FRONT
62
7
6
CONTINUOUS
10
255.1651523222
20
214.4753131584
11
255.2614023794
21
214.5689301208
0
LINE
8
10000_FRONT
62
7
6
CONTINUOUS
10
242.9218189825
20
201.9285044388
11
242.8255694021
21
201.8348874763
0
LINE
8
10000_FRONT
62
7
6
CONTINUOUS
10
254.7159857858
20
216.3476538376
11
254.5555689443
21
216.2072281555
0
LINE
8
10000_FRONT
62
7
6
CONTINUOUS
10
255.1972355951
20
214.2412705139
11
255.3576524366
21
214.3816961960
0
LINE
8
11000_LEFT
62
7
6
CONTINUOUS
10
356.8729186692
20
302.5721426944
11
356.8762311004
21
302.5747968380
0
LINE
8
11000_LEFT
62
7
6
CONTINUOUS
10
356.8729186692
20
296.3721426944
11
356.8762311004
21
296.3747968380
0
LINE
8
11000_LEFT
62
7
6
CONTINUOUS
10
356.8729186692
20
293.2721426944
11
356.8762311004
21
293.2747968380
0
LINE
8
11000_LEFT
62
7
6
CONTINUOUS
10
356.8729186692
20
290.1721426944
11
356.8762311004
21
290.1747968380
0
LINE
8
11000_LEFT
62
7
6
CONTINUOUS
10
356.8729186692
20
287.0721426944
11
356.8762311004
21
287.0747968380
0
LINE
8
10000_FRONT
62
7
6
CONTINUOUS
10
242.0555689443
20
216.2540363983
11
242.1839020361
21
216.3476538376
0
LINE
8
10000_FRONT
62
7
6
CONTINUOUS
10
242.0555689443
20
203.7540363983
11
242.1839020361
21
203.8476538376
0
LINE
8
10000_FRONT
62
7
6
CONTINUOUS
10
242.6972353567
20
201.9753131584
11
242.7614023794
21
202.0221214012
0
LINE
8
10000_FRONT
62
7
6
CONTINUOUS
10
242.8255694021
20
201.8348874763
11
242.6972353567
21
201.7412705139
0
LINE
8
10000_FRONT
62
7
6
CONTINUOUS
10
256.2056575308
20
219.6621336064
11
256.1095061695
21
219.6121329608
0
LINE
8
10000_FRONT
62
7
6
CONTINUOUS
10
254.7480690588
20
216.1136107162
11
254.8443191160
21
216.1604189590
0
LINE
8
10000_FRONT
62
7
6
CONTINUOUS
10
254.8443191160
20
215.3646745399
11
254.7480690588
21
215.3178662971
0
LINE
8
10000_FRONT
62
7
6
CONTINUOUS
10
255.0689022650
20
214.4285044388
11
255.1651523222
21
214.4753131584
0
LINE
8
10000_FRONT
62
7
6
CONTINUOUS
10
254.7159855474
20
227.8178661019
11
254.8443186392
21
227.8646748215
0
LINE
8
10000_FRONT
62
7
6
CONTINUOUS
10
255.1651527990
20
226.9753129632
11
255.0368187536
21
226.9285047204
0
LINE
8
11000_LEFT
62
7
6
CONTINUOUS
10
349.3266152586
20
254.8230123943
11
349.2354204999
21
254.7897998518
0
LINE
8
10000_FRONT
62
7
6
CONTINUOUS
10
254.8443186392
20
228.0987174660
11
254.6839020361
21
228.0519087464
0
LINE
8
10000_FRONT
62
7
6
CONTINUOUS
10
255.0368187536
20
226.6944620759
11
255.1972353567
21
226.7412703187
0
LINE
8
10000_FRONT
62
7
6
CONTINUOUS
10
242.3764021505
20
216.1604189590
11
242.2159855474
21
216.1136107162
0
LINE
8
10000_FRONT
62
7
6
CONTINUOUS
10
241.7823140742
20
181.2923187380
11
255.7823140742
21
181.2923187380
0
LINE
8
11000_LEFT
62
7
6
CONTINUOUS
10
339.4829186692
20
181.2923187380
11
374.9829186692
21
181.2923187380
0
LINE
8
10000_FRONT
62
7
6
CONTINUOUS
10
255.6823140742
20
183.0923187380
11
254.5823140742
21
183.0923187380
0
LINE
8
10000_FRONT
62
7
6
CONTINUOUS
10
254.1823140742
20
183.0923187380
11
249.3823140742
21
183.0923187380
0
LINE
8
10000_FRONT
62
7
6
CONTINUOUS
10
248.1823140742
20
183.0923187380
11
243.3823140742
21
183.0923187380
0
LINE
8
10000_FRONT
62
7
6
CONTINUOUS
10
242.9823140742
20
183.0923187380
11
241.8823140742
21
183.0923187380
0
LINE
8
10000_FRONT
62
7
6
CONTINUOUS
10
241.8823140742
20
187.9923187380
11
242.9823140742
21
187.9923187380
0
LINE
8
10000_FRONT
62
7
6
CONTINUOUS
10
243.3823140742
20
187.9923187380
11
248.1823140742
21
187.9923187380
0
LINE
8
10000_FRONT
62
7
6
CONTINUOUS
10
249.3823140742
20
187.9923187380
11
254.1823140742
21
187.9923187380
0
LINE
8
10000_FRONT
62
7
6
CONTINUOUS
10
254.5823140742
20
187.9923187380
11
255.6823140742
21
187.9923187380
0
LINE
8
10000_FRONT
62
7
6
CONTINUOUS
10
242.8255694021
20
189.1944619850
11
242.6330692877
21
189.1944619850
0
LINE
8
10000_FRONT
62
7
6
CONTINUOUS
10
254.8443191160
20
189.1944619850
11
255.0368189920
21
189.1944619850
0
LINE
8
10000_FRONT
62
7
6
CONTINUOUS
10
254.8764023889
20
189.4285046295
11
255.0047357191
21
189.4285046295
0
LINE
8
10000_FRONT
62
7
6
CONTINUOUS
10
243.1464026083
20
189.8497811989
11
242.8255694021
21
189.8497811989
0
LINE
8
10000_FRONT
62
7
6
CONTINUOUS
10
242.6330692877
20
189.8497811989
11
241.8630688299
21
189.8497811989
0
LINE
8
10000_FRONT
62
7
6
CONTINUOUS
10
242.6330692877
20
190.1306320862
11
242.0876524557
21
190.1306320862
0
LINE
8
10000_FRONT
62
7
6
CONTINUOUS
10
242.8255694021
20
190.1306320862
11
243.1464026083
21
190.1306320862
0
LINE
8
10000_FRONT
62
7
6
CONTINUOUS
10
255.0047357191
20
190.2242495254
11
254.8764023889
21
190.2242495254
0
LINE
8
10000_FRONT
62
7
6
CONTINUOUS
10
254.8764023889
20
190.4114834503
11
255.0047357191
21
190.4114834503
0
LINE
8
10000_FRONT
62
7
6
CONTINUOUS
10
255.0047357191
20
191.1604191498
11
254.8764023889
21
191.1604191498
0
LINE
8
10000_FRONT
62
7
6
CONTINUOUS
10
255.0047357191
20
191.3944622711
11
254.8764023889
21
191.3944622711
0
LINE
8
10000_FRONT
62
7
6
CONTINUOUS
10
242.6330692877
20
191.3944622711
11
242.8255694021
21
191.3944622711
0
LINE
8
10000_FRONT
62
7
6
CONTINUOUS
10
241.4551219790
20
194.6121329608
11
241.5823140742
21
194.5923187380
0
LINE
8
10000_FRONT
62
7
6
CONTINUOUS
10
242.6972353567
20
202.6774406151
11
242.5047352422
21
202.7242493347
0
LINE
8
10000_FRONT
62
7
6
CONTINUOUS
10
254.6839022745
20
189.2412707046
11
254.8443191160
21
189.1944619850
0
LINE
8
10000_FRONT
62
7
6
CONTINUOUS
10
255.1651523222
20
191.3476530746
11
255.0047357191
21
191.3944622711
0
LINE
8
10000_FRONT
62
7
6
CONTINUOUS
10
242.1839020361
20
201.9753131584
11
242.3443186392
21
201.9285044388
0
LINE
8
10000_FRONT
62
7
6
CONTINUOUS
10
242.6651527990
20
203.6136107162
11
242.5047352422
21
203.6604189590
0
LINE
8
10000_FRONT
62
7
6
CONTINUOUS
10
254.7480690588
20
189.4753128723
11
254.8764023889
21
189.4285046295
0
LINE
8
10000_FRONT
62
7
6
CONTINUOUS
10
255.1330690492
20
190.1774403290
11
255.0047357191
21
190.2242495254
0
LINE
8
10000_FRONT
62
7
6
CONTINUOUS
10
254.7480690588
20
190.4582916931
11
254.8764023889
21
190.4114834503
0
LINE
8
10000_FRONT
62
7
6
CONTINUOUS
10
255.1330690492
20
191.1136109070
11
255.0047357191
21
191.1604191498
0
LINE
8
10000_FRONT
62
7
6
CONTINUOUS
10
242.3122360815
20
201.6944617943
11
242.1839020361
21
201.7412705139
0
LINE
8
10000_FRONT
62
7
6
CONTINUOUS
10
241.3589706177
20
207.1621336064
11
241.4551219790
21
207.1121329608
0
LINE
8
10000_FRONT
62
7
6
CONTINUOUS
10
242.7614023794
20
202.8178662971
11
242.9218189825
21
202.7242493347
0
LINE
8
10000_FRONT
62
7
6
CONTINUOUS
10
242.6972353567
20
203.8476538376
11
242.8255694021
21
203.7540363983
0
LINE
8
10000_FRONT
62
7
6
CONTINUOUS
10
242.7293188680
20
216.3476538376
11
242.8576519598
21
216.2540363983
0
LINE
8
10000_FRONT
62
7
6
CONTINUOUS
10
254.5555689443
20
214.3816961960
11
254.7159857858
21
214.2412705139
0
LINE
8
10000_FRONT
62
7
6
CONTINUOUS
10
255.3576524366
20
215.4114832596
11
255.1972355951
21
215.5519089416
0
LINE
8
10000_FRONT
62
7
6
CONTINUOUS
10
255.3255689253
20
216.2072281555
11
255.1651523222
21
216.3476538376
0
LINE
8
10000_FRONT
62
7
6
CONTINUOUS
10
242.7614023794
20
216.0199942306
11
242.6651527990
21
216.1136107162
0
LINE
8
10000_FRONT
62
7
6
CONTINUOUS
10
254.6518190016
20
214.5689301208
11
254.7480690588
21
214.4753131584
0
LINE
8
10000_FRONT
62
7
6
CONTINUOUS
10
255.2614023794
20
215.2242493347
11
255.1651523222
21
215.3178662971
0
LINE
8
10000_FRONT
62
7
6
CONTINUOUS
10
255.1330690492
20
216.1136107162
11
255.2293191065
21
216.0199942306
0
LINE
8
10000_FRONT
62
7
6
CONTINUOUS
10
242.7823140742
20
235.7923187380
11
243.2823140742
21
235.2923187380
0
LINE
8
10000_FRONT
62
7
6
CONTINUOUS
10
241.3010736686
20
219.7292643297
11
241.3589706177
21
219.6621336064
0
LINE
8
10000_FRONT
62
7
6
CONTINUOUS
10
255.3255689253
20
215.1306323723
11
255.2614023794
21
215.2242493347
0
LINE
8
10000_FRONT
62
7
6
CONTINUOUS
10
255.4539022554
20
215.2710575775
11
255.3576524366
21
215.4114832596
0
LINE
8
10000_FRONT
62
7
6
CONTINUOUS
10
254.4593191255
20
214.5689301208
11
254.5555689443
21
214.3816961960
0
LINE
8
10000_FRONT
62
7
6
CONTINUOUS
10
255.4218189825
20
216.0199942306
11
255.3255689253
21
216.2072281555
0
LINE
8
10000_FRONT
62
7
6
CONTINUOUS
10
254.4272358526
20
227.0689299256
11
254.5234854330
21
226.8816960007
0
LINE
8
10000_FRONT
62
7
6
CONTINUOUS
10
255.4539024938
20
227.7242491395
11
255.3576519598
21
227.9114830643
0
LINE
8
10000_FRONT
62
7
6
CONTINUOUS
10
254.5876524557
20
214.7093558029
11
254.6518190016
21
214.5689301208
0
LINE
8
10000_FRONT
62
7
6
CONTINUOUS
10
255.2293191065
20
216.0199942306
11
255.2934856523
21
215.8795685486
0
LINE
8
10000_FRONT
62
7
6
CONTINUOUS
10
255.2614023794
20
227.7242491395
11
255.3255694021
21
227.5838234574
0
LINE
8
10000_FRONT
62
7
6
CONTINUOUS
10
254.3630688299
20
227.2561643273
11
254.4272358526
21
227.0689299256
0
LINE
8
10000_FRONT
62
7
6
CONTINUOUS
10
254.6197359670
20
227.0689299256
11
254.5555689443
21
227.2561643273
0
LINE
8
10000_FRONT
62
7
6
CONTINUOUS
10
255.5180685629
20
227.4902064950
11
255.4539024938
21
227.7242491395
0
LINE
8
10000_FRONT
62
7
6
CONTINUOUS
10
251.5630686392
20
296.6611287743
11
251.6098778356
21
296.4777953774
0
LINE
8
10000_FRONT
62
7
6
CONTINUOUS
10
252.6396648992
20
294.4152953774
11
252.5928566564
21
294.5986287743
0
LINE
8
10000_FRONT
62
7
6
CONTINUOUS
10
253.4822180380
20
295.0569617898
11
253.5290262808
21
294.8736283928
0
LINE
8
10000_FRONT
62
7
6
CONTINUOUS
10
253.4354097952
20
297.1194617898
11
253.4822180380
21
296.9361288697
0
LINE
8
10000_FRONT
62
7
6
CONTINUOUS
10
255.3255694021
20
227.5838234574
11
255.3576519598
21
227.4433982522
0
LINE
8
10000_FRONT
62
7
6
CONTINUOUS
10
252.3588135351
20
294.5986287743
11
252.4056217779
21
294.3694617898
0
LINE
8
10000_FRONT
62
7
6
CONTINUOUS
10
251.7971117605
20
298.7236287743
11
251.8439200033
21
298.4944617898
0
LINE
8
10000_FRONT
62
7
6
CONTINUOUS
10
251.7971117605
20
304.0402953178
11
251.8439200033
21
303.8111286313
0
LINE
8
10000_FRONT
62
7
6
CONTINUOUS
10
253.7630694021
20
294.8736283928
11
253.7162602056
21
295.1027953774
0
LINE
8
10000_FRONT
62
7
6
CONTINUOUS
10
253.7630694021
20
296.9361288697
11
253.7162602056
21
297.1652953774
0
LINE
8
10000_FRONT
62
7
6
CONTINUOUS
10
253.5290262808
20
304.0402953178
11
253.4822180380
21
304.2694620043
0
LINE
8
10000_FRONT
62
7
6
CONTINUOUS
10
255.1053983529
20
303.4797641885
11
255.0823140742
21
303.5969467216
0
LINE
8
10000_FRONT
62
7
6
CONTINUOUS
10
251.5630686392
20
304.0402953178
11
251.6098778356
21
303.7652953118
0
LINE
8
10000_FRONT
62
7
6
CONTINUOUS
10
253.7630694021
20
304.0402953178
11
253.7162602056
21
304.3152953536
0
LINE
8
10000_FRONT
62
7
6
CONTINUOUS
10
251.6098778356
20
298.4486286789
11
251.5630686392
21
298.7694618851
0
LINE
8
11000_LEFT
62
7
6
CONTINUOUS
10
357.2989590713
20
302.6353641448
11
357.3229186692
21
302.6624187169
0
LINE
8
11000_LEFT
62
7
6
CONTINUOUS
10
357.2989590713
20
299.5353641448
11
357.3229186692
21
299.5624187169
0
LINE
8
11000_LEFT
62
7
6
CONTINUOUS
10
357.2989590713
20
296.4353641448
11
357.3229186692
21
296.4624187169
0
LINE
8
11000_LEFT
62
7
6
CONTINUOUS
10
357.2989590713
20
293.3353641448
11
357.3229186692
21
293.3624187169
0
LINE
8
11000_LEFT
62
7
6
CONTINUOUS
10
357.2989590713
20
290.2353641448
11
357.3229186692
21
290.2624187169
0
LINE
8
11000_LEFT
62
7
6
CONTINUOUS
10
357.2989590713
20
287.1353641448
11
357.3229186692
21
287.1624187169
0
LINE
8
10000_FRONT
62
7
6
CONTINUOUS
10
255.1330690492
20
190.4582916931
11
255.2614023794
21
190.5987173752
0
LINE
8
10000_FRONT
62
7
6
CONTINUOUS
10
254.7159857858
20
191.3476530746
11
254.5555689443
21
191.2072283462
0
LINE
8
10000_FRONT
62
7
6
CONTINUOUS
10
255.1972355951
20
189.2412707046
11
255.3576524366
21
189.3816959099
0
LINE
8
11000_LEFT
62
7
6
CONTINUOUS
10
349.1443443143
20
254.7377799102
11
349.0605970917
21
254.6675651545
0
LINE
8
10000_FRONT
62
7
6
CONTINUOUS
10
254.6197357286
20
190.3178660110
11
254.5555689443
21
190.2710577682
0
LINE
8
10000_FRONT
62
7
6
CONTINUOUS
10
254.7480690588
20
190.1774403290
11
254.6197357286
21
190.0838238434
0
LINE
8
10000_FRONT
62
7
6
CONTINUOUS
10
255.2614023794
20
190.3178660110
11
255.3255689253
21
190.3646752075
0
LINE
8
10000_FRONT
62
7
6
CONTINUOUS
10
255.1330690492
20
189.4753128723
11
255.2614023794
21
189.5689298347
0
LINE
8
11000_LEFT
62
7
6
CONTINUOUS
10
349.2354204999
20
254.7897998518
11
349.1443443143
21
254.7377799102
0
LINE
8
10000_FRONT
62
7
6
CONTINUOUS
10
256.2056575308
20
207.1621336064
11
256.1095061695
21
207.1121329608
0
LINE
8
10000_FRONT
62
7
6
CONTINUOUS
10
256.2056575308
20
194.6621336064
11
256.1095061695
21
194.6121329608
0
LINE
8
10000_FRONT
62
7
6
CONTINUOUS
10
242.5047352422
20
202.9114832596
11
242.6972353567
21
203.0051002220
0
LINE
8
10000_FRONT
62
7
6
CONTINUOUS
10
242.6972353567
20
201.7412705139
11
242.5689022650
21
201.6944617943
0
LINE
8
10000_FRONT
62
7
6
CONTINUOUS
10
254.8764023889
20
216.3944620804
11
254.7159857858
21
216.3476538376
0
LINE
8
10000_FRONT
62
7
6
CONTINUOUS
10
254.8764023889
20
215.5987171844
11
254.7159857858
21
215.5519089416
0
LINE
8
10000_FRONT
62
7
6
CONTINUOUS
10
255.0368189920
20
214.1944617943
11
255.1972355951
21
214.2412705139
0
LINE
8
10000_FRONT
62
7
6
CONTINUOUS
10
242.3764021505
20
203.6604189590
11
242.2159855474
21
203.6136107162
0
LINE
8
10000_FRONT
62
7
6
CONTINUOUS
10
242.5368187536
20
201.9285044388
11
242.6972353567
21
201.9753131584
0
LINE
8
10000_FRONT
62
7
6
CONTINUOUS
10
256.1095061695
20
194.6121329608
11
255.9823140742
21
194.5923187380
0
LINE
8
10000_FRONT
62
7
6
CONTINUOUS
10
255.9823140742
20
194.5923187380
11
241.5823140742
21
194.5923187380
0
LINE
8
10000_FRONT
62
7
6
CONTINUOUS
10
255.6823140742
20
195.5923187380
11
254.5823140742
21
195.5923187380
0
LINE
8
10000_FRONT
62
7
6
CONTINUOUS
10
254.1823140742
20
195.5923187380
11
249.3823140742
21
195.5923187380
0
LINE
8
10000_FRONT
62
7
6
CONTINUOUS
10
248.1823140742
20
195.5923187380
11
243.3823140742
21
195.5923187380
0
LINE
8
10000_FRONT
62
7
6
CONTINUOUS
10
242.9823140742
20
195.5923187380
11
241.8823140742
21
195.5923187380
0
LINE
8
11000_LEFT
62
7
6
CONTINUOUS
10
348.9829186692
20
198.7923187380
11
342.0829186692
21
198.7923187380
0
LINE
8
11000_LEFT
62
7
6
CONTINUOUS
10
339.4829186692
20
200.1923187380
11
342.0829186692
21
200.1923187380
0
LINE
8
10000_FRONT
62
7
6
CONTINUOUS
10
241.8823140742
20
200.4923187380
11
242.9823140742
21
200.4923187380
0
LINE
8
10000_FRONT
62
7
6
CONTINUOUS
10
243.3823140742
20
200.4923187380
11
248.1823140742
21
200.4923187380
0
LINE
8
10000_FRONT
62
7
6
CONTINUOUS
10
249.3823140742
20
200.4923187380
11
254.1823140742
21
200.4923187380
0
LINE
8
10000_FRONT
62
7
6
CONTINUOUS
10
254.5823140742
20
200.4923187380
11
255.6823140742
21
200.4923187380
0
LINE
8
10000_FRONT
62
7
6
CONTINUOUS
10
254.8764023889
20
201.6944617943
11
254.6839022745
21
201.6944617943
0
LINE
8
10000_FRONT
62
7
6
CONTINUOUS
10
242.5689022650
20
201.6944617943
11
242.3122360815
21
201.6944617943
0
LINE
8
10000_FRONT
62
7
6
CONTINUOUS
10
242.3443186392
20
201.9285044388
11
242.5368187536
21
201.9285044388
0
LINE
8
10000_FRONT
62
7
6
CONTINUOUS
10
241.8630688299
20
202.2093558029
11
242.0234854330
21
202.2093558029
0
LINE
8
10000_FRONT
62
7
6
CONTINUOUS
10
242.5047352422
20
202.7242493347
11
242.3764021505
21
202.7242493347
0
LINE
8
10000_FRONT
62
7
6
CONTINUOUS
10
242.3764021505
20
202.9114832596
11
242.5047352422
21
202.9114832596
0
LINE
8
10000_FRONT
62
7
6
CONTINUOUS
10
242.0555689443
20
203.3795685486
11
241.8951523412
21
203.3795685486
0
LINE
8
10000_FRONT
62
7
6
CONTINUOUS
10
255.3255689253
20
203.6604189590
11
254.3630690683
21
203.6604189590
0
LINE
8
10000_FRONT
62
7
6
CONTINUOUS
10
242.5047352422
20
203.6604189590
11
242.3764021505
21
203.6604189590
0
LINE
8
10000_FRONT
62
7
6
CONTINUOUS
10
242.4084856619
20
203.8944620804
11
242.4726526846
21
203.8944620804
0
LINE
8
10000_FRONT
62
7
6
CONTINUOUS
10
254.3630690683
20
203.8944620804
11
255.5180690397
21
203.8944620804
0
LINE
8
11000_LEFT
62
7
6
CONTINUOUS
10
353.9829186692
20
206.1923187380
11
355.9829186692
21
206.1923187380
0
LINE
8
11000_LEFT
62
7
6
CONTINUOUS
10
354.2038817809
20
206.2923187380
11
355.8829186692
21
206.2923187380
0
LINE
8
10000_FRONT
62
7
6
CONTINUOUS
10
255.9823140742
20
207.0923187380
11
241.5823140742
21
207.0923187380
0
LINE
8
11000_LEFT
62
7
6
CONTINUOUS
10
353.9829186692
20
207.7423187380
11
354.0829186692
21
207.7423187380
0
LINE
8
11000_LEFT
62
7
6
CONTINUOUS
10
343.0329186692
20
207.9423187380
11
342.8329186692
21
207.9423187380
0
LINE
8
11000_LEFT
62
7
6
CONTINUOUS
10
348.3329186692
20
207.9423187380
11
348.5329186692
21
207.9423187380
0
LINE
8
10000_FRONT
62
7
6
CONTINUOUS
10
255.6823140742
20
208.0923187380
11
254.5823140742
21
208.0923187380
0
LINE
8
10000_FRONT
62
7
6
CONTINUOUS
10
254.1823140742
20
208.0923187380
11
249.3823140742
21
208.0923187380
0
LINE
8
10000_FRONT
62
7
6
CONTINUOUS
10
248.1823140742
20
208.0923187380
11
243.3823140742
21
208.0923187380
0
LINE
8
10000_FRONT
62
7
6
CONTINUOUS
10
242.9823140742
20
208.0923187380
11
241.8823140742
21
208.0923187380
0
LINE
8
10000_FRONT
62
7
6
CONTINUOUS
10
234.5823140742
20
208.1423187380
11
241.0823140742
21
208.1423187380
0
LINE
8
11000_LEFT
62
7
6
CONTINUOUS
10
342.8329186692
20
208.1423187380
11
343.0329186692
21
208.1423187380
0
LINE
8
11000_LEFT
62
7
6
CONTINUOUS
10
348.3329186692
20
208.1423187380
11
348.5329186692
21
208.1423187380
0
LINE
8
11000_LEFT
62
7
6
CONTINUOUS
10
354.2038817809
20
209.2923187380
11
355.8829186692
21
209.2923187380
0
LINE
8
11000_LEFT
62
7
6
CONTINUOUS
10
353.9829186692
20
209.3923187380
11
355.9829186692
21
209.3923187380
0
LINE
8
11000_LEFT
62
7
6
CONTINUOUS
10
345.0829186692
20
209.5923187380
11
345.8829186692
21
209.5923187380
0
LINE
8
11000_LEFT
62
7
6
CONTINUOUS
10
371.7829186692
20
212.4923187380
11
364.6829186692
21
212.4923187380
0
LINE
8
10000_FRONT
62
7
6
CONTINUOUS
10
241.4551219790
20
207.1121329608
11
241.5823140742
21
207.0923187380
0
LINE
8
10000_FRONT
62
7
6
CONTINUOUS
10
241.4551219790
20
219.6121329608
11
241.5823140742
21
219.5923187380
0
LINE
8
10000_FRONT
62
7
6
CONTINUOUS
10
242.4726526846
20
203.8944620804
11
242.6972353567
21
203.8476538376
0
LINE
8
10000_FRONT
62
7
6
CONTINUOUS
10
242.5368187536
20
216.3944620804
11
242.7293188680
21
216.3476538376
0
LINE
8
10000_FRONT
62
7
6
CONTINUOUS
10
242.6651527990
20
216.1136107162
11
242.5047352422
21
216.1604189590
0
LINE
8
10000_FRONT
62
7
6
CONTINUOUS
10
254.7159857858
20
214.2412705139
11
254.8764023889
21
214.1944617943
0
LINE
8
10000_FRONT
62
7
6
CONTINUOUS
10
255.1972355951
20
215.5519089416
11
255.0368189920
21
215.5987171844
0
LINE
8
10000_FRONT
62
7
6
CONTINUOUS
10
255.1651523222
20
216.3476538376
11
255.0047357191
21
216.3944620804
0
LINE
8
10000_FRONT
62
7
6
CONTINUOUS
10
254.8443186392
20
226.9285047204
11
254.7159855474
21
226.9753129632
0
LINE
8
10000_FRONT
62
7
6
CONTINUOUS
10
255.0368187536
20
227.8646748215
11
255.1651527990
21
227.8178661019
0
LINE
8
10000_FRONT
62
7
6
CONTINUOUS
10
254.7480690588
20
214.4753131584
11
254.8443191160
21
214.4285044388
0
LINE
8
10000_FRONT
62
7
6
CONTINUOUS
10
255.1651523222
20
215.3178662971
11
255.0689022650
21
215.3646745399
0
LINE
8
10000_FRONT
62
7
6
CONTINUOUS
10
255.0368189920
20
216.1604189590
11
255.1330690492
21
216.1136107162
0
LINE
8
10000_FRONT
62
7
6
CONTINUOUS
10
241.3589706177
20
219.6621336064
11
241.4551219790
21
219.6121329608
0
LINE
8
10000_FRONT
62
7
6
CONTINUOUS
10
234.4059784985
20
249.9899153250
11
237.7059870935
21
247.5923187380
0
LINE
8
10000_FRONT
62
7
6
CONTINUOUS
10
254.5234854330
20
226.8816960007
11
254.6839020361
21
226.7412703187
0
LINE
8
10000_FRONT
62
7
6
CONTINUOUS
10
255.3576519598
20
227.9114830643
11
255.1972353567
21
228.0519087464
0
LINE
8
10000_FRONT
62
7
6
CONTINUOUS
10
254.7159855474
20
226.9753129632
11
254.6197359670
21
227.0689299256
0
LINE
8
10000_FRONT
62
7
6
CONTINUOUS
10
255.1651527990
20
227.8178661019
11
255.2614023794
21
227.7242491395
0
LINE
8
10000_FRONT
62
7
6
CONTINUOUS
10
241.2897765896
20
303.4147239363
11
241.3131845458
21
303.3705661930
0
LINE
8
10000_FRONT
62
7
6
CONTINUOUS
10
251.6098778356
20
296.4777953774
11
251.7034943212
21
296.2944619805
0
LINE
8
10000_FRONT
62
7
6
CONTINUOUS
10
251.7034943212
20
298.2652952820
11
251.6098778356
21
298.4486286789
0
LINE
8
10000_FRONT
62
7
6
CONTINUOUS
10
253.7162602056
20
297.1652953774
11
253.6226437200
21
297.3486287743
0
LINE
8
10000_FRONT
62
7
6
CONTINUOUS
10
251.8907282461
20
296.5236284882
11
251.8439200033
21
296.6611287743
0
LINE
8
11000_LEFT
62
7
6
CONTINUOUS
10
348.9905656152
20
254.5829943686
11
348.9382821463
21
254.4904121636
0
LINE
8
13000_TOP
62
7
6
CONTINUOUS
10
241.2975811190
20
117.7444855122
11
241.3408927180
21
117.8078509491
0
LINE
8
11000_LEFT
62
7
6
CONTINUOUS
10
349.0605970917
20
254.6675651545
11
348.9905656152
21
254.5829943686
0
LINE
8
13000_TOP
62
7
6
CONTINUOUS
10
242.7823140742
20
125.7749098835
11
242.8209702129
21
125.8158852768
0
LINE
8
13000_TOP
62
7
6
CONTINUOUS
10
249.5323140742
20
125.7749098835
11
249.5709702129
21
125.8158852768
0
LINE
8
11000_LEFT
62
7
6
CONTINUOUS
10
339.9093422328
20
228.3685281419
11
344.5787238532
21
231.6380643513
0
LINE
8
11000_LEFT
62
7
6
CONTINUOUS
10
357.4829186692
20
220.6997960261
11
348.9829186692
21
215.7923187380
0
LINE
8
11000_LEFT
62
7
6
CONTINUOUS
10
348.9829186692
20
215.6923187380
11
357.4829186692
21
220.5997960261
0
LINE
8
11000_LEFT
62
7
6
CONTINUOUS
10
381.6816949884
20
233.1803746840
11
381.6230440504
21
233.1530775511
0
LINE
8
11000_LEFT
62
7
6
CONTINUOUS
10
381.7465225661
20
233.2044507723
11
381.6816949884
21
233.1803746840
0
LINE
8
10000_FRONT
62
7
6
CONTINUOUS
10
254.8764023889
20
191.1604191498
11
254.7480690588
21
191.1136109070
0
LINE
8
10000_FRONT
62
7
6
CONTINUOUS
10
255.0047357191
20
190.4114834503
11
255.1330690492
21
190.4582916931
0
LINE
8
10000_FRONT
62
7
6
CONTINUOUS
10
254.8764023889
20
190.2242495254
11
254.7480690588
21
190.1774403290
0
LINE
8
10000_FRONT
62
7
6
CONTINUOUS
10
255.0047357191
20
189.4285046295
11
255.1330690492
21
189.4753128723
0
LINE
8
11000_LEFT
62
7
6
CONTINUOUS
10
380.9829186692
20
219.5923187380
11
382.9829186692
21
220.3202592065
0
LINE
8
10000_FRONT
62
7
6
CONTINUOUS
10
254.8764023889
20
191.3944622711
11
254.7159857858
21
191.3476530746
0
LINE
8
10000_FRONT
62
7
6
CONTINUOUS
10
255.0368189920
20
189.1944619850
11
255.1972355951
21
189.2412707046
0
LINE
8
10000_FRONT
62
7
6
CONTINUOUS
10
242.1839020361
20
203.8476538376
11
242.4084856619
21
203.8944620804
0
LINE
8
10000_FRONT
62
7
6
CONTINUOUS
10
242.1839020361
20
216.3476538376
11
242.4084856619
21
216.3944620804
0
LINE
8
10000_FRONT
62
7
6
CONTINUOUS
10
256.1095061695
20
207.1121329608
11
255.9823140742
21
207.0923187380
0
LINE
8
10000_FRONT
62
7
6
CONTINUOUS
10
256.1095061695
20
219.6121329608
11
255.9823140742
21
219.5923187380
0
LINE
8
11000_LEFT
62
7
6
CONTINUOUS
10
345.8829186692
20
212.9723187380
11
345.0829186692
21
212.9723187380
0
LINE
8
10000_FRONT
62
7
6
CONTINUOUS
10
241.8823140742
20
212.9923187380
11
242.9823140742
21
212.9923187380
0
LINE
8
10000_FRONT
62
7
6
CONTINUOUS
10
243.3823140742
20
212.9923187380
11
248.1823140742
21
212.9923187380
0
LINE
8
10000_FRONT
62
7
6
CONTINUOUS
10
249.3823140742
20
212.9923187380
11
254.1823140742
21
212.9923187380
0
LINE
8
10000_FRONT
62
7
6
CONTINUOUS
10
254.5823140742
20
212.9923187380
11
255.6823140742
21
212.9923187380
0
LINE
8
11000_LEFT
62
7
6
CONTINUOUS
10
345.0829186692
20
212.9923187380
11
345.8829186692
21
212.9923187380
0
LINE
8
11000_LEFT
62
7
6
CONTINUOUS
10
343.6329186692
20
214.0423187380
11
347.7329186692
21
214.0423187380
0
LINE
8
10000_FRONT
62
7
6
CONTINUOUS
10
243.0180685629
20
214.1944617943
11
241.8630688299
21
214.1944617943
0
LINE
8
10000_FRONT
62
7
6
CONTINUOUS
10
254.8764023889
20
214.1944617943
11
255.0368189920
21
214.1944617943
0
LINE
8
11000_LEFT
62
7
6
CONTINUOUS
10
343.6329186692
20
214.2423187380
11
347.7329186692
21
214.2423187380
0
LINE
8
10000_FRONT
62
7
6
CONTINUOUS
10
242.1197359670
20
214.4285044388
11
243.0180685629
21
214.4285044388
0
LINE
8
10000_FRONT
62
7
6
CONTINUOUS
10
254.8443191160
20
214.4285044388
11
255.0689022650
21
214.4285044388
0
LINE
8
11000_LEFT
62
7
6
CONTINUOUS
10
348.9829186692
20
215.3423187387
11
348.8329186692
21
215.3423187380
0
LINE
8
10000_FRONT
62
7
6
CONTINUOUS
10
255.0689022650
20
215.3646745399
11
254.8443191160
21
215.3646745399
0
LINE
8
10000_FRONT
62
7
6
CONTINUOUS
10
255.0368189920
20
215.5987171844
11
254.8764023889
21
215.5987171844
0
LINE
8
10000_FRONT
62
7
6
CONTINUOUS
10
234.5823140742
20
215.6423187380
11
241.2823140742
21
215.6423187380
0
LINE
8
11000_LEFT
62
7
6
CONTINUOUS
10
342.8329186692
20
215.6423187380
11
348.9829186692
21
215.6423187380
0
LINE
8
11000_LEFT
62
7
6
CONTINUOUS
10
345.8829186692
20
215.7923187380
11
349.1561237499
21
215.7923187380
0
LINE
8
11000_LEFT
62
7
6
CONTINUOUS
10
342.8329186692
20
215.8423187380
11
345.8829186692
21
215.8423187380
0
LINE
8
10000_FRONT
62
7
6
CONTINUOUS
10
242.0555689443
20
215.8795685486
11
241.8951523412
21
215.8795685486
0
LINE
8
10000_FRONT
62
7
6
CONTINUOUS
10
255.2934856523
20
215.8795685486
11
255.4539022554
21
215.8795685486
0
LINE
8
10000_FRONT
62
7
6
CONTINUOUS
10
242.5047352422
20
216.1604189590
11
242.3764021505
21
216.1604189590
0
LINE
8
10000_FRONT
62
7
6
CONTINUOUS
10
254.8443191160
20
216.1604189590
11
255.0368189920
21
216.1604189590
0
LINE
8
10000_FRONT
62
7
6
CONTINUOUS
10
255.0047357191
20
216.3944620804
11
254.8764023889
21
216.3944620804
0
LINE
8
10000_FRONT
62
7
6
CONTINUOUS
10
242.4084856619
20
216.3944620804
11
242.5368187536
21
216.3944620804
0
LINE
8
10000_FRONT
62
7
6
CONTINUOUS
10
255.9823140742
20
219.5923187380
11
241.5823140742
21
219.5923187380
0
LINE
8
10000_FRONT
62
7
6
CONTINUOUS
10
255.6823140742
20
220.5923187380
11
254.5823140742
21
220.5923187380
0
LINE
8
10000_FRONT
62
7
6
CONTINUOUS
10
254.1823140742
20
220.5923187380
11
249.3823140742
21
220.5923187380
0
LINE
8
10000_FRONT
62
7
6
CONTINUOUS
10
248.1823140742
20
220.5923187380
11
243.3823140742
21
220.5923187380
0
LINE
8
10000_FRONT
62
7
6
CONTINUOUS
10
242.9823140742
20
220.5923187380
11
241.8823140742
21
220.5923187380
0
LINE
8
10000_FRONT
62
7
6
CONTINUOUS
10
241.8823140742
20
225.4923187380
11
242.9823140742
21
225.4923187380
0
LINE
8
10000_FRONT
62
7
6
CONTINUOUS
10
243.3823140742
20
225.4923187380
11
248.1823140742
21
225.4923187380
0
LINE
8
10000_FRONT
62
7
6
CONTINUOUS
10
249.3823140742
20
225.4923187380
11
254.1823140742
21
225.4923187380
0
LINE
8
10000_FRONT
62
7
6
CONTINUOUS
10
254.5823140742
20
225.4923187380
11
255.6823140742
21
225.4923187380
0
LINE
8
10000_FRONT
62
7
6
CONTINUOUS
10
242.2480690588
20
226.6944620759
11
242.0555690039
21
226.6944620759
0
LINE
8
10000_FRONT
62
7
6
CONTINUOUS
10
254.8443186392
20
226.6944620759
11
255.0368187536
21
226.6944620759
0
LINE
8
10000_FRONT
62
7
6
CONTINUOUS
10
255.0368187536
20
226.9285047204
11
254.8443186392
21
226.9285047204
0
LINE
8
10000_FRONT
62
7
6
CONTINUOUS
10
254.5555689443
20
227.2561643273
11
254.3630688299
21
227.2561643273
0
LINE
8
10000_FRONT
62
7
6
CONTINUOUS
10
254.3630688299
20
227.6774408967
11
254.5876524557
21
227.6774408967
0
LINE
8
10000_FRONT
62
7
6
CONTINUOUS
10
254.8443186392
20
227.8646748215
11
255.0368187536
21
227.8646748215
0
LINE
8
10000_FRONT
62
7
6
CONTINUOUS
10
255.0368187536
20
228.0987174660
11
254.8443186392
21
228.0987174660
0
LINE
8
10000_FRONT
62
7
6
CONTINUOUS
10
254.5234854330
20
228.6604192406
11
255.4539024938
21
228.6604192406
0
LINE
8
10000_FRONT
62
7
6
CONTINUOUS
10
255.4539024938
20
228.8944618851
11
254.3630688299
21
228.8944618851
0
LINE
8
10000_FRONT
62
7
6
CONTINUOUS
10
242.0555690039
20
228.8944618851
11
242.2480690588
21
228.8944618851
0
LINE
8
11000_LEFT
62
7
6
CONTINUOUS
10
345.4829186692
20
229.3923187380
11
346.4829186692
21
229.3923187380
0
LINE
8
11000_LEFT
62
7
6
CONTINUOUS
10
346.4829186692
20
230.1923187380
11
344.5829186692
21
230.1923187380
0
LINE
8
11000_LEFT
62
7
6
CONTINUOUS
10
381.4829186692
20
230.4923187380
11
362.9829186692
21
230.4923187380
0
LINE
8
10000_FRONT
62
7
6
CONTINUOUS
10
256.0823140742
20
230.4923187380
11
254.7823140742
21
230.4923187380
0
LINE
8
10000_FRONT
62
7
6
CONTINUOUS
10
241.4823140742
20
230.4923187380
11
242.7823140742
21
230.4923187380
0
LINE
8
11000_LEFT
62
7
6
CONTINUOUS
10
380.9829186692
20
232.3923187380
11
380.4829186692
21
232.3923187380
0
LINE
8
10000_FRONT
62
7
6
CONTINUOUS
10
243.0823140742
20
233.2923187380
11
254.4823140742
21
233.2923187380
0
LINE
8
11000_LEFT
62
7
6
CONTINUOUS
10
362.9829186692
20
233.2923187380
11
378.1827358059
21
233.2923187380
0
LINE
8
11000_LEFT
62
7
6
CONTINUOUS
10
380.9829186692
20
233.2923187380
11
381.4829186692
21
233.2923187380
0
LINE
8
10000_FRONT
62
7
6
CONTINUOUS
10
254.6839020361
20
226.7412703187
11
254.8443186392
21
226.6944620759
0
LINE
8
10000_FRONT
62
7
6
CONTINUOUS
10
255.1972353567
20
228.0519087464
11
255.0368187536
21
228.0987174660
0
LINE
8
10000_FRONT
62
7
6
CONTINUOUS
10
245.5119452112
20
272.1834722439
11
243.6734675802
21
274.0219498750
0
LINE
8
10000_FRONT
62
7
6
CONTINUOUS
10
243.5573140742
20
275.1280528746
11
244.1684423270
21
274.5169246218
0
LINE
8
10000_FRONT
62
7
6
CONTINUOUS
10
246.0069199581
20
272.6784469907
11
246.6180482108
21
272.0673187380
0
LINE
8
10000_FRONT
62
7
6
CONTINUOUS
10
243.6734675802
20
280.5626876010
11
244.1684423270
21
280.0677128541
0
LINE
8
10000_FRONT
62
7
6
CONTINUOUS
10
252.0526829372
20
272.1834722439
11
251.5577081904
21
272.6784469907
0
LINE
8
10000_FRONT
62
7
6
CONTINUOUS
10
254.2823140742
20
271.0923187380
11
254.7823140742
21
270.5923187380
0
LINE
8
10000_FRONT
62
7
6
CONTINUOUS
10
245.5119452112
20
282.4011652321
11
246.0069199581
21
281.9061904852
0
LINE
8
10000_FRONT
62
7
6
CONTINUOUS
10
253.8911605683
20
274.0219498750
11
253.3961858215
21
274.5169246218
0
LINE
8
10000_FRONT
62
7
6
CONTINUOUS
10
250.4823140742
20
283.4523187380
11
249.9823140742
21
283.9523187380
0
LINE
8
10000_FRONT
62
7
6
CONTINUOUS
10
255.3982611114
20
281.0598055903
11
252.4284126304
21
284.0296540713
0
LINE
8
10000_FRONT
62
7
6
CONTINUOUS
10
255.5175061650
20
281.0576623478
11
252.5476576841
21
284.0275108288
0
LINE
8
10000_FRONT
62
7
6
CONTINUOUS
10
252.7800905813
20
294.2319619805
11
252.6396648992
21
294.4152953774
0
LINE
8
10000_FRONT
62
7
6
CONTINUOUS
10
251.9843456854
20
296.3861286789
11
251.8907282461
21
296.5236284882
0
LINE
8
10000_FRONT
62
7
6
CONTINUOUS
10
253.3886005987
20
295.1944615990
11
253.4822180380
21
295.0569617898
0
LINE
8
10000_FRONT
62
7
6
CONTINUOUS
10
251.8439200033
20
298.4944617898
11
251.9375374426
21
298.3569619805
0
LINE
8
10000_FRONT
62
7
6
CONTINUOUS
10
253.3417923559
20
297.2569620759
11
253.4354097952
21
297.1194617898
0
LINE
8
10000_FRONT
62
7
6
CONTINUOUS
10
251.8439200033
20
303.8111286313
11
251.9375374426
21
303.6736286432
0
LINE
8
10000_FRONT
62
7
6
CONTINUOUS
10
253.4822180380
20
304.2694620043
11
253.3886005987
21
304.4069619328
0
LINE
8
10000_FRONT
62
7
6
CONTINUOUS
10
255.1706375716
20
303.3810806408
11
255.1053983529
21
303.4797641885
0
LINE
8
10000_FRONT
62
7
6
CONTINUOUS
10
252.4056217779
20
294.3694617898
11
252.5460474600
21
294.1402957589
0
LINE
8
10000_FRONT
62
7
6
CONTINUOUS
10
253.7162602056
20
295.1027953774
11
253.5758345236
21
295.3319618851
0
LINE
8
10000_FRONT
62
7
6
CONTINUOUS
10
251.6098778356
20
303.7652953118
11
251.7503035177
21
303.5361286402
0
LINE
8
10000_FRONT
62
7
6
CONTINUOUS
10
253.7162602056
20
304.3152953536
11
253.5758345236
21
304.5444619805
0
LINE
8
11000_LEFT
62
7
6
CONTINUOUS
10
339.4829186692
20
181.2423187380
11
339.4829186692
21
227.5493760976
0
LINE
8
11000_LEFT
62
7
6
CONTINUOUS
10
339.4829186692
20
265.6923187380
11
339.4829186692
21
266.7164806542
0
LINE
8
11000_LEFT
62
7
6
CONTINUOUS
10
348.9046055555
20
254.3971146011
11
348.8875012911
21
254.3099490533
0
LINE
8
11000_LEFT
62
7
6
CONTINUOUS
10
339.4829186692
20
266.7164806542
11
349.3492459557
21
313.1339010762
0
LINE
8
11000_LEFT
62
7
6
CONTINUOUS
10
345.3829186692
20
264.7923187380
11
344.7017156191
21
262.4166813822
0
LINE
8
11000_LEFT
62
7
6
CONTINUOUS
10
346.7696640549
20
264.7923187380
11
346.4829186692
21
263.7923187380
0
LINE
8
11000_LEFT
62
7
6
CONTINUOUS
10
348.9382821463
20
254.4904121636
11
348.9046055555
21
254.3971146011
0
LINE
8
13000_TOP
62
7
6
CONTINUOUS
10
235.1823140742
20
111.3469966598
11
235.4820285407
21
111.6600824760
0
LINE
8
11000_LEFT
62
7
6
CONTINUOUS
10
369.4829186692
20
235.2923187380
11
369.9829186692
21
235.7923187380
0
LINE
8
11000_LEFT
62
7
6
CONTINUOUS
10
381.5710894943
20
233.1218192274
11
381.5249662708
21
233.0829447596
0
LINE
8
11000_LEFT
62
7
6
CONTINUOUS
10
381.6230440504
20
233.1530775511
11
381.5710894943
21
233.1218192274
0
LINE
8
11000_LEFT
62
7
6
CONTINUOUS
10
378.9829186692
20
207.0923187380
11
380.9829186692
21
207.8202592065
0
LINE
8
11000_LEFT
62
7
6
CONTINUOUS
10
376.9829186692
20
194.5923187380
11
378.9829186692
21
195.3202592065
0
LINE
8
11000_LEFT
62
7
6
CONTINUOUS
10
349.4111282702
20
254.8396717689
11
349.3266152586
21
254.8230123943
0
LINE
8
11000_LEFT
62
7
6
CONTINUOUS
10
349.4829186692
20
254.8440486273
11
349.4111282702
21
254.8396717689
0
LINE
8
11000_LEFT
62
7
6
CONTINUOUS
10
369.4829186692
20
235.2923187380
11
362.9829186692
21
235.2923187380
0
LINE
8
10000_FRONT
62
7
6
CONTINUOUS
10
243.2823140742
20
235.2923187380
11
254.2823140742
21
235.2923187380
0
LINE
8
10000_FRONT
62
7
6
CONTINUOUS
10
247.7823140742
20
235.5923187380
11
249.7823140742
21
235.5923187380
0
LINE
8
10000_FRONT
62
7
6
CONTINUOUS
10
247.6323140742
20
236.0923187380
11
249.9323140742
21
236.0923187380
0
LINE
8
10000_FRONT
62
7
6
CONTINUOUS
10
244.1823140742
20
237.3673187380
11
247.3823140742
21
237.3673187380
0
LINE
8
10000_FRONT
62
7
6
CONTINUOUS
10
250.1823140742
20
237.3673187380
11
253.3823140742
21
237.3673187380
0
LINE
8
10000_FRONT
62
7
6
CONTINUOUS
10
253.3823140742
20
239.2173187380
11
250.1823140742
21
239.2173187380
0
LINE
8
10000_FRONT
62
7
6
CONTINUOUS
10
247.3823140742
20
239.2173187380
11
244.1823140742
21
239.2173187380
0
LINE
8
10000_FRONT
62
7
6
CONTINUOUS
10
244.1823140742
20
242.4473187380
11
247.3823140742
21
242.4473187380
0
LINE
8
10000_FRONT
62
7
6
CONTINUOUS
10
250.1823140742
20
242.4473187380
11
253.3823140742
21
242.4473187380
0
LINE
8
10000_FRONT
62
7
6
CONTINUOUS
10
253.3823140742
20
244.2973187380
11
250.1823140742
21
244.2973187380
0
LINE
8
10000_FRONT
62
7
6
CONTINUOUS
10
247.3823140742
20
244.2973187380
11
244.1823140742
21
244.2973187380
0
LINE
8
10000_FRONT
62
7
6
CONTINUOUS
10
241.2823140742
20
245.4523187380
11
241.8823140742
21
245.4523187380
0
LINE
8
10000_FRONT
62
7
6
CONTINUOUS
10
255.6823140742
20
245.4523187380
11
256.2823140742
21
245.4523187380
0
LINE
8
11000_LEFT
62
7
6
CONTINUOUS
10
358.9829186692
20
245.4523187380
11
362.9829186692
21
245.4523187380
0
LINE
8
10000_FRONT
62
7
6
CONTINUOUS
10
244.1823140742
20
247.5273187380
11
247.3823140742
21
247.5273187380
0
LINE
8
10000_FRONT
62
7
6
CONTINUOUS
10
250.1823140742
20
247.5273187380
11
253.3823140742
21
247.5273187380
0
LINE
8
10000_FRONT
62
7
6
CONTINUOUS
10
237.7059870935
20
247.5923187380
11
238.1059870935
21
247.5923187380
0
LINE
8
11000_LEFT
62
7
6
CONTINUOUS
10
349.4829186692
20
247.5923187380
11
351.2829186692
21
247.5923187380
0
LINE
8
11000_LEFT
62
7
6
CONTINUOUS
10
351.8829186692
20
248.2923187380
11
351.5829186692
21
248.2923187380
0
LINE
8
11000_LEFT
62
7
6
CONTINUOUS
10
349.1829186692
20
248.2923187380
11
348.8829186692
21
248.2923187380
0
LINE
8
10000_FRONT
62
7
6
CONTINUOUS
10
253.3823140742
20
249.3773187380
11
250.1823140742
21
249.3773187380
0
LINE
8
10000_FRONT
62
7
6
CONTINUOUS
10
247.3823140742
20
249.3773187380
11
244.1823140742
21
249.3773187380
0
LINE
8
10000_FRONT
62
7
6
CONTINUOUS
10
238.4823140742
20
249.7923187380
11
239.7823140742
21
249.7923187380
0
LINE
8
10000_FRONT
62
7
6
CONTINUOUS
10
247.3323140742
20
250.5423187380
11
250.2323140742
21
250.5423187380
0
LINE
8
10000_FRONT
62
7
6
CONTINUOUS
10
250.2323140742
20
251.4423187380
11
247.3323140742
21
251.4423187380
0
LINE
8
10000_FRONT
62
7
6
CONTINUOUS
10
241.2823140742
20
251.4523187380
11
241.8823140742
21
251.4523187380
0
LINE
8
10000_FRONT
62
7
6
CONTINUOUS
10
255.6823140742
20
251.4523187380
11
256.2823140742
21
251.4523187380
0
LINE
8
11000_LEFT
62
7
6
CONTINUOUS
10
358.9829186692
20
251.4523187380
11
362.9829186692
21
251.4523187380
0
LINE
8
10000_FRONT
62
7
6
CONTINUOUS
10
244.1823140742
20
252.6073187380
11
247.3823140742
21
252.6073187380
0
LINE
8
10000_FRONT
62
7
6
CONTINUOUS
10
250.1823140742
20
252.6073187380
11
253.3823140742
21
252.6073187380
0
LINE
8
11000_LEFT
62
7
6
CONTINUOUS
10
380.4829186692
20
232.3923187380
11
378.2838702831
21
232.7800703003
0
LINE
8
11000_LEFT
62
7
6
CONTINUOUS
10
378.2975761356
20
233.2694969508
11
378.1827358059
21
233.2923187380
0
LINE
8
11000_LEFT
62
7
6
CONTINUOUS
10
377.9836874198
20
233.2923187380
11
378.0984225134
21
233.2694825977
0
LINE
8
10000_FRONT
62
7
6
CONTINUOUS
10
253.5758345236
20
295.3319618851
11
253.3886005987
21
295.4694621712
0
LINE
8
10000_FRONT
62
7
6
CONTINUOUS
10
251.8907282461
20
292.9944617898
11
251.5630686392
21
293.2694623620
0
LINE
8
10000_FRONT
62
7
6
CONTINUOUS
10
251.9375374426
20
293.2694623620
11
252.2651970495
21
292.9944617898
0
LINE
8
10000_FRONT
62
7
6
CONTINUOUS
10
251.8907282461
20
305.2319619805
11
251.5630686392
21
305.5069620759
0
LINE
8
10000_FRONT
62
7
6
CONTINUOUS
10
251.9375374426
20
305.5069620759
11
252.2651970495
21
305.2319619805
0
LINE
8
10000_FRONT
62
7
6
CONTINUOUS
10
252.8268988241
20
300.0069620759
11
251.5630686392
21
301.1069619805
0
LINE
8
10000_FRONT
62
7
6
CONTINUOUS
10
252.8268988241
20
300.3277952820
11
251.9375374426
21
301.1069619805
0
LINE
8
10000_FRONT
62
7
6
CONTINUOUS
10
241.3131845458
20
303.3705661930
11
241.3533321223
21
303.3318808210
0
LINE
8
10000_FRONT
62
7
6
CONTINUOUS
10
251.7034943212
20
296.2944619805
11
251.8907282461
21
296.1111285836
0
LINE
8
10000_FRONT
62
7
6
CONTINUOUS
10
251.8907282461
20
298.0819618851
11
251.7034943212
21
298.2652952820
0
LINE
8
10000_FRONT
62
7
6
CONTINUOUS
10
253.6226437200
20
297.3486287743
11
253.4354097952
21
297.5319621712
0
LINE
8
10000_FRONT
62
7
6
CONTINUOUS
10
251.7503035177
20
303.5361286402
11
251.8907282461
21
303.3986286447
0
LINE
8
10000_FRONT
62
7
6
CONTINUOUS
10
253.5758345236
20
304.5444619805
11
253.4354097952
21
304.6819620282
0
LINE
8
11000_LEFT
62
7
6
CONTINUOUS
10
362.1829186692
20
185.2923187380
11
363.6829186692
21
183.7923187380
0
LINE
8
10000_FRONT
62
7
6
CONTINUOUS
10
244.4823140742
20
307.3523187380
11
244.9823140742
21
306.8523187380
0
LINE
8
10000_FRONT
62
7
6
CONTINUOUS
10
253.5290262808
20
297.9902951867
11
252.3588135351
21
299.2736284882
0
LINE
8
10000_FRONT
62
7
6
CONTINUOUS
10
252.4992392172
20
299.5027952343
11
253.5290262808
21
298.3569619805
0
LINE
8
11000_LEFT
62
7
6
CONTINUOUS
10
351.8829186692
20
254.2347926602
11
351.8786252841
21
254.3075474107
0
LINE
8
11000_LEFT
62
7
6
CONTINUOUS
10
342.0829186692
20
198.7923187380
11
342.0829186692
21
200.1923187380
0
LINE
8
11000_LEFT
62
7
6
CONTINUOUS
10
342.3329186692
20
208.4423187380
11
342.3329186692
21
215.3423187380
0
LINE
8
11000_LEFT
62
7
6
CONTINUOUS
10
342.5329186692
20
215.3423187380
11
342.5329186692
21
208.4423187381
0
LINE
8
11000_LEFT
62
7
6
CONTINUOUS
10
343.3329186692
20
208.4423187380
11
343.3329186692
21
213.9423187380
0
LINE
8
11000_LEFT
62
7
6
CONTINUOUS
10
343.5329186692
20
213.9423187380
11
343.5329186692
21
208.4423187380
0
LINE
8
11000_LEFT
62
7
6
CONTINUOUS
10
344.0829186692
20
229.2794625377
11
344.0829186692
21
229.6923187380
0
LINE
8
11000_LEFT
62
7
6
CONTINUOUS
10
345.0829186692
20
209.5923187380
11
345.0829186692
21
212.9923187380
0
LINE
8
11000_LEFT
62
7
6
CONTINUOUS
10
345.8829186692
20
198.7923187380
11
345.8829186692
21
215.8423187380
0
LINE
8
11000_LEFT
62
7
6
CONTINUOUS
10
346.4829186692
20
229.3923187380
11
346.4829186692
21
263.7923187380
0
LINE
8
11000_LEFT
62
7
6
CONTINUOUS
10
347.8329186692
20
213.9423187380
11
347.8329186692
21
208.4423187380
0
LINE
8
11000_LEFT
62
7
6
CONTINUOUS
10
348.0329186692
20
213.9423187380
11
348.0329186692
21
208.4423187380
0
LINE
8
11000_LEFT
62
7
6
CONTINUOUS
10
348.8329186692
20
208.4423187380
11
348.8329186692
21
215.3423187380
0
LINE
8
11000_LEFT
62
7
6
CONTINUOUS
10
348.8829186692
20
254.2347926602
11
348.8829186692
21
248.2923187380
0
LINE
8
11000_LEFT
62
7
6
CONTINUOUS
10
348.9829186692
20
278.2923187380
11
348.9829186692
21
272.2923187380
0
LINE
8
11000_LEFT
62
7
6
CONTINUOUS
10
348.9829186692
20
198.7923187380
11
348.9829186692
21
215.7923187380
0
LINE
8
11000_LEFT
62
7
6
CONTINUOUS
10
349.1829186692
20
247.8923187380
11
349.1829186692
21
248.2923187380
0
LINE
8
11000_LEFT
62
7
6
CONTINUOUS
10
349.2829186692
20
307.4023187380
11
349.2829186692
21
283.4023187380
0
LINE
8
11000_LEFT
62
7
6
CONTINUOUS
10
350.7829186692
20
283.4023187380
11
350.7829186692
21
307.4023187380
0
LINE
8
11000_LEFT
62
7
6
CONTINUOUS
10
351.0829186692
20
276.6923187380
11
351.0829186692
21
273.8923187380
0
LINE
8
11000_LEFT
62
7
6
CONTINUOUS
10
351.5829186692
20
248.2923187380
11
351.5829186692
21
247.8923187380
0
LINE
8
11000_LEFT
62
7
6
CONTINUOUS
10
351.8829186692
20
276.6923187380
11
351.8829186692
21
273.8923187380
0
LINE
8
11000_LEFT
62
7
6
CONTINUOUS
10
351.8829186692
20
248.2923187380
11
351.8829186692
21
254.2347926602
0
LINE
8
11000_LEFT
62
7
6
CONTINUOUS
10
352.5829186692
20
282.9023187380
11
352.5829186692
21
308.3023187380
0
LINE
8
11000_LEFT
62
7
6
CONTINUOUS
10
352.8329186692
20
307.5942287145
11
352.8329186692
21
283.2104087615
0
LINE
8
11000_LEFT
62
7
6
CONTINUOUS
10
353.0829186692
20
266.5923187380
11
353.0829186692
21
257.6923187380
0
LINE
8
11000_LEFT
62
7
6
CONTINUOUS
10
353.1829186692
20
273.8923187380
11
353.1829186692
21
276.6923187380
0
LINE
8
11000_LEFT
62
7
6
CONTINUOUS
10
353.9829186692
20
209.3923187380
11
353.9829186692
21
206.1923187380
0
LINE
8
11000_LEFT
62
7
6
CONTINUOUS
10
354.0829186692
20
207.7423187380
11
354.0829186692
21
206.1923187380
0
LINE
8
11000_LEFT
62
7
6
CONTINUOUS
10
354.1829186692
20
209.2923187380
11
354.1829186692
21
206.2923187380
0
LINE
8
11000_LEFT
62
7
6
CONTINUOUS
10
354.2038817809
20
209.2923187380
11
354.2038817809
21
206.2923187380
0
LINE
8
11000_LEFT
62
7
6
CONTINUOUS
10
354.2829186692
20
257.6923187380
11
354.2829186692
21
265.1923187380
0
LINE
8
11000_LEFT
62
7
6
CONTINUOUS
10
354.4229186692
20
307.5915492225
11
354.4229186692
21
283.2130882534
0
LINE
8
11000_LEFT
62
7
6
CONTINUOUS
10
354.9829186692
20
209.2923187380
11
354.9829186692
21
206.2923187380
0
LINE
8
11000_LEFT
62
7
6
CONTINUOUS
10
355.3329186692
20
303.3723187380
11
355.3329186692
21
302.6723187380
0
LINE
8
11000_LEFT
62
7
6
CONTINUOUS
10
355.3329186692
20
300.8323187380
11
355.3329186692
21
300.1323187380
0
LINE
8
11000_LEFT
62
7
6
CONTINUOUS
10
355.3329186692
20
298.2923187380
11
355.3329186692
21
297.5923187380
0
LINE
8
11000_LEFT
62
7
6
CONTINUOUS
10
355.3329186692
20
295.7523187380
11
355.3329186692
21
295.0523187380
0
LINE
8
11000_LEFT
62
7
6
CONTINUOUS
10
355.3329186692
20
293.2123187380
11
355.3329186692
21
292.5123187380
0
LINE
8
11000_LEFT
62
7
6
CONTINUOUS
10
355.3329186692
20
290.6723187380
11
355.3329186692
21
289.9723187380
0
LINE
8
11000_LEFT
62
7
6
CONTINUOUS
10
355.3329186692
20
288.1323187380
11
355.3329186692
21
287.4323187380
0
LINE
8
11000_LEFT
62
7
6
CONTINUOUS
10
355.4329186692
20
265.2923187380
11
355.4329186692
21
256.1923187380
0
LINE
8
11000_LEFT
62
7
6
CONTINUOUS
10
355.5212278814
20
303.1640228652
11
355.5212278814
21
302.8806146108
0
LINE
8
11000_LEFT
62
7
6
CONTINUOUS
10
355.5212278814
20
300.6240228652
11
355.5212278814
21
300.3406146108
0
LINE
8
11000_LEFT
62
7
6
CONTINUOUS
10
355.5212278814
20
298.0840228652
11
355.5212278814
21
297.8006146108
0
LINE
8
11000_LEFT
62
7
6
CONTINUOUS
10
355.5212278814
20
295.5440228652
11
355.5212278814
21
295.2606146108
0
LINE
8
11000_LEFT
62
7
6
CONTINUOUS
10
355.5212278814
20
293.0040228652
11
355.5212278814
21
292.7206146108
0
LINE
8
11000_LEFT
62
7
6
CONTINUOUS
10
355.5212278814
20
290.4640228652
11
355.5212278814
21
290.1806146108
0
LINE
8
11000_LEFT
62
7
6
CONTINUOUS
10
355.5212278814
20
287.9240228652
11
355.5212278814
21
287.6406146108
0
LINE
8
11000_LEFT
62
7
6
CONTINUOUS
10
355.5329186692
20
256.2923187380
11
355.5329186692
21
258.2123187380
0
LINE
8
11000_LEFT
62
7
6
CONTINUOUS
10
355.5329186692
20
259.0123187380
11
355.5329186692
21
263.2923187380
0
LINE
8
11000_LEFT
62
7
6
CONTINUOUS
10
355.5329186692
20
264.0923187380
11
355.5329186692
21
265.2923187380
0
LINE
8
11000_LEFT
62
7
6
CONTINUOUS
10
355.5529186692
20
264.0923187380
11
355.5529186692
21
263.2923187380
0
LINE
8
11000_LEFT
62
7
6
CONTINUOUS
10
355.5529186692
20
259.0123187380
11
355.5529186692
21
258.2123187380
0
LINE
8
11000_LEFT
62
7
6
CONTINUOUS
10
355.8446094569
20
303.1640228652
11
355.8446094569
21
302.8806146108
0
LINE
8
11000_LEFT
62
7
6
CONTINUOUS
10
355.8446094569
20
300.6240228652
11
355.8446094569
21
300.3406146108
0
LINE
8
11000_LEFT
62
7
6
CONTINUOUS
10
355.8446094569
20
298.0840228652
11
355.8446094569
21
297.8006146108
0
LINE
8
11000_LEFT
62
7
6
CONTINUOUS
10
355.8446094569
20
295.5440228652
11
355.8446094569
21
295.2606146108
0
LINE
8
11000_LEFT
62
7
6
CONTINUOUS
10
355.8446094569
20
293.0040228652
11
355.8446094569
21
292.7206146108
0
LINE
8
11000_LEFT
62
7
6
CONTINUOUS
10
355.8446094569
20
290.4640228652
11
355.8446094569
21
290.1806146108
0
LINE
8
11000_LEFT
62
7
6
CONTINUOUS
10
355.8446094569
20
287.9240228652
11
355.8446094569
21
287.6406146108
0
LINE
8
11000_LEFT
62
7
6
CONTINUOUS
10
355.8829186692
20
209.2923187380
11
355.8829186692
21
206.2923187380
0
LINE
8
11000_LEFT
62
7
6
CONTINUOUS
10
355.9829186692
20
209.3923187380
11
355.9829186692
21
206.1923187380
0
LINE
8
11000_LEFT
62
7
6
CONTINUOUS
10
356.0329186692
20
287.4323187380
11
356.0329186692
21
288.1323187380
0
LINE
8
11000_LEFT
62
7
6
CONTINUOUS
10
356.0329186692
20
289.9723187380
11
356.0329186692
21
290.6723187380
0
LINE
8
11000_LEFT
62
7
6
CONTINUOUS
10
356.0329186692
20
292.5123187380
11
356.0329186692
21
293.2123187380
0
LINE
8
11000_LEFT
62
7
6
CONTINUOUS
10
356.0329186692
20
295.0523187380
11
356.0329186692
21
295.7523187380
0
LINE
8
11000_LEFT
62
7
6
CONTINUOUS
10
356.0329186692
20
297.5923187380
11
356.0329186692
21
298.2923187380
0
LINE
8
11000_LEFT
62
7
6
CONTINUOUS
10
356.0329186692
20
300.1323187380
11
356.0329186692
21
300.8323187380
0
LINE
8
11000_LEFT
62
7
6
CONTINUOUS
10
356.0329186692
20
302.6723187380
11
356.0329186692
21
303.3723187380
0
LINE
8
11000_LEFT
62
7
6
CONTINUOUS
10
356.8729186692
20
303.7324946769
11
356.8729186692
21
302.5721427990
0
LINE
8
11000_LEFT
62
7
6
CONTINUOUS
10
356.8729186692
20
300.6324946769
11
356.8729186692
21
299.4721427990
0
LINE
8
11000_LEFT
62
7
6
CONTINUOUS
10
356.8729186692
20
297.5324946769
11
356.8729186692
21
296.3721427990
0
LINE
8
11000_LEFT
62
7
6
CONTINUOUS
10
356.8729186692
20
294.4324946769
11
356.8729186692
21
293.2721427990
0
LINE
8
11000_LEFT
62
7
6
CONTINUOUS
10
356.8729186692
20
291.3324946769
11
356.8729186692
21
290.1721427990
0
LINE
8
11000_LEFT
62
7
6
CONTINUOUS
10
356.8729186692
20
288.2324946769
11
356.8729186692
21
287.0721427990
0
LINE
8
11000_LEFT
62
7
6
CONTINUOUS
10
356.9329186692
20
286.7623187380
11
356.9329186692
21
287.0477919179
0
LINE
8
11000_LEFT
62
7
6
CONTINUOUS
10
356.9329186692
20
288.2568455581
11
356.9329186692
21
288.8023187380
0
LINE
8
11000_LEFT
62
7
6
CONTINUOUS
10
356.9329186692
20
289.3023187380
11
356.9329186692
21
290.1477919179
0
LINE
8
11000_LEFT
62
7
6
CONTINUOUS
10
356.9329186692
20
291.8423187380
11
356.9329186692
21
293.2477919179
0
LINE
8
11000_LEFT
62
7
6
CONTINUOUS
10
356.9329186692
20
294.4568455581
11
356.9329186692
21
296.3477919179
0
LINE
8
11000_LEFT
62
7
6
CONTINUOUS
10
356.9329186692
20
297.5568455581
11
356.9329186692
21
298.9623187380
0
LINE
8
11000_LEFT
62
7
6
CONTINUOUS
10
356.9329186692
20
300.6568455581
11
356.9329186692
21
301.5023187380
0
LINE
8
11000_LEFT
62
7
6
CONTINUOUS
10
356.9329186692
20
302.0023187380
11
356.9329186692
21
302.5477919179
0
LINE
8
11000_LEFT
62
7
6
CONTINUOUS
10
356.9329186692
20
303.7568455581
11
356.9329186692
21
304.0423187380
0
LINE
8
11000_LEFT
62
7
6
CONTINUOUS
10
356.9729186692
20
285.0773187380
11
356.9729186692
21
287.0322220959
0
LINE
8
11000_LEFT
62
7
6
CONTINUOUS
10
356.9729186692
20
288.2724153801
11
356.9729186692
21
290.1322220959
0
LINE
8
11000_LEFT
62
7
6
CONTINUOUS
10
356.9729186692
20
291.3724153801
11
356.9729186692
21
293.2322220959
0
LINE
8
11000_LEFT
62
7
6
CONTINUOUS
10
356.9729186692
20
297.5724153801
11
356.9729186692
21
299.4322220959
0
LINE
8
11000_LEFT
62
7
6
CONTINUOUS
10
356.9729186692
20
300.6724153801
11
356.9729186692
21
302.5322220959
0
LINE
8
11000_LEFT
62
7
6
CONTINUOUS
10
356.9729186692
20
303.7724153801
11
356.9729186692
21
305.7273187380
0
LINE
8
11000_LEFT
62
7
6
CONTINUOUS
10
357.3229186692
20
285.0773187380
11
357.3229186692
21
305.7273187380
0
LINE
8
11000_LEFT
62
7
6
CONTINUOUS
10
357.3829186692
20
256.1923187380
11
357.3829186692
21
256.2923187380
0
LINE
8
11000_LEFT
62
7
6
CONTINUOUS
10
357.4233996163
20
285.0773187380
11
357.4233996163
21
305.7273187380
0
LINE
8
11000_LEFT
62
7
6
CONTINUOUS
10
357.4829186692
20
220.5997960261
11
357.4829186692
21
256.2923187380
0
LINE
8
11000_LEFT
62
7
6
CONTINUOUS
10
357.4829186692
20
265.2923187380
11
357.4829186692
21
271.2923187380
0
LINE
8
11000_LEFT
62
7
6
CONTINUOUS
10
357.4829186692
20
279.2923187380
11
357.4829186692
21
282.6023187380
0
LINE
8
11000_LEFT
62
40
6
CONTINUOUS
10
357.7329186692
20
305.6523187380
11
357.7329186692
21
285.1523187380
0
LINE
8
11000_LEFT
62
7
6
CONTINUOUS
10
357.7329186692
20
305.6523187380
11
357.7329186692
21
285.1523187380
0
LINE
8
11000_LEFT
62
7
6
CONTINUOUS
10
358.0329186692
20
305.6523187380
11
358.0329186692
21
285.1523187380
0
LINE
8
11000_LEFT
62
7
6
CONTINUOUS
10
358.9329186692
20
264.0923187380
11
358.9329186692
21
263.2923187380
0
LINE
8
11000_LEFT
62
7
6
CONTINUOUS
10
358.9329186692
20
259.0123187380
11
358.9329186692
21
258.2123187380
0
LINE
8
11000_LEFT
62
7
6
CONTINUOUS
10
358.9829186692
20
245.4523187380
11
358.9829186692
21
251.4523187380
0
LINE
8
11000_LEFT
62
7
6
CONTINUOUS
10
358.9829186692
20
285.0523187380
11
358.9829186692
21
305.7523187380
0
LINE
8
11000_LEFT
62
7
6
CONTINUOUS
10
360.1329186692
20
265.1923187380
11
360.1329186692
21
257.6923187380
0
LINE
8
11000_LEFT
62
7
6
CONTINUOUS
10
361.3329186692
20
257.6923187380
11
361.3329186692
21
266.5923187380
0
LINE
8
11000_LEFT
62
7
6
CONTINUOUS
10
354.4829981680
20
282.8961984636
11
354.4843504556
21
282.9620544199
0
LINE
8
11000_LEFT
62
7
6
CONTINUOUS
10
354.4843504556
20
282.9620544199
11
354.5202267585
21
283.8523187380
0
LINE
8
11000_LEFT
62
7
6
CONTINUOUS
10
348.8875012911
20
254.3099490533
11
348.8829186692
21
254.2347926602
0
LINE
8
11000_LEFT
62
7
6
CONTINUOUS
10
381.5249662708
20
233.0829447596
11
381.4935975072
21
233.0383958122
0
LINE
8
11000_LEFT
62
7
6
CONTINUOUS
10
370.7829186692
20
195.7923187380
11
372.7829186692
21
197.4705180003
0
LINE
8
13000_TOP
62
7
6
CONTINUOUS
10
256.0761018060
20
117.0978584243
11
256.0659359764
21
117.0899868266
0
LINE
8
13000_TOP
62
7
6
CONTINUOUS
10
241.3408927180
20
117.8078509491
11
241.4056737764
21
117.8502160857
0
LINE
8
13000_TOP
62
7
6
CONTINUOUS
10
256.0659359764
20
117.0899868266
11
256.0494246679
21
117.0817388042
0
LINE
8
11000_LEFT
62
7
6
CONTINUOUS
10
374.9829186692
20
181.2923187380
11
376.9829186692
21
182.0202592065
0
LINE
8
13000_TOP
62
7
6
CONTINUOUS
10
242.8209702129
20
125.8158852768
11
242.9298586840
21
125.8502926412
0
LINE
8
11000_LEFT
62
7
6
CONTINUOUS
10
353.8229186692
20
283.0523187380
11
354.4229186692
21
283.2130882534
0
LINE
8
10000_FRONT
62
7
6
CONTINUOUS
10
241.0344085275
20
254.5486063014
11
234.6954899854
21
253.4308839339
0
LINE
8
10000_FRONT
62
7
6
CONTINUOUS
10
253.3823140742
20
254.4573187380
11
250.1823140742
21
254.4573187380
0
LINE
8
10000_FRONT
62
7
6
CONTINUOUS
10
247.3823140742
20
254.4573187380
11
244.1823140742
21
254.4573187380
0
LINE
8
11000_LEFT
62
7
6
CONTINUOUS
10
351.2829186692
20
254.8440486273
11
349.4829186692
21
254.8440486273
0
LINE
8
11000_LEFT
62
7
6
CONTINUOUS
10
355.4329186692
20
256.1923187380
11
357.4829186692
21
256.1923187380
0
LINE
8
10000_FRONT
62
7
6
CONTINUOUS
10
256.2823140742
20
256.2923187380
11
254.7823140742
21
256.2923187380
0
LINE
8
10000_FRONT
62
7
6
CONTINUOUS
10
242.7823140742
20
256.2923187380
11
241.2823140742
21
256.2923187380
0
LINE
8
11000_LEFT
62
7
6
CONTINUOUS
10
355.4329186692
20
256.2923187380
11
363.1829186692
21
256.2923187380
0
LINE
8
11000_LEFT
62
7
6
CONTINUOUS
10
363.1829186692
20
256.4923187380
11
362.9829186692
21
256.4923187380
0
LINE
8
10000_FRONT
62
7
6
CONTINUOUS
10
242.7823140742
20
256.7923187380
11
254.7823140742
21
256.7923187380
0
LINE
8
11000_LEFT
62
7
6
CONTINUOUS
10
363.1829186692
20
256.7923187380
11
369.9829186692
21
256.7923187380
0
LINE
8
10000_FRONT
62
7
6
CONTINUOUS
10
242.7823140742
20
256.8923187380
11
248.7823140742
21
256.8923187380
0
LINE
8
10000_FRONT
62
7
6
CONTINUOUS
10
253.9323140742
20
256.8923187380
11
254.7823140742
21
256.8923187380
0
LINE
8
11000_LEFT
62
7
6
CONTINUOUS
10
362.9829186692
20
256.8923187380
11
369.9829186692
21
256.8923187380
0
LINE
8
11000_LEFT
62
7
6
CONTINUOUS
10
353.5829186692
20
257.1923187380
11
353.7829186692
21
257.1923187380
0
LINE
8
11000_LEFT
62
7
6
CONTINUOUS
10
360.6329186692
20
257.1923187380
11
360.8329186692
21
257.1923187380
0
LINE
8
10000_FRONT
62
7
6
CONTINUOUS
10
234.5823140742
20
257.3923187380
11
241.0823140742
21
257.3923187380
0
LINE
8
10000_FRONT
62
7
6
CONTINUOUS
10
244.1823140742
20
257.6873187380
11
247.3823140742
21
257.6873187380
0
LINE
8
11000_LEFT
62
7
6
CONTINUOUS
10
355.4329186692
20
258.2123187380
11
358.9329186692
21
258.2123187380
0
LINE
8
11000_LEFT
62
7
6
CONTINUOUS
10
355.4329186692
20
259.0123187380
11
358.9329186692
21
259.0123187380
0
LINE
8
10000_FRONT
62
7
6
CONTINUOUS
10
244.1823140742
20
259.5373187380
11
245.1823140742
21
259.5373187380
0
LINE
8
10000_FRONT
62
7
6
CONTINUOUS
10
246.3823140742
20
259.5373187380
11
247.3823140742
21
259.5373187380
0
LINE
8
10000_FRONT
62
7
6
CONTINUOUS
10
245.1823140742
20
260.2123187380
11
246.3823140742
21
260.2123187380
0
LINE
8
10000_FRONT
62
7
6
CONTINUOUS
10
253.9823140742
20
260.2423187380
11
253.3823140742
21
260.2423187380
0
LINE
8
10000_FRONT
62
7
6
CONTINUOUS
10
248.7823140742
20
261.4923187380
11
253.3823140742
21
261.4923187380
0
LINE
8
11000_LEFT
62
7
6
CONTINUOUS
10
343.7404539232
20
261.6923187380
11
343.4829186692
21
261.6923187380
0
LINE
8
10000_FRONT
62
7
6
CONTINUOUS
10
244.1823140742
20
262.7673187380
11
247.3823140742
21
262.7673187380
0
LINE
8
11000_LEFT
62
7
6
CONTINUOUS
10
355.4329186692
20
263.2923187380
11
358.9329186692
21
263.2923187380
0
LINE
8
10000_FRONT
62
7
6
CONTINUOUS
10
249.3823140742
20
264.0923187380
11
253.9823140742
21
264.0923187380
0
LINE
8
11000_LEFT
62
7
6
CONTINUOUS
10
355.4329186692
20
264.0923187380
11
358.9329186692
21
264.0923187380
0
LINE
8
10000_FRONT
62
7
6
CONTINUOUS
10
244.1823140742
20
264.6173187380
11
245.1823140742
21
264.6173187380
0
LINE
8
10000_FRONT
62
7
6
CONTINUOUS
10
246.3823140742
20
264.6173187380
11
247.3823140742
21
264.6173187380
0
LINE
8
11000_LEFT
62
7
6
CONTINUOUS
10
345.3829186692
20
264.7923187380
11
346.7696640549
21
264.7923187380
0
LINE
8
10000_FRONT
62
7
6
CONTINUOUS
10
245.1823140742
20
265.2923187380
11
246.3823140742
21
265.2923187380
0
LINE
8
11000_LEFT
62
7
6
CONTINUOUS
10
354.3829186692
20
265.2923187380
11
360.0329186692
21
265.2923187380
0
LINE
8
10000_FRONT
62
7
6
CONTINUOUS
10
248.7823140742
20
265.3423187380
11
249.3823140742
21
265.3423187380
0
LINE
8
10000_FRONT
62
7
6
CONTINUOUS
10
234.5823140742
20
266.8923187380
11
241.0823140742
21
266.8923187380
0
LINE
8
10000_FRONT
62
7
6
CONTINUOUS
10
248.7823140742
20
266.9923187380
11
253.9823140742
21
266.9923187380
0
LINE
8
11000_LEFT
62
7
6
CONTINUOUS
10
360.8329186692
20
267.0923187380
11
353.5829186692
21
267.0923187380
0
LINE
8
10000_FRONT
62
7
6
CONTINUOUS
10
244.1823140742
20
267.8473187380
11
247.3823140742
21
267.8473187380
0
LINE
8
10000_FRONT
62
7
6
CONTINUOUS
10
250.1823140742
20
267.8473187380
11
253.3823140742
21
267.8473187380
0
LINE
8
10000_FRONT
62
7
6
CONTINUOUS
10
244.1823140742
20
269.6973187380
11
247.3823140742
21
269.6973187380
0
LINE
8
10000_FRONT
62
7
6
CONTINUOUS
10
250.1823140742
20
269.6973187380
11
253.3823140742
21
269.6973187380
0
LINE
8
10000_FRONT
62
7
6
CONTINUOUS
10
254.2823140742
20
271.0923187380
11
243.2823140742
21
271.0923187380
0
LINE
8
11000_LEFT
62
7
6
CONTINUOUS
10
362.9829186692
20
271.0923187380
11
369.4829186692
21
271.0923187380
0
LINE
8
11000_LEFT
62
7
6
CONTINUOUS
10
349.9829186692
20
271.2923187380
11
357.4829186692
21
271.2923187380
0
LINE
8
10000_FRONT
62
7
6
CONTINUOUS
10
250.1323140742
20
271.3673187380
11
247.4323140742
21
271.3673187380
0
LINE
8
10000_FRONT
62
7
6
CONTINUOUS
10
246.6180482108
20
272.0673187380
11
247.4323140742
21
272.0673187380
0
LINE
8
10000_FRONT
62
7
6
CONTINUOUS
10
250.1323140742
20
272.0673187380
11
250.9465799376
21
272.0673187380
0
LINE
8
11000_LEFT
62
7
6
CONTINUOUS
10
353.1829186692
20
273.8923187380
11
351.0829186692
21
273.8923187380
0
LINE
8
11000_LEFT
62
7
6
CONTINUOUS
10
351.3576879493
20
254.8392995520
11
351.2829186692
21
254.8440486273
0
LINE
8
11000_LEFT
62
7
6
CONTINUOUS
10
351.4441925883
20
254.8216272699
11
351.3576879493
21
254.8392995520
0
LINE
8
11000_LEFT
62
7
6
CONTINUOUS
10
381.4829186692
20
230.4923187380
11
382.9829186692
21
229.9923187380
0
LINE
8
11000_LEFT
62
7
6
CONTINUOUS
10
381.4829186692
20
233.2923187380
11
382.9829186692
21
232.7923187380
0
LINE
8
10000_FRONT
62
7
6
CONTINUOUS
10
253.5290262808
20
288.5027949959
11
251.5630686392
21
289.1902949959
0
LINE
8
10000_FRONT
62
7
6
CONTINUOUS
10
252.0311539282
20
289.3277957589
11
253.7630694021
21
288.6861283928
0
LINE
8
11000_LEFT
62
7
6
CONTINUOUS
10
351.5363971285
20
254.7870098734
11
351.4441925883
21
254.8216272699
0
LINE
8
10000_FRONT
62
7
6
CONTINUOUS
10
253.3886005987
20
295.4694621712
11
253.1545584310
21
295.5611288697
0
LINE
8
10000_FRONT
62
7
6
CONTINUOUS
10
253.4354097952
20
297.5319621712
11
253.2481758703
21
297.6236288697
0
LINE
8
10000_FRONT
62
7
6
CONTINUOUS
10
252.3588135351
20
299.2736284882
11
252.1715796102
21
299.3652954251
0
LINE
8
10000_FRONT
62
7
6
CONTINUOUS
10
251.8907282461
20
303.3986286447
11
252.0779621710
21
303.3069619807
0
LINE
8
10000_FRONT
62
7
6
CONTINUOUS
10
241.3533321223
20
303.3318808210
11
241.4102774389
21
303.3035825430
0
LINE
8
10000_FRONT
62
7
6
CONTINUOUS
10
253.2481758703
20
295.2861287743
11
253.3886005987
21
295.1944615990
0
LINE
8
10000_FRONT
62
7
6
CONTINUOUS
10
253.2013666738
20
297.3486287743
11
253.3417923559
21
297.2569620759
0
LINE
8
10000_FRONT
62
7
6
CONTINUOUS
10
251.9375374426
20
298.3569619805
11
252.0779621710
21
298.2652952820
0
LINE
8
10000_FRONT
62
7
6
CONTINUOUS
10
252.3588135351
20
299.5944619328
11
252.4992392172
21
299.5027952343
0
LINE
8
10000_FRONT
62
7
6
CONTINUOUS
10
251.9375374426
20
303.6736286432
11
252.2183878530
21
303.4902953208
0
LINE
8
10000_FRONT
62
7
6
CONTINUOUS
10
253.3886005987
20
304.4069619328
11
253.1077501882
21
304.5902953297
0
LINE
8
11000_LEFT
62
7
6
CONTINUOUS
10
378.3949614110
20
233.2044864777
11
378.2975761356
21
233.2694969508
0
LINE
8
11000_LEFT
62
7
6
CONTINUOUS
10
378.0984225134
20
233.2694825977
11
378.1956902290
21
233.2044507723
0
LINE
8
10000_FRONT
62
7
6
CONTINUOUS
10
255.2681162351
20
303.3152525665
11
255.1706375716
21
303.3810806408
0
LINE
8
11000_LEFT
62
7
6
CONTINUOUS
10
345.0405745320
20
231.4699644515
11
345.3829186692
21
230.1923187380
0
LINE
8
11000_LEFT
62
7
6
CONTINUOUS
10
351.8786252841
20
254.3075474107
11
351.8623735364
21
254.3928604531
0
LINE
8
11000_LEFT
62
7
6
CONTINUOUS
10
362.9829186692
20
230.4923187380
11
362.9829186692
21
303.2923187380
0
LINE
8
11000_LEFT
62
7
6
CONTINUOUS
10
363.1829186692
20
256.7923187380
11
363.1829186692
21
256.2923187380
0
LINE
8
11000_LEFT
62
7
6
CONTINUOUS
10
363.6829186692
20
211.4923187380
11
363.6829186692
21
191.2923187380
0
LINE
8
11000_LEFT
62
7
6
CONTINUOUS
10
363.6829186692
20
181.4923187380
11
363.6829186692
21
183.7923187380
0
LINE
8
11000_LEFT
62
7
6
CONTINUOUS
10
368.4829186692
20
256.7923187380
11
368.4829186692
21
256.8923187380
0
LINE
8
11000_LEFT
62
7
6
CONTINUOUS
10
369.9829186692
20
270.5923187380
11
369.9829186692
21
256.8923187380
0
LINE
8
11000_LEFT
62
7
6
CONTINUOUS
10
369.9829186692
20
256.7923187380
11
369.9829186692
21
235.7923187380
0
LINE
8
11000_LEFT
62
7
6
CONTINUOUS
10
370.7829186692
20
181.4923187380
11
370.7829186692
21
195.7923187380
0
LINE
8
11000_LEFT
62
7
6
CONTINUOUS
10
372.7829186692
20
211.4923187380
11
372.7829186692
21
197.4705180003
0
LINE
8
11000_LEFT
62
7
6
CONTINUOUS
10
376.9829186692
20
182.0202592065
11
376.9829186692
21
194.5923187380
0
LINE
8
11000_LEFT
62
7
6
CONTINUOUS
10
378.2835046679
20
232.7799491970
11
378.2835046679
21
232.9923187380
0
LINE
8
11000_LEFT
62
7
6
CONTINUOUS
10
378.4829186692
20
232.9923187380
11
378.4829186692
21
232.7449726994
0
LINE
8
11000_LEFT
62
7
6
CONTINUOUS
10
378.9829186692
20
195.3202592065
11
378.9829186692
21
207.0923187380
0
LINE
8
11000_LEFT
62
7
6
CONTINUOUS
10
380.9829186692
20
207.8202592065
11
380.9829186692
21
219.5923187380
0
LINE
8
11000_LEFT
62
7
6
CONTINUOUS
10
380.9829186692
20
232.3923187380
11
380.9829186692
21
233.2923187380
0
LINE
8
11000_LEFT
62
7
6
CONTINUOUS
10
381.4829186692
20
232.9923187380
11
381.4829186692
21
230.4923187380
0
LINE
8
11000_LEFT
62
7
6
CONTINUOUS
10
381.4935975072
20
233.0383958122
11
381.4829186692
21
232.9923187380
0
LINE
8
11000_LEFT
62
7
6
CONTINUOUS
10
363.6829186692
20
191.2923187380
11
362.1829186692
21
185.2923187380
0
LINE
8
13000_TOP
62
7
6
CONTINUOUS
10
256.0494246679
20
117.0817388042
11
256.0260923481
21
117.0736028034
0
LINE
8
13000_TOP
62
7
6
CONTINUOUS
10
249.5709702129
20
125.8158852768
11
249.6798586840
21
125.8502926412
0
LINE
8
11000_LEFT
62
7
6
CONTINUOUS
10
353.4229186692
20
307.7523187380
11
352.8329186692
21
307.5942287145
0
LINE
8
11000_LEFT
62
7
6
CONTINUOUS
10
356.8762311004
20
287.0747968380
11
356.9145441146
21
287.0816141975
0
LINE
8
11000_LEFT
62
7
6
CONTINUOUS
10
356.8762311004
20
290.1747968380
11
356.9145441146
21
290.1816141975
0
LINE
8
11000_LEFT
62
7
6
CONTINUOUS
10
356.8762311004
20
293.2747968380
11
356.9145441146
21
293.2816141975
0
LINE
8
11000_LEFT
62
7
6
CONTINUOUS
10
356.8762311004
20
296.3747968380
11
356.9145441146
21
296.3816141975
0
LINE
8
11000_LEFT
62
7
6
CONTINUOUS
10
356.8762311004
20
302.5747968380
11
356.9145441146
21
302.5816141975
0
LINE
8
11000_LEFT
62
7
6
CONTINUOUS
10
362.9829186692
20
303.2923187380
11
381.3302150245
21
306.5274421085
0
LINE
8
11000_LEFT
62
7
6
CONTINUOUS
10
356.9926740985
20
287.0884306769
11
357.2521078216
21
287.1163683916
0
LINE
8
11000_LEFT
62
7
6
CONTINUOUS
10
356.9926740985
20
290.1884306769
11
357.2521078216
21
290.2163683916
0
LINE
8
11000_LEFT
62
7
6
CONTINUOUS
10
356.9926740985
20
293.2884306769
11
357.2521078216
21
293.3163683916
0
LINE
8
11000_LEFT
62
7
6
CONTINUOUS
10
356.9926740985
20
296.3884306769
11
357.2521078216
21
296.4163683916
0
LINE
8
11000_LEFT
62
7
6
CONTINUOUS
10
356.9926740985
20
299.4884306769
11
357.2521078216
21
299.5163683916
0
LINE
8
11000_LEFT
62
7
6
CONTINUOUS
10
356.9926740985
20
302.5884306769
11
357.2521078216
21
302.6163683916
0
LINE
8
11000_LEFT
62
7
6
CONTINUOUS
10
356.9145441146
20
287.0816141975
11
356.9926740985
21
287.0884306769
0
LINE
8
11000_LEFT
62
7
6
CONTINUOUS
10
356.9145441146
20
290.1816141975
11
356.9926740985
21
290.1884306769
0
LINE
8
11000_LEFT
62
7
6
CONTINUOUS
10
356.9145441146
20
293.2816141975
11
356.9926740985
21
293.2884306769
0
LINE
8
11000_LEFT
62
7
6
CONTINUOUS
10
356.9145441146
20
296.3816141975
11
356.9926740985
21
296.3884306769
0
LINE
8
11000_LEFT
62
7
6
CONTINUOUS
10
356.9145441146
20
299.4816141975
11
356.9926740985
21
299.4884306769
0
LINE
8
10000_FRONT
62
7
6
CONTINUOUS
10
243.5573140742
20
275.9423187380
11
242.8573140742
21
275.9423187380
0
LINE
8
10000_FRONT
62
7
6
CONTINUOUS
10
254.0073140742
20
275.9423187380
11
254.7073140742
21
275.9423187380
0
LINE
8
11000_LEFT
62
7
6
CONTINUOUS
10
353.1829186692
20
276.6923187380
11
351.0829186692
21
276.6923187380
0
LINE
8
10000_FRONT
62
7
6
CONTINUOUS
10
243.5573140742
20
278.6423187380
11
242.8573140742
21
278.6423187380
0
LINE
8
10000_FRONT
62
7
6
CONTINUOUS
10
254.0073140742
20
278.6423187380
11
254.7073140742
21
278.6423187380
0
LINE
8
11000_LEFT
62
7
6
CONTINUOUS
10
357.4829186692
20
279.2923187380
11
349.9829186692
21
279.2923187380
0
LINE
8
10000_FRONT
62
7
6
CONTINUOUS
10
251.0374655932
20
282.5173187380
11
250.1323140742
21
282.5173187380
0
LINE
8
10000_FRONT
62
7
6
CONTINUOUS
10
247.4323140742
20
282.5173187380
11
246.6180482108
21
282.5173187380
0
LINE
8
11000_LEFT
62
7
6
CONTINUOUS
10
354.7829186692
20
282.6023187380
11
357.4829186692
21
282.6023187380
0
LINE
8
11000_LEFT
62
7
6
CONTINUOUS
10
354.4871146800
20
282.8523187380
11
356.7829186692
21
282.8523187380
0
LINE
8
11000_LEFT
62
7
6
CONTINUOUS
10
354.4871146800
20
282.9023187380
11
352.5829186692
21
282.9023187380
0
LINE
8
11000_LEFT
62
7
6
CONTINUOUS
10
349.7829186692
20
282.9023187380
11
350.2829186692
21
282.9023187380
0
LINE
8
11000_LEFT
62
7
6
CONTINUOUS
10
353.8229186692
20
283.0523187380
11
353.4229186692
21
283.0523187380
0
LINE
8
10000_FRONT
62
7
6
CONTINUOUS
10
235.6823140742
20
283.0523187380
11
241.0823140742
21
283.0523187380
0
LINE
8
10000_FRONT
62
7
6
CONTINUOUS
10
247.4323140742
20
283.2173187380
11
250.1323140742
21
283.2173187380
0
LINE
8
10000_FRONT
62
7
6
CONTINUOUS
10
244.4823140742
20
283.4523187380
11
250.4823140742
21
283.4523187380
0
LINE
8
11000_LEFT
62
7
6
CONTINUOUS
10
356.7329186692
20
283.8523187380
11
354.4229186692
21
283.8523187380
0
LINE
8
10000_FRONT
62
7
6
CONTINUOUS
10
244.9823140742
20
283.9523187380
11
249.9823140742
21
283.9523187380
0
LINE
8
11000_LEFT
62
7
6
CONTINUOUS
10
356.7329186692
20
284.1523187380
11
354.4229186692
21
284.1523187380
0
LINE
8
11000_LEFT
62
7
6
CONTINUOUS
10
356.7229186692
20
284.8273187380
11
354.4329186692
21
284.8273187380
0
LINE
8
11000_LEFT
62
7
6
CONTINUOUS
10
357.7229254701
20
285.0773187380
11
357.3229186692
21
285.0773187380
0
LINE
8
10000_FRONT
62
7
6
CONTINUOUS
10
248.7523140742
20
285.2423187380
11
246.2123140742
21
285.2423187380
0
LINE
8
11000_LEFT
62
7
6
CONTINUOUS
10
354.4329186692
20
285.2423187380
11
356.9729186692
21
285.2423187380
0
LINE
8
10000_FRONT
62
7
6
CONTINUOUS
10
246.3823140742
20
285.2873187380
11
248.4823140742
21
285.2873187380
0
LINE
8
10000_FRONT
62
7
6
CONTINUOUS
10
251.7971117605
20
285.2944619805
11
251.5630686392
21
285.2944619805
0
LINE
8
11000_LEFT
62
7
6
CONTINUOUS
10
356.9729186692
20
285.4773187380
11
357.3229186692
21
285.4773187380
0
LINE
8
10000_FRONT
62
7
6
CONTINUOUS
10
253.7630694021
20
286.0277955681
11
251.7971117605
21
286.0277955681
0
LINE
8
10000_FRONT
62
7
6
CONTINUOUS
10
251.7971117605
20
286.3027951867
11
253.7630694021
21
286.3027951867
0
LINE
8
11000_LEFT
62
7
6
CONTINUOUS
10
356.9329186692
20
286.7623187380
11
354.4329186692
21
286.7623187380
0
LINE
8
11000_LEFT
62
7
6
CONTINUOUS
10
357.3229186692
20
286.9023187380
11
357.3066498011
21
286.9023187380
0
LINE
8
10000_FRONT
62
7
6
CONTINUOUS
10
251.5630686392
20
287.0361287743
11
251.7971117605
21
287.0361287743
0
LINE
8
10000_FRONT
62
7
6
CONTINUOUS
10
253.7630694021
20
287.4027955681
11
251.5630686392
21
287.4027955681
0
LINE
8
11000_LEFT
62
7
6
CONTINUOUS
10
355.3329186692
20
287.4323187380
11
356.0329186692
21
287.4323187380
0
LINE
8
11000_LEFT
62
7
6
CONTINUOUS
10
355.5212278814
20
287.6406146108
11
355.8446094569
21
287.6406146108
0
LINE
8
10000_FRONT
62
7
6
CONTINUOUS
10
252.0311539282
20
287.6777951867
11
253.7630694021
21
287.6777951867
0
LINE
8
10000_FRONT
62
7
6
CONTINUOUS
10
248.4823140742
20
287.7373187380
11
246.3823140742
21
287.7373187380
0
LINE
8
10000_FRONT
62
7
6
CONTINUOUS
10
246.4823140742
20
287.8273187380
11
248.5823140742
21
287.8273187380
0
LINE
8
11000_LEFT
62
7
6
CONTINUOUS
10
355.5212278814
20
287.9240228652
11
355.8446094569
21
287.9240228652
0
LINE
8
11000_LEFT
62
7
6
CONTINUOUS
10
356.0329186692
20
288.1323187380
11
355.3329186692
21
288.1323187380
0
LINE
8
10000_FRONT
62
7
6
CONTINUOUS
10
238.1823140742
20
288.2823187380
11
240.1823140742
21
288.2823187380
0
LINE
8
11000_LEFT
62
7
6
CONTINUOUS
10
357.3229186692
20
288.4023187380
11
357.3066498011
21
288.4023187380
0
LINE
8
11000_LEFT
62
7
6
CONTINUOUS
10
356.9329186692
20
288.8023187380
11
354.4329186692
21
288.8023187380
0
LINE
8
11000_LEFT
62
7
6
CONTINUOUS
10
356.9329186692
20
289.3023187380
11
354.4329186692
21
289.3023187380
0
LINE
8
10000_FRONT
62
7
6
CONTINUOUS
10
253.7630694021
20
289.3277957589
11
252.0311539282
21
289.3277957589
0
LINE
8
10000_FRONT
62
7
6
CONTINUOUS
10
251.5630686392
20
289.6027953774
11
253.7630694021
21
289.6027953774
0
LINE
8
10000_FRONT
62
7
6
CONTINUOUS
10
252.9673245062
20
289.9694621712
11
252.7332813848
21
289.9694621712
0
LINE
8
11000_LEFT
62
7
6
CONTINUOUS
10
355.3329186692
20
289.9723187380
11
356.0329186692
21
289.9723187380
0
LINE
8
11000_LEFT
62
7
6
CONTINUOUS
10
357.3229186692
20
290.0023187380
11
357.3066498011
21
290.0023187380
0
LINE
8
11000_LEFT
62
7
6
CONTINUOUS
10
355.5212278814
20
290.1806146108
11
355.8446094569
21
290.1806146108
0
LINE
8
10000_FRONT
62
7
6
CONTINUOUS
10
248.5823140742
20
290.2773187380
11
246.4823140742
21
290.2773187380
0
LINE
8
10000_FRONT
62
7
6
CONTINUOUS
10
238.1823140742
20
290.2823187380
11
240.1823140742
21
290.2823187380
0
LINE
8
10000_FRONT
62
7
6
CONTINUOUS
10
246.3823140742
20
290.3673187380
11
248.4823140742
21
290.3673187380
0
LINE
8
11000_LEFT
62
7
6
CONTINUOUS
10
355.5212278814
20
290.4640228652
11
355.8446094569
21
290.4640228652
0
LINE
8
10000_FRONT
62
7
6
CONTINUOUS
10
252.7332813848
20
290.6111285836
11
252.9673245062
21
290.6111285836
0
LINE
8
11000_LEFT
62
7
6
CONTINUOUS
10
356.0329186692
20
290.6723187380
11
355.3329186692
21
290.6723187380
0
LINE
8
10000_FRONT
62
7
6
CONTINUOUS
10
253.7630694021
20
290.9777953774
11
251.5630686392
21
290.9777953774
0
LINE
8
10000_FRONT
62
7
6
CONTINUOUS
10
251.8439200033
20
291.2527949959
11
252.4524309744
21
291.2527949959
0
LINE
8
10000_FRONT
62
7
6
CONTINUOUS
10
252.7332813848
20
291.2527949959
11
253.4822180380
21
291.2527949959
0
LINE
8
11000_LEFT
62
7
6
CONTINUOUS
10
356.8955982165
20
291.3423187380
11
354.4329186692
21
291.3423187380
0
LINE
8
11000_LEFT
62
7
6
CONTINUOUS
10
357.3229186692
20
291.5023187380
11
357.3066498011
21
291.5023187380
0
LINE
8
11000_LEFT
62
7
6
CONTINUOUS
10
356.9329186692
20
291.8423187380
11
354.4329186692
21
291.8423187380
0
LINE
8
10000_FRONT
62
7
6
CONTINUOUS
10
252.4524309744
20
292.4444615990
11
252.7332813848
21
292.4444615990
0
LINE
8
11000_LEFT
62
7
6
CONTINUOUS
10
355.3329186692
20
292.5123187380
11
356.0329186692
21
292.5123187380
0
LINE
8
10000_FRONT
62
7
6
CONTINUOUS
10
251.5630686392
20
292.6277949959
11
251.8439200033
21
292.6277949959
0
LINE
8
10000_FRONT
62
7
6
CONTINUOUS
10
253.4822180380
20
292.6277949959
11
253.7630694021
21
292.6277949959
0
LINE
8
11000_LEFT
62
7
6
CONTINUOUS
10
355.5212278814
20
292.7206146108
11
355.8446094569
21
292.7206146108
0
LINE
8
10000_FRONT
62
7
6
CONTINUOUS
10
248.4823140742
20
292.8173187380
11
246.3823140742
21
292.8173187380
0
LINE
8
10000_FRONT
62
7
6
CONTINUOUS
10
246.4823140742
20
292.9073187380
11
248.5823140742
21
292.9073187380
0
LINE
8
10000_FRONT
62
7
6
CONTINUOUS
10
252.2651970495
20
292.9944617898
11
251.8907282461
21
292.9944617898
0
LINE
8
11000_LEFT
62
7
6
CONTINUOUS
10
355.5212278814
20
293.0040228652
11
355.8446094569
21
293.0040228652
0
LINE
8
11000_LEFT
62
7
6
CONTINUOUS
10
357.3229186692
20
293.1023187380
11
357.3066498011
21
293.1023187380
0
LINE
8
11000_LEFT
62
7
6
CONTINUOUS
10
356.0329186692
20
293.2123187380
11
355.3329186692
21
293.2123187380
0
LINE
8
10000_FRONT
62
7
6
CONTINUOUS
10
253.7630694021
20
293.2694623620
11
251.9375374426
21
293.2694623620
0
LINE
8
10000_FRONT
62
7
6
CONTINUOUS
10
251.5630686392
20
293.5444619805
11
253.7630694021
21
293.5444619805
0
LINE
8
11000_LEFT
62
7
6
CONTINUOUS
10
356.8729186692
20
293.8823187380
11
354.4329186692
21
293.8823187380
0
LINE
8
10000_FRONT
62
7
6
CONTINUOUS
10
251.5630686392
20
293.9111287743
11
252.7800905813
21
293.9111287743
0
LINE
8
10000_FRONT
62
7
6
CONTINUOUS
10
252.5460474600
20
294.1402957589
11
251.7971117605
21
294.1402957589
0
LINE
8
11000_LEFT
62
7
6
CONTINUOUS
10
356.8729186692
20
294.3823187380
11
354.4329186692
21
294.3823187380
0
LINE
8
11000_LEFT
62
7
6
CONTINUOUS
10
357.3229186692
20
294.6023187380
11
357.3066498011
21
294.6023187380
0
LINE
8
11000_LEFT
62
7
6
CONTINUOUS
10
355.3329186692
20
295.0523187380
11
356.0329186692
21
295.0523187380
0
LINE
8
11000_LEFT
62
7
6
CONTINUOUS
10
355.5212278814
20
295.2606146108
11
355.8446094569
21
295.2606146108
0
LINE
8
10000_FRONT
62
7
6
CONTINUOUS
10
253.0141327490
20
295.3319618851
11
253.1077501882
21
295.3319618851
0
LINE
8
10000_FRONT
62
7
6
CONTINUOUS
10
248.5823140742
20
295.3573187380
11
246.4823140742
21
295.3573187380
0
LINE
8
10000_FRONT
62
7
6
CONTINUOUS
10
246.3823140742
20
295.4473187380
11
248.4823140742
21
295.4473187380
0
LINE
8
10000_FRONT
62
7
6
CONTINUOUS
10
251.7971117605
20
295.4694621712
11
251.5630686392
21
295.4694621712
0
LINE
8
11000_LEFT
62
7
6
CONTINUOUS
10
355.5212278814
20
295.5440228652
11
355.8446094569
21
295.5440228652
0
LINE
8
10000_FRONT
62
7
6
CONTINUOUS
10
253.1545584310
20
295.5611288697
11
252.9673245062
21
295.5611288697
0
LINE
8
11000_LEFT
62
7
6
CONTINUOUS
10
356.9145441146
20
288.2230232785
11
356.9926740985
21
288.2162067991
0
LINE
8
11000_LEFT
62
7
6
CONTINUOUS
10
356.9926740985
20
288.2162067991
11
357.2521078216
21
288.1882690844
0
LINE
8
10000_FRONT
62
7
6
CONTINUOUS
10
241.4102774389
20
303.3035825430
11
241.4823140742
21
303.2923187380
0
LINE
8
10000_FRONT
62
7
6
CONTINUOUS
10
252.2183878530
20
303.4902953208
11
252.4992392172
21
303.4444619864
0
LINE
8
10000_FRONT
62
7
6
CONTINUOUS
10
252.2183878530
20
303.2611286454
11
252.4524309744
21
303.2152953148
0
LINE
8
10000_FRONT
62
7
6
CONTINUOUS
10
253.1077501882
20
304.8194619566
11
252.8737070669
21
304.8652953059
0
LINE
8
10000_FRONT
62
7
6
CONTINUOUS
10
255.3823140742
20
303.2923187380
11
255.2681162351
21
303.3152525665
0
LINE
8
10000_FRONT
62
7
6
CONTINUOUS
10
251.8907282461
20
296.1111285836
11
252.0779621710
21
296.0652954728
0
LINE
8
10000_FRONT
62
7
6
CONTINUOUS
10
252.0779621710
20
298.0361287743
11
251.8907282461
21
298.0819618851
0
LINE
8
10000_FRONT
62
7
6
CONTINUOUS
10
252.1715796102
20
299.6402952820
11
252.3588135351
21
299.5944619328
0
LINE
8
11000_LEFT
62
7
6
CONTINUOUS
10
352.8329186692
20
283.2104087615
11
353.4229186692
21
283.0523187380
0
LINE
8
10000_FRONT
62
7
6
CONTINUOUS
10
253.1077501882
20
295.3319618851
11
253.2481758703
21
295.2861287743
0
LINE
8
10000_FRONT
62
7
6
CONTINUOUS
10
252.1247713674
20
296.3402950913
11
251.9843456854
21
296.3861286789
0
LINE
8
10000_FRONT
62
7
6
CONTINUOUS
10
252.0779621710
20
303.3069619807
11
252.2183878530
21
303.2611286454
0
LINE
8
10000_FRONT
62
7
6
CONTINUOUS
10
253.2481758703
20
304.7736286074
11
253.1077501882
21
304.8194619566
0
LINE
8
10000_FRONT
62
7
6
CONTINUOUS
10
253.4354097952
20
304.6819620282
11
253.2481758703
21
304.7736286074
0
LINE
8
11000_LEFT
62
7
6
CONTINUOUS
10
351.6275276074
20
254.7335363494
11
351.5363971285
21
254.7870098734
0
LINE
8
11000_LEFT
62
7
6
CONTINUOUS
10
351.7104993017
20
254.6622074241
11
351.6275276074
21
254.7335363494
0
LINE
8
11000_LEFT
62
7
6
CONTINUOUS
10
351.7792047674
20
254.5771888817
11
351.7104993017
21
254.6622074241
0
LINE
8
11000_LEFT
62
7
6
CONTINUOUS
10
378.4600543461
20
233.1071581750
11
378.3949614110
21
233.2044864777
0
LINE
8
11000_LEFT
62
7
6
CONTINUOUS
10
378.1956902290
20
233.2044507723
11
378.2606824388
21
233.1071237677
0
LINE
8
90000_FRAME
62
7
6
CONTINUOUS
10
482.9491908034
20
21.5500136921
11
484.6366013279
21
18.6029868605
0
LINE
8
90000_FRAME
62
7
6
CONTINUOUS
10
484.0662090379
20
16.7967446088
11
482.3550321680
21
19.8388368221
0
LINE
8
11000_LEFT
62
7
6
CONTINUOUS
10
351.8299948915
20
254.4849827254
11
351.7792047674
21
254.5771888817
0
LINE
8
90000_FRAME
62
7
6
CONTINUOUS
10
472.3969334385
20
16.7492119180
11
471.0660180952
21
19.8388368221
0
LINE
8
11000_LEFT
62
7
6
CONTINUOUS
10
351.8623735364
20
254.3928604531
11
351.8299948915
21
254.4849827254
0
LINE
8
11000_LEFT
62
7
6
CONTINUOUS
10
378.4829186692
20
232.9923187380
11
378.4600543461
21
233.1071581750
0
LINE
8
11000_LEFT
62
7
6
CONTINUOUS
10
378.2606824388
20
233.1071237677
11
378.2835046679
21
232.9923187380
0
LINE
8
11000_LEFT
62
7
6
CONTINUOUS
10
382.9829186692
20
220.3202592065
11
382.9829186692
21
232.7923187380
0
LINE
8
11000_LEFT
62
7
6
CONTINUOUS
10
382.9829186692
20
308.4970576145
11
382.9829186692
21
313.0923187380
0
LINE
8
10000_FRONT
62
7
6
CONTINUOUS
10
253.1545584310
20
295.9277951867
11
253.3417923559
21
295.9736287743
0
LINE
8
10000_FRONT
62
7
6
CONTINUOUS
10
252.2651970495
20
296.0652954728
11
252.4524309744
21
296.1111285836
0
LINE
8
10000_FRONT
62
7
6
CONTINUOUS
10
251.8907282461
20
299.5944619328
11
252.0779621710
21
299.6402952820
0
LINE
8
10000_FRONT
62
7
6
CONTINUOUS
10
242.2965119133
20
303.3152525665
11
242.1823140742
21
303.2923187380
0
LINE
8
10000_FRONT
62
7
6
CONTINUOUS
10
252.8737070669
20
303.2152953148
11
253.1077501882
21
303.2611286454
0
LINE
8
10000_FRONT
62
7
6
CONTINUOUS
10
252.4524309744
20
304.8652953059
11
252.2183878530
21
304.8194619566
0
LINE
8
10000_FRONT
62
7
6
CONTINUOUS
10
252.8268988241
20
303.4444619864
11
253.1077501882
21
303.4902953208
0
LINE
8
10000_FRONT
62
7
6
CONTINUOUS
10
252.4992392172
20
304.6361286789
11
252.2183878530
21
304.5902953297
0
LINE
8
10000_FRONT
62
7
6
CONTINUOUS
10
256.1543507096
20
303.3035825430
11
256.0823140742
21
303.2923187380
0
LINE
8
11000_LEFT
62
7
6
CONTINUOUS
10
356.9145441146
20
302.5816141975
11
356.9926740985
21
302.5884306769
0
LINE
8
11000_LEFT
62
7
6
CONTINUOUS
10
356.0329186692
20
295.7523187380
11
355.3329186692
21
295.7523187380
0
LINE
8
10000_FRONT
62
7
6
CONTINUOUS
10
252.0779621710
20
296.0652954728
11
252.2651970495
21
296.0652954728
0
LINE
8
11000_LEFT
62
7
6
CONTINUOUS
10
357.3229186692
20
296.2023187380
11
357.3066498011
21
296.2023187380
0
LINE
8
10000_FRONT
62
7
6
CONTINUOUS
10
252.2183878530
20
296.3402950913
11
252.1247713674
21
296.3402950913
0
LINE
8
11000_LEFT
62
7
6
CONTINUOUS
10
356.8729186692
20
296.4223187380
11
354.4329186692
21
296.4223187380
0
LINE
8
11000_LEFT
62
7
6
CONTINUOUS
10
356.8729186692
20
296.9223187380
11
354.4329186692
21
296.9223187380
0
LINE
8
10000_FRONT
62
7
6
CONTINUOUS
10
253.0609409918
20
297.3486287743
11
253.2013666738
21
297.3486287743
0
LINE
8
11000_LEFT
62
7
6
CONTINUOUS
10
355.3329186692
20
297.5923187380
11
356.0329186692
21
297.5923187380
0
LINE
8
10000_FRONT
62
7
6
CONTINUOUS
10
253.2481758703
20
297.6236288697
11
253.0141327490
21
297.6236288697
0
LINE
8
11000_LEFT
62
7
6
CONTINUOUS
10
357.3229186692
20
297.7023187380
11
357.3066498011
21
297.7023187380
0
LINE
8
11000_LEFT
62
7
6
CONTINUOUS
10
355.5212278814
20
297.8006146108
11
355.8446094569
21
297.8006146108
0
LINE
8
10000_FRONT
62
7
6
CONTINUOUS
10
248.4823140742
20
297.8973187380
11
246.3823140742
21
297.8973187380
0
LINE
8
10000_FRONT
62
7
6
CONTINUOUS
10
246.4823140742
20
297.9873187380
11
248.5823140742
21
297.9873187380
0
LINE
8
10000_FRONT
62
7
6
CONTINUOUS
10
253.7630694021
20
297.9902951867
11
253.5290262808
21
297.9902951867
0
LINE
8
11000_LEFT
62
7
6
CONTINUOUS
10
355.5212278814
20
298.0840228652
11
355.8446094569
21
298.0840228652
0
LINE
8
11000_LEFT
62
7
6
CONTINUOUS
10
356.0329186692
20
298.2923187380
11
355.3329186692
21
298.2923187380
0
LINE
8
11000_LEFT
62
7
6
CONTINUOUS
10
356.9329186692
20
298.9623187380
11
354.4329186692
21
298.9623187380
0
LINE
8
11000_LEFT
62
7
6
CONTINUOUS
10
357.3229186692
20
299.3023187380
11
357.3066498011
21
299.3023187380
0
LINE
8
10000_FRONT
62
7
6
CONTINUOUS
10
252.1715796102
20
299.3652954251
11
252.0779621710
21
299.3652954251
0
LINE
8
11000_LEFT
62
7
6
CONTINUOUS
10
356.8955982165
20
299.4623187380
11
354.4329186692
21
299.4623187380
0
LINE
8
10000_FRONT
62
7
6
CONTINUOUS
10
252.0779621710
20
299.6402952820
11
252.1715796102
21
299.6402952820
0
LINE
8
10000_FRONT
62
7
6
CONTINUOUS
10
253.5290262808
20
299.6402952820
11
253.7630694021
21
299.6402952820
0
LINE
8
10000_FRONT
62
7
6
CONTINUOUS
10
253.1077501882
20
300.0069620759
11
252.8268988241
21
300.0069620759
0
LINE
8
11000_LEFT
62
7
6
CONTINUOUS
10
355.3329186692
20
300.1323187380
11
356.0329186692
21
300.1323187380
0
LINE
8
11000_LEFT
62
7
6
CONTINUOUS
10
355.5212278814
20
300.3406146108
11
355.8446094569
21
300.3406146108
0
LINE
8
10000_FRONT
62
7
6
CONTINUOUS
10
248.5823140742
20
300.4373187380
11
246.4823140742
21
300.4373187380
0
LINE
8
10000_FRONT
62
7
6
CONTINUOUS
10
238.1823140742
20
300.5223187380
11
240.1823140742
21
300.5223187380
0
LINE
8
10000_FRONT
62
7
6
CONTINUOUS
10
246.3823140742
20
300.5273187380
11
248.4823140742
21
300.5273187380
0
LINE
8
11000_LEFT
62
7
6
CONTINUOUS
10
355.5212278814
20
300.6240228652
11
355.8446094569
21
300.6240228652
0
LINE
8
11000_LEFT
62
7
6
CONTINUOUS
10
357.3229186692
20
300.8023187380
11
357.3066498011
21
300.8023187380
0
LINE
8
11000_LEFT
62
7
6
CONTINUOUS
10
356.0329186692
20
300.8323187380
11
355.3329186692
21
300.8323187380
0
LINE
8
10000_FRONT
62
7
6
CONTINUOUS
10
253.7630694021
20
301.1069619805
11
253.1077501882
21
301.1069619805
0
LINE
8
10000_FRONT
62
7
6
CONTINUOUS
10
251.9375374426
20
301.1069619805
11
252.8268988241
21
301.1069619805
0
LINE
8
10000_FRONT
62
7
6
CONTINUOUS
10
251.5630686392
20
301.3819619566
11
252.8268988241
21
301.3819619566
0
LINE
8
10000_FRONT
62
7
6
CONTINUOUS
10
253.1077501882
20
301.3819619566
11
253.7630694021
21
301.3819619566
0
LINE
8
11000_LEFT
62
7
6
CONTINUOUS
10
356.9329186692
20
301.5023187380
11
354.4329186692
21
301.5023187380
0
LINE
8
10000_FRONT
62
7
6
CONTINUOUS
10
252.8268988241
20
301.8402953297
11
253.1077501882
21
301.8402953297
0
LINE
8
11000_LEFT
62
7
6
CONTINUOUS
10
356.9329186692
20
302.0023187380
11
354.4329186692
21
302.0023187380
0
LINE
8
10000_FRONT
62
7
6
CONTINUOUS
10
252.9673245062
20
302.2069620043
11
252.7332813848
21
302.2069620043
0
LINE
8
11000_LEFT
62
7
6
CONTINUOUS
10
357.3229186692
20
302.4023187380
11
357.3066498011
21
302.4023187380
0
LINE
8
10000_FRONT
62
7
6
CONTINUOUS
10
238.1823140742
20
302.5223187380
11
240.1823140742
21
302.5223187380
0
LINE
8
11000_LEFT
62
7
6
CONTINUOUS
10
355.3329186692
20
302.6723187380
11
356.0329186692
21
302.6723187380
0
LINE
8
10000_FRONT
62
7
6
CONTINUOUS
10
252.7332813848
20
302.8486286551
11
252.9673245062
21
302.8486286551
0
LINE
8
11000_LEFT
62
7
6
CONTINUOUS
10
355.5212278814
20
302.8806146108
11
355.8446094569
21
302.8806146108
0
LINE
8
10000_FRONT
62
7
6
CONTINUOUS
10
248.4823140742
20
302.9773187380
11
246.3823140742
21
302.9773187380
0
LINE
8
10000_FRONT
62
7
6
CONTINUOUS
10
246.4823140742
20
303.0673187380
11
248.5823140742
21
303.0673187380
0
LINE
8
11000_LEFT
62
7
6
CONTINUOUS
10
355.5212278814
20
303.1640228652
11
355.8446094569
21
303.1640228652
0
LINE
8
10000_FRONT
62
7
6
CONTINUOUS
10
252.4524309744
20
303.2152953148
11
252.8737070669
21
303.2152953148
0
LINE
8
10000_FRONT
62
7
6
CONTINUOUS
10
241.4823140742
20
303.2923187380
11
242.1823140742
21
303.2923187380
0
LINE
8
10000_FRONT
62
7
6
CONTINUOUS
10
255.3823140742
20
303.2923187380
11
256.0823140742
21
303.2923187380
0
LINE
8
11000_LEFT
62
7
6
CONTINUOUS
10
356.0329186692
20
303.3723187380
11
355.3329186692
21
303.3723187380
0
LINE
8
10000_FRONT
62
7
6
CONTINUOUS
10
252.4992392172
20
303.4444619864
11
252.8268988241
21
303.4444619864
0
LINE
8
11000_LEFT
62
7
6
CONTINUOUS
10
357.3229186692
20
303.9023187380
11
357.3066498011
21
303.9023187380
0
LINE
8
11000_LEFT
62
7
6
CONTINUOUS
10
356.9329186692
20
304.0423187380
11
354.4329186692
21
304.0423187380
0
LINE
8
10000_FRONT
62
7
6
CONTINUOUS
10
252.8268988241
20
304.6361286789
11
252.4992392172
21
304.6361286789
0
LINE
8
10000_FRONT
62
7
6
CONTINUOUS
10
252.8737070669
20
304.8652953059
11
252.4524309744
21
304.8652953059
0
LINE
8
10000_FRONT
62
7
6
CONTINUOUS
10
252.2651970495
20
305.2319619805
11
251.8907282461
21
305.2319619805
0
LINE
8
11000_LEFT
62
7
6
CONTINUOUS
10
356.9729186692
20
305.3273187380
11
357.3229186692
21
305.3273187380
0
LINE
8
10000_FRONT
62
7
6
CONTINUOUS
10
253.7630694021
20
305.5069620759
11
251.9375374426
21
305.5069620759
0
LINE
8
10000_FRONT
62
7
6
CONTINUOUS
10
248.5823140742
20
305.5173187380
11
246.4823140742
21
305.5173187380
0
LINE
8
11000_LEFT
62
7
6
CONTINUOUS
10
356.9729186692
20
305.5623187380
11
354.4329186692
21
305.5623187380
0
LINE
8
10000_FRONT
62
7
6
CONTINUOUS
10
248.7523140742
20
305.5623187380
11
246.2123140742
21
305.5623187380
0
LINE
8
11000_LEFT
62
7
6
CONTINUOUS
10
357.7229254701
20
305.7273187380
11
357.3229186692
21
305.7273187380
0
LINE
8
10000_FRONT
62
7
6
CONTINUOUS
10
251.5630686392
20
305.7819619328
11
253.7630694021
21
305.7819619328
0
LINE
8
11000_LEFT
62
7
6
CONTINUOUS
10
354.4329186692
20
305.9773187380
11
356.7229186692
21
305.9773187380
0
LINE
8
11000_LEFT
62
7
6
CONTINUOUS
10
354.4229186692
20
306.6523187380
11
356.7329186691
21
306.6523187380
0
LINE
8
10000_FRONT
62
7
6
CONTINUOUS
10
249.9823140742
20
306.8523187380
11
244.9823140742
21
306.8523187380
0
LINE
8
11000_LEFT
62
7
6
CONTINUOUS
10
354.4229186692
20
306.9523187380
11
356.7329186692
21
306.9523187380
0
LINE
8
10000_FRONT
62
7
6
CONTINUOUS
10
250.4823140742
20
307.3523187380
11
244.4823140742
21
307.3523187380
0
LINE
8
11000_LEFT
62
7
6
CONTINUOUS
10
353.8229186692
20
307.7523187380
11
353.4229186692
21
307.7523187380
0
LINE
8
10000_FRONT
62
7
6
CONTINUOUS
10
235.6823140742
20
307.7523187380
11
241.0823140742
21
307.7523187380
0
LINE
8
11000_LEFT
62
7
6
CONTINUOUS
10
350.2829186692
20
307.9023187380
11
349.7829186692
21
307.9023187380
0
LINE
8
11000_LEFT
62
7
6
CONTINUOUS
10
356.7829186692
20
307.9523187380
11
352.5829186692
21
307.9523187380
0
LINE
8
10000_FRONT
62
7
6
CONTINUOUS
10
243.1823140742
20
308.7923187380
11
242.4823140742
21
308.7923187380
0
LINE
8
10000_FRONT
62
7
6
CONTINUOUS
10
243.1823140742
20
309.7923187380
11
242.4823140742
21
309.7923187380
0
LINE
8
10000_FRONT
62
7
6
CONTINUOUS
10
242.4823140742
20
311.5923187380
11
255.0823140742
21
311.5923187380
0
LINE
8
10000_FRONT
62
7
6
CONTINUOUS
10
241.7823140742
20
313.2923187380
11
255.7823140742
21
313.2923187380
0
LINE
8
11000_LEFT
62
7
6
CONTINUOUS
10
349.5448754758
20
313.2923187380
11
382.7829186692
21
313.2923187380
0
LINE
8
11000_LEFT
62
7
6
CONTINUOUS
10
356.9145441146
20
291.3230232785
11
356.9926740985
21
291.3162067991
0
LINE
8
11000_LEFT
62
7
6
CONTINUOUS
10
356.9145441146
20
294.4230232785
11
356.9926740985
21
294.4162067991
0
LINE
8
11000_LEFT
62
7
6
CONTINUOUS
10
356.9145441146
20
297.5230232785
11
356.9926740985
21
297.5162067991
0
LINE
8
11000_LEFT
62
7
6
CONTINUOUS
10
356.9145441146
20
300.6230232785
11
356.9926740985
21
300.6162067991
0
LINE
8
11000_LEFT
62
7
6
CONTINUOUS
10
356.9145441146
20
303.7230232785
11
356.9926740985
21
303.7162067991
0
LINE
8
11000_LEFT
62
7
6
CONTINUOUS
10
356.9926740985
20
291.3162067991
11
357.2521078216
21
291.2882690844
0
LINE
8
11000_LEFT
62
7
6
CONTINUOUS
10
356.9926740985
20
294.4162067991
11
357.2521078216
21
294.3882690844
0
LINE
8
11000_LEFT
62
7
6
CONTINUOUS
10
356.9926740985
20
297.5162067991
11
357.2521078216
21
297.4882690844
0
LINE
8
11000_LEFT
62
7
6
CONTINUOUS
10
356.9926740985
20
300.6162067991
11
357.2521078216
21
300.5882690844
0
LINE
8
11000_LEFT
62
7
6
CONTINUOUS
10
356.9926740985
20
303.7162067991
11
357.2521078216
21
303.6882690844
0
LINE
8
10000_FRONT
62
7
6
CONTINUOUS
10
253.1077501882
20
304.5902953297
11
252.8268988241
21
304.6361286789
0
LINE
8
11000_LEFT
62
7
6
CONTINUOUS
10
356.8762311004
20
288.2298406380
11
356.9145441146
21
288.2230232785
0
LINE
8
11000_LEFT
62
7
6
CONTINUOUS
10
356.8762311004
20
291.3298406380
11
356.9145441146
21
291.3230232785
0
LINE
8
11000_LEFT
62
7
6
CONTINUOUS
10
356.8762311004
20
294.4298406380
11
356.9145441146
21
294.4230232785
0
LINE
8
11000_LEFT
62
7
6
CONTINUOUS
10
356.8762311004
20
297.5298406380
11
356.9145441146
21
297.5230232785
0
LINE
8
11000_LEFT
62
7
6
CONTINUOUS
10
356.8762311004
20
300.6298406380
11
356.9145441146
21
300.6230232785
0
LINE
8
11000_LEFT
62
7
6
CONTINUOUS
10
356.8762311004
20
303.7298406380
11
356.9145441146
21
303.7230232785
0
LINE
8
11000_LEFT
62
7
6
CONTINUOUS
10
356.8810531032
20
287.0679803586
11
357.3066498011
21
286.9023187380
0
LINE
8
11000_LEFT
62
7
6
CONTINUOUS
10
356.8810531032
20
290.1679803586
11
357.3066498011
21
290.0023187380
0
LINE
8
11000_LEFT
62
7
6
CONTINUOUS
10
356.8810531032
20
293.2679803586
11
357.3066498011
21
293.1023187380
0
LINE
8
11000_LEFT
62
7
6
CONTINUOUS
10
356.8810531032
20
296.3679803586
11
357.3066498011
21
296.2023187380
0
LINE
8
11000_LEFT
62
7
6
CONTINUOUS
10
356.8810531032
20
299.4679803586
11
357.3066498011
21
299.3023187380
0
LINE
8
11000_LEFT
62
7
6
CONTINUOUS
10
357.2989590713
20
288.1692733312
11
357.2521078216
21
288.1882690844
0
LINE
8
11000_LEFT
62
7
6
CONTINUOUS
10
357.2989590713
20
291.2692733312
11
357.2521078216
21
291.2882690844
0
LINE
8
11000_LEFT
62
7
6
CONTINUOUS
10
357.2989590713
20
294.3692733312
11
357.2521078216
21
294.3882690844
0
LINE
8
11000_LEFT
62
7
6
CONTINUOUS
10
357.2989590713
20
297.4692733312
11
357.2521078216
21
297.4882690844
0
LINE
8
11000_LEFT
62
7
6
CONTINUOUS
10
356.8810531032
20
287.0679803586
11
356.8729186692
21
287.0721426944
0
LINE
8
11000_LEFT
62
7
6
CONTINUOUS
10
356.8810531032
20
293.2679803586
11
356.8729186692
21
293.2721426944
0
LINE
8
11000_LEFT
62
7
6
CONTINUOUS
10
356.8810531032
20
296.3679803586
11
356.8729186692
21
296.3721426944
0
LINE
8
11000_LEFT
62
7
6
CONTINUOUS
10
356.8729186692
20
288.2324947816
11
356.8762311004
21
288.2298406380
0
LINE
8
11000_LEFT
62
7
6
CONTINUOUS
10
356.8729186692
20
291.3324947816
11
356.8762311004
21
291.3298406380
0
LINE
8
11000_LEFT
62
7
6
CONTINUOUS
10
356.8729186692
20
294.4324947816
11
356.8762311004
21
294.4298406380
0
LINE
8
11000_LEFT
62
7
6
CONTINUOUS
10
356.8729186692
20
297.5324947816
11
356.8762311004
21
297.5298406380
0
LINE
8
11000_LEFT
62
7
6
CONTINUOUS
10
369.9829186692
20
270.5923187380
11
369.4829186692
21
271.0923187380
0
LINE
8
11000_LEFT
62
7
6
CONTINUOUS
10
357.3229186692
20
288.1422187591
11
357.2989590713
21
288.1692733312
0
LINE
8
11000_LEFT
62
7
6
CONTINUOUS
10
357.3229186692
20
291.2422187591
11
357.2989590713
21
291.2692733312
0
LINE
8
11000_LEFT
62
7
6
CONTINUOUS
10
357.3229186692
20
294.3422187591
11
357.2989590713
21
294.3692733312
0
LINE
8
11000_LEFT
62
7
6
CONTINUOUS
10
357.3229186692
20
297.4422187591
11
357.2989590713
21
297.4692733312
0
LINE
8
11000_LEFT
62
7
6
CONTINUOUS
10
357.3229186692
20
300.5422187591
11
357.2989590713
21
300.5692733312
0
LINE
8
90000_FRAME
62
7
6
CONTINUOUS
10
471.8265411485
20
21.5500136921
11
473.0623911102
21
18.6505195513
0
LINE
8
91000_TIP
62
7
6
CONTINUOUS
10
422.7797812733
20
20.8043438692
11
422.7797812733
21
15.8043439713
0
LINE
8
11000_LEFT
62
7
6
CONTINUOUS
10
352.5829186692
20
308.3023187380
11
348.5064380125
21
309.1688014501
0
LINE
8
11000_LEFT
62
7
6
CONTINUOUS
10
354.4229186692
20
307.5915492225
11
353.8229186692
21
307.7523187380
0
LINE
8
11000_LEFT
62
7
6
CONTINUOUS
10
356.8810531032
20
302.5679803586
11
357.3066498011
21
302.4023187380
0
LINE
8
11000_LEFT
62
7
6
CONTINUOUS
10
357.2989590713
20
300.5692733312
11
357.2521078216
21
300.5882690844
0
LINE
8
11000_LEFT
62
7
6
CONTINUOUS
10
357.2989590713
20
303.6692733312
11
357.2521078216
21
303.6882690844
0
LINE
8
11000_LEFT
62
7
6
CONTINUOUS
10
356.8729186692
20
303.7324947816
11
356.8762311004
21
303.7298406380
0
LINE
8
11000_LEFT
62
7
6
CONTINUOUS
10
357.3229186692
20
303.6422187591
11
357.2989590713
21
303.6692733312
0
LINE
8
91000_TIP
62
7
6
CONTINUOUS
10
432.7797810691
20
23.3043438181
11
432.7797810691
21
13.3043440223
0
LINE
8
91000_TIP
62
7
6
CENTER
10
439.2797809364
20
12.5828627138
11
439.2797809364
21
23.8662487138
0
LINE
8
90000_FRAME
62
7
6
CONTINUOUS
10
449.0000000000
20
10.0000000000
11
449.0000000000
21
28.0000000000
0
LINE
8
90000_FRAME
62
7
6
CONTINUOUS
10
458.8025838603
20
16.8918099905
11
458.8025838603
21
17.8424638071
0
LINE
8
90000_FRAME
62
7
6
CONTINUOUS
10
462.1298722186
20
20.5518271846
11
462.1298722186
21
21.5024810013
0
LINE
8
90000_FRAME
62
7
6
CONTINUOUS
10
463.2231241078
20
21.5500136921
11
463.2231241078
21
16.7967446088
0
LINE
8
90000_FRAME
62
7
6
CONTINUOUS
10
464.6491048328
20
21.5500136921
11
464.6491048328
21
16.7967446088
0
LINE
8
90000_FRAME
62
7
6
CONTINUOUS
10
465.7423567219
20
21.5500136921
11
465.7423567219
21
16.7967446088
0
LINE
8
90000_FRAME
62
7
6
CONTINUOUS
10
467.1208047561
20
20.6706589117
11
467.1208047561
21
19.6011733680
0
LINE
8
90000_FRAME
62
7
6
CONTINUOUS
10
467.1208047561
20
18.8168839692
11
467.1208047561
21
17.6998657346
0
LINE
8
90000_FRAME
62
7
6
CONTINUOUS
10
468.9745796985
20
19.6011733680
11
468.9745796985
21
18.8168839692
0
LINE
8
90000_FRAME
62
7
6
CONTINUOUS
10
469.2597758435
20
21.5500136921
11
469.2597758435
21
20.6706589117
0
LINE
8
90000_FRAME
62
7
6
CONTINUOUS
10
469.3073085344
20
17.6998657346
11
469.3073085344
21
16.7967446088
0
LINE
8
90000_FRAME
62
7
6
CONTINUOUS
10
470.1153642785
20
16.7967446088
11
470.1153642785
21
21.5500136921
0
LINE
8
90000_FRAME
62
7
6
CONTINUOUS
10
471.0660180952
20
16.7967446088
11
471.0660180952
21
19.8388368221
0
LINE
8
90000_FRAME
62
7
6
CONTINUOUS
10
474.5834372168
20
19.8863695130
11
474.5834372168
21
16.7967446088
0
LINE
8
90000_FRAME
62
7
6
CONTINUOUS
10
475.9618852509
20
21.5500136921
11
475.9618852509
21
16.7967446088
0
LINE
8
90000_FRAME
62
7
6
CONTINUOUS
10
477.0551371401
20
21.5500136921
11
477.0551371401
21
16.7967446088
0
LINE
8
90000_FRAME
62
7
6
CONTINUOUS
10
478.4335851743
20
20.6706589117
11
478.4335851743
21
19.6011733680
0
LINE
8
90000_FRAME
62
7
6
CONTINUOUS
10
478.4335851743
20
18.8168839692
11
478.4335851743
21
17.6998657346
0
LINE
8
90000_FRAME
62
7
6
CONTINUOUS
10
480.2873601167
20
19.6011733680
11
480.2873601167
21
18.8168839692
0
LINE
8
90000_FRAME
62
7
6
CONTINUOUS
10
480.5725562617
20
21.5500136921
11
480.5725562617
21
20.6706589117
0
LINE
8
90000_FRAME
62
7
6
CONTINUOUS
10
480.6200889526
20
17.6998657346
11
480.6200889526
21
16.7967446088
0
LINE
8
90000_FRAME
62
7
6
CONTINUOUS
10
481.4043783513
20
16.7967446088
11
481.4043783513
21
21.5500136921
0
LINE
8
90000_FRAME
62
7
6
CONTINUOUS
10
482.3550321680
20
16.7967446088
11
482.3550321680
21
19.8388368221
0
LINE
8
90000_FRAME
62
7
6
CONTINUOUS
10
484.6366013279
20
21.5500136921
11
484.6366013279
21
18.6029868605
0
LINE
8
90000_FRAME
62
7
6
CONTINUOUS
10
485.5872551446
20
21.5500136921
11
485.5872551446
21
16.7967446088
0
LINE
8
90000_FRAME
62
7
6
CONTINUOUS
10
486.3953108887
20
16.8918099905
11
486.3953108887
21
17.8424638071
0
LINE
8
90000_FRAME
62
7
6
CONTINUOUS
10
489.7225992470
20
20.5518271846
11
489.7225992470
21
21.5024810013
0
LINE
8
90000_FRAME
62
7
6
CONTINUOUS
10
499.0000000000
20
10.0000000000
11
499.0000000000
21
28.0000000000
0
LINE
8
90000_FRAME
62
7
6
CONTINUOUS
10
589.0000000000
20
415.0000000000
11
5.0000000000
21
415.0000000000
0
LINE
8
90000_FRAME
62
7
6
CONTINUOUS
10
594.0000000000
20
420.0000000000
11
0.0000000000
21
420.0000000000
0
LINE
8
90000_FRAME
62
7
6
CONTINUOUS
10
541.5000000000
20
10.0000000000
11
541.5000000000
21
16.0000000000
0
LINE
8
90000_FRAME
62
7
6
CONTINUOUS
10
474.2507083810
20
21.5500136921
11
473.0623911102
21
18.6505195513
0
LINE
8
90000_FRAME
62
7
6
CONTINUOUS
10
474.5834372168
20
19.8863695130
11
473.2525218735
21
16.7492119180
0
LINE
8
90000_FRAME
62
7
6
CONTINUOUS
10
458.9944124496
20
20.9692081512
11
459.2684782743
21
21.2432812288
0
LINE
8
90000_FRAME
62
7
6
CONTINUOUS
10
584.0000000000
20
10.0000000000
11
584.0000000000
21
28.0000000000
0
LINE
8
90000_FRAME
62
7
6
CONTINUOUS
10
589.0000000000
20
5.0000000000
11
589.0000000000
21
415.0000000000
0
LINE
8
90000_FRAME
62
7
6
CONTINUOUS
10
594.0000000000
20
0.0000000000
11
594.0000000000
21
420.0000000000
0
ARC
8
11000_LEFT
62
40
6
CONTINUOUS
10
356.7329186692
20
305.6523187380
40
1.0000000000
50
0.0000000000
51
90.0000000000
0
ARC
8
11000_LEFT
62
40
6
CONTINUOUS
10
356.7329186692
20
285.1523187380
40
1.0000000000
50
270.0000000000
51
360.0000000000
0
ARC
8
90000_FRAME
62
7
6
CONTINUOUS
10
488.0999520137
20
18.7539031539
40
1.1116193606
50
277.7099956934
51
295.6884927746
0
ARC
8
90000_FRAME
62
7
6
CONTINUOUS
10
488.3842619965
20
18.0290773902
40
0.3401689265
50
305.5032212550
51
72.4652898523
0
ARC
8
90000_FRAME
62
7
6
CONTINUOUS
10
487.8182681884
20
21.4307842998
40
4.7567946411
50
252.5939200548
51
280.9816604256
0
ARC
8
90000_FRAME
62
7
6
CONTINUOUS
10
488.2731035514
20
18.8127705633
40
2.1007265953
50
282.4058358520
51
311.8644433928
0
ARC
8
90000_FRAME
62
7
6
CONTINUOUS
10
487.9995392043
20
20.4211122848
40
0.3029626476
50
154.4400348282
51
221.8201698801
0
ARC
8
90000_FRAME
62
7
6
CONTINUOUS
10
488.0787603557
20
20.3418911335
40
0.4103089737
50
102.8287828681
51
149.2259639003
0
ARC
8
90000_FRAME
62
7
6
CONTINUOUS
10
488.4957871914
20
18.5995558036
40
2.2018365570
50
84.0400061857
51
103.3427657871
0
ARC
8
90000_FRAME
62
7
6
CONTINUOUS
10
488.1548233666
20
16.1821918797
40
4.6423737365
50
70.2625858546
51
82.9524186380
0
ARC
8
90000_FRAME
62
7
6
CONTINUOUS
10
487.6408051645
20
20.8538147693
40
3.2587559909
50
247.5300206145
51
280.7579522143
0
ARC
8
90000_FRAME
62
7
6
CONTINUOUS
10
481.2558386924
20
2.6022948089
40
17.3316084133
50
65.3414674650
51
67.3997770736
0
ARC
8
90000_FRAME
62
7
6
CONTINUOUS
10
492.0517010978
20
28.3947211720
40
10.6291642039
50
242.8620101252
51
247.1042029186
0
ARC
8
90000_FRAME
62
7
6
CONTINUOUS
10
488.1967998713
20
20.8607896750
40
2.1662916292
50
227.3119280794
51
242.7040315235
0
ARC
8
90000_FRAME
62
7
6
CONTINUOUS
10
487.5927690616
20
20.1551120342
40
1.2385217340
50
194.7952194236
51
225.7176549047
0
ARC
8
90000_FRAME
62
7
6
CONTINUOUS
10
487.6549271958
20
20.1953320034
40
1.3090920729
50
164.1974860461
51
195.8025139539
0
ARC
8
90000_FRAME
62
7
6
CONTINUOUS
10
488.2119509165
20
19.3070648434
40
2.3669248153
50
86.2218022928
51
120.4272602309
0
ARC
8
90000_FRAME
62
7
6
CONTINUOUS
10
487.9430941340
20
12.6108970224
40
9.0679051661
50
78.6827049226
51
87.3147599624
0
ARC
8
90000_FRAME
62
7
6
CONTINUOUS
10
487.4870249556
20
20.3028397659
40
1.1197474440
50
142.8139179030
51
167.1522951417
0
ARC
8
90000_FRAME
62
7
6
CONTINUOUS
10
487.8323342971
20
19.9962580692
40
1.5805466845
50
121.2140948535
51
141.5254768286
0
ARC
8
90000_FRAME
62
7
6
CONTINUOUS
10
488.4095086628
20
20.8073153978
40
0.8661276052
50
222.7760387596
51
239.0362434679
0
ARC
8
90000_FRAME
62
7
6
CONTINUOUS
10
485.9027990845
20
13.4770431993
40
6.8587735763
50
59.9020272560
51
68.2036481279
0
ARC
8
90000_FRAME
62
7
6
CONTINUOUS
10
489.3112935783
20
22.4029297065
40
2.6987410171
50
240.0481997804
51
251.3779673737
0
ARC
8
90000_FRAME
62
7
6
CONTINUOUS
10
488.6458364115
20
18.2460310912
40
1.4334474881
50
315.8904553224
51
333.5229264373
0
ARC
8
90000_FRAME
62
7
6
CONTINUOUS
10
488.6504746552
20
18.1926239410
40
1.4062287119
50
335.3867972702
51
24.3915119402
0
ARC
8
90000_FRAME
62
7
6
CONTINUOUS
10
488.5782697517
20
18.1147672492
40
1.5047025148
50
25.9562916605
51
59.4834829668
0
ARC
8
90000_FRAME
62
7
6
CONTINUOUS
10
460.5072249853
20
18.7539031539
40
1.1116193606
50
277.7099956934
51
295.6884927746
0
ARC
8
90000_FRAME
62
7
6
CONTINUOUS
10
460.7915349681
20
18.0290773902
40
0.3401689265
50
305.5032212556
51
72.4652898515
0
ARC
8
90000_FRAME
62
7
6
CONTINUOUS
10
460.2255411600
20
21.4307842998
40
4.7567946411
50
252.5939200545
51
280.9816604253
0
ARC
8
90000_FRAME
62
7
6
CONTINUOUS
10
460.6803765230
20
18.8127705633
40
2.1007265953
50
282.4058358513
51
311.8644433923
0
ARC
8
90000_FRAME
62
7
6
CONTINUOUS
10
460.4068121759
20
20.4211122848
40
0.3029626476
50
154.4400348282
51
221.8201698801
0
ARC
8
90000_FRAME
62
7
6
CONTINUOUS
10
460.4860333273
20
20.3418911335
40
0.4103089737
50
102.8287828726
51
149.2259639027
0
ARC
8
90000_FRAME
62
7
6
CONTINUOUS
10
460.9030601630
20
18.5995558036
40
2.2018365570
50
84.0400061859
51
103.3427657872
0
ARC
8
90000_FRAME
62
7
6
CONTINUOUS
10
460.5620963382
20
16.1821918797
40
4.6423737365
50
70.2625858546
51
82.9524186379
0
ARC
8
90000_FRAME
62
7
6
CONTINUOUS
10
460.0480781360
20
20.8538147693
40
3.2587559909
50
247.5300206148
51
280.7579522145
0
ARC
8
90000_FRAME
62
7
6
CONTINUOUS
10
453.6631116640
20
2.6022948089
40
17.3316084133
50
65.3414674650
51
67.3997770736
0
ARC
8
90000_FRAME
62
7
6
CONTINUOUS
10
464.4589740694
20
28.3947211720
40
10.6291642039
50
242.8620101252
51
247.1042029185
0
ARC
8
90000_FRAME
62
7
6
CONTINUOUS
10
460.6040728429
20
20.8607896750
40
2.1662916292
50
227.3119280794
51
242.7040315235
0
ARC
8
90000_FRAME
62
7
6
CONTINUOUS
10
460.0000420332
20
20.1551120342
40
1.2385217340
50
194.7952194234
51
225.7176549042
0
ARC
8
90000_FRAME
62
7
6
CONTINUOUS
10
460.6192238881
20
19.3070648434
40
2.3669248153
50
86.2218022928
51
120.4272602309
0
ARC
8
90000_FRAME
62
7
6
CONTINUOUS
10
460.3503671056
20
12.6108970224
40
9.0679051661
50
78.6827049226
51
87.3147599624
0
ARC
8
90000_FRAME
62
7
6
CONTINUOUS
10
460.2396072687
20
19.9962580692
40
1.5805466846
50
121.2140948541
51
141.5254768290
0
ARC
8
90000_FRAME
62
7
6
CONTINUOUS
10
460.8167816344
20
20.8073153978
40
0.8661276052
50
222.7760387596
51
239.0362434679
0
ARC
8
90000_FRAME
62
7
6
CONTINUOUS
10
458.3100720561
20
13.4770431993
40
6.8587735763
50
59.9020272562
51
68.2036481282
0
ARC
8
90000_FRAME
62
7
6
CONTINUOUS
10
461.7185665499
20
22.4029297065
40
2.6987410171
50
240.0481997804
51
251.3779673734
0
ARC
8
90000_FRAME
62
7
6
CONTINUOUS
10
461.0531093831
20
18.2460310912
40
1.4334474881
50
315.8904553226
51
333.5229264375
0
ARC
8
90000_FRAME
62
7
6
CONTINUOUS
10
461.0577476268
20
18.1926239410
40
1.4062287119
50
335.3867972703
51
24.3915119403
0
ARC
8
90000_FRAME
62
7
6
CONTINUOUS
10
460.9855427233
20
18.1147672492
40
1.5047025147
50
25.9562916611
51
59.4834829676
0
ARC
8
90000_FRAME
62
7
6
CONTINUOUS
10
460.0622001674
20
20.1953320034
40
1.3090920729
50
164.1974860461
51
195.8025139539
0
ARC
8
90000_FRAME
62
7
6
CONTINUOUS
10
459.8942979271
20
20.3028397659
40
1.1197474440
50
142.8139179030
51
167.1522951417
0
ARC
8
10000_FRONT
62
7
6
CONTINUOUS
10
234.5823140742
20
215.3423187380
40
0.3000000000
50
90.0000000000
51
180.0000000000
0
ARC
8
10000_FRONT
62
7
6
CONTINUOUS
10
241.0823140742
20
207.9423187380
40
0.2000000000
50
0.0000000009
51
90.0000000000
0
ARC
8
10000_FRONT
62
7
6
CONTINUOUS
10
241.7823140742
20
181.7923187380
40
0.5000000000
50
180.0000000000
51
270.0000000000
0
ARC
8
10000_FRONT
62
7
6
CONTINUOUS
10
243.0823140742
20
232.9923187380
40
0.3000000000
50
90.0000000000
51
180.0000000000
0
ARC
8
10000_FRONT
62
7
6
CONTINUOUS
10
254.4823140742
20
232.9923187380
40
0.3000000000
50
0.0000000000
51
90.0000000000
0
ARC
8
10000_FRONT
62
7
6
CONTINUOUS
10
256.0823140742
20
230.2923187380
40
0.2000000000
50
0.0000000000
51
90.0000000000
0
ARC
8
10000_FRONT
62
7
6
CONTINUOUS
10
241.4823140742
20
230.2923187380
40
0.2000000000
50
90.0000000000
51
180.0000000000
0
ARC
8
10000_FRONT
62
7
6
CONTINUOUS
10
255.7823140742
20
181.7923187380
40
0.5000000000
50
270.0000000000
51
360.0000000000
0
CIRCLE
8
10000_FRONT
62
7
6
CONTINUOUS
10
251.7823140742
20
190.2923187380
40
2.0250001020
0
CIRCLE
8
10000_FRONT
62
7
6
CONTINUOUS
10
245.7823140742
20
190.2923187380
40
2.0250001020
0
CIRCLE
8
10000_FRONT
62
7
6
CONTINUOUS
10
251.7823140742
20
202.7923187380
40
2.0250001020
0
CIRCLE
8
10000_FRONT
62
7
6
CONTINUOUS
10
245.7823140742
20
202.7923187380
40
2.0250001020
0
CIRCLE
8
10000_FRONT
62
7
6
CONTINUOUS
10
251.7823140742
20
215.2923187380
40
2.0250001020
0
CIRCLE
8
10000_FRONT
62
7
6
CONTINUOUS
10
245.7823140742
20
215.2923187380
40
2.0250001020
0
CIRCLE
8
10000_FRONT
62
7
6
CONTINUOUS
10
245.7823140742
20
227.7923187380
40
2.0250001020
0
CIRCLE
8
10000_FRONT
62
7
6
CONTINUOUS
10
251.7823140742
20
227.7923187380
40
2.0250001020
0
ARC
8
10000_FRONT
62
7
6
CONTINUOUS
10
241.0823140742
20
257.1923187380
40
0.2000000000
50
0.0000000000
51
90.0000000000
0
ARC
8
10000_FRONT
62
7
6
CONTINUOUS
10
241.0823140742
20
282.8523187380
40
0.2000000000
50
0.0000000000
51
90.0000000000
0
ARC
8
10000_FRONT
62
7
6
CONTINUOUS
10
235.6823140742
20
307.2523187380
40
0.5000000000
50
90.0000000000
51
180.0000000000
0
ARC
8
10000_FRONT
62
7
6
CONTINUOUS
10
235.6823140742
20
283.5523187380
40
0.5000000000
50
180.0000000000
51
270.0000000000
0
ARC
8
10000_FRONT
62
7
6
CONTINUOUS
10
241.7823140742
20
312.7923187380
40
0.5000000000
50
90.0000000000
51
180.0000000000
0
ARC
8
10000_FRONT
62
7
6
CONTINUOUS
10
255.7823140742
20
312.7923187380
40
0.5000000000
50
0.0000000000
51
90.0000000000
0
ARC
8
10000_FRONT
62
7
6
CONTINUOUS
10
241.0823140742
20
307.9523187380
40
0.2000000000
50
270.0000000000
51
360.0000000000
0
ARC
8
10000_FRONT
62
7
6
CONTINUOUS
10
241.0823140742
20
215.8423187380
40
0.2000000000
50
270.0000000000
51
345.4971723972
0
ARC
8
10000_FRONT
62
7
6
CONTINUOUS
10
239.7823140742
20
248.2923187380
40
1.5000000000
50
0.0000000000
51
90.0000000000
0
ARC
8
10000_FRONT
62
7
6
CONTINUOUS
10
238.4823140742
20
249.5923187380
40
0.2000000000
50
90.0000000000
51
180.0000000000
0
ARC
8
10000_FRONT
62
7
6
CONTINUOUS
10
234.7823140742
20
252.9384800574
40
0.5000000000
50
108.1617714690
51
180.0000000000
0
ARC
8
10000_FRONT
62
7
6
CONTINUOUS
10
234.5823140742
20
250.2326204233
40
0.3000000000
50
180.0000000000
51
234.0000000000
0
ARC
8
10000_FRONT
62
7
6
CONTINUOUS
10
234.5823140742
20
208.4423187380
40
0.3000000000
50
180.0000000000
51
270.0000000000
0
ARC
8
10000_FRONT
62
7
6
CONTINUOUS
10
234.5823140742
20
266.5923187380
40
0.3000000000
50
90.0000000000
51
180.0000000000
0
ARC
8
10000_FRONT
62
7
6
CONTINUOUS
10
234.5823140742
20
257.6923187380
40
0.3000000000
50
180.0000000000
51
270.0000000000
0
ARC
8
10000_FRONT
62
7
6
CONTINUOUS
10
240.9823140742
20
254.8440486273
40
0.3000000000
50
280.0000000000
51
360.0000000000
0
ARC
8
10000_FRONT
62
7
6
CONTINUOUS
10
241.0823140742
20
267.0923187380
40
0.2000000000
50
270.0000000000
51
360.0000000000
0
ARC
8
11000_LEFT
62
7
6
CONTINUOUS
10
347.7329186692
20
213.9423187380
40
0.3000000000
50
0.0000000000
51
90.0000000000
0
ARC
8
11000_LEFT
62
7
6
CONTINUOUS
10
348.5329186692
20
215.3423187380
40
0.3000000000
50
0.0000000000
51
90.0000000000
0
ARC
8
11000_LEFT
62
7
6
CONTINUOUS
10
348.3329186692
20
208.4423187380
40
0.3000000000
50
180.0000000000
51
270.0000000000
0
ARC
8
11000_LEFT
62
7
6
CONTINUOUS
10
348.5329186692
20
208.4423187380
40
0.3000000000
50
270.0000000000
51
360.0000000000
0
ARC
8
11000_LEFT
62
7
6
CONTINUOUS
10
347.7329186692
20
213.9423187380
40
0.0999980479
50
0.0000000000
51
90.0000000000
0
ARC
8
11000_LEFT
62
7
6
CONTINUOUS
10
348.3329186692
20
208.4423187380
40
0.4999987075
50
180.0000000000
51
270.0000000000
0
ARC
8
11000_LEFT
62
7
6
CONTINUOUS
10
348.5329186692
20
208.4423187380
40
0.5000000000
50
270.0000000000
51
334.1580672368
0
ARC
8
11000_LEFT
62
7
6
CONTINUOUS
10
356.7229186692
20
285.0773187380
40
0.2500000000
50
270.0000000000
51
360.0000000000
0
ARC
8
11000_LEFT
62
7
6
CONTINUOUS
10
356.7229186692
20
305.7273187380
40
0.2500000000
50
0.0000000000
51
90.0000000000
0
ARC
8
11000_LEFT
62
7
6
CONTINUOUS
10
344.7507967841
20
231.3923187380
40
0.3000000000
50
15.0000000000
51
125.0000000000
0
ARC
8
11000_LEFT
62
7
6
CONTINUOUS
10
344.5829186692
20
229.6923187380
40
0.5000000000
50
90.0000000000
51
180.0000000000
0
ARC
8
11000_LEFT
62
7
6
CONTINUOUS
10
340.4829186692
20
227.5493760976
40
1.0000000000
50
125.0000000000
51
180.0000000000
0
ARC
8
11000_LEFT
62
7
6
CONTINUOUS
10
354.7829186692
20
282.9023187380
40
0.3000000000
50
180.0000000000
51
270.0000000000
0
ARC
8
11000_LEFT
62
7
6
CONTINUOUS
10
382.7829186692
20
313.0923187380
40
0.2000000000
50
0.0000000000
51
90.0000000000
0
ARC
8
11000_LEFT
62
7
6
CONTINUOUS
10
349.5448754758
20
313.0923187380
40
0.2000000000
50
90.0000000000
51
168.0000000000
0
ARC
8
11000_LEFT
62
7
6
CONTINUOUS
10
349.9829186692
20
272.2923187380
40
1.0000000000
50
180.0000000000
51
270.0000000000
0
ARC
8
11000_LEFT
62
7
6
CONTINUOUS
10
349.9829186692
20
278.2923187380
40
1.0000000000
50
90.0000000000
51
180.0000000000
0
ARC
8
11000_LEFT
62
7
6
CONTINUOUS
10
356.7329186692
20
305.6523187380
40
1.0000000000
50
0.0000000000
51
90.0000000000
0
ARC
8
11000_LEFT
62
7
6
CONTINUOUS
10
356.7329186692
20
285.1523187380
40
1.0000000000
50
270.0000000000
51
360.0000000000
0
ARC
8
11000_LEFT
62
7
6
CONTINUOUS
10
380.9829186692
20
308.4970576145
40
2.0000000000
50
280.0000000000
51
360.0000000000
0
ARC
8
11000_LEFT
62
7
6
CONTINUOUS
10
356.7329186692
20
305.6523187380
40
1.3000000685
50
0.0000000000
51
90.0000000000
0
ARC
8
11000_LEFT
62
7
6
CONTINUOUS
10
356.7329186692
20
285.1523187380
40
1.3000000685
50
270.0000000000
51
360.0000000000
0
ARC
8
11000_LEFT
62
7
6
CONTINUOUS
10
356.7829186692
20
285.0523187380
40
2.1999999929
50
270.0000000000
51
360.0000000000
0
ARC
8
11000_LEFT
62
7
6
CONTINUOUS
10
356.7829186692
20
305.7523187380
40
2.1999999929
50
0.0000000000
51
90.0000000000
0
ARC
8
11000_LEFT
62
7
6
CONTINUOUS
10
360.8329186692
20
266.5923187380
40
0.4999999979
50
0.0000000000
51
90.0000000000
0
ARC
8
11000_LEFT
62
7
6
CONTINUOUS
10
360.8329186692
20
257.6923187380
40
0.4999999979
50
270.0000000000
51
360.0000000000
0
ARC
8
11000_LEFT
62
7
6
CONTINUOUS
10
360.6329186692
20
257.6923187380
40
0.4999999979
50
180.0000000000
51
270.0000000000
0
ARC
8
11000_LEFT
62
7
6
CONTINUOUS
10
360.0329186692
20
265.1923187380
40
0.1000000304
50
0.0000000000
51
90.0000000000
0
ARC
8
11000_LEFT
62
7
6
CONTINUOUS
10
345.4829186692
20
219.3923187380
40
10.0000000000
50
90.0000000000
51
126.8698976458
0
ARC
8
11000_LEFT
62
7
6
CONTINUOUS
10
343.7404539232
20
262.6923187380
40
1.0000000000
50
270.0000000000
51
344.0000000000
0
ARC
8
11000_LEFT
62
7
6
CONTINUOUS
10
343.4829186692
20
265.6923187380
40
4.0000000000
50
180.0000000000
51
270.0000000000
0
ARC
8
11000_LEFT
62
7
6
CONTINUOUS
10
351.2829186692
20
247.8923187380
40
0.3000000000
50
270.0000000000
51
360.0000000000
0
ARC
8
11000_LEFT
62
7
6
CONTINUOUS
10
349.4829186692
20
247.8923187380
40
0.3000000000
50
180.0000000000
51
270.0000000000
0
ARC
8
11000_LEFT
62
7
6
CONTINUOUS
10
343.6329186692
20
213.9423187380
40
0.3000000000
50
90.0000000000
51
180.0000000000
0
ARC
8
11000_LEFT
62
7
6
CONTINUOUS
10
343.0329186692
20
208.4423187380
40
0.3000000000
50
270.0000000000
51
360.0000000000
0
ARC
8
11000_LEFT
62
7
6
CONTINUOUS
10
342.8329186692
20
208.4423187380
40
0.3000000000
50
180.0000000000
51
270.0000000000
0
ARC
8
11000_LEFT
62
7
6
CONTINUOUS
10
342.8329186692
20
215.3423187380
40
0.3000000000
50
90.0000000000
51
180.0000000000
0
ARC
8
11000_LEFT
62
7
6
CONTINUOUS
10
342.8329186692
20
215.3423187380
40
0.5000000000
50
90.0000000000
51
180.0000000000
0
ARC
8
11000_LEFT
62
7
6
CONTINUOUS
10
350.2829186692
20
307.4023187380
40
0.4999999957
50
0.0000000000
51
90.0000000000
0
ARC
8
11000_LEFT
62
7
6
CONTINUOUS
10
349.7829186692
20
307.4023187380
40
0.4999999957
50
90.0000000000
51
180.0000000000
0
ARC
8
11000_LEFT
62
7
6
CONTINUOUS
10
349.7829186692
20
283.4023187380
40
0.4999999957
50
180.0000000000
51
270.0000000000
0
ARC
8
11000_LEFT
62
7
6
CONTINUOUS
10
350.2829186692
20
283.4023187380
40
0.4999999957
50
270.0000000000
51
360.0000000000
0
ARC
8
11000_LEFT
62
7
6
CONTINUOUS
10
353.5829186692
20
266.5923187380
40
0.4999999957
50
90.0000000000
51
180.0000000000
0
ARC
8
11000_LEFT
62
7
6
CONTINUOUS
10
353.5829186692
20
257.6923187380
40
0.4999999957
50
180.0000000000
51
270.0000000000
0
ARC
8
11000_LEFT
62
7
6
CONTINUOUS
10
353.7829186692
20
257.6923187380
40
0.4999999957
50
270.0000000000
51
360.0000000000
0
ARC
8
11000_LEFT
62
7
6
CONTINUOUS
10
354.3829186692
20
265.1923187380
40
0.1000007832
50
90.0000000000
51
180.0000000000
0
ARC
8
11000_LEFT
62
7
6
CONTINUOUS
10
342.8329186692
20
208.4423187380
40
0.5000000000
50
180.0000000000
51
270.0000000000
0
ARC
8
11000_LEFT
62
7
6
CONTINUOUS
10
343.0329186692
20
208.4423187380
40
0.5000000000
50
270.0000000000
51
360.0000000000
0
ARC
8
11000_LEFT
62
7
6
CONTINUOUS
10
343.6329186692
20
213.9423187380
40
0.1000000000
50
90.0000000000
51
180.0000000000
0
ARC
8
11000_LEFT
62
7
6
CONTINUOUS
10
371.7829186692
20
211.4923187380
40
1.0000000000
50
0.0000000000
51
90.0000000000
0
ARC
8
11000_LEFT
62
7
6
CONTINUOUS
10
364.6829186692
20
211.4923187380
40
1.0000000000
50
90.0000000000
51
180.0000000000
0
ARC
8
11000_LEFT
62
7
6
CONTINUOUS
10
363.4829186692
20
181.4923187380
40
0.2000000000
50
270.0000000000
51
360.0000000000
0
ARC
8
11000_LEFT
62
7
6
CONTINUOUS
10
370.9829186692
20
181.4923187380
40
0.2000000000
50
180.0000000000
51
270.0000000000
0
ARC
8
13000_TOP
62
7
6
CONTINUOUS
10
241.0823140742
20
117.3633284115
40
0.2000000000
50
23.5237808208
51
90.0000000000
0
ARC
8
13000_TOP
62
7
6
CONTINUOUS
10
234.5823140742
20
117.8633284115
40
0.3000000000
50
180.0000000000
51
270.0000000000
0
ARC
8
13000_TOP
62
7
6
CONTINUOUS
10
241.0823140742
20
113.3133284115
40
0.2000000000
50
270.0000000000
51
352.8895109196
0
ARC
8
13000_TOP
62
7
6
CONTINUOUS
10
241.0823140742
20
124.0633284115
40
0.2000000000
50
270.0000000000
51
360.0000000000
0
ARC
8
13000_TOP
62
7
6
CONTINUOUS
10
235.2823140742
20
115.8133284115
40
1.0000000000
50
180.0000000000
51
270.0000000000
0
ARC
8
13000_TOP
62
7
6
CONTINUOUS
10
235.2823140742
20
116.2133284115
40
1.0000000000
50
90.0000000000
51
180.0000000000
0
ARC
8
13000_TOP
62
7
6
CONTINUOUS
10
235.6823140742
20
116.3133284115
40
0.5000000000
50
180.0000000000
51
270.0000000000
0
ARC
8
13000_TOP
62
7
6
CONTINUOUS
10
235.6823140742
20
116.4133284115
40
0.5000000000
50
90.0000000000
51
180.0000000000
0
ARC
8
13000_TOP
62
7
6
CONTINUOUS
10
234.5823140742
20
123.5633284115
40
0.3000000000
50
90.0000000000
51
180.0000000000
0
ARC
8
13000_TOP
62
7
6
CONTINUOUS
10
240.9823140742
20
114.5133284222
40
0.2999999947
50
359.9999979675
51
90.0000000000
0
ARC
8
13000_TOP
62
7
6
CONTINUOUS
10
240.9823140742
20
117.5133284115
40
0.3000000000
50
270.0000000000
51
360.0000000000
0
ARC
8
13000_TOP
62
7
6
CONTINUOUS
10
234.5823140742
20
112.8133284115
40
0.3000000000
50
90.0000000000
51
180.0000000000
0
ARC
8
13000_TOP
62
7
6
CONTINUOUS
10
256.0823140742
20
83.6133284115
40
0.2000000000
50
270.0000000000
51
360.0000000000
0
ARC
8
13000_TOP
62
7
6
CONTINUOUS
10
241.0823140742
20
105.0633284115
40
0.2000000000
50
0.0000000000
51
90.0000000000
0
ARC
8
13000_TOP
62
7
6
CONTINUOUS
10
235.6823140742
20
108.1133284115
40
0.5000000000
50
180.0000000000
51
270.0000000000
0
ARC
8
13000_TOP
62
7
6
CONTINUOUS
10
241.4823140742
20
83.6133284115
40
0.2000000000
50
180.0000000000
51
270.0000000000
0
ARC
8
13000_TOP
62
7
6
CONTINUOUS
10
241.0823140742
20
107.4133284115
40
0.2000000000
50
0.0000000000
51
90.0000000000
0
ARC
8
13000_TOP
62
7
6
CONTINUOUS
10
249.5323140742
20
86.9133284115
40
1.5000000000
50
270.0000000000
51
360.0000000000
0
ARC
8
13000_TOP
62
7
6
CONTINUOUS
10
248.0323140742
20
86.9133284115
40
1.5000000000
50
180.0000000000
51
270.0000000000
0
ARC
8
13000_TOP
62
7
6
CONTINUOUS
10
234.5823140742
20
105.5633284115
40
0.3000000000
50
180.0000000000
51
270.0000000000
0
CIRCLE
8
91000_TIP
62
7
6
CONTINUOUS
10
439.2797809364
20
18.3043439202
40
4.9999998979
0
CIRCLE
8
91000_TIP
62
7
6
CONTINUOUS
10
439.2797809364
20
18.3043439202
40
2.4999999489
0
ENDSEC
0
EOF
