  0
SECTION
  2
HEADER
  9
$ACADVER
  1
AC1015
  9
$ACADMAINTVER
 70
    20
  9
$DWGCODEPAGE
  3
ANSI_1252
  9
$INSBASE
 10
0.0
 20
0.0
 30
0.0
  9
$EXTMIN
 10
1055.879032489507
 20
202.2364389549196
 30
-1.000068646388727
  9
$EXTMAX
 10
1325.979150561933
 20
402.2754549676632
 30
0.5000686743298966
  9
$LIMMIN
 10
0.0
 20
0.0
  9
$LIMMAX
 10
420.0
 20
297.0
  9
$ORTHOMODE
 70
     0
  9
$REGENMODE
 70
     1
  9
$FILLMODE
 70
     1
  9
$QTEXTMODE
 70
     0
  9
$MIRRTEXT
 70
     1
  9
$LTSCALE
 40
1.0
  9
$ATTMODE
 70
     1
  9
$TEXTSIZE
 40
2.5
  9
$TRACEWID
 40
1.0
  9
$TEXTSTYLE
  7
Standard
  9
$CLAYER
  8
0
  9
$CELTYPE
  6
ByLayer
  9
$CECOLOR
 62
   256
  9
$CELTSCALE
 40
1.0
  9
$DISPSILH
 70
     0
  9
$DIMSCALE
 40
1.0
  9
$DIMASZ
 40
2.5
  9
$DIMEXO
 40
0.625
  9
$DIMDLI
 40
3.75
  9
$DIMRND
 40
0.0
  9
$DIMDLE
 40
0.0
  9
$DIMEXE
 40
1.25
  9
$DIMTP
 40
0.0
  9
$DIMTM
 40
0.0
  9
$DIMTXT
 40
2.5
  9
$DIMCEN
 40
2.5
  9
$DIMTSZ
 40
0.0
  9
$DIMTOL
 70
     0
  9
$DIMLIM
 70
     0
  9
$DIMTIH
 70
     0
  9
$DIMTOH
 70
     0
  9
$DIMSE1
 70
     0
  9
$DIMSE2
 70
     0
  9
$DIMTAD
 70
     0
  9
$DIMZIN
 70
     8
  9
$DIMBLK
  1

  9
$DIMASO
 70
     1
  9
$DIMSHO
 70
     1
  9
$DIMPOST
  1

  9
$DIMAPOST
  1

  9
$DIMALT
 70
     0
  9
$DIMALTD
 70
     3
  9
$DIMALTF
 40
0.03937007874016
  9
$DIMLFAC
 40
1.0
  9
$DIMTOFL
 70
     1
  9
$DIMTVP
 40
0.0
  9
$DIMTIX
 70
     0
  9
$DIMSOXD
 70
     0
  9
$DIMSAH
 70
     0
  9
$DIMBLK1
  1

  9
$DIMBLK2
  1

  9
$DIMSTYLE
  2
ISO-25
  9
$DIMCLRD
 70
     0
  9
$DIMCLRE
 70
     0
  9
$DIMCLRT
 70
     0
  9
$DIMTFAC
 40
1.0
  9
$DIMGAP
 40
0.625
  9
$DIMJUST
 70
     0
  9
$DIMSD1
 70
     0
  9
$DIMSD2
 70
     0
  9
$DIMTOLJ
 70
     0
  9
$DIMTZIN
 70
     8
  9
$DIMALTZ
 70
     0
  9
$DIMALTTZ
 70
     0
  9
$DIMUPT
 70
     0
  9
$DIMDEC
 70
     2
  9
$DIMTDEC
 70
     2
  9
$DIMALTU
 70
     2
  9
$DIMALTTD
 70
     3
  9
$DIMTXSTY
  7
Standard
  9
$DIMAUNIT
 70
     0
  9
$DIMADEC
 70
     0
  9
$DIMALTRND
 40
0.0
  9
$DIMAZIN
 70
     0
  9
$DIMDSEP
 70
    44
  9
$DIMATFIT
 70
     3
  9
$DIMFRAC
 70
     0
  9
$DIMLDRBLK
  1

  9
$DIMLUNIT
 70
     2
  9
$DIMLWD
 70
    -2
  9
$DIMLWE
 70
    -2
  9
$DIMTMOVE
 70
     0
  9
$LUNITS
 70
     2
  9
$LUPREC
 70
     4
  9
$SKETCHINC
 40
1.0
  9
$FILLETRAD
 40
10.0
  9
$AUNITS
 70
     0
  9
$AUPREC
 70
     0
  9
$MENU
  1
.
  9
$ELEVATION
 40
0.0
  9
$PELEVATION
 40
0.0
  9
$THICKNESS
 40
0.0
  9
$LIMCHECK
 70
     0
  9
$CHAMFERA
 40
10.0
  9
$CHAMFERB
 40
10.0
  9
$CHAMFERC
 40
20.0
  9
$CHAMFERD
 40
0.0
  9
$SKPOLY
 70
     0
  9
$TDCREATE
 40
2452662.472983287
  9
$TDUCREATE
 40
2452662.389649954
  9
$TDUPDATE
 40
2455744.559251725
  9
$TDUUPDATE
 40
2455744.475918391
  9
$TDINDWG
 40
0.0772236227
  9
$TDUSRTIMER
 40
0.0772217361
  9
$USRTIMER
 70
     1
  9
$ANGBASE
 50
0.0
  9
$ANGDIR
 70
     0
  9
$PDMODE
 70
     0
  9
$PDSIZE
 40
0.0
  9
$PLINEWID
 40
0.0
  9
$SPLFRAME
 70
     0
  9
$SPLINETYPE
 70
     6
  9
$SPLINESEGS
 70
     8
  9
$HANDSEED
  5
35CC
  9
$SURFTAB1
 70
     6
  9
$SURFTAB2
 70
     6
  9
$SURFTYPE
 70
     6
  9
$SURFU
 70
     6
  9
$SURFV
 70
     6
  9
$UCSBASE
  2

  9
$UCSNAME
  2

  9
$UCSORG
 10
0.0
 20
0.0
 30
0.0
  9
$UCSXDIR
 10
1.0
 20
0.0
 30
0.0
  9
$UCSYDIR
 10
0.0
 20
1.0
 30
0.0
  9
$UCSORTHOREF
  2

  9
$UCSORTHOVIEW
 70
     0
  9
$UCSORGTOP
 10
0.0
 20
0.0
 30
0.0
  9
$UCSORGBOTTOM
 10
0.0
 20
0.0
 30
0.0
  9
$UCSORGLEFT
 10
0.0
 20
0.0
 30
0.0
  9
$UCSORGRIGHT
 10
0.0
 20
0.0
 30
0.0
  9
$UCSORGFRONT
 10
0.0
 20
0.0
 30
0.0
  9
$UCSORGBACK
 10
0.0
 20
0.0
 30
0.0
  9
$PUCSBASE
  2

  9
$PUCSNAME
  2

  9
$PUCSORG
 10
0.0
 20
0.0
 30
0.0
  9
$PUCSXDIR
 10
1.0
 20
0.0
 30
0.0
  9
$PUCSYDIR
 10
0.0
 20
1.0
 30
0.0
  9
$PUCSORTHOREF
  2

  9
$PUCSORTHOVIEW
 70
     0
  9
$PUCSORGTOP
 10
0.0
 20
0.0
 30
0.0
  9
$PUCSORGBOTTOM
 10
0.0
 20
0.0
 30
0.0
  9
$PUCSORGLEFT
 10
0.0
 20
0.0
 30
0.0
  9
$PUCSORGRIGHT
 10
0.0
 20
0.0
 30
0.0
  9
$PUCSORGFRONT
 10
0.0
 20
0.0
 30
0.0
  9
$PUCSORGBACK
 10
0.0
 20
0.0
 30
0.0
  9
$USERI1
 70
     0
  9
$USERI2
 70
     0
  9
$USERI3
 70
     0
  9
$USERI4
 70
     0
  9
$USERI5
 70
     0
  9
$USERR1
 40
0.0
  9
$USERR2
 40
0.0
  9
$USERR3
 40
0.0
  9
$USERR4
 40
0.0
  9
$USERR5
 40
0.0
  9
$WORLDVIEW
 70
     1
  9
$SHADEDGE
 70
     3
  9
$SHADEDIF
 70
    70
  9
$TILEMODE
 70
     1
  9
$MAXACTVP
 70
    64
  9
$PINSBASE
 10
0.0
 20
0.0
 30
0.0
  9
$PLIMCHECK
 70
     0
  9
$PEXTMIN
 10
0.0
 20
0.0
 30
0.0
  9
$PEXTMAX
 10
0.0
 20
0.0
 30
0.0
  9
$PLIMMIN
 10
0.0
 20
0.0
  9
$PLIMMAX
 10
12.0
 20
9.0
  9
$UNITMODE
 70
     0
  9
$VISRETAIN
 70
     1
  9
$PLINEGEN
 70
     0
  9
$PSLTSCALE
 70
     1
  9
$TREEDEPTH
 70
  3020
  9
$CMLSTYLE
  2
Standard
  9
$CMLJUST
 70
     0
  9
$CMLSCALE
 40
20.0
  9
$PROXYGRAPHICS
 70
     1
  9
$MEASUREMENT
 70
     1
  9
$CELWEIGHT
370
    -1
  9
$ENDCAPS
280
     0
  9
$JOINSTYLE
280
     0
  9
$LWDISPLAY
290
     0
  9
$INSUNITS
 70
     4
  9
$HYPERLINKBASE
  1

  9
$STYLESHEET
  1
MONOCHROME.CTB
  9
$XEDIT
290
     1
  9
$CEPSNTYPE
380
     0
  9
$PSTYLEMODE
290
     1
  9
$FINGERPRINTGUID
  2
{FDEAD578-A652-11D2-9A35-0060089B3A3F}
  9
$VERSIONGUID
  2
{47958996-5C51-4C11-8FF5-ACE1606F0BDE}
  9
$EXTNAMES
290
     1
  9
$PSVPSCALE
 40
0.0
  9
$OLESTARTUP
290
     0
  0
ENDSEC
  0
SECTION
  2
CLASSES
  0
CLASS
  1
ACDBDICTIONARYWDFLT
  2
AcDbDictionaryWithDefault
  3
ObjectDBX Classes
 90
        0
280
     0
281
     0
  0
CLASS
  1
DICTIONARYVAR
  2
AcDbDictionaryVar
  3
ObjectDBX Classes
 90
        0
280
     0
281
     0
  0
CLASS
  1
DIMASSOC
  2
AcDbDimAssoc
  3
"AcDbDimAssoc|Product Desc:     AcDim ARX App For Dimension|Company:          Autodesk, Inc.|WEB Address:      www.autodesk.com"
 90
        0
280
     0
281
     0
  0
CLASS
  1
ACDBPLACEHOLDER
  2
AcDbPlaceHolder
  3
ObjectDBX Classes
 90
        0
280
     0
281
     0
  0
CLASS
  1
LAYOUT
  2
AcDbLayout
  3
ObjectDBX Classes
 90
        0
280
     0
281
     0
  0
CLASS
  1
MATERIAL
  2
AcDbMaterial
  3
ObjectDBX Classes
 90
     1153
280
     0
281
     0
  0
CLASS
  1
VISUALSTYLE
  2
AcDbVisualStyle
  3
ObjectDBX Classes
 90
     4095
280
     0
281
     0
  0
CLASS
  1
TABLESTYLE
  2
AcDbTableStyle
  3
ObjectDBX Classes
 90
     4095
280
     0
281
     0
  0
CLASS
  1
SORTENTSTABLE
  2
AcDbSortentsTable
  3
ObjectDBX Classes
 90
        0
280
     0
281
     0
  0
CLASS
  1
SCALE
  2
AcDbScale
  3
ObjectDBX Classes
 90
     1153
280
     0
281
     0
  0
CLASS
  1
MLEADERSTYLE
  2
AcDbMLeaderStyle
  3
ACDB_MLEADERSTYLE_CLASS
 90
     4095
280
     0
281
     0
  0
CLASS
  1
CELLSTYLEMAP
  2
AcDbCellStyleMap
  3
ObjectDBX Classes
 90
     1152
280
     0
281
     0
  0
ENDSEC
  0
SECTION
  2
TABLES
  0
TABLE
  2
VPORT
  5
8
330
0
100
AcDbSymbolTable
 70
     1
  0
VPORT
  5
34D3
330
8
100
AcDbSymbolTableRecord
100
AcDbViewportTableRecord
  2
*Active
 70
     0
 10
0.0
 20
0.0
 11
1.0
 21
1.0
 12
1185.200442786432
 22
297.5140566868383
 13
0.0
 23
0.0
 14
10.0
 24
10.0
 15
10.0
 25
10.0
 16
0.0
 26
0.0
 36
1.0
 17
0.0
 27
0.0
 37
0.0
 40
225.8744072688931
 41
1.904663212435233
 42
50.0
 43
0.0
 44
0.0
 50
0.0
 51
0.0
 71
     0
 72
   100
 73
     1
 74
     3
 75
     0
 76
     0
 77
     0
 78
     0
281
     0
 65
     1
110
0.0
120
0.0
130
0.0
111
1.0
121
0.0
131
0.0
112
0.0
122
1.0
132
0.0
 79
     0
146
0.0
  0
ENDTAB
  0
TABLE
  2
LTYPE
  5
5
330
0
100
AcDbSymbolTable
 70
     4
  0
LTYPE
  5
14
330
5
100
AcDbSymbolTableRecord
100
AcDbLinetypeTableRecord
  2
ByBlock
 70
     0
  3

 72
    65
 73
     0
 40
0.0
  0
LTYPE
  5
15
330
5
100
AcDbSymbolTableRecord
100
AcDbLinetypeTableRecord
  2
ByLayer
 70
     0
  3

 72
    65
 73
     0
 40
0.0
  0
LTYPE
  5
16
330
5
100
AcDbSymbolTableRecord
100
AcDbLinetypeTableRecord
  2
Continuous
 70
     0
  3
Solid line
 72
    65
 73
     0
 40
0.0
  0
LTYPE
  5
2083
330
5
100
AcDbSymbolTableRecord
100
AcDbLinetypeTableRecord
  2
CENTER
 70
     0
  3
____ _ ____ _ ____ _ ____ _ ____ _ ____ _ ____
 72
    65
 73
     4
 40
0.6
 49
0.375
 74
     0
 49
-0.075
 74
     0
 49
0.075
 74
     0
 49
-0.075
 74
     0
  0
LTYPE
  5
3492
330
5
100
AcDbSymbolTableRecord
100
AcDbLinetypeTableRecord
  2
ACAD_ISO02W100
 70
     0
  3
ISO Strichlinie __ __ __ __ __ __ __ __ __ __ _
 72
    65
 73
     2
 40
15.0
 49
12.0
 74
     0
 49
-3.0
 74
     0
  0
ENDTAB
  0
TABLE
  2
LAYER
  5
2
330
0
100
AcDbSymbolTable
 70
    10
  0
LAYER
  5
10
102
{ACAD_XDICTIONARY
360
3577
102
}
330
2
100
AcDbSymbolTableRecord
100
AcDbLayerTableRecord
  2
0
 70
     0
 62
     7
  6
Continuous
370
    -3
390
F
  0
LAYER
  5
1F03
330
2
100
AcDbSymbolTableRecord
100
AcDbLayerTableRecord
  2
Defpoints
 70
     0
 62
     7
  6
Continuous
290
     0
370
    -3
390
F
  0
LAYER
  5
2084
102
{ACAD_XDICTIONARY
360
3579
102
}
330
2
100
AcDbSymbolTableRecord
100
AcDbLayerTableRecord
  2
91000_TIP
 70
     0
 62
     7
  6
Continuous
370
    -3
390
F
  0
LAYER
  5
2085
102
{ACAD_XDICTIONARY
360
357B
102
}
330
2
100
AcDbSymbolTableRecord
100
AcDbLayerTableRecord
  2
11000_Left
 70
     0
 62
     7
  6
Continuous
370
    -3
390
F
  0
LAYER
  5
214D
102
{ACAD_XDICTIONARY
360
357D
102
}
330
2
100
AcDbSymbolTableRecord
100
AcDbLayerTableRecord
  2
10000_FRONT
 70
     0
 62
     7
  6
Continuous
370
    -3
390
F
  0
LAYER
  5
214E
102
{ACAD_XDICTIONARY
360
357F
102
}
330
2
100
AcDbSymbolTableRecord
100
AcDbLayerTableRecord
  2
10100_FRONT_DIM
 70
     0
 62
     7
  6
Continuous
370
    -3
390
F
  0
LAYER
  5
214F
102
{ACAD_XDICTIONARY
360
3581
102
}
330
2
100
AcDbSymbolTableRecord
100
AcDbLayerTableRecord
  2
90000_FRAME
 70
     0
 62
     7
  6
Continuous
370
    -3
390
F
  0
LAYER
  5
2150
102
{ACAD_XDICTIONARY
360
3583
102
}
330
2
100
AcDbSymbolTableRecord
100
AcDbLayerTableRecord
  2
11100_LEFT_DIM
 70
     0
 62
     7
  6
Continuous
370
    -3
390
F
  0
LAYER
  5
3312
102
{ACAD_XDICTIONARY
360
3585
102
}
330
2
100
AcDbSymbolTableRecord
100
AcDbLayerTableRecord
  2
30000_Drilling
 70
     0
 62
     7
  6
Continuous
370
    -3
390
F
  0
LAYER
  5
3313
102
{ACAD_XDICTIONARY
360
3587
102
}
330
2
100
AcDbSymbolTableRecord
100
AcDbLayerTableRecord
  2
30100_Drilling_DIM
 70
     0
 62
     7
  6
Continuous
370
    -3
390
F
  0
ENDTAB
  0
TABLE
  2
STYLE
  5
3
330
0
100
AcDbSymbolTable
 70
     2
  0
STYLE
  5
11
330
3
100
AcDbSymbolTableRecord
100
AcDbTextStyleTableRecord
  2
Standard
 70
     0
 40
0.0
 41
1.0
 50
0.0
 71
     0
 42
2.5
  3
txt
  4

  0
STYLE
  5
3491
330
3
100
AcDbSymbolTableRecord
100
AcDbTextStyleTableRecord
  2

 70
     1
 40
0.0
 41
1.0
 50
0.0
 71
     0
 42
2.5
  3
ltypeshp.shx
  4

  0
ENDTAB
  0
TABLE
  2
VIEW
  5
6
330
0
100
AcDbSymbolTable
 70
     0
  0
ENDTAB
  0
TABLE
  2
UCS
  5
7
330
0
100
AcDbSymbolTable
 70
     0
  0
ENDTAB
  0
TABLE
  2
APPID
  5
9
330
0
100
AcDbSymbolTable
 70
     5
  0
APPID
  5
12
330
9
100
AcDbSymbolTableRecord
100
AcDbRegAppTableRecord
  2
ACAD
 70
     0
  0
APPID
  5
1C6
330
9
100
AcDbSymbolTableRecord
100
AcDbRegAppTableRecord
  2
AUSTER_ANSICHT
 70
     0
  0
APPID
  5
1C7
330
9
100
AcDbSymbolTableRecord
100
AcDbRegAppTableRecord
  2
AUSTER_FOLIE
 70
     0
  0
APPID
  5
3575
330
9
100
AcDbSymbolTableRecord
100
AcDbRegAppTableRecord
  2
ACAD_EXEMPT_FROM_CAD_STANDARDS
 70
     0
  0
APPID
  5
35CB
330
9
100
AcDbSymbolTableRecord
100
AcDbRegAppTableRecord
  2
ACAD_MLEADERVER
 70
     0
  0
ENDTAB
  0
TABLE
  2
DIMSTYLE
  5
A
330
0
100
AcDbSymbolTable
 70
     3
100
AcDbDimStyleTable
 71
     2
340
27
340
2086
  0
DIMSTYLE
105
27
102
{ACAD_REACTORS
330
352F
102
}
330
A
100
AcDbSymbolTableRecord
100
AcDbDimStyleTableRecord
  2
ISO-25
 70
     0
 41
2.5
 42
0.625
 43
3.75
 44
1.25
 73
     0
 74
     0
 78
     8
140
2.5
141
2.5
143
0.03937007874016
147
0.625
171
     3
172
     1
271
     2
272
     2
274
     3
278
    44
283
     0
284
     8
340
11
  0
DIMSTYLE
105
EE
330
A
100
AcDbSymbolTableRecord
100
AcDbDimStyleTableRecord
  2
Standard
 70
     0
340
11
  0
DIMSTYLE
105
2086
102
{ACAD_REACTORS
330
2B28
330
2B29
330
2B2A
330
2B2B
330
2B2C
330
2B2D
330
2B27
330
2B26
330
2B25
102
}
330
A
100
AcDbSymbolTableRecord
100
AcDbDimStyleTableRecord
  2
DSTYLE1
 70
     0
 41
3.0
 42
0.0
 44
1.0
 73
     0
 74
     0
 77
     1
 78
     3
140
2.5
143
0.039370079
147
1.0
271
     3
272
     3
274
     0
279
     2
340
11
  0
ENDTAB
  0
TABLE
  2
BLOCK_RECORD
  5
1
330
0
100
AcDbSymbolTable
 70
    13
  0
BLOCK_RECORD
  5
1F
102
{ACAD_XDICTIONARY
360
34FA
102
}
330
1
100
AcDbSymbolTableRecord
100
AcDbBlockTableRecord
  2
*Model_Space
340
22
  0
BLOCK_RECORD
  5
50
330
1
100
AcDbSymbolTableRecord
100
AcDbBlockTableRecord
  2
*Paper_Space
340
51
  0
BLOCK_RECORD
  5
55
330
1
100
AcDbSymbolTableRecord
100
AcDbBlockTableRecord
  2
*Paper_Space0
340
56
  0
BLOCK_RECORD
  5
6C
330
1
100
AcDbSymbolTableRecord
100
AcDbBlockTableRecord
  2
SIEMENS_OUTLINE_BL0
340
0
102
{BLKREFS
331
117
102
}
  0
BLOCK_RECORD
  5
317A
330
1
100
AcDbSymbolTableRecord
100
AcDbBlockTableRecord
  2
*D2
340
0
  0
BLOCK_RECORD
  5
3187
330
1
100
AcDbSymbolTableRecord
100
AcDbBlockTableRecord
  2
*D3
340
0
  0
BLOCK_RECORD
  5
3194
330
1
100
AcDbSymbolTableRecord
100
AcDbBlockTableRecord
  2
*D4
340
0
  0
BLOCK_RECORD
  5
31A2
330
1
100
AcDbSymbolTableRecord
100
AcDbBlockTableRecord
  2
*D5
340
0
  0
BLOCK_RECORD
  5
31AF
330
1
100
AcDbSymbolTableRecord
100
AcDbBlockTableRecord
  2
*D6
340
0
  0
BLOCK_RECORD
  5
31BC
330
1
100
AcDbSymbolTableRecord
100
AcDbBlockTableRecord
  2
*D7
340
0
  0
BLOCK_RECORD
  5
31CB
330
1
100
AcDbSymbolTableRecord
100
AcDbBlockTableRecord
  2
*D8
340
0
  0
BLOCK_RECORD
  5
31D8
330
1
100
AcDbSymbolTableRecord
100
AcDbBlockTableRecord
  2
*D9
340
0
  0
BLOCK_RECORD
  5
31E7
330
1
100
AcDbSymbolTableRecord
100
AcDbBlockTableRecord
  2
*D10
340
0
  0
BLOCK_RECORD
  5
3514
330
1
100
AcDbSymbolTableRecord
100
AcDbBlockTableRecord
  2
*D11
340
0
  0
BLOCK_RECORD
  5
3530
330
1
100
AcDbSymbolTableRecord
100
AcDbBlockTableRecord
  2
*D12
340
0
  0
ENDTAB
  0
ENDSEC
  0
SECTION
  2
BLOCKS
  0
BLOCK
  5
20
330
1F
100
AcDbEntity
  8
0
100
AcDbBlockBegin
  2
*Model_Space
 70
     0
 10
0.0
 20
0.0
 30
0.0
  3
*Model_Space
  1

  0
ENDBLK
  5
21
330
1F
100
AcDbEntity
  8
0
100
AcDbBlockEnd
  0
BLOCK
  5
52
330
50
100
AcDbEntity
 67
     1
  8
0
100
AcDbBlockBegin
  2
*Paper_Space
 70
     0
 10
0.0
 20
0.0
 30
0.0
  3
*Paper_Space
  1

  0
ENDBLK
  5
53
330
50
100
AcDbEntity
 67
     1
  8
0
100
AcDbBlockEnd
  0
BLOCK
  5
57
330
55
100
AcDbEntity
 67
     1
  8
0
100
AcDbBlockBegin
  2
*Paper_Space0
 70
     0
 10
0.0
 20
0.0
 30
0.0
  3
*Paper_Space0
  1

  0
ENDBLK
  5
58
330
55
100
AcDbEntity
 67
     1
  8
0
100
AcDbBlockEnd
  0
BLOCK
  5
D5
330
6C
100
AcDbEntity
  8
0
  6
Continuous
 62
     7
100
AcDbBlockBegin
  2
SIEMENS_OUTLINE_BL0
 70
     0
 10
0.0
 20
0.0
 30
0.0
  3
SIEMENS_OUTLINE_BL0
  1

  0
LINE
  5
6D
330
6C
100
AcDbEntity
  8
0
  6
Continuous
 62
     7
100
AcDbLine
 10
79.186200508
 20
21.4145478991
 30
0.0
 11
79.186200508
 21
16.6612788158
 31
0.0
  0
LINE
  5
6E
330
6C
100
AcDbEntity
  8
0
  6
Continuous
 62
     7
100
AcDbLine
 10
80.61218123299999
 20
21.4145478991
 30
0.0
 11
80.61218123299999
 21
16.6612788158
 31
0.0
  0
LINE
  5
6F
330
6C
100
AcDbEntity
  8
0
  6
Continuous
 62
     7
100
AcDbLine
 10
79.186200508
 20
16.6612788158
 30
0.0
 11
80.61218123299999
 21
16.6612788158
 31
0.0
  0
LINE
  5
70
330
6C
100
AcDbEntity
  8
0
  6
Continuous
 62
     7
100
AcDbLine
 10
79.186200508
 20
21.4145478991
 30
0.0
 11
80.61218123299999
 21
21.4145478991
 31
0.0
  0
LINE
  5
71
330
6C
100
AcDbEntity
  8
0
  6
Continuous
 62
     7
100
AcDbLine
 10
81.7054331221
 20
21.4145478991
 30
0.0
 11
81.7054331221
 21
16.6612788158
 31
0.0
  0
LINE
  5
72
330
6C
100
AcDbEntity
  8
0
  6
Continuous
 62
     7
100
AcDbLine
 10
81.7054331221
 20
16.6612788158
 30
0.0
 11
85.2703849346
 21
16.6612788158
 31
0.0
  0
LINE
  5
73
330
6C
100
AcDbEntity
  8
0
  6
Continuous
 62
     7
100
AcDbLine
 10
85.2703849346
 20
17.56439994169999
 30
0.0
 11
83.0838811563
 21
17.56439994169999
 31
0.0
  0
LINE
  5
74
330
6C
100
AcDbEntity
  8
0
  6
Continuous
 62
     7
100
AcDbLine
 10
85.2703849346
 20
17.56439994169999
 30
0.0
 11
85.2703849346
 21
16.6612788158
 31
0.0
  0
LINE
  5
75
330
6C
100
AcDbEntity
  8
0
  6
Continuous
 62
     7
100
AcDbLine
 10
85.2228522438
 20
21.4145478991
 30
0.0
 11
81.7054331221
 21
21.4145478991
 31
0.0
  0
LINE
  5
76
330
6C
100
AcDbEntity
  8
0
  6
Continuous
 62
     7
100
AcDbLine
 10
85.2228522438
 20
20.5351931187
 30
0.0
 11
83.0838811563
 21
20.5351931187
 31
0.0
  0
LINE
  5
77
330
6C
100
AcDbEntity
  8
0
  6
Continuous
 62
     7
100
AcDbLine
 10
85.2228522438
 20
21.4145478991
 30
0.0
 11
85.2228522438
 21
20.5351931187
 31
0.0
  0
LINE
  5
78
330
6C
100
AcDbEntity
  8
0
  6
Continuous
 62
     7
100
AcDbLine
 10
84.9376560988
 20
18.68141817619999
 30
0.0
 11
83.0838811563
 21
18.68141817619999
 31
0.0
  0
LINE
  5
79
330
6C
100
AcDbEntity
  8
0
  6
Continuous
 62
     7
100
AcDbLine
 10
84.9376560988
 20
19.46570757499999
 30
0.0
 11
84.9376560988
 21
18.68141817619999
 31
0.0
  0
LINE
  5
7A
330
6C
100
AcDbEntity
  8
0
  6
Continuous
 62
     7
100
AcDbLine
 10
84.9376560988
 20
19.46570757499999
 30
0.0
 11
83.0838811563
 21
19.46570757499999
 31
0.0
  0
LINE
  5
7B
330
6C
100
AcDbEntity
  8
0
  6
Continuous
 62
     7
100
AcDbLine
 10
83.0838811563
 20
20.5351931187
 30
0.0
 11
83.0838811563
 21
19.46570757499999
 31
0.0
  0
LINE
  5
7C
330
6C
100
AcDbEntity
  8
0
  6
Continuous
 62
     7
100
AcDbLine
 10
83.0838811563
 20
18.68141817619999
 30
0.0
 11
83.0838811563
 21
17.56439994169999
 31
0.0
  0
LINE
  5
7D
330
6C
100
AcDbEntity
  8
0
  6
Continuous
 62
     7
100
AcDbLine
 10
86.0784406788
 20
16.6612788158
 30
0.0
 11
86.0784406788
 21
21.4145478991
 31
0.0
  0
LINE
  5
7E
330
6C
100
AcDbEntity
  8
0
  6
Continuous
 62
     7
100
AcDbLine
 10
86.0784406788
 20
16.6612788158
 30
0.0
 11
87.02909449539999
 21
16.6612788158
 31
0.0
  0
LINE
  5
7F
330
6C
100
AcDbEntity
  8
0
  6
Continuous
 62
     7
100
AcDbLine
 10
91.92496165120001
 20
21.4145478991
 30
0.0
 11
91.92496165120001
 21
16.6612788158
 31
0.0
  0
LINE
  5
80
330
6C
100
AcDbEntity
  8
0
  6
Continuous
 62
     7
100
AcDbLine
 10
91.92496165120001
 20
16.6612788158
 30
0.0
 11
90.54651361700001
 21
16.6612788158
 31
0.0
  0
LINE
  5
81
330
6C
100
AcDbEntity
  8
0
  6
Continuous
 62
     7
100
AcDbLine
 10
88.3600098387
 20
16.61374612499999
 30
0.0
 11
89.21559827370002
 21
16.61374612499999
 31
0.0
  0
LINE
  5
82
330
6C
100
AcDbEntity
  8
0
  6
Continuous
 62
     7
100
AcDbLine
 10
88.3600098387
 20
16.61374612499999
 30
0.0
 11
87.02909449539999
 21
19.7033710291
 31
0.0
  0
LINE
  5
83
330
6C
100
AcDbEntity
  8
0
  6
Continuous
 62
     7
100
AcDbLine
 10
87.02909449539999
 20
16.6612788158
 30
0.0
 11
87.02909449539999
 21
19.7033710291
 31
0.0
  0
LINE
  5
84
330
6C
100
AcDbEntity
  8
0
  6
Continuous
 62
     7
100
AcDbLine
 10
90.54651361700001
 20
19.75090372
 30
0.0
 11
89.21559827370002
 21
16.61374612499999
 31
0.0
  0
LINE
  5
85
330
6C
100
AcDbEntity
  8
0
  6
Continuous
 62
     7
100
AcDbLine
 10
87.78961754870001
 20
21.4145478991
 30
0.0
 11
86.0784406788
 21
21.4145478991
 31
0.0
  0
LINE
  5
86
330
6C
100
AcDbEntity
  8
0
  6
Continuous
 62
     7
100
AcDbLine
 10
91.92496165120001
 20
21.4145478991
 30
0.0
 11
90.2137847812
 21
21.4145478991
 31
0.0
  0
LINE
  5
87
330
6C
100
AcDbEntity
  8
0
  6
Continuous
 62
     7
100
AcDbLine
 10
87.78961754870001
 20
21.4145478991
 30
0.0
 11
89.0254675104
 21
18.51505375829999
 31
0.0
  0
LINE
  5
88
330
6C
100
AcDbEntity
  8
0
  6
Continuous
 62
     7
100
AcDbLine
 10
90.2137847812
 20
21.4145478991
 30
0.0
 11
89.0254675104
 21
18.51505375829999
 31
0.0
  0
LINE
  5
89
330
6C
100
AcDbEntity
  8
0
  6
Continuous
 62
     7
100
AcDbLine
 10
90.54651361700001
 20
19.75090372
 30
0.0
 11
90.54651361700001
 21
16.6612788158
 31
0.0
  0
LINE
  5
8A
330
6C
100
AcDbEntity
  8
0
  6
Continuous
 62
     7
100
AcDbLine
 10
93.01821354030002
 20
21.4145478991
 30
0.0
 11
93.01821354030002
 21
16.6612788158
 31
0.0
  0
LINE
  5
8B
330
6C
100
AcDbEntity
  8
0
  6
Continuous
 62
     7
100
AcDbLine
 10
93.01821354030002
 20
16.6612788158
 30
0.0
 11
96.5831653528
 21
16.6612788158
 31
0.0
  0
LINE
  5
8C
330
6C
100
AcDbEntity
  8
0
  6
Continuous
 62
     7
100
AcDbLine
 10
96.5831653528
 20
17.56439994169999
 30
0.0
 11
94.3966615745
 21
17.56439994169999
 31
0.0
  0
LINE
  5
8D
330
6C
100
AcDbEntity
  8
0
  6
Continuous
 62
     7
100
AcDbLine
 10
96.5831653528
 20
17.56439994169999
 30
0.0
 11
96.5831653528
 21
16.6612788158
 31
0.0
  0
LINE
  5
8E
330
6C
100
AcDbEntity
  8
0
  6
Continuous
 62
     7
100
AcDbLine
 10
96.53563266200002
 20
21.4145478991
 30
0.0
 11
93.01821354030002
 21
21.4145478991
 31
0.0
  0
LINE
  5
8F
330
6C
100
AcDbEntity
  8
0
  6
Continuous
 62
     7
100
AcDbLine
 10
96.53563266200002
 20
20.5351931187
 30
0.0
 11
94.3966615745
 21
20.5351931187
 31
0.0
  0
LINE
  5
90
330
6C
100
AcDbEntity
  8
0
  6
Continuous
 62
     7
100
AcDbLine
 10
96.53563266200002
 20
21.4145478991
 30
0.0
 11
96.53563266200002
 21
20.5351931187
 31
0.0
  0
LINE
  5
91
330
6C
100
AcDbEntity
  8
0
  6
Continuous
 62
     7
100
AcDbLine
 10
96.25043651700002
 20
18.68141817619999
 30
0.0
 11
94.3966615745
 21
18.68141817619999
 31
0.0
  0
LINE
  5
92
330
6C
100
AcDbEntity
  8
0
  6
Continuous
 62
     7
100
AcDbLine
 10
96.25043651700002
 20
19.46570757499999
 30
0.0
 11
96.25043651700002
 21
18.68141817619999
 31
0.0
  0
LINE
  5
93
330
6C
100
AcDbEntity
  8
0
  6
Continuous
 62
     7
100
AcDbLine
 10
96.25043651700002
 20
19.46570757499999
 30
0.0
 11
94.3966615745
 21
19.46570757499999
 31
0.0
  0
LINE
  5
94
330
6C
100
AcDbEntity
  8
0
  6
Continuous
 62
     7
100
AcDbLine
 10
94.3966615745
 20
20.5351931187
 30
0.0
 11
94.3966615745
 21
19.46570757499999
 31
0.0
  0
LINE
  5
95
330
6C
100
AcDbEntity
  8
0
  6
Continuous
 62
     7
100
AcDbLine
 10
94.3966615745
 20
18.68141817619999
 30
0.0
 11
94.3966615745
 21
17.56439994169999
 31
0.0
  0
LINE
  5
96
330
6C
100
AcDbEntity
  8
0
  6
Continuous
 62
     7
100
AcDbLine
 10
97.3674547515
 20
16.6612788158
 30
0.0
 11
97.3674547515
 21
21.4145478991
 31
0.0
  0
LINE
  5
97
330
6C
100
AcDbEntity
  8
0
  6
Continuous
 62
     7
100
AcDbLine
 10
101.5503315447999
 20
21.4145478991
 30
0.0
 11
101.5503315447999
 21
16.6612788158
 31
0.0
  0
LINE
  5
98
330
6C
100
AcDbEntity
  8
0
  6
Continuous
 62
     7
100
AcDbLine
 10
97.3674547515
 20
16.6612788158
 30
0.0
 11
98.3181085682
 21
16.6612788158
 31
0.0
  0
LINE
  5
99
330
6C
100
AcDbEntity
  8
0
  6
Continuous
 62
     7
100
AcDbLine
 10
101.5503315447999
 20
21.4145478991
 30
0.0
 11
100.5996777281999
 21
21.4145478991
 31
0.0
  0
LINE
  5
9A
330
6C
100
AcDbEntity
  8
0
  6
Continuous
 62
     7
100
AcDbLine
 10
98.91226720360002
 20
21.4145478991
 30
0.0
 11
97.3674547515
 21
21.4145478991
 31
0.0
  0
LINE
  5
9B
330
6C
100
AcDbEntity
  8
0
  6
Continuous
 62
     7
100
AcDbLine
 10
101.5503315447999
 20
16.6612788158
 30
0.0
 11
100.0292854381999
 21
16.6612788158
 31
0.0
  0
LINE
  5
9C
330
6C
100
AcDbEntity
  8
0
  6
Continuous
 62
     7
100
AcDbLine
 10
100.0292854381999
 20
16.6612788158
 30
0.0
 11
98.3181085682
 21
19.7033710291
 31
0.0
  0
LINE
  5
9D
330
6C
100
AcDbEntity
  8
0
  6
Continuous
 62
     7
100
AcDbLine
 10
98.91226720360002
 20
21.4145478991
 30
0.0
 11
100.5996777281999
 21
18.4675210675
 31
0.0
  0
LINE
  5
9E
330
6C
100
AcDbEntity
  8
0
  6
Continuous
 62
     7
100
AcDbLine
 10
100.5996777281999
 20
21.4145478991
 30
0.0
 11
100.5996777281999
 21
18.4675210675
 31
0.0
  0
LINE
  5
9F
330
6C
100
AcDbEntity
  8
0
  6
Continuous
 62
     7
100
AcDbLine
 10
98.3181085682
 20
16.6612788158
 30
0.0
 11
98.3181085682
 21
19.7033710291
 31
0.0
  0
LINE
  5
A0
330
6C
100
AcDbEntity
  8
0
  6
Continuous
 62
     7
100
AcDbLine
 10
102.3583872889999
 20
16.75634419749999
 30
0.0
 11
102.3583872889999
 21
17.7069980142
 31
0.0
  0
LINE
  5
A1
330
6C
100
AcDbEntity
  8
0
  6
Continuous
 62
     7
100
AcDbLine
 10
105.6856756473
 20
20.4163613916
 30
0.0
 11
105.6856756473
 21
21.36701520829999
 31
0.0
  0
ARC
  5
A2
330
6C
100
AcDbEntity
  8
0
  6
Continuous
 62
     7
100
AcDbCircle
 10
104.063028414
 20
18.61843736089998
 30
0.0
 40
1.111619360599997
100
AcDbArc
 50
277.7099956934
 51
295.6884927745999
  0
ARC
  5
A3
330
6C
100
AcDbEntity
  8
0
  6
Continuous
 62
     7
100
AcDbCircle
 10
104.3473383967
 20
17.8936115972
 30
0.0
 40
0.3401689265
100
AcDbArc
 50
305.503221255
 51
72.46528985229999
  0
ARC
  5
A4
330
6C
100
AcDbEntity
  8
0
  6
Continuous
 62
     7
100
AcDbCircle
 10
103.7813445885999
 20
21.2953185068
 30
0.0
 40
4.756794641099999
100
AcDbArc
 50
252.5939200548001
 51
280.9816604255999
  0
ARC
  5
A5
330
6C
100
AcDbEntity
  8
0
  6
Continuous
 62
     7
100
AcDbCircle
 10
104.2361799517
 20
18.6773047703
 30
0.0
 40
2.100726595299998
100
AcDbArc
 50
282.4058358519999
 51
311.8644433928
  0
ARC
  5
A6
330
6C
100
AcDbEntity
  8
0
  6
Continuous
 62
     7
100
AcDbCircle
 10
103.9626156045999
 20
20.2856464918
 30
0.0
 40
0.3029626476
100
AcDbArc
 50
154.4400348282
 51
221.8201698800999
  0
ARC
  5
A7
330
6C
100
AcDbEntity
  8
0
  6
Continuous
 62
     7
100
AcDbCircle
 10
104.0418367559
 20
20.2064253405
 30
0.0
 40
0.4103089737
100
AcDbArc
 50
102.8287828680999
 51
149.2259639003
  0
ARC
  5
A8
330
6C
100
AcDbEntity
  8
0
  6
Continuous
 62
     7
100
AcDbCircle
 10
104.4588635915999
 20
18.46409001059999
 30
0.0
 40
2.201836557
100
AcDbArc
 50
84.0400061857
 51
103.3427657870999
  0
ARC
  5
A9
330
6C
100
AcDbEntity
  8
0
  6
Continuous
 62
     7
100
AcDbCircle
 10
104.1178997669
 20
16.0467260867
 30
0.0
 40
4.642373736499997
100
AcDbArc
 50
70.2625858546
 51
82.95241863799999
  0
ARC
  5
AA
330
6C
100
AcDbEntity
  8
0
  6
Continuous
 62
     7
100
AcDbCircle
 10
103.6038815646999
 20
20.7183489764
 30
0.0
 40
3.258755990899997
100
AcDbArc
 50
247.5300206145
 51
280.7579522143
  0
ARC
  5
AB
330
6C
100
AcDbEntity
  8
0
  6
Continuous
 62
     7
100
AcDbCircle
 10
97.21891509270001
 20
2.4668290159
 30
0.0
 40
17.3316084133
100
AcDbArc
 50
65.34146746500001
 51
67.39977707359999
  0
ARC
  5
AC
330
6C
100
AcDbEntity
  8
0
  6
Continuous
 62
     7
100
AcDbCircle
 10
108.0147774981
 20
28.259255379
 30
0.0
 40
10.6291642039
100
AcDbArc
 50
242.8620101252001
 51
247.1042029186
  0
ARC
  5
AD
330
6C
100
AcDbEntity
  8
0
  6
Continuous
 62
     7
100
AcDbCircle
 10
104.1598762715
 20
20.725323882
 30
0.0
 40
2.166291629199998
100
AcDbArc
 50
227.3119280793999
 51
242.7040315235
  0
ARC
  5
AE
330
6C
100
AcDbEntity
  8
0
  6
Continuous
 62
     7
100
AcDbCircle
 10
103.5558454618999
 20
20.0196462412
 30
0.0
 40
1.238521734
100
AcDbArc
 50
194.7952194236
 51
225.7176549047
  0
ARC
  5
AF
330
6C
100
AcDbEntity
  8
0
  6
Continuous
 62
     7
100
AcDbCircle
 10
103.6180035961
 20
20.05986621039999
 30
0.0
 40
1.309092072899999
100
AcDbArc
 50
164.1974860461
 51
195.8025139539
  0
ARC
  5
B0
330
6C
100
AcDbEntity
  8
0
  6
Continuous
 62
     7
100
AcDbCircle
 10
104.1750273167
 20
19.1715990505
 30
0.0
 40
2.366924815299999
100
AcDbArc
 50
86.22180229280001
 51
120.4272602309
  0
ARC
  5
B1
330
6C
100
AcDbEntity
  8
0
  6
Continuous
 62
     7
100
AcDbCircle
 10
103.9061705341999
 20
12.4754312294
 30
0.0
 40
9.0679051661
100
AcDbArc
 50
78.68270492259998
 51
87.3147599624
  0
ARC
  5
B2
330
6C
100
AcDbEntity
  8
0
  6
Continuous
 62
     7
100
AcDbCircle
 10
103.4501013557999
 20
20.1673739729
 30
0.0
 40
1.119747444
100
AcDbArc
 50
142.8139179029999
 51
167.1522951416999
  0
ARC
  5
B3
330
6C
100
AcDbEntity
  8
0
  6
Continuous
 62
     7
100
AcDbCircle
 10
103.7954106973999
 20
19.86079227619999
 30
0.0
 40
1.580546684499998
100
AcDbArc
 50
121.2140948535
 51
141.5254768286
  0
ARC
  5
B4
330
6C
100
AcDbEntity
  8
0
  6
Continuous
 62
     7
100
AcDbCircle
 10
104.372585063
 20
20.6718496049
 30
0.0
 40
0.8661276051999998
100
AcDbArc
 50
222.7760387596
 51
239.0362434679
  0
ARC
  5
B5
330
6C
100
AcDbEntity
  8
0
  6
Continuous
 62
     7
100
AcDbCircle
 10
101.8658754847
 20
13.3415774063
 30
0.0
 40
6.858773576299999
100
AcDbArc
 50
59.90202725599999
 51
68.2036481279
  0
ARC
  5
B6
330
6C
100
AcDbEntity
  8
0
  6
Continuous
 62
     7
100
AcDbCircle
 10
105.2743699785
 20
22.26746391349999
 30
0.0
 40
2.698741017099999
100
AcDbArc
 50
240.0481997804
 51
251.3779673736999
  0
ARC
  5
B7
330
6C
100
AcDbEntity
  8
0
  6
Continuous
 62
     7
100
AcDbCircle
 10
104.6089128116999
 20
18.1105652982
 30
0.0
 40
1.4334474881
100
AcDbArc
 50
315.8904553224
 51
333.5229264372999
  0
ARC
  5
B8
330
6C
100
AcDbEntity
  8
0
  6
Continuous
 62
     7
100
AcDbCircle
 10
104.6135510555
 20
18.057158148
 30
0.0
 40
1.406228711899998
100
AcDbArc
 50
335.3867972702
 51
24.39151194019999
  0
ARC
  5
B9
330
6C
100
AcDbEntity
  8
0
  6
Continuous
 62
     7
100
AcDbCircle
 10
104.5413461519
 20
17.97930145619999
 30
0.0
 40
1.504702514799999
100
AcDbArc
 50
25.95629166050001
 51
59.4834829668
  0
LINE
  5
BA
330
6C
100
AcDbEntity
  8
0
  6
Continuous
 62
     7
100
AcDbLine
 10
74.7656602606
 20
16.75634419749999
 30
0.0
 11
74.7656602606
 21
17.7069980142
 31
0.0
  0
LINE
  5
BB
330
6C
100
AcDbEntity
  8
0
  6
Continuous
 62
     7
100
AcDbLine
 10
78.09294861879997
 20
20.4163613916
 30
0.0
 11
78.09294861879997
 21
21.36701520829999
 31
0.0
  0
ARC
  5
BC
330
6C
100
AcDbEntity
  8
0
  6
Continuous
 62
     7
100
AcDbCircle
 10
76.4703013855
 20
18.61843736089998
 30
0.0
 40
1.111619360599997
100
AcDbArc
 50
277.7099956934
 51
295.6884927745999
  0
ARC
  5
BD
330
6C
100
AcDbEntity
  8
0
  6
Continuous
 62
     7
100
AcDbCircle
 10
76.7546113683
 20
17.8936115972
 30
0.0
 40
0.3401689265
100
AcDbArc
 50
305.5032212556
 51
72.4652898515
  0
ARC
  5
BE
330
6C
100
AcDbEntity
  8
0
  6
Continuous
 62
     7
100
AcDbCircle
 10
76.1886175602
 20
21.2953185068
 30
0.0
 40
4.756794641099999
100
AcDbArc
 50
252.5939200545
 51
280.9816604253
  0
ARC
  5
BF
330
6C
100
AcDbEntity
  8
0
  6
Continuous
 62
     7
100
AcDbCircle
 10
76.64345292330001
 20
18.6773047703
 30
0.0
 40
2.100726595299998
100
AcDbArc
 50
282.4058358513
 51
311.8644433923
  0
ARC
  5
C0
330
6C
100
AcDbEntity
  8
0
  6
Continuous
 62
     7
100
AcDbCircle
 10
76.3698885762
 20
20.2856464918
 30
0.0
 40
0.3029626476
100
AcDbArc
 50
154.4400348282
 51
221.8201698800999
  0
ARC
  5
C1
330
6C
100
AcDbEntity
  8
0
  6
Continuous
 62
     7
100
AcDbCircle
 10
76.4491097276
 20
20.2064253405
 30
0.0
 40
0.4103089737
100
AcDbArc
 50
102.8287828727
 51
149.2259639027
  0
ARC
  5
C2
330
6C
100
AcDbEntity
  8
0
  6
Continuous
 62
     7
100
AcDbCircle
 10
76.8661365632
 20
18.46409001059999
 30
0.0
 40
2.201836557
100
AcDbArc
 50
84.0400061859
 51
103.3427657871999
  0
ARC
  5
C3
330
6C
100
AcDbEntity
  8
0
  6
Continuous
 62
     7
100
AcDbCircle
 10
76.5251727384
 20
16.0467260867
 30
0.0
 40
4.642373736499997
100
AcDbArc
 50
70.2625858546
 51
82.9524186379
  0
ARC
  5
C4
330
6C
100
AcDbEntity
  8
0
  6
Continuous
 62
     7
100
AcDbCircle
 10
76.0111545363
 20
20.7183489764
 30
0.0
 40
3.258755990899997
100
AcDbArc
 50
247.5300206148
 51
280.7579522145
  0
ARC
  5
C5
330
6C
100
AcDbEntity
  8
0
  6
Continuous
 62
     7
100
AcDbCircle
 10
69.6261880643
 20
2.4668290159
 30
0.0
 40
17.3316084133
100
AcDbArc
 50
65.34146746500001
 51
67.39977707359999
  0
ARC
  5
C6
330
6C
100
AcDbEntity
  8
0
  6
Continuous
 62
     7
100
AcDbCircle
 10
80.4220504697
 20
28.259255379
 30
0.0
 40
10.6291642039
100
AcDbArc
 50
242.8620101252001
 51
247.1042029184999
  0
ARC
  5
C7
330
6C
100
AcDbEntity
  8
0
  6
Continuous
 62
     7
100
AcDbCircle
 10
76.56714924310001
 20
20.725323882
 30
0.0
 40
2.166291629199998
100
AcDbArc
 50
227.3119280793999
 51
242.7040315235
  0
ARC
  5
C8
330
6C
100
AcDbEntity
  8
0
  6
Continuous
 62
     7
100
AcDbCircle
 10
75.9631184335
 20
20.0196462412
 30
0.0
 40
1.238521734
100
AcDbArc
 50
194.7952194234
 51
225.7176549041999
  0
ARC
  5
C9
330
6C
100
AcDbEntity
  8
0
  6
Continuous
 62
     7
100
AcDbCircle
 10
76.58230028830002
 20
19.1715990505
 30
0.0
 40
2.366924815299999
100
AcDbArc
 50
86.22180229280001
 51
120.4272602309
  0
ARC
  5
CA
330
6C
100
AcDbEntity
  8
0
  6
Continuous
 62
     7
100
AcDbCircle
 10
76.3134435058
 20
12.4754312294
 30
0.0
 40
9.0679051661
100
AcDbArc
 50
78.68270492259998
 51
87.3147599624
  0
ARC
  5
CB
330
6C
100
AcDbEntity
  8
0
  6
Continuous
 62
     7
100
AcDbCircle
 10
76.20268366899998
 20
19.86079227619999
 30
0.0
 40
1.580546684599998
100
AcDbArc
 50
121.2140948540999
 51
141.5254768289999
  0
ARC
  5
CC
330
6C
100
AcDbEntity
  8
0
  6
Continuous
 62
     7
100
AcDbCircle
 10
76.7798580346
 20
20.6718496049
 30
0.0
 40
0.8661276051999998
100
AcDbArc
 50
222.7760387596
 51
239.0362434679
  0
ARC
  5
CD
330
6C
100
AcDbEntity
  8
0
  6
Continuous
 62
     7
100
AcDbCircle
 10
74.2731484563
 20
13.3415774063
 30
0.0
 40
6.858773576299999
100
AcDbArc
 50
59.90202725620001
 51
68.20364812820002
  0
ARC
  5
CE
330
6C
100
AcDbEntity
  8
0
  6
Continuous
 62
     7
100
AcDbCircle
 10
77.6816429501
 20
22.26746391349999
 30
0.0
 40
2.698741017099999
100
AcDbArc
 50
240.0481997804
 51
251.3779673734
  0
ARC
  5
CF
330
6C
100
AcDbEntity
  8
0
  6
Continuous
 62
     7
100
AcDbCircle
 10
77.0161857833
 20
18.1105652982
 30
0.0
 40
1.4334474881
100
AcDbArc
 50
315.8904553225998
 51
333.5229264375
  0
ARC
  5
D0
330
6C
100
AcDbEntity
  8
0
  6
Continuous
 62
     7
100
AcDbCircle
 10
77.020824027
 20
18.057158148
 30
0.0
 40
1.406228711899998
100
AcDbArc
 50
335.3867972703
 51
24.3915119403
  0
ARC
  5
D1
330
6C
100
AcDbEntity
  8
0
  6
Continuous
 62
     7
100
AcDbCircle
 10
76.94861912350001
 20
17.97930145619999
 30
0.0
 40
1.504702514699999
100
AcDbArc
 50
25.9562916611
 51
59.4834829676
  0
LINE
  5
D2
330
6C
100
AcDbEntity
  8
0
  6
Continuous
 62
     7
100
AcDbLine
 10
74.9574888499
 20
20.8337423583
 30
0.0
 11
75.2315546745
 21
21.10781543579999
 31
0.0
  0
ARC
  5
D3
330
6C
100
AcDbEntity
  8
0
  6
Continuous
 62
     7
100
AcDbCircle
 10
76.0252765676
 20
20.05986621039999
 30
0.0
 40
1.309092072899999
100
AcDbArc
 50
164.1974860461
 51
195.8025139539
  0
ARC
  5
D4
330
6C
100
AcDbEntity
  8
0
  6
Continuous
 62
     7
100
AcDbCircle
 10
75.8573743274
 20
20.1673739729
 30
0.0
 40
1.119747444
100
AcDbArc
 50
142.8139179029999
 51
167.1522951416999
  0
ENDBLK
  5
D6
330
6C
100
AcDbEntity
  8
0
100
AcDbBlockEnd
  0
BLOCK
  5
3185
330
317A
100
AcDbEntity
  8
0
100
AcDbBlockBegin
  2
*D2
 70
     1
 10
0.0
 20
0.0
 30
0.0
  3
*D2
  1

  0
LINE
  5
349D
330
317A
100
AcDbEntity
  8
30100_Drilling_DIM
  6
Continuous
 62
     0
370
    -2
100
AcDbLine
 10
1249.868464162019
 20
285.7223049904895
 30
0.0
 11
1249.868464162019
 21
277.788945042322
 31
0.0
  0
LINE
  5
349E
330
317A
100
AcDbEntity
  8
30100_Drilling_DIM
  6
Continuous
 62
     0
370
    -2
100
AcDbLine
 10
1284.89845984264
 20
285.721945042322
 30
0.0
 11
1284.89845984264
 21
277.788945042322
 31
0.0
  0
LINE
  5
349F
330
317A
100
AcDbEntity
  8
30100_Drilling_DIM
  6
Continuous
 62
     0
370
    -2
100
AcDbLine
 10
1251.868464162019
 20
278.788945042322
 30
0.0
 11
1264.300128668996
 21
278.788945042322
 31
0.0
  0
LINE
  5
34A0
330
317A
100
AcDbEntity
  8
30100_Drilling_DIM
  6
Continuous
 62
     0
370
    -2
100
AcDbLine
 10
1282.89845984264
 20
278.788945042322
 30
0.0
 11
1270.466795335663
 21
278.788945042322
 31
0.0
  0
SOLID
  5
34A1
330
317A
100
AcDbEntity
  8
30100_Drilling_DIM
  6
Continuous
 62
     0
100
AcDbTrace
 10
1251.868464162019
 20
279.1222783756553
 30
0.0
 11
1251.868464162019
 21
278.4556117089887
 31
0.0
 12
1249.868464162019
 22
278.788945042322
 32
0.0
 13
1249.868464162019
 23
278.788945042322
 33
0.0
  0
SOLID
  5
34A2
330
317A
100
AcDbEntity
  8
30100_Drilling_DIM
  6
Continuous
 62
     0
100
AcDbTrace
 10
1282.89845984264
 20
279.1222783756553
 30
0.0
 11
1282.89845984264
 21
278.4556117089887
 31
0.0
 12
1284.89845984264
 22
278.788945042322
 32
0.0
 13
1284.89845984264
 23
278.788945042322
 33
0.0
  0
MTEXT
  5
34A3
330
317A
100
AcDbEntity
  8
30100_Drilling_DIM
  6
Continuous
 62
     0
370
    13
100
AcDbMText
 10
1267.383462002329
 20
278.788945042322
 30
0.0
 40
2.5
 41
0.0
 71
     5
 72
     1
  1
\A1;35
 73
     1
 44
1.0
1001
ACAD
1000
MTEXTBEGIN
1070
    73
1070
     1
1070
    44
1040
1.0
1070
    74
1070
     0
1000
MTEXTEND
  0
POINT
  5
34A4
330
317A
100
AcDbEntity
  8
Defpoints
  6
Continuous
 62
     0
100
AcDbPoint
 10
1249.868464162019
 20
286.7223049904895
 30
0.0
  0
POINT
  5
34A5
330
317A
100
AcDbEntity
  8
Defpoints
  6
Continuous
 62
     0
100
AcDbPoint
 10
1284.89845984264
 20
286.721945042322
 30
0.0
  0
POINT
  5
34A6
330
317A
100
AcDbEntity
  8
Defpoints
  6
Continuous
 62
     0
100
AcDbPoint
 10
1284.89845984264
 20
278.788945042322
 30
0.0
  0
ENDBLK
  5
3186
330
317A
100
AcDbEntity
  8
0
100
AcDbBlockEnd
  0
BLOCK
  5
3192
330
3187
100
AcDbEntity
  8
0
100
AcDbBlockBegin
  2
*D3
 70
     1
 10
0.0
 20
0.0
 30
0.0
  3
*D3
  1

  0
LINE
  5
34B1
330
3187
100
AcDbEntity
  8
30100_Drilling_DIM
  6
Continuous
 62
     0
370
    -2
100
AcDbLine
 10
1288.39845984264
 20
339.2219450423222
 30
0.0
 11
1298.41875984264
 21
339.2219450423222
 31
0.0
  0
LINE
  5
34B2
330
3187
100
AcDbEntity
  8
30100_Drilling_DIM
  6
Continuous
 62
     0
370
    -2
100
AcDbLine
 10
1288.39845984264
 20
289.221945042322
 30
0.0
 11
1298.41875984264
 21
289.221945042322
 31
0.0
  0
LINE
  5
34B3
330
3187
100
AcDbEntity
  8
30100_Drilling_DIM
  6
Continuous
 62
     0
370
    -2
100
AcDbLine
 10
1297.41875984264
 20
337.2219450423222
 30
0.0
 11
1297.41875984264
 21
317.0969450423222
 31
0.0
  0
LINE
  5
34B4
330
3187
100
AcDbEntity
  8
30100_Drilling_DIM
  6
Continuous
 62
     0
370
    -2
100
AcDbLine
 10
1297.41875984264
 20
291.221945042322
 30
0.0
 11
1297.41875984264
 21
311.3469450423222
 31
0.0
  0
SOLID
  5
34B5
330
3187
100
AcDbEntity
  8
30100_Drilling_DIM
  6
Continuous
 62
     0
100
AcDbTrace
 10
1297.085426509307
 20
337.2219450423222
 30
0.0
 11
1297.752093175973
 21
337.2219450423222
 31
0.0
 12
1297.41875984264
 22
339.2219450423222
 32
0.0
 13
1297.41875984264
 23
339.2219450423222
 33
0.0
  0
SOLID
  5
34B6
330
3187
100
AcDbEntity
  8
30100_Drilling_DIM
  6
Continuous
 62
     0
100
AcDbTrace
 10
1297.085426509307
 20
291.221945042322
 30
0.0
 11
1297.752093175973
 21
291.221945042322
 31
0.0
 12
1297.41875984264
 22
289.221945042322
 32
0.0
 13
1297.41875984264
 23
289.221945042322
 33
0.0
  0
MTEXT
  5
34B7
330
3187
100
AcDbEntity
  8
30100_Drilling_DIM
  6
Continuous
 62
     0
370
    13
100
AcDbMText
 10
1297.41875984264
 20
314.2219450423224
 30
0.0
 40
2.5
 41
0.0
 71
     5
 72
     1
  1
\A1;50
 11
0.0000000000000001
 21
1.0
 31
0.0
 73
     1
 44
1.0
1001
ACAD
1000
MTEXTBEGIN
1070
    73
1070
     1
1070
    44
1040
1.0
1070
    74
1070
     0
1000
MTEXTEND
  0
POINT
  5
34B8
330
3187
100
AcDbEntity
  8
Defpoints
  6
Continuous
 62
     0
100
AcDbPoint
 10
1287.39845984264
 20
339.2219450423222
 30
0.0
  0
POINT
  5
34B9
330
3187
100
AcDbEntity
  8
Defpoints
  6
Continuous
 62
     0
100
AcDbPoint
 10
1287.39845984264
 20
289.221945042322
 30
0.0
  0
POINT
  5
34BA
330
3187
100
AcDbEntity
  8
Defpoints
  6
Continuous
 62
     0
100
AcDbPoint
 10
1297.41875984264
 20
289.221945042322
 30
0.0
  0
ENDBLK
  5
3193
330
3187
100
AcDbEntity
  8
0
100
AcDbBlockEnd
  0
BLOCK
  5
31A0
330
3194
100
AcDbEntity
  8
0
100
AcDbBlockBegin
  2
*D4
 70
     1
 10
0.0
 20
0.0
 30
0.0
  3
*D4
  1

  0
LINE
  5
346B
330
3194
100
AcDbEntity
  8
30100_Drilling_DIM
  6
Continuous
 62
     0
370
    -2
100
AcDbLine
 10
1250.912601921696
 20
341.721945042322
 30
0.0
 11
1263.43075984264
 21
341.721945042322
 31
0.0
  0
LINE
  5
346C
330
3194
100
AcDbEntity
  8
30100_Drilling_DIM
  6
Continuous
 62
     0
370
    -2
100
AcDbLine
 10
1250.912601921696
 20
336.7219450423221
 30
0.0
 11
1263.43075984264
 21
336.7219450423221
 31
0.0
  0
LINE
  5
346D
330
3194
100
AcDbEntity
  8
30100_Drilling_DIM
  6
Continuous
 62
     0
370
    -2
100
AcDbLine
 10
1262.43075984264
 20
343.721945042322
 30
0.0
 11
1262.43075984264
 21
345.721945042322
 31
0.0
  0
LINE
  5
346E
330
3194
100
AcDbEntity
  8
30100_Drilling_DIM
  6
Continuous
 62
     0
370
    -2
100
AcDbLine
 10
1262.43075984264
 20
334.7219450423221
 30
0.0
 11
1262.43075984264
 21
332.7219450423222
 31
0.0
  0
LINE
  5
346F
330
3194
100
AcDbEntity
  8
30100_Drilling_DIM
  6
Continuous
 62
     0
370
    -2
100
AcDbLine
 10
1262.43075984264
 20
341.721945042322
 30
0.0
 11
1262.43075984264
 21
341.0552783756553
 31
0.0
  0
LINE
  5
3470
330
3194
100
AcDbEntity
  8
30100_Drilling_DIM
  6
Continuous
 62
     0
370
    -2
100
AcDbLine
 10
1262.43075984264
 20
336.7219450423221
 30
0.0
 11
1262.43075984264
 21
337.3886117089888
 31
0.0
  0
SOLID
  5
3471
330
3194
100
AcDbEntity
  8
30100_Drilling_DIM
  6
Continuous
 62
     0
100
AcDbTrace
 10
1262.097426509307
 20
343.721945042322
 30
0.0
 11
1262.764093175973
 21
343.721945042322
 31
0.0
 12
1262.43075984264
 22
341.721945042322
 32
0.0
 13
1262.43075984264
 23
341.721945042322
 33
0.0
  0
SOLID
  5
3472
330
3194
100
AcDbEntity
  8
30100_Drilling_DIM
  6
Continuous
 62
     0
100
AcDbTrace
 10
1262.097426509307
 20
334.7219450423221
 30
0.0
 11
1262.764093175973
 21
334.7219450423221
 31
0.0
 12
1262.43075984264
 22
336.7219450423221
 32
0.0
 13
1262.43075984264
 23
336.7219450423221
 33
0.0
  0
MTEXT
  5
3473
330
3194
100
AcDbEntity
  8
30100_Drilling_DIM
  6
Continuous
 62
     0
370
    13
100
AcDbMText
 10
1262.43075984264
 20
339.2219450423223
 30
0.0
 40
2.5
 41
0.0
 71
     5
 72
     1
  1
\A1;5
 11
0.0000000000000001
 21
1.0
 31
0.0
 73
     1
 44
1.0
1001
ACAD
1000
MTEXTBEGIN
1070
    73
1070
     1
1070
    44
1040
1.0
1070
    74
1070
     0
1000
MTEXTEND
  0
POINT
  5
3474
330
3194
100
AcDbEntity
  8
Defpoints
  6
Continuous
 62
     0
100
AcDbPoint
 10
1249.912601921696
 20
341.721945042322
 30
0.0
  0
POINT
  5
3475
330
3194
100
AcDbEntity
  8
Defpoints
  6
Continuous
 62
     0
100
AcDbPoint
 10
1249.912601921696
 20
336.7219450423221
 30
0.0
  0
POINT
  5
3476
330
3194
100
AcDbEntity
  8
Defpoints
  6
Continuous
 62
     0
100
AcDbPoint
 10
1262.43075984264
 20
336.7219450423221
 30
0.0
  0
ENDBLK
  5
31A1
330
3194
100
AcDbEntity
  8
0
100
AcDbBlockEnd
  0
BLOCK
  5
31AD
330
31A2
100
AcDbEntity
  8
0
100
AcDbBlockBegin
  2
*D5
 70
     1
 10
0.0
 20
0.0
 30
0.0
  3
*D5
  1

  0
LINE
  5
3457
330
31A2
100
AcDbEntity
  8
10100_FRONT_DIM
  6
Continuous
 62
     0
370
    -2
100
AcDbLine
 10
1088.292314630072
 20
343.9419850423221
 30
0.0
 11
1088.292314630072
 21
361.156945042322
 31
0.0
  0
LINE
  5
3458
330
31A2
100
AcDbEntity
  8
10100_FRONT_DIM
  6
Continuous
 62
     0
370
    -2
100
AcDbLine
 10
1133.292314630072
 20
343.9419850423221
 30
0.0
 11
1133.292314630072
 21
361.156945042322
 31
0.0
  0
LINE
  5
3459
330
31A2
100
AcDbEntity
  8
10100_FRONT_DIM
  6
Continuous
 62
     0
370
    -2
100
AcDbLine
 10
1090.292314630072
 20
360.156945042322
 30
0.0
 11
1107.708981296739
 21
360.156945042322
 31
0.0
  0
LINE
  5
345A
330
31A2
100
AcDbEntity
  8
10100_FRONT_DIM
  6
Continuous
 62
     0
370
    -2
100
AcDbLine
 10
1131.292314630072
 20
360.156945042322
 30
0.0
 11
1113.875647963405
 21
360.156945042322
 31
0.0
  0
SOLID
  5
345B
330
31A2
100
AcDbEntity
  8
10100_FRONT_DIM
  6
Continuous
 62
     0
100
AcDbTrace
 10
1090.292314630072
 20
360.4902783756553
 30
0.0
 11
1090.292314630072
 21
359.8236117089887
 31
0.0
 12
1088.292314630072
 22
360.156945042322
 32
0.0
 13
1088.292314630072
 23
360.156945042322
 33
0.0
  0
SOLID
  5
345C
330
31A2
100
AcDbEntity
  8
10100_FRONT_DIM
  6
Continuous
 62
     0
100
AcDbTrace
 10
1131.292314630072
 20
360.4902783756553
 30
0.0
 11
1131.292314630072
 21
359.8236117089887
 31
0.0
 12
1133.292314630072
 22
360.156945042322
 32
0.0
 13
1133.292314630072
 23
360.156945042322
 33
0.0
  0
MTEXT
  5
345D
330
31A2
100
AcDbEntity
  8
10100_FRONT_DIM
  6
Continuous
 62
     0
370
    13
100
AcDbMText
 10
1110.792314630072
 20
360.156945042322
 30
0.0
 40
2.5
 41
0.0
 71
     5
 72
     1
  1
\A1;45
 73
     1
 44
1.0
1001
ACAD
1000
MTEXTBEGIN
1070
    73
1070
     1
1070
    44
1040
1.0
1070
    74
1070
     0
1000
MTEXTEND
  0
POINT
  5
345E
330
31A2
100
AcDbEntity
  8
Defpoints
  6
Continuous
 62
     0
100
AcDbPoint
 10
1088.292314630072
 20
342.9419850423221
 30
0.0
  0
POINT
  5
345F
330
31A2
100
AcDbEntity
  8
Defpoints
  6
Continuous
 62
     0
100
AcDbPoint
 10
1133.292314630072
 20
342.9419850423221
 30
0.0
  0
POINT
  5
3460
330
31A2
100
AcDbEntity
  8
Defpoints
  6
Continuous
 62
     0
100
AcDbPoint
 10
1133.292314630072
 20
360.156945042322
 30
0.0
  0
ENDBLK
  5
31AE
330
31A2
100
AcDbEntity
  8
0
100
AcDbBlockEnd
  0
BLOCK
  5
31BA
330
31AF
100
AcDbEntity
  8
0
100
AcDbBlockBegin
  2
*D6
 70
     1
 10
0.0
 20
0.0
 30
0.0
  3
*D6
  1

  0
LINE
  5
344D
330
31AF
100
AcDbEntity
  8
10100_FRONT_DIM
  6
Continuous
 62
     0
370
    -2
100
AcDbLine
 10
1093.592314630072
 20
333.1919450423221
 30
0.0
 11
1093.592314630072
 21
354.1769450423221
 31
0.0
  0
LINE
  5
344E
330
31AF
100
AcDbEntity
  8
10100_FRONT_DIM
  6
Continuous
 62
     0
370
    -2
100
AcDbLine
 10
1102.192234630071
 20
333.1919850423221
 30
0.0
 11
1102.192234630071
 21
354.1769450423221
 31
0.0
  0
LINE
  5
344F
330
31AF
100
AcDbEntity
  8
10100_FRONT_DIM
  6
Continuous
 62
     0
370
    -2
100
AcDbLine
 10
1095.592314630072
 20
353.1769450423221
 30
0.0
 11
1096.058941296739
 21
353.1769450423221
 31
0.0
  0
LINE
  5
3450
330
31AF
100
AcDbEntity
  8
10100_FRONT_DIM
  6
Continuous
 62
     0
370
    -2
100
AcDbLine
 10
1100.192234630071
 20
353.1769450423221
 30
0.0
 11
1099.725607963405
 21
353.1769450423221
 31
0.0
  0
MTEXT
  5
3451
330
31AF
100
AcDbEntity
  8
10100_FRONT_DIM
  6
Continuous
 62
     0
370
    13
100
AcDbMText
 10
1097.892274630072
 20
353.1769450423221
 30
0.0
 40
2.5
 41
0.0
 71
     5
 72
     1
  1
\A1;9
 73
     1
 44
1.0
1001
ACAD
1000
MTEXTBEGIN
1070
    73
1070
     1
1070
    44
1040
1.0
1070
    74
1070
     0
1000
MTEXTEND
  0
SOLID
  5
3452
330
31AF
100
AcDbEntity
  8
10100_FRONT_DIM
  6
Continuous
 62
     0
100
AcDbTrace
 10
1095.592314630072
 20
353.5102783756554
 30
0.0
 11
1095.592314630072
 21
352.8436117089888
 31
0.0
 12
1093.592314630072
 22
353.1769450423221
 32
0.0
 13
1093.592314630072
 23
353.1769450423221
 33
0.0
  0
SOLID
  5
3453
330
31AF
100
AcDbEntity
  8
10100_FRONT_DIM
  6
Continuous
 62
     0
100
AcDbTrace
 10
1100.192234630071
 20
353.5102783756554
 30
0.0
 11
1100.192234630071
 21
352.8436117089888
 31
0.0
 12
1102.192234630071
 22
353.1769450423221
 32
0.0
 13
1102.192234630071
 23
353.1769450423221
 33
0.0
  0
POINT
  5
3454
330
31AF
100
AcDbEntity
  8
Defpoints
  6
Continuous
 62
     0
100
AcDbPoint
 10
1093.592314630072
 20
332.1919450423221
 30
0.0
  0
POINT
  5
3455
330
31AF
100
AcDbEntity
  8
Defpoints
  6
Continuous
 62
     0
100
AcDbPoint
 10
1102.192234630071
 20
332.1919850423221
 30
0.0
  0
POINT
  5
3456
330
31AF
100
AcDbEntity
  8
Defpoints
  6
Continuous
 62
     0
100
AcDbPoint
 10
1102.192234630071
 20
353.1769450423221
 30
0.0
  0
ENDBLK
  5
31BB
330
31AF
100
AcDbEntity
  8
0
100
AcDbBlockEnd
  0
BLOCK
  5
31C9
330
31BC
100
AcDbEntity
  8
0
100
AcDbBlockBegin
  2
*D7
 70
     1
 10
0.0
 20
0.0
 30
0.0
  3
*D7
  1

  0
LINE
  5
3441
330
31BC
100
AcDbEntity
  8
10100_FRONT_DIM
  6
Continuous
 62
     0
370
    -2
100
AcDbLine
 10
1093.592314630072
 20
333.1919450423221
 30
0.0
 11
1093.592314630072
 21
354.1754045017814
 31
0.0
  0
LINE
  5
3442
330
31BC
100
AcDbEntity
  8
10100_FRONT_DIM
  6
Continuous
 62
     0
370
    -2
100
AcDbLine
 10
1088.292314630072
 20
343.941945042322
 30
0.0
 11
1088.292314630072
 21
354.1754045017814
 31
0.0
  0
LINE
  5
3443
330
31BC
100
AcDbEntity
  8
10100_FRONT_DIM
  6
Continuous
 62
     0
370
    -2
100
AcDbLine
 10
1095.592314630072
 20
353.1754045017814
 30
0.0
 11
1097.592314630072
 21
353.1754045017814
 31
0.0
  0
LINE
  5
3444
330
31BC
100
AcDbEntity
  8
10100_FRONT_DIM
  6
Continuous
 62
     0
370
    -2
100
AcDbLine
 10
1086.292314630072
 20
353.1754045017814
 30
0.0
 11
1084.292314630072
 21
353.1754045017814
 31
0.0
  0
LINE
  5
3445
330
31BC
100
AcDbEntity
  8
10100_FRONT_DIM
  6
Continuous
 62
     0
370
    -2
100
AcDbLine
 10
1093.592314630072
 20
353.1754045017814
 30
0.0
 11
1092.775647963405
 21
353.1754045017814
 31
0.0
  0
LINE
  5
3446
330
31BC
100
AcDbEntity
  8
10100_FRONT_DIM
  6
Continuous
 62
     0
370
    -2
100
AcDbLine
 10
1088.292314630072
 20
353.1754045017814
 30
0.0
 11
1089.108981296739
 21
353.1754045017814
 31
0.0
  0
SOLID
  5
3447
330
31BC
100
AcDbEntity
  8
10100_FRONT_DIM
  6
Continuous
 62
     0
100
AcDbTrace
 10
1095.592314630072
 20
353.5087378351148
 30
0.0
 11
1095.592314630072
 21
352.8420711684481
 31
0.0
 12
1093.592314630072
 22
353.1754045017814
 32
0.0
 13
1093.592314630072
 23
353.1754045017814
 33
0.0
  0
SOLID
  5
3448
330
31BC
100
AcDbEntity
  8
10100_FRONT_DIM
  6
Continuous
 62
     0
100
AcDbTrace
 10
1086.292314630072
 20
353.5087378351148
 30
0.0
 11
1086.292314630072
 21
352.8420711684481
 31
0.0
 12
1088.292314630072
 22
353.1754045017814
 32
0.0
 13
1088.292314630072
 23
353.1754045017814
 33
0.0
  0
MTEXT
  5
3449
330
31BC
100
AcDbEntity
  8
10100_FRONT_DIM
  6
Continuous
 62
     0
370
    13
100
AcDbMText
 10
1090.942314630072
 20
353.1754045017814
 30
0.0
 40
2.5
 41
0.0
 71
     5
 72
     1
  1
\A1;5
 73
     1
 44
1.0
1001
ACAD
1000
MTEXTBEGIN
1070
    73
1070
     1
1070
    44
1040
1.0
1070
    74
1070
     0
1000
MTEXTEND
  0
POINT
  5
344A
330
31BC
100
AcDbEntity
  8
Defpoints
  6
Continuous
 62
     0
100
AcDbPoint
 10
1093.592314630072
 20
332.1919450423221
 30
0.0
  0
POINT
  5
344B
330
31BC
100
AcDbEntity
  8
Defpoints
  6
Continuous
 62
     0
100
AcDbPoint
 10
1088.292314630072
 20
342.9419450423221
 30
0.0
  0
POINT
  5
344C
330
31BC
100
AcDbEntity
  8
Defpoints
  6
Continuous
 62
     0
100
AcDbPoint
 10
1088.292314630072
 20
353.1754045017814
 30
0.0
  0
ENDBLK
  5
31CA
330
31BC
100
AcDbEntity
  8
0
100
AcDbBlockEnd
  0
BLOCK
  5
31D6
330
31CB
100
AcDbEntity
  8
0
100
AcDbBlockBegin
  2
*D8
 70
     1
 10
0.0
 20
0.0
 30
0.0
  3
*D8
  1

  0
LINE
  5
3461
330
31CB
100
AcDbEntity
  8
10100_FRONT_DIM
  6
Continuous
 62
     0
370
    -2
100
AcDbLine
 10
1134.292314630072
 20
342.9419450423221
 30
0.0
 11
1143.001814630072
 21
342.9419450423221
 31
0.0
  0
LINE
  5
3462
330
31CB
100
AcDbEntity
  8
10100_FRONT_DIM
  6
Continuous
 62
     0
370
    -2
100
AcDbLine
 10
1134.292314630072
 20
285.441945042322
 30
0.0
 11
1143.001814630072
 21
285.441945042322
 31
0.0
  0
LINE
  5
3463
330
31CB
100
AcDbEntity
  8
10100_FRONT_DIM
  6
Continuous
 62
     0
370
    -2
100
AcDbLine
 10
1142.001814630072
 20
340.9419450423221
 30
0.0
 11
1142.001814630072
 21
319.1502783756554
 31
0.0
  0
LINE
  5
3464
330
31CB
100
AcDbEntity
  8
10100_FRONT_DIM
  6
Continuous
 62
     0
370
    -2
100
AcDbLine
 10
1142.001814630072
 20
287.4419450423221
 30
0.0
 11
1142.001814630072
 21
309.2336117089887
 31
0.0
  0
SOLID
  5
3465
330
31CB
100
AcDbEntity
  8
10100_FRONT_DIM
  6
Continuous
 62
     0
100
AcDbTrace
 10
1141.668481296739
 20
340.9419450423221
 30
0.0
 11
1142.335147963405
 21
340.9419450423221
 31
0.0
 12
1142.001814630072
 22
342.9419450423221
 32
0.0
 13
1142.001814630072
 23
342.9419450423221
 33
0.0
  0
SOLID
  5
3466
330
31CB
100
AcDbEntity
  8
10100_FRONT_DIM
  6
Continuous
 62
     0
100
AcDbTrace
 10
1141.668481296739
 20
287.4419450423221
 30
0.0
 11
1142.335147963405
 21
287.4419450423221
 31
0.0
 12
1142.001814630072
 22
285.441945042322
 32
0.0
 13
1142.001814630072
 23
285.441945042322
 33
0.0
  0
MTEXT
  5
3467
330
31CB
100
AcDbEntity
  8
10100_FRONT_DIM
  6
Continuous
 62
     0
370
    13
100
AcDbMText
 10
1142.001814630072
 20
314.1919450423222
 30
0.0
 40
2.5
 41
0.0
 71
     5
 72
     1
  1
\A1;57,5
 11
0.0000000000000001
 21
1.0
 31
0.0
 73
     1
 44
1.0
1001
ACAD
1000
MTEXTBEGIN
1070
    73
1070
     1
1070
    44
1040
1.0
1070
    74
1070
     0
1000
MTEXTEND
  0
POINT
  5
3468
330
31CB
100
AcDbEntity
  8
Defpoints
  6
Continuous
 62
     0
100
AcDbPoint
 10
1133.292314630072
 20
342.9419450423221
 30
0.0
  0
POINT
  5
3469
330
31CB
100
AcDbEntity
  8
Defpoints
  6
Continuous
 62
     0
100
AcDbPoint
 10
1133.292314630072
 20
285.441945042322
 30
0.0
  0
POINT
  5
346A
330
31CB
100
AcDbEntity
  8
Defpoints
  6
Continuous
 62
     0
100
AcDbPoint
 10
1142.001814630072
 20
285.441945042322
 30
0.0
  0
ENDBLK
  5
31D7
330
31CB
100
AcDbEntity
  8
0
100
AcDbBlockEnd
  0
BLOCK
  5
31E5
330
31D8
100
AcDbEntity
  8
0
100
AcDbBlockBegin
  2
*D9
 70
     1
 10
0.0
 20
0.0
 30
0.0
  3
*D9
  1

  0
LINE
  5
3435
330
31D8
100
AcDbEntity
  8
11100_LEFT_DIM
  6
Continuous
 62
     0
370
    -2
100
AcDbLine
 10
1157.311750655979
 20
343.921985042322
 30
0.0
 11
1157.311750655979
 21
353.8259450423221
 31
0.0
  0
LINE
  5
3436
330
31D8
100
AcDbEntity
  8
11100_LEFT_DIM
  6
Continuous
 62
     0
370
    -2
100
AcDbLine
 10
1162.311750655979
 20
336.1719850423221
 30
0.0
 11
1162.311750655979
 21
353.8259450423221
 31
0.0
  0
LINE
  5
3437
330
31D8
100
AcDbEntity
  8
11100_LEFT_DIM
  6
Continuous
 62
     0
370
    -2
100
AcDbLine
 10
1155.311750655979
 20
352.8259450423221
 30
0.0
 11
1153.311750655979
 21
352.8259450423221
 31
0.0
  0
LINE
  5
3438
330
31D8
100
AcDbEntity
  8
11100_LEFT_DIM
  6
Continuous
 62
     0
370
    -2
100
AcDbLine
 10
1164.311750655979
 20
352.8259450423221
 30
0.0
 11
1166.311750655979
 21
352.8259450423221
 31
0.0
  0
LINE
  5
3439
330
31D8
100
AcDbEntity
  8
11100_LEFT_DIM
  6
Continuous
 62
     0
370
    -2
100
AcDbLine
 10
1157.311750655979
 20
352.8259450423221
 30
0.0
 11
1157.978417322646
 21
352.8259450423221
 31
0.0
  0
LINE
  5
343A
330
31D8
100
AcDbEntity
  8
11100_LEFT_DIM
  6
Continuous
 62
     0
370
    -2
100
AcDbLine
 10
1162.311750655979
 20
352.8259450423221
 30
0.0
 11
1161.645083989312
 21
352.8259450423221
 31
0.0
  0
SOLID
  5
343B
330
31D8
100
AcDbEntity
  8
11100_LEFT_DIM
  6
Continuous
 62
     0
100
AcDbTrace
 10
1155.311750655979
 20
353.1592783756554
 30
0.0
 11
1155.311750655979
 21
352.4926117089888
 31
0.0
 12
1157.311750655979
 22
352.8259450423221
 32
0.0
 13
1157.311750655979
 23
352.8259450423221
 33
0.0
  0
SOLID
  5
343C
330
31D8
100
AcDbEntity
  8
11100_LEFT_DIM
  6
Continuous
 62
     0
100
AcDbTrace
 10
1164.311750655979
 20
353.1592783756554
 30
0.0
 11
1164.311750655979
 21
352.4926117089888
 31
0.0
 12
1162.311750655979
 22
352.8259450423221
 32
0.0
 13
1162.311750655979
 23
352.8259450423221
 33
0.0
  0
MTEXT
  5
343D
330
31D8
100
AcDbEntity
  8
11100_LEFT_DIM
  6
Continuous
 62
     0
370
    13
100
AcDbMText
 10
1159.811750655979
 20
352.8259450423221
 30
0.0
 40
2.5
 41
0.0
 71
     5
 72
     1
  1
\A1;5
 73
     1
 44
1.0
1001
ACAD
1000
MTEXTBEGIN
1070
    73
1070
     1
1070
    44
1040
1.0
1070
    74
1070
     0
1000
MTEXTEND
  0
POINT
  5
343E
330
31D8
100
AcDbEntity
  8
Defpoints
  6
Continuous
 62
     0
100
AcDbPoint
 10
1157.311750655979
 20
342.921985042322
 30
0.0
  0
POINT
  5
343F
330
31D8
100
AcDbEntity
  8
Defpoints
  6
Continuous
 62
     0
100
AcDbPoint
 10
1162.311750655979
 20
335.171985042322
 30
0.0
  0
POINT
  5
3440
330
31D8
100
AcDbEntity
  8
Defpoints
  6
Continuous
 62
     0
100
AcDbPoint
 10
1162.311750655979
 20
352.8259450423221
 30
0.0
  0
ENDBLK
  5
31E6
330
31D8
100
AcDbEntity
  8
0
100
AcDbBlockEnd
  0
BLOCK
  5
31F2
330
31E7
100
AcDbEntity
  8
0
100
AcDbBlockBegin
  2
*D10
 70
     1
 10
0.0
 20
0.0
 30
0.0
  3
*D10
  1

  0
LINE
  5
342B
330
31E7
100
AcDbEntity
  8
11100_LEFT_DIM
  6
Continuous
 62
     0
370
    -2
100
AcDbLine
 10
1162.312050655979
 20
336.1719450423221
 30
0.0
 11
1162.312050655979
 21
353.8259950423222
 31
0.0
  0
LINE
  5
342C
330
31E7
100
AcDbEntity
  8
11100_LEFT_DIM
  6
Continuous
 62
     0
370
    -2
100
AcDbLine
 10
1229.811750655979
 20
330.4683950423221
 30
0.0
 11
1229.811750655979
 21
353.8259950423222
 31
0.0
  0
LINE
  5
342D
330
31E7
100
AcDbEntity
  8
11100_LEFT_DIM
  6
Continuous
 62
     0
370
    -2
100
AcDbLine
 10
1164.312050655979
 20
352.8259950423222
 30
0.0
 11
1192.978567322646
 21
352.8259950423222
 31
0.0
  0
LINE
  5
342E
330
31E7
100
AcDbEntity
  8
11100_LEFT_DIM
  6
Continuous
 62
     0
370
    -2
100
AcDbLine
 10
1227.811750655979
 20
352.8259950423222
 30
0.0
 11
1199.145233989312
 21
352.8259950423222
 31
0.0
  0
SOLID
  5
342F
330
31E7
100
AcDbEntity
  8
11100_LEFT_DIM
  6
Continuous
 62
     0
100
AcDbTrace
 10
1164.312050655979
 20
353.1593283756554
 30
0.0
 11
1164.312050655979
 21
352.4926617089888
 31
0.0
 12
1162.312050655979
 22
352.8259950423222
 32
0.0
 13
1162.312050655979
 23
352.8259950423222
 33
0.0
  0
SOLID
  5
3430
330
31E7
100
AcDbEntity
  8
11100_LEFT_DIM
  6
Continuous
 62
     0
100
AcDbTrace
 10
1227.811750655979
 20
353.1593283756554
 30
0.0
 11
1227.811750655979
 21
352.4926617089888
 31
0.0
 12
1229.811750655979
 22
352.8259950423222
 32
0.0
 13
1229.811750655979
 23
352.8259950423222
 33
0.0
  0
MTEXT
  5
3431
330
31E7
100
AcDbEntity
  8
11100_LEFT_DIM
  6
Continuous
 62
     0
370
    13
100
AcDbMText
 10
1196.061900655979
 20
352.8259950423222
 30
0.0
 40
2.5
 41
0.0
 71
     5
 72
     1
  1
\A1;67
 73
     1
 44
1.0
1001
ACAD
1000
MTEXTBEGIN
1070
    73
1070
     1
1070
    44
1040
1.0
1070
    74
1070
     0
1000
MTEXTEND
  0
POINT
  5
3432
330
31E7
100
AcDbEntity
  8
Defpoints
  6
Continuous
 62
     0
100
AcDbPoint
 10
1162.312050655979
 20
335.1719450423221
 30
0.0
  0
POINT
  5
3433
330
31E7
100
AcDbEntity
  8
Defpoints
  6
Continuous
 62
     0
100
AcDbPoint
 10
1229.811750655979
 20
329.4683950423221
 30
0.0
  0
POINT
  5
3434
330
31E7
100
AcDbEntity
  8
Defpoints
  6
Continuous
 62
     0
100
AcDbPoint
 10
1229.811750655979
 20
352.8259950423222
 30
0.0
  0
ENDBLK
  5
31F3
330
31E7
100
AcDbEntity
  8
0
100
AcDbBlockEnd
  0
BLOCK
  5
3520
330
3514
100
AcDbEntity
  8
0
100
AcDbBlockBegin
  2
*D11
 70
     1
 10
0.0
 20
0.0
 30
0.0
  3
*D11
  1

  0
LINE
  5
3523
330
3514
100
AcDbEntity
  8
0
 62
     0
370
    -2
100
AcDbLine
 10
1093.592314630072
 20
332.8169450423221
 30
0.0
 11
1093.592314630072
 21
358.1754045017814
 31
0.0
  0
LINE
  5
3524
330
3514
100
AcDbEntity
  8
0
 62
     0
370
    -2
100
AcDbLine
 10
1093.592234630072
 20
296.816945042322
 30
0.0
 11
1093.592234630072
 21
358.1754045017814
 31
0.0
  0
LINE
  5
3525
330
3514
100
AcDbEntity
  8
0
 62
     0
370
    -2
100
AcDbLine
 10
1096.092314630072
 20
356.9254045017814
 30
0.0
 11
1098.592314630072
 21
356.9254045017814
 31
0.0
  0
LINE
  5
3526
330
3514
100
AcDbEntity
  8
0
 62
     0
370
    -2
100
AcDbLine
 10
1091.092234630072
 20
356.9254045017814
 30
0.0
 11
1088.592234630072
 21
356.9254045017814
 31
0.0
  0
LINE
  5
3527
330
3514
100
AcDbEntity
  8
0
 62
     0
370
    -2
100
AcDbLine
 10
1093.592314630072
 20
356.9254045017814
 30
0.0
 11
1093.592234630072
 21
356.9254045017814
 31
0.0
  0
SOLID
  5
3528
330
3514
100
AcDbEntity
  8
0
 62
     0
100
AcDbTrace
 10
1096.092314630072
 20
357.3420711684481
 30
0.0
 11
1096.092314630072
 21
356.5087378351147
 31
0.0
 12
1093.592314630072
 22
356.9254045017814
 32
0.0
 13
1093.592314630072
 23
356.9254045017814
 33
0.0
  0
SOLID
  5
3529
330
3514
100
AcDbEntity
  8
0
 62
     0
100
AcDbTrace
 10
1091.092234630072
 20
357.3420711684481
 30
0.0
 11
1091.092234630072
 21
356.5087378351147
 31
0.0
 12
1093.592234630072
 22
356.9254045017814
 32
0.0
 13
1093.592234630072
 23
356.9254045017814
 33
0.0
  0
MTEXT
  5
352A
330
3514
100
AcDbEntity
  8
0
 62
     0
100
AcDbMText
 10
1087.342234630072
 20
356.9254045017814
 30
0.0
 40
2.5
 41
0.0
 71
     5
 72
     1
  1
0
 73
     1
 44
1.0
1001
ACAD
1000
MTEXTBEGIN
1070
    73
1070
     1
1070
    44
1040
1.0
1070
    74
1070
     0
1000
MTEXTEND
  0
POINT
  5
352B
330
3514
100
AcDbEntity
  8
Defpoints
 62
     0
100
AcDbPoint
 10
1093.592314630072
 20
332.1919450423221
 30
0.0
  0
POINT
  5
352C
330
3514
100
AcDbEntity
  8
Defpoints
 62
     0
100
AcDbPoint
 10
1093.592234630072
 20
296.191945042322
 30
0.0
  0
POINT
  5
352D
330
3514
100
AcDbEntity
  8
Defpoints
 62
     0
100
AcDbPoint
 10
1093.592234630072
 20
356.9254045017814
 30
0.0
  0
ENDBLK
  5
3521
330
3514
100
AcDbEntity
  8
0
100
AcDbBlockEnd
  0
BLOCK
  5
353B
330
3530
100
AcDbEntity
  8
0
100
AcDbBlockBegin
  2
*D12
 70
     1
 10
0.0
 20
0.0
 30
0.0
  3
*D12
  1

  0
LINE
  5
353E
330
3530
100
AcDbEntity
  8
0
 62
     0
370
    -2
100
AcDbLine
 10
1092.967234630072
 20
332.1919850423221
 30
0.0
 11
1074.784992558083
 21
332.1919850423221
 31
0.0
  0
LINE
  5
353F
330
3530
100
AcDbEntity
  8
0
 62
     0
370
    -2
100
AcDbLine
 10
1092.967234630072
 20
296.191945042322
 30
0.0
 11
1074.784992558083
 21
296.191945042322
 31
0.0
  0
LINE
  5
3540
330
3530
100
AcDbEntity
  8
0
 62
     0
370
    -2
100
AcDbLine
 10
1076.034992558083
 20
329.6919850423221
 30
0.0
 11
1076.034992558083
 21
316.9002983756554
 31
0.0
  0
LINE
  5
3541
330
3530
100
AcDbEntity
  8
0
 62
     0
370
    -2
100
AcDbLine
 10
1076.034992558083
 20
298.691945042322
 30
0.0
 11
1076.034992558083
 21
311.4836317089888
 31
0.0
  0
SOLID
  5
3542
330
3530
100
AcDbEntity
  8
0
 62
     0
100
AcDbTrace
 10
1075.618325891416
 20
329.6919850423221
 30
0.0
 11
1076.451659224749
 21
329.6919850423221
 31
0.0
 12
1076.034992558083
 22
332.1919850423221
 32
0.0
 13
1076.034992558083
 23
332.1919850423221
 33
0.0
  0
SOLID
  5
3543
330
3530
100
AcDbEntity
  8
0
 62
     0
100
AcDbTrace
 10
1075.618325891416
 20
298.691945042322
 30
0.0
 11
1076.451659224749
 21
298.691945042322
 31
0.0
 12
1076.034992558083
 22
296.191945042322
 32
0.0
 13
1076.034992558083
 23
296.191945042322
 33
0.0
  0
MTEXT
  5
3544
330
3530
100
AcDbEntity
  8
0
 62
     0
100
AcDbMText
 10
1076.034992558083
 20
314.1919650423222
 30
0.0
 40
2.5
 41
0.0
 71
     5
 72
     1
  1
36
 11
0.0000000000000001
 21
1.0
 31
0.0
 73
     1
 44
1.0
1001
ACAD
1000
MTEXTBEGIN
1070
    73
1070
     1
1070
    44
1040
1.0
1070
    74
1070
     0
1000
MTEXTEND
  0
POINT
  5
3545
330
3530
100
AcDbEntity
  8
Defpoints
 62
     0
100
AcDbPoint
 10
1093.592234630072
 20
332.1919850423221
 30
0.0
  0
POINT
  5
3546
330
3530
100
AcDbEntity
  8
Defpoints
 62
     0
100
AcDbPoint
 10
1093.592234630072
 20
296.191945042322
 30
0.0
  0
POINT
  5
3547
330
3530
100
AcDbEntity
  8
Defpoints
 62
     0
100
AcDbPoint
 10
1076.034992558083
 20
296.191945042322
 30
0.0
  0
ENDBLK
  5
353C
330
3530
100
AcDbEntity
  8
0
100
AcDbBlockEnd
  0
ENDSEC
  0
SECTION
  2
ENTITIES
  0
INSERT
  5
117
330
1F
100
AcDbEntity
  8
90000_FRAME
  6
Continuous
 62
     7
100
AcDbBlockReference
  2
SIEMENS_OUTLINE_BL0
 10
1113.564341719631
 20
201.9187786897147
 30
0.0
  0
LINE
  5
118
330
1F
100
AcDbEntity
  8
90000_FRAME
  6
Continuous
 62
     7
100
AcDbLine
 10
1180.91844433571
 20
212.257037917318
 30
0.0
 11
1315.91844433571
 21
212.257037917318
 31
0.0
  0
LINE
  5
119
330
1F
100
AcDbEntity
  8
90000_FRAME
  6
Continuous
 62
     7
100
AcDbLine
 10
1180.91844433571
 20
212.257037917318
 30
0.0
 11
1180.91844433571
 21
230.257037917318
 31
0.0
  0
LINE
  5
11A
330
1F
100
AcDbEntity
  8
90000_FRAME
  6
Continuous
 62
     7
100
AcDbLine
 10
1230.91844433571
 20
218.257037917318
 30
0.0
 11
1315.91844433571
 21
218.257037917318
 31
0.0
  0
LINE
  5
11B
330
1F
100
AcDbEntity
  8
90000_FRAME
  6
Continuous
 62
     7
100
AcDbLine
 10
1180.91844433571
 20
230.257037917318
 30
0.0
 11
1315.91844433571
 21
230.257037917318
 31
0.0
  0
LINE
  5
11C
330
1F
100
AcDbEntity
  8
90000_FRAME
  6
Continuous
 62
     7
100
AcDbLine
 10
1230.91844433571
 20
212.257037917318
 30
0.0
 11
1230.91844433571
 21
230.257037917318
 31
0.0
  0
LINE
  5
11D
330
1F
100
AcDbEntity
  8
90000_FRAME
  6
Continuous
 62
     7
100
AcDbLine
 10
1273.41844433571
 20
212.257037917318
 30
0.0
 11
1273.41844433571
 21
218.257037917318
 31
0.0
  0
LINE
  5
11E
330
1F
100
AcDbEntity
  8
90000_FRAME
  6
Continuous
 62
     7
100
AcDbLine
 10
1315.91844433571
 20
212.257037917318
 30
0.0
 11
1315.91844433571
 21
230.257037917318
 31
0.0
  0
TEXT
  5
11F
330
1F
100
AcDbEntity
  8
90000_FRAME
  6
Continuous
 62
     7
100
AcDbText
 10
1231.57844433571
 20
214.157037917318
 30
0.0
 40
2.2
  1
Format / Size: DIN A4
 41
0.7994987468660263
 72
     5
 11
1264.99749195471
 21
214.157037917318
 31
0.0
100
AcDbText
  0
TEXT
  5
120
330
1F
100
AcDbEntity
  8
90000_FRAME
  6
Continuous
 62
     7
100
AcDbText
 10
1274.07844433571
 20
214.157037917318
 30
0.0
 40
2.2
  1
Massstab / Scale: 1:1
 41
0.7732634338148433
 72
     5
 11
1304.98320624051
 21
214.157037917318
 31
0.0
100
AcDbText
  0
TEXT
  5
121
330
1F
100
AcDbEntity
  8
90000_FRAME
  6
Continuous
 62
     7
100
AcDbText
 10
1244.224368859661
 20
222.507037917318
 30
0.0
 40
3.5
  1
3RT101__00000086_001_ALL
 41
0.754720001158827
 72
     5
 11
1300.136542278844
 21
222.507037917318
 31
0.0
100
AcDbText
  0
LINE
  5
124
330
1F
100
AcDbEntity
  8
90000_FRAME
  6
Continuous
 62
     7
100
AcDbLine
 10
1055.918444335711
 20
202.257037917318
 30
0.0
 11
1325.918444335711
 21
202.257037917318
 31
0.0
  0
LINE
  5
126
330
1F
100
AcDbEntity
  8
90000_FRAME
  6
Continuous
 62
     7
100
AcDbLine
 10
1325.918444335711
 20
202.257037917318
 30
0.0
 11
1325.918444335711
 21
402.2570379173179
 31
0.0
  0
TEXT
  5
129
330
1F
100
AcDbEntity
  8
91000_TIP
  6
Continuous
 62
     7
100
AcDbText
 10
1059.971794118375
 20
210.9892745389946
 30
0.0
 40
2.5
  1
Alle Bemassungswerte sind in Millimeter (mm) angegeben.
 41
0.6056311217924569
 72
     5
 11
1133.656913936457
 21
210.9892745389946
 31
0.0
100
AcDbText
  0
TEXT
  5
12A
330
1F
100
AcDbEntity
  8
91000_TIP
  6
Continuous
 62
     7
100
AcDbText
 10
1059.971794118375
 20
205.7392745389947
 30
0.0
 40
2.5
  1
All dimensions are in millimeters (mm).
 41
0.7513350295680256
 72
     5
 11
1120.078596483817
 21
205.7392745389947
 31
0.0
100
AcDbText
  0
LINE
  5
2093
330
1F
100
AcDbEntity
  8
91000_TIP
  6
Continuous
 62
     7
100
AcDbLine
 10
1155.733114439736
 20
223.5807754396886
 30
0.0
 11
1165.733114235536
 21
226.0807753886886
 31
0.0
  0
LINE
  5
2094
330
1F
100
AcDbEntity
  8
91000_TIP
  6
CENTER
 62
     7
100
AcDbLine
 10
1154.453603967735
 20
221.0807754907886
 30
0.0
 11
1178.055593231835
 21
221.0807754907886
 31
0.0
  0
LINE
  5
2095
330
1F
100
AcDbEntity
  8
91000_TIP
  6
Continuous
 62
     7
100
AcDbLine
 10
1155.733114439736
 20
218.5807755418886
 30
0.0
 11
1165.733114235536
 21
216.0807755928885
 31
0.0
  0
LINE
  5
2096
330
1F
100
AcDbEntity
  8
91000_TIP
  6
Continuous
 62
     7
100
AcDbLine
 10
1155.733114439736
 20
223.5807754396886
 30
0.0
 11
1155.733114439736
 21
218.5807755418886
 31
0.0
  0
LINE
  5
2097
330
1F
100
AcDbEntity
  8
91000_TIP
  6
Continuous
 62
     7
100
AcDbLine
 10
1165.733114235536
 20
226.0807753886886
 30
0.0
 11
1165.733114235536
 21
216.0807755928885
 31
0.0
  0
LINE
  5
2098
330
1F
100
AcDbEntity
  8
91000_TIP
  6
CENTER
 62
     7
100
AcDbLine
 10
1172.233114102736
 20
215.3592942843886
 30
0.0
 11
1172.233114102736
 21
226.6426802843886
 31
0.0
  0
CIRCLE
  5
2099
330
1F
100
AcDbEntity
  8
91000_TIP
  6
Continuous
 62
     7
100
AcDbCircle
 10
1172.233114102736
 20
221.0807754907886
 30
0.0
 40
4.9999998979
  0
CIRCLE
  5
209A
330
1F
100
AcDbEntity
  8
91000_TIP
  6
Continuous
 62
     7
100
AcDbCircle
 10
1172.233114102736
 20
221.0807754907886
 30
0.0
 40
2.499999948899997
  0
ARC
  5
296C
330
1F
100
AcDbEntity
  8
11000_Left
  6
ACAD_ISO02W100
370
    13
100
AcDbCircle
 39
0.25
 10
1158.311650655979
 20
323.8222950423221
 30
-1.0
 40
1.0
100
AcDbArc
 50
90.0
 51
180.0
1001
AUSTER_ANSICHT
1002
{
1000
Det03
1002
}
1001
AUSTER_FOLIE
1002
{
1000
NSB00752A
1002
}
  0
ARC
  5
296D
330
1F
100
AcDbEntity
  8
11000_Left
  6
ACAD_ISO02W100
370
    13
100
AcDbCircle
 39
0.25
 10
1158.311650655979
 20
304.822245042322
 30
-1.0
 40
1.0
100
AcDbArc
 50
180.0
 51
270.0
1001
AUSTER_ANSICHT
1002
{
1000
Det03
1002
}
1001
AUSTER_FOLIE
1002
{
1000
NSB00752A
1002
}
  0
ARC
  5
296E
330
1F
100
AcDbEntity
  8
11000_Left
  6
ACAD_ISO02W100
370
    13
100
AcDbCircle
 39
0.25
 10
1158.411650655979
 20
328.7222950423221
 30
-1.0
 40
1.9
100
AcDbArc
 50
270.0
 51
0.0
1001
AUSTER_ANSICHT
1002
{
1000
Det03
1002
}
1001
AUSTER_FOLIE
1002
{
1000
NSB00752A
1002
}
  0
ARC
  5
296F
330
1F
100
AcDbEntity
  8
11000_Left
  6
ACAD_ISO02W100
370
    13
100
AcDbCircle
 39
0.25
 10
1160.811650655979
 20
329.4722950423221
 30
-1.0
 40
0.5
100
AcDbArc
 50
270.0
 51
0.0
1001
AUSTER_ANSICHT
1002
{
1000
Det03
1002
}
1001
AUSTER_FOLIE
1002
{
1000
NSB00752A
1002
}
  0
ARC
  5
2970
330
1F
100
AcDbEntity
  8
11000_Left
  6
ACAD_ISO02W100
370
    13
100
AcDbCircle
 39
0.25
 10
1158.411650655979
 20
299.922245042322
 30
-1.0
 40
1.9
100
AcDbArc
 50
0.0000000107509873
 51
90.0
1001
AUSTER_ANSICHT
1002
{
1000
Det03
1002
}
1001
AUSTER_FOLIE
1002
{
1000
NSB00752A
1002
}
  0
LINE
  5
2971
330
1F
100
AcDbEntity
  8
30000_Drilling
  6
Continuous
370
    13
100
AcDbLine
 39
0.25
 10
1248.39845984264
 20
289.221945042322
 30
0.0
 11
1251.39845984264
 21
289.221945042322
 31
0.0
1001
AUSTER_ANSICHT
1002
{
1000
Det03
1002
}
1001
AUSTER_FOLIE
1002
{
1000
NSB00752A
1002
}
  0
LINE
  5
2972
330
1F
100
AcDbEntity
  8
30000_Drilling
  6
Continuous
370
    13
100
AcDbLine
 39
0.25
 10
1249.898459842641
 20
290.721945042322
 30
0.0
 11
1249.898459842641
 21
287.721945042322
 31
0.0
1001
AUSTER_ANSICHT
1002
{
1000
Det03
1002
}
1001
AUSTER_FOLIE
1002
{
1000
NSB00752A
1002
}
  0
ARC
  5
2973
330
1F
100
AcDbEntity
  8
30000_Drilling
  6
Continuous
370
    50
100
AcDbCircle
 39
0.25
 10
1249.898459842641
 20
289.221945042322
 30
0.0
 40
2.5
100
AcDbArc
 50
270.0
 51
90.0
1001
AUSTER_ANSICHT
1002
{
1000
Det03
1002
}
1001
AUSTER_FOLIE
1002
{
1000
NSB00752A
1002
}
  0
LINE
  5
2974
330
1F
100
AcDbEntity
  8
30000_Drilling
  6
Continuous
370
    13
100
AcDbLine
 39
0.25
 10
1283.39845984264
 20
289.221945042322
 30
0.0
 11
1286.398459842641
 21
289.221945042322
 31
0.0
1001
AUSTER_ANSICHT
1002
{
1000
Det03
1002
}
1001
AUSTER_FOLIE
1002
{
1000
NSB00752A
1002
}
  0
LINE
  5
2975
330
1F
100
AcDbEntity
  8
30000_Drilling
  6
Continuous
370
    13
100
AcDbLine
 39
0.25
 10
1284.89845984264
 20
290.721945042322
 30
0.0
 11
1284.89845984264
 21
287.721945042322
 31
0.0
1001
AUSTER_ANSICHT
1002
{
1000
Det03
1002
}
1001
AUSTER_FOLIE
1002
{
1000
NSB00752A
1002
}
  0
ARC
  5
2976
330
1F
100
AcDbEntity
  8
30000_Drilling
  6
Continuous
370
    50
100
AcDbCircle
 39
0.25
 10
1284.89845984264
 20
289.221945042322
 30
0.0
 40
2.5
100
AcDbArc
 50
90.0
 51
270.0
1001
AUSTER_ANSICHT
1002
{
1000
Det03
1002
}
1001
AUSTER_FOLIE
1002
{
1000
NSB00752A
1002
}
  0
LINE
  5
2977
330
1F
100
AcDbEntity
  8
30000_Drilling
  6
Continuous
370
    13
100
AcDbLine
 39
0.25
 10
1283.39845984264
 20
339.2219850423221
 30
0.0
 11
1286.398459842641
 21
339.2219850423221
 31
0.0
1001
AUSTER_ANSICHT
1002
{
1000
Det03
1002
}
1001
AUSTER_FOLIE
1002
{
1000
NSB00752A
1002
}
  0
LINE
  5
2978
330
1F
100
AcDbEntity
  8
30000_Drilling
  6
Continuous
370
    13
100
AcDbLine
 39
0.25
 10
1284.89845984264
 20
340.7219850423221
 30
0.0
 11
1284.89845984264
 21
337.7219850423222
 31
0.0
1001
AUSTER_ANSICHT
1002
{
1000
Det03
1002
}
1001
AUSTER_FOLIE
1002
{
1000
NSB00752A
1002
}
  0
ARC
  5
2979
330
1F
100
AcDbEntity
  8
30000_Drilling
  6
Continuous
370
    50
100
AcDbCircle
 39
0.25
 10
1284.89845984264
 20
339.2219850423221
 30
0.0
 40
2.5
100
AcDbArc
 50
90.0
 51
270.0
1001
AUSTER_ANSICHT
1002
{
1000
Det03
1002
}
1001
AUSTER_FOLIE
1002
{
1000
NSB00752A
1002
}
  0
LINE
  5
297A
330
1F
100
AcDbEntity
  8
30000_Drilling
  6
Continuous
370
    13
100
AcDbLine
 39
0.25
 10
1248.39845984264
 20
339.2219850423221
 30
0.0
 11
1251.39845984264
 21
339.2219850423221
 31
0.0
1001
AUSTER_ANSICHT
1002
{
1000
Det03
1002
}
1001
AUSTER_FOLIE
1002
{
1000
NSB00752A
1002
}
  0
LINE
  5
297B
330
1F
100
AcDbEntity
  8
30000_Drilling
  6
Continuous
370
    13
100
AcDbLine
 39
0.25
 10
1249.898459842641
 20
340.7219850423221
 30
0.0
 11
1249.898459842641
 21
337.7219850423222
 31
0.0
1001
AUSTER_ANSICHT
1002
{
1000
Det03
1002
}
1001
AUSTER_FOLIE
1002
{
1000
NSB00752A
1002
}
  0
ARC
  5
297C
330
1F
100
AcDbEntity
  8
30000_Drilling
  6
Continuous
370
    50
100
AcDbCircle
 39
0.25
 10
1249.898459842641
 20
339.2219850423221
 30
0.0
 40
2.5
100
AcDbArc
 50
270.0
 51
90.0
1001
AUSTER_ANSICHT
1002
{
1000
Det03
1002
}
1001
AUSTER_FOLIE
1002
{
1000
NSB00752A
1002
}
  0
CIRCLE
  5
297D
330
1F
100
AcDbEntity
  8
10000_FRONT
  6
Continuous
370
    13
100
AcDbCircle
 39
0.25
 10
1102.192234630071
 20
332.1919850423221
 30
0.0
 40
3.1
1001
AUSTER_ANSICHT
1002
{
1000
Det03
1002
}
1001
AUSTER_FOLIE
1002
{
1000
NSB00752A
1002
}
  0
CIRCLE
  5
297E
330
1F
100
AcDbEntity
  8
10000_FRONT
  6
Continuous
370
    13
100
AcDbCircle
 39
0.25
 10
1127.992234630072
 20
296.191945042322
 30
0.0
 40
3.1
1001
AUSTER_ANSICHT
1002
{
1000
Det03
1002
}
1001
AUSTER_FOLIE
1002
{
1000
NSB00752A
1002
}
  0
CIRCLE
  5
297F
330
1F
100
AcDbEntity
  8
10000_FRONT
  6
Continuous
370
    13
100
AcDbCircle
 39
0.25
 10
1119.392234630072
 20
296.191945042322
 30
0.0
 40
3.1
1001
AUSTER_ANSICHT
1002
{
1000
Det03
1002
}
1001
AUSTER_FOLIE
1002
{
1000
NSB00752A
1002
}
  0
CIRCLE
  5
2980
330
1F
100
AcDbEntity
  8
10000_FRONT
  6
Continuous
370
    13
100
AcDbCircle
 39
0.25
 10
1110.792234630072
 20
296.191945042322
 30
0.0
 40
3.1
1001
AUSTER_ANSICHT
1002
{
1000
Det03
1002
}
1001
AUSTER_FOLIE
1002
{
1000
NSB00752A
1002
}
  0
CIRCLE
  5
2981
330
1F
100
AcDbEntity
  8
10000_FRONT
  6
Continuous
370
    13
100
AcDbCircle
 39
0.25
 10
1102.192234630071
 20
296.191945042322
 30
0.0
 40
3.1
1001
AUSTER_ANSICHT
1002
{
1000
Det03
1002
}
1001
AUSTER_FOLIE
1002
{
1000
NSB00752A
1002
}
  0
CIRCLE
  5
2982
330
1F
100
AcDbEntity
  8
10000_FRONT
  6
Continuous
370
    13
100
AcDbCircle
 39
0.25
 10
1093.592234630072
 20
296.191945042322
 30
0.0
 40
3.1
1001
AUSTER_ANSICHT
1002
{
1000
Det03
1002
}
1001
AUSTER_FOLIE
1002
{
1000
NSB00752A
1002
}
  0
CIRCLE
  5
2983
330
1F
100
AcDbEntity
  8
10000_FRONT
  6
Continuous
370
    13
100
AcDbCircle
 39
0.25
 10
1127.992234630072
 20
332.1919850423221
 30
0.0
 40
3.1
1001
AUSTER_ANSICHT
1002
{
1000
Det03
1002
}
1001
AUSTER_FOLIE
1002
{
1000
NSB00752A
1002
}
  0
CIRCLE
  5
2984
330
1F
100
AcDbEntity
  8
10000_FRONT
  6
Continuous
370
    13
100
AcDbCircle
 39
0.25
 10
1119.392234630072
 20
332.1919850423221
 30
0.0
 40
3.1
1001
AUSTER_ANSICHT
1002
{
1000
Det03
1002
}
1001
AUSTER_FOLIE
1002
{
1000
NSB00752A
1002
}
  0
CIRCLE
  5
2985
330
1F
100
AcDbEntity
  8
10000_FRONT
  6
Continuous
370
    13
100
AcDbCircle
 39
0.25
 10
1110.792234630072
 20
332.1919850423221
 30
0.0
 40
3.1
1001
AUSTER_ANSICHT
1002
{
1000
Det03
1002
}
1001
AUSTER_FOLIE
1002
{
1000
NSB00752A
1002
}
  0
CIRCLE
  5
2986
330
1F
100
AcDbEntity
  8
10000_FRONT
  6
Continuous
370
    13
100
AcDbCircle
 39
0.25
 10
1093.592234630072
 20
332.1919850423221
 30
0.0
 40
3.1
1001
AUSTER_ANSICHT
1002
{
1000
Det03
1002
}
1001
AUSTER_FOLIE
1002
{
1000
NSB00752A
1002
}
  0
CIRCLE
  5
2987
330
1F
100
AcDbEntity
  8
10000_FRONT
  6
Continuous
370
    13
100
AcDbCircle
 39
0.25
 10
1102.192234630071
 20
332.1919850423221
 30
0.0
 40
3.1
1001
AUSTER_ANSICHT
1002
{
1000
Det03
1002
}
1001
AUSTER_FOLIE
1002
{
1000
NSB00752A
1002
}
  0
CIRCLE
  5
2988
330
1F
100
AcDbEntity
  8
10000_FRONT
  6
Continuous
370
    13
100
AcDbCircle
 39
0.25
 10
1102.192234630071
 20
332.1919850423221
 30
0.0
 40
3.1
1001
AUSTER_ANSICHT
1002
{
1000
Det03
1002
}
1001
AUSTER_FOLIE
1002
{
1000
NSB00752A
1002
}
  0
ARC
  5
2989
330
1F
100
AcDbEntity
  8
10000_FRONT
  6
Continuous
370
    13
100
AcDbCircle
 39
0.25
 10
1127.992234630072
 20
296.191945042322
 30
0.0
 40
2.850490999999998
100
AcDbArc
 50
167.7604000000001
 51
192.2395999999998
1001
AUSTER_ANSICHT
1002
{
1000
Det03
1002
}
1001
AUSTER_FOLIE
1002
{
1000
NSB00752A
1002
}
  0
ARC
  5
298A
330
1F
100
AcDbEntity
  8
10000_FRONT
  6
Continuous
370
    13
100
AcDbCircle
 39
0.25
 10
1127.992234630072
 20
332.1919850423221
 30
0.0
 40
2.850490999999998
100
AcDbArc
 50
167.7604000000001
 51
192.2395999999998
1001
AUSTER_ANSICHT
1002
{
1000
Det03
1002
}
1001
AUSTER_FOLIE
1002
{
1000
NSB00752A
1002
}
  0
ARC
  5
298B
330
1F
100
AcDbEntity
  8
10000_FRONT
  6
Continuous
370
    13
100
AcDbCircle
 39
0.25
 10
1127.992234630072
 20
296.191945042322
 30
0.0
 40
1.85
100
AcDbArc
 50
253.8366000000001
 51
286.1633999999999
1001
AUSTER_ANSICHT
1002
{
1000
Det03
1002
}
1001
AUSTER_FOLIE
1002
{
1000
NSB00752A
1002
}
  0
ARC
  5
298C
330
1F
100
AcDbEntity
  8
10000_FRONT
  6
Continuous
370
    13
100
AcDbCircle
 39
0.25
 10
1127.992234630072
 20
332.1919850423221
 30
0.0
 40
1.85
100
AcDbArc
 50
73.83654999999746
 51
106.1633999999998
1001
AUSTER_ANSICHT
1002
{
1000
Det03
1002
}
1001
AUSTER_FOLIE
1002
{
1000
NSB00752A
1002
}
  0
ARC
  5
298D
330
1F
100
AcDbEntity
  8
10000_FRONT
  6
Continuous
370
    13
100
AcDbCircle
 39
0.25
 10
1127.992234630072
 20
296.191945042322
 30
0.0
 40
1.85
100
AcDbArc
 50
73.83654999999746
 51
106.1633999999998
1001
AUSTER_ANSICHT
1002
{
1000
Det03
1002
}
1001
AUSTER_FOLIE
1002
{
1000
NSB00752A
1002
}
  0
CIRCLE
  5
298E
330
1F
100
AcDbEntity
  8
10000_FRONT
  6
Continuous
370
    13
100
AcDbCircle
 39
0.25
 10
1127.992234630072
 20
296.191945042322
 30
0.0
 40
3.1
1001
AUSTER_ANSICHT
1002
{
1000
Det03
1002
}
1001
AUSTER_FOLIE
1002
{
1000
NSB00752A
1002
}
  0
ARC
  5
298F
330
1F
100
AcDbEntity
  8
10000_FRONT
  6
Continuous
370
    13
100
AcDbCircle
 39
0.25
 10
1127.992234630072
 20
296.191945042322
 30
0.0
 40
2.850490999999998
100
AcDbArc
 50
347.7604000000003
 51
12.23959999999984
1001
AUSTER_ANSICHT
1002
{
1000
Det03
1002
}
1001
AUSTER_FOLIE
1002
{
1000
NSB00752A
1002
}
  0
CIRCLE
  5
2990
330
1F
100
AcDbEntity
  8
10000_FRONT
  6
Continuous
370
    13
100
AcDbCircle
 39
0.25
 10
1127.992234630072
 20
332.1919850423221
 30
0.0
 40
3.1
1001
AUSTER_ANSICHT
1002
{
1000
Det03
1002
}
1001
AUSTER_FOLIE
1002
{
1000
NSB00752A
1002
}
  0
CIRCLE
  5
2991
330
1F
100
AcDbEntity
  8
10000_FRONT
  6
Continuous
370
    13
100
AcDbCircle
 39
0.25
 10
1119.392234630072
 20
296.191945042322
 30
0.0
 40
3.1
1001
AUSTER_ANSICHT
1002
{
1000
Det03
1002
}
1001
AUSTER_FOLIE
1002
{
1000
NSB00752A
1002
}
  0
CIRCLE
  5
2992
330
1F
100
AcDbEntity
  8
10000_FRONT
  6
Continuous
370
    13
100
AcDbCircle
 39
0.25
 10
1110.792234630072
 20
296.191945042322
 30
0.0
 40
3.1
1001
AUSTER_ANSICHT
1002
{
1000
Det03
1002
}
1001
AUSTER_FOLIE
1002
{
1000
NSB00752A
1002
}
  0
CIRCLE
  5
2993
330
1F
100
AcDbEntity
  8
10000_FRONT
  6
Continuous
370
    13
100
AcDbCircle
 39
0.25
 10
1093.592234630072
 20
296.191945042322
 30
0.0
 40
3.1
1001
AUSTER_ANSICHT
1002
{
1000
Det03
1002
}
1001
AUSTER_FOLIE
1002
{
1000
NSB00752A
1002
}
  0
ARC
  5
2994
330
1F
100
AcDbEntity
  8
10000_FRONT
  6
Continuous
370
    13
100
AcDbCircle
 39
0.25
 10
1119.392234630072
 20
296.191945042322
 30
0.0
 40
2.850490999999998
100
AcDbArc
 50
167.7604000000001
 51
192.2395999999998
1001
AUSTER_ANSICHT
1002
{
1000
Det03
1002
}
1001
AUSTER_FOLIE
1002
{
1000
NSB00752A
1002
}
  0
ARC
  5
2995
330
1F
100
AcDbEntity
  8
10000_FRONT
  6
Continuous
370
    13
100
AcDbCircle
 39
0.25
 10
1119.392234630072
 20
296.191945042322
 30
0.0
 40
2.850490999999998
100
AcDbArc
 50
347.7604000000003
 51
12.23959999999984
1001
AUSTER_ANSICHT
1002
{
1000
Det03
1002
}
1001
AUSTER_FOLIE
1002
{
1000
NSB00752A
1002
}
  0
ARC
  5
2996
330
1F
100
AcDbEntity
  8
10000_FRONT
  6
Continuous
370
    13
100
AcDbCircle
 39
0.25
 10
1119.392234630072
 20
296.191945042322
 30
0.0
 40
1.85
100
AcDbArc
 50
253.8366000000001
 51
286.1633999999999
1001
AUSTER_ANSICHT
1002
{
1000
Det03
1002
}
1001
AUSTER_FOLIE
1002
{
1000
NSB00752A
1002
}
  0
ARC
  5
2997
330
1F
100
AcDbEntity
  8
10000_FRONT
  6
Continuous
370
    13
100
AcDbCircle
 39
0.25
 10
1119.392234630072
 20
296.191945042322
 30
0.0
 40
1.85
100
AcDbArc
 50
73.83654999999746
 51
106.1633999999998
1001
AUSTER_ANSICHT
1002
{
1000
Det03
1002
}
1001
AUSTER_FOLIE
1002
{
1000
NSB00752A
1002
}
  0
ARC
  5
2998
330
1F
100
AcDbEntity
  8
10000_FRONT
  6
Continuous
370
    13
100
AcDbCircle
 39
0.25
 10
1110.792234630072
 20
296.191945042322
 30
0.0
 40
2.850490999999998
100
AcDbArc
 50
167.7604000000001
 51
192.2395999999998
1001
AUSTER_ANSICHT
1002
{
1000
Det03
1002
}
1001
AUSTER_FOLIE
1002
{
1000
NSB00752A
1002
}
  0
ARC
  5
2999
330
1F
100
AcDbEntity
  8
10000_FRONT
  6
Continuous
370
    13
100
AcDbCircle
 39
0.25
 10
1110.792234630072
 20
296.191945042322
 30
0.0
 40
2.850490999999998
100
AcDbArc
 50
347.7604000000003
 51
12.23959999999984
1001
AUSTER_ANSICHT
1002
{
1000
Det03
1002
}
1001
AUSTER_FOLIE
1002
{
1000
NSB00752A
1002
}
  0
ARC
  5
299A
330
1F
100
AcDbEntity
  8
10000_FRONT
  6
Continuous
370
    13
100
AcDbCircle
 39
0.25
 10
1110.792234630072
 20
296.191945042322
 30
0.0
 40
1.85
100
AcDbArc
 50
253.8366000000001
 51
286.1633999999999
1001
AUSTER_ANSICHT
1002
{
1000
Det03
1002
}
1001
AUSTER_FOLIE
1002
{
1000
NSB00752A
1002
}
  0
ARC
  5
299B
330
1F
100
AcDbEntity
  8
10000_FRONT
  6
Continuous
370
    13
100
AcDbCircle
 39
0.25
 10
1110.792234630072
 20
296.191945042322
 30
0.0
 40
1.85
100
AcDbArc
 50
73.83654999999746
 51
106.1633999999998
1001
AUSTER_ANSICHT
1002
{
1000
Det03
1002
}
1001
AUSTER_FOLIE
1002
{
1000
NSB00752A
1002
}
  0
ARC
  5
299C
330
1F
100
AcDbEntity
  8
10000_FRONT
  6
Continuous
370
    13
100
AcDbCircle
 39
0.25
 10
1102.192234630071
 20
296.191945042322
 30
0.0
 40
1.85
100
AcDbArc
 50
253.8366000000001
 51
286.1633999999999
1001
AUSTER_ANSICHT
1002
{
1000
Det03
1002
}
1001
AUSTER_FOLIE
1002
{
1000
NSB00752A
1002
}
  0
ARC
  5
299D
330
1F
100
AcDbEntity
  8
10000_FRONT
  6
Continuous
370
    13
100
AcDbCircle
 39
0.25
 10
1102.192234630071
 20
296.191945042322
 30
0.0
 40
1.85
100
AcDbArc
 50
73.83654999999746
 51
106.1633999999998
1001
AUSTER_ANSICHT
1002
{
1000
Det03
1002
}
1001
AUSTER_FOLIE
1002
{
1000
NSB00752A
1002
}
  0
ARC
  5
299E
330
1F
100
AcDbEntity
  8
10000_FRONT
  6
Continuous
370
    13
100
AcDbCircle
 39
0.25
 10
1093.592234630072
 20
296.191945042322
 30
0.0
 40
2.850490999999998
100
AcDbArc
 50
347.7604000000003
 51
12.23959999999984
1001
AUSTER_ANSICHT
1002
{
1000
Det03
1002
}
1001
AUSTER_FOLIE
1002
{
1000
NSB00752A
1002
}
  0
ARC
  5
299F
330
1F
100
AcDbEntity
  8
10000_FRONT
  6
Continuous
370
    13
100
AcDbCircle
 39
0.25
 10
1093.592234630072
 20
296.191945042322
 30
0.0
 40
1.85
100
AcDbArc
 50
253.8366000000001
 51
286.1633999999999
1001
AUSTER_ANSICHT
1002
{
1000
Det03
1002
}
1001
AUSTER_FOLIE
1002
{
1000
NSB00752A
1002
}
  0
ARC
  5
29A0
102
{ACAD_REACTORS
330
3548
102
}
330
1F
100
AcDbEntity
  8
10000_FRONT
  6
Continuous
370
    13
100
AcDbCircle
 39
0.25
 10
1093.592234630072
 20
296.191945042322
 30
0.0
 40
1.85
100
AcDbArc
 50
73.83654999999746
 51
106.1633999999998
1001
AUSTER_ANSICHT
1002
{
1000
Det03
1002
}
1001
AUSTER_FOLIE
1002
{
1000
NSB00752A
1002
}
  0
ARC
  5
29A1
330
1F
100
AcDbEntity
  8
10000_FRONT
  6
Continuous
370
    13
100
AcDbCircle
 39
0.25
 10
1093.592234630072
 20
296.191945042322
 30
0.0
 40
2.850490999999998
100
AcDbArc
 50
167.7604000000001
 51
192.2395999999998
1001
AUSTER_ANSICHT
1002
{
1000
Det03
1002
}
1001
AUSTER_FOLIE
1002
{
1000
NSB00752A
1002
}
  0
ARC
  5
29A2
330
1F
100
AcDbEntity
  8
10000_FRONT
  6
Continuous
370
    13
100
AcDbCircle
 39
0.25
 10
1127.992234630072
 20
332.1919850423221
 30
0.0
 40
1.85
100
AcDbArc
 50
253.8366000000001
 51
286.1633999999999
1001
AUSTER_ANSICHT
1002
{
1000
Det03
1002
}
1001
AUSTER_FOLIE
1002
{
1000
NSB00752A
1002
}
  0
ARC
  5
29A3
330
1F
100
AcDbEntity
  8
10000_FRONT
  6
Continuous
370
    13
100
AcDbCircle
 39
0.25
 10
1127.992234630072
 20
332.1919850423221
 30
0.0
 40
2.850490999999998
100
AcDbArc
 50
347.7604000000003
 51
12.23959999999984
1001
AUSTER_ANSICHT
1002
{
1000
Det03
1002
}
1001
AUSTER_FOLIE
1002
{
1000
NSB00752A
1002
}
  0
CIRCLE
  5
29A4
330
1F
100
AcDbEntity
  8
10000_FRONT
  6
Continuous
370
    13
100
AcDbCircle
 39
0.25
 10
1102.192234630071
 20
296.191945042322
 30
0.0
 40
3.1
1001
AUSTER_ANSICHT
1002
{
1000
Det03
1002
}
1001
AUSTER_FOLIE
1002
{
1000
NSB00752A
1002
}
  0
ARC
  5
29A5
330
1F
100
AcDbEntity
  8
10000_FRONT
  6
Continuous
370
    13
100
AcDbCircle
 39
0.25
 10
1102.192234630071
 20
296.191945042322
 30
0.0
 40
2.850490999999998
100
AcDbArc
 50
167.7604000000001
 51
192.2395999999998
1001
AUSTER_ANSICHT
1002
{
1000
Det03
1002
}
1001
AUSTER_FOLIE
1002
{
1000
NSB00752A
1002
}
  0
ARC
  5
29A6
330
1F
100
AcDbEntity
  8
10000_FRONT
  6
Continuous
370
    13
100
AcDbCircle
 39
0.25
 10
1102.192234630071
 20
296.191945042322
 30
0.0
 40
2.850490999999998
100
AcDbArc
 50
347.7604000000003
 51
12.23959999999984
1001
AUSTER_ANSICHT
1002
{
1000
Det03
1002
}
1001
AUSTER_FOLIE
1002
{
1000
NSB00752A
1002
}
  0
CIRCLE
  5
29A7
330
1F
100
AcDbEntity
  8
10000_FRONT
  6
Continuous
370
    13
100
AcDbCircle
 39
0.25
 10
1119.392234630072
 20
332.1919850423221
 30
0.0
 40
3.1
1001
AUSTER_ANSICHT
1002
{
1000
Det03
1002
}
1001
AUSTER_FOLIE
1002
{
1000
NSB00752A
1002
}
  0
CIRCLE
  5
29A8
330
1F
100
AcDbEntity
  8
10000_FRONT
  6
Continuous
370
    13
100
AcDbCircle
 39
0.25
 10
1110.792234630072
 20
332.1919850423221
 30
0.0
 40
3.1
1001
AUSTER_ANSICHT
1002
{
1000
Det03
1002
}
1001
AUSTER_FOLIE
1002
{
1000
NSB00752A
1002
}
  0
CIRCLE
  5
29A9
330
1F
100
AcDbEntity
  8
10000_FRONT
  6
Continuous
370
    13
100
AcDbCircle
 39
0.25
 10
1102.192234630071
 20
332.1919850423221
 30
0.0
 40
3.1
1001
AUSTER_ANSICHT
1002
{
1000
Det03
1002
}
1001
AUSTER_FOLIE
1002
{
1000
NSB00752A
1002
}
  0
CIRCLE
  5
29AA
102
{ACAD_REACTORS
330
3548
102
}
330
1F
100
AcDbEntity
  8
10000_FRONT
  6
Continuous
370
    13
100
AcDbCircle
 39
0.25
 10
1093.592234630072
 20
332.1919850423221
 30
0.0
 40
3.1
1001
AUSTER_ANSICHT
1002
{
1000
Det03
1002
}
1001
AUSTER_FOLIE
1002
{
1000
NSB00752A
1002
}
  0
ARC
  5
29AB
330
1F
100
AcDbEntity
  8
10000_FRONT
  6
Continuous
370
    13
100
AcDbCircle
 39
0.25
 10
1119.392234630072
 20
332.1919850423221
 30
0.0
 40
1.85
100
AcDbArc
 50
253.8366000000001
 51
286.1633999999999
1001
AUSTER_ANSICHT
1002
{
1000
Det03
1002
}
1001
AUSTER_FOLIE
1002
{
1000
NSB00752A
1002
}
  0
ARC
  5
29AC
330
1F
100
AcDbEntity
  8
10000_FRONT
  6
Continuous
370
    13
100
AcDbCircle
 39
0.25
 10
1119.392234630072
 20
332.1919850423221
 30
0.0
 40
2.850490999999998
100
AcDbArc
 50
167.7604000000001
 51
192.2395999999998
1001
AUSTER_ANSICHT
1002
{
1000
Det03
1002
}
1001
AUSTER_FOLIE
1002
{
1000
NSB00752A
1002
}
  0
ARC
  5
29AD
330
1F
100
AcDbEntity
  8
10000_FRONT
  6
Continuous
370
    13
100
AcDbCircle
 39
0.25
 10
1110.792234630072
 20
332.1919850423221
 30
0.0
 40
2.850490999999998
100
AcDbArc
 50
167.7604000000001
 51
192.2395999999998
1001
AUSTER_ANSICHT
1002
{
1000
Det03
1002
}
1001
AUSTER_FOLIE
1002
{
1000
NSB00752A
1002
}
  0
ARC
  5
29AE
330
1F
100
AcDbEntity
  8
10000_FRONT
  6
Continuous
370
    13
100
AcDbCircle
 39
0.25
 10
1102.192234630071
 20
332.1919850423221
 30
0.0
 40
2.850490999999998
100
AcDbArc
 50
167.7604000000001
 51
192.2395999999998
1001
AUSTER_ANSICHT
1002
{
1000
Det03
1002
}
1001
AUSTER_FOLIE
1002
{
1000
NSB00752A
1002
}
  0
ARC
  5
29AF
330
1F
100
AcDbEntity
  8
10000_FRONT
  6
Continuous
370
    13
100
AcDbCircle
 39
0.25
 10
1119.392234630072
 20
332.1919850423221
 30
0.0
 40
1.85
100
AcDbArc
 50
73.83654999999746
 51
106.1633999999998
1001
AUSTER_ANSICHT
1002
{
1000
Det03
1002
}
1001
AUSTER_FOLIE
1002
{
1000
NSB00752A
1002
}
  0
ARC
  5
29B0
330
1F
100
AcDbEntity
  8
10000_FRONT
  6
Continuous
370
    13
100
AcDbCircle
 39
0.25
 10
1110.792234630072
 20
332.1919850423221
 30
0.0
 40
1.85
100
AcDbArc
 50
73.83654999999746
 51
106.1633999999998
1001
AUSTER_ANSICHT
1002
{
1000
Det03
1002
}
1001
AUSTER_FOLIE
1002
{
1000
NSB00752A
1002
}
  0
ARC
  5
29B1
330
1F
100
AcDbEntity
  8
10000_FRONT
  6
Continuous
370
    13
100
AcDbCircle
 39
0.25
 10
1102.192234630071
 20
332.1919850423221
 30
0.0
 40
1.85
100
AcDbArc
 50
73.83654999999746
 51
106.1633999999998
1001
AUSTER_ANSICHT
1002
{
1000
Det03
1002
}
1001
AUSTER_FOLIE
1002
{
1000
NSB00752A
1002
}
  0
ARC
  5
29B2
330
1F
100
AcDbEntity
  8
10000_FRONT
  6
Continuous
370
    13
100
AcDbCircle
 39
0.25
 10
1119.392234630072
 20
332.1919850423221
 30
0.0
 40
2.850490999999998
100
AcDbArc
 50
347.7604000000003
 51
12.23959999999984
1001
AUSTER_ANSICHT
1002
{
1000
Det03
1002
}
1001
AUSTER_FOLIE
1002
{
1000
NSB00752A
1002
}
  0
ARC
  5
29B3
330
1F
100
AcDbEntity
  8
10000_FRONT
  6
Continuous
370
    13
100
AcDbCircle
 39
0.25
 10
1110.792234630072
 20
332.1919850423221
 30
0.0
 40
2.850490999999998
100
AcDbArc
 50
347.7604000000003
 51
12.23959999999984
1001
AUSTER_ANSICHT
1002
{
1000
Det03
1002
}
1001
AUSTER_FOLIE
1002
{
1000
NSB00752A
1002
}
  0
ARC
  5
29B4
330
1F
100
AcDbEntity
  8
10000_FRONT
  6
Continuous
370
    13
100
AcDbCircle
 39
0.25
 10
1102.192234630071
 20
332.1919850423221
 30
0.0
 40
2.850490999999998
100
AcDbArc
 50
347.7604000000003
 51
12.23959999999984
1001
AUSTER_ANSICHT
1002
{
1000
Det03
1002
}
1001
AUSTER_FOLIE
1002
{
1000
NSB00752A
1002
}
  0
ARC
  5
29B5
330
1F
100
AcDbEntity
  8
10000_FRONT
  6
Continuous
370
    13
100
AcDbCircle
 39
0.25
 10
1110.792234630072
 20
332.1919850423221
 30
0.0
 40
1.85
100
AcDbArc
 50
253.8366000000001
 51
286.1633999999999
1001
AUSTER_ANSICHT
1002
{
1000
Det03
1002
}
1001
AUSTER_FOLIE
1002
{
1000
NSB00752A
1002
}
  0
ARC
  5
29B6
330
1F
100
AcDbEntity
  8
10000_FRONT
  6
Continuous
370
    13
100
AcDbCircle
 39
0.25
 10
1102.192234630071
 20
332.1919850423221
 30
0.0
 40
1.85
100
AcDbArc
 50
253.8366000000001
 51
286.1633999999999
1001
AUSTER_ANSICHT
1002
{
1000
Det03
1002
}
1001
AUSTER_FOLIE
1002
{
1000
NSB00752A
1002
}
  0
ARC
  5
29B7
330
1F
100
AcDbEntity
  8
10000_FRONT
  6
Continuous
370
    13
100
AcDbCircle
 39
0.25
 10
1093.592234630072
 20
332.1919850423221
 30
0.0
 40
1.85
100
AcDbArc
 50
73.83654999999746
 51
106.1633999999998
1001
AUSTER_ANSICHT
1002
{
1000
Det03
1002
}
1001
AUSTER_FOLIE
1002
{
1000
NSB00752A
1002
}
  0
ARC
  5
29B8
330
1F
100
AcDbEntity
  8
10000_FRONT
  6
Continuous
370
    13
100
AcDbCircle
 39
0.25
 10
1093.592234630072
 20
332.1919850423221
 30
0.0
 40
2.850490999999998
100
AcDbArc
 50
347.7604000000003
 51
12.23959999999984
1001
AUSTER_ANSICHT
1002
{
1000
Det03
1002
}
1001
AUSTER_FOLIE
1002
{
1000
NSB00752A
1002
}
  0
ARC
  5
29B9
330
1F
100
AcDbEntity
  8
10000_FRONT
  6
Continuous
370
    13
100
AcDbCircle
 39
0.25
 10
1093.592234630072
 20
332.1919850423221
 30
0.0
 40
1.85
100
AcDbArc
 50
253.8366000000001
 51
286.1633999999999
1001
AUSTER_ANSICHT
1002
{
1000
Det03
1002
}
1001
AUSTER_FOLIE
1002
{
1000
NSB00752A
1002
}
  0
ARC
  5
29BA
330
1F
100
AcDbEntity
  8
10000_FRONT
  6
Continuous
370
    13
100
AcDbCircle
 39
0.25
 10
1093.592234630072
 20
332.1919850423221
 30
0.0
 40
2.850490999999998
100
AcDbArc
 50
167.7604000000001
 51
192.2395999999998
1001
AUSTER_ANSICHT
1002
{
1000
Det03
1002
}
1001
AUSTER_FOLIE
1002
{
1000
NSB00752A
1002
}
  0
ARC
  5
29BB
330
1F
100
AcDbEntity
  8
11000_Left
  6
Continuous
370
    50
100
AcDbCircle
 39
0.5
 10
1228.381450655979
 20
340.921985042322
 30
0.0
 40
0.8
100
AcDbArc
 50
5.268494999999306
 51
90.0
1001
AUSTER_ANSICHT
1002
{
1000
Det03
1002
}
1001
AUSTER_FOLIE
1002
{
1000
NSB00752A
1002
}
  0
ARC
  5
29BC
330
1F
100
AcDbEntity
  8
11000_Left
  6
Continuous
370
    50
100
AcDbCircle
 39
0.5
 10
1228.381450655979
 20
287.521945042322
 30
0.0
 40
0.8
100
AcDbArc
 50
270.0
 51
354.7314999999993
1001
AUSTER_ANSICHT
1002
{
1000
Det03
1002
}
1001
AUSTER_FOLIE
1002
{
1000
NSB00752A
1002
}
  0
ARC
  5
29BD
330
1F
100
AcDbEntity
  8
11000_Left
  6
Continuous
370
    50
100
AcDbCircle
 39
0.5
 10
1228.381450655979
 20
340.921985042322
 30
0.0
 40
0.8
100
AcDbArc
 50
5.268494999999306
 51
90.0
1001
AUSTER_ANSICHT
1002
{
1000
Det03
1002
}
1001
AUSTER_FOLIE
1002
{
1000
NSB00752A
1002
}
  0
ARC
  5
29BE
330
1F
100
AcDbEntity
  8
11000_Left
  6
Continuous
370
    50
100
AcDbCircle
 39
0.5
 10
1228.381450655979
 20
287.521945042322
 30
0.0
 40
0.8
100
AcDbArc
 50
270.0
 51
354.7314999999993
1001
AUSTER_ANSICHT
1002
{
1000
Det03
1002
}
1001
AUSTER_FOLIE
1002
{
1000
NSB00752A
1002
}
  0
ARC
  5
29BF
330
1F
100
AcDbEntity
  8
11000_Left
  6
ACAD_ISO02W100
370
    13
100
AcDbCircle
 39
0.25
 10
1155.811650655979
 20
302.822245042322
 30
0.0
 40
1.0
100
AcDbArc
 50
180.0
 51
270.0
1001
AUSTER_ANSICHT
1002
{
1000
Det03
1002
}
1001
AUSTER_FOLIE
1002
{
1000
NSB00752A
1002
}
  0
ARC
  5
29C0
330
1F
100
AcDbEntity
  8
11000_Left
  6
ACAD_ISO02W100
370
    13
100
AcDbCircle
 39
0.25
 10
1155.811650655979
 20
325.8222950423221
 30
0.0
 40
1.0
100
AcDbArc
 50
90.0
 51
180.0
1001
AUSTER_ANSICHT
1002
{
1000
Det03
1002
}
1001
AUSTER_FOLIE
1002
{
1000
NSB00752A
1002
}
  0
LINE
  5
29C1
330
1F
100
AcDbEntity
  8
11000_Left
  6
Continuous
370
    50
100
AcDbLine
 39
0.25
 10
1229.811750655979
 20
300.971945042322
 30
0.0
 11
1229.811750655979
 21
327.4719850423222
 31
0.0
1001
AUSTER_ANSICHT
1002
{
1000
Det03
1002
}
1001
AUSTER_FOLIE
1002
{
1000
NSB00752A
1002
}
  0
LINE
  5
29C2
330
1F
100
AcDbEntity
  8
10000_FRONT
  6
Continuous
370
    13
100
AcDbLine
 39
0.25
 10
1089.092314630072
 20
286.6919450423221
 30
0.0
 11
1132.492314630071
 21
286.6919450423221
 31
0.0
1001
AUSTER_ANSICHT
1002
{
1000
Det03
1002
}
1001
AUSTER_FOLIE
1002
{
1000
NSB00752A
1002
}
  0
LINE
  5
29C3
330
1F
100
AcDbEntity
  8
11000_Left
370
    13
100
AcDbLine
 39
0.5
 10
1162.311650655979
 20
296.6722450423221
 30
-1.0
 11
1162.311650655979
 21
301.822245042322
 31
-1.0
1001
AUSTER_ANSICHT
1002
{
1000
Det03
1002
}
1001
AUSTER_FOLIE
1002
{
1000
NSB00752A
1002
}
  0
LINE
  5
29C4
330
1F
100
AcDbEntity
  8
11000_Left
370
    13
100
AcDbLine
 39
0.5
 10
1162.311650655979
 20
331.972295042322
 30
-1.0
 11
1162.311650655979
 21
326.8222950423222
 31
-1.0
1001
AUSTER_ANSICHT
1002
{
1000
Det03
1002
}
1001
AUSTER_FOLIE
1002
{
1000
NSB00752A
1002
}
  0
LINE
  5
29C5
330
1F
100
AcDbEntity
  8
11000_Left
  6
Continuous
370
    13
100
AcDbLine
 39
0.5
 10
1161.311650655979
 20
296.6722450423221
 30
-1.0
 11
1162.311650655979
 21
296.6722450423221
 31
-1.0
1001
AUSTER_ANSICHT
1002
{
1000
Det03
1002
}
1001
AUSTER_FOLIE
1002
{
1000
NSB00752A
1002
}
  0
LINE
  5
29C6
330
1F
100
AcDbEntity
  8
11000_Left
  6
Continuous
370
    50
100
AcDbLine
 39
0.5
 10
1162.311750655979
 20
296.6731450423221
 30
0.0
 11
1162.311750655979
 21
294.6719450423221
 31
0.0
1001
AUSTER_ANSICHT
1002
{
1000
Det03
1002
}
1001
AUSTER_FOLIE
1002
{
1000
NSB00752A
1002
}
  0
LINE
  5
29C7
330
1F
100
AcDbEntity
  8
11000_Left
  6
Continuous
370
    50
100
AcDbLine
 39
0.5
 10
1157.311750655979
 20
294.6719450423221
 30
0.0
 11
1162.311750655979
 21
294.6719450423221
 31
0.0
1001
AUSTER_ANSICHT
1002
{
1000
Det03
1002
}
1001
AUSTER_FOLIE
1002
{
1000
NSB00752A
1002
}
  0
LINE
  5
29C8
330
1F
100
AcDbEntity
  8
11000_Left
  6
Continuous
370
    50
100
AcDbLine
 39
0.5
 10
1157.311750655979
 20
335.171985042322
 30
0.0
 11
1162.311750655979
 21
335.171985042322
 31
0.0
1001
AUSTER_ANSICHT
1002
{
1000
Det03
1002
}
1001
AUSTER_FOLIE
1002
{
1000
NSB00752A
1002
}
  0
LINE
  5
29C9
330
1F
100
AcDbEntity
  8
11000_Left
  6
Continuous
370
    50
100
AcDbLine
 39
0.5
 10
1164.911750655979
 20
338.171985042322
 30
0.0
 11
1187.411750655979
 21
338.171985042322
 31
0.0
1001
AUSTER_ANSICHT
1002
{
1000
Det03
1002
}
1001
AUSTER_FOLIE
1002
{
1000
NSB00752A
1002
}
  0
LINE
  5
29CA
330
1F
100
AcDbEntity
  8
11000_Left
  6
Continuous
370
    50
100
AcDbLine
 39
0.5
 10
1162.311750655979
 20
335.171985042322
 30
0.0
 11
1162.311750655979
 21
296.6731450423221
 31
0.0
1001
AUSTER_ANSICHT
1002
{
1000
Det03
1002
}
1001
AUSTER_FOLIE
1002
{
1000
NSB00752A
1002
}
  0
LINE
  5
29CB
330
1F
100
AcDbEntity
  8
11000_Left
  6
Continuous
370
    13
100
AcDbLine
 39
0.25
 10
1193.511750655979
 20
336.4219850423221
 30
0.0
 11
1194.550950655979
 21
337.0219850423221
 31
0.0
1001
AUSTER_ANSICHT
1002
{
1000
Det03
1002
}
1001
AUSTER_FOLIE
1002
{
1000
NSB00752A
1002
}
  0
LINE
  5
29CC
330
1F
100
AcDbEntity
  8
11000_Left
  6
Continuous
370
    13
100
AcDbLine
 39
0.25
 10
1193.511750655979
 20
291.9219450423221
 30
0.0
 11
1193.511750655979
 21
294.9219450423221
 31
0.0
1001
AUSTER_ANSICHT
1002
{
1000
Det03
1002
}
1001
AUSTER_FOLIE
1002
{
1000
NSB00752A
1002
}
  0
LINE
  5
29CD
330
1F
100
AcDbEntity
  8
11000_Left
  6
Continuous
370
    13
100
AcDbLine
 39
0.25
 10
1193.511750655979
 20
333.421985042322
 30
0.0
 11
1193.511750655979
 21
336.4219850423221
 31
0.0
1001
AUSTER_ANSICHT
1002
{
1000
Det03
1002
}
1001
AUSTER_FOLIE
1002
{
1000
NSB00752A
1002
}
  0
LINE
  5
29CE
330
1F
100
AcDbEntity
  8
11000_Left
  6
Continuous
370
    13
100
AcDbLine
 39
0.25
 10
1194.550950655979
 20
291.3219450423221
 30
0.0
 11
1193.511750655979
 21
291.9219450423221
 31
0.0
1001
AUSTER_ANSICHT
1002
{
1000
Det03
1002
}
1001
AUSTER_FOLIE
1002
{
1000
NSB00752A
1002
}
  0
LINE
  5
29CF
330
1F
100
AcDbEntity
  8
11000_Left
  6
Continuous
370
    13
100
AcDbLine
 39
0.25
 10
1193.511750655979
 20
294.9219450423221
 30
0.0
 11
1193.511750655979
 21
299.9219450423221
 31
0.0
1001
AUSTER_ANSICHT
1002
{
1000
Det03
1002
}
1001
AUSTER_FOLIE
1002
{
1000
NSB00752A
1002
}
  0
LINE
  5
29D0
330
1F
100
AcDbEntity
  8
11000_Left
  6
Continuous
370
    13
100
AcDbLine
 39
0.25
 10
1193.511750655979
 20
328.421985042322
 30
0.0
 11
1193.511750655979
 21
333.421985042322
 31
0.0
1001
AUSTER_ANSICHT
1002
{
1000
Det03
1002
}
1001
AUSTER_FOLIE
1002
{
1000
NSB00752A
1002
}
  0
LINE
  5
29D1
330
1F
100
AcDbEntity
  8
11000_Left
  6
Continuous
370
    50
100
AcDbLine
 39
0.5
 10
1187.411750655979
 20
290.1719450423221
 30
0.0
 11
1164.911750655979
 21
290.1719450423221
 31
0.0
1001
AUSTER_ANSICHT
1002
{
1000
Det03
1002
}
1001
AUSTER_FOLIE
1002
{
1000
NSB00752A
1002
}
  0
LINE
  5
29D2
330
1F
100
AcDbEntity
  8
11000_Left
  6
Continuous
370
    13
100
AcDbLine
 39
0.5
 10
1160.911750655979
 20
335.171985042322
 30
0.0
 11
1160.911750655979
 21
331.171985042322
 31
0.0
1001
AUSTER_ANSICHT
1002
{
1000
Det03
1002
}
1001
AUSTER_FOLIE
1002
{
1000
NSB00752A
1002
}
  0
LINE
  5
29D3
330
1F
100
AcDbEntity
  8
11000_Left
  6
Continuous
370
    13
100
AcDbLine
 39
0.5
 10
1160.411750655979
 20
330.1719850423221
 30
0.0
 11
1160.911750655979
 21
331.171985042322
 31
0.0
1001
AUSTER_ANSICHT
1002
{
1000
Det03
1002
}
1001
AUSTER_FOLIE
1002
{
1000
NSB00752A
1002
}
  0
LINE
  5
29D4
330
1F
100
AcDbEntity
  8
11000_Left
  6
Continuous
370
    13
100
AcDbLine
 39
0.5
 10
1159.711750655979
 20
330.1719850423221
 30
0.0
 11
1160.411750655979
 21
330.1719850423221
 31
0.0
1001
AUSTER_ANSICHT
1002
{
1000
Det03
1002
}
1001
AUSTER_FOLIE
1002
{
1000
NSB00752A
1002
}
  0
LINE
  5
29D5
330
1F
100
AcDbEntity
  8
11000_Left
  6
Continuous
370
    13
100
AcDbLine
 39
0.5
 10
1158.411750655979
 20
335.171985042322
 30
0.0
 11
1159.711750655979
 21
330.1719850423221
 31
0.0
1001
AUSTER_ANSICHT
1002
{
1000
Det03
1002
}
1001
AUSTER_FOLIE
1002
{
1000
NSB00752A
1002
}
  0
LINE
  5
29D6
330
1F
100
AcDbEntity
  8
11000_Left
  6
Continuous
370
    13
100
AcDbLine
 39
0.5
 10
1160.593750655979
 20
297.6719450423221
 30
0.0
 11
1157.411750655979
 21
294.6719450423221
 31
0.0
1001
AUSTER_ANSICHT
1002
{
1000
Det03
1002
}
1001
AUSTER_FOLIE
1002
{
1000
NSB00752A
1002
}
  0
LINE
  5
29D7
330
1F
100
AcDbEntity
  8
11000_Left
  6
Continuous
370
    13
100
AcDbLine
 39
0.5
 10
1161.093750655979
 20
297.6719450423221
 30
0.0
 11
1160.593750655979
 21
297.6719450423221
 31
0.0
1001
AUSTER_ANSICHT
1002
{
1000
Det03
1002
}
1001
AUSTER_FOLIE
1002
{
1000
NSB00752A
1002
}
  0
LINE
  5
29D8
330
1F
100
AcDbEntity
  8
11000_Left
  6
Continuous
370
    13
100
AcDbLine
 39
0.5
 10
1161.361750655979
 20
296.6719450423221
 30
0.0
 11
1161.093750655979
 21
297.6719450423221
 31
0.0
1001
AUSTER_ANSICHT
1002
{
1000
Det03
1002
}
1001
AUSTER_FOLIE
1002
{
1000
NSB00752A
1002
}
  0
LINE
  5
29D9
330
1F
100
AcDbEntity
  8
11000_Left
  6
Continuous
370
    50
100
AcDbLine
 39
0.5
 10
1164.911750655979
 20
338.171985042322
 30
0.0
 11
1187.411750655979
 21
338.171985042322
 31
0.0
1001
AUSTER_ANSICHT
1002
{
1000
Det03
1002
}
1001
AUSTER_FOLIE
1002
{
1000
NSB00752A
1002
}
  0
LINE
  5
29DA
330
1F
100
AcDbEntity
  8
11000_Left
  6
Continuous
370
    50
100
AcDbLine
 39
0.5
 10
1157.311750655979
 20
294.6719450423221
 30
0.0
 11
1162.311750655979
 21
294.6719450423221
 31
0.0
1001
AUSTER_ANSICHT
1002
{
1000
Det03
1002
}
1001
AUSTER_FOLIE
1002
{
1000
NSB00752A
1002
}
  0
LINE
  5
29DB
330
1F
100
AcDbEntity
  8
11000_Left
  6
Continuous
370
    50
100
AcDbLine
 39
0.5
 10
1157.311750655979
 20
335.171985042322
 30
0.0
 11
1162.311750655979
 21
335.171985042322
 31
0.0
1001
AUSTER_ANSICHT
1002
{
1000
Det03
1002
}
1001
AUSTER_FOLIE
1002
{
1000
NSB00752A
1002
}
  0
LINE
  5
29DC
330
1F
100
AcDbEntity
  8
11000_Left
  6
Continuous
370
    50
100
AcDbLine
 39
0.5
 10
1162.311750655979
 20
335.171985042322
 30
0.0
 11
1162.311750655979
 21
296.6731450423221
 31
0.0
1001
AUSTER_ANSICHT
1002
{
1000
Det03
1002
}
1001
AUSTER_FOLIE
1002
{
1000
NSB00752A
1002
}
  0
LINE
  5
29DD
330
1F
100
AcDbEntity
  8
11000_Left
  6
Continuous
370
    50
100
AcDbLine
 39
0.5
 10
1162.311750655979
 20
296.6731450423221
 30
0.0
 11
1162.311750655979
 21
294.6719450423221
 31
0.0
1001
AUSTER_ANSICHT
1002
{
1000
Det03
1002
}
1001
AUSTER_FOLIE
1002
{
1000
NSB00752A
1002
}
  0
LINE
  5
29DE
330
1F
100
AcDbEntity
  8
11000_Left
  6
Continuous
370
    13
100
AcDbLine
 39
0.25
 10
1161.361750655979
 20
296.6719450423221
 30
0.0
 11
1162.311750655979
 21
296.6731450423221
 31
0.0
1001
AUSTER_ANSICHT
1002
{
1000
Det03
1002
}
1001
AUSTER_FOLIE
1002
{
1000
NSB00752A
1002
}
  0
LINE
  5
29DF
330
1F
100
AcDbEntity
  8
11000_Left
  6
Continuous
370
    50
100
AcDbLine
 39
0.25
 10
1215.911350655979
 20
286.7220450423221
 30
0.0
 11
1219.211350655979
 21
286.7220450423221
 31
0.0
1001
AUSTER_ANSICHT
1002
{
1000
Det03
1002
}
1001
AUSTER_FOLIE
1002
{
1000
NSB00752A
1002
}
  0
LINE
  5
29E0
330
1F
100
AcDbEntity
  8
11000_Left
  6
ACAD_ISO02W100
370
    13
100
AcDbLine
 39
0.25
 10
1161.311650655979
 20
299.1722450423221
 30
-1.0
 11
1161.311650655979
 21
296.6722450423221
 31
-1.0
1001
AUSTER_ANSICHT
1002
{
1000
Det03
1002
}
1001
AUSTER_FOLIE
1002
{
1000
NSB00752A
1002
}
  0
LINE
  5
29E1
330
1F
100
AcDbEntity
  8
11000_Left
  6
ACAD_ISO02W100
370
    13
100
AcDbLine
 39
0.25
 10
1161.311650655979
 20
331.972295042322
 30
-1.0
 11
1162.311650655979
 21
331.972295042322
 31
-1.0
1001
AUSTER_ANSICHT
1002
{
1000
Det03
1002
}
1001
AUSTER_FOLIE
1002
{
1000
NSB00752A
1002
}
  0
LINE
  5
29E2
330
1F
100
AcDbEntity
  8
11000_Left
  6
ACAD_ISO02W100
370
    13
100
AcDbLine
 39
0.25
 10
1161.311650655979
 20
329.4722950423221
 30
-1.0
 11
1161.311650655979
 21
331.972295042322
 31
-1.0
1001
AUSTER_ANSICHT
1002
{
1000
Det03
1002
}
1001
AUSTER_FOLIE
1002
{
1000
NSB00752A
1002
}
  0
LINE
  5
29E3
330
1F
100
AcDbEntity
  8
11000_Left
  6
ACAD_ISO02W100
370
    13
100
AcDbLine
 39
0.25
 10
1157.311650655979
 20
323.8222950423221
 30
-1.0
 11
1157.311650655979
 21
314.3222950423222
 31
-1.0
1001
AUSTER_ANSICHT
1002
{
1000
Det03
1002
}
1001
AUSTER_FOLIE
1002
{
1000
NSB00752A
1002
}
  0
LINE
  5
29E4
330
1F
100
AcDbEntity
  8
11000_Left
  6
ACAD_ISO02W100
370
    13
100
AcDbLine
 39
0.25
 10
1157.311650655979
 20
304.822245042322
 30
-1.0
 11
1157.311650655979
 21
314.3222950423222
 31
-1.0
1001
AUSTER_ANSICHT
1002
{
1000
Det03
1002
}
1001
AUSTER_FOLIE
1002
{
1000
NSB00752A
1002
}
  0
LINE
  5
29E5
330
1F
100
AcDbEntity
  8
11000_Left
  6
ACAD_ISO02W100
370
    13
100
AcDbLine
 39
0.25
 10
1160.311650655979
 20
328.7222950423221
 30
-1.0
 11
1160.311650655979
 21
328.9722950423221
 31
-1.0
1001
AUSTER_ANSICHT
1002
{
1000
Det03
1002
}
1001
AUSTER_FOLIE
1002
{
1000
NSB00752A
1002
}
  0
LINE
  5
29E6
330
1F
100
AcDbEntity
  8
11000_Left
  6
ACAD_ISO02W100
370
    13
100
AcDbLine
 39
0.25
 10
1160.811650655979
 20
328.9722950423221
 30
-1.0
 11
1160.311650655979
 21
328.9722950423221
 31
-1.0
1001
AUSTER_ANSICHT
1002
{
1000
Det03
1002
}
1001
AUSTER_FOLIE
1002
{
1000
NSB00752A
1002
}
  0
LINE
  5
29E7
330
1F
100
AcDbEntity
  8
11000_Left
  6
ACAD_ISO02W100
370
    13
100
AcDbLine
 39
0.25
 10
1162.311650655979
 20
326.8222950423222
 30
-1.0
 11
1160.311650655979
 21
324.8222950423222
 31
-1.0
1001
AUSTER_ANSICHT
1002
{
1000
Det03
1002
}
1001
AUSTER_FOLIE
1002
{
1000
NSB00752A
1002
}
  0
LINE
  5
29E8
330
1F
100
AcDbEntity
  8
11000_Left
  6
ACAD_ISO02W100
370
    13
100
AcDbLine
 39
0.25
 10
1160.311650655979
 20
299.922245042322
 30
-1.0
 11
1160.311650655979
 21
299.672245042322
 31
-1.0
1001
AUSTER_ANSICHT
1002
{
1000
Det03
1002
}
1001
AUSTER_FOLIE
1002
{
1000
NSB00752A
1002
}
  0
LINE
  5
29E9
330
1F
100
AcDbEntity
  8
11000_Left
  6
ACAD_ISO02W100
370
    13
100
AcDbLine
 39
0.25
 10
1160.811650655979
 20
299.672245042322
 30
-1.0
 11
1160.311650655979
 21
299.672245042322
 31
-1.0
1001
AUSTER_ANSICHT
1002
{
1000
Det03
1002
}
1001
AUSTER_FOLIE
1002
{
1000
NSB00752A
1002
}
  0
LINE
  5
29EA
330
1F
100
AcDbEntity
  8
11000_Left
  6
ACAD_ISO02W100
370
    13
100
AcDbLine
 39
0.25
 10
1162.311650655979
 20
301.822245042322
 30
-1.0
 11
1160.311650655979
 21
303.822245042322
 31
-1.0
1001
AUSTER_ANSICHT
1002
{
1000
Det03
1002
}
1001
AUSTER_FOLIE
1002
{
1000
NSB00752A
1002
}
  0
LINE
  5
29EB
330
1F
100
AcDbEntity
  8
11000_Left
  6
ACAD_ISO02W100
370
    13
100
AcDbLine
 39
0.25
 10
1158.311650655979
 20
324.8222950423222
 30
-1.0
 11
1160.311650655979
 21
324.8222950423222
 31
-1.0
1001
AUSTER_ANSICHT
1002
{
1000
Det03
1002
}
1001
AUSTER_FOLIE
1002
{
1000
NSB00752A
1002
}
  0
LINE
  5
29EC
330
1F
100
AcDbEntity
  8
11000_Left
  6
ACAD_ISO02W100
370
    13
100
AcDbLine
 39
0.25
 10
1158.311650655979
 20
303.822245042322
 30
-1.0
 11
1160.311650655979
 21
303.822245042322
 31
-1.0
1001
AUSTER_ANSICHT
1002
{
1000
Det03
1002
}
1001
AUSTER_FOLIE
1002
{
1000
NSB00752A
1002
}
  0
LINE
  5
29ED
330
1F
100
AcDbEntity
  8
11000_Left
  6
ACAD_ISO02W100
370
    13
100
AcDbLine
 39
0.25
 10
1158.411650655979
 20
301.822245042322
 30
0.0
 11
1155.811650655979
 21
301.822245042322
 31
0.0
1001
AUSTER_ANSICHT
1002
{
1000
Det03
1002
}
1001
AUSTER_FOLIE
1002
{
1000
NSB00752A
1002
}
  0
LINE
  5
29EE
330
1F
100
AcDbEntity
  8
11000_Left
  6
ACAD_ISO02W100
370
    13
100
AcDbLine
 39
0.25
 10
1154.811650655979
 20
325.8222950423221
 30
0.0
 11
1154.811650655979
 21
302.822245042322
 31
0.0
1001
AUSTER_ANSICHT
1002
{
1000
Det03
1002
}
1001
AUSTER_FOLIE
1002
{
1000
NSB00752A
1002
}
  0
LINE
  5
29EF
330
1F
100
AcDbEntity
  8
11000_Left
  6
ACAD_ISO02W100
370
    13
100
AcDbLine
 39
0.25
 10
1158.411650655979
 20
326.8222950423222
 30
0.0
 11
1155.811650655979
 21
326.8222950423222
 31
0.0
1001
AUSTER_ANSICHT
1002
{
1000
Det03
1002
}
1001
AUSTER_FOLIE
1002
{
1000
NSB00752A
1002
}
  0
LINE
  5
29F0
330
1F
100
AcDbEntity
  8
30000_Drilling
  6
Continuous
370
    50
100
AcDbLine
 39
0.25
 10
1247.39845984264
 20
291.721945042322
 30
0.0
 11
1249.898459842641
 21
291.721945042322
 31
0.0
1001
AUSTER_ANSICHT
1002
{
1000
Det03
1002
}
1001
AUSTER_FOLIE
1002
{
1000
NSB00752A
1002
}
  0
LINE
  5
29F1
330
1F
100
AcDbEntity
  8
30000_Drilling
  6
Continuous
370
    50
100
AcDbLine
 39
0.25
 10
1247.39845984264
 20
286.7519450423221
 30
0.0
 11
1247.39845984264
 21
291.721945042322
 31
0.0
1001
AUSTER_ANSICHT
1002
{
1000
Det03
1002
}
1001
AUSTER_FOLIE
1002
{
1000
NSB00752A
1002
}
  0
LINE
  5
29F2
330
1F
100
AcDbEntity
  8
30000_Drilling
  6
Continuous
370
    50
100
AcDbLine
 39
0.25
 10
1247.39845984264
 20
286.7519450423221
 30
0.0
 11
1249.898459842641
 21
286.721945042322
 31
0.0
1001
AUSTER_ANSICHT
1002
{
1000
Det03
1002
}
1001
AUSTER_FOLIE
1002
{
1000
NSB00752A
1002
}
  0
LINE
  5
29F3
330
1F
100
AcDbEntity
  8
30000_Drilling
  6
Continuous
370
    50
100
AcDbLine
 39
0.25
 10
1287.39845984264
 20
291.721945042322
 30
0.0
 11
1284.89845984264
 21
291.721945042322
 31
0.0
1001
AUSTER_ANSICHT
1002
{
1000
Det03
1002
}
1001
AUSTER_FOLIE
1002
{
1000
NSB00752A
1002
}
  0
LINE
  5
29F4
330
1F
100
AcDbEntity
  8
30000_Drilling
  6
Continuous
370
    50
100
AcDbLine
 39
0.25
 10
1287.39845984264
 20
286.7519450423221
 30
0.0
 11
1287.39845984264
 21
291.721945042322
 31
0.0
1001
AUSTER_ANSICHT
1002
{
1000
Det03
1002
}
1001
AUSTER_FOLIE
1002
{
1000
NSB00752A
1002
}
  0
LINE
  5
29F5
330
1F
100
AcDbEntity
  8
30000_Drilling
  6
Continuous
370
    50
100
AcDbLine
 39
0.25
 10
1287.39845984264
 20
286.7519450423221
 30
0.0
 11
1284.89845984264
 21
286.721945042322
 31
0.0
1001
AUSTER_ANSICHT
1002
{
1000
Det03
1002
}
1001
AUSTER_FOLIE
1002
{
1000
NSB00752A
1002
}
  0
LINE
  5
29F6
330
1F
100
AcDbEntity
  8
30000_Drilling
  6
Continuous
370
    50
100
AcDbLine
 39
0.25
 10
1287.39845984264
 20
336.7219850423221
 30
0.0
 11
1284.89845984264
 21
336.7219850423221
 31
0.0
1001
AUSTER_ANSICHT
1002
{
1000
Det03
1002
}
1001
AUSTER_FOLIE
1002
{
1000
NSB00752A
1002
}
  0
LINE
  5
29F7
330
1F
100
AcDbEntity
  8
30000_Drilling
  6
Continuous
370
    50
100
AcDbLine
 39
0.25
 10
1287.39845984264
 20
341.6919850423221
 30
0.0
 11
1287.39845984264
 21
336.7219850423221
 31
0.0
1001
AUSTER_ANSICHT
1002
{
1000
Det03
1002
}
1001
AUSTER_FOLIE
1002
{
1000
NSB00752A
1002
}
  0
LINE
  5
29F8
330
1F
100
AcDbEntity
  8
30000_Drilling
  6
Continuous
370
    50
100
AcDbLine
 39
0.25
 10
1287.39845984264
 20
341.6919850423221
 30
0.0
 11
1284.89845984264
 21
341.7219850423222
 31
0.0
1001
AUSTER_ANSICHT
1002
{
1000
Det03
1002
}
1001
AUSTER_FOLIE
1002
{
1000
NSB00752A
1002
}
  0
LINE
  5
29F9
330
1F
100
AcDbEntity
  8
30000_Drilling
  6
Continuous
370
    50
100
AcDbLine
 39
0.25
 10
1247.39845984264
 20
336.7219850423221
 30
0.0
 11
1249.898459842641
 21
336.7219850423221
 31
0.0
1001
AUSTER_ANSICHT
1002
{
1000
Det03
1002
}
1001
AUSTER_FOLIE
1002
{
1000
NSB00752A
1002
}
  0
LINE
  5
29FA
330
1F
100
AcDbEntity
  8
30000_Drilling
  6
Continuous
370
    50
100
AcDbLine
 39
0.25
 10
1247.39845984264
 20
341.6919850423221
 30
0.0
 11
1247.39845984264
 21
336.7219850423221
 31
0.0
1001
AUSTER_ANSICHT
1002
{
1000
Det03
1002
}
1001
AUSTER_FOLIE
1002
{
1000
NSB00752A
1002
}
  0
LINE
  5
29FB
330
1F
100
AcDbEntity
  8
30000_Drilling
  6
Continuous
370
    50
100
AcDbLine
 39
0.25
 10
1247.39845984264
 20
341.6919850423221
 30
0.0
 11
1249.898459842641
 21
341.7219850423222
 31
0.0
1001
AUSTER_ANSICHT
1002
{
1000
Det03
1002
}
1001
AUSTER_FOLIE
1002
{
1000
NSB00752A
1002
}
  0
LINE
  5
29FC
330
1F
100
AcDbEntity
  8
10000_FRONT
  6
Continuous
370
    50
100
AcDbLine
 39
0.5
 10
1088.292314630072
 20
285.441945042322
 30
0.0
 11
1133.292314630072
 21
285.441945042322
 31
0.0
1001
AUSTER_ANSICHT
1002
{
1000
Det03
1002
}
1001
AUSTER_FOLIE
1002
{
1000
NSB00752A
1002
}
  0
LINE
  5
29FD
330
1F
100
AcDbEntity
  8
10000_FRONT
  6
Continuous
370
    50
100
AcDbLine
 39
0.25
 10
1133.292314630072
 20
285.441945042322
 30
0.0
 11
1133.292314630072
 21
342.9419850423221
 31
0.0
1001
AUSTER_ANSICHT
1002
{
1000
Det03
1002
}
1001
AUSTER_FOLIE
1002
{
1000
NSB00752A
1002
}
  0
LINE
  5
29FE
330
1F
100
AcDbEntity
  8
10000_FRONT
  6
Continuous
370
    50
100
AcDbLine
 39
0.25
 10
1088.292314630072
 20
342.9419850423221
 30
0.0
 11
1088.292314630072
 21
285.441945042322
 31
0.0
1001
AUSTER_ANSICHT
1002
{
1000
Det03
1002
}
1001
AUSTER_FOLIE
1002
{
1000
NSB00752A
1002
}
  0
LINE
  5
29FF
330
1F
100
AcDbEntity
  8
10000_FRONT
  6
Continuous
370
    13
100
AcDbLine
 39
0.5
 10
1133.292314630072
 20
286.6919450423221
 30
0.0
 11
1088.292314630072
 21
286.6919450423221
 31
0.0
1001
AUSTER_ANSICHT
1002
{
1000
Det03
1002
}
1001
AUSTER_FOLIE
1002
{
1000
NSB00752A
1002
}
  0
LINE
  5
2A00
330
1F
100
AcDbEntity
  8
10000_FRONT
  6
Continuous
370
    13
100
AcDbLine
 39
0.25
 10
1088.292314630072
 20
341.6919850423221
 30
0.0
 11
1133.292314630072
 21
341.6919850423221
 31
0.0
1001
AUSTER_ANSICHT
1002
{
1000
Det03
1002
}
1001
AUSTER_FOLIE
1002
{
1000
NSB00752A
1002
}
  0
LINE
  5
2A01
330
1F
100
AcDbEntity
  8
10000_FRONT
  6
Continuous
370
    50
100
AcDbLine
 39
0.5
 10
1133.292314630072
 20
342.9419850423221
 30
0.0
 11
1133.292314630072
 21
285.441945042322
 31
0.0
1001
AUSTER_ANSICHT
1002
{
1000
Det03
1002
}
1001
AUSTER_FOLIE
1002
{
1000
NSB00752A
1002
}
  0
LINE
  5
2A02
330
1F
100
AcDbEntity
  8
10000_FRONT
  6
Continuous
370
    50
100
AcDbLine
 39
0.5
 10
1088.292314630072
 20
342.9419850423221
 30
0.0
 11
1133.292314630072
 21
342.9419850423221
 31
0.0
1001
AUSTER_ANSICHT
1002
{
1000
Det03
1002
}
1001
AUSTER_FOLIE
1002
{
1000
NSB00752A
1002
}
  0
LINE
  5
2A03
330
1F
100
AcDbEntity
  8
10000_FRONT
  6
Continuous
370
    50
100
AcDbLine
 39
0.5
 10
1088.292314630072
 20
285.441945042322
 30
0.0
 11
1088.292314630072
 21
342.9419850423221
 31
0.0
1001
AUSTER_ANSICHT
1002
{
1000
Det03
1002
}
1001
AUSTER_FOLIE
1002
{
1000
NSB00752A
1002
}
  0
LINE
  5
2A04
330
1F
100
AcDbEntity
  8
10000_FRONT
  6
Continuous
370
    13
100
AcDbLine
 39
0.25
 10
1097.565734630072
 20
309.3053850423221
 30
0.0
 11
1093.444944630072
 21
309.3053850423221
 31
0.0
1001
AUSTER_ANSICHT
1002
{
1000
Det03
1002
}
1001
AUSTER_FOLIE
1002
{
1000
NSB00752A
1002
}
  0
LINE
  5
2A05
330
1F
100
AcDbEntity
  8
10000_FRONT
  6
Continuous
370
    13
100
AcDbLine
 39
0.25
 10
1108.561844630072
 20
309.3053850423221
 30
0.0
 11
1104.443504630072
 21
309.3053850423221
 31
0.0
1001
AUSTER_ANSICHT
1002
{
1000
Det03
1002
}
1001
AUSTER_FOLIE
1002
{
1000
NSB00752A
1002
}
  0
LINE
  5
2A06
330
1F
100
AcDbEntity
  8
10000_FRONT
  6
Continuous
370
    13
100
AcDbLine
 39
0.25
 10
1108.561844630072
 20
309.3053850423221
 30
0.0
 11
1111.005624630072
 21
309.3053850423221
 31
0.0
1001
AUSTER_ANSICHT
1002
{
1000
Det03
1002
}
1001
AUSTER_FOLIE
1002
{
1000
NSB00752A
1002
}
  0
LINE
  5
2A07
330
1F
100
AcDbEntity
  8
10000_FRONT
  6
Continuous
370
    13
100
AcDbLine
 39
0.25
 10
1097.565734630072
 20
309.3053850423221
 30
0.0
 11
1104.443504630072
 21
309.3053850423221
 31
0.0
1001
AUSTER_ANSICHT
1002
{
1000
Det03
1002
}
1001
AUSTER_FOLIE
1002
{
1000
NSB00752A
1002
}
  0
LINE
  5
2A08
330
1F
100
AcDbEntity
  8
10000_FRONT
  6
Continuous
370
    13
100
AcDbLine
 39
0.25
 10
1091.005624630072
 20
309.3053850423221
 30
0.0
 11
1093.444944630072
 21
309.3053850423221
 31
0.0
1001
AUSTER_ANSICHT
1002
{
1000
Det03
1002
}
1001
AUSTER_FOLIE
1002
{
1000
NSB00752A
1002
}
  0
LINE
  5
2A09
330
1F
100
AcDbEntity
  8
10000_FRONT
  6
Continuous
370
    13
100
AcDbLine
 39
0.25
 10
1104.492234630072
 20
325.2939750423221
 30
0.0
 11
1108.492234630072
 21
325.2939750423221
 31
0.0
1001
AUSTER_ANSICHT
1002
{
1000
Det03
1002
}
1001
AUSTER_FOLIE
1002
{
1000
NSB00752A
1002
}
  0
LINE
  5
2A0A
330
1F
100
AcDbEntity
  8
10000_FRONT
  6
Continuous
370
    13
100
AcDbLine
 39
0.25
 10
1104.492234630072
 20
322.5511150423221
 30
0.0
 11
1104.492234630072
 21
325.2939750423221
 31
0.0
1001
AUSTER_ANSICHT
1002
{
1000
Det03
1002
}
1001
AUSTER_FOLIE
1002
{
1000
NSB00752A
1002
}
  0
LINE
  5
2A0B
330
1F
100
AcDbEntity
  8
10000_FRONT
  6
Continuous
370
    13
100
AcDbLine
 39
0.25
 10
1104.492234630072
 20
322.4919850423221
 30
0.0
 11
1104.492234630072
 21
322.5511150423221
 31
0.0
1001
AUSTER_ANSICHT
1002
{
1000
Det03
1002
}
1001
AUSTER_FOLIE
1002
{
1000
NSB00752A
1002
}
  0
LINE
  5
2A0C
330
1F
100
AcDbEntity
  8
10000_FRONT
  6
Continuous
370
    13
100
AcDbLine
 39
0.25
 10
1108.492234630072
 20
325.2939750423221
 30
0.0
 11
1108.492234630072
 21
322.4919850423221
 31
0.0
1001
AUSTER_ANSICHT
1002
{
1000
Det03
1002
}
1001
AUSTER_FOLIE
1002
{
1000
NSB00752A
1002
}
  0
LINE
  5
2A0D
330
1F
100
AcDbEntity
  8
10000_FRONT
  6
Continuous
370
    13
100
AcDbLine
 39
0.25
 10
1117.092234630072
 20
305.7421450423221
 30
0.0
 11
1116.942234630072
 21
306.301935042322
 31
0.0
1001
AUSTER_ANSICHT
1002
{
1000
Det03
1002
}
1001
AUSTER_FOLIE
1002
{
1000
NSB00752A
1002
}
  0
LINE
  5
2A0E
330
1F
100
AcDbEntity
  8
10000_FRONT
  6
Continuous
370
    13
100
AcDbLine
 39
0.25
 10
1118.442234630071
 20
306.301935042322
 30
0.0
 11
1118.292234630072
 21
305.7421450423221
 31
0.0
1001
AUSTER_ANSICHT
1002
{
1000
Det03
1002
}
1001
AUSTER_FOLIE
1002
{
1000
NSB00752A
1002
}
  0
LINE
  5
2A0F
330
1F
100
AcDbEntity
  8
10000_FRONT
  6
Continuous
370
    13
100
AcDbLine
 39
0.25
 10
1112.592234630072
 20
308.3285850423221
 30
0.0
 11
1112.592234630072
 21
302.1553450423222
 31
0.0
1001
AUSTER_ANSICHT
1002
{
1000
Det03
1002
}
1001
AUSTER_FOLIE
1002
{
1000
NSB00752A
1002
}
  0
LINE
  5
2A10
330
1F
100
AcDbEntity
  8
10000_FRONT
  6
Continuous
370
    13
100
AcDbLine
 39
0.25
 10
1102.742234630072
 20
310.9919850423221
 30
0.0
 11
1102.742234630072
 21
322.4919850423221
 31
0.0
1001
AUSTER_ANSICHT
1002
{
1000
Det03
1002
}
1001
AUSTER_FOLIE
1002
{
1000
NSB00752A
1002
}
  0
LINE
  5
2A11
330
1F
100
AcDbEntity
  8
10000_FRONT
  6
Continuous
370
    13
100
AcDbLine
 39
0.25
 10
1110.242234630072
 20
310.9919850423221
 30
0.0
 11
1102.742234630072
 21
310.9919850423221
 31
0.0
1001
AUSTER_ANSICHT
1002
{
1000
Det03
1002
}
1001
AUSTER_FOLIE
1002
{
1000
NSB00752A
1002
}
  0
LINE
  5
2A12
330
1F
100
AcDbEntity
  8
10000_FRONT
  6
Continuous
370
    13
100
AcDbLine
 39
0.25
 10
1110.242234630072
 20
322.4919850423221
 30
0.0
 11
1110.242234630072
 21
310.9919850423221
 31
0.0
1001
AUSTER_ANSICHT
1002
{
1000
Det03
1002
}
1001
AUSTER_FOLIE
1002
{
1000
NSB00752A
1002
}
  0
LINE
  5
2A13
330
1F
100
AcDbEntity
  8
10000_FRONT
  6
Continuous
370
    13
100
AcDbLine
 39
0.25
 10
1102.742234630072
 20
322.4919850423221
 30
0.0
 11
1110.242234630072
 21
322.4919850423221
 31
0.0
1001
AUSTER_ANSICHT
1002
{
1000
Det03
1002
}
1001
AUSTER_FOLIE
1002
{
1000
NSB00752A
1002
}
  0
LINE
  5
2A14
330
1F
100
AcDbEntity
  8
10000_FRONT
  6
Continuous
370
    13
100
AcDbLine
 39
0.25
 10
1116.942234630072
 20
306.301935042322
 30
0.0
 11
1116.942234630072
 21
314.2421250423221
 31
0.0
1001
AUSTER_ANSICHT
1002
{
1000
Det03
1002
}
1001
AUSTER_FOLIE
1002
{
1000
NSB00752A
1002
}
  0
LINE
  5
2A15
330
1F
100
AcDbEntity
  8
10000_FRONT
  6
Continuous
370
    13
100
AcDbLine
 39
0.25
 10
1117.092234630072
 20
302.2421450423221
 30
0.0
 11
1117.092234630072
 21
305.7303450423221
 31
0.0
1001
AUSTER_ANSICHT
1002
{
1000
Det03
1002
}
1001
AUSTER_FOLIE
1002
{
1000
NSB00752A
1002
}
  0
LINE
  5
2A16
330
1F
100
AcDbEntity
  8
10000_FRONT
  6
Continuous
370
    13
100
AcDbLine
 39
0.25
 10
1118.292234630072
 20
302.2421450423221
 30
0.0
 11
1117.092234630072
 21
302.2421450423221
 31
0.0
1001
AUSTER_ANSICHT
1002
{
1000
Det03
1002
}
1001
AUSTER_FOLIE
1002
{
1000
NSB00752A
1002
}
  0
LINE
  5
2A17
330
1F
100
AcDbEntity
  8
10000_FRONT
  6
Continuous
370
    13
100
AcDbLine
 39
0.25
 10
1118.292234630072
 20
305.7421450423221
 30
0.0
 11
1118.292234630072
 21
302.2421450423221
 31
0.0
1001
AUSTER_ANSICHT
1002
{
1000
Det03
1002
}
1001
AUSTER_FOLIE
1002
{
1000
NSB00752A
1002
}
  0
LINE
  5
2A18
330
1F
100
AcDbEntity
  8
10000_FRONT
  6
Continuous
370
    13
100
AcDbLine
 39
0.25
 10
1118.442234630071
 20
314.2421250423221
 30
0.0
 11
1118.442234630071
 21
306.301935042322
 31
0.0
1001
AUSTER_ANSICHT
1002
{
1000
Det03
1002
}
1001
AUSTER_FOLIE
1002
{
1000
NSB00752A
1002
}
  0
LINE
  5
2A19
330
1F
100
AcDbEntity
  8
10000_FRONT
  6
Continuous
370
    13
100
AcDbLine
 39
0.25
 10
1116.942234630072
 20
314.2421250423221
 30
0.0
 11
1118.442234630071
 21
314.2421250423221
 31
0.0
1001
AUSTER_ANSICHT
1002
{
1000
Det03
1002
}
1001
AUSTER_FOLIE
1002
{
1000
NSB00752A
1002
}
  0
LINE
  5
2A1A
330
1F
100
AcDbEntity
  8
10000_FRONT
  6
Continuous
370
    13
100
AcDbLine
 39
0.25
 10
1117.692234630072
 20
319.791985042322
 30
0.0
 11
1117.692234630072
 21
324.9919850423221
 31
0.0
1001
AUSTER_ANSICHT
1002
{
1000
Det03
1002
}
1001
AUSTER_FOLIE
1002
{
1000
NSB00752A
1002
}
  0
LINE
  5
2A1B
330
1F
100
AcDbEntity
  8
10000_FRONT
  6
Continuous
370
    13
100
AcDbLine
 39
0.25
 10
1116.092234630072
 20
319.791985042322
 30
0.0
 11
1117.692234630072
 21
319.791985042322
 31
0.0
1001
AUSTER_ANSICHT
1002
{
1000
Det03
1002
}
1001
AUSTER_FOLIE
1002
{
1000
NSB00752A
1002
}
  0
LINE
  5
2A1C
330
1F
100
AcDbEntity
  8
10000_FRONT
  6
Continuous
370
    13
100
AcDbLine
 39
0.25
 10
1116.092234630072
 20
310.9952150423221
 30
0.0
 11
1116.092234630072
 21
319.791985042322
 31
0.0
1001
AUSTER_ANSICHT
1002
{
1000
Det03
1002
}
1001
AUSTER_FOLIE
1002
{
1000
NSB00752A
1002
}
  0
LINE
  5
2A1D
330
1F
100
AcDbEntity
  8
10000_FRONT
  6
Continuous
370
    13
100
AcDbLine
 39
0.25
 10
1112.692234630072
 20
310.9952150423221
 30
0.0
 11
1116.092234630072
 21
310.9952150423221
 31
0.0
1001
AUSTER_ANSICHT
1002
{
1000
Det03
1002
}
1001
AUSTER_FOLIE
1002
{
1000
NSB00752A
1002
}
  0
LINE
  5
2A1E
330
1F
100
AcDbEntity
  8
10000_FRONT
  6
Continuous
370
    13
100
AcDbLine
 39
0.25
 10
1112.692234630072
 20
324.9919850423221
 30
0.0
 11
1112.692234630072
 21
310.9952150423221
 31
0.0
1001
AUSTER_ANSICHT
1002
{
1000
Det03
1002
}
1001
AUSTER_FOLIE
1002
{
1000
NSB00752A
1002
}
  0
LINE
  5
2A1F
330
1F
100
AcDbEntity
  8
10000_FRONT
  6
Continuous
370
    13
100
AcDbLine
 39
0.25
 10
1117.692234630072
 20
324.9919850423221
 30
0.0
 11
1112.692234630072
 21
324.9919850423221
 31
0.0
1001
AUSTER_ANSICHT
1002
{
1000
Det03
1002
}
1001
AUSTER_FOLIE
1002
{
1000
NSB00752A
1002
}
  0
LINE
  5
2A20
330
1F
100
AcDbEntity
  8
10000_FRONT
  6
Continuous
370
    13
100
AcDbLine
 39
0.25
 10
1095.292234630072
 20
319.791985042322
 30
0.0
 11
1095.292234630072
 21
324.9919850423221
 31
0.0
1001
AUSTER_ANSICHT
1002
{
1000
Det03
1002
}
1001
AUSTER_FOLIE
1002
{
1000
NSB00752A
1002
}
  0
LINE
  5
2A21
330
1F
100
AcDbEntity
  8
10000_FRONT
  6
Continuous
370
    13
100
AcDbLine
 39
0.25
 10
1096.892234630072
 20
319.791985042322
 30
0.0
 11
1095.292234630072
 21
319.791985042322
 31
0.0
1001
AUSTER_ANSICHT
1002
{
1000
Det03
1002
}
1001
AUSTER_FOLIE
1002
{
1000
NSB00752A
1002
}
  0
LINE
  5
2A22
330
1F
100
AcDbEntity
  8
10000_FRONT
  6
Continuous
370
    13
100
AcDbLine
 39
0.25
 10
1096.892234630072
 20
310.9952150423221
 30
0.0
 11
1096.892234630072
 21
319.791985042322
 31
0.0
1001
AUSTER_ANSICHT
1002
{
1000
Det03
1002
}
1001
AUSTER_FOLIE
1002
{
1000
NSB00752A
1002
}
  0
LINE
  5
2A23
330
1F
100
AcDbEntity
  8
10000_FRONT
  6
Continuous
370
    13
100
AcDbLine
 39
0.25
 10
1100.292234630072
 20
310.9952150423221
 30
0.0
 11
1096.892234630072
 21
310.9952150423221
 31
0.0
1001
AUSTER_ANSICHT
1002
{
1000
Det03
1002
}
1001
AUSTER_FOLIE
1002
{
1000
NSB00752A
1002
}
  0
LINE
  5
2A24
330
1F
100
AcDbEntity
  8
10000_FRONT
  6
Continuous
370
    13
100
AcDbLine
 39
0.25
 10
1100.292234630072
 20
324.9919850423221
 30
0.0
 11
1100.292234630072
 21
310.9952150423221
 31
0.0
1001
AUSTER_ANSICHT
1002
{
1000
Det03
1002
}
1001
AUSTER_FOLIE
1002
{
1000
NSB00752A
1002
}
  0
LINE
  5
2A25
330
1F
100
AcDbEntity
  8
10000_FRONT
  6
Continuous
370
    13
100
AcDbLine
 39
0.25
 10
1095.292234630072
 20
324.9919850423221
 30
0.0
 11
1100.292234630072
 21
324.9919850423221
 31
0.0
1001
AUSTER_ANSICHT
1002
{
1000
Det03
1002
}
1001
AUSTER_FOLIE
1002
{
1000
NSB00752A
1002
}
  0
LINE
  5
2A26
330
1F
100
AcDbEntity
  8
10000_FRONT
  6
Continuous
370
    13
100
AcDbLine
 39
0.25
 10
1091.005624630072
 20
309.3053850423221
 30
0.0
 11
1091.005624630072
 21
302.1553450423222
 31
0.0
1001
AUSTER_ANSICHT
1002
{
1000
Det03
1002
}
1001
AUSTER_FOLIE
1002
{
1000
NSB00752A
1002
}
  0
LINE
  5
2A27
330
1F
100
AcDbEntity
  8
10000_FRONT
  6
Continuous
370
    13
100
AcDbLine
 39
0.25
 10
1091.005624630072
 20
302.1553450423222
 30
0.0
 11
1112.592234630072
 21
302.1553450423222
 31
0.0
1001
AUSTER_ANSICHT
1002
{
1000
Det03
1002
}
1001
AUSTER_FOLIE
1002
{
1000
NSB00752A
1002
}
  0
LINE
  5
2A28
330
1F
100
AcDbEntity
  8
10000_FRONT
  6
Continuous
370
    13
100
AcDbLine
 39
0.25
 10
1111.005624630072
 20
309.3053850423221
 30
0.0
 11
1111.005624630072
 21
302.1553450423222
 31
0.0
1001
AUSTER_ANSICHT
1002
{
1000
Det03
1002
}
1001
AUSTER_FOLIE
1002
{
1000
NSB00752A
1002
}
  0
LINE
  5
2A29
330
1F
100
AcDbEntity
  8
10000_FRONT
  6
Continuous
370
    13
100
AcDbLine
 39
0.25
 10
1111.005624630072
 20
308.3285850423221
 30
0.0
 11
1112.592234630072
 21
308.3285850423221
 31
0.0
1001
AUSTER_ANSICHT
1002
{
1000
Det03
1002
}
1001
AUSTER_FOLIE
1002
{
1000
NSB00752A
1002
}
  0
LINE
  5
2A2A
330
1F
100
AcDbEntity
  8
10000_FRONT
  6
Continuous
370
    13
100
AcDbLine
 39
0.25
 10
1108.461074630072
 20
311.8919850423221
 30
0.0
 11
1108.461074630072
 21
316.4919850423221
 31
0.0
1001
AUSTER_ANSICHT
1002
{
1000
Det03
1002
}
1001
AUSTER_FOLIE
1002
{
1000
NSB00752A
1002
}
  0
LINE
  5
2A2B
330
1F
100
AcDbEntity
  8
10000_FRONT
  6
Continuous
370
    13
100
AcDbLine
 39
0.25
 10
1108.461074630072
 20
316.4919850423221
 30
0.0
 11
1104.522244630072
 21
316.4919650423221
 31
0.0
1001
AUSTER_ANSICHT
1002
{
1000
Det03
1002
}
1001
AUSTER_FOLIE
1002
{
1000
NSB00752A
1002
}
  0
LINE
  5
2A2C
330
1F
100
AcDbEntity
  8
10000_FRONT
  6
Continuous
370
    13
100
AcDbLine
 39
0.25
 10
1108.461074630072
 20
311.8919850423221
 30
0.0
 11
1104.522244630072
 21
311.8920050423221
 31
0.0
1001
AUSTER_ANSICHT
1002
{
1000
Det03
1002
}
1001
AUSTER_FOLIE
1002
{
1000
NSB00752A
1002
}
  0
LINE
  5
2A2D
330
1F
100
AcDbEntity
  8
10000_FRONT
  6
Continuous
370
    13
100
AcDbLine
 39
0.25
 10
1111.307234630072
 20
297.0365450423221
 30
0.0
 11
1111.307234630072
 21
298.0288450423221
 31
0.0
1001
AUSTER_ANSICHT
1002
{
1000
Det03
1002
}
1001
AUSTER_FOLIE
1002
{
1000
NSB00752A
1002
}
  0
LINE
  5
2A2E
330
1F
100
AcDbEntity
  8
10000_FRONT
  6
Continuous
370
    13
100
AcDbLine
 39
0.25
 10
1110.277234630072
 20
298.0288450423221
 30
0.0
 11
1110.277234630072
 21
297.0365450423221
 31
0.0
1001
AUSTER_ANSICHT
1002
{
1000
Det03
1002
}
1001
AUSTER_FOLIE
1002
{
1000
NSB00752A
1002
}
  0
LINE
  5
2A2F
330
1F
100
AcDbEntity
  8
10000_FRONT
  6
Continuous
370
    13
100
AcDbLine
 39
0.25
 10
1133.292314630072
 20
286.6919450423221
 30
0.0
 11
1088.292314630072
 21
286.6919450423221
 31
0.0
1001
AUSTER_ANSICHT
1002
{
1000
Det03
1002
}
1001
AUSTER_FOLIE
1002
{
1000
NSB00752A
1002
}
  0
LINE
  5
2A30
330
1F
100
AcDbEntity
  8
10000_FRONT
  6
Continuous
370
    50
100
AcDbLine
 39
0.5
 10
1088.292314630072
 20
342.9419850423221
 30
0.0
 11
1133.292314630072
 21
342.9419850423221
 31
0.0
1001
AUSTER_ANSICHT
1002
{
1000
Det03
1002
}
1001
AUSTER_FOLIE
1002
{
1000
NSB00752A
1002
}
  0
LINE
  5
2A31
330
1F
100
AcDbEntity
  8
10000_FRONT
  6
Continuous
370
    13
100
AcDbLine
 39
0.25
 10
1126.892234630072
 20
309.0919850423221
 30
0.0
 11
1131.092234630072
 21
309.0919850423221
 31
0.0
1001
AUSTER_ANSICHT
1002
{
1000
Det03
1002
}
1001
AUSTER_FOLIE
1002
{
1000
NSB00752A
1002
}
  0
LINE
  5
2A32
330
1F
100
AcDbEntity
  8
10000_FRONT
  6
Continuous
370
    13
100
AcDbLine
 39
0.25
 10
1126.892234630072
 20
319.2919850423221
 30
0.0
 11
1131.092234630072
 21
319.2919850423221
 31
0.0
1001
AUSTER_ANSICHT
1002
{
1000
Det03
1002
}
1001
AUSTER_FOLIE
1002
{
1000
NSB00752A
1002
}
  0
LINE
  5
2A33
330
1F
100
AcDbEntity
  8
10000_FRONT
  6
Continuous
370
    13
100
AcDbLine
 39
0.25
 10
1131.092234630072
 20
310.5419850423221
 30
0.0
 11
1126.892234630072
 21
310.5419850423221
 31
0.0
1001
AUSTER_ANSICHT
1002
{
1000
Det03
1002
}
1001
AUSTER_FOLIE
1002
{
1000
NSB00752A
1002
}
  0
LINE
  5
2A34
330
1F
100
AcDbEntity
  8
10000_FRONT
  6
Continuous
370
    13
100
AcDbLine
 39
0.25
 10
1131.092234630072
 20
317.8419850423219
 30
0.0
 11
1126.892234630072
 21
317.8419850423219
 31
0.0
1001
AUSTER_ANSICHT
1002
{
1000
Det03
1002
}
1001
AUSTER_FOLIE
1002
{
1000
NSB00752A
1002
}
  0
LINE
  5
2A35
330
1F
100
AcDbEntity
  8
10000_FRONT
  6
Continuous
370
    13
100
AcDbLine
 39
0.25
 10
1126.892234630072
 20
305.7919450423221
 30
0.0
 11
1126.892234630072
 21
304.2919450423221
 31
0.0
1001
AUSTER_ANSICHT
1002
{
1000
Det03
1002
}
1001
AUSTER_FOLIE
1002
{
1000
NSB00752A
1002
}
  0
LINE
  5
2A36
330
1F
100
AcDbEntity
  8
10000_FRONT
  6
Continuous
370
    13
100
AcDbLine
 39
0.25
 10
1128.792234630072
 20
305.7919450423221
 30
0.0
 11
1126.892234630072
 21
305.7919450423221
 31
0.0
1001
AUSTER_ANSICHT
1002
{
1000
Det03
1002
}
1001
AUSTER_FOLIE
1002
{
1000
NSB00752A
1002
}
  0
LINE
  5
2A37
330
1F
100
AcDbEntity
  8
10000_FRONT
  6
Continuous
370
    13
100
AcDbLine
 39
0.25
 10
1128.792234630072
 20
307.1919850423221
 30
0.0
 11
1128.792234630072
 21
305.7919450423221
 31
0.0
1001
AUSTER_ANSICHT
1002
{
1000
Det03
1002
}
1001
AUSTER_FOLIE
1002
{
1000
NSB00752A
1002
}
  0
LINE
  5
2A38
330
1F
100
AcDbEntity
  8
10000_FRONT
  6
Continuous
370
    13
100
AcDbLine
 39
0.25
 10
1131.092234630072
 20
307.1919850423221
 30
0.0
 11
1128.792234630072
 21
307.1919850423221
 31
0.0
1001
AUSTER_ANSICHT
1002
{
1000
Det03
1002
}
1001
AUSTER_FOLIE
1002
{
1000
NSB00752A
1002
}
  0
LINE
  5
2A39
330
1F
100
AcDbEntity
  8
10000_FRONT
  6
Continuous
370
    13
100
AcDbLine
 39
0.25
 10
1131.092234630072
 20
302.8919450423221
 30
0.0
 11
1131.092234630072
 21
307.1919850423221
 31
0.0
1001
AUSTER_ANSICHT
1002
{
1000
Det03
1002
}
1001
AUSTER_FOLIE
1002
{
1000
NSB00752A
1002
}
  0
LINE
  5
2A3A
330
1F
100
AcDbEntity
  8
10000_FRONT
  6
Continuous
370
    13
100
AcDbLine
 39
0.25
 10
1128.792234630072
 20
302.8919450423221
 30
0.0
 11
1131.092234630072
 21
302.8919450423221
 31
0.0
1001
AUSTER_ANSICHT
1002
{
1000
Det03
1002
}
1001
AUSTER_FOLIE
1002
{
1000
NSB00752A
1002
}
  0
LINE
  5
2A3B
330
1F
100
AcDbEntity
  8
10000_FRONT
  6
Continuous
370
    13
100
AcDbLine
 39
0.25
 10
1128.792234630072
 20
304.2919450423221
 30
0.0
 11
1128.792234630072
 21
302.8919450423221
 31
0.0
1001
AUSTER_ANSICHT
1002
{
1000
Det03
1002
}
1001
AUSTER_FOLIE
1002
{
1000
NSB00752A
1002
}
  0
LINE
  5
2A3C
330
1F
100
AcDbEntity
  8
10000_FRONT
  6
Continuous
370
    13
100
AcDbLine
 39
0.25
 10
1126.892234630072
 20
304.2919450423221
 30
0.0
 11
1128.792234630072
 21
304.2919450423221
 31
0.0
1001
AUSTER_ANSICHT
1002
{
1000
Det03
1002
}
1001
AUSTER_FOLIE
1002
{
1000
NSB00752A
1002
}
  0
LINE
  5
2A3D
330
1F
100
AcDbEntity
  8
10000_FRONT
  6
Continuous
370
    13
100
AcDbLine
 39
0.25
 10
1131.092234630072
 20
309.0919850423221
 30
0.0
 11
1131.092234630072
 21
310.5419850423221
 31
0.0
1001
AUSTER_ANSICHT
1002
{
1000
Det03
1002
}
1001
AUSTER_FOLIE
1002
{
1000
NSB00752A
1002
}
  0
LINE
  5
2A3E
330
1F
100
AcDbEntity
  8
10000_FRONT
  6
Continuous
370
    13
100
AcDbLine
 39
0.25
 10
1126.892234630072
 20
322.591985042322
 30
0.0
 11
1126.892234630072
 21
324.0919850423219
 31
0.0
1001
AUSTER_ANSICHT
1002
{
1000
Det03
1002
}
1001
AUSTER_FOLIE
1002
{
1000
NSB00752A
1002
}
  0
LINE
  5
2A3F
330
1F
100
AcDbEntity
  8
10000_FRONT
  6
Continuous
370
    13
100
AcDbLine
 39
0.25
 10
1128.792234630072
 20
322.591985042322
 30
0.0
 11
1126.892234630072
 21
322.591985042322
 31
0.0
1001
AUSTER_ANSICHT
1002
{
1000
Det03
1002
}
1001
AUSTER_FOLIE
1002
{
1000
NSB00752A
1002
}
  0
LINE
  5
2A40
330
1F
100
AcDbEntity
  8
10000_FRONT
  6
Continuous
370
    13
100
AcDbLine
 39
0.25
 10
1128.792234630072
 20
321.1919850423222
 30
0.0
 11
1128.792234630072
 21
322.591985042322
 31
0.0
1001
AUSTER_ANSICHT
1002
{
1000
Det03
1002
}
1001
AUSTER_FOLIE
1002
{
1000
NSB00752A
1002
}
  0
LINE
  5
2A41
330
1F
100
AcDbEntity
  8
10000_FRONT
  6
Continuous
370
    13
100
AcDbLine
 39
0.25
 10
1131.092234630072
 20
321.1919850423222
 30
0.0
 11
1128.792234630072
 21
321.1919850423222
 31
0.0
1001
AUSTER_ANSICHT
1002
{
1000
Det03
1002
}
1001
AUSTER_FOLIE
1002
{
1000
NSB00752A
1002
}
  0
LINE
  5
2A42
330
1F
100
AcDbEntity
  8
10000_FRONT
  6
Continuous
370
    13
100
AcDbLine
 39
0.25
 10
1131.092234630072
 20
325.4919850423221
 30
0.0
 11
1131.092234630072
 21
321.1919850423222
 31
0.0
1001
AUSTER_ANSICHT
1002
{
1000
Det03
1002
}
1001
AUSTER_FOLIE
1002
{
1000
NSB00752A
1002
}
  0
LINE
  5
2A43
330
1F
100
AcDbEntity
  8
10000_FRONT
  6
Continuous
370
    13
100
AcDbLine
 39
0.25
 10
1128.792234630072
 20
325.4919850423221
 30
0.0
 11
1131.092234630072
 21
325.4919850423221
 31
0.0
1001
AUSTER_ANSICHT
1002
{
1000
Det03
1002
}
1001
AUSTER_FOLIE
1002
{
1000
NSB00752A
1002
}
  0
LINE
  5
2A44
330
1F
100
AcDbEntity
  8
10000_FRONT
  6
Continuous
370
    13
100
AcDbLine
 39
0.25
 10
1128.792234630072
 20
324.0919850423219
 30
0.0
 11
1128.792234630072
 21
325.4919850423221
 31
0.0
1001
AUSTER_ANSICHT
1002
{
1000
Det03
1002
}
1001
AUSTER_FOLIE
1002
{
1000
NSB00752A
1002
}
  0
LINE
  5
2A45
330
1F
100
AcDbEntity
  8
10000_FRONT
  6
Continuous
370
    13
100
AcDbLine
 39
0.25
 10
1126.892234630072
 20
324.0919850423219
 30
0.0
 11
1128.792234630072
 21
324.0919850423219
 31
0.0
1001
AUSTER_ANSICHT
1002
{
1000
Det03
1002
}
1001
AUSTER_FOLIE
1002
{
1000
NSB00752A
1002
}
  0
LINE
  5
2A46
330
1F
100
AcDbEntity
  8
10000_FRONT
  6
Continuous
370
    13
100
AcDbLine
 39
0.25
 10
1131.092234630072
 20
319.2919850423221
 30
0.0
 11
1131.092234630072
 21
317.8419850423219
 31
0.0
1001
AUSTER_ANSICHT
1002
{
1000
Det03
1002
}
1001
AUSTER_FOLIE
1002
{
1000
NSB00752A
1002
}
  0
LINE
  5
2A47
330
1F
100
AcDbEntity
  8
10000_FRONT
  6
Continuous
370
    13
100
AcDbLine
 39
0.25
 10
1126.892234630072
 20
319.2919850423221
 30
0.0
 11
1126.892234630072
 21
317.8419850423219
 31
0.0
1001
AUSTER_ANSICHT
1002
{
1000
Det03
1002
}
1001
AUSTER_FOLIE
1002
{
1000
NSB00752A
1002
}
  0
LINE
  5
2A48
330
1F
100
AcDbEntity
  8
10000_FRONT
  6
Continuous
370
    13
100
AcDbLine
 39
0.25
 10
1127.477234630072
 20
295.4074450423221
 30
0.0
 11
1127.477234630072
 21
295.587645042322
 31
0.0
1001
AUSTER_ANSICHT
1002
{
1000
Det03
1002
}
1001
AUSTER_FOLIE
1002
{
1000
NSB00752A
1002
}
  0
LINE
  5
2A49
330
1F
100
AcDbEntity
  8
10000_FRONT
  6
Continuous
370
    13
100
AcDbLine
 39
0.25
 10
1127.477234630072
 20
296.9765450423221
 30
0.0
 11
1127.477234630072
 21
296.7962450423221
 31
0.0
1001
AUSTER_ANSICHT
1002
{
1000
Det03
1002
}
1001
AUSTER_FOLIE
1002
{
1000
NSB00752A
1002
}
  0
LINE
  5
2A4A
330
1F
100
AcDbEntity
  8
10000_FRONT
  6
Continuous
370
    13
100
AcDbLine
 39
0.25
 10
1128.507234630072
 20
295.4074450423221
 30
0.0
 11
1128.507234630072
 21
295.587645042322
 31
0.0
1001
AUSTER_ANSICHT
1002
{
1000
Det03
1002
}
1001
AUSTER_FOLIE
1002
{
1000
NSB00752A
1002
}
  0
LINE
  5
2A4B
330
1F
100
AcDbEntity
  8
10000_FRONT
  6
Continuous
370
    13
100
AcDbLine
 39
0.25
 10
1128.507234630072
 20
296.9765450423221
 30
0.0
 11
1128.507234630072
 21
296.7962450423221
 31
0.0
1001
AUSTER_ANSICHT
1002
{
1000
Det03
1002
}
1001
AUSTER_FOLIE
1002
{
1000
NSB00752A
1002
}
  0
LINE
  5
2A4C
330
1F
100
AcDbEntity
  8
10000_FRONT
  6
Continuous
370
    13
100
AcDbLine
 39
0.25
 10
1127.477234630072
 20
295.4074450423221
 30
0.0
 11
1127.477234630072
 21
294.4151450423222
 31
0.0
1001
AUSTER_ANSICHT
1002
{
1000
Det03
1002
}
1001
AUSTER_FOLIE
1002
{
1000
NSB00752A
1002
}
  0
LINE
  5
2A4D
330
1F
100
AcDbEntity
  8
10000_FRONT
  6
Continuous
370
    13
100
AcDbLine
 39
0.25
 10
1128.507234630072
 20
294.4151450423222
 30
0.0
 11
1128.507234630072
 21
295.4074450423221
 31
0.0
1001
AUSTER_ANSICHT
1002
{
1000
Det03
1002
}
1001
AUSTER_FOLIE
1002
{
1000
NSB00752A
1002
}
  0
LINE
  5
2A4E
330
1F
100
AcDbEntity
  8
10000_FRONT
  6
Continuous
370
    13
100
AcDbLine
 39
0.25
 10
1128.507234630072
 20
296.9765450423221
 30
0.0
 11
1128.507234630072
 21
297.9688450423221
 31
0.0
1001
AUSTER_ANSICHT
1002
{
1000
Det03
1002
}
1001
AUSTER_FOLIE
1002
{
1000
NSB00752A
1002
}
  0
LINE
  5
2A4F
330
1F
100
AcDbEntity
  8
10000_FRONT
  6
Continuous
370
    13
100
AcDbLine
 39
0.25
 10
1127.477234630072
 20
297.9688450423221
 30
0.0
 11
1127.477234630072
 21
296.9765450423221
 31
0.0
1001
AUSTER_ANSICHT
1002
{
1000
Det03
1002
}
1001
AUSTER_FOLIE
1002
{
1000
NSB00752A
1002
}
  0
LINE
  5
2A50
330
1F
100
AcDbEntity
  8
10000_FRONT
  6
Continuous
370
    13
100
AcDbLine
 39
0.25
 10
1127.477234630072
 20
296.7962450423221
 30
0.0
 11
1125.206534630072
 21
296.7962450423221
 31
0.0
1001
AUSTER_ANSICHT
1002
{
1000
Det03
1002
}
1001
AUSTER_FOLIE
1002
{
1000
NSB00752A
1002
}
  0
LINE
  5
2A51
330
1F
100
AcDbEntity
  8
10000_FRONT
  6
Continuous
370
    13
100
AcDbLine
 39
0.25
 10
1130.777934630072
 20
296.7962450423221
 30
0.0
 11
1128.507234630072
 21
296.7962450423221
 31
0.0
1001
AUSTER_ANSICHT
1002
{
1000
Det03
1002
}
1001
AUSTER_FOLIE
1002
{
1000
NSB00752A
1002
}
  0
LINE
  5
2A52
330
1F
100
AcDbEntity
  8
10000_FRONT
  6
Continuous
370
    13
100
AcDbLine
 39
0.25
 10
1128.507234630072
 20
295.587645042322
 30
0.0
 11
1130.777934630072
 21
295.587645042322
 31
0.0
1001
AUSTER_ANSICHT
1002
{
1000
Det03
1002
}
1001
AUSTER_FOLIE
1002
{
1000
NSB00752A
1002
}
  0
LINE
  5
2A53
330
1F
100
AcDbEntity
  8
10000_FRONT
  6
Continuous
370
    13
100
AcDbLine
 39
0.25
 10
1125.206534630072
 20
295.587645042322
 30
0.0
 11
1127.477234630072
 21
295.587645042322
 31
0.0
1001
AUSTER_ANSICHT
1002
{
1000
Det03
1002
}
1001
AUSTER_FOLIE
1002
{
1000
NSB00752A
1002
}
  0
LINE
  5
2A54
330
1F
100
AcDbEntity
  8
10000_FRONT
  6
Continuous
370
    13
100
AcDbLine
 39
0.25
 10
1127.477234630072
 20
332.9765650423222
 30
0.0
 11
1127.477234630072
 21
333.968855042322
 31
0.0
1001
AUSTER_ANSICHT
1002
{
1000
Det03
1002
}
1001
AUSTER_FOLIE
1002
{
1000
NSB00752A
1002
}
  0
LINE
  5
2A55
330
1F
100
AcDbEntity
  8
10000_FRONT
  6
Continuous
370
    13
100
AcDbLine
 39
0.25
 10
1128.507234630072
 20
333.968855042322
 30
0.0
 11
1128.507234630072
 21
332.9765650423222
 31
0.0
1001
AUSTER_ANSICHT
1002
{
1000
Det03
1002
}
1001
AUSTER_FOLIE
1002
{
1000
NSB00752A
1002
}
  0
LINE
  5
2A56
330
1F
100
AcDbEntity
  8
10000_FRONT
  6
Continuous
370
    13
100
AcDbLine
 39
0.25
 10
1127.477234630072
 20
331.5876750423222
 30
0.0
 11
1125.206534630072
 21
331.5876750423222
 31
0.0
1001
AUSTER_ANSICHT
1002
{
1000
Det03
1002
}
1001
AUSTER_FOLIE
1002
{
1000
NSB00752A
1002
}
  0
LINE
  5
2A57
330
1F
100
AcDbEntity
  8
10000_FRONT
  6
Continuous
370
    13
100
AcDbLine
 39
0.25
 10
1125.206534630072
 20
332.7962950423221
 30
0.0
 11
1127.477234630072
 21
332.7962950423221
 31
0.0
1001
AUSTER_ANSICHT
1002
{
1000
Det03
1002
}
1001
AUSTER_FOLIE
1002
{
1000
NSB00752A
1002
}
  0
LINE
  5
2A58
330
1F
100
AcDbEntity
  8
10000_FRONT
  6
Continuous
370
    13
100
AcDbLine
 39
0.25
 10
1118.877234630072
 20
295.4074450423221
 30
0.0
 11
1118.877234630072
 21
295.587645042322
 31
0.0
1001
AUSTER_ANSICHT
1002
{
1000
Det03
1002
}
1001
AUSTER_FOLIE
1002
{
1000
NSB00752A
1002
}
  0
LINE
  5
2A59
330
1F
100
AcDbEntity
  8
10000_FRONT
  6
Continuous
370
    13
100
AcDbLine
 39
0.25
 10
1118.877234630072
 20
296.9765450423221
 30
0.0
 11
1118.877234630072
 21
296.7962450423221
 31
0.0
1001
AUSTER_ANSICHT
1002
{
1000
Det03
1002
}
1001
AUSTER_FOLIE
1002
{
1000
NSB00752A
1002
}
  0
LINE
  5
2A5A
330
1F
100
AcDbEntity
  8
10000_FRONT
  6
Continuous
370
    13
100
AcDbLine
 39
0.25
 10
1119.907234630072
 20
295.4074450423221
 30
0.0
 11
1119.907234630072
 21
295.587645042322
 31
0.0
1001
AUSTER_ANSICHT
1002
{
1000
Det03
1002
}
1001
AUSTER_FOLIE
1002
{
1000
NSB00752A
1002
}
  0
LINE
  5
2A5B
330
1F
100
AcDbEntity
  8
10000_FRONT
  6
Continuous
370
    13
100
AcDbLine
 39
0.25
 10
1119.907234630072
 20
296.9765450423221
 30
0.0
 11
1119.907234630072
 21
296.7962450423221
 31
0.0
1001
AUSTER_ANSICHT
1002
{
1000
Det03
1002
}
1001
AUSTER_FOLIE
1002
{
1000
NSB00752A
1002
}
  0
LINE
  5
2A5C
330
1F
100
AcDbEntity
  8
10000_FRONT
  6
Continuous
370
    13
100
AcDbLine
 39
0.25
 10
1118.877234630072
 20
295.4074450423221
 30
0.0
 11
1118.877234630072
 21
294.4151450423222
 31
0.0
1001
AUSTER_ANSICHT
1002
{
1000
Det03
1002
}
1001
AUSTER_FOLIE
1002
{
1000
NSB00752A
1002
}
  0
LINE
  5
2A5D
330
1F
100
AcDbEntity
  8
10000_FRONT
  6
Continuous
370
    13
100
AcDbLine
 39
0.25
 10
1119.907234630072
 20
294.4151450423222
 30
0.0
 11
1119.907234630072
 21
295.4074450423221
 31
0.0
1001
AUSTER_ANSICHT
1002
{
1000
Det03
1002
}
1001
AUSTER_FOLIE
1002
{
1000
NSB00752A
1002
}
  0
LINE
  5
2A5E
330
1F
100
AcDbEntity
  8
10000_FRONT
  6
Continuous
370
    13
100
AcDbLine
 39
0.25
 10
1119.907234630072
 20
296.9765450423221
 30
0.0
 11
1119.907234630072
 21
297.9688450423221
 31
0.0
1001
AUSTER_ANSICHT
1002
{
1000
Det03
1002
}
1001
AUSTER_FOLIE
1002
{
1000
NSB00752A
1002
}
  0
LINE
  5
2A5F
330
1F
100
AcDbEntity
  8
10000_FRONT
  6
Continuous
370
    13
100
AcDbLine
 39
0.25
 10
1118.877234630072
 20
297.9688450423221
 30
0.0
 11
1118.877234630072
 21
296.9765450423221
 31
0.0
1001
AUSTER_ANSICHT
1002
{
1000
Det03
1002
}
1001
AUSTER_FOLIE
1002
{
1000
NSB00752A
1002
}
  0
LINE
  5
2A60
330
1F
100
AcDbEntity
  8
10000_FRONT
  6
Continuous
370
    13
100
AcDbLine
 39
0.25
 10
1118.877234630072
 20
296.7962450423221
 30
0.0
 11
1116.606534630072
 21
296.7962450423221
 31
0.0
1001
AUSTER_ANSICHT
1002
{
1000
Det03
1002
}
1001
AUSTER_FOLIE
1002
{
1000
NSB00752A
1002
}
  0
LINE
  5
2A61
330
1F
100
AcDbEntity
  8
10000_FRONT
  6
Continuous
370
    13
100
AcDbLine
 39
0.25
 10
1122.177934630072
 20
296.7962450423221
 30
0.0
 11
1119.907234630072
 21
296.7962450423221
 31
0.0
1001
AUSTER_ANSICHT
1002
{
1000
Det03
1002
}
1001
AUSTER_FOLIE
1002
{
1000
NSB00752A
1002
}
  0
LINE
  5
2A62
330
1F
100
AcDbEntity
  8
10000_FRONT
  6
Continuous
370
    13
100
AcDbLine
 39
0.25
 10
1119.907234630072
 20
295.587645042322
 30
0.0
 11
1122.177934630072
 21
295.587645042322
 31
0.0
1001
AUSTER_ANSICHT
1002
{
1000
Det03
1002
}
1001
AUSTER_FOLIE
1002
{
1000
NSB00752A
1002
}
  0
LINE
  5
2A63
330
1F
100
AcDbEntity
  8
10000_FRONT
  6
Continuous
370
    13
100
AcDbLine
 39
0.25
 10
1116.606534630072
 20
295.587645042322
 30
0.0
 11
1118.877234630072
 21
295.587645042322
 31
0.0
1001
AUSTER_ANSICHT
1002
{
1000
Det03
1002
}
1001
AUSTER_FOLIE
1002
{
1000
NSB00752A
1002
}
  0
LINE
  5
2A64
330
1F
100
AcDbEntity
  8
10000_FRONT
  6
Continuous
370
    13
100
AcDbLine
 39
0.25
 10
1110.277234630072
 20
295.4074450423221
 30
0.0
 11
1110.277234630072
 21
295.587645042322
 31
0.0
1001
AUSTER_ANSICHT
1002
{
1000
Det03
1002
}
1001
AUSTER_FOLIE
1002
{
1000
NSB00752A
1002
}
  0
LINE
  5
2A65
330
1F
100
AcDbEntity
  8
10000_FRONT
  6
Continuous
370
    13
100
AcDbLine
 39
0.25
 10
1110.277234630072
 20
296.9765450423221
 30
0.0
 11
1110.277234630072
 21
296.7962450423221
 31
0.0
1001
AUSTER_ANSICHT
1002
{
1000
Det03
1002
}
1001
AUSTER_FOLIE
1002
{
1000
NSB00752A
1002
}
  0
LINE
  5
2A66
330
1F
100
AcDbEntity
  8
10000_FRONT
  6
Continuous
370
    13
100
AcDbLine
 39
0.25
 10
1111.307234630072
 20
295.4074450423221
 30
0.0
 11
1111.307234630072
 21
295.587645042322
 31
0.0
1001
AUSTER_ANSICHT
1002
{
1000
Det03
1002
}
1001
AUSTER_FOLIE
1002
{
1000
NSB00752A
1002
}
  0
LINE
  5
2A67
330
1F
100
AcDbEntity
  8
10000_FRONT
  6
Continuous
370
    13
100
AcDbLine
 39
0.25
 10
1111.307234630072
 20
296.9765450423221
 30
0.0
 11
1111.307234630072
 21
296.7962450423221
 31
0.0
1001
AUSTER_ANSICHT
1002
{
1000
Det03
1002
}
1001
AUSTER_FOLIE
1002
{
1000
NSB00752A
1002
}
  0
LINE
  5
2A68
330
1F
100
AcDbEntity
  8
10000_FRONT
  6
Continuous
370
    13
100
AcDbLine
 39
0.25
 10
1110.277234630072
 20
295.4074450423221
 30
0.0
 11
1110.277234630072
 21
294.4151450423222
 31
0.0
1001
AUSTER_ANSICHT
1002
{
1000
Det03
1002
}
1001
AUSTER_FOLIE
1002
{
1000
NSB00752A
1002
}
  0
LINE
  5
2A69
330
1F
100
AcDbEntity
  8
10000_FRONT
  6
Continuous
370
    13
100
AcDbLine
 39
0.25
 10
1111.307234630072
 20
294.4151450423222
 30
0.0
 11
1111.307234630072
 21
295.4074450423221
 31
0.0
1001
AUSTER_ANSICHT
1002
{
1000
Det03
1002
}
1001
AUSTER_FOLIE
1002
{
1000
NSB00752A
1002
}
  0
LINE
  5
2A6A
330
1F
100
AcDbEntity
  8
10000_FRONT
  6
Continuous
370
    13
100
AcDbLine
 39
0.25
 10
1111.307234630072
 20
296.9765450423221
 30
0.0
 11
1111.307234630072
 21
297.9688450423221
 31
0.0
1001
AUSTER_ANSICHT
1002
{
1000
Det03
1002
}
1001
AUSTER_FOLIE
1002
{
1000
NSB00752A
1002
}
  0
LINE
  5
2A6B
330
1F
100
AcDbEntity
  8
10000_FRONT
  6
Continuous
370
    13
100
AcDbLine
 39
0.25
 10
1110.277234630072
 20
297.9688450423221
 30
0.0
 11
1110.277234630072
 21
296.9765450423221
 31
0.0
1001
AUSTER_ANSICHT
1002
{
1000
Det03
1002
}
1001
AUSTER_FOLIE
1002
{
1000
NSB00752A
1002
}
  0
LINE
  5
2A6C
330
1F
100
AcDbEntity
  8
10000_FRONT
  6
Continuous
370
    13
100
AcDbLine
 39
0.25
 10
1110.277234630072
 20
296.7962450423221
 30
0.0
 11
1108.006534630072
 21
296.7962450423221
 31
0.0
1001
AUSTER_ANSICHT
1002
{
1000
Det03
1002
}
1001
AUSTER_FOLIE
1002
{
1000
NSB00752A
1002
}
  0
LINE
  5
2A6D
330
1F
100
AcDbEntity
  8
10000_FRONT
  6
Continuous
370
    13
100
AcDbLine
 39
0.25
 10
1113.577934630072
 20
296.7962450423221
 30
0.0
 11
1111.307234630072
 21
296.7962450423221
 31
0.0
1001
AUSTER_ANSICHT
1002
{
1000
Det03
1002
}
1001
AUSTER_FOLIE
1002
{
1000
NSB00752A
1002
}
  0
LINE
  5
2A6E
330
1F
100
AcDbEntity
  8
10000_FRONT
  6
Continuous
370
    13
100
AcDbLine
 39
0.25
 10
1111.307234630072
 20
295.587645042322
 30
0.0
 11
1113.577934630072
 21
295.587645042322
 31
0.0
1001
AUSTER_ANSICHT
1002
{
1000
Det03
1002
}
1001
AUSTER_FOLIE
1002
{
1000
NSB00752A
1002
}
  0
LINE
  5
2A6F
330
1F
100
AcDbEntity
  8
10000_FRONT
  6
Continuous
370
    13
100
AcDbLine
 39
0.25
 10
1108.006534630072
 20
295.587645042322
 30
0.0
 11
1110.277234630072
 21
295.587645042322
 31
0.0
1001
AUSTER_ANSICHT
1002
{
1000
Det03
1002
}
1001
AUSTER_FOLIE
1002
{
1000
NSB00752A
1002
}
  0
LINE
  5
2A70
330
1F
100
AcDbEntity
  8
10000_FRONT
  6
Continuous
370
    13
100
AcDbLine
 39
0.25
 10
1101.677234630072
 20
296.9765450423221
 30
0.0
 11
1101.677234630072
 21
296.7962450423221
 31
0.0
1001
AUSTER_ANSICHT
1002
{
1000
Det03
1002
}
1001
AUSTER_FOLIE
1002
{
1000
NSB00752A
1002
}
  0
LINE
  5
2A71
330
1F
100
AcDbEntity
  8
10000_FRONT
  6
Continuous
370
    13
100
AcDbLine
 39
0.25
 10
1102.707234630072
 20
295.4074450423221
 30
0.0
 11
1102.707234630072
 21
295.587645042322
 31
0.0
1001
AUSTER_ANSICHT
1002
{
1000
Det03
1002
}
1001
AUSTER_FOLIE
1002
{
1000
NSB00752A
1002
}
  0
LINE
  5
2A72
330
1F
100
AcDbEntity
  8
10000_FRONT
  6
Continuous
370
    13
100
AcDbLine
 39
0.25
 10
1102.707234630072
 20
296.9765450423221
 30
0.0
 11
1102.707234630072
 21
296.7962450423221
 31
0.0
1001
AUSTER_ANSICHT
1002
{
1000
Det03
1002
}
1001
AUSTER_FOLIE
1002
{
1000
NSB00752A
1002
}
  0
LINE
  5
2A73
330
1F
100
AcDbEntity
  8
10000_FRONT
  6
Continuous
370
    13
100
AcDbLine
 39
0.25
 10
1101.677234630072
 20
295.4074450423221
 30
0.0
 11
1101.677234630072
 21
294.4151450423222
 31
0.0
1001
AUSTER_ANSICHT
1002
{
1000
Det03
1002
}
1001
AUSTER_FOLIE
1002
{
1000
NSB00752A
1002
}
  0
LINE
  5
2A74
330
1F
100
AcDbEntity
  8
10000_FRONT
  6
Continuous
370
    13
100
AcDbLine
 39
0.25
 10
1102.707234630072
 20
294.4151450423222
 30
0.0
 11
1102.707234630072
 21
295.4074450423221
 31
0.0
1001
AUSTER_ANSICHT
1002
{
1000
Det03
1002
}
1001
AUSTER_FOLIE
1002
{
1000
NSB00752A
1002
}
  0
LINE
  5
2A75
330
1F
100
AcDbEntity
  8
10000_FRONT
  6
Continuous
370
    13
100
AcDbLine
 39
0.25
 10
1102.707234630072
 20
296.9765450423221
 30
0.0
 11
1102.707234630072
 21
297.9688450423221
 31
0.0
1001
AUSTER_ANSICHT
1002
{
1000
Det03
1002
}
1001
AUSTER_FOLIE
1002
{
1000
NSB00752A
1002
}
  0
LINE
  5
2A76
330
1F
100
AcDbEntity
  8
10000_FRONT
  6
Continuous
370
    13
100
AcDbLine
 39
0.25
 10
1101.677234630072
 20
297.9688450423221
 30
0.0
 11
1101.677234630072
 21
296.9765450423221
 31
0.0
1001
AUSTER_ANSICHT
1002
{
1000
Det03
1002
}
1001
AUSTER_FOLIE
1002
{
1000
NSB00752A
1002
}
  0
LINE
  5
2A77
330
1F
100
AcDbEntity
  8
10000_FRONT
  6
Continuous
370
    13
100
AcDbLine
 39
0.25
 10
1093.077234630072
 20
295.4074450423221
 30
0.0
 11
1093.077234630072
 21
295.587645042322
 31
0.0
1001
AUSTER_ANSICHT
1002
{
1000
Det03
1002
}
1001
AUSTER_FOLIE
1002
{
1000
NSB00752A
1002
}
  0
LINE
  5
2A78
330
1F
100
AcDbEntity
  8
10000_FRONT
  6
Continuous
370
    13
100
AcDbLine
 39
0.25
 10
1093.077234630072
 20
296.9765450423221
 30
0.0
 11
1093.077234630072
 21
296.7962450423221
 31
0.0
1001
AUSTER_ANSICHT
1002
{
1000
Det03
1002
}
1001
AUSTER_FOLIE
1002
{
1000
NSB00752A
1002
}
  0
LINE
  5
2A79
330
1F
100
AcDbEntity
  8
10000_FRONT
  6
Continuous
370
    13
100
AcDbLine
 39
0.25
 10
1094.107234630072
 20
295.4074450423221
 30
0.0
 11
1094.107234630072
 21
295.587645042322
 31
0.0
1001
AUSTER_ANSICHT
1002
{
1000
Det03
1002
}
1001
AUSTER_FOLIE
1002
{
1000
NSB00752A
1002
}
  0
LINE
  5
2A7A
330
1F
100
AcDbEntity
  8
10000_FRONT
  6
Continuous
370
    13
100
AcDbLine
 39
0.25
 10
1094.107234630072
 20
296.9765450423221
 30
0.0
 11
1094.107234630072
 21
296.7962450423221
 31
0.0
1001
AUSTER_ANSICHT
1002
{
1000
Det03
1002
}
1001
AUSTER_FOLIE
1002
{
1000
NSB00752A
1002
}
  0
LINE
  5
2A7B
330
1F
100
AcDbEntity
  8
10000_FRONT
  6
Continuous
370
    13
100
AcDbLine
 39
0.25
 10
1093.077234630072
 20
295.4074450423221
 30
0.0
 11
1093.077234630072
 21
294.4151450423222
 31
0.0
1001
AUSTER_ANSICHT
1002
{
1000
Det03
1002
}
1001
AUSTER_FOLIE
1002
{
1000
NSB00752A
1002
}
  0
LINE
  5
2A7C
330
1F
100
AcDbEntity
  8
10000_FRONT
  6
Continuous
370
    13
100
AcDbLine
 39
0.25
 10
1094.107234630072
 20
294.4151450423222
 30
0.0
 11
1094.107234630072
 21
295.4074450423221
 31
0.0
1001
AUSTER_ANSICHT
1002
{
1000
Det03
1002
}
1001
AUSTER_FOLIE
1002
{
1000
NSB00752A
1002
}
  0
LINE
  5
2A7D
330
1F
100
AcDbEntity
  8
10000_FRONT
  6
Continuous
370
    13
100
AcDbLine
 39
0.25
 10
1094.107234630072
 20
296.9765450423221
 30
0.0
 11
1094.107234630072
 21
297.9688450423221
 31
0.0
1001
AUSTER_ANSICHT
1002
{
1000
Det03
1002
}
1001
AUSTER_FOLIE
1002
{
1000
NSB00752A
1002
}
  0
LINE
  5
2A7E
330
1F
100
AcDbEntity
  8
10000_FRONT
  6
Continuous
370
    13
100
AcDbLine
 39
0.25
 10
1093.077234630072
 20
297.9688450423221
 30
0.0
 11
1093.077234630072
 21
296.9765450423221
 31
0.0
1001
AUSTER_ANSICHT
1002
{
1000
Det03
1002
}
1001
AUSTER_FOLIE
1002
{
1000
NSB00752A
1002
}
  0
LINE
  5
2A7F
330
1F
100
AcDbEntity
  8
10000_FRONT
  6
Continuous
370
    13
100
AcDbLine
 39
0.25
 10
1093.077234630072
 20
296.7962450423221
 30
0.0
 11
1090.806534630072
 21
296.7962450423221
 31
0.0
1001
AUSTER_ANSICHT
1002
{
1000
Det03
1002
}
1001
AUSTER_FOLIE
1002
{
1000
NSB00752A
1002
}
  0
LINE
  5
2A80
330
1F
100
AcDbEntity
  8
10000_FRONT
  6
Continuous
370
    13
100
AcDbLine
 39
0.25
 10
1096.377934630071
 20
296.7962450423221
 30
0.0
 11
1094.107234630072
 21
296.7962450423221
 31
0.0
1001
AUSTER_ANSICHT
1002
{
1000
Det03
1002
}
1001
AUSTER_FOLIE
1002
{
1000
NSB00752A
1002
}
  0
LINE
  5
2A81
330
1F
100
AcDbEntity
  8
10000_FRONT
  6
Continuous
370
    13
100
AcDbLine
 39
0.25
 10
1094.107234630072
 20
295.587645042322
 30
0.0
 11
1096.377934630071
 21
295.587645042322
 31
0.0
1001
AUSTER_ANSICHT
1002
{
1000
Det03
1002
}
1001
AUSTER_FOLIE
1002
{
1000
NSB00752A
1002
}
  0
LINE
  5
2A82
330
1F
100
AcDbEntity
  8
10000_FRONT
  6
Continuous
370
    13
100
AcDbLine
 39
0.25
 10
1090.806534630072
 20
295.587645042322
 30
0.0
 11
1093.077234630072
 21
295.587645042322
 31
0.0
1001
AUSTER_ANSICHT
1002
{
1000
Det03
1002
}
1001
AUSTER_FOLIE
1002
{
1000
NSB00752A
1002
}
  0
LINE
  5
2A83
330
1F
100
AcDbEntity
  8
10000_FRONT
  6
Continuous
370
    13
100
AcDbLine
 39
0.25
 10
1127.477234630072
 20
332.9765650423222
 30
0.0
 11
1127.477234630072
 21
332.7962950423221
 31
0.0
1001
AUSTER_ANSICHT
1002
{
1000
Det03
1002
}
1001
AUSTER_FOLIE
1002
{
1000
NSB00752A
1002
}
  0
LINE
  5
2A84
330
1F
100
AcDbEntity
  8
10000_FRONT
  6
Continuous
370
    13
100
AcDbLine
 39
0.25
 10
1127.477234630072
 20
331.407415042322
 30
0.0
 11
1127.477234630072
 21
331.5876750423222
 31
0.0
1001
AUSTER_ANSICHT
1002
{
1000
Det03
1002
}
1001
AUSTER_FOLIE
1002
{
1000
NSB00752A
1002
}
  0
LINE
  5
2A85
330
1F
100
AcDbEntity
  8
10000_FRONT
  6
Continuous
370
    13
100
AcDbLine
 39
0.25
 10
1128.507234630072
 20
332.9765650423222
 30
0.0
 11
1128.507234630072
 21
332.7962950423221
 31
0.0
1001
AUSTER_ANSICHT
1002
{
1000
Det03
1002
}
1001
AUSTER_FOLIE
1002
{
1000
NSB00752A
1002
}
  0
LINE
  5
2A86
330
1F
100
AcDbEntity
  8
10000_FRONT
  6
Continuous
370
    13
100
AcDbLine
 39
0.25
 10
1128.507234630072
 20
331.4074050423221
 30
0.0
 11
1128.507234630072
 21
331.5876750423222
 31
0.0
1001
AUSTER_ANSICHT
1002
{
1000
Det03
1002
}
1001
AUSTER_FOLIE
1002
{
1000
NSB00752A
1002
}
  0
LINE
  5
2A87
330
1F
100
AcDbEntity
  8
10000_FRONT
  6
Continuous
370
    13
100
AcDbLine
 39
0.25
 10
1128.507234630072
 20
331.407415042322
 30
0.0
 11
1128.507234630072
 21
330.4151150423219
 31
0.0
1001
AUSTER_ANSICHT
1002
{
1000
Det03
1002
}
1001
AUSTER_FOLIE
1002
{
1000
NSB00752A
1002
}
  0
LINE
  5
2A88
330
1F
100
AcDbEntity
  8
10000_FRONT
  6
Continuous
370
    13
100
AcDbLine
 39
0.25
 10
1127.477234630072
 20
330.4151150423219
 30
0.0
 11
1127.477234630072
 21
331.407415042322
 31
0.0
1001
AUSTER_ANSICHT
1002
{
1000
Det03
1002
}
1001
AUSTER_FOLIE
1002
{
1000
NSB00752A
1002
}
  0
LINE
  5
2A89
330
1F
100
AcDbEntity
  8
10000_FRONT
  6
Continuous
370
    13
100
AcDbLine
 39
0.25
 10
1130.777934630072
 20
331.5876750423222
 30
0.0
 11
1128.507234630072
 21
331.5876750423222
 31
0.0
1001
AUSTER_ANSICHT
1002
{
1000
Det03
1002
}
1001
AUSTER_FOLIE
1002
{
1000
NSB00752A
1002
}
  0
LINE
  5
2A8A
330
1F
100
AcDbEntity
  8
10000_FRONT
  6
Continuous
370
    13
100
AcDbLine
 39
0.25
 10
1128.507234630072
 20
332.7962950423221
 30
0.0
 11
1130.777934630072
 21
332.7962950423221
 31
0.0
1001
AUSTER_ANSICHT
1002
{
1000
Det03
1002
}
1001
AUSTER_FOLIE
1002
{
1000
NSB00752A
1002
}
  0
LINE
  5
2A8B
330
1F
100
AcDbEntity
  8
10000_FRONT
  6
Continuous
370
    13
100
AcDbLine
 39
0.25
 10
1101.677234630072
 20
296.7962450423221
 30
0.0
 11
1099.406534630072
 21
296.7962450423221
 31
0.0
1001
AUSTER_ANSICHT
1002
{
1000
Det03
1002
}
1001
AUSTER_FOLIE
1002
{
1000
NSB00752A
1002
}
  0
LINE
  5
2A8C
330
1F
100
AcDbEntity
  8
10000_FRONT
  6
Continuous
370
    13
100
AcDbLine
 39
0.25
 10
1104.977934630072
 20
296.7962450423221
 30
0.0
 11
1102.707234630072
 21
296.7962450423221
 31
0.0
1001
AUSTER_ANSICHT
1002
{
1000
Det03
1002
}
1001
AUSTER_FOLIE
1002
{
1000
NSB00752A
1002
}
  0
LINE
  5
2A8D
330
1F
100
AcDbEntity
  8
10000_FRONT
  6
Continuous
370
    13
100
AcDbLine
 39
0.25
 10
1102.707234630072
 20
295.587645042322
 30
0.0
 11
1104.977934630072
 21
295.587645042322
 31
0.0
1001
AUSTER_ANSICHT
1002
{
1000
Det03
1002
}
1001
AUSTER_FOLIE
1002
{
1000
NSB00752A
1002
}
  0
LINE
  5
2A8E
330
1F
100
AcDbEntity
  8
10000_FRONT
  6
Continuous
370
    13
100
AcDbLine
 39
0.25
 10
1119.907234630072
 20
331.407415042322
 30
0.0
 11
1119.907234630072
 21
330.4151150423219
 31
0.0
1001
AUSTER_ANSICHT
1002
{
1000
Det03
1002
}
1001
AUSTER_FOLIE
1002
{
1000
NSB00752A
1002
}
  0
LINE
  5
2A8F
330
1F
100
AcDbEntity
  8
10000_FRONT
  6
Continuous
370
    13
100
AcDbLine
 39
0.25
 10
1111.307234630072
 20
331.407415042322
 30
0.0
 11
1111.307234630072
 21
330.4151150423219
 31
0.0
1001
AUSTER_ANSICHT
1002
{
1000
Det03
1002
}
1001
AUSTER_FOLIE
1002
{
1000
NSB00752A
1002
}
  0
LINE
  5
2A90
330
1F
100
AcDbEntity
  8
10000_FRONT
  6
Continuous
370
    13
100
AcDbLine
 39
0.25
 10
1102.707234630072
 20
331.407415042322
 30
0.0
 11
1102.707234630072
 21
330.4151150423219
 31
0.0
1001
AUSTER_ANSICHT
1002
{
1000
Det03
1002
}
1001
AUSTER_FOLIE
1002
{
1000
NSB00752A
1002
}
  0
LINE
  5
2A91
330
1F
100
AcDbEntity
  8
10000_FRONT
  6
Continuous
370
    13
100
AcDbLine
 39
0.25
 10
1118.877234630072
 20
330.4151150423219
 30
0.0
 11
1118.877234630072
 21
331.407415042322
 31
0.0
1001
AUSTER_ANSICHT
1002
{
1000
Det03
1002
}
1001
AUSTER_FOLIE
1002
{
1000
NSB00752A
1002
}
  0
LINE
  5
2A92
330
1F
100
AcDbEntity
  8
10000_FRONT
  6
Continuous
370
    13
100
AcDbLine
 39
0.25
 10
1110.277234630072
 20
330.4151150423219
 30
0.0
 11
1110.277234630072
 21
331.407415042322
 31
0.0
1001
AUSTER_ANSICHT
1002
{
1000
Det03
1002
}
1001
AUSTER_FOLIE
1002
{
1000
NSB00752A
1002
}
  0
LINE
  5
2A93
330
1F
100
AcDbEntity
  8
10000_FRONT
  6
Continuous
370
    13
100
AcDbLine
 39
0.25
 10
1101.677234630072
 20
330.4151150423219
 30
0.0
 11
1101.677234630072
 21
331.407415042322
 31
0.0
1001
AUSTER_ANSICHT
1002
{
1000
Det03
1002
}
1001
AUSTER_FOLIE
1002
{
1000
NSB00752A
1002
}
  0
LINE
  5
2A94
330
1F
100
AcDbEntity
  8
10000_FRONT
  6
Continuous
370
    13
100
AcDbLine
 39
0.25
 10
1118.877234630072
 20
332.9765650423222
 30
0.0
 11
1118.877234630072
 21
332.7962950423221
 31
0.0
1001
AUSTER_ANSICHT
1002
{
1000
Det03
1002
}
1001
AUSTER_FOLIE
1002
{
1000
NSB00752A
1002
}
  0
LINE
  5
2A95
330
1F
100
AcDbEntity
  8
10000_FRONT
  6
Continuous
370
    13
100
AcDbLine
 39
0.25
 10
1110.277234630072
 20
332.9765650423222
 30
0.0
 11
1110.277234630072
 21
332.7962950423221
 31
0.0
1001
AUSTER_ANSICHT
1002
{
1000
Det03
1002
}
1001
AUSTER_FOLIE
1002
{
1000
NSB00752A
1002
}
  0
LINE
  5
2A96
330
1F
100
AcDbEntity
  8
10000_FRONT
  6
Continuous
370
    13
100
AcDbLine
 39
0.25
 10
1118.877234630072
 20
331.407415042322
 30
0.0
 11
1118.877234630072
 21
331.5876750423222
 31
0.0
1001
AUSTER_ANSICHT
1002
{
1000
Det03
1002
}
1001
AUSTER_FOLIE
1002
{
1000
NSB00752A
1002
}
  0
LINE
  5
2A97
330
1F
100
AcDbEntity
  8
10000_FRONT
  6
Continuous
370
    13
100
AcDbLine
 39
0.25
 10
1110.277234630072
 20
331.407415042322
 30
0.0
 11
1110.277234630072
 21
331.5876750423222
 31
0.0
1001
AUSTER_ANSICHT
1002
{
1000
Det03
1002
}
1001
AUSTER_FOLIE
1002
{
1000
NSB00752A
1002
}
  0
LINE
  5
2A98
330
1F
100
AcDbEntity
  8
10000_FRONT
  6
Continuous
370
    13
100
AcDbLine
 39
0.25
 10
1101.677234630072
 20
331.407415042322
 30
0.0
 11
1101.677234630072
 21
331.5876750423222
 31
0.0
1001
AUSTER_ANSICHT
1002
{
1000
Det03
1002
}
1001
AUSTER_FOLIE
1002
{
1000
NSB00752A
1002
}
  0
LINE
  5
2A99
330
1F
100
AcDbEntity
  8
10000_FRONT
  6
Continuous
370
    13
100
AcDbLine
 39
0.25
 10
1119.907234630072
 20
332.9765650423222
 30
0.0
 11
1119.907234630072
 21
332.7962950423221
 31
0.0
1001
AUSTER_ANSICHT
1002
{
1000
Det03
1002
}
1001
AUSTER_FOLIE
1002
{
1000
NSB00752A
1002
}
  0
LINE
  5
2A9A
330
1F
100
AcDbEntity
  8
10000_FRONT
  6
Continuous
370
    13
100
AcDbLine
 39
0.25
 10
1111.307234630072
 20
332.9765650423222
 30
0.0
 11
1111.307234630072
 21
332.7962950423221
 31
0.0
1001
AUSTER_ANSICHT
1002
{
1000
Det03
1002
}
1001
AUSTER_FOLIE
1002
{
1000
NSB00752A
1002
}
  0
LINE
  5
2A9B
330
1F
100
AcDbEntity
  8
10000_FRONT
  6
Continuous
370
    13
100
AcDbLine
 39
0.25
 10
1102.707234630072
 20
332.9765650423222
 30
0.0
 11
1102.707234630072
 21
332.7962950423221
 31
0.0
1001
AUSTER_ANSICHT
1002
{
1000
Det03
1002
}
1001
AUSTER_FOLIE
1002
{
1000
NSB00752A
1002
}
  0
LINE
  5
2A9C
330
1F
100
AcDbEntity
  8
10000_FRONT
  6
Continuous
370
    13
100
AcDbLine
 39
0.25
 10
1119.907234630072
 20
331.4074050423221
 30
0.0
 11
1119.907234630072
 21
331.5876750423222
 31
0.0
1001
AUSTER_ANSICHT
1002
{
1000
Det03
1002
}
1001
AUSTER_FOLIE
1002
{
1000
NSB00752A
1002
}
  0
LINE
  5
2A9D
330
1F
100
AcDbEntity
  8
10000_FRONT
  6
Continuous
370
    13
100
AcDbLine
 39
0.25
 10
1111.307234630072
 20
331.4074050423221
 30
0.0
 11
1111.307234630072
 21
331.5876750423222
 31
0.0
1001
AUSTER_ANSICHT
1002
{
1000
Det03
1002
}
1001
AUSTER_FOLIE
1002
{
1000
NSB00752A
1002
}
  0
LINE
  5
2A9E
330
1F
100
AcDbEntity
  8
10000_FRONT
  6
Continuous
370
    13
100
AcDbLine
 39
0.25
 10
1102.707234630072
 20
331.4074050423221
 30
0.0
 11
1102.707234630072
 21
331.5876750423222
 31
0.0
1001
AUSTER_ANSICHT
1002
{
1000
Det03
1002
}
1001
AUSTER_FOLIE
1002
{
1000
NSB00752A
1002
}
  0
LINE
  5
2A9F
330
1F
100
AcDbEntity
  8
10000_FRONT
  6
Continuous
370
    13
100
AcDbLine
 39
0.25
 10
1118.877234630072
 20
332.9765650423222
 30
0.0
 11
1118.877234630072
 21
333.968855042322
 31
0.0
1001
AUSTER_ANSICHT
1002
{
1000
Det03
1002
}
1001
AUSTER_FOLIE
1002
{
1000
NSB00752A
1002
}
  0
LINE
  5
2AA0
330
1F
100
AcDbEntity
  8
10000_FRONT
  6
Continuous
370
    13
100
AcDbLine
 39
0.25
 10
1110.277234630072
 20
332.9765650423222
 30
0.0
 11
1110.277234630072
 21
333.968855042322
 31
0.0
1001
AUSTER_ANSICHT
1002
{
1000
Det03
1002
}
1001
AUSTER_FOLIE
1002
{
1000
NSB00752A
1002
}
  0
LINE
  5
2AA1
330
1F
100
AcDbEntity
  8
10000_FRONT
  6
Continuous
370
    13
100
AcDbLine
 39
0.25
 10
1101.677234630072
 20
332.9765650423222
 30
0.0
 11
1101.677234630072
 21
333.968855042322
 31
0.0
1001
AUSTER_ANSICHT
1002
{
1000
Det03
1002
}
1001
AUSTER_FOLIE
1002
{
1000
NSB00752A
1002
}
  0
LINE
  5
2AA2
330
1F
100
AcDbEntity
  8
10000_FRONT
  6
Continuous
370
    13
100
AcDbLine
 39
0.25
 10
1119.907234630072
 20
333.968855042322
 30
0.0
 11
1119.907234630072
 21
332.9765650423222
 31
0.0
1001
AUSTER_ANSICHT
1002
{
1000
Det03
1002
}
1001
AUSTER_FOLIE
1002
{
1000
NSB00752A
1002
}
  0
LINE
  5
2AA3
330
1F
100
AcDbEntity
  8
10000_FRONT
  6
Continuous
370
    13
100
AcDbLine
 39
0.25
 10
1111.307234630072
 20
333.968855042322
 30
0.0
 11
1111.307234630072
 21
332.9765650423222
 31
0.0
1001
AUSTER_ANSICHT
1002
{
1000
Det03
1002
}
1001
AUSTER_FOLIE
1002
{
1000
NSB00752A
1002
}
  0
LINE
  5
2AA4
330
1F
100
AcDbEntity
  8
10000_FRONT
  6
Continuous
370
    13
100
AcDbLine
 39
0.25
 10
1102.707234630072
 20
333.968855042322
 30
0.0
 11
1102.707234630072
 21
332.9765650423222
 31
0.0
1001
AUSTER_ANSICHT
1002
{
1000
Det03
1002
}
1001
AUSTER_FOLIE
1002
{
1000
NSB00752A
1002
}
  0
LINE
  5
2AA5
330
1F
100
AcDbEntity
  8
10000_FRONT
  6
Continuous
370
    13
100
AcDbLine
 39
0.25
 10
1118.877234630072
 20
331.5876750423222
 30
0.0
 11
1116.606534630072
 21
331.5876750423222
 31
0.0
1001
AUSTER_ANSICHT
1002
{
1000
Det03
1002
}
1001
AUSTER_FOLIE
1002
{
1000
NSB00752A
1002
}
  0
LINE
  5
2AA6
330
1F
100
AcDbEntity
  8
10000_FRONT
  6
Continuous
370
    13
100
AcDbLine
 39
0.25
 10
1110.277234630072
 20
331.5876750423222
 30
0.0
 11
1108.006534630072
 21
331.5876750423222
 31
0.0
1001
AUSTER_ANSICHT
1002
{
1000
Det03
1002
}
1001
AUSTER_FOLIE
1002
{
1000
NSB00752A
1002
}
  0
LINE
  5
2AA7
330
1F
100
AcDbEntity
  8
10000_FRONT
  6
Continuous
370
    13
100
AcDbLine
 39
0.25
 10
1101.677234630072
 20
331.5876750423222
 30
0.0
 11
1099.406534630072
 21
331.5876750423222
 31
0.0
1001
AUSTER_ANSICHT
1002
{
1000
Det03
1002
}
1001
AUSTER_FOLIE
1002
{
1000
NSB00752A
1002
}
  0
LINE
  5
2AA8
330
1F
100
AcDbEntity
  8
10000_FRONT
  6
Continuous
370
    13
100
AcDbLine
 39
0.25
 10
1122.177934630072
 20
331.5876750423222
 30
0.0
 11
1119.907234630072
 21
331.5876750423222
 31
0.0
1001
AUSTER_ANSICHT
1002
{
1000
Det03
1002
}
1001
AUSTER_FOLIE
1002
{
1000
NSB00752A
1002
}
  0
LINE
  5
2AA9
330
1F
100
AcDbEntity
  8
10000_FRONT
  6
Continuous
370
    13
100
AcDbLine
 39
0.25
 10
1113.577934630072
 20
331.5876750423222
 30
0.0
 11
1111.307234630072
 21
331.5876750423222
 31
0.0
1001
AUSTER_ANSICHT
1002
{
1000
Det03
1002
}
1001
AUSTER_FOLIE
1002
{
1000
NSB00752A
1002
}
  0
LINE
  5
2AAA
330
1F
100
AcDbEntity
  8
10000_FRONT
  6
Continuous
370
    13
100
AcDbLine
 39
0.25
 10
1104.977934630072
 20
331.5876750423222
 30
0.0
 11
1102.707234630072
 21
331.5876750423222
 31
0.0
1001
AUSTER_ANSICHT
1002
{
1000
Det03
1002
}
1001
AUSTER_FOLIE
1002
{
1000
NSB00752A
1002
}
  0
LINE
  5
2AAB
330
1F
100
AcDbEntity
  8
10000_FRONT
  6
Continuous
370
    13
100
AcDbLine
 39
0.25
 10
1119.907234630072
 20
332.7962950423221
 30
0.0
 11
1122.177934630072
 21
332.7962950423221
 31
0.0
1001
AUSTER_ANSICHT
1002
{
1000
Det03
1002
}
1001
AUSTER_FOLIE
1002
{
1000
NSB00752A
1002
}
  0
LINE
  5
2AAC
330
1F
100
AcDbEntity
  8
10000_FRONT
  6
Continuous
370
    13
100
AcDbLine
 39
0.25
 10
1111.307234630072
 20
332.7962950423221
 30
0.0
 11
1113.577934630072
 21
332.7962950423221
 31
0.0
1001
AUSTER_ANSICHT
1002
{
1000
Det03
1002
}
1001
AUSTER_FOLIE
1002
{
1000
NSB00752A
1002
}
  0
LINE
  5
2AAD
330
1F
100
AcDbEntity
  8
10000_FRONT
  6
Continuous
370
    13
100
AcDbLine
 39
0.25
 10
1102.707234630072
 20
332.7962950423221
 30
0.0
 11
1104.977934630072
 21
332.7962950423221
 31
0.0
1001
AUSTER_ANSICHT
1002
{
1000
Det03
1002
}
1001
AUSTER_FOLIE
1002
{
1000
NSB00752A
1002
}
  0
LINE
  5
2AAE
330
1F
100
AcDbEntity
  8
10000_FRONT
  6
Continuous
370
    13
100
AcDbLine
 39
0.25
 10
1116.606534630072
 20
332.7962950423221
 30
0.0
 11
1118.877234630072
 21
332.7962950423221
 31
0.0
1001
AUSTER_ANSICHT
1002
{
1000
Det03
1002
}
1001
AUSTER_FOLIE
1002
{
1000
NSB00752A
1002
}
  0
LINE
  5
2AAF
330
1F
100
AcDbEntity
  8
10000_FRONT
  6
Continuous
370
    13
100
AcDbLine
 39
0.25
 10
1108.006534630072
 20
332.7962950423221
 30
0.0
 11
1110.277234630072
 21
332.7962950423221
 31
0.0
1001
AUSTER_ANSICHT
1002
{
1000
Det03
1002
}
1001
AUSTER_FOLIE
1002
{
1000
NSB00752A
1002
}
  0
LINE
  5
2AB0
330
1F
100
AcDbEntity
  8
10000_FRONT
  6
Continuous
370
    13
100
AcDbLine
 39
0.25
 10
1093.077234630072
 20
331.407415042322
 30
0.0
 11
1093.077234630072
 21
331.5876750423222
 31
0.0
1001
AUSTER_ANSICHT
1002
{
1000
Det03
1002
}
1001
AUSTER_FOLIE
1002
{
1000
NSB00752A
1002
}
  0
LINE
  5
2AB1
330
1F
100
AcDbEntity
  8
10000_FRONT
  6
Continuous
370
    13
100
AcDbLine
 39
0.25
 10
1094.107234630072
 20
332.9765650423222
 30
0.0
 11
1094.107234630072
 21
332.7962950423221
 31
0.0
1001
AUSTER_ANSICHT
1002
{
1000
Det03
1002
}
1001
AUSTER_FOLIE
1002
{
1000
NSB00752A
1002
}
  0
LINE
  5
2AB2
330
1F
100
AcDbEntity
  8
10000_FRONT
  6
Continuous
370
    13
100
AcDbLine
 39
0.25
 10
1094.107234630072
 20
331.4074050423221
 30
0.0
 11
1094.107234630072
 21
331.5876750423222
 31
0.0
1001
AUSTER_ANSICHT
1002
{
1000
Det03
1002
}
1001
AUSTER_FOLIE
1002
{
1000
NSB00752A
1002
}
  0
LINE
  5
2AB3
330
1F
100
AcDbEntity
  8
10000_FRONT
  6
Continuous
370
    13
100
AcDbLine
 39
0.25
 10
1093.077234630072
 20
332.9765650423222
 30
0.0
 11
1093.077234630072
 21
333.968855042322
 31
0.0
1001
AUSTER_ANSICHT
1002
{
1000
Det03
1002
}
1001
AUSTER_FOLIE
1002
{
1000
NSB00752A
1002
}
  0
LINE
  5
2AB4
330
1F
100
AcDbEntity
  8
10000_FRONT
  6
Continuous
370
    13
100
AcDbLine
 39
0.25
 10
1094.107234630072
 20
333.968855042322
 30
0.0
 11
1094.107234630072
 21
332.9765650423222
 31
0.0
1001
AUSTER_ANSICHT
1002
{
1000
Det03
1002
}
1001
AUSTER_FOLIE
1002
{
1000
NSB00752A
1002
}
  0
LINE
  5
2AB5
330
1F
100
AcDbEntity
  8
10000_FRONT
  6
Continuous
370
    13
100
AcDbLine
 39
0.25
 10
1094.107234630072
 20
331.407415042322
 30
0.0
 11
1094.107234630072
 21
330.4151150423219
 31
0.0
1001
AUSTER_ANSICHT
1002
{
1000
Det03
1002
}
1001
AUSTER_FOLIE
1002
{
1000
NSB00752A
1002
}
  0
LINE
  5
2AB6
330
1F
100
AcDbEntity
  8
10000_FRONT
  6
Continuous
370
    13
100
AcDbLine
 39
0.25
 10
1093.077234630072
 20
330.4151150423219
 30
0.0
 11
1093.077234630072
 21
331.407415042322
 31
0.0
1001
AUSTER_ANSICHT
1002
{
1000
Det03
1002
}
1001
AUSTER_FOLIE
1002
{
1000
NSB00752A
1002
}
  0
LINE
  5
2AB7
330
1F
100
AcDbEntity
  8
10000_FRONT
  6
Continuous
370
    13
100
AcDbLine
 39
0.25
 10
1093.077234630072
 20
331.5876750423222
 30
0.0
 11
1090.806534630072
 21
331.5876750423222
 31
0.0
1001
AUSTER_ANSICHT
1002
{
1000
Det03
1002
}
1001
AUSTER_FOLIE
1002
{
1000
NSB00752A
1002
}
  0
LINE
  5
2AB8
330
1F
100
AcDbEntity
  8
10000_FRONT
  6
Continuous
370
    13
100
AcDbLine
 39
0.25
 10
1096.377934630071
 20
331.5876750423222
 30
0.0
 11
1094.107234630072
 21
331.5876750423222
 31
0.0
1001
AUSTER_ANSICHT
1002
{
1000
Det03
1002
}
1001
AUSTER_FOLIE
1002
{
1000
NSB00752A
1002
}
  0
LINE
  5
2AB9
330
1F
100
AcDbEntity
  8
10000_FRONT
  6
Continuous
370
    13
100
AcDbLine
 39
0.25
 10
1094.107234630072
 20
332.7962950423221
 30
0.0
 11
1096.377934630071
 21
332.7962950423221
 31
0.0
1001
AUSTER_ANSICHT
1002
{
1000
Det03
1002
}
1001
AUSTER_FOLIE
1002
{
1000
NSB00752A
1002
}
  0
LINE
  5
2ABA
330
1F
100
AcDbEntity
  8
10000_FRONT
  6
Continuous
370
    50
100
AcDbLine
 39
0.5
 10
1133.292314630072
 20
342.9419850423221
 30
0.0
 11
1133.292314630072
 21
285.441945042322
 31
0.0
1001
AUSTER_ANSICHT
1002
{
1000
Det03
1002
}
1001
AUSTER_FOLIE
1002
{
1000
NSB00752A
1002
}
  0
LINE
  5
2ABB
330
1F
100
AcDbEntity
  8
10000_FRONT
  6
Continuous
370
    13
100
AcDbLine
 39
0.25
 10
1101.677234630072
 20
295.4074450423221
 30
0.0
 11
1101.677234630072
 21
295.587645042322
 31
0.0
1001
AUSTER_ANSICHT
1002
{
1000
Det03
1002
}
1001
AUSTER_FOLIE
1002
{
1000
NSB00752A
1002
}
  0
LINE
  5
2ABC
330
1F
100
AcDbEntity
  8
10000_FRONT
  6
Continuous
370
    13
100
AcDbLine
 39
0.25
 10
1101.677234630072
 20
332.9765650423222
 30
0.0
 11
1101.677234630072
 21
332.7962950423221
 31
0.0
1001
AUSTER_ANSICHT
1002
{
1000
Det03
1002
}
1001
AUSTER_FOLIE
1002
{
1000
NSB00752A
1002
}
  0
LINE
  5
2ABD
330
1F
100
AcDbEntity
  8
10000_FRONT
  6
Continuous
370
    13
100
AcDbLine
 39
0.25
 10
1093.077234630072
 20
332.9765650423222
 30
0.0
 11
1093.077234630072
 21
332.7962950423221
 31
0.0
1001
AUSTER_ANSICHT
1002
{
1000
Det03
1002
}
1001
AUSTER_FOLIE
1002
{
1000
NSB00752A
1002
}
  0
LINE
  5
2ABE
330
1F
100
AcDbEntity
  8
10000_FRONT
  6
Continuous
370
    13
100
AcDbLine
 39
0.25
 10
1099.406534630072
 20
295.587645042322
 30
0.0
 11
1101.677234630072
 21
295.587645042322
 31
0.0
1001
AUSTER_ANSICHT
1002
{
1000
Det03
1002
}
1001
AUSTER_FOLIE
1002
{
1000
NSB00752A
1002
}
  0
LINE
  5
2ABF
330
1F
100
AcDbEntity
  8
10000_FRONT
  6
Continuous
370
    13
100
AcDbLine
 39
0.25
 10
1099.406534630072
 20
332.7962950423221
 30
0.0
 11
1101.677234630072
 21
332.7962950423221
 31
0.0
1001
AUSTER_ANSICHT
1002
{
1000
Det03
1002
}
1001
AUSTER_FOLIE
1002
{
1000
NSB00752A
1002
}
  0
LINE
  5
2AC0
330
1F
100
AcDbEntity
  8
10000_FRONT
  6
Continuous
370
    13
100
AcDbLine
 39
0.25
 10
1090.806534630072
 20
332.7962950423221
 30
0.0
 11
1093.077234630072
 21
332.7962950423221
 31
0.0
1001
AUSTER_ANSICHT
1002
{
1000
Det03
1002
}
1001
AUSTER_FOLIE
1002
{
1000
NSB00752A
1002
}
  0
LINE
  5
2AC1
330
1F
100
AcDbEntity
  8
10000_FRONT
  6
Continuous
370
    13
100
AcDbLine
 39
0.25
 10
1088.292314630072
 20
341.6919850423221
 30
0.0
 11
1133.292314630072
 21
341.6919850423221
 31
0.0
1001
AUSTER_ANSICHT
1002
{
1000
Det03
1002
}
1001
AUSTER_FOLIE
1002
{
1000
NSB00752A
1002
}
  0
LINE
  5
2AC2
330
1F
100
AcDbEntity
  8
10000_FRONT
  6
Continuous
370
    50
100
AcDbLine
 39
0.5
 10
1088.292314630072
 20
285.441945042322
 30
0.0
 11
1088.292314630072
 21
342.9419850423221
 31
0.0
1001
AUSTER_ANSICHT
1002
{
1000
Det03
1002
}
1001
AUSTER_FOLIE
1002
{
1000
NSB00752A
1002
}
  0
LINE
  5
2AC3
330
1F
100
AcDbEntity
  8
11000_Left
  6
ACAD_ISO02W100
370
    13
100
AcDbLine
 39
0.25
 10
1216.411750655979
 20
301.221945042322
 30
0.0
 11
1216.411750655979
 21
286.721945042322
 31
0.0
1001
AUSTER_ANSICHT
1002
{
1000
Det03
1002
}
1001
AUSTER_FOLIE
1002
{
1000
NSB00752A
1002
}
  0
LINE
  5
2AC4
330
1F
100
AcDbEntity
  8
11000_Left
  6
ACAD_ISO02W100
370
    13
100
AcDbLine
 39
0.25
 10
1216.411750655979
 20
301.221945042322
 30
0.0
 11
1216.411750655979
 21
286.721945042322
 31
0.0
1001
AUSTER_ANSICHT
1002
{
1000
Det03
1002
}
1001
AUSTER_FOLIE
1002
{
1000
NSB00752A
1002
}
  0
LINE
  5
2AC5
330
1F
100
AcDbEntity
  8
11000_Left
  6
ACAD_ISO02W100
370
    13
100
AcDbLine
 39
0.25
 10
1213.411750655979
 20
301.221945042322
 30
0.0
 11
1216.411750655979
 21
301.221945042322
 31
0.0
1001
AUSTER_ANSICHT
1002
{
1000
Det03
1002
}
1001
AUSTER_FOLIE
1002
{
1000
NSB00752A
1002
}
  0
LINE
  5
2AC6
330
1F
100
AcDbEntity
  8
11000_Left
  6
ACAD_ISO02W100
370
    13
100
AcDbLine
 39
0.25
 10
1213.411750655979
 20
301.221945042322
 30
0.0
 11
1216.411750655979
 21
301.221945042322
 31
0.0
1001
AUSTER_ANSICHT
1002
{
1000
Det03
1002
}
1001
AUSTER_FOLIE
1002
{
1000
NSB00752A
1002
}
  0
LINE
  5
2AC7
330
1F
100
AcDbEntity
  8
11000_Left
  6
ACAD_ISO02W100
370
    13
100
AcDbLine
 39
0.25
 10
1213.411750655979
 20
286.721945042322
 30
0.0
 11
1213.411750655979
 21
301.221945042322
 31
0.0
1001
AUSTER_ANSICHT
1002
{
1000
Det03
1002
}
1001
AUSTER_FOLIE
1002
{
1000
NSB00752A
1002
}
  0
LINE
  5
2AC8
330
1F
100
AcDbEntity
  8
11000_Left
  6
ACAD_ISO02W100
370
    13
100
AcDbLine
 39
0.25
 10
1213.411750655979
 20
286.721945042322
 30
0.0
 11
1213.411750655979
 21
301.221945042322
 31
0.0
1001
AUSTER_ANSICHT
1002
{
1000
Det03
1002
}
1001
AUSTER_FOLIE
1002
{
1000
NSB00752A
1002
}
  0
LINE
  5
2AC9
330
1F
100
AcDbEntity
  8
11000_Left
  6
ACAD_ISO02W100
370
    13
100
AcDbLine
 39
0.25
 10
1216.411750655979
 20
327.2219850423222
 30
0.0
 11
1216.411750655979
 21
341.7219850423222
 31
0.0
1001
AUSTER_ANSICHT
1002
{
1000
Det03
1002
}
1001
AUSTER_FOLIE
1002
{
1000
NSB00752A
1002
}
  0
LINE
  5
2ACA
330
1F
100
AcDbEntity
  8
11000_Left
  6
ACAD_ISO02W100
370
    13
100
AcDbLine
 39
0.25
 10
1216.411750655979
 20
327.2219850423222
 30
0.0
 11
1216.411750655979
 21
341.7219850423222
 31
0.0
1001
AUSTER_ANSICHT
1002
{
1000
Det03
1002
}
1001
AUSTER_FOLIE
1002
{
1000
NSB00752A
1002
}
  0
LINE
  5
2ACB
330
1F
100
AcDbEntity
  8
11000_Left
  6
ACAD_ISO02W100
370
    13
100
AcDbLine
 39
0.25
 10
1213.411750655979
 20
327.2219850423222
 30
0.0
 11
1216.411750655979
 21
327.2219850423222
 31
0.0
1001
AUSTER_ANSICHT
1002
{
1000
Det03
1002
}
1001
AUSTER_FOLIE
1002
{
1000
NSB00752A
1002
}
  0
LINE
  5
2ACC
330
1F
100
AcDbEntity
  8
11000_Left
  6
ACAD_ISO02W100
370
    13
100
AcDbLine
 39
0.25
 10
1213.411750655979
 20
327.2219850423222
 30
0.0
 11
1216.411750655979
 21
327.2219850423222
 31
0.0
1001
AUSTER_ANSICHT
1002
{
1000
Det03
1002
}
1001
AUSTER_FOLIE
1002
{
1000
NSB00752A
1002
}
  0
LINE
  5
2ACD
330
1F
100
AcDbEntity
  8
11000_Left
  6
ACAD_ISO02W100
370
    13
100
AcDbLine
 39
0.25
 10
1213.411750655979
 20
341.7219850423222
 30
0.0
 11
1213.411750655979
 21
327.2219850423222
 31
0.0
1001
AUSTER_ANSICHT
1002
{
1000
Det03
1002
}
1001
AUSTER_FOLIE
1002
{
1000
NSB00752A
1002
}
  0
LINE
  5
2ACE
330
1F
100
AcDbEntity
  8
11000_Left
  6
ACAD_ISO02W100
370
    13
100
AcDbLine
 39
0.25
 10
1213.411750655979
 20
341.7219850423222
 30
0.0
 11
1213.411750655979
 21
327.2219850423222
 31
0.0
1001
AUSTER_ANSICHT
1002
{
1000
Det03
1002
}
1001
AUSTER_FOLIE
1002
{
1000
NSB00752A
1002
}
  0
LINE
  5
2ACF
330
1F
100
AcDbEntity
  8
11000_Left
  6
Continuous
370
    50
100
AcDbLine
 39
0.5
 10
1229.811750655979
 20
300.979145042322
 30
0.0
 11
1229.811750655979
 21
296.971945042322
 31
0.0
1001
AUSTER_ANSICHT
1002
{
1000
Det03
1002
}
1001
AUSTER_FOLIE
1002
{
1000
NSB00752A
1002
}
  0
LINE
  5
2AD0
330
1F
100
AcDbEntity
  8
11000_Left
  6
Continuous
370
    13
100
AcDbLine
 39
0.5
 10
1229.811750655979
 20
331.4719850423222
 30
0.0
 11
1229.811750655979
 21
327.464805042322
 31
0.0
1001
AUSTER_ANSICHT
1002
{
1000
Det03
1002
}
1001
AUSTER_FOLIE
1002
{
1000
NSB00752A
1002
}
  0
LINE
  5
2AD1
330
1F
100
AcDbEntity
  8
11000_Left
  6
Continuous
370
    50
100
AcDbLine
 39
0.5
 10
1229.559250655979
 20
292.521945042322
 30
0.0
 11
1229.178050655979
 21
287.448545042322
 31
0.0
1001
AUSTER_ANSICHT
1002
{
1000
Det03
1002
}
1001
AUSTER_FOLIE
1002
{
1000
NSB00752A
1002
}
  0
LINE
  5
2AD2
330
1F
100
AcDbEntity
  8
11000_Left
  6
Continuous
370
    50
100
AcDbLine
 39
0.5
 10
1229.811750655979
 20
296.971945042322
 30
0.0
 11
1229.559250655979
 21
292.521945042322
 31
0.0
1001
AUSTER_ANSICHT
1002
{
1000
Det03
1002
}
1001
AUSTER_FOLIE
1002
{
1000
NSB00752A
1002
}
  0
LINE
  5
2AD3
330
1F
100
AcDbEntity
  8
11000_Left
  6
Continuous
370
    50
100
AcDbLine
 39
0.5
 10
1229.811750655979
 20
296.971945042322
 30
0.0
 11
1229.811750655979
 21
300.979145042322
 31
0.0
1001
AUSTER_ANSICHT
1002
{
1000
Det03
1002
}
1001
AUSTER_FOLIE
1002
{
1000
NSB00752A
1002
}
  0
LINE
  5
2AD4
330
1F
100
AcDbEntity
  8
11000_Left
  6
Continuous
370
    13
100
AcDbLine
 39
0.5
 10
1229.811750655979
 20
331.4719850423222
 30
0.0
 11
1229.811750655979
 21
327.464805042322
 31
0.0
1001
AUSTER_ANSICHT
1002
{
1000
Det03
1002
}
1001
AUSTER_FOLIE
1002
{
1000
NSB00752A
1002
}
  0
LINE
  5
2AD5
330
1F
100
AcDbEntity
  8
11000_Left
  6
Continuous
370
    13
100
AcDbLine
 39
0.5
 10
1229.811750655979
 20
331.4719850423222
 30
0.0
 11
1229.559250655979
 21
335.921985042322
 31
0.0
1001
AUSTER_ANSICHT
1002
{
1000
Det03
1002
}
1001
AUSTER_FOLIE
1002
{
1000
NSB00752A
1002
}
  0
LINE
  5
2AD6
330
1F
100
AcDbEntity
  8
11000_Left
  6
Continuous
370
    50
100
AcDbLine
 39
0.5
 10
1229.559250655979
 20
335.921985042322
 30
0.0
 11
1229.178050655979
 21
340.9954450423219
 31
0.0
1001
AUSTER_ANSICHT
1002
{
1000
Det03
1002
}
1001
AUSTER_FOLIE
1002
{
1000
NSB00752A
1002
}
  0
LINE
  5
2AD7
330
1F
100
AcDbEntity
  8
11000_Left
  6
Continuous
370
    13
100
AcDbLine
 39
0.5
 10
1229.811750655979
 20
331.4719850423222
 30
0.0
 11
1229.811750655979
 21
327.464805042322
 31
0.0
1001
AUSTER_ANSICHT
1002
{
1000
Det03
1002
}
1001
AUSTER_FOLIE
1002
{
1000
NSB00752A
1002
}
  0
LINE
  5
2AD8
330
1F
100
AcDbEntity
  8
11000_Left
  6
Continuous
370
    50
100
AcDbLine
 39
0.5
 10
1229.811750655979
 20
296.971945042322
 30
0.0
 11
1229.559250655979
 21
292.521945042322
 31
0.0
1001
AUSTER_ANSICHT
1002
{
1000
Det03
1002
}
1001
AUSTER_FOLIE
1002
{
1000
NSB00752A
1002
}
  0
LINE
  5
2AD9
330
1F
100
AcDbEntity
  8
11000_Left
  6
Continuous
370
    50
100
AcDbLine
 39
0.5
 10
1229.559250655979
 20
292.521945042322
 30
0.0
 11
1229.178050655979
 21
287.448545042322
 31
0.0
1001
AUSTER_ANSICHT
1002
{
1000
Det03
1002
}
1001
AUSTER_FOLIE
1002
{
1000
NSB00752A
1002
}
  0
LINE
  5
2ADA
330
1F
100
AcDbEntity
  8
11000_Left
  6
Continuous
370
    50
100
AcDbLine
 39
0.5
 10
1229.811750655979
 20
296.971945042322
 30
0.0
 11
1229.811750655979
 21
300.979145042322
 31
0.0
1001
AUSTER_ANSICHT
1002
{
1000
Det03
1002
}
1001
AUSTER_FOLIE
1002
{
1000
NSB00752A
1002
}
  0
LINE
  5
2ADB
330
1F
100
AcDbEntity
  8
11000_Left
  6
Continuous
370
    50
100
AcDbLine
 39
0.5
 10
1229.559250655979
 20
335.921985042322
 30
0.0
 11
1229.178050655979
 21
340.9954450423219
 31
0.0
1001
AUSTER_ANSICHT
1002
{
1000
Det03
1002
}
1001
AUSTER_FOLIE
1002
{
1000
NSB00752A
1002
}
  0
LINE
  5
2ADC
330
1F
100
AcDbEntity
  8
11000_Left
  6
Continuous
370
    13
100
AcDbLine
 39
0.5
 10
1229.811750655979
 20
331.4719850423222
 30
0.0
 11
1229.559250655979
 21
335.921985042322
 31
0.0
1001
AUSTER_ANSICHT
1002
{
1000
Det03
1002
}
1001
AUSTER_FOLIE
1002
{
1000
NSB00752A
1002
}
  0
LINE
  5
2ADD
330
1F
100
AcDbEntity
  8
11000_Left
  6
Continuous
370
    50
100
AcDbLine
 39
0.5
 10
1212.328850655979
 20
286.721945042322
 30
0.0
 11
1219.938750655979
 21
286.721945042322
 31
0.0
1001
AUSTER_ANSICHT
1002
{
1000
Det03
1002
}
1001
AUSTER_FOLIE
1002
{
1000
NSB00752A
1002
}
  0
LINE
  5
2ADE
330
1F
100
AcDbEntity
  8
11000_Left
  6
Continuous
370
    50
100
AcDbLine
 39
0.5
 10
1212.328850655979
 20
286.721945042322
 30
0.0
 11
1211.411750655979
 21
286.721945042322
 31
0.0
1001
AUSTER_ANSICHT
1002
{
1000
Det03
1002
}
1001
AUSTER_FOLIE
1002
{
1000
NSB00752A
1002
}
  0
LINE
  5
2ADF
330
1F
100
AcDbEntity
  8
11000_Left
  6
Continuous
370
    50
100
AcDbLine
 39
0.5
 10
1164.911750655979
 20
290.1719450423221
 30
0.0
 11
1204.209850655979
 21
290.1719450423221
 31
0.0
1001
AUSTER_ANSICHT
1002
{
1000
Det03
1002
}
1001
AUSTER_FOLIE
1002
{
1000
NSB00752A
1002
}
  0
LINE
  5
2AE0
330
1F
100
AcDbEntity
  8
11000_Left
  6
Continuous
370
    50
100
AcDbLine
 39
0.5
 10
1204.209850655979
 20
290.1719450423221
 30
0.0
 11
1204.211750655979
 21
286.721945042322
 31
0.0
1001
AUSTER_ANSICHT
1002
{
1000
Det03
1002
}
1001
AUSTER_FOLIE
1002
{
1000
NSB00752A
1002
}
  0
LINE
  5
2AE1
330
1F
100
AcDbEntity
  8
11000_Left
  6
Continuous
370
    50
100
AcDbLine
 39
0.5
 10
1204.211750655979
 20
341.7219850423222
 30
0.0
 11
1204.209850655979
 21
338.171985042322
 31
0.0
1001
AUSTER_ANSICHT
1002
{
1000
Det03
1002
}
1001
AUSTER_FOLIE
1002
{
1000
NSB00752A
1002
}
  0
LINE
  5
2AE2
330
1F
100
AcDbEntity
  8
11000_Left
  6
Continuous
370
    50
100
AcDbLine
 39
0.5
 10
1208.811750655979
 20
341.7219850423222
 30
0.0
 11
1211.411750655979
 21
341.7219850423222
 31
0.0
1001
AUSTER_ANSICHT
1002
{
1000
Det03
1002
}
1001
AUSTER_FOLIE
1002
{
1000
NSB00752A
1002
}
  0
LINE
  5
2AE3
330
1F
100
AcDbEntity
  8
11000_Left
  6
Continuous
370
    50
100
AcDbLine
 39
0.5
 10
1208.811750655979
 20
286.721945042322
 30
0.0
 11
1211.411750655979
 21
286.721945042322
 31
0.0
1001
AUSTER_ANSICHT
1002
{
1000
Det03
1002
}
1001
AUSTER_FOLIE
1002
{
1000
NSB00752A
1002
}
  0
LINE
  5
2AE4
330
1F
100
AcDbEntity
  8
11000_Left
  6
Continuous
370
    50
100
AcDbLine
 39
0.5
 10
1187.411750655979
 20
338.171985042322
 30
0.0
 11
1203.611750655979
 21
338.171985042322
 31
0.0
1001
AUSTER_ANSICHT
1002
{
1000
Det03
1002
}
1001
AUSTER_FOLIE
1002
{
1000
NSB00752A
1002
}
  0
LINE
  5
2AE5
330
1F
100
AcDbEntity
  8
11000_Left
  6
Continuous
370
    13
100
AcDbLine
 39
0.5
 10
1203.611750655979
 20
338.171985042322
 30
0.0
 11
1204.209850655979
 21
338.171985042322
 31
0.0
1001
AUSTER_ANSICHT
1002
{
1000
Det03
1002
}
1001
AUSTER_FOLIE
1002
{
1000
NSB00752A
1002
}
  0
LINE
  5
2AE6
330
1F
100
AcDbEntity
  8
11000_Left
  6
Continuous
370
    50
100
AcDbLine
 39
0.5
 10
1224.711750655979
 20
341.7219850423222
 30
0.0
 11
1228.381450655979
 21
341.7219850423222
 31
0.0
1001
AUSTER_ANSICHT
1002
{
1000
Det03
1002
}
1001
AUSTER_FOLIE
1002
{
1000
NSB00752A
1002
}
  0
LINE
  5
2AE7
330
1F
100
AcDbEntity
  8
11000_Left
370
    50
100
AcDbLine
 39
0.5
 10
1229.811750655979
 20
327.2219850423222
 30
0.0
 11
1229.811750655979
 21
301.221945042322
 31
0.0
1001
AUSTER_ANSICHT
1002
{
1000
Det03
1002
}
1001
AUSTER_FOLIE
1002
{
1000
NSB00752A
1002
}
  0
LINE
  5
2AE8
330
1F
100
AcDbEntity
  8
11000_Left
  6
Continuous
370
    50
100
AcDbLine
 39
0.5
 10
1228.381450655979
 20
286.721945042322
 30
0.0
 11
1219.935850655979
 21
286.721945042322
 31
0.0
1001
AUSTER_ANSICHT
1002
{
1000
Det03
1002
}
1001
AUSTER_FOLIE
1002
{
1000
NSB00752A
1002
}
  0
LINE
  5
2AE9
330
1F
100
AcDbEntity
  8
11000_Left
  6
Continuous
370
    50
100
AcDbLine
 39
0.5
 10
1211.411750655979
 20
341.7219850423222
 30
0.0
 11
1224.711750655979
 21
341.7219850423222
 31
0.0
1001
AUSTER_ANSICHT
1002
{
1000
Det03
1002
}
1001
AUSTER_FOLIE
1002
{
1000
NSB00752A
1002
}
  0
LINE
  5
2AEA
330
1F
100
AcDbEntity
  8
11000_Left
  6
Continuous
370
    13
100
AcDbLine
 39
0.5
 10
1220.632750655979
 20
341.7219850423222
 30
0.0
 11
1220.278650655979
 21
341.7304650423221
 31
0.0
1001
AUSTER_ANSICHT
1002
{
1000
Det03
1002
}
1001
AUSTER_FOLIE
1002
{
1000
NSB00752A
1002
}
  0
LINE
  5
2AEB
330
1F
100
AcDbEntity
  8
11000_Left
  6
Continuous
370
    50
100
AcDbLine
 39
0.5
 10
1157.311750655979
 20
342.921985042322
 30
0.0
 11
1157.311750655979
 21
335.171985042322
 31
0.0
1001
AUSTER_ANSICHT
1002
{
1000
Det03
1002
}
1001
AUSTER_FOLIE
1002
{
1000
NSB00752A
1002
}
  0
LINE
  5
2AEC
330
1F
100
AcDbEntity
  8
11000_Left
  6
Continuous
370
    50
100
AcDbLine
 39
0.5
 10
1157.311750655979
 20
285.4219450423221
 30
0.0
 11
1157.311750655979
 21
294.6719450423221
 31
0.0
1001
AUSTER_ANSICHT
1002
{
1000
Det03
1002
}
1001
AUSTER_FOLIE
1002
{
1000
NSB00752A
1002
}
  0
LINE
  5
2AED
330
1F
100
AcDbEntity
  8
11000_Left
  6
Continuous
370
    50
100
AcDbLine
 39
0.5
 10
1157.311750655979
 20
285.4219450423221
 30
0.0
 11
1164.911750655979
 21
285.4219450423221
 31
0.0
1001
AUSTER_ANSICHT
1002
{
1000
Det03
1002
}
1001
AUSTER_FOLIE
1002
{
1000
NSB00752A
1002
}
  0
LINE
  5
2AEE
330
1F
100
AcDbEntity
  8
11000_Left
  6
Continuous
370
    50
100
AcDbLine
 39
0.5
 10
1157.311750655979
 20
342.921985042322
 30
0.0
 11
1164.911750655979
 21
342.921985042322
 31
0.0
1001
AUSTER_ANSICHT
1002
{
1000
Det03
1002
}
1001
AUSTER_FOLIE
1002
{
1000
NSB00752A
1002
}
  0
LINE
  5
2AEF
330
1F
100
AcDbEntity
  8
11000_Left
  6
Continuous
370
    50
100
AcDbLine
 39
0.5
 10
1164.911750655979
 20
285.4219450423221
 30
0.0
 11
1164.911750655979
 21
290.1719450423221
 31
0.0
1001
AUSTER_ANSICHT
1002
{
1000
Det03
1002
}
1001
AUSTER_FOLIE
1002
{
1000
NSB00752A
1002
}
  0
LINE
  5
2AF0
330
1F
100
AcDbEntity
  8
11000_Left
  6
Continuous
370
    50
100
AcDbLine
 39
0.5
 10
1164.911750655979
 20
342.921985042322
 30
0.0
 11
1164.911750655979
 21
338.171985042322
 31
0.0
1001
AUSTER_ANSICHT
1002
{
1000
Det03
1002
}
1001
AUSTER_FOLIE
1002
{
1000
NSB00752A
1002
}
  0
LINE
  5
2AF1
330
1F
100
AcDbEntity
  8
11000_Left
  6
Continuous
370
    50
100
AcDbLine
 39
0.5
 10
1204.211750655979
 20
286.721945042322
 30
0.0
 11
1208.811750655979
 21
286.721945042322
 31
0.0
1001
AUSTER_ANSICHT
1002
{
1000
Det03
1002
}
1001
AUSTER_FOLIE
1002
{
1000
NSB00752A
1002
}
  0
LINE
  5
2AF2
330
1F
100
AcDbEntity
  8
11000_Left
  6
Continuous
370
    50
100
AcDbLine
 39
0.5
 10
1204.211750655979
 20
341.7219850423222
 30
0.0
 11
1208.811750655979
 21
341.7219850423222
 31
0.0
1001
AUSTER_ANSICHT
1002
{
1000
Det03
1002
}
1001
AUSTER_FOLIE
1002
{
1000
NSB00752A
1002
}
  0
LINE
  5
2AF3
330
1F
100
AcDbEntity
  8
11000_Left
  6
Continuous
370
    50
100
AcDbLine
 39
0.5
 10
1229.811750655979
 20
300.979145042322
 30
0.0
 11
1229.811750655979
 21
296.971945042322
 31
0.0
1001
AUSTER_ANSICHT
1002
{
1000
Det03
1002
}
1001
AUSTER_FOLIE
1002
{
1000
NSB00752A
1002
}
  0
LINE
  5
2AF4
330
1F
100
AcDbEntity
  8
11000_Left
  6
Continuous
370
    13
100
AcDbLine
 39
0.5
 10
1229.811750655979
 20
327.2219850423222
 30
0.0
 11
1229.811750655979
 21
331.4719850423222
 31
0.0
1001
AUSTER_ANSICHT
1002
{
1000
Det03
1002
}
1001
AUSTER_FOLIE
1002
{
1000
NSB00752A
1002
}
  0
LINE
  5
2AF5
330
1F
100
AcDbEntity
  8
11000_Left
  6
Continuous
370
    50
100
AcDbLine
 39
0.5
 10
1187.411750655979
 20
338.171985042322
 30
0.0
 11
1203.611750655979
 21
338.171985042322
 31
0.0
1001
AUSTER_ANSICHT
1002
{
1000
Det03
1002
}
1001
AUSTER_FOLIE
1002
{
1000
NSB00752A
1002
}
  0
LINE
  5
2AF6
330
1F
100
AcDbEntity
  8
11000_Left
  6
Continuous
370
    50
100
AcDbLine
 39
0.5
 10
1203.611750655979
 20
290.1719450423221
 30
0.0
 11
1187.411750655979
 21
290.1719450423221
 31
0.0
1001
AUSTER_ANSICHT
1002
{
1000
Det03
1002
}
1001
AUSTER_FOLIE
1002
{
1000
NSB00752A
1002
}
  0
LINE
  5
2AF7
330
1F
100
AcDbEntity
  8
11000_Left
  6
Continuous
370
    13
100
AcDbLine
 39
0.5
 10
1204.209850655979
 20
290.1719450423221
 30
0.0
 11
1203.611750655979
 21
290.1719450423221
 31
0.0
1001
AUSTER_ANSICHT
1002
{
1000
Det03
1002
}
1001
AUSTER_FOLIE
1002
{
1000
NSB00752A
1002
}
  0
LINE
  5
2AF8
330
1F
100
AcDbEntity
  8
11000_Left
  6
Continuous
370
    50
100
AcDbLine
 39
0.5
 10
1203.611750655979
 20
338.171985042322
 30
0.0
 11
1204.209850655979
 21
338.171985042322
 31
0.0
1001
AUSTER_ANSICHT
1002
{
1000
Det03
1002
}
1001
AUSTER_FOLIE
1002
{
1000
NSB00752A
1002
}
  0
LINE
  5
2AF9
330
1F
100
AcDbEntity
  8
11000_Left
  6
Continuous
370
    50
100
AcDbLine
 39
0.5
 10
1224.711750655979
 20
341.7219850423222
 30
0.0
 11
1228.381450655979
 21
341.7219850423222
 31
0.0
1001
AUSTER_ANSICHT
1002
{
1000
Det03
1002
}
1001
AUSTER_FOLIE
1002
{
1000
NSB00752A
1002
}
  0
LINE
  5
2AFA
330
1F
100
AcDbEntity
  8
11000_Left
  6
Continuous
370
    13
100
AcDbLine
 39
0.25
 10
1224.711750655979
 20
340.7219850423221
 30
0.0
 11
1224.711750655979
 21
341.7219850423222
 31
0.0
1001
AUSTER_ANSICHT
1002
{
1000
Det03
1002
}
1001
AUSTER_FOLIE
1002
{
1000
NSB00752A
1002
}
  0
LINE
  5
2AFB
330
1F
100
AcDbEntity
  8
11000_Left
  6
Continuous
370
    13
100
AcDbLine
 39
0.25
 10
1228.311750655979
 20
318.5719850423221
 30
0.0
 11
1228.311750655979
 21
309.8719850423222
 31
0.0
1001
AUSTER_ANSICHT
1002
{
1000
Det03
1002
}
1001
AUSTER_FOLIE
1002
{
1000
NSB00752A
1002
}
  0
LINE
  5
2AFC
330
1F
100
AcDbEntity
  8
11000_Left
  6
Continuous
370
    13
100
AcDbLine
 39
0.25
 10
1224.711750655979
 20
318.574155042322
 30
0.0
 11
1228.311750655979
 21
318.5719850423221
 31
0.0
1001
AUSTER_ANSICHT
1002
{
1000
Det03
1002
}
1001
AUSTER_FOLIE
1002
{
1000
NSB00752A
1002
}
  0
LINE
  5
2AFD
330
1F
100
AcDbEntity
  8
11000_Left
  6
Continuous
370
    13
100
AcDbLine
 39
0.25
 10
1224.711750655979
 20
318.574155042322
 30
0.0
 11
1224.711750655979
 21
340.7219850423221
 31
0.0
1001
AUSTER_ANSICHT
1002
{
1000
Det03
1002
}
1001
AUSTER_FOLIE
1002
{
1000
NSB00752A
1002
}
  0
LINE
  5
2AFE
330
1F
100
AcDbEntity
  8
11000_Left
  6
Continuous
370
    13
100
AcDbLine
 39
0.25
 10
1228.311750655979
 20
309.8719850423222
 30
0.0
 11
1224.711750655979
 21
309.8698250423221
 31
0.0
1001
AUSTER_ANSICHT
1002
{
1000
Det03
1002
}
1001
AUSTER_FOLIE
1002
{
1000
NSB00752A
1002
}
  0
LINE
  5
2AFF
330
1F
100
AcDbEntity
  8
11000_Left
  6
Continuous
370
    13
100
AcDbLine
 39
0.25
 10
1224.711750655979
 20
287.721945042322
 30
0.0
 11
1224.711750655979
 21
309.8698250423221
 31
0.0
1001
AUSTER_ANSICHT
1002
{
1000
Det03
1002
}
1001
AUSTER_FOLIE
1002
{
1000
NSB00752A
1002
}
  0
LINE
  5
2B00
330
1F
100
AcDbEntity
  8
11000_Left
  6
Continuous
370
    13
100
AcDbLine
 39
0.25
 10
1224.711750655979
 20
286.721945042322
 30
0.0
 11
1224.711750655979
 21
287.721945042322
 31
0.0
1001
AUSTER_ANSICHT
1002
{
1000
Det03
1002
}
1001
AUSTER_FOLIE
1002
{
1000
NSB00752A
1002
}
  0
LINE
  5
2B01
330
1F
100
AcDbEntity
  8
11000_Left
  6
Continuous
370
    50
100
AcDbLine
 39
0.5
 10
1212.328850655979
 20
286.721945042322
 30
0.0
 11
1219.938750655979
 21
286.721945042322
 31
0.0
1001
AUSTER_ANSICHT
1002
{
1000
Det03
1002
}
1001
AUSTER_FOLIE
1002
{
1000
NSB00752A
1002
}
  0
LINE
  5
2B02
330
1F
100
AcDbEntity
  8
11000_Left
  6
Continuous
370
    50
100
AcDbLine
 39
0.5
 10
1208.811750655979
 20
286.721945042322
 30
0.0
 11
1211.411750655979
 21
286.721945042322
 31
0.0
1001
AUSTER_ANSICHT
1002
{
1000
Det03
1002
}
1001
AUSTER_FOLIE
1002
{
1000
NSB00752A
1002
}
  0
LINE
  5
2B03
330
1F
100
AcDbEntity
  8
11000_Left
  6
Continuous
370
    50
100
AcDbLine
 39
0.5
 10
1212.328850655979
 20
286.721945042322
 30
0.0
 11
1211.411750655979
 21
286.721945042322
 31
0.0
1001
AUSTER_ANSICHT
1002
{
1000
Det03
1002
}
1001
AUSTER_FOLIE
1002
{
1000
NSB00752A
1002
}
  0
LINE
  5
2B04
330
1F
100
AcDbEntity
  8
11000_Left
  6
Continuous
370
    50
100
AcDbLine
 39
0.5
 10
1224.711750655979
 20
286.721945042322
 30
0.0
 11
1219.935850655979
 21
286.721945042322
 31
0.0
1001
AUSTER_ANSICHT
1002
{
1000
Det03
1002
}
1001
AUSTER_FOLIE
1002
{
1000
NSB00752A
1002
}
  0
LINE
  5
2B05
330
1F
100
AcDbEntity
  8
11000_Left
  6
Continuous
370
    13
100
AcDbLine
 39
0.25
 10
1208.311750655979
 20
315.471985042322
 30
0.0
 11
1224.711750655979
 21
315.471985042322
 31
0.0
1001
AUSTER_ANSICHT
1002
{
1000
Det03
1002
}
1001
AUSTER_FOLIE
1002
{
1000
NSB00752A
1002
}
  0
LINE
  5
2B06
330
1F
100
AcDbEntity
  8
11000_Left
  6
Continuous
370
    13
100
AcDbLine
 39
0.25
 10
1208.311750655979
 20
312.9719850423222
 30
0.0
 11
1208.311750655979
 21
315.471985042322
 31
0.0
1001
AUSTER_ANSICHT
1002
{
1000
Det03
1002
}
1001
AUSTER_FOLIE
1002
{
1000
NSB00752A
1002
}
  0
LINE
  5
2B07
330
1F
100
AcDbEntity
  8
11000_Left
  6
Continuous
370
    13
100
AcDbLine
 39
0.25
 10
1224.711750655979
 20
312.9719850423222
 30
0.0
 11
1208.311750655979
 21
312.9719850423222
 31
0.0
1001
AUSTER_ANSICHT
1002
{
1000
Det03
1002
}
1001
AUSTER_FOLIE
1002
{
1000
NSB00752A
1002
}
  0
LINE
  5
2B08
330
1F
100
AcDbEntity
  8
11000_Left
  6
Continuous
370
    13
100
AcDbLine
 39
0.25
 10
1224.711750655979
 20
309.8698250423221
 30
0.0
 11
1224.711750655979
 21
312.9719850423222
 31
0.0
1001
AUSTER_ANSICHT
1002
{
1000
Det03
1002
}
1001
AUSTER_FOLIE
1002
{
1000
NSB00752A
1002
}
  0
LINE
  5
2B09
330
1F
100
AcDbEntity
  8
11000_Left
  6
Continuous
370
    50
100
AcDbLine
 39
0.5
 10
1211.411750655979
 20
341.7219850423222
 30
0.0
 11
1224.711750655979
 21
341.7219850423222
 31
0.0
1001
AUSTER_ANSICHT
1002
{
1000
Det03
1002
}
1001
AUSTER_FOLIE
1002
{
1000
NSB00752A
1002
}
  0
LINE
  5
2B0A
330
1F
100
AcDbEntity
  8
11000_Left
  6
Continuous
370
    50
100
AcDbLine
 39
0.5
 10
1208.811750655979
 20
341.7219850423222
 30
0.0
 11
1211.411750655979
 21
341.7219850423222
 31
0.0
1001
AUSTER_ANSICHT
1002
{
1000
Det03
1002
}
1001
AUSTER_FOLIE
1002
{
1000
NSB00752A
1002
}
  0
LINE
  5
2B0B
330
1F
100
AcDbEntity
  8
11000_Left
  6
Continuous
370
    13
100
AcDbLine
 39
0.25
 10
1224.711750655979
 20
315.471985042322
 30
0.0
 11
1224.711750655979
 21
318.574155042322
 31
0.0
1001
AUSTER_ANSICHT
1002
{
1000
Det03
1002
}
1001
AUSTER_FOLIE
1002
{
1000
NSB00752A
1002
}
  0
LINE
  5
2B0C
330
1F
100
AcDbEntity
  8
11000_Left
  6
Continuous
370
    13
100
AcDbLine
 39
0.5
 10
1220.632750655979
 20
341.7219850423222
 30
0.0
 11
1220.278650655979
 21
341.7304650423221
 31
0.0
1001
AUSTER_ANSICHT
1002
{
1000
Det03
1002
}
1001
AUSTER_FOLIE
1002
{
1000
NSB00752A
1002
}
  0
LINE
  5
2B0D
330
1F
100
AcDbEntity
  8
11000_Left
  6
Continuous
370
    50
100
AcDbLine
 39
0.5
 10
1157.311750655979
 20
285.4219450423221
 30
0.0
 11
1164.911750655979
 21
285.4219450423221
 31
0.0
1001
AUSTER_ANSICHT
1002
{
1000
Det03
1002
}
1001
AUSTER_FOLIE
1002
{
1000
NSB00752A
1002
}
  0
LINE
  5
2B0E
330
1F
100
AcDbEntity
  8
11000_Left
  6
Continuous
370
    50
100
AcDbLine
 39
0.5
 10
1157.311750655979
 20
342.921985042322
 30
0.0
 11
1164.911750655979
 21
342.921985042322
 31
0.0
1001
AUSTER_ANSICHT
1002
{
1000
Det03
1002
}
1001
AUSTER_FOLIE
1002
{
1000
NSB00752A
1002
}
  0
LINE
  5
2B0F
330
1F
100
AcDbEntity
  8
11000_Left
  6
Continuous
370
    50
100
AcDbLine
 39
0.5
 10
1204.211750655979
 20
286.721945042322
 30
0.0
 11
1208.811750655979
 21
286.721945042322
 31
0.0
1001
AUSTER_ANSICHT
1002
{
1000
Det03
1002
}
1001
AUSTER_FOLIE
1002
{
1000
NSB00752A
1002
}
  0
LINE
  5
2B10
330
1F
100
AcDbEntity
  8
11000_Left
  6
Continuous
370
    13
100
AcDbLine
 39
0.5
 10
1204.211750655979
 20
291.3219450423221
 30
0.0
 11
1204.211750655979
 21
290.1719450423221
 31
0.0
1001
AUSTER_ANSICHT
1002
{
1000
Det03
1002
}
1001
AUSTER_FOLIE
1002
{
1000
NSB00752A
1002
}
  0
LINE
  5
2B11
330
1F
100
AcDbEntity
  8
11000_Left
  6
Continuous
370
    50
100
AcDbLine
 39
0.5
 10
1204.211750655979
 20
341.7219850423222
 30
0.0
 11
1208.811750655979
 21
341.7219850423222
 31
0.0
1001
AUSTER_ANSICHT
1002
{
1000
Det03
1002
}
1001
AUSTER_FOLIE
1002
{
1000
NSB00752A
1002
}
  0
LINE
  5
2B12
330
1F
100
AcDbEntity
  8
11000_Left
  6
Continuous
370
    13
100
AcDbLine
 39
0.5
 10
1204.211750655979
 20
337.0219850423221
 30
0.0
 11
1204.211750655979
 21
338.171985042322
 31
0.0
1001
AUSTER_ANSICHT
1002
{
1000
Det03
1002
}
1001
AUSTER_FOLIE
1002
{
1000
NSB00752A
1002
}
  0
LINE
  5
2B13
330
1F
100
AcDbEntity
  8
11000_Left
  6
Continuous
370
    13
100
AcDbLine
 39
0.25
 10
1194.550950655979
 20
291.3219450423221
 30
0.0
 11
1204.211750655979
 21
291.3219450423221
 31
0.0
1001
AUSTER_ANSICHT
1002
{
1000
Det03
1002
}
1001
AUSTER_FOLIE
1002
{
1000
NSB00752A
1002
}
  0
LINE
  5
2B14
330
1F
100
AcDbEntity
  8
11000_Left
  6
Continuous
370
    13
100
AcDbLine
 39
0.25
 10
1194.550950655979
 20
337.0219850423221
 30
0.0
 11
1204.211750655979
 21
337.0219850423221
 31
0.0
1001
AUSTER_ANSICHT
1002
{
1000
Det03
1002
}
1001
AUSTER_FOLIE
1002
{
1000
NSB00752A
1002
}
  0
LINE
  5
2B15
330
1F
100
AcDbEntity
  8
11000_Left
  6
Continuous
370
    50
100
AcDbLine
 39
0.5
 10
1229.559250655979
 20
292.521945042322
 30
0.0
 11
1229.178050655979
 21
287.448545042322
 31
0.0
1001
AUSTER_ANSICHT
1002
{
1000
Det03
1002
}
1001
AUSTER_FOLIE
1002
{
1000
NSB00752A
1002
}
  0
LINE
  5
2B16
330
1F
100
AcDbEntity
  8
11000_Left
  6
Continuous
370
    50
100
AcDbLine
 39
0.5
 10
1229.811750655979
 20
296.971945042322
 30
0.0
 11
1229.559250655979
 21
292.521945042322
 31
0.0
1001
AUSTER_ANSICHT
1002
{
1000
Det03
1002
}
1001
AUSTER_FOLIE
1002
{
1000
NSB00752A
1002
}
  0
LINE
  5
2B17
330
1F
100
AcDbEntity
  8
11000_Left
  6
Continuous
370
    50
100
AcDbLine
 39
0.5
 10
1229.811750655979
 20
296.971945042322
 30
0.0
 11
1229.811750655979
 21
300.979145042322
 31
0.0
1001
AUSTER_ANSICHT
1002
{
1000
Det03
1002
}
1001
AUSTER_FOLIE
1002
{
1000
NSB00752A
1002
}
  0
LINE
  5
2B18
330
1F
100
AcDbEntity
  8
11000_Left
  6
Continuous
370
    50
100
AcDbLine
 39
0.5
 10
1229.811750655979
 20
331.4719850423222
 30
0.0
 11
1229.811750655979
 21
327.464805042322
 31
0.0
1001
AUSTER_ANSICHT
1002
{
1000
Det03
1002
}
1001
AUSTER_FOLIE
1002
{
1000
NSB00752A
1002
}
  0
LINE
  5
2B19
330
1F
100
AcDbEntity
  8
11000_Left
  6
Continuous
370
    50
100
AcDbLine
 39
0.5
 10
1229.811750655979
 20
331.4719850423222
 30
0.0
 11
1229.559250655979
 21
335.921985042322
 31
0.0
1001
AUSTER_ANSICHT
1002
{
1000
Det03
1002
}
1001
AUSTER_FOLIE
1002
{
1000
NSB00752A
1002
}
  0
LINE
  5
2B1A
330
1F
100
AcDbEntity
  8
11000_Left
  6
Continuous
370
    50
100
AcDbLine
 39
0.5
 10
1229.559250655979
 20
335.921985042322
 30
0.0
 11
1229.178050655979
 21
340.9954450423219
 31
0.0
1001
AUSTER_ANSICHT
1002
{
1000
Det03
1002
}
1001
AUSTER_FOLIE
1002
{
1000
NSB00752A
1002
}
  0
LINE
  5
2B1B
330
1F
100
AcDbEntity
  8
11000_Left
  6
Continuous
370
    50
100
AcDbLine
 39
0.5
 10
1164.911750655979
 20
285.4219450423221
 30
0.0
 11
1164.911750655979
 21
290.1719450423221
 31
0.0
1001
AUSTER_ANSICHT
1002
{
1000
Det03
1002
}
1001
AUSTER_FOLIE
1002
{
1000
NSB00752A
1002
}
  0
LINE
  5
2B1C
330
1F
100
AcDbEntity
  8
11000_Left
  6
Continuous
370
    50
100
AcDbLine
 39
0.5
 10
1157.311750655979
 20
285.4219450423221
 30
0.0
 11
1157.311750655979
 21
294.6719450423221
 31
0.0
1001
AUSTER_ANSICHT
1002
{
1000
Det03
1002
}
1001
AUSTER_FOLIE
1002
{
1000
NSB00752A
1002
}
  0
LINE
  5
2B1D
330
1F
100
AcDbEntity
  8
11000_Left
  6
Continuous
370
    50
100
AcDbLine
 39
0.5
 10
1164.911750655979
 20
342.921985042322
 30
0.0
 11
1164.911750655979
 21
338.171985042322
 31
0.0
1001
AUSTER_ANSICHT
1002
{
1000
Det03
1002
}
1001
AUSTER_FOLIE
1002
{
1000
NSB00752A
1002
}
  0
LINE
  5
2B1E
330
1F
100
AcDbEntity
  8
11000_Left
  6
Continuous
370
    50
100
AcDbLine
 39
0.5
 10
1157.311750655979
 20
342.921985042322
 30
0.0
 11
1157.311750655979
 21
335.171985042322
 31
0.0
1001
AUSTER_ANSICHT
1002
{
1000
Det03
1002
}
1001
AUSTER_FOLIE
1002
{
1000
NSB00752A
1002
}
  0
LINE
  5
2B1F
330
1F
100
AcDbEntity
  8
11000_Left
370
    50
100
AcDbLine
 39
0.5
 10
1229.811750655979
 20
327.2219850423222
 30
0.0
 11
1229.811750655979
 21
301.221945042322
 31
0.0
1001
AUSTER_ANSICHT
1002
{
1000
Det03
1002
}
1001
AUSTER_FOLIE
1002
{
1000
NSB00752A
1002
}
  0
LINE
  5
2B20
330
1F
100
AcDbEntity
  8
11000_Left
  6
Continuous
370
    50
100
AcDbLine
 39
0.5
 10
1212.328850655979
 20
286.721945042322
 30
0.0
 11
1219.938750655979
 21
286.721945042322
 31
0.0
1001
AUSTER_ANSICHT
1002
{
1000
Det03
1002
}
1001
AUSTER_FOLIE
1002
{
1000
NSB00752A
1002
}
  0
LINE
  5
2B21
330
1F
100
AcDbEntity
  8
11000_Left
  6
Continuous
370
    13
100
AcDbLine
 39
0.25
 10
1193.511750655979
 20
299.9219450423221
 30
0.0
 11
1193.511750655979
 21
328.421985042322
 31
0.0
1001
AUSTER_ANSICHT
1002
{
1000
Det03
1002
}
1001
AUSTER_FOLIE
1002
{
1000
NSB00752A
1002
}
  0
LINE
  5
2B22
330
1F
100
AcDbEntity
  8
10000_FRONT
  6
Continuous
370
    13
100
AcDbLine
 39
0.25
 10
1126.892234630072
 20
309.0919850423221
 30
0.0
 11
1126.892234630072
 21
310.5419850423221
 31
0.0
1001
AUSTER_ANSICHT
1002
{
1000
Det03
1002
}
1001
AUSTER_FOLIE
1002
{
1000
NSB00752A
1002
}
  0
LINE
  5
2B23
330
1F
100
AcDbEntity
  8
11000_Left
370
    50
100
AcDbLine
 39
0.5
 10
1229.811750655979
 20
325.971985042322
 30
0.0
 11
1229.811750655979
 21
302.471945042322
 31
0.0
1001
AUSTER_ANSICHT
1002
{
1000
Det03
1002
}
1001
AUSTER_FOLIE
1002
{
1000
NSB00752A
1002
}
  0
LINE
  5
2B24
330
1F
100
AcDbEntity
  8
10000_FRONT
  6
Continuous
370
    13
100
AcDbLine
 39
0.25
 10
1104.522244630072
 20
316.4919650423221
 30
0.0
 11
1104.522244630072
 21
311.8920050423221
 31
0.0
1001
AUSTER_ANSICHT
1002
{
1000
Det03
1002
}
1001
AUSTER_FOLIE
1002
{
1000
NSB00752A
1002
}
  0
DIMENSION
  5
2B25
330
1F
100
AcDbEntity
  8
30100_Drilling_DIM
  6
Continuous
370
    13
100
AcDbDimension
  2
*D2
 10
1284.89845984264
 20
278.788945042322
 30
0.0
 11
1267.383462002329
 21
278.788945042322
 31
0.0
 70
    32
 71
     5
 42
35.02999568062114
  3
DSTYLE1
100
AcDbAlignedDimension
 13
1249.868464162019
 23
286.7223049904895
 33
0.0
 14
1284.89845984264
 24
286.721945042322
 34
0.0
100
AcDbRotatedDimension
1001
AUSTER_FOLIE
1002
{
1000
NSB00752A
1002
}
1001
AUSTER_ANSICHT
1002
{
1000
Det03
1002
}
1001
ACAD
1000
DSTYLE
1002
{
1070
    41
1040
2.0
1070
    42
1040
1.0
1070
    43
1040
1.0
1070
    47
1040
0.005
1070
    48
1040
-0.005
1070
    77
1070
     0
1070
    78
1070
     0
1070
   143
1040
25.4
1070
   171
1070
     0
1070
   172
1070
     1
1070
   271
1070
     0
1070
   272
1070
     1
1070
   277
1070
     6
1002
}
  0
DIMENSION
  5
2B26
330
1F
100
AcDbEntity
  8
30100_Drilling_DIM
  6
Continuous
370
    13
100
AcDbDimension
  2
*D3
 10
1297.41875984264
 20
289.221945042322
 30
0.0
 11
1297.41875984264
 21
314.2219450423224
 31
0.0
 70
    32
 71
     5
 42
50.00000000000017
  3
DSTYLE1
100
AcDbAlignedDimension
 13
1287.39845984264
 23
339.2219450423222
 33
0.0
 14
1287.39845984264
 24
289.221945042322
 34
0.0
 50
90.0
100
AcDbRotatedDimension
1001
AUSTER_FOLIE
1002
{
1000
NSB00752A
1002
}
1001
AUSTER_ANSICHT
1002
{
1000
Det03
1002
}
1001
ACAD
1000
DSTYLE
1002
{
1070
    41
1040
2.0
1070
    42
1040
1.0
1070
    43
1040
1.0
1070
    47
1040
0.005
1070
    48
1040
-0.005
1070
    77
1070
     0
1070
    78
1070
     0
1070
   143
1040
25.4
1070
   171
1070
     0
1070
   172
1070
     1
1070
   271
1070
     0
1070
   272
1070
     1
1070
   277
1070
     6
1002
}
  0
DIMENSION
  5
2B27
330
1F
100
AcDbEntity
  8
30100_Drilling_DIM
  6
Continuous
370
    13
100
AcDbDimension
  2
*D4
 10
1262.43075984264
 20
336.7219450423221
 30
0.0
 11
1262.43075984264
 21
339.2219450423223
 31
0.0
 70
    32
 71
     5
 42
4.999999999999886
  3
DSTYLE1
100
AcDbAlignedDimension
 13
1249.912601921696
 23
341.721945042322
 33
0.0
 14
1249.912601921696
 24
336.7219450423221
 34
0.0
 50
90.0
100
AcDbRotatedDimension
1001
AUSTER_FOLIE
1002
{
1000
NSB00752A
1002
}
1001
AUSTER_ANSICHT
1002
{
1000
Det03
1002
}
1001
ACAD
1000
DSTYLE
1002
{
1070
    41
1040
2.0
1070
    42
1040
1.0
1070
    43
1040
1.0
1070
    47
1040
0.005
1070
    48
1040
-0.005
1070
    77
1070
     0
1070
    78
1070
     0
1070
   143
1040
25.4
1070
   171
1070
     0
1070
   172
1070
     1
1070
   271
1070
     0
1070
   272
1070
     1
1070
   277
1070
     6
1002
}
  0
DIMENSION
  5
2B28
330
1F
100
AcDbEntity
  8
10100_FRONT_DIM
  6
Continuous
370
    13
100
AcDbDimension
  2
*D5
 10
1133.292314630072
 20
360.156945042322
 30
0.0
 11
1110.792314630072
 21
360.156945042322
 31
0.0
 70
    32
 71
     5
 42
45.0
  3
DSTYLE1
100
AcDbAlignedDimension
 13
1088.292314630072
 23
342.9419850423221
 33
0.0
 14
1133.292314630072
 24
342.9419850423221
 34
0.0
100
AcDbRotatedDimension
1001
AUSTER_FOLIE
1002
{
1000
NSB00752A
1002
}
1001
AUSTER_ANSICHT
1002
{
1000
Det03
1002
}
1001
ACAD
1000
DSTYLE
1002
{
1070
    41
1040
2.0
1070
    42
1040
1.0
1070
    43
1040
1.0
1070
    47
1040
0.005
1070
    48
1040
-0.005
1070
    77
1070
     0
1070
    78
1070
     0
1070
   143
1040
25.4
1070
   171
1070
     0
1070
   172
1070
     1
1070
   271
1070
     0
1070
   272
1070
     1
1070
   277
1070
     6
1002
}
  0
DIMENSION
  5
2B29
330
1F
100
AcDbEntity
  8
10100_FRONT_DIM
  6
Continuous
370
    13
100
AcDbDimension
  2
*D6
 10
1102.192234630071
 20
353.1769450423221
 30
0.0
 11
1097.892274630072
 21
353.1769450423221
 31
0.0
 70
   160
 71
     5
 42
8.599919999998974
  3
DSTYLE1
100
AcDbAlignedDimension
 13
1093.592314630072
 23
332.1919450423221
 33
0.0
 14
1102.192234630071
 24
332.1919850423221
 34
0.0
100
AcDbRotatedDimension
1001
AUSTER_FOLIE
1002
{
1000
NSB00752A
1002
}
1001
AUSTER_ANSICHT
1002
{
1000
Det03
1002
}
1001
ACAD
1000
DSTYLE
1002
{
1070
    41
1040
2.0
1070
    42
1040
1.0
1070
    43
1040
1.0
1070
    47
1040
0.005
1070
    48
1040
-0.005
1070
    77
1070
     0
1070
    78
1070
     0
1070
   143
1040
25.4
1070
   171
1070
     0
1070
   172
1070
     1
1070
   271
1070
     0
1070
   272
1070
     1
1070
   277
1070
     6
1002
}
  0
DIMENSION
  5
2B2A
330
1F
100
AcDbEntity
  8
10100_FRONT_DIM
  6
Continuous
370
    13
100
AcDbDimension
  2
*D7
 10
1088.292314630072
 20
353.1754045017814
 30
0.0
 11
1090.942314630072
 21
353.1754045017814
 31
0.0
 70
    32
 71
     5
 42
5.299999999999954
  3
DSTYLE1
100
AcDbAlignedDimension
 13
1093.592314630072
 23
332.1919450423221
 33
0.0
 14
1088.292314630072
 24
342.9419450423221
 34
0.0
100
AcDbRotatedDimension
1001
AUSTER_FOLIE
1002
{
1000
NSB00752A
1002
}
1001
AUSTER_ANSICHT
1002
{
1000
Det03
1002
}
1001
ACAD
1000
DSTYLE
1002
{
1070
    41
1040
2.0
1070
    42
1040
1.0
1070
    43
1040
1.0
1070
    47
1040
0.005
1070
    48
1040
-0.005
1070
    77
1070
     0
1070
    78
1070
     0
1070
   143
1040
25.4
1070
   171
1070
     0
1070
   172
1070
     1
1070
   271
1070
     0
1070
   272
1070
     1
1070
   277
1070
     6
1002
}
  0
DIMENSION
  5
2B2B
330
1F
100
AcDbEntity
  8
10100_FRONT_DIM
  6
Continuous
370
    13
100
AcDbDimension
  2
*D8
 10
1142.001814630072
 20
285.441945042322
 30
0.0
 11
1142.001814630072
 21
314.1919450423222
 31
0.0
 70
    32
 71
     5
 42
57.5
  3
DSTYLE1
100
AcDbAlignedDimension
 13
1133.292314630072
 23
342.9419450423221
 33
0.0
 14
1133.292314630072
 24
285.441945042322
 34
0.0
 50
90.0
100
AcDbRotatedDimension
1001
AUSTER_FOLIE
1002
{
1000
NSB00752A
1002
}
1001
AUSTER_ANSICHT
1002
{
1000
Det03
1002
}
1001
ACAD
1000
DSTYLE
1002
{
1070
    41
1040
2.0
1070
    42
1040
1.0
1070
    43
1040
1.0
1070
    47
1040
0.005
1070
    48
1040
-0.005
1070
    77
1070
     0
1070
    78
1070
     0
1070
   143
1040
25.4
1070
   171
1070
     0
1070
   172
1070
     1
1070
   271
1070
     1
1070
   272
1070
     1
1070
   277
1070
     6
1002
}
  0
DIMENSION
  5
2B2C
330
1F
100
AcDbEntity
  8
11100_LEFT_DIM
  6
Continuous
370
    13
100
AcDbDimension
  2
*D9
 10
1162.311750655979
 20
352.8259450423221
 30
0.0
 11
1159.811750655979
 21
352.8259450423221
 31
0.0
 70
   160
 71
     5
 42
5.0
  3
DSTYLE1
100
AcDbAlignedDimension
 13
1157.311750655979
 23
342.921985042322
 33
0.0
 14
1162.311750655979
 24
335.171985042322
 34
0.0
100
AcDbRotatedDimension
1001
AUSTER_FOLIE
1002
{
1000
NSB00752A
1002
}
1001
AUSTER_ANSICHT
1002
{
1000
Det03
1002
}
1001
ACAD
1000
DSTYLE
1002
{
1070
    41
1040
2.0
1070
    42
1040
1.0
1070
    43
1040
1.0
1070
    47
1040
0.005
1070
    48
1040
-0.005
1070
    77
1070
     0
1070
    78
1070
     0
1070
   143
1040
25.4
1070
   171
1070
     0
1070
   172
1070
     1
1070
   271
1070
     0
1070
   272
1070
     1
1070
   277
1070
     6
1070
   279
1070
     0
1002
}
  0
DIMENSION
  5
2B2D
330
1F
100
AcDbEntity
  8
11100_LEFT_DIM
  6
Continuous
370
    13
100
AcDbDimension
  2
*D10
 10
1229.811750655979
 20
352.8259950423222
 30
0.0
 11
1196.061900655979
 21
352.8259950423222
 31
0.0
 70
    32
 71
     5
 42
67.49970000000008
  3
DSTYLE1
100
AcDbAlignedDimension
 13
1162.312050655979
 23
335.1719450423221
 33
0.0
 14
1229.811750655979
 24
329.4683950423221
 34
0.0
100
AcDbRotatedDimension
1001
AUSTER_FOLIE
1002
{
1000
NSB00752A
1002
}
1001
AUSTER_ANSICHT
1002
{
1000
Det03
1002
}
1001
ACAD
1000
DSTYLE
1002
{
1070
    41
1040
2.0
1070
    42
1040
1.0
1070
    43
1040
1.0
1070
    47
1040
0.005
1070
    48
1040
-0.005
1070
    77
1070
     0
1070
    78
1070
     0
1070
   143
1040
25.4
1070
   171
1070
     0
1070
   172
1070
     1
1070
   271
1070
     0
1070
   272
1070
     1
1070
   277
1070
     6
1070
   279
1070
     0
1002
}
  0
LINE
  5
33C9
330
1F
100
AcDbEntity
  8
90000_FRAME
  6
Continuous
 62
     7
100
AcDbLine
 10
1055.918444335711
 20
202.257037917318
 30
0.0
 11
1055.918444335711
 21
402.2570379173179
 31
0.0
  0
LINE
  5
33CA
330
1F
100
AcDbEntity
  8
90000_FRAME
  6
Continuous
 62
     7
100
AcDbLine
 10
1055.918444335711
 20
402.2570379173179
 30
0.0
 11
1325.918444335711
 21
402.2570379173179
 31
0.0
  0
LINE
  5
34F9
330
1F
100
AcDbEntity
  8
11000_Left
  6
Continuous
370
    13
100
AcDbLine
 39
0.5
 10
1204.211750655979
 20
338.9109766999957
 30
0.0
 11
1204.211750655979
 21
341.7219850423222
 31
0.0
1001
AUSTER_ANSICHT
1002
{
1000
Det03
1002
}
1001
AUSTER_FOLIE
1002
{
1000
NSB00752A
1002
}
  0
LINE
  5
34FC
330
1F
100
AcDbEntity
  8
11000_Left
  6
Continuous
370
    13
100
AcDbLine
 39
0.5
 10
1204.211750655979
 20
289.6409790630981
 30
0.0
 11
1204.211750655979
 21
286.721945042322
 31
0.0
1001
AUSTER_ANSICHT
1002
{
1000
Det03
1002
}
1001
AUSTER_FOLIE
1002
{
1000
NSB00752A
1002
}
  0
DIMENSION
  5
352F
102
{ACAD_XDICTIONARY
360
353D
102
}
102
{ACAD_REACTORS
330
3548
102
}
330
1F
100
AcDbEntity
  8
0
100
AcDbDimension
  2
*D12
 10
1076.034992558083
 20
296.191945042322
 30
0.0
 11
1076.034992558083
 21
314.1919650423222
 31
0.0
 70
    32
 71
     5
 42
36.00004000000013
  3
ISO-25
100
AcDbAlignedDimension
 13
1093.592234630072
 23
332.1919850423221
 33
0.0
 14
1093.592234630072
 24
296.191945042322
 34
0.0
 50
90.0
100
AcDbRotatedDimension
  0
ENDSEC
  0
SECTION
  2
OBJECTS
  0
DICTIONARY
  5
C
330
0
100
AcDbDictionary
281
     1
  3
ACAD_COLOR
350
2081
  3
ACAD_GROUP
350
D
  3
ACAD_LAYOUT
350
1A
  3
ACAD_MATERIAL
350
2080
  3
ACAD_MLEADERSTYLE
350
3571
  3
ACAD_MLINESTYLE
350
17
  3
ACAD_PLOTSETTINGS
350
19
  3
ACAD_PLOTSTYLENAME
350
E
  3
ACAD_SCALELIST
350
355F
  3
ACAD_TABLESTYLE
350
34F5
  3
ACAD_VISUALSTYLE
350
34E4
  3
ACDB_RECOMPOSE_DATA
350
358E
  3
AcDbVariableDictionary
350
5E
  3
DWGPROPS
350
358F
  0
DICTIONARY
  5
3577
330
10
100
AcDbDictionary
280
     1
281
     1
  3
ADSK_XREC_LAYER_RECONCILED
360
3578
  0
DICTIONARY
  5
3579
330
2084
100
AcDbDictionary
280
     1
281
     1
  3
ADSK_XREC_LAYER_RECONCILED
360
357A
  0
DICTIONARY
  5
357B
330
2085
100
AcDbDictionary
280
     1
281
     1
  3
ADSK_XREC_LAYER_RECONCILED
360
357C
  0
DICTIONARY
  5
357D
330
214D
100
AcDbDictionary
280
     1
281
     1
  3
ADSK_XREC_LAYER_RECONCILED
360
357E
  0
DICTIONARY
  5
357F
330
214E
100
AcDbDictionary
280
     1
281
     1
  3
ADSK_XREC_LAYER_RECONCILED
360
3580
  0
DICTIONARY
  5
3581
330
214F
100
AcDbDictionary
280
     1
281
     1
  3
ADSK_XREC_LAYER_RECONCILED
360
3582
  0
DICTIONARY
  5
3583
330
2150
100
AcDbDictionary
280
     1
281
     1
  3
ADSK_XREC_LAYER_RECONCILED
360
3584
  0
DICTIONARY
  5
3585
330
3312
100
AcDbDictionary
280
     1
281
     1
  3
ADSK_XREC_LAYER_RECONCILED
360
3586
  0
DICTIONARY
  5
3587
330
3313
100
AcDbDictionary
280
     1
281
     1
  3
ADSK_XREC_LAYER_RECONCILED
360
3588
  0
DICTIONARY
  5
34FA
330
1F
100
AcDbDictionary
280
     1
281
     1
  3
ACAD_SORTENTS
360
34FB
  0
DICTIONARY
  5
353D
330
352F
100
AcDbDictionary
280
     1
281
     1
  3
ACAD_DIMASSOC
360
3548
  0
DICTIONARY
  5
2081
102
{ACAD_REACTORS
330
C
102
}
330
C
100
AcDbDictionary
281
     1
  0
DICTIONARY
  5
D
102
{ACAD_REACTORS
330
C
102
}
330
C
100
AcDbDictionary
281
     1
  0
DICTIONARY
  5
1A
102
{ACAD_REACTORS
330
C
102
}
330
C
100
AcDbDictionary
281
     1
  3
Layout1
350
51
  3
Layout2
350
56
  3
Model
350
22
  0
DICTIONARY
  5
2080
102
{ACAD_REACTORS
330
C
102
}
330
C
100
AcDbDictionary
281
     1
  3
ByBlock
350
34E2
  3
ByLayer
350
34E1
  3
Global
350
34E3
  0
DICTIONARY
  5
3571
102
{ACAD_REACTORS
330
C
102
}
330
C
100
AcDbDictionary
281
     1
  3
Standard
350
3572
  0
DICTIONARY
  5
17
102
{ACAD_REACTORS
330
C
102
}
330
C
100
AcDbDictionary
281
     1
  3
Standard
350
18
  0
DICTIONARY
  5
19
102
{ACAD_REACTORS
330
C
102
}
330
C
100
AcDbDictionary
281
     1
  0
ACDBDICTIONARYWDFLT
  5
E
102
{ACAD_REACTORS
330
C
102
}
330
C
100
AcDbDictionary
281
     1
  3
Normal
350
F
100
AcDbDictionaryWithDefault
340
F
  0
DICTIONARY
  5
355F
102
{ACAD_REACTORS
330
C
102
}
330
C
100
AcDbDictionary
281
     1
  3
A0
350
3560
  3
A1
350
3561
  3
A2
350
3562
  3
A3
350
3563
  3
A4
350
3564
  3
A5
350
3565
  3
A6
350
3566
  3
A7
350
3567
  3
A8
350
3568
  3
A9
350
3569
  3
B0
350
356A
  3
B1
350
356B
  3
B2
350
356C
  3
B3
350
356D
  3
B4
350
356E
  3
B5
350
356F
  3
B6
350
3570
  0
DICTIONARY
  5
34F5
102
{ACAD_REACTORS
330
C
102
}
330
C
100
AcDbDictionary
281
     1
  3
Standard
350
34F6
  0
DICTIONARY
  5
34E4
102
{ACAD_REACTORS
330
C
102
}
330
C
100
AcDbDictionary
281
     1
  3
2dWireframe
350
34EA
  3
3D Hidden
350
34EC
  3
3dWireframe
350
34EB
  3
Basic
350
34E9
  3
Brighten
350
34F0
  3
ColorChange
350
34F4
  3
Conceptual
350
34ED
  3
Dim
350
34EF
  3
EdgeColorOff
350
355E
  3
Facepattern
350
34F3
  3
Flat
350
34E5
  3
FlatWithEdges
350
34E6
  3
Gouraud
350
34E7
  3
GouraudWithEdges
350
34E8
  3
Hidden
350
3556
  3
JitterOff
350
355C
  3
Linepattern
350
34F2
  3
OverhangOff
350
355D
  3
Realistic
350
34EE
  3
Shaded
350
355B
  3
Shaded with edges
350
355A
  3
Shades of Gray
350
3557
  3
Sketchy
350
3558
  3
Thicken
350
34F1
  3
Wireframe
350
3555
  3
X-Ray
350
3559
  0
XRECORD
  5
358E
102
{ACAD_REACTORS
330
C
102
}
330
C
100
AcDbXrecord
280
     1
 90
        1
330
34F6
  0
DICTIONARY
  5
5E
102
{ACAD_REACTORS
330
C
102
}
330
C
100
AcDbDictionary
281
     1
  3
CANNOSCALE
350
358A
  3
CMLEADERSTYLE
350
3589
  3
CTABLESTYLE
350
34FD
  3
DIMASSOC
350
5F
  3
HIDETEXT
350
63
  3
INDEXCTL
350
34FF
  3
PROJECTNAME
350
34C2
  3
SORTENTS
350
34FE
  3
XCLIPFRAME
350
358B
  0
XRECORD
  5
358F
102
{ACAD_REACTORS
330
C
102
}
330
C
100
AcDbXrecord
280
     1
  1
DWGPROPS COOKIE
  2

  3

  4

  6

  7

  8
uwfo
  9

300
=
301
=
302
=
303
=
304
=
305
=
306
=
307
=
308
=
309
=
 40
0.0772234490740741
 41
2452662.472983287
 42
2455744.559251725
  1

 90
        0
  0
XRECORD
  5
3578
102
{ACAD_REACTORS
330
3577
102
}
330
3577
100
AcDbXrecord
280
     1
290
     1
  0
XRECORD
  5
357A
102
{ACAD_REACTORS
330
3579
102
}
330
3579
100
AcDbXrecord
280
     1
290
     1
  0
XRECORD
  5
357C
102
{ACAD_REACTORS
330
357B
102
}
330
357B
100
AcDbXrecord
280
     1
290
     1
  0
XRECORD
  5
357E
102
{ACAD_REACTORS
330
357D
102
}
330
357D
100
AcDbXrecord
280
     1
290
     1
  0
XRECORD
  5
3580
102
{ACAD_REACTORS
330
357F
102
}
330
357F
100
AcDbXrecord
280
     1
290
     1
  0
XRECORD
  5
3582
102
{ACAD_REACTORS
330
3581
102
}
330
3581
100
AcDbXrecord
280
     1
290
     1
  0
XRECORD
  5
3584
102
{ACAD_REACTORS
330
3583
102
}
330
3583
100
AcDbXrecord
280
     1
290
     1
  0
XRECORD
  5
3586
102
{ACAD_REACTORS
330
3585
102
}
330
3585
100
AcDbXrecord
280
     1
290
     1
  0
XRECORD
  5
3588
102
{ACAD_REACTORS
330
3587
102
}
330
3587
100
AcDbXrecord
280
     1
290
     1
  0
SORTENTSTABLE
  5
34FB
102
{ACAD_REACTORS
330
34FA
102
}
330
34FA
100
AcDbSortentsTable
330
1F
331
29B1
  5
29B1
331
29F0
  5
29F0
331
11B
  5
11B
331
2982
  5
2982
331
298A
  5
298A
331
29B9
  5
29B9
331
29F8
  5
29F8
331
2A00
  5
2A00
331
2992
  5
2992
331
29C1
  5
29C1
331
2AE0
  5
2AE0
331
2A2B
  5
2A2B
331
2A08
  5
2A08
331
2A6A
  5
2A6A
331
2AA1
  5
2AA1
331
2093
  5
2093
331
299A
  5
299A
331
29C9
  5
29C9
331
2AA9
  5
2AA9
331
2AE8
  5
2AE8
331
2A33
  5
2A33
331
2A72
  5
2A72
331
2B1F
  5
2B21
331
2AB1
  5
2AB1
331
2AF0
  5
2AF0
331
2A3B
  5
2A3B
331
2A7A
  5
2A7A
331
34F9
  5
2B14
331
2A82
  5
2A82
331
2AB9
  5
2AB9
331
2A43
  5
2A43
331
2AF8
  5
2AF8
331
29D1
  5
29D1
331
2A10
  5
2A10
331
29A2
  5
29A2
331
29D9
  5
29D9
331
2A18
  5
2A18
331
2A20
  5
2A20
331
29AA
  5
29AA
331
29E1
  5
29E1
331
2973
  5
2973
331
2B00
  5
2B00
331
2A4B
  5
2A4B
331
2A8A
  5
2A8A
331
2AC1
  5
2AC1
331
297B
  5
297B
331
29E9
  5
29E9
331
2B08
  5
2B08
331
2A53
  5
2A53
331
2A92
  5
2A92
331
2AC9
  5
2AC9
331
2AD1
  5
2AD1
331
2B10
  5
2B10
331
2A5B
  5
2A5B
331
2A9A
  5
2A9A
331
2AD9
  5
2AD9
331
2A63
  5
2A63
331
2B26
  5
2B28
331
29F1
  5
29F1
331
11C
  5
11C
331
2983
  5
2983
331
29B2
  5
29B2
331
29BA
  5
29BA
331
29F9
  5
29F9
331
124
  5
124
331
298B
  5
298B
331
29C2
  5
29C2
331
2A01
  5
2A01
331
2993
  5
2993
331
2B18
  5
2B1A
331
2AA2
  5
2AA2
331
2AE1
  5
2AE1
331
2A2C
  5
2A2C
331
299B
  5
299B
331
29CA
  5
29CA
331
2094
  5
2094
331
2A09
  5
2A09
331
2A6B
  5
2A6B
331
2A73
  5
2A73
331
2AAA
  5
2AAA
331
2A34
  5
2A34
331
2AE9
  5
2AE9
331
2AF1
  5
2AF1
331
2A3C
  5
2A3C
331
2A7B
  5
2A7B
331
2AB2
  5
2AB2
331
2ABA
  5
2ABA
331
2AF9
  5
2AF9
331
2A44
  5
2A44
331
2A83
  5
2A83
331
2A11
  5
2A11
331
29D2
  5
29D2
331
2A19
  5
2A19
331
296C
  5
296C
331
29A3
  5
29A3
331
29DA
  5
29DA
331
29E2
  5
29E2
331
2A21
  5
2A21
331
2974
  5
2974
331
29AB
  5
29AB
331
2AC2
  5
2AC2
331
2B01
  5
2B01
331
29EA
  5
29EA
331
2A4C
  5
2A4C
331
297C
  5
297C
331
2A8B
  5
2A8B
331
2A93
  5
2A93
331
2ACA
  5
2ACA
331
2A54
  5
2A54
331
2B09
  5
2B09
331
2B11
  5
2B12
331
2A5C
  5
2A5C
331
2A9B
  5
2A9B
331
2AD2
  5
2AD2
331
2A64
  5
2A64
331
2ADA
  5
2ADA
331
2B27
  5
2B29
331
29B3
  5
29B3
331
29F2
  5
29F2
331
11D
  5
11D
331
2984
  5
2984
331
298C
  5
298C
331
29BB
  5
29BB
331
29FA
  5
29FA
331
2A02
  5
2A02
331
2994
  5
2994
331
29C3
  5
29C3
331
2AE2
  5
2AE2
331
2B19
  5
2B1B
331
2A2D
  5
2A2D
331
29CB
  5
29CB
331
2A0A
  5
2A0A
331
2A6C
  5
2A6C
331
2095
  5
2095
331
299C
  5
299C
331
2AA3
  5
2AA3
331
2AAB
  5
2AAB
331
2AEA
  5
2AEA
331
2A35
  5
2A35
331
2A74
  5
2A74
331
33C9
  5
34F9
331
2AB3
  5
2AB3
331
2AF2
  5
2AF2
331
2A3D
  5
2A3D
331
2A7C
  5
2A7C
331
2A84
  5
2A84
331
2ABB
  5
2ABB
331
2A45
  5
2A45
331
2AFA
  5
2AFA
331
29D3
  5
29D3
331
2A12
  5
2A12
331
29A4
  5
29A4
331
29DB
  5
29DB
331
296D
  5
296D
331
2A1A
  5
2A1A
331
2A22
  5
2A22
331
2975
  5
2975
331
29AC
  5
29AC
331
29E3
  5
29E3
331
2B02
  5
2B02
331
2A4D
  5
2A4D
331
2A8C
  5
2A8C
331
2AC3
  5
2AC3
331
297D
  5
297D
331
29EB
  5
29EB
331
2ACB
  5
2ACB
331
2B0A
  5
2B0A
331
2A55
  5
2A55
331
2A94
  5
2A94
331
2AD3
  5
2AD3
331
2B12
  5
2B13
331
2A5D
  5
2A5D
331
2A9C
  5
2A9C
331
2B28
  5
2B2A
331
2ADB
  5
2ADB
331
2A65
  5
2A65
331
2B20
  5
2B22
331
29F3
  5
29F3
331
11E
  5
11E
331
2985
  5
2985
331
29B4
  5
29B4
331
29BC
  5
29BC
331
29FB
  5
29FB
331
126
  5
126
331
298D
  5
298D
331
29C4
  5
29C4
331
2A03
  5
2A03
331
2995
  5
2995
331
2B1A
  5
2B1C
331
2A6D
  5
2A6D
331
2AA4
  5
2AA4
331
2A2E
  5
2A2E
331
2AE3
  5
2AE3
331
299D
  5
299D
331
29CC
  5
29CC
331
2096
  5
2096
331
2A0B
  5
2A0B
331
33CA
  5
34FC
331
2A75
  5
2A75
331
2AAC
  5
2AAC
331
2A36
  5
2A36
331
2AEB
  5
2AEB
331
2AF3
  5
2AF3
331
2A3E
  5
2A3E
331
2A7D
  5
2A7D
331
2AB4
  5
2AB4
331
2ABC
  5
2ABC
331
2AFB
  5
2AFB
331
2A46
  5
2A46
331
2A85
  5
2A85
331
34FC
  5
2B11
331
2A13
  5
2A13
331
29D4
  5
29D4
331
29DC
  5
29DC
331
2A1B
  5
2A1B
331
296E
  5
296E
331
29A5
  5
29A5
331
29E4
  5
29E4
331
2A23
  5
2A23
331
2976
  5
2976
331
29AD
  5
29AD
331
2AC4
  5
2AC4
331
2B03
  5
2B03
331
29EC
  5
29EC
331
2A4E
  5
2A4E
331
297E
  5
297E
331
2A8D
  5
2A8D
331
2A95
  5
2A95
331
2ACC
  5
2ACC
331
2A56
  5
2A56
331
2B0B
  5
2B0B
331
2B13
  5
2B15
331
2A5E
  5
2A5E
331
2A9D
  5
2A9D
331
2AD4
  5
2AD4
331
2ADC
  5
2ADC
331
2A66
  5
2A66
331
2B29
  5
2B2B
331
2B21
  5
2B23
331
2986
  5
2986
331
29B5
  5
29B5
331
11F
  5
11F
331
29F4
  5
29F4
331
298E
  5
298E
331
29BD
  5
29BD
331
29FC
  5
29FC
331
2A04
  5
2A04
331
2996
  5
2996
331
29C5
  5
29C5
331
2AE4
  5
2AE4
331
2B1B
  5
2B1D
331
2A2F
  5
2A2F
331
29CD
  5
29CD
331
2A0C
  5
2A0C
331
2A6E
  5
2A6E
331
2097
  5
2097
331
299E
  5
299E
331
2AA5
  5
2AA5
331
2AAD
  5
2AAD
331
2AEC
  5
2AEC
331
2A37
  5
2A37
331
2A76
  5
2A76
331
2A7E
  5
2A7E
331
2AB5
  5
2AB5
331
2A3F
  5
2A3F
331
2AF4
  5
2AF4
331
2A86
  5
2A86
331
2ABD
  5
2ABD
331
2A47
  5
2A47
331
2AFC
  5
2AFC
331
29D5
  5
29D5
331
2A14
  5
2A14
331
29A6
  5
29A6
331
29DD
  5
29DD
331
296F
  5
296F
331
2A1C
  5
2A1C
331
2A24
  5
2A24
331
2977
  5
2977
331
29AE
  5
29AE
331
29E5
  5
29E5
331
2B04
  5
2B04
331
29ED
  5
29ED
331
2A4F
  5
2A4F
331
297F
  5
297F
331
2A8E
  5
2A8E
331
2AC5
  5
2AC5
331
2ACD
  5
2ACD
331
2B0C
  5
2B0C
331
2A57
  5
2A57
331
2A96
  5
2A96
331
2AD5
  5
2AD5
331
2B14
  5
2B16
331
2A5F
  5
2A5F
331
2A9E
  5
2A9E
331
2B2A
  5
2B2C
331
2ADD
  5
2ADD
331
2A67
  5
2A67
331
2B22
  5
2B24
331
118
  5
118
331
29F5
  5
29F5
331
120
  5
120
331
2987
  5
2987
331
29B6
  5
29B6
331
29BE
  5
29BE
331
29FD
  5
29FD
331
298F
  5
298F
331
2A28
  5
2A28
331
2997
  5
2997
331
29C6
  5
29C6
331
2A05
  5
2A05
331
2B1C
  5
2B1E
331
2A6F
  5
2A6F
331
2AA6
  5
2AA6
331
2A30
  5
2A30
331
2AE5
  5
2AE5
331
299F
  5
299F
331
29CE
  5
29CE
331
2A0D
  5
2A0D
331
2AED
  5
2AED
331
2A77
  5
2A77
331
2AAE
  5
2AAE
331
2A38
  5
2A38
331
2AF5
  5
2AF5
331
2A40
  5
2A40
331
2A7F
  5
2A7F
331
2AB6
  5
2AB6
331
2ABE
  5
2ABE
331
2AFD
  5
2AFD
331
2A87
  5
2A87
331
2098
  5
2098
331
2A15
  5
2A15
331
29D6
  5
29D6
331
29DE
  5
29DE
331
2A1D
  5
2A1D
331
2970
  5
2970
331
29A7
  5
29A7
331
2A48
  5
2A48
331
29E6
  5
29E6
331
2A25
  5
2A25
331
2978
  5
2978
331
29AF
  5
29AF
331
2A8F
  5
2A8F
331
2AC6
  5
2AC6
331
29EE
  5
29EE
331
2A50
  5
2A50
331
2B05
  5
2B05
331
2A97
  5
2A97
331
2ACE
  5
2ACE
331
2A58
  5
2A58
331
2B0D
  5
2B0D
331
2B15
  5
2B17
331
2A60
  5
2A60
331
2A9F
  5
2A9F
331
2AD6
  5
2AD6
331
2ADE
  5
2ADE
331
2B2B
  5
2B2D
331
2B23
  5
2B25
331
119
  5
119
331
2980
  5
2980
331
2988
  5
2988
331
29B7
  5
29B7
331
121
  5
121
331
29F6
  5
29F6
331
29FE
  5
29FE
331
2990
  5
2990
331
29BF
  5
29BF
331
129
  5
129
331
2A29
  5
2A29
331
2A06
  5
2A06
331
2A68
  5
2A68
331
2998
  5
2998
331
29C7
  5
29C7
331
2AE6
  5
2AE6
331
2B1D
  5
2B1F
331
2A31
  5
2A31
331
29CF
  5
29CF
331
2A0E
  5
2A0E
331
2A70
  5
2A70
331
2AA7
  5
2AA7
331
2AAF
  5
2AAF
331
2AEE
  5
2AEE
331
2A39
  5
2A39
331
2A78
  5
2A78
331
2A80
  5
2A80
331
2AB7
  5
2AB7
331
2A41
  5
2A41
331
2AF6
  5
2AF6
331
2AFE
  5
2AFE
331
2ABF
  5
2ABF
331
2099
  5
2099
331
29A0
  5
29A0
331
29D7
  5
29D7
331
2A16
  5
2A16
331
29A8
  5
29A8
331
29DF
  5
29DF
331
2971
  5
2971
331
2A1E
  5
2A1E
331
2A88
  5
2A88
331
2A26
  5
2A26
331
2979
  5
2979
331
29E7
  5
29E7
331
2A49
  5
2A49
331
2B06
  5
2B06
331
29EF
  5
29EF
331
2A51
  5
2A51
331
2A90
  5
2A90
331
2AC7
  5
2AC7
331
2ACF
  5
2ACF
331
2B0E
  5
2B0E
331
2A59
  5
2A59
331
2A98
  5
2A98
331
117
  5
117
331
2AD7
  5
2AD7
331
2A61
  5
2A61
331
2B16
  5
2B18
331
2B2C
  5
33C9
331
2ADF
  5
2ADF
331
2B24
  5
2B26
331
11A
  5
11A
331
2981
  5
2981
331
29B0
  5
29B0
331
29F7
  5
29F7
331
2989
  5
2989
331
29B8
  5
29B8
331
29C0
  5
29C0
331
29FF
  5
29FF
331
12A
  5
12A
331
2991
  5
2991
331
2AA0
  5
2AA0
331
2A2A
  5
2A2A
331
2999
  5
2999
331
29C8
  5
29C8
331
2A07
  5
2A07
331
2A69
  5
2A69
331
2B1E
  5
2B20
331
2A71
  5
2A71
331
2AA8
  5
2AA8
331
2A0F
  5
2A0F
331
2A32
  5
2A32
331
2AE7
  5
2AE7
331
2AEF
  5
2AEF
331
2A3A
  5
2A3A
331
2A79
  5
2A79
331
2AB0
  5
2AB0
331
2AF7
  5
2AF7
331
2A42
  5
2A42
331
2A81
  5
2A81
331
2AB8
  5
2AB8
331
2AFF
  5
2AFF
331
29D0
  5
29D0
331
209A
  5
209A
331
2A17
  5
2A17
331
29A1
  5
29A1
331
29D8
  5
29D8
331
29E0
  5
29E0
331
2A1F
  5
2A1F
331
2972
  5
2972
331
29A9
  5
29A9
331
2AC0
  5
2AC0
331
2A4A
  5
2A4A
331
29E8
  5
29E8
331
297A
  5
297A
331
2A27
  5
2A27
331
2A89
  5
2A89
331
2A91
  5
2A91
331
2AC8
  5
2AC8
331
2A52
  5
2A52
331
2B07
  5
2B07
331
2B0F
  5
2B0F
331
2A99
  5
2A99
331
2AD0
  5
2AD0
331
2A5A
  5
2A5A
331
2B17
  5
2B19
331
2A62
  5
2A62
331
2AD8
  5
2AD8
331
2B2D
  5
33CA
331
2B25
  5
2B27
  0
DIMASSOC
  5
3548
102
{ACAD_REACTORS
330
353D
102
}
330
353D
100
AcDbDimAssoc
330
352F
 90
        3
 70
     0
 71
     0
  1
AcDbOsnapPointRef
 72
     3
331
29AA
 73
     2
 91
        0
 40
0.0
 10
0.0
 20
0.0
 30
0.0
 75
     0
  1
AcDbOsnapPointRef
 72
     3
331
29A0
 73
     2
 91
        0
 40
1.288690905813373
 10
0.0
 20
0.0
 30
0.0
 75
     0
  0
LAYOUT
  5
51
102
{ACAD_XDICTIONARY
360
3592
102
}
102
{ACAD_REACTORS
330
1A
102
}
330
1A
100
AcDbPlotSettings
  1

  2
None
  4

  6

 40
0.0
 41
0.0
 42
0.0
 43
0.0
 44
0.0
 45
0.0
 46
0.0
 47
0.0
 48
0.0
 49
0.0
140
0.0
141
0.0
142
1.0
143
1.0
 70
   688
 72
     0
 73
     0
 74
     5
  7

 75
    16
147
1.0
148
0.0
149
0.0
100
AcDbLayout
  1
Layout1
 70
     1
 71
     1
 10
0.0
 20
0.0
 11
12.0
 21
9.0
 12
0.0
 22
0.0
 32
0.0
 14
0.0
 24
0.0
 34
0.0
 15
0.0
 25
0.0
 35
0.0
146
0.0
 13
0.0
 23
0.0
 33
0.0
 16
1.0
 26
0.0
 36
0.0
 17
0.0
 27
1.0
 37
0.0
 76
     0
330
50
  0
LAYOUT
  5
56
102
{ACAD_XDICTIONARY
360
3594
102
}
102
{ACAD_REACTORS
330
1A
102
}
330
1A
100
AcDbPlotSettings
  1

  2
None
  4

  6

 40
0.0
 41
0.0
 42
0.0
 43
0.0
 44
0.0
 45
0.0
 46
0.0
 47
0.0
 48
0.0
 49
0.0
140
0.0
141
0.0
142
1.0
143
1.0
 70
   688
 72
     0
 73
     0
 74
     5
  7

 75
    16
147
1.0
148
0.0
149
0.0
100
AcDbLayout
  1
Layout2
 70
     1
 71
     2
 10
0.0
 20
0.0
 11
12.0
 21
9.0
 12
0.0
 22
0.0
 32
0.0
 14
0.0
 24
0.0
 34
0.0
 15
0.0
 25
0.0
 35
0.0
146
0.0
 13
0.0
 23
0.0
 33
0.0
 16
1.0
 26
0.0
 36
0.0
 17
0.0
 27
1.0
 37
0.0
 76
     0
330
55
  0
LAYOUT
  5
22
102
{ACAD_XDICTIONARY
360
3590
102
}
102
{ACAD_REACTORS
330
1A
102
}
330
1A
100
AcDbPlotSettings
  1

  2
\\AMBW779A\A_P00873 (Canon iR2200-3300 PCL6)
  4
A4
  6

 40
4.815417
 41
4.815412
 42
4.815413999999996
 43
4.81543
 44
209.973328
 45
296.925995
 46
0.0
 47
0.0
 48
0.0
 49
0.0
140
0.0
141
0.0
142
1.0
143
1.0
 70
 11952
 72
     1
 73
     1
 74
     1
  7
monochrome.ctb
 75
    16
147
1.0
148
-1055.862915891527
149
-202.2335948552433
100
AcDbLayout
  1
Model
 70
     1
 71
     0
 10
0.0
 20
0.0
 11
12.0
 21
9.0
 12
0.0
 22
0.0
 32
0.0
 14
0.0
 24
0.0
 34
0.0
 15
0.0
 25
0.0
 35
0.0
146
0.0
 13
0.0
 23
0.0
 33
0.0
 16
1.0
 26
0.0
 36
0.0
 17
0.0
 27
1.0
 37
0.0
 76
     0
330
1F
331
34D3
  0
MATERIAL
  5
34E2
102
{ACAD_XDICTIONARY
360
3509
102
}
102
{ACAD_REACTORS
330
2080
102
}
330
2080
100
AcDbMaterial
  1
ByBlock
  0
MATERIAL
  5
34E1
102
{ACAD_XDICTIONARY
360
3507
102
}
102
{ACAD_REACTORS
330
2080
102
}
330
2080
100
AcDbMaterial
  1
ByLayer
  0
MATERIAL
  5
34E3
102
{ACAD_XDICTIONARY
360
350B
102
}
102
{ACAD_REACTORS
330
2080
102
}
330
2080
100
AcDbMaterial
  1
Global
  0
MLEADERSTYLE
  5
3572
102
{ACAD_REACTORS
330
3571
102
}
330
3571
100
AcDbMLeaderStyle
170
     2
171
     1
172
     0
 90
        2
 40
0.0
 41
0.0
173
     1
 91
-1056964608
340
14
 92
       -2
290
     1
 42
2.0
291
     1
 43
0.36
  3
Standard
 44
4.0
300

342
11
174
     1
178
     6
175
     1
176
     0
 93
-1056964608
 45
4.0
292
     0
297
     0
 46
4.0
 94
-1056964608
 47
1.0
 49
1.0
140
1.0
293
     1
141
0.0
294
     1
177
     0
142
1.0
295
     0
296
     0
143
0.125
1001
ACAD_MLEADERVER
1070
     2
  0
MLINESTYLE
  5
18
102
{ACAD_REACTORS
330
17
102
}
330
17
100
AcDbMlineStyle
  2
STANDARD
 70
     0
  3

 62
   256
 51
90.0
 52
90.0
 71
     2
 49
0.5
 62
   256
  6
BYLAYER
 49
-0.5
 62
   256
  6
BYLAYER
  0
ACDBPLACEHOLDER
  5
F
102
{ACAD_REACTORS
330
E
102
}
330
E
  0
SCALE
  5
3560
102
{ACAD_REACTORS
330
355F
102
}
330
355F
100
AcDbScale
 70
     0
300
1:1
140
1.0
141
1.0
290
     1
  0
SCALE
  5
3561
102
{ACAD_REACTORS
330
355F
102
}
330
355F
100
AcDbScale
 70
     0
300
1:2
140
1.0
141
2.0
290
     0
  0
SCALE
  5
3562
102
{ACAD_REACTORS
330
355F
102
}
330
355F
100
AcDbScale
 70
     0
300
1:4
140
1.0
141
4.0
290
     0
  0
SCALE
  5
3563
102
{ACAD_REACTORS
330
355F
102
}
330
355F
100
AcDbScale
 70
     0
300
1:5
140
1.0
141
5.0
290
     0
  0
SCALE
  5
3564
102
{ACAD_REACTORS
330
355F
102
}
330
355F
100
AcDbScale
 70
     0
300
1:8
140
1.0
141
8.0
290
     0
  0
SCALE
  5
3565
102
{ACAD_REACTORS
330
355F
102
}
330
355F
100
AcDbScale
 70
     0
300
1:10
140
1.0
141
10.0
290
     0
  0
SCALE
  5
3566
102
{ACAD_REACTORS
330
355F
102
}
330
355F
100
AcDbScale
 70
     0
300
1:16
140
1.0
141
16.0
290
     0
  0
SCALE
  5
3567
102
{ACAD_REACTORS
330
355F
102
}
330
355F
100
AcDbScale
 70
     0
300
1:20
140
1.0
141
20.0
290
     0
  0
SCALE
  5
3568
102
{ACAD_REACTORS
330
355F
102
}
330
355F
100
AcDbScale
 70
     0
300
1:30
140
1.0
141
30.0
290
     0
  0
SCALE
  5
3569
102
{ACAD_REACTORS
330
355F
102
}
330
355F
100
AcDbScale
 70
     0
300
1:40
140
1.0
141
40.0
290
     0
  0
SCALE
  5
356A
102
{ACAD_REACTORS
330
355F
102
}
330
355F
100
AcDbScale
 70
     0
300
1:50
140
1.0
141
50.0
290
     0
  0
SCALE
  5
356B
102
{ACAD_REACTORS
330
355F
102
}
330
355F
100
AcDbScale
 70
     0
300
1:100
140
1.0
141
100.0
290
     0
  0
SCALE
  5
356C
102
{ACAD_REACTORS
330
355F
102
}
330
355F
100
AcDbScale
 70
     0
300
2:1
140
2.0
141
1.0
290
     0
  0
SCALE
  5
356D
102
{ACAD_REACTORS
330
355F
102
}
330
355F
100
AcDbScale
 70
     0
300
4:1
140
4.0
141
1.0
290
     0
  0
SCALE
  5
356E
102
{ACAD_REACTORS
330
355F
102
}
330
355F
100
AcDbScale
 70
     0
300
8:1
140
8.0
141
1.0
290
     0
  0
SCALE
  5
356F
102
{ACAD_REACTORS
330
355F
102
}
330
355F
100
AcDbScale
 70
     0
300
10:1
140
10.0
141
1.0
290
     0
  0
SCALE
  5
3570
102
{ACAD_REACTORS
330
355F
102
}
330
355F
100
AcDbScale
 70
     0
300
100:1
140
100.0
141
1.0
290
     0
  0
TABLESTYLE
  5
34F6
102
{ACAD_XDICTIONARY
360
358C
102
}
102
{ACAD_REACTORS
330
34F5
102
}
330
34F5
100
AcDbTableStyle
  3
Standard
 70
     0
 71
     0
 40
1.5
 41
1.5
280
     0
281
     0
  7
Standard
140
4.5
170
     2
 62
     0
 63
     7
283
     0
274
    -2
284
     1
 64
     0
275
    -2
285
     1
 65
     0
276
    -2
286
     1
 66
     0
277
    -2
287
     1
 67
     0
278
    -2
288
     1
 68
     0
279
    -2
289
     1
 69
     0
  7
Standard
140
6.0
170
     5
 62
     0
 63
     7
283
     0
274
    -2
284
     1
 64
     0
275
    -2
285
     1
 65
     0
276
    -2
286
     1
 66
     0
277
    -2
287
     1
 67
     0
278
    -2
288
     1
 68
     0
279
    -2
289
     1
 69
     0
  7
Standard
140
4.5
170
     5
 62
     0
 63
     7
283
     0
274
    -2
284
     1
 64
     0
275
    -2
285
     1
 65
     0
276
    -2
286
     1
 66
     0
277
    -2
287
     1
 67
     0
278
    -2
288
     1
 68
     0
279
    -2
289
     1
 69
     0
  0
VISUALSTYLE
  5
34EA
102
{ACAD_XDICTIONARY
360
35A0
102
}
102
{ACAD_REACTORS
330
34E4
102
}
330
34E4
100
AcDbVisualStyle
  2

 70
     4
 71
     0
 72
     2
 73
     0
 90
        0
 40
-0.6
 41
-30.0
 62
     5
 63
     7
 74
     1
 91
        4
 64
     7
 65
   257
 75
     1
175
     1
 42
1.0
 92
        0
 66
   257
 43
1.0
 76
     1
 77
     6
 78
     2
 67
     7
 79
     5
170
     0
171
     0
290
     0
174
     0
 93
        1
 44
0.0
173
     0
291
     0
 45
0.0
1001
ACAD
1000
AcDbSavedByObjectVersion
1070
     0
  0
VISUALSTYLE
  5
34EC
102
{ACAD_XDICTIONARY
360
35A4
102
}
102
{ACAD_REACTORS
330
34E4
102
}
330
34E4
100
AcDbVisualStyle
  2

 70
     6
 71
     1
 72
     2
 73
     2
 90
        0
 40
-0.6
 41
-30.0
 62
     5
 63
     7
 74
     2
 91
        2
 64
     7
 65
   257
 75
     2
175
     1
 42
40.0
 92
        0
 66
   257
 43
1.0
 76
     1
 77
     6
 78
     2
 67
     7
 79
     3
170
     0
171
     0
290
     0
174
     0
 93
        1
 44
0.0
173
     0
291
     0
 45
0.0
1001
ACAD
1000
AcDbSavedByObjectVersion
1070
     0
  0
VISUALSTYLE
  5
34EB
102
{ACAD_XDICTIONARY
360
35A2
102
}
102
{ACAD_REACTORS
330
34E4
102
}
330
34E4
100
AcDbVisualStyle
  2

 70
     5
 71
     0
 72
     2
 73
     0
 90
        0
 40
-0.6
 41
-30.0
 62
     5
 63
     7
 74
     1
 91
        4
 64
     7
 65
   257
 75
     1
175
     1
 42
1.0
 92
        0
 66
   257
 43
1.0
 76
     1
 77
     6
 78
     2
 67
     7
 79
     5
170
     0
171
     0
290
     0
174
     0
 93
        1
 44
0.0
173
     0
291
     0
 45
0.0
1001
ACAD
1000
AcDbSavedByObjectVersion
1070
     0
  0
VISUALSTYLE
  5
34E9
102
{ACAD_XDICTIONARY
360
359E
102
}
102
{ACAD_REACTORS
330
34E4
102
}
330
34E4
100
AcDbVisualStyle
  2

 70
     7
 71
     1
 72
     0
 73
     1
 90
        0
 40
-0.6
 41
-30.0
 62
     5
 63
     7
 74
     0
 91
        4
 64
     7
 65
   257
 75
     1
175
     1
 42
1.0
 92
        8
 66
     7
 43
1.0
 76
     1
 77
     6
 78
     2
 67
     7
 79
     5
170
     0
171
     0
290
     0
174
     0
 93
        1
 44
0.0
173
     0
291
     1
 45
0.0
1001
ACAD
1000
AcDbSavedByObjectVersion
1070
     0
  0
VISUALSTYLE
  5
34F0
102
{ACAD_XDICTIONARY
360
35AC
102
}
102
{ACAD_REACTORS
330
34E4
102
}
330
34E4
100
AcDbVisualStyle
  2

 70
    12
 71
     2
 72
     2
 73
     0
 90
        0
 40
-0.6
 41
-30.0
 62
     5
 63
     7
 74
     1
 91
        4
 64
     7
 65
   257
 75
     1
175
     1
 42
1.0
 92
        8
 66
     7
 43
1.0
 76
     1
 77
     6
 78
     2
 67
     7
 79
     5
170
     0
171
     0
290
     0
174
     0
 93
        1
 44
50.0
173
     0
291
     1
 45
0.0
1001
ACAD
1000
AcDbSavedByObjectVersion
1070
     0
  0
VISUALSTYLE
  5
34F4
102
{ACAD_XDICTIONARY
360
35B4
102
}
102
{ACAD_REACTORS
330
34E4
102
}
330
34E4
100
AcDbVisualStyle
  2

 70
    16
 71
     2
 72
     2
 73
     3
 90
        0
 40
-0.6
 41
-30.0
 62
     5
 63
     8
 74
     1
 91
        4
 64
     7
 65
   257
 75
     1
175
     1
 42
1.0
 92
        8
 66
     8
 43
1.0
 76
     1
 77
     6
 78
     2
 67
     7
 79
     5
170
     0
171
     0
290
     0
174
     0
 93
        1
 44
0.0
173
     0
291
     1
 45
0.0
1001
ACAD
1000
AcDbSavedByObjectVersion
1070
     0
  0
VISUALSTYLE
  5
34ED
102
{ACAD_XDICTIONARY
360
35A6
102
}
102
{ACAD_REACTORS
330
34E4
102
}
330
34E4
100
AcDbVisualStyle
  2

 70
     9
 71
     3
 72
     2
 73
     0
 90
        0
 40
-0.6
 41
-30.0
 62
     5
 63
     7
 74
     2
 91
        2
 64
     7
 65
   257
 75
     1
175
     1
 42
40.0
 92
        8
 66
     7
 43
1.0
 76
     1
 77
     6
 78
     2
 67
     7
 79
     3
170
     0
171
     0
290
     0
174
     0
 93
        1
 44
0.0
173
     0
291
     0
 45
0.0
1001
ACAD
1000
AcDbSavedByObjectVersion
1070
     0
  0
VISUALSTYLE
  5
34EF
102
{ACAD_XDICTIONARY
360
35AA
102
}
102
{ACAD_REACTORS
330
34E4
102
}
330
34E4
100
AcDbVisualStyle
  2

 70
    11
 71
     2
 72
     2
 73
     0
 90
        0
 40
-0.6
 41
-30.0
 62
     5
 63
     7
 74
     1
 91
        4
 64
     7
 65
   257
 75
     1
175
     1
 42
1.0
 92
        8
 66
     7
 43
1.0
 76
     1
 77
     6
 78
     2
 67
     7
 79
     5
170
     0
171
     0
290
     0
174
     0
 93
        1
 44
-50.0
173
     0
291
     1
 45
0.0
1001
ACAD
1000
AcDbSavedByObjectVersion
1070
     0
  0
VISUALSTYLE
  5
355E
102
{ACAD_XDICTIONARY
360
35C9
102
}
102
{ACAD_REACTORS
330
34E4
102
}
330
34E4
100
AcDbVisualStyle
  2
EdgeColorOff
 70
    22
 71
     2
 72
     2
 73
     0
 90
        0
 40
-0.6
 41
-30.0
 62
     5
 63
     7
 74
     1
 91
        4
 64
     7
 65
   257
 75
     1
175
     1
 42
1.0
 92
        8
 66
     7
 43
1.0
 76
     1
 77
     6
 78
     2
 67
     7
 79
     5
170
     0
171
     0
290
     0
174
     0
 93
        1
 44
0.0
173
     0
291
     1
 45
0.0
1001
ACAD
1000
AcDbSavedByObjectVersion
1070
     0
  0
VISUALSTYLE
  5
34F3
102
{ACAD_XDICTIONARY
360
35B2
102
}
102
{ACAD_REACTORS
330
34E4
102
}
330
34E4
100
AcDbVisualStyle
  2

 70
    15
 71
     2
 72
     2
 73
     0
 90
        0
 40
-0.6
 41
-30.0
 62
     5
 63
     7
 74
     1
 91
        4
 64
     7
 65
   257
 75
     1
175
     1
 42
1.0
 92
        8
 66
     7
 43
1.0
 76
     1
 77
     6
 78
     2
 67
     7
 79
     5
170
     0
171
     0
290
     0
174
     0
 93
        1
 44
0.0
173
     0
291
     1
 45
0.0
1001
ACAD
1000
AcDbSavedByObjectVersion
1070
     0
  0
VISUALSTYLE
  5
34E5
102
{ACAD_XDICTIONARY
360
3596
102
}
102
{ACAD_REACTORS
330
34E4
102
}
330
34E4
100
AcDbVisualStyle
  2

 70
     0
 71
     2
 72
     1
 73
     1
 90
        2
 40
-0.6
 41
30.0
 62
     5
 63
     7
 74
     0
 91
        4
 64
     7
 65
   257
 75
     1
175
     1
 42
1.0
 92
        8
 66
     7
 43
1.0
 76
     1
 77
     6
 78
     2
 67
     7
 79
     5
170
     0
171
     0
290
     0
174
     0
 93
       13
 44
0.0
173
     0
291
     1
 45
0.0
1001
ACAD
1000
AcDbSavedByObjectVersion
1070
     0
  0
VISUALSTYLE
  5
34E6
102
{ACAD_XDICTIONARY
360
3598
102
}
102
{ACAD_REACTORS
330
34E4
102
}
330
34E4
100
AcDbVisualStyle
  2

 70
     1
 71
     2
 72
     1
 73
     1
 90
        2
 40
-0.6
 41
30.0
 62
     5
 63
     7
 74
     1
 91
        4
 64
     7
 65
   257
 75
     1
175
     1
 42
1.0
 92
        0
 66
   257
 43
1.0
 76
     1
 77
     6
 78
     2
 67
     7
 79
     5
170
     0
171
     0
290
     0
174
     0
 93
       13
 44
0.0
173
     0
291
     1
 45
0.0
1001
ACAD
1000
AcDbSavedByObjectVersion
1070
     0
  0
VISUALSTYLE
  5
34E7
102
{ACAD_XDICTIONARY
360
359A
102
}
102
{ACAD_REACTORS
330
34E4
102
}
330
34E4
100
AcDbVisualStyle
  2

 70
     2
 71
     2
 72
     2
 73
     1
 90
        2
 40
-0.6
 41
30.0
 62
     5
 63
     7
 74
     0
 91
        4
 64
     7
 65
   257
 75
     1
175
     1
 42
1.0
 92
        0
 66
     7
 43
1.0
 76
     1
 77
     6
 78
     2
 67
     7
 79
     5
170
     0
171
     0
290
     0
174
     0
 93
       13
 44
0.0
173
     0
291
     1
 45
0.0
1001
ACAD
1000
AcDbSavedByObjectVersion
1070
     0
  0
VISUALSTYLE
  5
34E8
102
{ACAD_XDICTIONARY
360
359C
102
}
102
{ACAD_REACTORS
330
34E4
102
}
330
34E4
100
AcDbVisualStyle
  2

 70
     3
 71
     2
 72
     2
 73
     1
 90
        2
 40
-0.6
 41
30.0
 62
     5
 63
     7
 74
     1
 91
        4
 64
     7
 65
   257
 75
     1
175
     1
 42
1.0
 92
        0
 66
   257
 43
1.0
 76
     1
 77
     6
 78
     2
 67
     7
 79
     5
170
     0
171
     0
290
     0
174
     0
 93
       13
 44
0.0
173
     0
291
     1
 45
0.0
1001
ACAD
1000
AcDbSavedByObjectVersion
1070
     0
  0
VISUALSTYLE
  5
3556
102
{ACAD_XDICTIONARY
360
35B9
102
}
102
{ACAD_REACTORS
330
34E4
102
}
330
34E4
100
AcDbVisualStyle
  2
Hidden
 70
     6
 71
     1
 72
     2
 73
     2
 90
        0
 40
-0.6
 41
-30.0
 62
     5
 63
     7
 74
     2
 91
        2
 64
     7
 65
   257
 75
     2
175
     1
 42
40.0
 92
        0
 66
   257
 43
1.0
 76
     1
 77
     6
 78
     2
 67
     7
 79
     3
170
     0
171
     0
290
     0
174
     0
 93
        1
 44
0.0
173
     0
291
     0
 45
0.0
1001
ACAD
1000
AcDbSavedByObjectVersion
1070
     0
  0
VISUALSTYLE
  5
355C
102
{ACAD_XDICTIONARY
360
35C5
102
}
102
{ACAD_REACTORS
330
34E4
102
}
330
34E4
100
AcDbVisualStyle
  2
JitterOff
 70
    20
 71
     2
 72
     2
 73
     0
 90
        0
 40
-0.6
 41
-30.0
 62
     5
 63
     7
 74
     1
 91
        4
 64
     7
 65
   257
 75
     1
175
     1
 42
1.0
 92
       10
 66
     7
 43
1.0
 76
     1
 77
     6
 78
     2
 67
     7
 79
     5
170
     0
171
     0
290
     0
174
     0
 93
        1
 44
0.0
173
     0
291
     1
 45
0.0
1001
ACAD
1000
AcDbSavedByObjectVersion
1070
     0
  0
VISUALSTYLE
  5
34F2
102
{ACAD_XDICTIONARY
360
35B0
102
}
102
{ACAD_REACTORS
330
34E4
102
}
330
34E4
100
AcDbVisualStyle
  2

 70
    14
 71
     2
 72
     2
 73
     0
 90
        0
 40
-0.6
 41
-30.0
 62
     5
 63
     7
 74
     1
 91
        4
 64
     7
 65
   257
 75
     7
175
     7
 42
1.0
 92
        8
 66
     7
 43
1.0
 76
     1
 77
     6
 78
     2
 67
     7
 79
     5
170
     0
171
     0
290
     0
174
     0
 93
        1
 44
0.0
173
     0
291
     1
 45
0.0
1001
ACAD
1000
AcDbSavedByObjectVersion
1070
     0
  0
VISUALSTYLE
  5
355D
102
{ACAD_XDICTIONARY
360
35C7
102
}
102
{ACAD_REACTORS
330
34E4
102
}
330
34E4
100
AcDbVisualStyle
  2
OverhangOff
 70
    21
 71
     2
 72
     2
 73
     0
 90
        0
 40
-0.6
 41
-30.0
 62
     5
 63
     7
 74
     1
 91
        4
 64
     7
 65
   257
 75
     1
175
     1
 42
1.0
 92
        9
 66
     7
 43
1.0
 76
     1
 77
     6
 78
     2
 67
     7
 79
     5
170
     0
171
     0
290
     0
174
     0
 93
        1
 44
0.0
173
     0
291
     1
 45
0.0
1001
ACAD
1000
AcDbSavedByObjectVersion
1070
     0
  0
VISUALSTYLE
  5
34EE
102
{ACAD_XDICTIONARY
360
35A8
102
}
102
{ACAD_REACTORS
330
34E4
102
}
330
34E4
100
AcDbVisualStyle
  2

 70
     8
 71
     2
 72
     2
 73
     0
 90
        0
 40
-0.6
 41
-30.0
 62
     5
 63
     7
 74
     1
 91
        0
 64
     7
 65
   257
 75
     1
175
     1
 42
1.0
 92
        8
 66
     8
 43
1.0
 76
     1
 77
     6
 78
     2
 67
     7
 79
     5
170
     0
171
     0
290
     0
174
     0
 93
       13
 44
0.0
173
     0
291
     0
 45
0.0
1001
ACAD
1000
AcDbSavedByObjectVersion
1070
     0
  0
VISUALSTYLE
  5
355B
102
{ACAD_XDICTIONARY
360
35C3
102
}
102
{ACAD_REACTORS
330
34E4
102
}
330
34E4
100
AcDbVisualStyle
  2
Shaded
 70
    27
 71
     2
 72
     2
 73
     1
 90
        2
 40
-0.6
 41
30.0
 62
     5
 63
     7
 74
     0
 91
        4
 64
     7
 65
   257
 75
     1
175
     1
 42
1.0
 92
        8
 66
   257
 43
1.0
 76
     1
 77
     6
 78
     2
 67
     8
 79
     3
170
     0
171
     0
290
     0
174
     0
 93
        5
 44
0.0
173
     0
291
     0
 45
0.0
1001
ACAD
1000
AcDbSavedByObjectVersion
1070
     0
  0
VISUALSTYLE
  5
355A
102
{ACAD_XDICTIONARY
360
35C1
102
}
102
{ACAD_REACTORS
330
34E4
102
}
330
34E4
100
AcDbVisualStyle
  2
Shaded with edges
 70
    26
 71
     2
 72
     2
 73
     1
 90
        2
 40
-0.6
 41
30.0
 62
     5
 63
     7
 74
     1
 91
       10
 64
     7
 65
   257
 75
     2
175
     1
 42
1.0
 92
        8
 66
   257
 43
1.0
 76
     1
 77
     6
 78
     2
 67
     7
 79
     3
170
     0
171
     0
290
     0
174
     0
 93
        5
 44
0.0
173
     0
291
     0
 45
0.0
1001
ACAD
1000
AcDbSavedByObjectVersion
1070
     0
  0
VISUALSTYLE
  5
3557
102
{ACAD_XDICTIONARY
360
35BB
102
}
102
{ACAD_REACTORS
330
34E4
102
}
330
34E4
100
AcDbVisualStyle
  2
Shades of Gray
 70
    23
 71
     2
 72
     2
 73
     3
 90
        0
 40
-0.6
 41
-30.0
 62
     5
 63
     7
 74
     2
 91
        2
 64
     7
 65
     7
 75
     1
175
     1
 42
40.0
 92
        8
 66
     7
 43
1.0
 76
     1
 77
     6
 78
     2
 67
     7
 79
     3
170
     0
171
     0
290
     0
174
     0
 93
        1
 44
0.0
173
     0
291
     0
 45
0.0
1001
ACAD
1000
AcDbSavedByObjectVersion
1070
     0
  0
VISUALSTYLE
  5
3558
102
{ACAD_XDICTIONARY
360
35BD
102
}
102
{ACAD_REACTORS
330
34E4
102
}
330
34E4
100
AcDbVisualStyle
  2
Sketchy
 70
    24
 71
     1
 72
     2
 73
     2
 90
        0
 40
-0.6
 41
-30.0
 62
     5
 63
     7
 74
     2
 91
        2
 64
     7
 65
     7
 75
     1
175
     1
 42
40.0
 92
       11
 66
     7
 43
1.0
 76
     1
 77
     6
 78
     2
 67
     7
 79
     6
170
     0
171
     0
290
     0
174
     0
 93
        1
 44
0.0
173
     0
291
     0
 45
0.0
1001
ACAD
1000
AcDbSavedByObjectVersion
1070
     0
  0
VISUALSTYLE
  5
34F1
102
{ACAD_XDICTIONARY
360
35AE
102
}
102
{ACAD_REACTORS
330
34E4
102
}
330
34E4
100
AcDbVisualStyle
  2

 70
    13
 71
     2
 72
     2
 73
     0
 90
        0
 40
-0.6
 41
-30.0
 62
     5
 63
     7
 74
     1
 91
        4
 64
     7
 65
   257
 75
     1
175
     1
 42
1.0
 92
       12
 66
     7
 43
1.0
 76
     1
 77
     6
 78
     2
 67
     7
 79
     5
170
     0
171
     0
290
     0
174
     0
 93
        1
 44
0.0
173
     0
291
     1
 45
0.0
1001
ACAD
1000
AcDbSavedByObjectVersion
1070
     0
  0
VISUALSTYLE
  5
3555
102
{ACAD_XDICTIONARY
360
35B7
102
}
102
{ACAD_REACTORS
330
34E4
102
}
330
34E4
100
AcDbVisualStyle
  2
Wireframe
 70
     5
 71
     0
 72
     2
 73
     0
 90
        0
 40
-0.6
 41
-30.0
 62
     5
 63
     7
 74
     1
 91
        4
 64
     7
 65
   257
 75
     1
175
     1
 42
1.0
 92
        0
 66
   257
 43
1.0
 76
     1
 77
     6
 78
     2
 67
     7
 79
     3
170
     0
171
     0
290
     0
174
     0
 93
        1
 44
0.0
173
     0
291
     0
 45
0.0
1001
ACAD
1000
AcDbSavedByObjectVersion
1070
     0
  0
VISUALSTYLE
  5
3559
102
{ACAD_XDICTIONARY
360
35BF
102
}
102
{ACAD_REACTORS
330
34E4
102
}
330
34E4
100
AcDbVisualStyle
  2
X-Ray
 70
    25
 71
     2
 72
     2
 73
     1
 90
        1
 40
0.5
 41
-30.0
 62
     5
 63
     7
 74
     1
 91
        0
 64
     7
 65
   257
 75
     1
175
     1
 42
1.0
 92
        8
 66
     7
 43
1.0
 76
     1
 77
     6
 78
     2
 67
     7
 79
     3
170
     0
171
     0
290
     0
174
     0
 93
       13
 44
0.0
173
     0
291
     0
 45
0.0
1001
ACAD
1000
AcDbSavedByObjectVersion
1070
     0
  0
DICTIONARYVAR
  5
358A
102
{ACAD_REACTORS
330
5E
102
}
330
5E
100
DictionaryVariables
280
     0
  1
1:1
  0
DICTIONARYVAR
  5
3589
102
{ACAD_REACTORS
330
5E
102
}
330
5E
100
DictionaryVariables
280
     0
  1
STANDARD
  0
DICTIONARYVAR
  5
34FD
102
{ACAD_REACTORS
330
5E
102
}
330
5E
100
DictionaryVariables
280
     0
  1
STANDARD
  0
DICTIONARYVAR
  5
5F
102
{ACAD_REACTORS
330
5E
102
}
330
5E
100
DictionaryVariables
280
     0
  1
2
  0
DICTIONARYVAR
  5
63
102
{ACAD_REACTORS
330
5E
102
}
330
5E
100
DictionaryVariables
280
     0
  1
1
  0
DICTIONARYVAR
  5
34FF
102
{ACAD_REACTORS
330
5E
102
}
330
5E
100
DictionaryVariables
280
     0
  1
0
  0
DICTIONARYVAR
  5
34C2
102
{ACAD_REACTORS
330
5E
102
}
330
5E
100
DictionaryVariables
280
     0
  1

  0
DICTIONARYVAR
  5
34FE
102
{ACAD_REACTORS
330
5E
102
}
330
5E
100
DictionaryVariables
280
     0
  1
127
  0
DICTIONARYVAR
  5
358B
102
{ACAD_REACTORS
330
5E
102
}
330
5E
100
DictionaryVariables
280
     0
  1
2
  0
DICTIONARY
  5
3592
330
51
100
AcDbDictionary
280
     1
281
     1
  3
ACAD_XREC_ROUNDTRIP
360
3593
  0
DICTIONARY
  5
3594
330
56
100
AcDbDictionary
280
     1
281
     1
  3
ACAD_XREC_ROUNDTRIP
360
3595
  0
DICTIONARY
  5
3590
330
22
100
AcDbDictionary
280
     1
281
     1
  3
ACAD_XREC_ROUNDTRIP
360
3591
  0
DICTIONARY
  5
3509
330
34E2
100
AcDbDictionary
280
     1
281
     1
  3
ACAD_XREC_ROUNDTRIP
360
350A
  0
DICTIONARY
  5
3507
330
34E1
100
AcDbDictionary
280
     1
281
     1
  3
ACAD_XREC_ROUNDTRIP
360
3508
  0
DICTIONARY
  5
350B
330
34E3
100
AcDbDictionary
280
     1
281
     1
  3
ACAD_XREC_ROUNDTRIP
360
350C
  0
DICTIONARY
  5
358C
330
34F6
100
AcDbDictionary
280
     1
281
     1
  3
ACAD_ROUNDTRIP_2008_TABLESTYLE_CELLSTYLEMAP
360
358D
  3
ACAD_XREC_ROUNDTRIP
360
35B6
  0
DICTIONARY
  5
35A0
330
34EA
100
AcDbDictionary
280
     1
281
     1
  3
ACAD_XREC_ROUNDTRIP
360
35A1
  0
DICTIONARY
  5
35A4
330
34EC
100
AcDbDictionary
280
     1
281
     1
  3
ACAD_XREC_ROUNDTRIP
360
35A5
  0
DICTIONARY
  5
35A2
330
34EB
100
AcDbDictionary
280
     1
281
     1
  3
ACAD_XREC_ROUNDTRIP
360
35A3
  0
DICTIONARY
  5
359E
330
34E9
100
AcDbDictionary
280
     1
281
     1
  3
ACAD_XREC_ROUNDTRIP
360
359F
  0
DICTIONARY
  5
35AC
330
34F0
100
AcDbDictionary
280
     1
281
     1
  3
ACAD_XREC_ROUNDTRIP
360
35AD
  0
DICTIONARY
  5
35B4
330
34F4
100
AcDbDictionary
280
     1
281
     1
  3
ACAD_XREC_ROUNDTRIP
360
35B5
  0
DICTIONARY
  5
35A6
330
34ED
100
AcDbDictionary
280
     1
281
     1
  3
ACAD_XREC_ROUNDTRIP
360
35A7
  0
DICTIONARY
  5
35AA
330
34EF
100
AcDbDictionary
280
     1
281
     1
  3
ACAD_XREC_ROUNDTRIP
360
35AB
  0
DICTIONARY
  5
35C9
330
355E
100
AcDbDictionary
280
     1
281
     1
  3
ACAD_XREC_ROUNDTRIP
360
35CA
  0
DICTIONARY
  5
35B2
330
34F3
100
AcDbDictionary
280
     1
281
     1
  3
ACAD_XREC_ROUNDTRIP
360
35B3
  0
DICTIONARY
  5
3596
330
34E5
100
AcDbDictionary
280
     1
281
     1
  3
ACAD_XREC_ROUNDTRIP
360
3597
  0
DICTIONARY
  5
3598
330
34E6
100
AcDbDictionary
280
     1
281
     1
  3
ACAD_XREC_ROUNDTRIP
360
3599
  0
DICTIONARY
  5
359A
330
34E7
100
AcDbDictionary
280
     1
281
     1
  3
ACAD_XREC_ROUNDTRIP
360
359B
  0
DICTIONARY
  5
359C
330
34E8
100
AcDbDictionary
280
     1
281
     1
  3
ACAD_XREC_ROUNDTRIP
360
359D
  0
DICTIONARY
  5
35B9
330
3556
100
AcDbDictionary
280
     1
281
     1
  3
ACAD_XREC_ROUNDTRIP
360
35BA
  0
DICTIONARY
  5
35C5
330
355C
100
AcDbDictionary
280
     1
281
     1
  3
ACAD_XREC_ROUNDTRIP
360
35C6
  0
DICTIONARY
  5
35B0
330
34F2
100
AcDbDictionary
280
     1
281
     1
  3
ACAD_XREC_ROUNDTRIP
360
35B1
  0
DICTIONARY
  5
35C7
330
355D
100
AcDbDictionary
280
     1
281
     1
  3
ACAD_XREC_ROUNDTRIP
360
35C8
  0
DICTIONARY
  5
35A8
330
34EE
100
AcDbDictionary
280
     1
281
     1
  3
ACAD_XREC_ROUNDTRIP
360
35A9
  0
DICTIONARY
  5
35C3
330
355B
100
AcDbDictionary
280
     1
281
     1
  3
ACAD_XREC_ROUNDTRIP
360
35C4
  0
DICTIONARY
  5
35C1
330
355A
100
AcDbDictionary
280
     1
281
     1
  3
ACAD_XREC_ROUNDTRIP
360
35C2
  0
DICTIONARY
  5
35BB
330
3557
100
AcDbDictionary
280
     1
281
     1
  3
ACAD_XREC_ROUNDTRIP
360
35BC
  0
DICTIONARY
  5
35BD
330
3558
100
AcDbDictionary
280
     1
281
     1
  3
ACAD_XREC_ROUNDTRIP
360
35BE
  0
DICTIONARY
  5
35AE
330
34F1
100
AcDbDictionary
280
     1
281
     1
  3
ACAD_XREC_ROUNDTRIP
360
35AF
  0
DICTIONARY
  5
35B7
330
3555
100
AcDbDictionary
280
     1
281
     1
  3
ACAD_XREC_ROUNDTRIP
360
35B8
  0
DICTIONARY
  5
35BF
330
3559
100
AcDbDictionary
280
     1
281
     1
  3
ACAD_XREC_ROUNDTRIP
360
35C0
  0
XRECORD
  5
3593
102
{ACAD_REACTORS
330
3592
102
}
330
3592
100
AcDbXrecord
280
     1
102
SHADEPLOT
 70
     0
102
SHADEPLOTRESLEVEL
 70
     2
102
SHADEPLOTCUSTOMDPI
 70
   300
  0
XRECORD
  5
3595
102
{ACAD_REACTORS
330
3594
102
}
330
3594
100
AcDbXrecord
280
     1
102
SHADEPLOT
 70
     0
102
SHADEPLOTRESLEVEL
 70
     2
102
SHADEPLOTCUSTOMDPI
 70
   300
  0
XRECORD
  5
3591
102
{ACAD_REACTORS
330
3590
102
}
330
3590
100
AcDbXrecord
280
     1
102
SHADEPLOT
 70
     1
102
SHADEPLOTRESLEVEL
 70
     2
102
SHADEPLOTCUSTOMDPI
 70
   300
  0
XRECORD
  5
350A
102
{ACAD_REACTORS
330
3509
102
}
330
3509
100
AcDbXrecord
280
     1
102
MATERIAL
148
0.0
149
0.0
149
0.0
 93
        0
 94
      127
282
     0
 72
     1
 77
     1
171
     1
175
     1
179
     1
273
     0
  0
XRECORD
  5
3508
102
{ACAD_REACTORS
330
3507
102
}
330
3507
100
AcDbXrecord
280
     1
102
MATERIAL
148
0.0
149
0.0
149
0.0
 93
        0
 94
      127
282
     0
 72
     1
 77
     1
171
     1
175
     1
179
     1
273
     0
  0
XRECORD
  5
350C
102
{ACAD_REACTORS
330
350B
102
}
330
350B
100
AcDbXrecord
280
     1
102
MATERIAL
148
0.0
149
0.0
149
0.0
 93
        0
 94
      127
282
     0
 72
     1
 77
     1
171
     1
175
     1
179
     1
273
     0
  0
CELLSTYLEMAP
  5
358D
102
{ACAD_REACTORS
330
358C
102
}
330
358C
100
AcDbCellStyleMap
 90
        3
300
CELLSTYLE
  1
TABLEFORMAT_BEGIN
 90
        5
170
     1
 91
        0
 92
    32768
 62
   257
 93
        1
300
CONTENTFORMAT
  1
CONTENTFORMAT_BEGIN
 90
        0
 91
        0
 92
      512
 93
        0
300

 40
0.0
140
1.0
 94
        5
 62
     0
340
11
144
6.0
309
CONTENTFORMAT_END
171
     1
301
MARGIN
  1
CELLMARGIN_BEGIN
 40
1.5
 40
1.5
 40
1.5
 40
1.5
 40
0.18
 40
0.18
309
CELLMARGIN_END
 94
        6
 95
        1
302
GRIDFORMAT
  1
GRIDFORMAT_BEGIN
 90
        0
 91
        1
 62
     0
 92
       -2
340
0
 93
        0
 40
0.045
309
GRIDFORMAT_END
 95
        2
302
GRIDFORMAT
  1
GRIDFORMAT_BEGIN
 90
        0
 91
        1
 62
     0
 92
       -2
340
0
 93
        0
 40
0.045
309
GRIDFORMAT_END
 95
        4
302
GRIDFORMAT
  1
GRIDFORMAT_BEGIN
 90
        0
 91
        1
 62
     0
 92
       -2
340
0
 93
        0
 40
0.045
309
GRIDFORMAT_END
 95
        8
302
GRIDFORMAT
  1
GRIDFORMAT_BEGIN
 90
        0
 91
        1
 62
     0
 92
       -2
340
0
 93
        0
 40
0.045
309
GRIDFORMAT_END
 95
       16
302
GRIDFORMAT
  1
GRIDFORMAT_BEGIN
 90
        0
 91
        1
 62
     0
 92
       -2
340
0
 93
        0
 40
0.045
309
GRIDFORMAT_END
 95
       32
302
GRIDFORMAT
  1
GRIDFORMAT_BEGIN
 90
        0
 91
        1
 62
     0
 92
       -2
340
0
 93
        0
 40
0.045
309
GRIDFORMAT_END
309
TABLEFORMAT_END
  1
CELLSTYLE_BEGIN
 90
        1
 91
        1
300
_TITLE
309
CELLSTYLE_END
300
CELLSTYLE
  1
TABLEFORMAT_BEGIN
 90
        5
170
     1
 91
        0
 92
        0
 62
   257
 93
        1
300
CONTENTFORMAT
  1
CONTENTFORMAT_BEGIN
 90
        0
 91
        0
 92
      512
 93
        0
300

 40
0.0
140
1.0
 94
        5
 62
     0
340
11
144
4.5
309
CONTENTFORMAT_END
171
     1
301
MARGIN
  1
CELLMARGIN_BEGIN
 40
1.5
 40
1.5
 40
1.5
 40
1.5
 40
0.18
 40
0.18
309
CELLMARGIN_END
 94
        6
 95
        1
302
GRIDFORMAT
  1
GRIDFORMAT_BEGIN
 90
        0
 91
        1
 62
     0
 92
       -2
340
0
 93
        0
 40
0.045
309
GRIDFORMAT_END
 95
        2
302
GRIDFORMAT
  1
GRIDFORMAT_BEGIN
 90
        0
 91
        1
 62
     0
 92
       -2
340
0
 93
        0
 40
0.045
309
GRIDFORMAT_END
 95
        4
302
GRIDFORMAT
  1
GRIDFORMAT_BEGIN
 90
        0
 91
        1
 62
     0
 92
       -2
340
0
 93
        0
 40
0.045
309
GRIDFORMAT_END
 95
        8
302
GRIDFORMAT
  1
GRIDFORMAT_BEGIN
 90
        0
 91
        1
 62
     0
 92
       -2
340
0
 93
        0
 40
0.045
309
GRIDFORMAT_END
 95
       16
302
GRIDFORMAT
  1
GRIDFORMAT_BEGIN
 90
        0
 91
        1
 62
     0
 92
       -2
340
0
 93
        0
 40
0.045
309
GRIDFORMAT_END
 95
       32
302
GRIDFORMAT
  1
GRIDFORMAT_BEGIN
 90
        0
 91
        1
 62
     0
 92
       -2
340
0
 93
        0
 40
0.045
309
GRIDFORMAT_END
309
TABLEFORMAT_END
  1
CELLSTYLE_BEGIN
 90
        2
 91
        1
300
_HEADER
309
CELLSTYLE_END
300
CELLSTYLE
  1
TABLEFORMAT_BEGIN
 90
        5
170
     1
 91
        0
 92
        0
 62
   257
 93
        1
300
CONTENTFORMAT
  1
CONTENTFORMAT_BEGIN
 90
        0
 91
        0
 92
      512
 93
        0
300

 40
0.0
140
1.0
 94
        2
 62
     0
340
11
144
4.5
309
CONTENTFORMAT_END
171
     1
301
MARGIN
  1
CELLMARGIN_BEGIN
 40
1.5
 40
1.5
 40
1.5
 40
1.5
 40
0.18
 40
0.18
309
CELLMARGIN_END
 94
        6
 95
        1
302
GRIDFORMAT
  1
GRIDFORMAT_BEGIN
 90
        0
 91
        1
 62
     0
 92
       -2
340
0
 93
        0
 40
0.045
309
GRIDFORMAT_END
 95
        2
302
GRIDFORMAT
  1
GRIDFORMAT_BEGIN
 90
        0
 91
        1
 62
     0
 92
       -2
340
0
 93
        0
 40
0.045
309
GRIDFORMAT_END
 95
        4
302
GRIDFORMAT
  1
GRIDFORMAT_BEGIN
 90
        0
 91
        1
 62
     0
 92
       -2
340
0
 93
        0
 40
0.045
309
GRIDFORMAT_END
 95
        8
302
GRIDFORMAT
  1
GRIDFORMAT_BEGIN
 90
        0
 91
        1
 62
     0
 92
       -2
340
0
 93
        0
 40
0.045
309
GRIDFORMAT_END
 95
       16
302
GRIDFORMAT
  1
GRIDFORMAT_BEGIN
 90
        0
 91
        1
 62
     0
 92
       -2
340
0
 93
        0
 40
0.045
309
GRIDFORMAT_END
 95
       32
302
GRIDFORMAT
  1
GRIDFORMAT_BEGIN
 90
        0
 91
        1
 62
     0
 92
       -2
340
0
 93
        0
 40
0.045
309
GRIDFORMAT_END
309
TABLEFORMAT_END
  1
CELLSTYLE_BEGIN
 90
        3
 91
        2
300
_DATA
309
CELLSTYLE_END
  0
XRECORD
  5
35B6
102
{ACAD_REACTORS
330
358C
102
}
330
358C
100
AcDbXrecord
280
     1
102
ACAD_ROUNDTRIP_PRE2007_TABLESTYLE
 90
      512
 91
        0
  1

 92
      512
 93
        0
  2

 94
      512
 95
        0
  3

  0
XRECORD
  5
35A1
102
{ACAD_REACTORS
330
35A0
102
}
330
35A0
100
AcDbXrecord
280
     1
102
RTVSPropertyOp0
 70
     1
102
RTVSPropertyOp1
 70
     1
102
RTVSPropertyOp2
 70
     1
102
RTVSPropertyOp3
 70
     1
102
RTVSPropertyOp4
 70
     1
102
RTVSPropertyOp5
 70
     1
102
RTVSPropertyOp6
 70
     1
102
RTVSPropertyOp7
 70
     1
102
RTVSPropertyOp8
 70
     1
102
RTVSPropertyOp9
 70
     1
102
RTVSPropertyOp10
 70
     1
102
RTVSPropertyOp11
 70
     1
102
RTVSPropertyOp12
 70
     1
102
RTVSPropertyOp13
 70
     1
102
RTVSPropertyOp14
 70
     1
102
RTVSPropertyOp15
 70
     1
102
RTVSPropertyOp16
 70
     1
102
RTVSPropertyOp17
 70
     1
102
RTVSPropertyOp18
 70
     1
102
RTVSPropertyOp19
 70
     1
102
RTVSPropertyOp20
 70
     1
102
RTVSPropertyOp21
 70
     1
102
RTVSPropertyOp22
 70
     1
102
RTVSPropertyOp23
 70
     1
102
RTVSPropertyOp24
 70
     1
102
RTVSPropertyOp25
 70
     1
102
RTVSPropertyOp26
 70
     1
102
RTVSPropertyOp27
 70
     1
102
RTVSPropertyOp28
 70
     1
102
RTVSPropertyOp29
 70
     1
102
RTVSPropertyOp30
 70
     1
102
RTVSPropertyOp31
 70
     1
102
RTVSPropertyOp32
 70
     1
  0
XRECORD
  5
35A5
102
{ACAD_REACTORS
330
35A4
102
}
330
35A4
100
AcDbXrecord
280
     1
102
RTVSPropertyOp0
 70
     1
102
RTVSPropertyOp1
 70
     1
102
RTVSPropertyOp2
 70
     1
102
RTVSPropertyOp3
 70
     1
102
RTVSPropertyOp4
 70
     1
102
RTVSPropertyOp5
 70
     1
102
RTVSPropertyOp6
 70
     1
102
RTVSPropertyOp7
 70
     1
102
RTVSPropertyOp8
 70
     1
102
RTVSPropertyOp9
 70
     1
102
RTVSPropertyOp10
 70
     1
102
RTVSPropertyOp11
 70
     1
102
RTVSPropertyOp12
 70
     1
102
RTVSPropertyOp13
 70
     1
102
RTVSPropertyOp14
 70
     1
102
RTVSPropertyOp15
 70
     1
102
RTVSPropertyOp16
 70
     1
102
RTVSPropertyOp17
 70
     1
102
RTVSPropertyOp18
 70
     1
102
RTVSPropertyOp19
 70
     1
102
RTVSPropertyOp20
 70
     1
102
RTVSPropertyOp21
 70
     1
102
RTVSPropertyOp22
 70
     1
102
RTVSPropertyOp23
 70
     1
102
RTVSPropertyOp24
 70
     1
102
RTVSPropertyOp25
 70
     1
102
RTVSPropertyOp26
 70
     1
102
RTVSPropertyOp27
 70
     1
102
RTVSPropertyOp28
 70
     1
102
RTVSPropertyOp29
 70
     1
102
RTVSPropertyOp30
 70
     1
102
RTVSPropertyOp31
 70
     1
102
RTVSPropertyOp32
 70
     1
  0
XRECORD
  5
35A3
102
{ACAD_REACTORS
330
35A2
102
}
330
35A2
100
AcDbXrecord
280
     1
102
RTVSPropertyOp0
 70
     1
102
RTVSPropertyOp1
 70
     1
102
RTVSPropertyOp2
 70
     1
102
RTVSPropertyOp3
 70
     1
102
RTVSPropertyOp4
 70
     1
102
RTVSPropertyOp5
 70
     1
102
RTVSPropertyOp6
 70
     1
102
RTVSPropertyOp7
 70
     1
102
RTVSPropertyOp8
 70
     1
102
RTVSPropertyOp9
 70
     1
102
RTVSPropertyOp10
 70
     1
102
RTVSPropertyOp11
 70
     1
102
RTVSPropertyOp12
 70
     1
102
RTVSPropertyOp13
 70
     1
102
RTVSPropertyOp14
 70
     1
102
RTVSPropertyOp15
 70
     1
102
RTVSPropertyOp16
 70
     1
102
RTVSPropertyOp17
 70
     1
102
RTVSPropertyOp18
 70
     1
102
RTVSPropertyOp19
 70
     1
102
RTVSPropertyOp20
 70
     1
102
RTVSPropertyOp21
 70
     1
102
RTVSPropertyOp22
 70
     1
102
RTVSPropertyOp23
 70
     1
102
RTVSPropertyOp24
 70
     1
102
RTVSPropertyOp25
 70
     1
102
RTVSPropertyOp26
 70
     1
102
RTVSPropertyOp27
 70
     1
102
RTVSPropertyOp28
 70
     1
102
RTVSPropertyOp29
 70
     1
102
RTVSPropertyOp30
 70
     1
102
RTVSPropertyOp31
 70
     1
102
RTVSPropertyOp32
 70
     1
  0
XRECORD
  5
359F
102
{ACAD_REACTORS
330
359E
102
}
330
359E
100
AcDbXrecord
280
     1
102
RTVSPropertyOp0
 70
     1
102
RTVSPropertyOp1
 70
     1
102
RTVSPropertyOp2
 70
     1
102
RTVSPropertyOp3
 70
     1
102
RTVSPropertyOp4
 70
     1
102
RTVSPropertyOp5
 70
     1
102
RTVSPropertyOp6
 70
     1
102
RTVSPropertyOp7
 70
     1
102
RTVSPropertyOp8
 70
     1
102
RTVSPropertyOp9
 70
     1
102
RTVSPropertyOp10
 70
     1
102
RTVSPropertyOp11
 70
     1
102
RTVSPropertyOp12
 70
     1
102
RTVSPropertyOp13
 70
     1
102
RTVSPropertyOp14
 70
     1
102
RTVSPropertyOp15
 70
     1
102
RTVSPropertyOp16
 70
     1
102
RTVSPropertyOp17
 70
     1
102
RTVSPropertyOp18
 70
     1
102
RTVSPropertyOp19
 70
     1
102
RTVSPropertyOp20
 70
     1
102
RTVSPropertyOp21
 70
     1
102
RTVSPropertyOp22
 70
     1
102
RTVSPropertyOp23
 70
     1
102
RTVSPropertyOp24
 70
     1
102
RTVSPropertyOp25
 70
     1
102
RTVSPropertyOp26
 70
     1
102
RTVSPropertyOp27
 70
     1
102
RTVSPropertyOp28
 70
     1
102
RTVSPropertyOp29
 70
     1
102
RTVSPropertyOp30
 70
     1
102
RTVSPropertyOp31
 70
     1
102
RTVSPropertyOp32
 70
     1
  0
XRECORD
  5
35AD
102
{ACAD_REACTORS
330
35AC
102
}
330
35AC
100
AcDbXrecord
280
     1
102
RTVSPropertyOp0
 70
     1
102
RTVSPropertyOp1
 70
     1
102
RTVSPropertyOp2
 70
     1
102
RTVSPropertyOp3
 70
     1
102
RTVSPropertyOp4
 70
     1
102
RTVSPropertyOp5
 70
     1
102
RTVSPropertyOp6
 70
     1
102
RTVSPropertyOp7
 70
     1
102
RTVSPropertyOp8
 70
     1
102
RTVSPropertyOp9
 70
     1
102
RTVSPropertyOp10
 70
     1
102
RTVSPropertyOp11
 70
     1
102
RTVSPropertyOp12
 70
     1
102
RTVSPropertyOp13
 70
     1
102
RTVSPropertyOp14
 70
     1
102
RTVSPropertyOp15
 70
     1
102
RTVSPropertyOp16
 70
     1
102
RTVSPropertyOp17
 70
     1
102
RTVSPropertyOp18
 70
     1
102
RTVSPropertyOp19
 70
     1
102
RTVSPropertyOp20
 70
     1
102
RTVSPropertyOp21
 70
     1
102
RTVSPropertyOp22
 70
     1
102
RTVSPropertyOp23
 70
     1
102
RTVSPropertyOp24
 70
     1
102
RTVSPropertyOp25
 70
     1
102
RTVSPropertyOp26
 70
     1
102
RTVSPropertyOp27
 70
     1
102
RTVSPropertyOp28
 70
     1
102
RTVSPropertyOp29
 70
     1
102
RTVSPropertyOp30
 70
     1
102
RTVSPropertyOp31
 70
     1
102
RTVSPropertyOp32
 70
     1
  0
XRECORD
  5
35B5
102
{ACAD_REACTORS
330
35B4
102
}
330
35B4
100
AcDbXrecord
280
     1
102
RTVSPropertyOp0
 70
     1
102
RTVSPropertyOp1
 70
     1
102
RTVSPropertyOp2
 70
     1
102
RTVSPropertyOp3
 70
     1
102
RTVSPropertyOp4
 70
     1
102
RTVSPropertyOp5
 70
     1
102
RTVSPropertyOp6
 70
     1
102
RTVSPropertyOp7
 70
     1
102
RTVSPropertyOp8
 70
     1
102
RTVSPropertyOp9
 70
     1
102
RTVSPropertyOp10
 70
     1
102
RTVSPropertyOp11
 70
     1
102
RTVSPropertyOp12
 70
     1
102
RTVSPropertyOp13
 70
     1
102
RTVSPropertyOp14
 70
     1
102
RTVSPropertyOp15
 70
     1
102
RTVSPropertyOp16
 70
     1
102
RTVSPropertyOp17
 70
     1
102
RTVSPropertyOp18
 70
     1
102
RTVSPropertyOp19
 70
     1
102
RTVSPropertyOp20
 70
     1
102
RTVSPropertyOp21
 70
     1
102
RTVSPropertyOp22
 70
     1
102
RTVSPropertyOp23
 70
     1
102
RTVSPropertyOp24
 70
     1
102
RTVSPropertyOp25
 70
     1
102
RTVSPropertyOp26
 70
     1
102
RTVSPropertyOp27
 70
     1
102
RTVSPropertyOp28
 70
     1
102
RTVSPropertyOp29
 70
     1
102
RTVSPropertyOp30
 70
     1
102
RTVSPropertyOp31
 70
     1
102
RTVSPropertyOp32
 70
     1
  0
XRECORD
  5
35A7
102
{ACAD_REACTORS
330
35A6
102
}
330
35A6
100
AcDbXrecord
280
     1
102
RTVSPropertyOp0
 70
     1
102
RTVSPropertyOp1
 70
     1
102
RTVSPropertyOp2
 70
     1
102
RTVSPropertyOp3
 70
     1
102
RTVSPropertyOp4
 70
     1
102
RTVSPropertyOp5
 70
     1
102
RTVSPropertyOp6
 70
     1
102
RTVSPropertyOp7
 70
     1
102
RTVSPropertyOp8
 70
     1
102
RTVSPropertyOp9
 70
     1
102
RTVSPropertyOp10
 70
     1
102
RTVSPropertyOp11
 70
     1
102
RTVSPropertyOp12
 70
     1
102
RTVSPropertyOp13
 70
     1
102
RTVSPropertyOp14
 70
     1
102
RTVSPropertyOp15
 70
     1
102
RTVSPropertyOp16
 70
     1
102
RTVSPropertyOp17
 70
     1
102
RTVSPropertyOp18
 70
     1
102
RTVSPropertyOp19
 70
     1
102
RTVSPropertyOp20
 70
     1
102
RTVSPropertyOp21
 70
     1
102
RTVSPropertyOp22
 70
     1
102
RTVSPropertyOp23
 70
     1
102
RTVSPropertyOp24
 70
     1
102
RTVSPropertyOp25
 70
     1
102
RTVSPropertyOp26
 70
     1
102
RTVSPropertyOp27
 70
     1
102
RTVSPropertyOp28
 70
     1
102
RTVSPropertyOp29
 70
     1
102
RTVSPropertyOp30
 70
     1
102
RTVSPropertyOp31
 70
     1
102
RTVSPropertyOp32
 70
     1
  0
XRECORD
  5
35AB
102
{ACAD_REACTORS
330
35AA
102
}
330
35AA
100
AcDbXrecord
280
     1
102
RTVSPropertyOp0
 70
     1
102
RTVSPropertyOp1
 70
     1
102
RTVSPropertyOp2
 70
     1
102
RTVSPropertyOp3
 70
     1
102
RTVSPropertyOp4
 70
     1
102
RTVSPropertyOp5
 70
     1
102
RTVSPropertyOp6
 70
     1
102
RTVSPropertyOp7
 70
     1
102
RTVSPropertyOp8
 70
     1
102
RTVSPropertyOp9
 70
     1
102
RTVSPropertyOp10
 70
     1
102
RTVSPropertyOp11
 70
     1
102
RTVSPropertyOp12
 70
     1
102
RTVSPropertyOp13
 70
     1
102
RTVSPropertyOp14
 70
     1
102
RTVSPropertyOp15
 70
     1
102
RTVSPropertyOp16
 70
     1
102
RTVSPropertyOp17
 70
     1
102
RTVSPropertyOp18
 70
     1
102
RTVSPropertyOp19
 70
     1
102
RTVSPropertyOp20
 70
     1
102
RTVSPropertyOp21
 70
     1
102
RTVSPropertyOp22
 70
     1
102
RTVSPropertyOp23
 70
     1
102
RTVSPropertyOp24
 70
     1
102
RTVSPropertyOp25
 70
     1
102
RTVSPropertyOp26
 70
     1
102
RTVSPropertyOp27
 70
     1
102
RTVSPropertyOp28
 70
     1
102
RTVSPropertyOp29
 70
     1
102
RTVSPropertyOp30
 70
     1
102
RTVSPropertyOp31
 70
     1
102
RTVSPropertyOp32
 70
     1
  0
XRECORD
  5
35CA
102
{ACAD_REACTORS
330
35C9
102
}
330
35C9
100
AcDbXrecord
280
     1
102
RTVSPropertyOp0
 70
     0
102
RTVSPropertyOp1
 70
     0
102
RTVSPropertyOp2
 70
     0
102
RTVSPropertyOp3
 70
     0
102
RTVSPropertyOp4
 70
     0
102
RTVSPropertyOp5
 70
     0
102
RTVSPropertyOp6
 70
     0
102
RTVSPropertyOp7
 70
     0
102
RTVSPropertyOp8
 70
     0
102
RTVSPropertyOp9
 70
     0
102
RTVSPropertyOp10
 70
     0
102
RTVSPropertyOp11
 70
     0
102
RTVSPropertyOp12
 70
     0
102
RTVSPropertyOp13
 70
     0
102
RTVSPropertyOp14
 70
     2
102
RTVSPropertyOp15
 70
     0
102
RTVSPropertyOp16
 70
     0
102
RTVSPropertyOp17
 70
     0
102
RTVSPropertyOp18
 70
     0
102
RTVSPropertyOp19
 70
     0
102
RTVSPropertyOp20
 70
     0
102
RTVSPropertyOp21
 70
     0
102
RTVSPropertyOp22
 70
     0
102
RTVSPropertyOp23
 70
     0
102
RTVSPropertyOp24
 70
     0
102
RTVSPropertyOp25
 70
     0
102
RTVSPropertyOp26
 70
     0
102
RTVSPropertyOp27
 70
     0
102
RTVSPropertyOp28
 70
     0
102
RTVSPropertyOp29
 70
     0
102
RTVSPropertyOp30
 70
     0
102
RTVSPropertyOp31
 70
     0
102
RTVSPropertyOp32
 70
     0
  0
XRECORD
  5
35B3
102
{ACAD_REACTORS
330
35B2
102
}
330
35B2
100
AcDbXrecord
280
     1
102
RTVSPropertyOp0
 70
     1
102
RTVSPropertyOp1
 70
     1
102
RTVSPropertyOp2
 70
     1
102
RTVSPropertyOp3
 70
     1
102
RTVSPropertyOp4
 70
     1
102
RTVSPropertyOp5
 70
     1
102
RTVSPropertyOp6
 70
     1
102
RTVSPropertyOp7
 70
     1
102
RTVSPropertyOp8
 70
     1
102
RTVSPropertyOp9
 70
     1
102
RTVSPropertyOp10
 70
     1
102
RTVSPropertyOp11
 70
     1
102
RTVSPropertyOp12
 70
     1
102
RTVSPropertyOp13
 70
     1
102
RTVSPropertyOp14
 70
     1
102
RTVSPropertyOp15
 70
     1
102
RTVSPropertyOp16
 70
     1
102
RTVSPropertyOp17
 70
     1
102
RTVSPropertyOp18
 70
     1
102
RTVSPropertyOp19
 70
     1
102
RTVSPropertyOp20
 70
     1
102
RTVSPropertyOp21
 70
     1
102
RTVSPropertyOp22
 70
     1
102
RTVSPropertyOp23
 70
     1
102
RTVSPropertyOp24
 70
     1
102
RTVSPropertyOp25
 70
     1
102
RTVSPropertyOp26
 70
     1
102
RTVSPropertyOp27
 70
     1
102
RTVSPropertyOp28
 70
     1
102
RTVSPropertyOp29
 70
     1
102
RTVSPropertyOp30
 70
     1
102
RTVSPropertyOp31
 70
     1
102
RTVSPropertyOp32
 70
     1
  0
XRECORD
  5
3597
102
{ACAD_REACTORS
330
3596
102
}
330
3596
100
AcDbXrecord
280
     1
102
RTVSPropertyOp0
 70
     1
102
RTVSPropertyOp1
 70
     1
102
RTVSPropertyOp2
 70
     1
102
RTVSPropertyOp3
 70
     1
102
RTVSPropertyOp4
 70
     1
102
RTVSPropertyOp5
 70
     1
102
RTVSPropertyOp6
 70
     1
102
RTVSPropertyOp7
 70
     1
102
RTVSPropertyOp8
 70
     1
102
RTVSPropertyOp9
 70
     1
102
RTVSPropertyOp10
 70
     1
102
RTVSPropertyOp11
 70
     1
102
RTVSPropertyOp12
 70
     1
102
RTVSPropertyOp13
 70
     1
102
RTVSPropertyOp14
 70
     1
102
RTVSPropertyOp15
 70
     1
102
RTVSPropertyOp16
 70
     1
102
RTVSPropertyOp17
 70
     1
102
RTVSPropertyOp18
 70
     1
102
RTVSPropertyOp19
 70
     1
102
RTVSPropertyOp20
 70
     1
102
RTVSPropertyOp21
 70
     1
102
RTVSPropertyOp22
 70
     1
102
RTVSPropertyOp23
 70
     1
102
RTVSPropertyOp24
 70
     1
102
RTVSPropertyOp25
 70
     1
102
RTVSPropertyOp26
 70
     1
102
RTVSPropertyOp27
 70
     1
102
RTVSPropertyOp28
 70
     1
102
RTVSPropertyOp29
 70
     1
102
RTVSPropertyOp30
 70
     1
102
RTVSPropertyOp31
 70
     1
102
RTVSPropertyOp32
 70
     1
  0
XRECORD
  5
3599
102
{ACAD_REACTORS
330
3598
102
}
330
3598
100
AcDbXrecord
280
     1
102
RTVSPropertyOp0
 70
     1
102
RTVSPropertyOp1
 70
     1
102
RTVSPropertyOp2
 70
     1
102
RTVSPropertyOp3
 70
     1
102
RTVSPropertyOp4
 70
     1
102
RTVSPropertyOp5
 70
     1
102
RTVSPropertyOp6
 70
     1
102
RTVSPropertyOp7
 70
     1
102
RTVSPropertyOp8
 70
     1
102
RTVSPropertyOp9
 70
     1
102
RTVSPropertyOp10
 70
     1
102
RTVSPropertyOp11
 70
     1
102
RTVSPropertyOp12
 70
     1
102
RTVSPropertyOp13
 70
     1
102
RTVSPropertyOp14
 70
     1
102
RTVSPropertyOp15
 70
     1
102
RTVSPropertyOp16
 70
     1
102
RTVSPropertyOp17
 70
     1
102
RTVSPropertyOp18
 70
     1
102
RTVSPropertyOp19
 70
     1
102
RTVSPropertyOp20
 70
     1
102
RTVSPropertyOp21
 70
     1
102
RTVSPropertyOp22
 70
     1
102
RTVSPropertyOp23
 70
     1
102
RTVSPropertyOp24
 70
     1
102
RTVSPropertyOp25
 70
     1
102
RTVSPropertyOp26
 70
     1
102
RTVSPropertyOp27
 70
     1
102
RTVSPropertyOp28
 70
     1
102
RTVSPropertyOp29
 70
     1
102
RTVSPropertyOp30
 70
     1
102
RTVSPropertyOp31
 70
     1
102
RTVSPropertyOp32
 70
     1
  0
XRECORD
  5
359B
102
{ACAD_REACTORS
330
359A
102
}
330
359A
100
AcDbXrecord
280
     1
102
RTVSPropertyOp0
 70
     1
102
RTVSPropertyOp1
 70
     1
102
RTVSPropertyOp2
 70
     1
102
RTVSPropertyOp3
 70
     1
102
RTVSPropertyOp4
 70
     1
102
RTVSPropertyOp5
 70
     1
102
RTVSPropertyOp6
 70
     1
102
RTVSPropertyOp7
 70
     1
102
RTVSPropertyOp8
 70
     1
102
RTVSPropertyOp9
 70
     1
102
RTVSPropertyOp10
 70
     1
102
RTVSPropertyOp11
 70
     1
102
RTVSPropertyOp12
 70
     1
102
RTVSPropertyOp13
 70
     1
102
RTVSPropertyOp14
 70
     1
102
RTVSPropertyOp15
 70
     1
102
RTVSPropertyOp16
 70
     1
102
RTVSPropertyOp17
 70
     1
102
RTVSPropertyOp18
 70
     1
102
RTVSPropertyOp19
 70
     1
102
RTVSPropertyOp20
 70
     1
102
RTVSPropertyOp21
 70
     1
102
RTVSPropertyOp22
 70
     1
102
RTVSPropertyOp23
 70
     1
102
RTVSPropertyOp24
 70
     1
102
RTVSPropertyOp25
 70
     1
102
RTVSPropertyOp26
 70
     1
102
RTVSPropertyOp27
 70
     1
102
RTVSPropertyOp28
 70
     1
102
RTVSPropertyOp29
 70
     1
102
RTVSPropertyOp30
 70
     1
102
RTVSPropertyOp31
 70
     1
102
RTVSPropertyOp32
 70
     1
  0
XRECORD
  5
359D
102
{ACAD_REACTORS
330
359C
102
}
330
359C
100
AcDbXrecord
280
     1
102
RTVSPropertyOp0
 70
     1
102
RTVSPropertyOp1
 70
     1
102
RTVSPropertyOp2
 70
     1
102
RTVSPropertyOp3
 70
     1
102
RTVSPropertyOp4
 70
     1
102
RTVSPropertyOp5
 70
     1
102
RTVSPropertyOp6
 70
     1
102
RTVSPropertyOp7
 70
     1
102
RTVSPropertyOp8
 70
     1
102
RTVSPropertyOp9
 70
     1
102
RTVSPropertyOp10
 70
     1
102
RTVSPropertyOp11
 70
     1
102
RTVSPropertyOp12
 70
     1
102
RTVSPropertyOp13
 70
     1
102
RTVSPropertyOp14
 70
     1
102
RTVSPropertyOp15
 70
     1
102
RTVSPropertyOp16
 70
     1
102
RTVSPropertyOp17
 70
     1
102
RTVSPropertyOp18
 70
     1
102
RTVSPropertyOp19
 70
     1
102
RTVSPropertyOp20
 70
     1
102
RTVSPropertyOp21
 70
     1
102
RTVSPropertyOp22
 70
     1
102
RTVSPropertyOp23
 70
     1
102
RTVSPropertyOp24
 70
     1
102
RTVSPropertyOp25
 70
     1
102
RTVSPropertyOp26
 70
     1
102
RTVSPropertyOp27
 70
     1
102
RTVSPropertyOp28
 70
     1
102
RTVSPropertyOp29
 70
     1
102
RTVSPropertyOp30
 70
     1
102
RTVSPropertyOp31
 70
     1
102
RTVSPropertyOp32
 70
     1
  0
XRECORD
  5
35BA
102
{ACAD_REACTORS
330
35B9
102
}
330
35B9
100
AcDbXrecord
280
     1
102
RTVSPropertyOp0
 70
     1
102
RTVSPropertyOp1
 70
     1
102
RTVSPropertyOp2
 70
     1
102
RTVSPropertyOp3
 70
     1
102
RTVSPropertyOp4
 70
     1
102
RTVSPropertyOp5
 70
     1
102
RTVSPropertyOp6
 70
     1
102
RTVSPropertyOp7
 70
     1
102
RTVSPropertyOp8
 70
     1
102
RTVSPropertyOp9
 70
     1
102
RTVSPropertyOp10
 70
     1
102
RTVSPropertyOp11
 70
     1
102
RTVSPropertyOp12
 70
     1
102
RTVSPropertyOp13
 70
     1
102
RTVSPropertyOp14
 70
     1
102
RTVSPropertyOp15
 70
     1
102
RTVSPropertyOp16
 70
     1
102
RTVSPropertyOp17
 70
     1
102
RTVSPropertyOp18
 70
     1
102
RTVSPropertyOp19
 70
     1
102
RTVSPropertyOp20
 70
     1
102
RTVSPropertyOp21
 70
     1
102
RTVSPropertyOp22
 70
     1
102
RTVSPropertyOp23
 70
     1
102
RTVSPropertyOp24
 70
     1
102
RTVSPropertyOp25
 70
     1
102
RTVSPropertyOp26
 70
     1
102
RTVSPropertyOp27
 70
     1
102
RTVSPropertyOp28
 70
     1
102
RTVSPropertyOp29
 70
     1
102
RTVSPropertyOp30
 70
     1
102
RTVSPropertyOp31
 70
     1
102
RTVSPropertyOp32
 70
     1
  0
XRECORD
  5
35C6
102
{ACAD_REACTORS
330
35C5
102
}
330
35C5
100
AcDbXrecord
280
     1
102
RTVSPropertyOp0
 70
     0
102
RTVSPropertyOp1
 70
     0
102
RTVSPropertyOp2
 70
     0
102
RTVSPropertyOp3
 70
     0
102
RTVSPropertyOp4
 70
     0
102
RTVSPropertyOp5
 70
     0
102
RTVSPropertyOp6
 70
     0
102
RTVSPropertyOp7
 70
     0
102
RTVSPropertyOp8
 70
     0
102
RTVSPropertyOp9
 70
     0
102
RTVSPropertyOp10
 70
     0
102
RTVSPropertyOp11
 70
     0
102
RTVSPropertyOp12
 70
     0
102
RTVSPropertyOp13
 70
     0
102
RTVSPropertyOp14
 70
     2
102
RTVSPropertyOp15
 70
     0
102
RTVSPropertyOp16
 70
     0
102
RTVSPropertyOp17
 70
     0
102
RTVSPropertyOp18
 70
     0
102
RTVSPropertyOp19
 70
     0
102
RTVSPropertyOp20
 70
     0
102
RTVSPropertyOp21
 70
     0
102
RTVSPropertyOp22
 70
     0
102
RTVSPropertyOp23
 70
     0
102
RTVSPropertyOp24
 70
     0
102
RTVSPropertyOp25
 70
     0
102
RTVSPropertyOp26
 70
     0
102
RTVSPropertyOp27
 70
     0
102
RTVSPropertyOp28
 70
     0
102
RTVSPropertyOp29
 70
     0
102
RTVSPropertyOp30
 70
     0
102
RTVSPropertyOp31
 70
     0
102
RTVSPropertyOp32
 70
     0
  0
XRECORD
  5
35B1
102
{ACAD_REACTORS
330
35B0
102
}
330
35B0
100
AcDbXrecord
280
     1
102
RTVSPropertyOp0
 70
     1
102
RTVSPropertyOp1
 70
     1
102
RTVSPropertyOp2
 70
     1
102
RTVSPropertyOp3
 70
     1
102
RTVSPropertyOp4
 70
     1
102
RTVSPropertyOp5
 70
     1
102
RTVSPropertyOp6
 70
     1
102
RTVSPropertyOp7
 70
     1
102
RTVSPropertyOp8
 70
     1
102
RTVSPropertyOp9
 70
     1
102
RTVSPropertyOp10
 70
     1
102
RTVSPropertyOp11
 70
     1
102
RTVSPropertyOp12
 70
     1
102
RTVSPropertyOp13
 70
     1
102
RTVSPropertyOp14
 70
     1
102
RTVSPropertyOp15
 70
     1
102
RTVSPropertyOp16
 70
     1
102
RTVSPropertyOp17
 70
     1
102
RTVSPropertyOp18
 70
     1
102
RTVSPropertyOp19
 70
     1
102
RTVSPropertyOp20
 70
     1
102
RTVSPropertyOp21
 70
     1
102
RTVSPropertyOp22
 70
     1
102
RTVSPropertyOp23
 70
     1
102
RTVSPropertyOp24
 70
     1
102
RTVSPropertyOp25
 70
     1
102
RTVSPropertyOp26
 70
     1
102
RTVSPropertyOp27
 70
     1
102
RTVSPropertyOp28
 70
     1
102
RTVSPropertyOp29
 70
     1
102
RTVSPropertyOp30
 70
     1
102
RTVSPropertyOp31
 70
     1
102
RTVSPropertyOp32
 70
     1
  0
XRECORD
  5
35C8
102
{ACAD_REACTORS
330
35C7
102
}
330
35C7
100
AcDbXrecord
280
     1
102
RTVSPropertyOp0
 70
     0
102
RTVSPropertyOp1
 70
     0
102
RTVSPropertyOp2
 70
     0
102
RTVSPropertyOp3
 70
     0
102
RTVSPropertyOp4
 70
     0
102
RTVSPropertyOp5
 70
     0
102
RTVSPropertyOp6
 70
     0
102
RTVSPropertyOp7
 70
     0
102
RTVSPropertyOp8
 70
     0
102
RTVSPropertyOp9
 70
     0
102
RTVSPropertyOp10
 70
     0
102
RTVSPropertyOp11
 70
     0
102
RTVSPropertyOp12
 70
     0
102
RTVSPropertyOp13
 70
     0
102
RTVSPropertyOp14
 70
     2
102
RTVSPropertyOp15
 70
     0
102
RTVSPropertyOp16
 70
     0
102
RTVSPropertyOp17
 70
     0
102
RTVSPropertyOp18
 70
     0
102
RTVSPropertyOp19
 70
     0
102
RTVSPropertyOp20
 70
     0
102
RTVSPropertyOp21
 70
     0
102
RTVSPropertyOp22
 70
     0
102
RTVSPropertyOp23
 70
     0
102
RTVSPropertyOp24
 70
     0
102
RTVSPropertyOp25
 70
     0
102
RTVSPropertyOp26
 70
     0
102
RTVSPropertyOp27
 70
     0
102
RTVSPropertyOp28
 70
     0
102
RTVSPropertyOp29
 70
     0
102
RTVSPropertyOp30
 70
     0
102
RTVSPropertyOp31
 70
     0
102
RTVSPropertyOp32
 70
     0
  0
XRECORD
  5
35A9
102
{ACAD_REACTORS
330
35A8
102
}
330
35A8
100
AcDbXrecord
280
     1
102
RTVSPropertyOp0
 70
     1
102
RTVSPropertyOp1
 70
     1
102
RTVSPropertyOp2
 70
     1
102
RTVSPropertyOp3
 70
     1
102
RTVSPropertyOp4
 70
     1
102
RTVSPropertyOp5
 70
     1
102
RTVSPropertyOp6
 70
     1
102
RTVSPropertyOp7
 70
     1
102
RTVSPropertyOp8
 70
     1
102
RTVSPropertyOp9
 70
     1
102
RTVSPropertyOp10
 70
     1
102
RTVSPropertyOp11
 70
     1
102
RTVSPropertyOp12
 70
     1
102
RTVSPropertyOp13
 70
     1
102
RTVSPropertyOp14
 70
     1
102
RTVSPropertyOp15
 70
     1
102
RTVSPropertyOp16
 70
     1
102
RTVSPropertyOp17
 70
     1
102
RTVSPropertyOp18
 70
     1
102
RTVSPropertyOp19
 70
     1
102
RTVSPropertyOp20
 70
     1
102
RTVSPropertyOp21
 70
     1
102
RTVSPropertyOp22
 70
     1
102
RTVSPropertyOp23
 70
     1
102
RTVSPropertyOp24
 70
     1
102
RTVSPropertyOp25
 70
     1
102
RTVSPropertyOp26
 70
     1
102
RTVSPropertyOp27
 70
     1
102
RTVSPropertyOp28
 70
     1
102
RTVSPropertyOp29
 70
     1
102
RTVSPropertyOp30
 70
     1
102
RTVSPropertyOp31
 70
     1
102
RTVSPropertyOp32
 70
     1
  0
XRECORD
  5
35C4
102
{ACAD_REACTORS
330
35C3
102
}
330
35C3
100
AcDbXrecord
280
     1
102
RTVSPropertyOp0
 70
     1
102
RTVSPropertyOp1
 70
     1
102
RTVSPropertyOp2
 70
     1
102
RTVSPropertyOp3
 70
     1
102
RTVSPropertyOp4
 70
     1
102
RTVSPropertyOp5
 70
     1
102
RTVSPropertyOp6
 70
     1
102
RTVSPropertyOp7
 70
     1
102
RTVSPropertyOp8
 70
     1
102
RTVSPropertyOp9
 70
     1
102
RTVSPropertyOp10
 70
     1
102
RTVSPropertyOp11
 70
     1
102
RTVSPropertyOp12
 70
     1
102
RTVSPropertyOp13
 70
     1
102
RTVSPropertyOp14
 70
     1
102
RTVSPropertyOp15
 70
     1
102
RTVSPropertyOp16
 70
     1
102
RTVSPropertyOp17
 70
     1
102
RTVSPropertyOp18
 70
     1
102
RTVSPropertyOp19
 70
     1
102
RTVSPropertyOp20
 70
     1
102
RTVSPropertyOp21
 70
     1
102
RTVSPropertyOp22
 70
     1
102
RTVSPropertyOp23
 70
     1
102
RTVSPropertyOp24
 70
     1
102
RTVSPropertyOp25
 70
     1
102
RTVSPropertyOp26
 70
     1
102
RTVSPropertyOp27
 70
     1
102
RTVSPropertyOp28
 70
     1
102
RTVSPropertyOp29
 70
     1
102
RTVSPropertyOp30
 70
     1
102
RTVSPropertyOp31
 70
     1
102
RTVSPropertyOp32
 70
     1
  0
XRECORD
  5
35C2
102
{ACAD_REACTORS
330
35C1
102
}
330
35C1
100
AcDbXrecord
280
     1
102
RTVSPropertyOp0
 70
     1
102
RTVSPropertyOp1
 70
     1
102
RTVSPropertyOp2
 70
     1
102
RTVSPropertyOp3
 70
     1
102
RTVSPropertyOp4
 70
     1
102
RTVSPropertyOp5
 70
     1
102
RTVSPropertyOp6
 70
     1
102
RTVSPropertyOp7
 70
     1
102
RTVSPropertyOp8
 70
     1
102
RTVSPropertyOp9
 70
     1
102
RTVSPropertyOp10
 70
     1
102
RTVSPropertyOp11
 70
     1
102
RTVSPropertyOp12
 70
     1
102
RTVSPropertyOp13
 70
     1
102
RTVSPropertyOp14
 70
     1
102
RTVSPropertyOp15
 70
     1
102
RTVSPropertyOp16
 70
     1
102
RTVSPropertyOp17
 70
     1
102
RTVSPropertyOp18
 70
     1
102
RTVSPropertyOp19
 70
     1
102
RTVSPropertyOp20
 70
     1
102
RTVSPropertyOp21
 70
     1
102
RTVSPropertyOp22
 70
     1
102
RTVSPropertyOp23
 70
     1
102
RTVSPropertyOp24
 70
     1
102
RTVSPropertyOp25
 70
     1
102
RTVSPropertyOp26
 70
     1
102
RTVSPropertyOp27
 70
     1
102
RTVSPropertyOp28
 70
     1
102
RTVSPropertyOp29
 70
     1
102
RTVSPropertyOp30
 70
     1
102
RTVSPropertyOp31
 70
     1
102
RTVSPropertyOp32
 70
     1
  0
XRECORD
  5
35BC
102
{ACAD_REACTORS
330
35BB
102
}
330
35BB
100
AcDbXrecord
280
     1
102
RTVSPropertyOp0
 70
     1
102
RTVSPropertyOp1
 70
     1
102
RTVSPropertyOp2
 70
     1
102
RTVSPropertyOp3
 70
     1
102
RTVSPropertyOp4
 70
     1
102
RTVSPropertyOp5
 70
     1
102
RTVSPropertyOp6
 70
     1
102
RTVSPropertyOp7
 70
     1
102
RTVSPropertyOp8
 70
     1
102
RTVSPropertyOp9
 70
     1
102
RTVSPropertyOp10
 70
     1
102
RTVSPropertyOp11
 70
     1
102
RTVSPropertyOp12
 70
     1
102
RTVSPropertyOp13
 70
     1
102
RTVSPropertyOp14
 70
     1
102
RTVSPropertyOp15
 70
     1
102
RTVSPropertyOp16
 70
     1
102
RTVSPropertyOp17
 70
     1
102
RTVSPropertyOp18
 70
     1
102
RTVSPropertyOp19
 70
     1
102
RTVSPropertyOp20
 70
     1
102
RTVSPropertyOp21
 70
     1
102
RTVSPropertyOp22
 70
     1
102
RTVSPropertyOp23
 70
     1
102
RTVSPropertyOp24
 70
     1
102
RTVSPropertyOp25
 70
     1
102
RTVSPropertyOp26
 70
     1
102
RTVSPropertyOp27
 70
     1
102
RTVSPropertyOp28
 70
     1
102
RTVSPropertyOp29
 70
     1
102
RTVSPropertyOp30
 70
     1
102
RTVSPropertyOp31
 70
     1
102
RTVSPropertyOp32
 70
     1
  0
XRECORD
  5
35BE
102
{ACAD_REACTORS
330
35BD
102
}
330
35BD
100
AcDbXrecord
280
     1
102
RTVSPropertyOp0
 70
     1
102
RTVSPropertyOp1
 70
     1
102
RTVSPropertyOp2
 70
     1
102
RTVSPropertyOp3
 70
     1
102
RTVSPropertyOp4
 70
     1
102
RTVSPropertyOp5
 70
     1
102
RTVSPropertyOp6
 70
     1
102
RTVSPropertyOp7
 70
     1
102
RTVSPropertyOp8
 70
     1
102
RTVSPropertyOp9
 70
     1
102
RTVSPropertyOp10
 70
     1
102
RTVSPropertyOp11
 70
     1
102
RTVSPropertyOp12
 70
     1
102
RTVSPropertyOp13
 70
     1
102
RTVSPropertyOp14
 70
     1
102
RTVSPropertyOp15
 70
     1
102
RTVSPropertyOp16
 70
     1
102
RTVSPropertyOp17
 70
     1
102
RTVSPropertyOp18
 70
     1
102
RTVSPropertyOp19
 70
     1
102
RTVSPropertyOp20
 70
     1
102
RTVSPropertyOp21
 70
     1
102
RTVSPropertyOp22
 70
     1
102
RTVSPropertyOp23
 70
     1
102
RTVSPropertyOp24
 70
     1
102
RTVSPropertyOp25
 70
     1
102
RTVSPropertyOp26
 70
     1
102
RTVSPropertyOp27
 70
     1
102
RTVSPropertyOp28
 70
     1
102
RTVSPropertyOp29
 70
     1
102
RTVSPropertyOp30
 70
     1
102
RTVSPropertyOp31
 70
     1
102
RTVSPropertyOp32
 70
     1
  0
XRECORD
  5
35AF
102
{ACAD_REACTORS
330
35AE
102
}
330
35AE
100
AcDbXrecord
280
     1
102
RTVSPropertyOp0
 70
     1
102
RTVSPropertyOp1
 70
     1
102
RTVSPropertyOp2
 70
     1
102
RTVSPropertyOp3
 70
     1
102
RTVSPropertyOp4
 70
     1
102
RTVSPropertyOp5
 70
     1
102
RTVSPropertyOp6
 70
     1
102
RTVSPropertyOp7
 70
     1
102
RTVSPropertyOp8
 70
     1
102
RTVSPropertyOp9
 70
     1
102
RTVSPropertyOp10
 70
     1
102
RTVSPropertyOp11
 70
     1
102
RTVSPropertyOp12
 70
     1
102
RTVSPropertyOp13
 70
     1
102
RTVSPropertyOp14
 70
     1
102
RTVSPropertyOp15
 70
     1
102
RTVSPropertyOp16
 70
     1
102
RTVSPropertyOp17
 70
     1
102
RTVSPropertyOp18
 70
     1
102
RTVSPropertyOp19
 70
     1
102
RTVSPropertyOp20
 70
     1
102
RTVSPropertyOp21
 70
     1
102
RTVSPropertyOp22
 70
     1
102
RTVSPropertyOp23
 70
     1
102
RTVSPropertyOp24
 70
     1
102
RTVSPropertyOp25
 70
     1
102
RTVSPropertyOp26
 70
     1
102
RTVSPropertyOp27
 70
     1
102
RTVSPropertyOp28
 70
     1
102
RTVSPropertyOp29
 70
     1
102
RTVSPropertyOp30
 70
     1
102
RTVSPropertyOp31
 70
     1
102
RTVSPropertyOp32
 70
     1
  0
XRECORD
  5
35B8
102
{ACAD_REACTORS
330
35B7
102
}
330
35B7
100
AcDbXrecord
280
     1
102
RTVSPropertyOp0
 70
     1
102
RTVSPropertyOp1
 70
     1
102
RTVSPropertyOp2
 70
     1
102
RTVSPropertyOp3
 70
     1
102
RTVSPropertyOp4
 70
     1
102
RTVSPropertyOp5
 70
     1
102
RTVSPropertyOp6
 70
     1
102
RTVSPropertyOp7
 70
     1
102
RTVSPropertyOp8
 70
     1
102
RTVSPropertyOp9
 70
     1
102
RTVSPropertyOp10
 70
     1
102
RTVSPropertyOp11
 70
     1
102
RTVSPropertyOp12
 70
     1
102
RTVSPropertyOp13
 70
     1
102
RTVSPropertyOp14
 70
     1
102
RTVSPropertyOp15
 70
     1
102
RTVSPropertyOp16
 70
     1
102
RTVSPropertyOp17
 70
     1
102
RTVSPropertyOp18
 70
     1
102
RTVSPropertyOp19
 70
     1
102
RTVSPropertyOp20
 70
     1
102
RTVSPropertyOp21
 70
     1
102
RTVSPropertyOp22
 70
     1
102
RTVSPropertyOp23
 70
     1
102
RTVSPropertyOp24
 70
     1
102
RTVSPropertyOp25
 70
     1
102
RTVSPropertyOp26
 70
     1
102
RTVSPropertyOp27
 70
     1
102
RTVSPropertyOp28
 70
     1
102
RTVSPropertyOp29
 70
     1
102
RTVSPropertyOp30
 70
     1
102
RTVSPropertyOp31
 70
     1
102
RTVSPropertyOp32
 70
     1
  0
XRECORD
  5
35C0
102
{ACAD_REACTORS
330
35BF
102
}
330
35BF
100
AcDbXrecord
280
     1
102
RTVSPropertyOp0
 70
     1
102
RTVSPropertyOp1
 70
     1
102
RTVSPropertyOp2
 70
     1
102
RTVSPropertyOp3
 70
     1
102
RTVSPropertyOp4
 70
     1
102
RTVSPropertyOp5
 70
     1
102
RTVSPropertyOp6
 70
     1
102
RTVSPropertyOp7
 70
     1
102
RTVSPropertyOp8
 70
     1
102
RTVSPropertyOp9
 70
     1
102
RTVSPropertyOp10
 70
     1
102
RTVSPropertyOp11
 70
     1
102
RTVSPropertyOp12
 70
     1
102
RTVSPropertyOp13
 70
     1
102
RTVSPropertyOp14
 70
     1
102
RTVSPropertyOp15
 70
     1
102
RTVSPropertyOp16
 70
     1
102
RTVSPropertyOp17
 70
     1
102
RTVSPropertyOp18
 70
     1
102
RTVSPropertyOp19
 70
     1
102
RTVSPropertyOp20
 70
     1
102
RTVSPropertyOp21
 70
     1
102
RTVSPropertyOp22
 70
     1
102
RTVSPropertyOp23
 70
     1
102
RTVSPropertyOp24
 70
     1
102
RTVSPropertyOp25
 70
     1
102
RTVSPropertyOp26
 70
     1
102
RTVSPropertyOp27
 70
     1
102
RTVSPropertyOp28
 70
     1
102
RTVSPropertyOp29
 70
     1
102
RTVSPropertyOp30
 70
     1
102
RTVSPropertyOp31
 70
     1
102
RTVSPropertyOp32
 70
     1
  0
ENDSEC
  0
EOF
