  0
SECTION
  2
HEADER
  9
$ACADVER
  1
AC1015
  9
$ACADMAINTVER
 70
    20
  9
$DWGCODEPAGE
  3
ANSI_1252
  9
$INSBASE
 10
0.0
 20
0.0
 30
0.0
  9
$EXTMIN
 10
9.985351755590954
 20
-0.0045250141855604
 30
-0.0000056087135019
  9
$EXTMAX
 10
420.0064141675693
 20
270.0201898544955
 30
0.7000154236728012
  9
$LIMMIN
 10
0.0
 20
0.0
  9
$LIMMAX
 10
420.0
 20
297.0
  9
$ORTHOMODE
 70
     1
  9
$REGENMODE
 70
     1
  9
$FILLMODE
 70
     1
  9
$QTEXTMODE
 70
     0
  9
$MIRRTEXT
 70
     0
  9
$LTSCALE
 40
23.1
  9
$ATTMODE
 70
     1
  9
$TEXTSIZE
 40
0.2
  9
$TRACEWID
 40
0.05
  9
$TEXTSTYLE
  7
Standard
  9
$CLAYER
  8
0
  9
$CELTYPE
  6
ByLayer
  9
$CECOLOR
 62
   256
  9
$CELTSCALE
 40
1.0
  9
$DISPSILH
 70
     0
  9
$DIMSCALE
 40
0.0
  9
$DIMASZ
 40
4.5
  9
$DIMEXO
 40
1.0
  9
$DIMDLI
 40
3.75
  9
$DIMRND
 40
0.0
  9
$DIMDLE
 40
0.0
  9
$DIMEXE
 40
2.0
  9
$DIMTP
 40
0.0
  9
$DIMTM
 40
0.0
  9
$DIMTXT
 40
5.0
  9
$DIMCEN
 40
2.5
  9
$DIMTSZ
 40
0.0
  9
$DIMTOL
 70
     0
  9
$DIMLIM
 70
     0
  9
$DIMTIH
 70
     0
  9
$DIMTOH
 70
     0
  9
$DIMSE1
 70
     0
  9
$DIMSE2
 70
     0
  9
$DIMTAD
 70
     0
  9
$DIMZIN
 70
     8
  9
$DIMBLK
  1

  9
$DIMASO
 70
     1
  9
$DIMSHO
 70
     1
  9
$DIMPOST
  1

  9
$DIMAPOST
  1

  9
$DIMALT
 70
     0
  9
$DIMALTD
 70
     4
  9
$DIMALTF
 40
0.0394
  9
$DIMLFAC
 40
1.0
  9
$DIMTOFL
 70
     1
  9
$DIMTVP
 40
0.0
  9
$DIMTIX
 70
     0
  9
$DIMSOXD
 70
     0
  9
$DIMSAH
 70
     0
  9
$DIMBLK1
  1

  9
$DIMBLK2
  1

  9
$DIMSTYLE
  2
H035
  9
$DIMCLRD
 70
     7
  9
$DIMCLRE
 70
     7
  9
$DIMCLRT
 70
     7
  9
$DIMTFAC
 40
1.0
  9
$DIMGAP
 40
1.0
  9
$DIMJUST
 70
     0
  9
$DIMSD1
 70
     0
  9
$DIMSD2
 70
     0
  9
$DIMTOLJ
 70
     1
  9
$DIMTZIN
 70
     0
  9
$DIMALTZ
 70
     0
  9
$DIMALTTZ
 70
     0
  9
$DIMUPT
 70
     0
  9
$DIMDEC
 70
     0
  9
$DIMTDEC
 70
     0
  9
$DIMALTU
 70
     8
  9
$DIMALTTD
 70
     4
  9
$DIMTXSTY
  7
Standard
  9
$DIMAUNIT
 70
     0
  9
$DIMADEC
 70
     0
  9
$DIMALTRND
 40
0.0
  9
$DIMAZIN
 70
     0
  9
$DIMDSEP
 70
    46
  9
$DIMATFIT
 70
     3
  9
$DIMFRAC
 70
     0
  9
$DIMLDRBLK
  1

  9
$DIMLUNIT
 70
     6
  9
$DIMLWD
 70
    -2
  9
$DIMLWE
 70
    -2
  9
$DIMTMOVE
 70
     0
  9
$LUNITS
 70
     2
  9
$LUPREC
 70
     4
  9
$SKETCHINC
 40
0.1
  9
$FILLETRAD
 40
0.0
  9
$AUNITS
 70
     0
  9
$AUPREC
 70
     0
  9
$MENU
  1
.
  9
$ELEVATION
 40
0.0
  9
$PELEVATION
 40
0.0
  9
$THICKNESS
 40
0.0
  9
$LIMCHECK
 70
     0
  9
$CHAMFERA
 40
0.0
  9
$CHAMFERB
 40
0.0
  9
$CHAMFERC
 40
0.0
  9
$CHAMFERD
 40
0.0
  9
$SKPOLY
 70
     0
  9
$TDCREATE
 40
2452829.417613079
  9
$TDUCREATE
 40
2452829.375946412
  9
$TDUPDATE
 40
2454112.421457037
  9
$TDUUPDATE
 40
2454112.379790371
  9
$TDINDWG
 40
0.8233416088
  9
$TDUSRTIMER
 40
0.8233232292
  9
$USRTIMER
 70
     1
  9
$ANGBASE
 50
0.0
  9
$ANGDIR
 70
     0
  9
$PDMODE
 70
     0
  9
$PDSIZE
 40
0.0
  9
$PLINEWID
 40
0.0
  9
$SPLFRAME
 70
     0
  9
$SPLINETYPE
 70
     6
  9
$SPLINESEGS
 70
     8
  9
$HANDSEED
  5
56C6
  9
$SURFTAB1
 70
     6
  9
$SURFTAB2
 70
     6
  9
$SURFTYPE
 70
     6
  9
$SURFU
 70
     6
  9
$SURFV
 70
     6
  9
$UCSBASE
  2

  9
$UCSNAME
  2

  9
$UCSORG
 10
0.0
 20
0.0
 30
0.0
  9
$UCSXDIR
 10
1.0
 20
0.0
 30
0.0
  9
$UCSYDIR
 10
0.0
 20
1.0
 30
0.0
  9
$UCSORTHOREF
  2

  9
$UCSORTHOVIEW
 70
     0
  9
$UCSORGTOP
 10
0.0
 20
0.0
 30
0.0
  9
$UCSORGBOTTOM
 10
0.0
 20
0.0
 30
0.0
  9
$UCSORGLEFT
 10
0.0
 20
0.0
 30
0.0
  9
$UCSORGRIGHT
 10
0.0
 20
0.0
 30
0.0
  9
$UCSORGFRONT
 10
0.0
 20
0.0
 30
0.0
  9
$UCSORGBACK
 10
0.0
 20
0.0
 30
0.0
  9
$PUCSBASE
  2

  9
$PUCSNAME
  2

  9
$PUCSORG
 10
0.0
 20
0.0
 30
0.0
  9
$PUCSXDIR
 10
1.0
 20
0.0
 30
0.0
  9
$PUCSYDIR
 10
0.0
 20
1.0
 30
0.0
  9
$PUCSORTHOREF
  2

  9
$PUCSORTHOVIEW
 70
     0
  9
$PUCSORGTOP
 10
0.0
 20
0.0
 30
0.0
  9
$PUCSORGBOTTOM
 10
0.0
 20
0.0
 30
0.0
  9
$PUCSORGLEFT
 10
0.0
 20
0.0
 30
0.0
  9
$PUCSORGRIGHT
 10
0.0
 20
0.0
 30
0.0
  9
$PUCSORGFRONT
 10
0.0
 20
0.0
 30
0.0
  9
$PUCSORGBACK
 10
0.0
 20
0.0
 30
0.0
  9
$USERI1
 70
     0
  9
$USERI2
 70
     0
  9
$USERI3
 70
     0
  9
$USERI4
 70
     0
  9
$USERI5
 70
     0
  9
$USERR1
 40
0.0
  9
$USERR2
 40
0.0
  9
$USERR3
 40
0.0
  9
$USERR4
 40
0.0
  9
$USERR5
 40
0.0
  9
$WORLDVIEW
 70
     1
  9
$SHADEDGE
 70
     3
  9
$SHADEDIF
 70
    70
  9
$TILEMODE
 70
     1
  9
$MAXACTVP
 70
    64
  9
$PINSBASE
 10
0.0
 20
0.0
 30
0.0
  9
$PLIMCHECK
 70
     0
  9
$PEXTMIN
 10
1.000000000000000E+20
 20
1.000000000000000E+20
 30
1.000000000000000E+20
  9
$PEXTMAX
 10
-1.000000000000000E+20
 20
-1.000000000000000E+20
 30
-1.000000000000000E+20
  9
$PLIMMIN
 10
0.0
 20
0.0
  9
$PLIMMAX
 10
12.0
 20
9.0
  9
$UNITMODE
 70
     0
  9
$VISRETAIN
 70
     1
  9
$PLINEGEN
 70
     0
  9
$PSLTSCALE
 70
     1
  9
$TREEDEPTH
 70
  3020
  9
$CMLSTYLE
  2
Standard
  9
$CMLJUST
 70
     0
  9
$CMLSCALE
 40
1.0
  9
$PROXYGRAPHICS
 70
     1
  9
$MEASUREMENT
 70
     0
  9
$CELWEIGHT
370
    -1
  9
$ENDCAPS
280
     0
  9
$JOINSTYLE
280
     0
  9
$LWDISPLAY
290
     0
  9
$INSUNITS
 70
     0
  9
$HYPERLINKBASE
  1

  9
$STYLESHEET
  1
MONOCHROME.CTB
  9
$XEDIT
290
     1
  9
$CEPSNTYPE
380
     0
  9
$PSTYLEMODE
290
     1
  9
$FINGERPRINTGUID
  2
{D88032C4-1185-41D3-97DD-7638FCF99E3F}
  9
$VERSIONGUID
  2
{FB22B9A0-7B24-4B72-94F7-95E2FAEFAB6C}
  9
$EXTNAMES
290
     1
  9
$PSVPSCALE
 40
0.0
  9
$OLESTARTUP
290
     0
  0
ENDSEC
  0
SECTION
  2
CLASSES
  0
CLASS
  1
ACDBDICTIONARYWDFLT
  2
AcDbDictionaryWithDefault
  3
ObjectDBX Classes
 90
        0
280
     0
281
     0
  0
CLASS
  1
MATERIAL
  2
AcDbMaterial
  3
ObjectDBX Classes
 90
     1024
280
     0
281
     0
  0
CLASS
  1
VISUALSTYLE
  2
AcDbVisualStyle
  3
ObjectDBX Classes
 90
     4095
280
     0
281
     0
  0
CLASS
  1
TABLESTYLE
  2
AcDbTableStyle
  3
ObjectDBX Classes
 90
     4095
280
     0
281
     0
  0
CLASS
  1
SORTENTSTABLE
  2
AcDbSortentsTable
  3
ObjectDBX Classes
 90
        0
280
     0
281
     0
  0
CLASS
  1
DICTIONARYVAR
  2
AcDbDictionaryVar
  3
ObjectDBX Classes
 90
        0
280
     0
281
     0
  0
CLASS
  1
ACDBPLACEHOLDER
  2
AcDbPlaceHolder
  3
ObjectDBX Classes
 90
        0
280
     0
281
     0
  0
CLASS
  1
LAYOUT
  2
AcDbLayout
  3
ObjectDBX Classes
 90
        0
280
     0
281
     0
  0
ENDSEC
  0
SECTION
  2
TABLES
  0
TABLE
  2
VPORT
  5
8
330
0
100
AcDbSymbolTable
 70
     1
  0
VPORT
  5
55B7
330
8
100
AcDbSymbolTableRecord
100
AcDbViewportTableRecord
  2
*Active
 70
     0
 10
0.0
 20
0.0
 11
1.0
 21
1.0
 12
214.9958829615802
 22
135.0078324201549
 13
0.0
 23
0.0
 14
1.0
 24
1.0
 15
0.0
 25
0.0
 16
0.0
 26
0.0
 36
1.0
 17
0.0
 27
0.0
 37
0.0
 40
271.7819255945076
 41
1.958740499457111
 42
50.0
 43
0.0
 44
0.0
 50
0.0
 51
0.0
 71
     0
 72
   100
 73
     1
 74
     1
 75
     0
 76
     0
 77
     0
 78
     0
281
     0
 65
     1
110
0.0
120
0.0
130
0.0
111
1.0
121
0.0
131
0.0
112
0.0
122
1.0
132
0.0
 79
     0
146
0.0
  0
ENDTAB
  0
TABLE
  2
LTYPE
  5
5
330
0
100
AcDbSymbolTable
 70
     2
  0
LTYPE
  5
13
330
5
100
AcDbSymbolTableRecord
100
AcDbLinetypeTableRecord
  2
ByBlock
 70
     0
  3

 72
    65
 73
     0
 40
0.0
  0
LTYPE
  5
14
330
5
100
AcDbSymbolTableRecord
100
AcDbLinetypeTableRecord
  2
ByLayer
 70
     0
  3

 72
    65
 73
     0
 40
0.0
  0
LTYPE
  5
15
330
5
100
AcDbSymbolTableRecord
100
AcDbLinetypeTableRecord
  2
CONTINUOUS
 70
     0
  3
Solid line
 72
    65
 73
     0
 40
0.0
  0
LTYPE
  5
26
330
5
100
AcDbSymbolTableRecord
100
AcDbLinetypeTableRecord
  2
CENTER
 70
     0
  3
____ _ ____ _ ____ _ ____ _ ____ _ ____ _ ____
 72
    65
 73
     4
 40
0.6
 49
0.375
 74
     0
 49
-0.075
 74
     0
 49
0.075
 74
     0
 49
-0.075
 74
     0
  0
ENDTAB
  0
TABLE
  2
LAYER
  5
2
330
0
100
AcDbSymbolTable
 70
    10
  0
LAYER
  5
10
330
2
100
AcDbSymbolTableRecord
100
AcDbLayerTableRecord
  2
0
 70
     0
 62
     7
  6
CONTINUOUS
370
    -3
390
F
  0
LAYER
  5
130
330
2
100
AcDbSymbolTableRecord
100
AcDbLayerTableRecord
  2
DEFPOINTS
 70
     0
 62
     7
  6
CONTINUOUS
290
     0
370
    -3
390
F
  0
LAYER
  5
56B
330
2
100
AcDbSymbolTableRecord
100
AcDbLayerTableRecord
  2
91000_TIP
 70
     0
 62
     7
  6
CONTINUOUS
370
    -3
390
F
  0
LAYER
  5
1E9D
330
2
100
AcDbSymbolTableRecord
100
AcDbLayerTableRecord
  2
10000_Front
 70
     0
 62
     7
  6
CONTINUOUS
370
    -3
390
F
  0
LAYER
  5
1E9E
330
2
100
AcDbSymbolTableRecord
100
AcDbLayerTableRecord
  2
10100_Front_Dim
 70
     0
 62
     7
  6
CONTINUOUS
370
    -3
390
F
  0
LAYER
  5
1E9F
330
2
100
AcDbSymbolTableRecord
100
AcDbLayerTableRecord
  2
11000_Left
 70
     0
 62
     7
  6
CONTINUOUS
370
    -3
390
F
  0
LAYER
  5
1EA0
330
2
100
AcDbSymbolTableRecord
100
AcDbLayerTableRecord
  2
11100_Left_Dim
 70
     0
 62
     7
  6
CONTINUOUS
370
    -3
390
F
  0
LAYER
  5
1EA1
330
2
100
AcDbSymbolTableRecord
100
AcDbLayerTableRecord
  2
90000_Frame
 70
     0
 62
     7
  6
CONTINUOUS
370
    -3
390
F
  0
LAYER
  5
21DD
330
2
100
AcDbSymbolTableRecord
100
AcDbLayerTableRecord
  2
30000_Drilling
 70
     0
 62
     7
  6
CONTINUOUS
370
    -3
390
F
  0
LAYER
  5
21DE
330
2
100
AcDbSymbolTableRecord
100
AcDbLayerTableRecord
  2
30100_Drilling_DIM
 70
     0
 62
     7
  6
CONTINUOUS
370
    -3
390
F
  0
ENDTAB
  0
TABLE
  2
STYLE
  5
3
330
0
100
AcDbSymbolTable
 70
     1
  0
STYLE
  5
11
330
3
100
AcDbSymbolTableRecord
100
AcDbTextStyleTableRecord
  2
Standard
 70
     0
 40
0.0
 41
1.0
 50
0.0
 71
     0
 42
0.2
  3
txt
  4

  0
ENDTAB
  0
TABLE
  2
VIEW
  5
6
330
0
100
AcDbSymbolTable
 70
     0
  0
ENDTAB
  0
TABLE
  2
UCS
  5
7
330
0
100
AcDbSymbolTable
 70
     0
  0
ENDTAB
  0
TABLE
  2
APPID
  5
9
330
0
100
AcDbSymbolTable
 70
     3
  0
APPID
  5
12
330
9
100
AcDbSymbolTableRecord
100
AcDbRegAppTableRecord
  2
ACAD
 70
     0
  0
APPID
  5
132
330
9
100
AcDbSymbolTableRecord
100
AcDbRegAppTableRecord
  2
AUSTER_ANSICHT
 70
     0
  0
APPID
  5
133
330
9
100
AcDbSymbolTableRecord
100
AcDbRegAppTableRecord
  2
AUSTER_FOLIE
 70
     0
  0
ENDTAB
  0
TABLE
  2
DIMSTYLE
  5
A
330
0
100
AcDbSymbolTable
 70
     2
100
AcDbDimStyleTable
 71
     2
340
5D3
340
BA
  0
DIMSTYLE
105
BA
330
A
100
AcDbSymbolTableRecord
100
AcDbDimStyleTableRecord
  2
Standard
 70
     0
340
11
  0
DIMSTYLE
105
5D3
102
{ACAD_REACTORS
330
41B5
330
41C3
330
41D1
330
41DF
330
4201
330
4211
330
3742
330
3743
330
3744
330
4CE1
330
4CE0
330
4CDF
330
4CDE
330
4CDD
330
4CDC
102
}
330
A
100
AcDbSymbolTableRecord
100
AcDbDimStyleTableRecord
  2
H035
 70
     0
 40
0.0
 41
4.5
 42
1.0
 43
3.75
 44
2.0
 73
     0
 74
     0
 78
     8
140
5.0
141
2.5
143
0.0394
147
1.0
171
     4
172
     1
176
     7
177
     7
178
     7
271
     0
272
     0
273
     8
274
     4
277
     6
340
11
  0
ENDTAB
  0
TABLE
  2
BLOCK_RECORD
  5
1
330
0
100
AcDbSymbolTable
 70
    20
  0
BLOCK_RECORD
  5
20
330
1
100
AcDbSymbolTableRecord
100
AcDbBlockTableRecord
  2
*Model_Space
340
23
  0
BLOCK_RECORD
  5
1C
330
1
100
AcDbSymbolTableRecord
100
AcDbBlockTableRecord
  2
*Paper_Space
340
1F
  0
BLOCK_RECORD
  5
3A
330
1
100
AcDbSymbolTableRecord
100
AcDbBlockTableRecord
  2
SIEMENS_OUTLINE_BL0
340
0
102
{BLKREFS
331
AA
102
}
  0
BLOCK_RECORD
  5
3745
330
1
100
AcDbSymbolTableRecord
100
AcDbBlockTableRecord
  2
*D1
340
0
  0
BLOCK_RECORD
  5
3754
330
1
100
AcDbSymbolTableRecord
100
AcDbBlockTableRecord
  2
*D2
340
0
  0
BLOCK_RECORD
  5
3761
330
1
100
AcDbSymbolTableRecord
100
AcDbBlockTableRecord
  2
*D3
340
0
  0
BLOCK_RECORD
  5
41B6
330
1
100
AcDbSymbolTableRecord
100
AcDbBlockTableRecord
  2
*D4
340
0
  0
BLOCK_RECORD
  5
41C4
330
1
100
AcDbSymbolTableRecord
100
AcDbBlockTableRecord
  2
*D5
340
0
  0
BLOCK_RECORD
  5
41D2
330
1
100
AcDbSymbolTableRecord
100
AcDbBlockTableRecord
  2
*D6
340
0
  0
BLOCK_RECORD
  5
41E0
330
1
100
AcDbSymbolTableRecord
100
AcDbBlockTableRecord
  2
*D7
340
0
  0
BLOCK_RECORD
  5
4202
330
1
100
AcDbSymbolTableRecord
100
AcDbBlockTableRecord
  2
*D8
340
0
  0
BLOCK_RECORD
  5
4212
330
1
100
AcDbSymbolTableRecord
100
AcDbBlockTableRecord
  2
*D9
340
0
  0
BLOCK_RECORD
  5
4D9F
330
1
100
AcDbSymbolTableRecord
100
AcDbBlockTableRecord
  2
*D10
340
0
  0
BLOCK_RECORD
  5
4DAD
330
1
100
AcDbSymbolTableRecord
100
AcDbBlockTableRecord
  2
*D11
340
0
  0
BLOCK_RECORD
  5
4DBA
330
1
100
AcDbSymbolTableRecord
100
AcDbBlockTableRecord
  2
*D12
340
0
  0
BLOCK_RECORD
  5
4DC7
330
1
100
AcDbSymbolTableRecord
100
AcDbBlockTableRecord
  2
*D13
340
0
  0
BLOCK_RECORD
  5
4DD4
330
1
100
AcDbSymbolTableRecord
100
AcDbBlockTableRecord
  2
*D14
340
0
  0
BLOCK_RECORD
  5
4DE3
330
1
100
AcDbSymbolTableRecord
100
AcDbBlockTableRecord
  2
*D15
340
0
  0
BLOCK_RECORD
  5
4E34
330
1
100
AcDbSymbolTableRecord
100
AcDbBlockTableRecord
  2
*D16
340
0
  0
BLOCK_RECORD
  5
5019
330
1
100
AcDbSymbolTableRecord
100
AcDbBlockTableRecord
  2
*D17
340
0
  0
BLOCK_RECORD
  5
51FB
330
1
100
AcDbSymbolTableRecord
100
AcDbBlockTableRecord
  2
*D18
340
0
  0
ENDTAB
  0
ENDSEC
  0
SECTION
  2
BLOCKS
  0
BLOCK
  5
21
330
20
100
AcDbEntity
  8
0
100
AcDbBlockBegin
  2
*Model_Space
 70
     0
 10
0.0
 20
0.0
 30
0.0
  3
*Model_Space
  1

  0
ENDBLK
  5
22
330
20
100
AcDbEntity
  8
0
100
AcDbBlockEnd
  0
BLOCK
  5
1D
330
1C
100
AcDbEntity
 67
     1
  8
0
100
AcDbBlockBegin
  2
*Paper_Space
 70
     0
 10
0.0
 20
0.0
 30
0.0
  3
*Paper_Space
  1

  0
ENDBLK
  5
1E
330
1C
100
AcDbEntity
 67
     1
  8
0
100
AcDbBlockEnd
  0
BLOCK
  5
3B
330
3A
100
AcDbEntity
  8
0
  6
Continuous
 62
     7
100
AcDbBlockBegin
  2
SIEMENS_OUTLINE_BL0
 70
     0
 10
0.0
 20
0.0
 30
0.0
  3
SIEMENS_OUTLINE_BL0
  1

  0
LINE
  5
3C
330
3A
100
AcDbEntity
  8
0
  6
Continuous
 62
     7
100
AcDbLine
 10
289.1235341257
 20
21.4969115175
 30
0.0
 11
289.1235341257
 21
16.7436424342
 31
0.0
  0
LINE
  5
3D
330
3A
100
AcDbEntity
  8
0
  6
Continuous
 62
     7
100
AcDbLine
 10
290.5495148507
 20
21.4969115175
 30
0.0
 11
290.5495148507
 21
16.7436424342
 31
0.0
  0
LINE
  5
3E
330
3A
100
AcDbEntity
  8
0
  6
Continuous
 62
     7
100
AcDbLine
 10
289.1235341257
 20
16.7436424342
 30
0.0
 11
290.5495148507
 21
16.7436424342
 31
0.0
  0
LINE
  5
3F
330
3A
100
AcDbEntity
  8
0
  6
Continuous
 62
     7
100
AcDbLine
 10
289.1235341257
 20
21.4969115175
 30
0.0
 11
290.5495148507
 21
21.4969115175
 31
0.0
  0
LINE
  5
40
330
3A
100
AcDbEntity
  8
0
  6
Continuous
 62
     7
100
AcDbLine
 10
291.6427667399
 20
21.4969115175
 30
0.0
 11
291.6427667399
 21
16.7436424342
 31
0.0
  0
LINE
  5
41
330
3A
100
AcDbEntity
  8
0
  6
Continuous
 62
     7
100
AcDbLine
 10
291.6427667399
 20
16.7436424342
 30
0.0
 11
295.2077185523
 21
16.7436424342
 31
0.0
  0
LINE
  5
42
330
3A
100
AcDbEntity
  8
0
  6
Continuous
 62
     7
100
AcDbLine
 10
295.2077185523
 20
17.64676356
 30
0.0
 11
293.021214774
 21
17.64676356
 31
0.0
  0
LINE
  5
43
330
3A
100
AcDbEntity
  8
0
  6
Continuous
 62
     7
100
AcDbLine
 10
295.2077185523
 20
17.64676356
 30
0.0
 11
295.2077185523
 21
16.7436424342
 31
0.0
  0
LINE
  5
44
330
3A
100
AcDbEntity
  8
0
  6
Continuous
 62
     7
100
AcDbLine
 10
295.1601858615
 20
21.4969115175
 30
0.0
 11
291.6427667399
 21
21.4969115175
 31
0.0
  0
LINE
  5
45
330
3A
100
AcDbEntity
  8
0
  6
Continuous
 62
     7
100
AcDbLine
 10
295.1601858615
 20
20.6175567371
 30
0.0
 11
293.021214774
 21
20.6175567371
 31
0.0
  0
LINE
  5
46
330
3A
100
AcDbEntity
  8
0
  6
Continuous
 62
     7
100
AcDbLine
 10
295.1601858615
 20
21.4969115175
 30
0.0
 11
295.1601858615
 21
20.6175567371
 31
0.0
  0
LINE
  5
47
330
3A
100
AcDbEntity
  8
0
  6
Continuous
 62
     7
100
AcDbLine
 10
294.8749897165
 20
18.7637817946
 30
0.0
 11
293.021214774
 21
18.7637817946
 31
0.0
  0
LINE
  5
48
330
3A
100
AcDbEntity
  8
0
  6
Continuous
 62
     7
100
AcDbLine
 10
294.8749897165
 20
19.5480711933
 30
0.0
 11
294.8749897165
 21
18.7637817946
 31
0.0
  0
LINE
  5
49
330
3A
100
AcDbEntity
  8
0
  6
Continuous
 62
     7
100
AcDbLine
 10
294.8749897165
 20
19.5480711933
 30
0.0
 11
293.021214774
 21
19.5480711933
 31
0.0
  0
LINE
  5
4A
330
3A
100
AcDbEntity
  8
0
  6
Continuous
 62
     7
100
AcDbLine
 10
293.021214774
 20
20.6175567371
 30
0.0
 11
293.021214774
 21
19.5480711933
 31
0.0
  0
LINE
  5
4B
330
3A
100
AcDbEntity
  8
0
  6
Continuous
 62
     7
100
AcDbLine
 10
293.021214774
 20
18.7637817946
 30
0.0
 11
293.021214774
 21
17.64676356
 31
0.0
  0
LINE
  5
4C
330
3A
100
AcDbEntity
  8
0
  6
Continuous
 62
     7
100
AcDbLine
 10
296.0157742965
 20
16.7436424342
 30
0.0
 11
296.0157742965
 21
21.4969115175
 31
0.0
  0
LINE
  5
4D
330
3A
100
AcDbEntity
  8
0
  6
Continuous
 62
     7
100
AcDbLine
 10
296.0157742965
 20
16.7436424342
 30
0.0
 11
296.9664281131
 21
16.7436424342
 31
0.0
  0
LINE
  5
4E
330
3A
100
AcDbEntity
  8
0
  6
Continuous
 62
     7
100
AcDbLine
 10
301.8622952689
 20
21.4969115175
 30
0.0
 11
301.8622952689
 21
16.7436424342
 31
0.0
  0
LINE
  5
4F
330
3A
100
AcDbEntity
  8
0
  6
Continuous
 62
     7
100
AcDbLine
 10
301.8622952689
 20
16.7436424342
 30
0.0
 11
300.4838472348
 21
16.7436424342
 31
0.0
  0
LINE
  5
50
330
3A
100
AcDbEntity
  8
0
  6
Continuous
 62
     7
100
AcDbLine
 10
298.2973434565
 20
16.6961097434
 30
0.0
 11
299.1529318914
 21
16.6961097434
 31
0.0
  0
LINE
  5
51
330
3A
100
AcDbEntity
  8
0
  6
Continuous
 62
     7
100
AcDbLine
 10
298.2973434565
 20
16.6961097434
 30
0.0
 11
296.9664281131
 21
19.7857346475
 31
0.0
  0
LINE
  5
52
330
3A
100
AcDbEntity
  8
0
  6
Continuous
 62
     7
100
AcDbLine
 10
296.9664281131
 20
16.7436424342
 30
0.0
 11
296.9664281131
 21
19.7857346475
 31
0.0
  0
LINE
  5
53
330
3A
100
AcDbEntity
  8
0
  6
Continuous
 62
     7
100
AcDbLine
 10
300.4838472348
 20
19.8332673383
 30
0.0
 11
299.1529318914
 21
16.6961097434
 31
0.0
  0
LINE
  5
54
330
3A
100
AcDbEntity
  8
0
  6
Continuous
 62
     7
100
AcDbLine
 10
297.7269511665
 20
21.4969115175
 30
0.0
 11
296.0157742965
 21
21.4969115175
 31
0.0
  0
LINE
  5
55
330
3A
100
AcDbEntity
  8
0
  6
Continuous
 62
     7
100
AcDbLine
 10
301.8622952689
 20
21.4969115175
 30
0.0
 11
300.1511183989
 21
21.4969115175
 31
0.0
  0
LINE
  5
56
330
3A
100
AcDbEntity
  8
0
  6
Continuous
 62
     7
100
AcDbLine
 10
297.7269511665
 20
21.4969115175
 30
0.0
 11
298.9628011281
 21
18.5974173767
 31
0.0
  0
LINE
  5
57
330
3A
100
AcDbEntity
  8
0
  6
Continuous
 62
     7
100
AcDbLine
 10
300.1511183989
 20
21.4969115175
 30
0.0
 11
298.9628011281
 21
18.5974173767
 31
0.0
  0
LINE
  5
58
330
3A
100
AcDbEntity
  8
0
  6
Continuous
 62
     7
100
AcDbLine
 10
300.4838472348
 20
19.8332673383
 30
0.0
 11
300.4838472348
 21
16.7436424342
 31
0.0
  0
LINE
  5
59
330
3A
100
AcDbEntity
  8
0
  6
Continuous
 62
     7
100
AcDbLine
 10
302.9555471581
 20
21.4969115175
 30
0.0
 11
302.9555471581
 21
16.7436424342
 31
0.0
  0
LINE
  5
5A
330
3A
100
AcDbEntity
  8
0
  6
Continuous
 62
     7
100
AcDbLine
 10
302.9555471581
 20
16.7436424342
 30
0.0
 11
306.5204989705
 21
16.7436424342
 31
0.0
  0
LINE
  5
5B
330
3A
100
AcDbEntity
  8
0
  6
Continuous
 62
     7
100
AcDbLine
 10
306.5204989705
 20
17.64676356
 30
0.0
 11
304.3339951922
 21
17.64676356
 31
0.0
  0
LINE
  5
5C
330
3A
100
AcDbEntity
  8
0
  6
Continuous
 62
     7
100
AcDbLine
 10
306.5204989705
 20
17.64676356
 30
0.0
 11
306.5204989705
 21
16.7436424342
 31
0.0
  0
LINE
  5
5D
330
3A
100
AcDbEntity
  8
0
  6
Continuous
 62
     7
100
AcDbLine
 10
306.4729662797
 20
21.4969115175
 30
0.0
 11
302.9555471581
 21
21.4969115175
 31
0.0
  0
LINE
  5
5E
330
3A
100
AcDbEntity
  8
0
  6
Continuous
 62
     7
100
AcDbLine
 10
306.4729662797
 20
20.6175567371
 30
0.0
 11
304.3339951922
 21
20.6175567371
 31
0.0
  0
LINE
  5
5F
330
3A
100
AcDbEntity
  8
0
  6
Continuous
 62
     7
100
AcDbLine
 10
306.4729662797
 20
21.4969115175
 30
0.0
 11
306.4729662797
 21
20.6175567371
 31
0.0
  0
LINE
  5
60
330
3A
100
AcDbEntity
  8
0
  6
Continuous
 62
     7
100
AcDbLine
 10
306.1877701347
 20
18.7637817946
 30
0.0
 11
304.3339951922
 21
18.7637817946
 31
0.0
  0
LINE
  5
61
330
3A
100
AcDbEntity
  8
0
  6
Continuous
 62
     7
100
AcDbLine
 10
306.1877701347
 20
19.5480711933
 30
0.0
 11
306.1877701347
 21
18.7637817946
 31
0.0
  0
LINE
  5
62
330
3A
100
AcDbEntity
  8
0
  6
Continuous
 62
     7
100
AcDbLine
 10
306.1877701347
 20
19.5480711933
 30
0.0
 11
304.3339951922
 21
19.5480711933
 31
0.0
  0
LINE
  5
63
330
3A
100
AcDbEntity
  8
0
  6
Continuous
 62
     7
100
AcDbLine
 10
304.3339951922
 20
20.6175567371
 30
0.0
 11
304.3339951922
 21
19.5480711933
 31
0.0
  0
LINE
  5
64
330
3A
100
AcDbEntity
  8
0
  6
Continuous
 62
     7
100
AcDbLine
 10
304.3339951922
 20
18.7637817946
 30
0.0
 11
304.3339951922
 21
17.64676356
 31
0.0
  0
LINE
  5
65
330
3A
100
AcDbEntity
  8
0
  6
Continuous
 62
     7
100
AcDbLine
 10
307.3047883693
 20
16.7436424342
 30
0.0
 11
307.3047883693
 21
21.4969115175
 31
0.0
  0
LINE
  5
66
330
3A
100
AcDbEntity
  8
0
  6
Continuous
 62
     7
100
AcDbLine
 10
311.4876651625
 20
21.4969115175
 30
0.0
 11
311.4876651625
 21
16.7436424342
 31
0.0
  0
LINE
  5
67
330
3A
100
AcDbEntity
  8
0
  6
Continuous
 62
     7
100
AcDbLine
 10
307.3047883693
 20
16.7436424342
 30
0.0
 11
308.2554421859
 21
16.7436424342
 31
0.0
  0
LINE
  5
68
330
3A
100
AcDbEntity
  8
0
  6
Continuous
 62
     7
100
AcDbLine
 10
311.4876651625
 20
21.4969115175
 30
0.0
 11
310.5370113459
 21
21.4969115175
 31
0.0
  0
LINE
  5
69
330
3A
100
AcDbEntity
  8
0
  6
Continuous
 62
     7
100
AcDbLine
 10
308.8496008213
 20
21.4969115175
 30
0.0
 11
307.3047883693
 21
21.4969115175
 31
0.0
  0
LINE
  5
6A
330
3A
100
AcDbEntity
  8
0
  6
Continuous
 62
     7
100
AcDbLine
 10
311.4876651625
 20
16.7436424342
 30
0.0
 11
309.9666190559
 21
16.7436424342
 31
0.0
  0
LINE
  5
6B
330
3A
100
AcDbEntity
  8
0
  6
Continuous
 62
     7
100
AcDbLine
 10
309.9666190559
 20
16.7436424342
 30
0.0
 11
308.2554421859
 21
19.7857346475
 31
0.0
  0
LINE
  5
6C
330
3A
100
AcDbEntity
  8
0
  6
Continuous
 62
     7
100
AcDbLine
 10
308.8496008213
 20
21.4969115175
 30
0.0
 11
310.5370113459
 21
18.5498846858
 31
0.0
  0
LINE
  5
6D
330
3A
100
AcDbEntity
  8
0
  6
Continuous
 62
     7
100
AcDbLine
 10
310.5370113459
 20
21.4969115175
 30
0.0
 11
310.5370113459
 21
18.5498846858
 31
0.0
  0
LINE
  5
6E
330
3A
100
AcDbEntity
  8
0
  6
Continuous
 62
     7
100
AcDbLine
 10
308.2554421859
 20
16.7436424342
 30
0.0
 11
308.2554421859
 21
19.7857346475
 31
0.0
  0
LINE
  5
6F
330
3A
100
AcDbEntity
  8
0
  6
Continuous
 62
     7
100
AcDbLine
 10
312.2957209067
 20
16.8387078159
 30
0.0
 11
312.2957209067
 21
17.7893616325
 31
0.0
  0
LINE
  5
70
330
3A
100
AcDbEntity
  8
0
  6
Continuous
 62
     7
100
AcDbLine
 10
315.623009265
 20
20.49872501
 30
0.0
 11
315.623009265
 21
21.4493788266
 31
0.0
  0
ARC
  5
71
330
3A
100
AcDbEntity
  8
0
  6
Continuous
 62
     7
100
AcDbCircle
 10
314.0003620317
 20
18.7008009792
 30
0.0
 40
1.111619360599997
100
AcDbArc
 50
277.7099956934
 51
295.6884927746
  0
ARC
  5
72
330
3A
100
AcDbEntity
  8
0
  6
Continuous
 62
     7
100
AcDbCircle
 10
314.2846720145
 20
17.9759752156
 30
0.0
 40
0.3401689265
100
AcDbArc
 50
305.503221255
 51
72.46528985229999
  0
ARC
  5
73
330
3A
100
AcDbEntity
  8
0
  6
Continuous
 62
     7
100
AcDbCircle
 10
313.7186782063
 20
21.3776821252
 30
0.0
 40
4.756794641099999
100
AcDbArc
 50
252.5939200548001
 51
280.9816604256
  0
ARC
  5
74
330
3A
100
AcDbEntity
  8
0
  6
Continuous
 62
     7
100
AcDbCircle
 10
314.1735135694
 20
18.7596683887
 30
0.0
 40
2.100726595299998
100
AcDbArc
 50
282.405835852
 51
311.8644433928
  0
ARC
  5
75
330
3A
100
AcDbEntity
  8
0
  6
Continuous
 62
     7
100
AcDbCircle
 10
313.8999492223
 20
20.3680101102
 30
0.0
 40
0.3029626476
100
AcDbArc
 50
154.4400348282
 51
221.8201698801
  0
ARC
  5
76
330
3A
100
AcDbEntity
  8
0
  6
Continuous
 62
     7
100
AcDbCircle
 10
313.9791703737
 20
20.2887889588
 30
0.0
 40
0.4103089737
100
AcDbArc
 50
102.8287828681
 51
149.2259639003
  0
ARC
  5
77
330
3A
100
AcDbEntity
  8
0
  6
Continuous
 62
     7
100
AcDbCircle
 10
314.3961972093
 20
18.546453629
 30
0.0
 40
2.201836557
100
AcDbArc
 50
84.0400061857
 51
103.3427657870999
  0
ARC
  5
78
330
3A
100
AcDbEntity
  8
0
  6
Continuous
 62
     7
100
AcDbCircle
 10
314.0552333846
 20
16.1290897051
 30
0.0
 40
4.642373736499997
100
AcDbArc
 50
70.2625858546
 51
82.95241863799999
  0
ARC
  5
79
330
3A
100
AcDbEntity
  8
0
  6
Continuous
 62
     7
100
AcDbCircle
 10
313.5412151824001
 20
20.8007125947
 30
0.0
 40
3.258755990899997
100
AcDbArc
 50
247.5300206145
 51
280.7579522143
  0
ARC
  5
7A
330
3A
100
AcDbEntity
  8
0
  6
Continuous
 62
     7
100
AcDbCircle
 10
307.1562487104
 20
2.5491926343
 30
0.0
 40
17.3316084133
100
AcDbArc
 50
65.34146746500001
 51
67.39977707359999
  0
ARC
  5
7B
330
3A
100
AcDbEntity
  8
0
  6
Continuous
 62
     7
100
AcDbCircle
 10
317.9521111158
 20
28.3416189974
 30
0.0
 40
10.6291642039
100
AcDbArc
 50
242.8620101252001
 51
247.1042029186
  0
ARC
  5
7C
330
3A
100
AcDbEntity
  8
0
  6
Continuous
 62
     7
100
AcDbCircle
 10
314.0972098893
 20
20.8076875004
 30
0.0
 40
2.166291629199998
100
AcDbArc
 50
227.3119280794
 51
242.7040315235
  0
ARC
  5
7D
330
3A
100
AcDbEntity
  8
0
  6
Continuous
 62
     7
100
AcDbCircle
 10
313.4931790796
 20
20.1020098596
 30
0.0
 40
1.238521734
100
AcDbArc
 50
194.7952194236
 51
225.7176549047
  0
ARC
  5
7E
330
3A
100
AcDbEntity
  8
0
  6
Continuous
 62
     7
100
AcDbCircle
 10
313.5553372138
 20
20.1422298287
 30
0.0
 40
1.309092072899999
100
AcDbArc
 50
164.1974860461
 51
195.8025139539
  0
ARC
  5
7F
330
3A
100
AcDbEntity
  8
0
  6
Continuous
 62
     7
100
AcDbCircle
 10
314.1123609345001
 20
19.2539626688
 30
0.0
 40
2.366924815299999
100
AcDbArc
 50
86.22180229280001
 51
120.4272602309
  0
ARC
  5
80
330
3A
100
AcDbEntity
  8
0
  6
Continuous
 62
     7
100
AcDbCircle
 10
313.8435041519
 20
12.5577948477
 30
0.0
 40
9.0679051661
100
AcDbArc
 50
78.68270492259998
 51
87.3147599624
  0
ARC
  5
81
330
3A
100
AcDbEntity
  8
0
  6
Continuous
 62
     7
100
AcDbCircle
 10
313.3874349735
 20
20.2497375912
 30
0.0
 40
1.119747444
100
AcDbArc
 50
142.813917903
 51
167.1522951417
  0
ARC
  5
82
330
3A
100
AcDbEntity
  8
0
  6
Continuous
 62
     7
100
AcDbCircle
 10
313.7327443151
 20
19.9431558946
 30
0.0
 40
1.580546684499998
100
AcDbArc
 50
121.2140948535
 51
141.5254768286
  0
ARC
  5
83
330
3A
100
AcDbEntity
  8
0
  6
Continuous
 62
     7
100
AcDbCircle
 10
314.3099186807
 20
20.7542132232
 30
0.0
 40
0.8661276051999998
100
AcDbArc
 50
222.7760387596
 51
239.0362434679
  0
ARC
  5
84
330
3A
100
AcDbEntity
  8
0
  6
Continuous
 62
     7
100
AcDbCircle
 10
311.8032091024
 20
13.4239410246
 30
0.0
 40
6.858773576299999
100
AcDbArc
 50
59.90202725599999
 51
68.2036481279
  0
ARC
  5
85
330
3A
100
AcDbEntity
  8
0
  6
Continuous
 62
     7
100
AcDbCircle
 10
315.2117035963
 20
22.3498275319
 30
0.0
 40
2.698741017099999
100
AcDbArc
 50
240.0481997804
 51
251.3779673736999
  0
ARC
  5
86
330
3A
100
AcDbEntity
  8
0
  6
Continuous
 62
     7
100
AcDbCircle
 10
314.5462464295
 20
18.1929289165
 30
0.0
 40
1.4334474881
100
AcDbArc
 50
315.8904553224
 51
333.5229264373
  0
ARC
  5
87
330
3A
100
AcDbEntity
  8
0
  6
Continuous
 62
     7
100
AcDbCircle
 10
314.5508846732
 20
18.1395217664
 30
0.0
 40
1.406228711899998
100
AcDbArc
 50
335.3867972702
 51
24.3915119402
  0
ARC
  5
88
330
3A
100
AcDbEntity
  8
0
  6
Continuous
 62
     7
100
AcDbCircle
 10
314.4786797697
 20
18.0616650746
 30
0.0
 40
1.504702514799999
100
AcDbArc
 50
25.95629166050001
 51
59.4834829668
  0
LINE
  5
89
330
3A
100
AcDbEntity
  8
0
  6
Continuous
 62
     7
100
AcDbLine
 10
284.7029938783
 20
16.8387078159
 30
0.0
 11
284.7029938783
 21
17.7893616325
 31
0.0
  0
LINE
  5
8A
330
3A
100
AcDbEntity
  8
0
  6
Continuous
 62
     7
100
AcDbLine
 10
288.0302822366
 20
20.49872501
 30
0.0
 11
288.0302822366
 21
21.4493788266
 31
0.0
  0
ARC
  5
8B
330
3A
100
AcDbEntity
  8
0
  6
Continuous
 62
     7
100
AcDbCircle
 10
286.4076350033
 20
18.7008009792
 30
0.0
 40
1.111619360599997
100
AcDbArc
 50
277.7099956934
 51
295.6884927746
  0
ARC
  5
8C
330
3A
100
AcDbEntity
  8
0
  6
Continuous
 62
     7
100
AcDbCircle
 10
286.691944986
 20
17.9759752156
 30
0.0
 40
0.3401689265
100
AcDbArc
 50
305.5032212556
 51
72.4652898515
  0
ARC
  5
8D
330
3A
100
AcDbEntity
  8
0
  6
Continuous
 62
     7
100
AcDbCircle
 10
286.1259511779
 20
21.3776821252
 30
0.0
 40
4.756794641099999
100
AcDbArc
 50
252.5939200545
 51
280.9816604253
  0
ARC
  5
8E
330
3A
100
AcDbEntity
  8
0
  6
Continuous
 62
     7
100
AcDbCircle
 10
286.580786541
 20
18.7596683887
 30
0.0
 40
2.100726595299998
100
AcDbArc
 50
282.4058358513
 51
311.8644433923
  0
ARC
  5
8F
330
3A
100
AcDbEntity
  8
0
  6
Continuous
 62
     7
100
AcDbCircle
 10
286.3072221939
 20
20.3680101102
 30
0.0
 40
0.3029626476
100
AcDbArc
 50
154.4400348282
 51
221.8201698801
  0
ARC
  5
90
330
3A
100
AcDbEntity
  8
0
  6
Continuous
 62
     7
100
AcDbCircle
 10
286.3864433453
 20
20.2887889588
 30
0.0
 40
0.4103089737
100
AcDbArc
 50
102.8287828727
 51
149.2259639027
  0
ARC
  5
91
330
3A
100
AcDbEntity
  8
0
  6
Continuous
 62
     7
100
AcDbCircle
 10
286.8034701809
 20
18.546453629
 30
0.0
 40
2.201836557
100
AcDbArc
 50
84.0400061859
 51
103.3427657872
  0
ARC
  5
92
330
3A
100
AcDbEntity
  8
0
  6
Continuous
 62
     7
100
AcDbCircle
 10
286.4625063562
 20
16.1290897051
 30
0.0
 40
4.642373736499997
100
AcDbArc
 50
70.2625858546
 51
82.9524186379
  0
ARC
  5
93
330
3A
100
AcDbEntity
  8
0
  6
Continuous
 62
     7
100
AcDbCircle
 10
285.948488154
 20
20.8007125947
 30
0.0
 40
3.258755990899997
100
AcDbArc
 50
247.5300206148
 51
280.7579522145
  0
ARC
  5
94
330
3A
100
AcDbEntity
  8
0
  6
Continuous
 62
     7
100
AcDbCircle
 10
279.563521682
 20
2.5491926343
 30
0.0
 40
17.3316084133
100
AcDbArc
 50
65.34146746500001
 51
67.39977707359999
  0
ARC
  5
95
330
3A
100
AcDbEntity
  8
0
  6
Continuous
 62
     7
100
AcDbCircle
 10
290.3593840874
 20
28.3416189974
 30
0.0
 40
10.6291642039
100
AcDbArc
 50
242.8620101252001
 51
247.1042029185
  0
ARC
  5
96
330
3A
100
AcDbEntity
  8
0
  6
Continuous
 62
     7
100
AcDbCircle
 10
286.5044828608
 20
20.8076875004
 30
0.0
 40
2.166291629199998
100
AcDbArc
 50
227.3119280794
 51
242.7040315235
  0
ARC
  5
97
330
3A
100
AcDbEntity
  8
0
  6
Continuous
 62
     7
100
AcDbCircle
 10
285.9004520512
 20
20.1020098596
 30
0.0
 40
1.238521734
100
AcDbArc
 50
194.7952194234
 51
225.7176549042
  0
ARC
  5
98
330
3A
100
AcDbEntity
  8
0
  6
Continuous
 62
     7
100
AcDbCircle
 10
286.519633906
 20
19.2539626688
 30
0.0
 40
2.366924815299999
100
AcDbArc
 50
86.22180229280001
 51
120.4272602309
  0
ARC
  5
99
330
3A
100
AcDbEntity
  8
0
  6
Continuous
 62
     7
100
AcDbCircle
 10
286.2507771235
 20
12.5577948477
 30
0.0
 40
9.0679051661
100
AcDbArc
 50
78.68270492259998
 51
87.3147599624
  0
ARC
  5
9A
330
3A
100
AcDbEntity
  8
0
  6
Continuous
 62
     7
100
AcDbCircle
 10
286.1400172867
 20
19.9431558946
 30
0.0
 40
1.580546684599998
100
AcDbArc
 50
121.2140948541
 51
141.525476829
  0
ARC
  5
9B
330
3A
100
AcDbEntity
  8
0
  6
Continuous
 62
     7
100
AcDbCircle
 10
286.7171916523
 20
20.7542132232
 30
0.0
 40
0.8661276051999998
100
AcDbArc
 50
222.7760387596
 51
239.0362434679
  0
ARC
  5
9C
330
3A
100
AcDbEntity
  8
0
  6
Continuous
 62
     7
100
AcDbCircle
 10
284.210482074
 20
13.4239410246
 30
0.0
 40
6.858773576299999
100
AcDbArc
 50
59.90202725620001
 51
68.20364812820002
  0
ARC
  5
9D
330
3A
100
AcDbEntity
  8
0
  6
Continuous
 62
     7
100
AcDbCircle
 10
287.6189765678
 20
22.3498275319
 30
0.0
 40
2.698741017099999
100
AcDbArc
 50
240.0481997804
 51
251.3779673734
  0
ARC
  5
9E
330
3A
100
AcDbEntity
  8
0
  6
Continuous
 62
     7
100
AcDbCircle
 10
286.953519401
 20
18.1929289165
 30
0.0
 40
1.4334474881
100
AcDbArc
 50
315.8904553226
 51
333.5229264375
  0
ARC
  5
9F
330
3A
100
AcDbEntity
  8
0
  6
Continuous
 62
     7
100
AcDbCircle
 10
286.9581576447
 20
18.1395217664
 30
0.0
 40
1.406228711899998
100
AcDbArc
 50
335.3867972703
 51
24.3915119403
  0
ARC
  5
A0
330
3A
100
AcDbEntity
  8
0
  6
Continuous
 62
     7
100
AcDbCircle
 10
286.8859527412
 20
18.0616650746
 30
0.0
 40
1.504702514699999
100
AcDbArc
 50
25.9562916611
 51
59.4834829676
  0
LINE
  5
A1
330
3A
100
AcDbEntity
  8
0
  6
Continuous
 62
     7
100
AcDbLine
 10
284.8948224676
 20
20.9161059766
 30
0.0
 11
285.1688882922
 21
21.1901790542
 31
0.0
  0
ARC
  5
A2
330
3A
100
AcDbEntity
  8
0
  6
Continuous
 62
     7
100
AcDbCircle
 10
285.9626101853
 20
20.1422298287
 30
0.0
 40
1.309092072899999
100
AcDbArc
 50
164.1974860461
 51
195.8025139539
  0
ARC
  5
A3
330
3A
100
AcDbEntity
  8
0
  6
Continuous
 62
     7
100
AcDbCircle
 10
285.7947079451
 20
20.2497375912
 30
0.0
 40
1.119747444
100
AcDbArc
 50
142.813917903
 51
167.1522951417
  0
ENDBLK
  5
A4
330
3A
100
AcDbEntity
  8
0
100
AcDbBlockEnd
  0
BLOCK
  5
3752
330
3745
100
AcDbEntity
  8
0
100
AcDbBlockBegin
  2
*D1
 70
     1
 10
0.0
 20
0.0
 30
0.0
  3
*D1
  1

  0
LINE
  5
5558
330
3745
100
AcDbEntity
  8
30100_Drilling_DIM
 62
     7
370
    -2
100
AcDbLine
 10
390.4259652951688
 20
209.8119273506408
 30
0.0
 11
390.4259652951688
 21
196.7076866052461
 31
0.0
  0
LINE
  5
5559
330
3745
100
AcDbEntity
  8
30100_Drilling_DIM
 62
     7
370
    -2
100
AcDbLine
 10
395.4259652951689
 20
209.8119273506408
 30
0.0
 11
395.4259652951689
 21
196.7076866052461
 31
0.0
  0
LINE
  5
555A
330
3745
100
AcDbEntity
  8
30100_Drilling_DIM
 62
     7
370
    -2
100
AcDbLine
 10
399.9259652951689
 20
198.7076866052461
 30
0.0
 11
404.4259652951688
 21
198.7076866052461
 31
0.0
  0
LINE
  5
555B
330
3745
100
AcDbEntity
  8
30100_Drilling_DIM
 62
     7
370
    -2
100
AcDbLine
 10
385.9259652951688
 20
198.7076866052461
 30
0.0
 11
381.4259652951689
 21
198.7076866052461
 31
0.0
  0
LINE
  5
555C
330
3745
100
AcDbEntity
  8
30100_Drilling_DIM
 62
     7
370
    -2
100
AcDbLine
 10
395.4259652951689
 20
198.7076866052461
 30
0.0
 11
390.4259652951688
 21
198.7076866052461
 31
0.0
  0
SOLID
  5
555D
330
3745
100
AcDbEntity
  8
30100_Drilling_DIM
 62
     7
100
AcDbTrace
 10
399.9259652951689
 20
199.4576866052461
 30
0.0
 11
399.9259652951689
 21
197.9576866052461
 31
0.0
 12
395.4259652951689
 22
198.7076866052461
 32
0.0
 13
395.4259652951689
 23
198.7076866052461
 33
0.0
  0
SOLID
  5
555E
330
3745
100
AcDbEntity
  8
30100_Drilling_DIM
 62
     7
100
AcDbTrace
 10
385.9259652951688
 20
199.4576866052461
 30
0.0
 11
385.9259652951688
 21
197.9576866052461
 31
0.0
 12
390.4259652951688
 22
198.7076866052461
 32
0.0
 13
390.4259652951688
 23
198.7076866052461
 33
0.0
  0
MTEXT
  5
555F
330
3745
100
AcDbEntity
  8
30100_Drilling_DIM
 62
     7
370
    13
100
AcDbMText
 10
378.7592986285022
 20
198.7076866052461
 30
0.0
 40
5.0
 41
0.0
 71
     5
 72
     1
  1
\A1;5
 73
     1
 44
1.0
1001
ACAD
1000
MTEXTBEGIN
1070
    73
1070
     1
1070
    44
1040
1.0
1070
    74
1070
     0
1000
MTEXTEND
  0
POINT
  5
5560
330
3745
100
AcDbEntity
  8
DEFPOINTS
 62
     0
100
AcDbPoint
 10
390.4259652951688
 20
210.8119273506408
 30
0.0
  0
POINT
  5
5561
330
3745
100
AcDbEntity
  8
DEFPOINTS
 62
     0
100
AcDbPoint
 10
395.4259652951689
 20
210.8119273506408
 30
0.0
  0
POINT
  5
5562
330
3745
100
AcDbEntity
  8
DEFPOINTS
 62
     0
100
AcDbPoint
 10
395.4259652951689
 20
198.7076866052461
 30
0.0
  0
ENDBLK
  5
3753
330
3745
100
AcDbEntity
  8
0
100
AcDbBlockEnd
  0
BLOCK
  5
375F
330
3754
100
AcDbEntity
  8
0
100
AcDbBlockBegin
  2
*D2
 70
     1
 10
0.0
 20
0.0
 30
0.0
  3
*D2
  1

  0
LINE
  5
556D
330
3754
100
AcDbEntity
  8
30100_Drilling_DIM
 62
     7
370
    -2
100
AcDbLine
 10
332.9259452951691
 20
84.31190735064056
 30
0.0
 11
332.9259452951691
 21
219.2403846447493
 31
0.0
  0
LINE
  5
556E
330
3754
100
AcDbEntity
  8
30100_Drilling_DIM
 62
     7
370
    -2
100
AcDbLine
 10
392.9259652951689
 20
214.3119273506407
 30
0.0
 11
392.9259652951689
 21
219.2403846447493
 31
0.0
  0
LINE
  5
556F
330
3754
100
AcDbEntity
  8
30100_Drilling_DIM
 62
     7
370
    -2
100
AcDbLine
 10
337.4259452951691
 20
217.2403846447493
 30
0.0
 11
358.1759552951691
 21
217.2403846447493
 31
0.0
  0
LINE
  5
5570
330
3754
100
AcDbEntity
  8
30100_Drilling_DIM
 62
     7
370
    -2
100
AcDbLine
 10
388.4259652951688
 20
217.2403846447493
 30
0.0
 11
367.675955295169
 21
217.2403846447493
 31
0.0
  0
SOLID
  5
5571
330
3754
100
AcDbEntity
  8
30100_Drilling_DIM
 62
     7
100
AcDbTrace
 10
337.4259452951691
 20
217.9903846447493
 30
0.0
 11
337.4259452951691
 21
216.4903846447493
 31
0.0
 12
332.9259452951691
 22
217.2403846447493
 32
0.0
 13
332.9259452951691
 23
217.2403846447493
 33
0.0
  0
SOLID
  5
5572
330
3754
100
AcDbEntity
  8
30100_Drilling_DIM
 62
     7
100
AcDbTrace
 10
388.4259652951688
 20
217.9903846447493
 30
0.0
 11
388.4259652951688
 21
216.4903846447493
 31
0.0
 12
392.9259652951689
 22
217.2403846447493
 32
0.0
 13
392.9259652951689
 23
217.2403846447493
 33
0.0
  0
MTEXT
  5
5573
330
3754
100
AcDbEntity
  8
30100_Drilling_DIM
 62
     7
370
    13
100
AcDbMText
 10
362.925955295169
 20
217.2403846447493
 30
0.0
 40
5.0
 41
0.0
 71
     5
 72
     1
  1
\A1;60
 73
     1
 44
1.0
1001
ACAD
1000
MTEXTBEGIN
1070
    73
1070
     1
1070
    44
1040
1.0
1070
    74
1070
     0
1000
MTEXTEND
  0
POINT
  5
5574
330
3754
100
AcDbEntity
  8
DEFPOINTS
 62
     0
100
AcDbPoint
 10
332.9259452951691
 20
83.31190735064057
 30
0.0
  0
POINT
  5
5575
330
3754
100
AcDbEntity
  8
DEFPOINTS
 62
     0
100
AcDbPoint
 10
392.9259652951689
 20
213.3119273506407
 30
0.0
  0
POINT
  5
5576
330
3754
100
AcDbEntity
  8
DEFPOINTS
 62
     0
100
AcDbPoint
 10
392.9259652951689
 20
217.2403846447493
 30
0.0
  0
ENDBLK
  5
3760
330
3754
100
AcDbEntity
  8
0
100
AcDbBlockEnd
  0
BLOCK
  5
376C
330
3761
100
AcDbEntity
  8
0
100
AcDbBlockBegin
  2
*D3
 70
     1
 10
0.0
 20
0.0
 30
0.0
  3
*D3
  1

  0
LINE
  5
5563
330
3761
100
AcDbEntity
  8
30100_Drilling_DIM
 62
     7
370
    -2
100
AcDbLine
 10
329.4259452951691
 20
80.81190735064067
 30
0.0
 11
324.451104240757
 21
80.81190735064067
 31
0.0
  0
LINE
  5
5564
330
3761
100
AcDbEntity
  8
30100_Drilling_DIM
 62
     7
370
    -2
100
AcDbLine
 10
389.4259652951689
 20
210.8119273506408
 30
0.0
 11
324.451104240757
 21
210.8119273506408
 31
0.0
  0
LINE
  5
5565
330
3761
100
AcDbEntity
  8
30100_Drilling_DIM
 62
     7
370
    -2
100
AcDbLine
 10
326.451104240757
 20
85.31190735064066
 30
0.0
 11
326.451104240757
 21
139.3952506839738
 31
0.0
  0
LINE
  5
5566
330
3761
100
AcDbEntity
  8
30100_Drilling_DIM
 62
     7
370
    -2
100
AcDbLine
 10
326.451104240757
 20
206.3119273506409
 30
0.0
 11
326.451104240757
 21
152.2285840173072
 31
0.0
  0
SOLID
  5
5567
330
3761
100
AcDbEntity
  8
30100_Drilling_DIM
 62
     7
100
AcDbTrace
 10
325.701104240757
 20
85.31190735064066
 30
0.0
 11
327.201104240757
 21
85.31190735064066
 31
0.0
 12
326.451104240757
 22
80.81190735064067
 32
0.0
 13
326.451104240757
 23
80.81190735064067
 33
0.0
  0
SOLID
  5
5568
330
3761
100
AcDbEntity
  8
30100_Drilling_DIM
 62
     7
100
AcDbTrace
 10
325.7011042407571
 20
206.3119273506409
 30
0.0
 11
327.201104240757
 21
206.3119273506409
 31
0.0
 12
326.451104240757
 22
210.8119273506408
 32
0.0
 13
326.451104240757
 23
210.8119273506408
 33
0.0
  0
MTEXT
  5
5569
330
3761
100
AcDbEntity
  8
30100_Drilling_DIM
 62
     7
370
    13
100
AcDbMText
 10
326.451104240757
 20
145.8119173506406
 30
0.0
 40
5.0
 41
0.0
 71
     5
 72
     1
  1
\A1;130
 11
0.0000000000000001
 21
1.0
 31
0.0
 73
     1
 44
1.0
1001
ACAD
1000
MTEXTBEGIN
1070
    73
1070
     1
1070
    44
1040
1.0
1070
    74
1070
     0
1000
MTEXTEND
  0
POINT
  5
556A
330
3761
100
AcDbEntity
  8
DEFPOINTS
 62
     0
100
AcDbPoint
 10
330.4259452951691
 20
80.81190735064067
 30
0.0
  0
POINT
  5
556B
330
3761
100
AcDbEntity
  8
DEFPOINTS
 62
     0
100
AcDbPoint
 10
390.4259652951688
 20
210.8119273506408
 30
0.0
  0
POINT
  5
556C
330
3761
100
AcDbEntity
  8
DEFPOINTS
 62
     0
100
AcDbPoint
 10
326.451104240757
 20
210.8119273506408
 30
0.0
  0
ENDBLK
  5
376D
330
3761
100
AcDbEntity
  8
0
100
AcDbBlockEnd
  0
BLOCK
  5
41C1
330
41B6
100
AcDbEntity
  8
0
100
AcDbBlockBegin
  2
*D4
 70
     1
 10
0.0
 20
0.0
 30
0.0
  3
*D4
  1

  0
LINE
  5
55AB
330
41B6
100
AcDbEntity
  8
10100_Front_Dim
 62
     7
370
    -2
100
AcDbLine
 10
27.68926452529694
 20
75.71735946326981
 30
0.0
 11
27.68926452529694
 21
52.34287682380726
 31
0.0
  0
LINE
  5
55AC
330
41B6
100
AcDbEntity
  8
10100_Front_Dim
 62
     7
370
    -2
100
AcDbLine
 10
97.6892845252969
 20
75.71735946326981
 30
0.0
 11
97.6892845252969
 21
52.34287682380726
 31
0.0
  0
LINE
  5
55AD
330
41B6
100
AcDbEntity
  8
10100_Front_Dim
 62
     7
370
    -2
100
AcDbLine
 10
32.18926452529694
 20
54.34287682380726
 30
0.0
 11
57.93927452529692
 21
54.34287682380726
 31
0.0
  0
LINE
  5
55AE
330
41B6
100
AcDbEntity
  8
10100_Front_Dim
 62
     7
370
    -2
100
AcDbLine
 10
93.18928452529688
 20
54.34287682380726
 30
0.0
 11
67.43927452529693
 21
54.34287682380726
 31
0.0
  0
SOLID
  5
55AF
330
41B6
100
AcDbEntity
  8
10100_Front_Dim
 62
     7
100
AcDbTrace
 10
32.18926452529694
 20
55.09287682380726
 30
0.0
 11
32.18926452529694
 21
53.59287682380726
 31
0.0
 12
27.68926452529694
 22
54.34287682380726
 32
0.0
 13
27.68926452529694
 23
54.34287682380726
 33
0.0
  0
SOLID
  5
55B0
330
41B6
100
AcDbEntity
  8
10100_Front_Dim
 62
     7
100
AcDbTrace
 10
93.18928452529688
 20
55.09287682380726
 30
0.0
 11
93.18928452529688
 21
53.59287682380726
 31
0.0
 12
97.6892845252969
 22
54.34287682380726
 32
0.0
 13
97.6892845252969
 23
54.34287682380726
 33
0.0
  0
MTEXT
  5
55B1
330
41B6
100
AcDbEntity
  8
10100_Front_Dim
 62
     7
370
    13
100
AcDbMText
 10
62.68927452529692
 20
54.34287682380726
 30
0.0
 40
5.0
 41
0.0
 71
     5
 72
     1
  1
\A1;70
 73
     1
 44
1.0
1001
ACAD
1000
MTEXTBEGIN
1070
    73
1070
     1
1070
    44
1040
1.0
1070
    74
1070
     0
1000
MTEXTEND
  0
POINT
  5
55B2
330
41B6
100
AcDbEntity
  8
DEFPOINTS
 62
     0
100
AcDbPoint
 10
27.68926452529694
 20
76.71735946326982
 30
0.0
  0
POINT
  5
55B3
330
41B6
100
AcDbEntity
  8
DEFPOINTS
 62
     0
100
AcDbPoint
 10
97.6892845252969
 20
76.71735946326982
 30
0.0
  0
POINT
  5
55B4
330
41B6
100
AcDbEntity
  8
DEFPOINTS
 62
     0
100
AcDbPoint
 10
97.6892845252969
 20
54.34287682380726
 30
0.0
  0
ENDBLK
  5
41C2
330
41B6
100
AcDbEntity
  8
0
100
AcDbBlockEnd
  0
BLOCK
  5
41CF
330
41C4
100
AcDbEntity
  8
0
100
AcDbBlockBegin
  2
*D5
 70
     1
 10
0.0
 20
0.0
 30
0.0
  3
*D5
  1

  0
LINE
  5
559F
330
41C4
100
AcDbEntity
  8
10100_Front_Dim
 62
     7
370
    -2
100
AcDbLine
 10
51.43931452529682
 20
77.02220946326985
 30
0.0
 11
51.43931452529682
 21
63.09416998856384
 31
0.0
  0
LINE
  5
55A0
330
41C4
100
AcDbEntity
  8
10100_Front_Dim
 62
     7
370
    -2
100
AcDbLine
 10
73.93948452529683
 20
77.02220946326985
 30
0.0
 11
73.93948452529683
 21
63.09416998856384
 31
0.0
  0
LINE
  5
55A1
330
41C4
100
AcDbEntity
  8
10100_Front_Dim
 62
     7
370
    -2
100
AcDbLine
 10
46.93931452529682
 20
65.09416998856385
 30
0.0
 11
42.43931452529682
 21
65.09416998856385
 31
0.0
  0
LINE
  5
55A2
330
41C4
100
AcDbEntity
  8
10100_Front_Dim
 62
     7
370
    -2
100
AcDbLine
 10
78.43948452529684
 20
65.09416998856385
 30
0.0
 11
82.93948452529683
 21
65.09416998856385
 31
0.0
  0
LINE
  5
55A3
330
41C4
100
AcDbEntity
  8
10100_Front_Dim
 62
     7
370
    -2
100
AcDbLine
 10
51.43931452529682
 20
65.09416998856385
 30
0.0
 11
53.77273285863017
 21
65.09416998856385
 31
0.0
  0
LINE
  5
55A4
330
41C4
100
AcDbEntity
  8
10100_Front_Dim
 62
     7
370
    -2
100
AcDbLine
 10
73.93948452529683
 20
65.09416998856385
 30
0.0
 11
71.6060661919635
 21
65.09416998856385
 31
0.0
  0
SOLID
  5
55A5
330
41C4
100
AcDbEntity
  8
10100_Front_Dim
 62
     7
100
AcDbTrace
 10
46.93931452529682
 20
65.84416998856385
 30
0.0
 11
46.93931452529682
 21
64.34416998856384
 31
0.0
 12
51.43931452529682
 22
65.09416998856385
 32
0.0
 13
51.43931452529682
 23
65.09416998856385
 33
0.0
  0
SOLID
  5
55A6
330
41C4
100
AcDbEntity
  8
10100_Front_Dim
 62
     7
100
AcDbTrace
 10
78.43948452529684
 20
65.84416998856385
 30
0.0
 11
78.43948452529684
 21
64.34416998856384
 31
0.0
 12
73.93948452529683
 22
65.09416998856385
 32
0.0
 13
73.93948452529683
 23
65.09416998856385
 33
0.0
  0
MTEXT
  5
55A7
330
41C4
100
AcDbEntity
  8
10100_Front_Dim
 62
     7
370
    13
100
AcDbMText
 10
62.68939952529684
 20
65.09416998856385
 30
0.0
 40
5.0
 41
0.0
 71
     5
 72
     1
  1
\A1;22,5
 73
     1
 44
1.0
1001
ACAD
1000
MTEXTBEGIN
1070
    73
1070
     1
1070
    44
1040
1.0
1070
    74
1070
     0
1000
MTEXTEND
  0
POINT
  5
55A8
330
41C4
100
AcDbEntity
  8
DEFPOINTS
 62
     0
100
AcDbPoint
 10
51.43931452529682
 20
78.02220946326984
 30
0.0
  0
POINT
  5
55A9
330
41C4
100
AcDbEntity
  8
DEFPOINTS
 62
     0
100
AcDbPoint
 10
73.93948452529683
 20
78.02220946326984
 30
0.0
  0
POINT
  5
55AA
330
41C4
100
AcDbEntity
  8
DEFPOINTS
 62
     0
100
AcDbPoint
 10
73.93948452529683
 20
65.09416998856385
 30
0.0
  0
ENDBLK
  5
41D0
330
41C4
100
AcDbEntity
  8
0
100
AcDbBlockEnd
  0
BLOCK
  5
41DD
330
41D2
100
AcDbEntity
  8
0
100
AcDbBlockBegin
  2
*D6
 70
     1
 10
0.0
 20
0.0
 30
0.0
  3
*D6
  1

  0
LINE
  5
5595
330
41D2
100
AcDbEntity
  8
10100_Front_Dim
 62
     7
370
    -2
100
AcDbLine
 10
40.18926452529696
 20
201.4173794632699
 30
0.0
 11
40.18926452529696
 21
225.3454696087766
 31
0.0
  0
LINE
  5
5596
330
41D2
100
AcDbEntity
  8
10100_Front_Dim
 62
     7
370
    -2
100
AcDbLine
 10
62.68928452529689
 20
201.4173794632699
 30
0.0
 11
62.68928452529689
 21
225.3454696087766
 31
0.0
  0
LINE
  5
5597
330
41D2
100
AcDbEntity
  8
10100_Front_Dim
 62
     7
370
    -2
100
AcDbLine
 10
42.18926452529696
 20
223.3454696087766
 30
0.0
 11
44.1059411919636
 21
223.3454696087766
 31
0.0
  0
LINE
  5
5598
330
41D2
100
AcDbEntity
  8
10100_Front_Dim
 62
     7
370
    -2
100
AcDbLine
 10
60.68928452529688
 20
223.3454696087766
 30
0.0
 11
58.77260785863025
 21
223.3454696087766
 31
0.0
  0
SOLID
  5
5599
330
41D2
100
AcDbEntity
  8
10100_Front_Dim
 62
     7
100
AcDbTrace
 10
42.18926452529696
 20
223.6788029421099
 30
0.0
 11
42.18926452529696
 21
223.0121362754433
 31
0.0
 12
40.18926452529696
 22
223.3454696087766
 32
0.0
 13
40.18926452529696
 23
223.3454696087766
 33
0.0
  0
SOLID
  5
559A
330
41D2
100
AcDbEntity
  8
10100_Front_Dim
 62
     7
100
AcDbTrace
 10
60.68928452529688
 20
223.6788029421099
 30
0.0
 11
60.68928452529688
 21
223.0121362754433
 31
0.0
 12
62.68928452529689
 22
223.3454696087766
 32
0.0
 13
62.68928452529689
 23
223.3454696087766
 33
0.0
  0
MTEXT
  5
559B
330
41D2
100
AcDbEntity
  8
10100_Front_Dim
 62
     7
370
    13
100
AcDbMText
 10
51.43927452529692
 20
223.3454696087766
 30
0.0
 40
4.0
 41
0.0
 71
     5
 72
     1
  1
\A1;22,5
 73
     1
 44
1.0
1001
ACAD
1000
MTEXTBEGIN
1070
    73
1070
     1
1070
    44
1040
1.0
1070
    74
1070
     0
1000
MTEXTEND
  0
POINT
  5
559C
330
41D2
100
AcDbEntity
  8
DEFPOINTS
 62
     0
100
AcDbPoint
 10
40.18926452529696
 20
200.4173794632698
 30
0.0
  0
POINT
  5
559D
330
41D2
100
AcDbEntity
  8
DEFPOINTS
 62
     0
100
AcDbPoint
 10
62.68928452529689
 20
200.4173794632698
 30
0.0
  0
POINT
  5
559E
330
41D2
100
AcDbEntity
  8
DEFPOINTS
 62
     0
100
AcDbPoint
 10
62.68928452529689
 20
223.3454696087766
 30
0.0
  0
ENDBLK
  5
41DE
330
41D2
100
AcDbEntity
  8
0
100
AcDbBlockEnd
  0
BLOCK
  5
41EB
330
41E0
100
AcDbEntity
  8
0
100
AcDbBlockBegin
  2
*D7
 70
     1
 10
0.0
 20
0.0
 30
0.0
  3
*D7
  1

  0
LINE
  5
558B
330
41E0
100
AcDbEntity
  8
10100_Front_Dim
 62
     7
370
    -2
100
AcDbLine
 10
62.68928452529689
 20
201.4173794632699
 30
0.0
 11
62.68928452529689
 21
225.3454696087766
 31
0.0
  0
LINE
  5
558C
330
41E0
100
AcDbEntity
  8
10100_Front_Dim
 62
     7
370
    -2
100
AcDbLine
 10
85.1892845252969
 20
201.4173794632699
 30
0.0
 11
85.1892845252969
 21
225.3454696087766
 31
0.0
  0
LINE
  5
558D
330
41E0
100
AcDbEntity
  8
10100_Front_Dim
 62
     7
370
    -2
100
AcDbLine
 10
64.68928452529688
 20
223.3454696087766
 30
0.0
 11
66.60595119196357
 21
223.3454696087766
 31
0.0
  0
LINE
  5
558E
330
41E0
100
AcDbEntity
  8
10100_Front_Dim
 62
     7
370
    -2
100
AcDbLine
 10
83.18928452529688
 20
223.3454696087766
 30
0.0
 11
81.27261785863025
 21
223.3454696087766
 31
0.0
  0
SOLID
  5
558F
330
41E0
100
AcDbEntity
  8
10100_Front_Dim
 62
     7
100
AcDbTrace
 10
64.68928452529688
 20
223.6788029421099
 30
0.0
 11
64.68928452529688
 21
223.0121362754433
 31
0.0
 12
62.68928452529689
 22
223.3454696087766
 32
0.0
 13
62.68928452529689
 23
223.3454696087766
 33
0.0
  0
SOLID
  5
5590
330
41E0
100
AcDbEntity
  8
10100_Front_Dim
 62
     7
100
AcDbTrace
 10
83.18928452529688
 20
223.6788029421099
 30
0.0
 11
83.18928452529688
 21
223.0121362754433
 31
0.0
 12
85.1892845252969
 22
223.3454696087766
 32
0.0
 13
85.1892845252969
 23
223.3454696087766
 33
0.0
  0
MTEXT
  5
5591
330
41E0
100
AcDbEntity
  8
10100_Front_Dim
 62
     7
370
    13
100
AcDbMText
 10
73.93928452529689
 20
223.3454696087766
 30
0.0
 40
4.0
 41
0.0
 71
     5
 72
     1
  1
\A1;22,5
 73
     1
 44
1.0
1001
ACAD
1000
MTEXTBEGIN
1070
    73
1070
     1
1070
    44
1040
1.0
1070
    74
1070
     0
1000
MTEXTEND
  0
POINT
  5
5592
330
41E0
100
AcDbEntity
  8
DEFPOINTS
 62
     0
100
AcDbPoint
 10
62.68928452529689
 20
200.4173794632698
 30
0.0
  0
POINT
  5
5593
330
41E0
100
AcDbEntity
  8
DEFPOINTS
 62
     0
100
AcDbPoint
 10
85.1892845252969
 20
200.4173794632698
 30
0.0
  0
POINT
  5
5594
330
41E0
100
AcDbEntity
  8
DEFPOINTS
 62
     0
100
AcDbPoint
 10
85.1892845252969
 20
223.3454696087766
 30
0.0
  0
ENDBLK
  5
41EC
330
41E0
100
AcDbEntity
  8
0
100
AcDbBlockEnd
  0
BLOCK
  5
420D
330
4202
100
AcDbEntity
  8
0
100
AcDbBlockBegin
  2
*D8
 70
     1
 10
0.0
 20
0.0
 30
0.0
  3
*D8
  1

  0
LINE
  5
5581
330
4202
100
AcDbEntity
  8
10100_Front_Dim
 62
     7
370
    -2
100
AcDbLine
 10
89.18928452529689
 20
197.4173794632698
 30
0.0
 11
106.7672673858368
 21
197.4173794632698
 31
0.0
  0
LINE
  5
5582
330
4202
100
AcDbEntity
  8
10100_Front_Dim
 62
     7
370
    -2
100
AcDbLine
 10
89.18928452529689
 20
93.01735946326976
 30
0.0
 11
106.7672673858368
 21
93.01735946326976
 31
0.0
  0
LINE
  5
5583
330
4202
100
AcDbEntity
  8
10100_Front_Dim
 62
     7
370
    -2
100
AcDbLine
 10
104.7672673858368
 20
192.9173794632698
 30
0.0
 11
104.7672673858368
 21
151.6340361299365
 31
0.0
  0
LINE
  5
5584
330
4202
100
AcDbEntity
  8
10100_Front_Dim
 62
     7
370
    -2
100
AcDbLine
 10
104.7672673858368
 20
97.51735946326977
 30
0.0
 11
104.7672673858368
 21
138.8007027966031
 31
0.0
  0
SOLID
  5
5585
330
4202
100
AcDbEntity
  8
10100_Front_Dim
 62
     7
100
AcDbTrace
 10
104.0172673858368
 20
192.9173794632698
 30
0.0
 11
105.5172673858368
 21
192.9173794632698
 31
0.0
 12
104.7672673858368
 22
197.4173794632698
 32
0.0
 13
104.7672673858368
 23
197.4173794632698
 33
0.0
  0
SOLID
  5
5586
330
4202
100
AcDbEntity
  8
10100_Front_Dim
 62
     7
100
AcDbTrace
 10
104.0172673858368
 20
97.51735946326977
 30
0.0
 11
105.5172673858368
 21
97.51735946326977
 31
0.0
 12
104.7672673858368
 22
93.01735946326976
 32
0.0
 13
104.7672673858368
 23
93.01735946326976
 33
0.0
  0
MTEXT
  5
5587
330
4202
100
AcDbEntity
  8
10100_Front_Dim
 62
     7
370
    13
100
AcDbMText
 10
104.7672673858368
 20
145.2173694632698
 30
0.0
 40
5.0
 41
0.0
 71
     5
 72
     1
  1
\A1;104
 11
0.0000000000000001
 21
1.0
 31
0.0
 73
     1
 44
1.0
1001
ACAD
1000
MTEXTBEGIN
1070
    73
1070
     1
1070
    44
1040
1.0
1070
    74
1070
     0
1000
MTEXTEND
  0
POINT
  5
5588
330
4202
100
AcDbEntity
  8
DEFPOINTS
 62
     0
100
AcDbPoint
 10
88.18928452529688
 20
197.4173794632698
 30
0.0
  0
POINT
  5
5589
330
4202
100
AcDbEntity
  8
DEFPOINTS
 62
     0
100
AcDbPoint
 10
88.18928452529688
 20
93.01735946326976
 30
0.0
  0
POINT
  5
558A
330
4202
100
AcDbEntity
  8
DEFPOINTS
 62
     0
100
AcDbPoint
 10
104.7672673858368
 20
93.01735946326976
 30
0.0
  0
ENDBLK
  5
420E
330
4202
100
AcDbEntity
  8
0
100
AcDbBlockEnd
  0
BLOCK
  5
421D
330
4212
100
AcDbEntity
  8
0
100
AcDbBlockBegin
  2
*D9
 70
     1
 10
0.0
 20
0.0
 30
0.0
  3
*D9
  1

  0
LINE
  5
5577
330
4212
100
AcDbEntity
  8
10100_Front_Dim
 62
     7
370
    -2
100
AcDbLine
 10
97.1892845252969
 20
215.2173794632699
 30
0.0
 11
114.2024573610064
 21
215.2173794632699
 31
0.0
  0
LINE
  5
5578
330
4212
100
AcDbEntity
  8
10100_Front_Dim
 62
     7
370
    -2
100
AcDbLine
 10
97.1892845252969
 20
75.21735946326984
 30
0.0
 11
114.2024573610064
 21
75.21735946326984
 31
0.0
  0
LINE
  5
5579
330
4212
100
AcDbEntity
  8
10100_Front_Dim
 62
     7
370
    -2
100
AcDbLine
 10
112.2024573610064
 20
210.7173794632699
 30
0.0
 11
112.2024573610064
 21
151.6340361299365
 31
0.0
  0
LINE
  5
557A
330
4212
100
AcDbEntity
  8
10100_Front_Dim
 62
     7
370
    -2
100
AcDbLine
 10
112.2024573610064
 20
79.71735946326984
 30
0.0
 11
112.2024573610064
 21
138.8007027966032
 31
0.0
  0
SOLID
  5
557B
330
4212
100
AcDbEntity
  8
10100_Front_Dim
 62
     7
100
AcDbTrace
 10
111.4524573610064
 20
210.7173794632699
 30
0.0
 11
112.9524573610064
 21
210.7173794632699
 31
0.0
 12
112.2024573610064
 22
215.2173794632699
 32
0.0
 13
112.2024573610064
 23
215.2173794632699
 33
0.0
  0
SOLID
  5
557C
330
4212
100
AcDbEntity
  8
10100_Front_Dim
 62
     7
100
AcDbTrace
 10
111.4524573610063
 20
79.71735946326984
 30
0.0
 11
112.9524573610064
 21
79.71735946326984
 31
0.0
 12
112.2024573610064
 22
75.21735946326984
 32
0.0
 13
112.2024573610064
 23
75.21735946326984
 33
0.0
  0
MTEXT
  5
557D
330
4212
100
AcDbEntity
  8
10100_Front_Dim
 62
     7
370
    13
100
AcDbMText
 10
112.2024573610064
 20
145.2173694632699
 30
0.0
 40
5.0
 41
0.0
 71
     5
 72
     1
  1
\A1;140
 11
0.0000000000000001
 21
1.0
 31
0.0
 73
     1
 44
1.0
1001
ACAD
1000
MTEXTBEGIN
1070
    73
1070
     1
1070
    44
1040
1.0
1070
    74
1070
     0
1000
MTEXTEND
  0
POINT
  5
557E
330
4212
100
AcDbEntity
  8
DEFPOINTS
 62
     0
100
AcDbPoint
 10
96.1892845252969
 20
215.2173794632699
 30
0.0
  0
POINT
  5
557F
330
4212
100
AcDbEntity
  8
DEFPOINTS
 62
     0
100
AcDbPoint
 10
96.1892845252969
 20
75.21735946326984
 30
0.0
  0
POINT
  5
5580
330
4212
100
AcDbEntity
  8
DEFPOINTS
 62
     0
100
AcDbPoint
 10
112.2024573610064
 20
75.21735946326984
 30
0.0
  0
ENDBLK
  5
421E
330
4212
100
AcDbEntity
  8
0
100
AcDbBlockEnd
  0
BLOCK
  5
4DAB
330
4D9F
100
AcDbEntity
  8
0
100
AcDbBlockBegin
  2
*D10
 70
     1
 10
0.0
 20
0.0
 30
0.0
  3
*D10
  1

  0
LINE
  5
5517
330
4D9F
100
AcDbEntity
  8
11100_Left_Dim
 62
     7
370
    -2
100
AcDbLine
 10
154.504672868017
 20
216.2641858626112
 30
0.0
 11
154.504672868017
 21
225.3922760081179
 31
0.0
  0
LINE
  5
5518
330
4D9F
100
AcDbEntity
  8
11100_Left_Dim
 62
     7
370
    -2
100
AcDbLine
 10
149.304672868017
 20
216.2641858626112
 30
0.0
 11
149.304672868017
 21
225.3922760081179
 31
0.0
  0
LINE
  5
5519
330
4D9F
100
AcDbEntity
  8
11100_Left_Dim
 62
     7
370
    -2
100
AcDbLine
 10
159.004672868017
 20
223.3922760081179
 30
0.0
 11
163.504672868017
 21
223.3922760081179
 31
0.0
  0
LINE
  5
551A
330
4D9F
100
AcDbEntity
  8
11100_Left_Dim
 62
     7
370
    -2
100
AcDbLine
 10
144.804672868017
 20
223.3922760081179
 30
0.0
 11
140.304672868017
 21
223.3922760081179
 31
0.0
  0
LINE
  5
551B
330
4D9F
100
AcDbEntity
  8
11100_Left_Dim
 62
     7
370
    -2
100
AcDbLine
 10
154.504672868017
 20
223.3922760081179
 30
0.0
 11
149.304672868017
 21
223.3922760081179
 31
0.0
  0
SOLID
  5
551C
330
4D9F
100
AcDbEntity
  8
11100_Left_Dim
 62
     7
100
AcDbTrace
 10
159.004672868017
 20
224.1422760081179
 30
0.0
 11
159.004672868017
 21
222.6422760081179
 31
0.0
 12
154.504672868017
 22
223.3922760081179
 32
0.0
 13
154.504672868017
 23
223.3922760081179
 33
0.0
  0
SOLID
  5
551D
330
4D9F
100
AcDbEntity
  8
11100_Left_Dim
 62
     7
100
AcDbTrace
 10
144.804672868017
 20
224.1422760081179
 30
0.0
 11
144.804672868017
 21
222.6422760081179
 31
0.0
 12
149.304672868017
 22
223.3922760081179
 32
0.0
 13
149.304672868017
 23
223.3922760081179
 33
0.0
  0
MTEXT
  5
551E
330
4D9F
100
AcDbEntity
  8
11100_Left_Dim
 62
     7
370
    13
100
AcDbMText
 10
137.6380062013504
 20
223.3922760081179
 30
0.0
 40
5.0
 41
0.0
 71
     5
 72
     1
  1
\A1;5
 73
     1
 44
1.0
1001
ACAD
1000
MTEXTBEGIN
1070
    73
1070
     1
1070
    44
1040
1.0
1070
    74
1070
     0
1000
MTEXTEND
  0
POINT
  5
551F
330
4D9F
100
AcDbEntity
  8
DEFPOINTS
 62
     0
100
AcDbPoint
 10
154.504672868017
 20
215.2641858626112
 30
0.0
  0
POINT
  5
5520
330
4D9F
100
AcDbEntity
  8
DEFPOINTS
 62
     0
100
AcDbPoint
 10
149.304672868017
 20
215.2641858626112
 30
0.0
  0
POINT
  5
5521
330
4D9F
100
AcDbEntity
  8
DEFPOINTS
 62
     0
100
AcDbPoint
 10
149.304672868017
 20
223.3922760081179
 30
0.0
  0
ENDBLK
  5
4DAC
330
4D9F
100
AcDbEntity
  8
0
100
AcDbBlockEnd
  0
BLOCK
  5
4DB8
330
4DAD
100
AcDbEntity
  8
0
100
AcDbBlockBegin
  2
*D11
 70
     1
 10
0.0
 20
0.0
 30
0.0
  3
*D11
  1

  0
LINE
  5
5522
330
4DAD
100
AcDbEntity
  8
11100_Left_Dim
 62
     7
370
    -2
100
AcDbLine
 10
154.504672868017
 20
216.2641858626112
 30
0.0
 11
154.504672868017
 21
243.796651297737
 31
0.0
  0
LINE
  5
5523
330
4DAD
100
AcDbEntity
  8
11100_Left_Dim
 62
     7
370
    -2
100
AcDbLine
 10
301.9046928680172
 20
146.2641858626111
 30
0.0
 11
301.9046928680172
 21
243.796651297737
 31
0.0
  0
LINE
  5
5524
330
4DAD
100
AcDbEntity
  8
11100_Left_Dim
 62
     7
370
    -2
100
AcDbLine
 10
159.004672868017
 20
241.796651297737
 30
0.0
 11
221.3713495346838
 21
241.796651297737
 31
0.0
  0
LINE
  5
5525
330
4DAD
100
AcDbEntity
  8
11100_Left_Dim
 62
     7
370
    -2
100
AcDbLine
 10
297.4046928680171
 20
241.796651297737
 30
0.0
 11
235.0380162013504
 21
241.796651297737
 31
0.0
  0
SOLID
  5
5526
330
4DAD
100
AcDbEntity
  8
11100_Left_Dim
 62
     7
100
AcDbTrace
 10
159.004672868017
 20
242.546651297737
 30
0.0
 11
159.004672868017
 21
241.046651297737
 31
0.0
 12
154.504672868017
 22
241.796651297737
 32
0.0
 13
154.504672868017
 23
241.796651297737
 33
0.0
  0
SOLID
  5
5527
330
4DAD
100
AcDbEntity
  8
11100_Left_Dim
 62
     7
100
AcDbTrace
 10
297.4046928680171
 20
242.546651297737
 30
0.0
 11
297.4046928680171
 21
241.046651297737
 31
0.0
 12
301.9046928680172
 22
241.796651297737
 32
0.0
 13
301.9046928680172
 23
241.796651297737
 33
0.0
  0
MTEXT
  5
5528
330
4DAD
100
AcDbEntity
  8
11100_Left_Dim
 62
     7
370
    13
100
AcDbMText
 10
228.2046828680171
 20
241.796651297737
 30
0.0
 40
5.0
 41
0.0
 71
     5
 72
     1
  1
\A1;147
 73
     1
 44
1.0
1001
ACAD
1000
MTEXTBEGIN
1070
    73
1070
     1
1070
    44
1040
1.0
1070
    74
1070
     0
1000
MTEXTEND
  0
POINT
  5
5529
330
4DAD
100
AcDbEntity
  8
DEFPOINTS
 62
     0
100
AcDbPoint
 10
154.504672868017
 20
215.2641858626112
 30
0.0
  0
POINT
  5
552A
330
4DAD
100
AcDbEntity
  8
DEFPOINTS
 62
     0
100
AcDbPoint
 10
301.9046928680172
 20
145.2641858626111
 30
0.0
  0
POINT
  5
552B
330
4DAD
100
AcDbEntity
  8
DEFPOINTS
 62
     0
100
AcDbPoint
 10
301.9046928680172
 20
241.796651297737
 30
0.0
  0
ENDBLK
  5
4DB9
330
4DAD
100
AcDbEntity
  8
0
100
AcDbBlockEnd
  0
BLOCK
  5
4DC5
330
4DBA
100
AcDbEntity
  8
0
100
AcDbBlockBegin
  2
*D12
 70
     1
 10
0.0
 20
0.0
 30
0.0
  3
*D12
  1

  0
LINE
  5
552C
330
4DBA
100
AcDbEntity
  8
11100_Left_Dim
 62
     7
370
    -2
100
AcDbLine
 10
154.504672868017
 20
216.2641858626112
 30
0.0
 11
154.504672868017
 21
234.007089765979
 31
0.0
  0
LINE
  5
552D
330
4DBA
100
AcDbEntity
  8
11100_Left_Dim
 62
     7
370
    -2
100
AcDbLine
 10
253.6046728680171
 20
208.1641858626112
 30
0.0
 11
253.6046728680171
 21
234.007089765979
 31
0.0
  0
LINE
  5
552E
330
4DBA
100
AcDbEntity
  8
11100_Left_Dim
 62
     7
370
    -2
100
AcDbLine
 10
159.004672868017
 20
232.007089765979
 30
0.0
 11
198.8880062013504
 21
232.007089765979
 31
0.0
  0
LINE
  5
552F
330
4DBA
100
AcDbEntity
  8
11100_Left_Dim
 62
     7
370
    -2
100
AcDbLine
 10
249.1046728680171
 20
232.007089765979
 30
0.0
 11
209.2213395346837
 21
232.007089765979
 31
0.0
  0
SOLID
  5
5530
330
4DBA
100
AcDbEntity
  8
11100_Left_Dim
 62
     7
100
AcDbTrace
 10
159.004672868017
 20
232.757089765979
 30
0.0
 11
159.004672868017
 21
231.257089765979
 31
0.0
 12
154.504672868017
 22
232.007089765979
 32
0.0
 13
154.504672868017
 23
232.007089765979
 33
0.0
  0
SOLID
  5
5531
330
4DBA
100
AcDbEntity
  8
11100_Left_Dim
 62
     7
100
AcDbTrace
 10
249.1046728680171
 20
232.757089765979
 30
0.0
 11
249.1046728680171
 21
231.257089765979
 31
0.0
 12
253.6046728680171
 22
232.007089765979
 32
0.0
 13
253.6046728680171
 23
232.007089765979
 33
0.0
  0
MTEXT
  5
5532
330
4DBA
100
AcDbEntity
  8
11100_Left_Dim
 62
     7
370
    13
100
AcDbMText
 10
204.0546728680171
 20
232.007089765979
 30
0.0
 40
5.0
 41
0.0
 71
     5
 72
     1
  1
\A1;99
 73
     1
 44
1.0
1001
ACAD
1000
MTEXTBEGIN
1070
    73
1070
     1
1070
    44
1040
1.0
1070
    74
1070
     0
1000
MTEXTEND
  0
POINT
  5
5533
330
4DBA
100
AcDbEntity
  8
DEFPOINTS
 62
     0
100
AcDbPoint
 10
154.504672868017
 20
215.2641858626112
 30
0.0
  0
POINT
  5
5534
330
4DBA
100
AcDbEntity
  8
DEFPOINTS
 62
     0
100
AcDbPoint
 10
253.6046728680171
 20
207.1641858626112
 30
0.0
  0
POINT
  5
5535
330
4DBA
100
AcDbEntity
  8
DEFPOINTS
 62
     0
100
AcDbPoint
 10
253.6046728680171
 20
232.007089765979
 30
0.0
  0
ENDBLK
  5
4DC6
330
4DBA
100
AcDbEntity
  8
0
100
AcDbBlockEnd
  0
BLOCK
  5
4DD2
330
4DC7
100
AcDbEntity
  8
0
100
AcDbBlockBegin
  2
*D13
 70
     1
 10
0.0
 20
0.0
 30
0.0
  3
*D13
  1

  0
LINE
  5
5536
330
4DC7
100
AcDbEntity
  8
11100_Left_Dim
 62
     7
370
    -2
100
AcDbLine
 10
154.504672868017
 20
163.7641858626111
 30
0.0
 11
154.504672868017
 21
225.3922760081179
 31
0.0
  0
LINE
  5
5537
330
4DC7
100
AcDbEntity
  8
11100_Left_Dim
 62
     7
370
    -2
100
AcDbLine
 10
213.604672868017
 20
216.2641858626112
 30
0.0
 11
213.604672868017
 21
225.3922760081179
 31
0.0
  0
LINE
  5
5538
330
4DC7
100
AcDbEntity
  8
11100_Left_Dim
 62
     7
370
    -2
100
AcDbLine
 10
159.004672868017
 20
223.3922760081179
 30
0.0
 11
178.8880062013504
 21
223.3922760081179
 31
0.0
  0
LINE
  5
5539
330
4DC7
100
AcDbEntity
  8
11100_Left_Dim
 62
     7
370
    -2
100
AcDbLine
 10
209.104672868017
 20
223.3922760081179
 30
0.0
 11
189.2213395346837
 21
223.3922760081179
 31
0.0
  0
SOLID
  5
553A
330
4DC7
100
AcDbEntity
  8
11100_Left_Dim
 62
     7
100
AcDbTrace
 10
159.004672868017
 20
224.1422760081179
 30
0.0
 11
159.004672868017
 21
222.6422760081179
 31
0.0
 12
154.504672868017
 22
223.3922760081179
 32
0.0
 13
154.504672868017
 23
223.3922760081179
 33
0.0
  0
SOLID
  5
553B
330
4DC7
100
AcDbEntity
  8
11100_Left_Dim
 62
     7
100
AcDbTrace
 10
209.104672868017
 20
224.1422760081179
 30
0.0
 11
209.104672868017
 21
222.6422760081179
 31
0.0
 12
213.604672868017
 22
223.3922760081179
 32
0.0
 13
213.604672868017
 23
223.3922760081179
 33
0.0
  0
MTEXT
  5
553C
330
4DC7
100
AcDbEntity
  8
11100_Left_Dim
 62
     7
370
    13
100
AcDbMText
 10
184.054672868017
 20
223.3922760081179
 30
0.0
 40
5.0
 41
0.0
 71
     5
 72
     1
  1
\A1;59
 73
     1
 44
1.0
1001
ACAD
1000
MTEXTBEGIN
1070
    73
1070
     1
1070
    44
1040
1.0
1070
    74
1070
     0
1000
MTEXTEND
  0
POINT
  5
553D
330
4DC7
100
AcDbEntity
  8
DEFPOINTS
 62
     0
100
AcDbPoint
 10
154.504672868017
 20
162.7641858626111
 30
0.0
  0
POINT
  5
553E
330
4DC7
100
AcDbEntity
  8
DEFPOINTS
 62
     0
100
AcDbPoint
 10
213.604672868017
 20
215.2641858626112
 30
0.0
  0
POINT
  5
553F
330
4DC7
100
AcDbEntity
  8
DEFPOINTS
 62
     0
100
AcDbPoint
 10
213.604672868017
 20
223.3922760081179
 30
0.0
  0
ENDBLK
  5
4DD3
330
4DC7
100
AcDbEntity
  8
0
100
AcDbBlockEnd
  0
BLOCK
  5
4DE1
330
4DD4
100
AcDbEntity
  8
0
100
AcDbBlockBegin
  2
*D14
 70
     1
 10
0.0
 20
0.0
 30
0.0
  3
*D14
  1

  0
LINE
  5
5540
330
4DD4
100
AcDbEntity
  8
11100_Left_Dim
 62
     7
370
    -2
100
AcDbLine
 10
149.304672868017
 20
74.26416586261116
 30
0.0
 11
149.304672868017
 21
52.38968322314853
 31
0.0
  0
LINE
  5
5541
330
4DD4
100
AcDbEntity
  8
11100_Left_Dim
 62
     7
370
    -2
100
AcDbLine
 10
157.304672868017
 20
74.26416586261116
 30
0.0
 11
157.304672868017
 21
52.38968322314853
 31
0.0
  0
LINE
  5
5542
330
4DD4
100
AcDbEntity
  8
11100_Left_Dim
 62
     7
370
    -2
100
AcDbLine
 10
144.804672868017
 20
54.38968322314853
 30
0.0
 11
140.304672868017
 21
54.38968322314853
 31
0.0
  0
LINE
  5
5543
330
4DD4
100
AcDbEntity
  8
11100_Left_Dim
 62
     7
370
    -2
100
AcDbLine
 10
161.804672868017
 20
54.38968322314853
 30
0.0
 11
166.304672868017
 21
54.38968322314853
 31
0.0
  0
LINE
  5
5544
330
4DD4
100
AcDbEntity
  8
11100_Left_Dim
 62
     7
370
    -2
100
AcDbLine
 10
149.304672868017
 20
54.38968322314853
 30
0.0
 11
150.6380062013504
 21
54.38968322314853
 31
0.0
  0
LINE
  5
5545
330
4DD4
100
AcDbEntity
  8
11100_Left_Dim
 62
     7
370
    -2
100
AcDbLine
 10
157.304672868017
 20
54.38968322314853
 30
0.0
 11
155.9713395346837
 21
54.38968322314853
 31
0.0
  0
SOLID
  5
5546
330
4DD4
100
AcDbEntity
  8
11100_Left_Dim
 62
     7
100
AcDbTrace
 10
144.804672868017
 20
55.13968322314854
 30
0.0
 11
144.804672868017
 21
53.63968322314853
 31
0.0
 12
149.304672868017
 22
54.38968322314853
 32
0.0
 13
149.304672868017
 23
54.38968322314853
 33
0.0
  0
SOLID
  5
5547
330
4DD4
100
AcDbEntity
  8
11100_Left_Dim
 62
     7
100
AcDbTrace
 10
161.804672868017
 20
55.13968322314854
 30
0.0
 11
161.804672868017
 21
53.63968322314853
 31
0.0
 12
157.304672868017
 22
54.38968322314853
 32
0.0
 13
157.304672868017
 23
54.38968322314853
 33
0.0
  0
MTEXT
  5
5548
330
4DD4
100
AcDbEntity
  8
11100_Left_Dim
 62
     7
370
    13
100
AcDbMText
 10
153.3046728680171
 20
54.38968322314853
 30
0.0
 40
5.0
 41
0.0
 71
     5
 72
     1
  1
\A1;8
 73
     1
 44
1.0
1001
ACAD
1000
MTEXTBEGIN
1070
    73
1070
     1
1070
    44
1040
1.0
1070
    74
1070
     0
1000
MTEXTEND
  0
POINT
  5
5549
330
4DD4
100
AcDbEntity
  8
DEFPOINTS
 62
     0
100
AcDbPoint
 10
149.304672868017
 20
75.26416586261117
 30
0.0
  0
POINT
  5
554A
330
4DD4
100
AcDbEntity
  8
DEFPOINTS
 62
     0
100
AcDbPoint
 10
157.304672868017
 20
75.26416586261117
 30
0.0
  0
POINT
  5
554B
330
4DD4
100
AcDbEntity
  8
DEFPOINTS
 62
     0
100
AcDbPoint
 10
157.304672868017
 20
54.38968322314853
 30
0.0
  0
ENDBLK
  5
4DE2
330
4DD4
100
AcDbEntity
  8
0
100
AcDbBlockEnd
  0
BLOCK
  5
4DF0
330
4DE3
100
AcDbEntity
  8
0
100
AcDbBlockBegin
  2
*D15
 70
     1
 10
0.0
 20
0.0
 30
0.0
  3
*D15
  1

  0
LINE
  5
554C
330
4DE3
100
AcDbEntity
  8
11100_Left_Dim
 62
     7
370
    -2
100
AcDbLine
 10
156.504672868017
 20
106.0641858626111
 30
0.0
 11
156.504672868017
 21
63.41136510456414
 31
0.0
  0
LINE
  5
554D
330
4DE3
100
AcDbEntity
  8
11100_Left_Dim
 62
     7
370
    -2
100
AcDbLine
 10
149.304672868017
 20
74.26416586261116
 30
0.0
 11
149.304672868017
 21
63.41136510456414
 31
0.0
  0
LINE
  5
554E
330
4DE3
100
AcDbEntity
  8
11100_Left_Dim
 62
     7
370
    -2
100
AcDbLine
 10
161.004672868017
 20
65.41136510456414
 30
0.0
 11
165.504672868017
 21
65.41136510456414
 31
0.0
  0
LINE
  5
554F
330
4DE3
100
AcDbEntity
  8
11100_Left_Dim
 62
     7
370
    -2
100
AcDbLine
 10
144.804672868017
 20
65.41136510456414
 30
0.0
 11
140.304672868017
 21
65.41136510456414
 31
0.0
  0
LINE
  5
5550
330
4DE3
100
AcDbEntity
  8
11100_Left_Dim
 62
     7
370
    -2
100
AcDbLine
 10
156.504672868017
 20
65.41136510456414
 30
0.0
 11
155.5713395346837
 21
65.41136510456414
 31
0.0
  0
LINE
  5
5551
330
4DE3
100
AcDbEntity
  8
11100_Left_Dim
 62
     7
370
    -2
100
AcDbLine
 10
149.304672868017
 20
65.41136510456414
 30
0.0
 11
150.2380062013504
 21
65.41136510456414
 31
0.0
  0
SOLID
  5
5552
330
4DE3
100
AcDbEntity
  8
11100_Left_Dim
 62
     7
100
AcDbTrace
 10
161.004672868017
 20
66.16136510456414
 30
0.0
 11
161.004672868017
 21
64.66136510456414
 31
0.0
 12
156.504672868017
 22
65.41136510456414
 32
0.0
 13
156.504672868017
 23
65.41136510456414
 33
0.0
  0
SOLID
  5
5553
330
4DE3
100
AcDbEntity
  8
11100_Left_Dim
 62
     7
100
AcDbTrace
 10
144.804672868017
 20
66.16136510456414
 30
0.0
 11
144.804672868017
 21
64.66136510456414
 31
0.0
 12
149.304672868017
 22
65.41136510456414
 32
0.0
 13
149.304672868017
 23
65.41136510456414
 33
0.0
  0
MTEXT
  5
5554
330
4DE3
100
AcDbEntity
  8
11100_Left_Dim
 62
     7
370
    13
100
AcDbMText
 10
152.904672868017
 20
65.41136510456414
 30
0.0
 40
5.0
 41
0.0
 71
     5
 72
     1
  1
\A1;7
 73
     1
 44
1.0
1001
ACAD
1000
MTEXTBEGIN
1070
    73
1070
     1
1070
    44
1040
1.0
1070
    74
1070
     0
1000
MTEXTEND
  0
POINT
  5
5555
330
4DE3
100
AcDbEntity
  8
DEFPOINTS
 62
     0
100
AcDbPoint
 10
156.504672868017
 20
107.0641858626111
 30
0.0
  0
POINT
  5
5556
330
4DE3
100
AcDbEntity
  8
DEFPOINTS
 62
     0
100
AcDbPoint
 10
149.304672868017
 20
75.26416586261117
 30
0.0
  0
POINT
  5
5557
330
4DE3
100
AcDbEntity
  8
DEFPOINTS
 62
     0
100
AcDbPoint
 10
149.304672868017
 20
65.41136510456414
 30
0.0
  0
ENDBLK
  5
4DF1
330
4DE3
100
AcDbEntity
  8
0
100
AcDbBlockEnd
  0
BLOCK
  5
4E35
330
4E34
100
AcDbEntity
  8
0
100
AcDbBlockBegin
  2
*D16
 70
     1
 10
0.0
 20
0.0
 30
0.0
  3
*D16
  1

  0
LINE
  5
4E36
330
4E34
100
AcDbEntity
  8
11100_Left_Dim
 62
     7
370
    -2
100
AcDbLine
 10
138.7118089147753
 20
233.9833732679413
 30
0.0
 11
138.7118089147753
 21
272.0390994365937
 31
0.0
  0
LINE
  5
4E37
330
4E34
100
AcDbEntity
  8
11100_Left_Dim
 62
     7
370
    -2
100
AcDbLine
 10
321.7118089147753
 20
165.4833732679411
 30
0.0
 11
321.7118089147753
 21
272.0390994365937
 31
0.0
  0
LINE
  5
4E38
330
4E34
100
AcDbEntity
  8
11100_Left_Dim
 62
     7
370
    -2
100
AcDbLine
 10
143.2118089147753
 20
270.0390994365937
 30
0.0
 11
223.3784755814419
 21
270.0390994365937
 31
0.0
  0
LINE
  5
4E39
330
4E34
100
AcDbEntity
  8
11100_Left_Dim
 62
     7
370
    -2
100
AcDbLine
 10
317.2118089147753
 20
270.0390994365937
 30
0.0
 11
237.0451422481087
 21
270.0390994365937
 31
0.0
  0
SOLID
  5
4E3A
330
4E34
100
AcDbEntity
  8
11100_Left_Dim
 62
     7
100
AcDbTrace
 10
143.2118089147753
 20
270.7890994365937
 30
0.0
 11
143.2118089147753
 21
269.2890994365937
 31
0.0
 12
138.7118089147753
 22
270.0390994365937
 32
0.0
 13
138.7118089147753
 23
270.0390994365937
 33
0.0
  0
SOLID
  5
4E3B
330
4E34
100
AcDbEntity
  8
11100_Left_Dim
 62
     7
100
AcDbTrace
 10
317.2118089147753
 20
270.7890994365937
 30
0.0
 11
317.2118089147753
 21
269.2890994365937
 31
0.0
 12
321.7118089147753
 22
270.0390994365937
 32
0.0
 13
321.7118089147753
 23
270.0390994365937
 33
0.0
  0
MTEXT
  5
4E3C
330
4E34
100
AcDbEntity
  8
11100_Left_Dim
 62
     7
100
AcDbMText
 10
230.2118089147753
 20
270.0390994365937
 30
0.0
 40
5.0
 41
0.0
 71
     5
 72
     1
  1
\A1;183
 73
     1
 44
1.0
1001
ACAD
1000
MTEXTBEGIN
1070
    73
1070
     1
1070
    44
1040
1.0
1070
    74
1070
     0
1000
MTEXTEND
  0
POINT
  5
4E3D
330
4E34
100
AcDbEntity
  8
DEFPOINTS
 62
     0
100
AcDbPoint
 10
138.7118089147753
 20
232.9833732679412
 30
0.0
  0
POINT
  5
4E3E
330
4E34
100
AcDbEntity
  8
DEFPOINTS
 62
     0
100
AcDbPoint
 10
321.7118089147753
 20
164.4833732679411
 30
0.0
  0
POINT
  5
4E3F
330
4E34
100
AcDbEntity
  8
DEFPOINTS
 62
     0
100
AcDbPoint
 10
321.7118089147753
 20
270.0390994365937
 30
0.0
  0
ENDBLK
  5
4E40
330
4E34
100
AcDbEntity
  8
0
100
AcDbBlockEnd
  0
BLOCK
  5
5024
330
5019
100
AcDbEntity
  8
0
100
AcDbBlockBegin
  2
*D17
 70
     1
 10
0.0
 20
0.0
 30
0.0
  3
*D17
  1

  0
LINE
  5
5026
330
5019
100
AcDbEntity
  8
11100_Left_Dim
 62
     7
370
    -2
100
AcDbLine
 10
148.7368239041237
 20
465.0063879707959
 30
0.0
 11
148.7368239041237
 21
503.0621141394483
 31
0.0
  0
LINE
  5
5027
330
5019
100
AcDbEntity
  8
11100_Left_Dim
 62
     7
370
    -2
100
AcDbLine
 10
331.7368239041237
 20
396.5063879707959
 30
0.0
 11
331.7368239041237
 21
503.0621141394483
 31
0.0
  0
LINE
  5
5028
330
5019
100
AcDbEntity
  8
11100_Left_Dim
 62
     7
370
    -2
100
AcDbLine
 10
153.2368239041237
 20
501.0621141394485
 30
0.0
 11
233.4034905707904
 21
501.0621141394485
 31
0.0
  0
LINE
  5
5029
330
5019
100
AcDbEntity
  8
11100_Left_Dim
 62
     7
370
    -2
100
AcDbLine
 10
327.2368239041237
 20
501.0621141394485
 30
0.0
 11
247.070157237457
 21
501.0621141394485
 31
0.0
  0
SOLID
  5
502A
330
5019
100
AcDbEntity
  8
11100_Left_Dim
 62
     7
100
AcDbTrace
 10
153.2368239041237
 20
501.8121141394484
 30
0.0
 11
153.2368239041237
 21
500.3121141394483
 31
0.0
 12
148.7368239041237
 22
501.0621141394485
 32
0.0
 13
148.7368239041237
 23
501.0621141394485
 33
0.0
  0
SOLID
  5
502B
330
5019
100
AcDbEntity
  8
11100_Left_Dim
 62
     7
100
AcDbTrace
 10
327.2368239041237
 20
501.8121141394484
 30
0.0
 11
327.2368239041237
 21
500.3121141394483
 31
0.0
 12
331.7368239041237
 22
501.0621141394485
 32
0.0
 13
331.7368239041237
 23
501.0621141394485
 33
0.0
  0
MTEXT
  5
502C
330
5019
100
AcDbEntity
  8
11100_Left_Dim
 62
     7
100
AcDbMText
 10
240.2368239041237
 20
501.0621141394485
 30
0.0
 40
5.0
 41
0.0
 71
     5
 72
     1
  1
\A1;183
 73
     1
 44
1.0
1001
ACAD
1000
MTEXTBEGIN
1070
    73
1070
     1
1070
    44
1040
1.0
1070
    74
1070
     0
1000
MTEXTEND
  0
POINT
  5
502D
330
5019
100
AcDbEntity
  8
DEFPOINTS
 62
     0
100
AcDbPoint
 10
148.7368239041237
 20
464.0063879707959
 30
0.0
  0
POINT
  5
502E
330
5019
100
AcDbEntity
  8
DEFPOINTS
 62
     0
100
AcDbPoint
 10
331.7368239041237
 20
395.5063879707958
 30
0.0
  0
POINT
  5
502F
330
5019
100
AcDbEntity
  8
DEFPOINTS
 62
     0
100
AcDbPoint
 10
331.7368239041237
 20
501.0621141394485
 30
0.0
  0
ENDBLK
  5
5025
330
5019
100
AcDbEntity
  8
0
100
AcDbBlockEnd
  0
BLOCK
  5
5206
330
51FB
100
AcDbEntity
  8
0
100
AcDbBlockBegin
  2
*D18
 70
     1
 10
0.0
 20
0.0
 30
0.0
  3
*D18
  1

  0
LINE
  5
54C4
330
51FB
100
AcDbEntity
  8
11100_Left_Dim
 62
     7
370
    -2
100
AcDbLine
 10
134.2291058143385
 20
216.8119273506407
 30
0.0
 11
134.2291058143385
 21
254.8676535192933
 31
0.0
  0
LINE
  5
54C5
330
51FB
100
AcDbEntity
  8
11100_Left_Dim
 62
     7
370
    -2
100
AcDbLine
 10
330.3291058143385
 20
148.3119273506406
 30
0.0
 11
330.3291058143385
 21
254.8676535192933
 31
0.0
  0
LINE
  5
54C6
330
51FB
100
AcDbEntity
  8
11100_Left_Dim
 62
     7
370
    -2
100
AcDbLine
 10
138.7291058143385
 20
252.8676535192933
 30
0.0
 11
225.4457724810052
 21
252.8676535192933
 31
0.0
  0
LINE
  5
54C7
330
51FB
100
AcDbEntity
  8
11100_Left_Dim
 62
     7
370
    -2
100
AcDbLine
 10
325.8291058143385
 20
252.8676535192933
 30
0.0
 11
239.1124391476719
 21
252.8676535192933
 31
0.0
  0
SOLID
  5
54C8
330
51FB
100
AcDbEntity
  8
11100_Left_Dim
 62
     7
100
AcDbTrace
 10
138.7291058143385
 20
253.6176535192933
 30
0.0
 11
138.7291058143385
 21
252.1176535192933
 31
0.0
 12
134.2291058143385
 22
252.8676535192933
 32
0.0
 13
134.2291058143385
 23
252.8676535192933
 33
0.0
  0
SOLID
  5
54C9
330
51FB
100
AcDbEntity
  8
11100_Left_Dim
 62
     7
100
AcDbTrace
 10
325.8291058143385
 20
253.6176535192933
 30
0.0
 11
325.8291058143385
 21
252.1176535192933
 31
0.0
 12
330.3291058143385
 22
252.8676535192933
 32
0.0
 13
330.3291058143385
 23
252.8676535192933
 33
0.0
  0
MTEXT
  5
54CA
330
51FB
100
AcDbEntity
  8
11100_Left_Dim
 62
     7
370
    13
100
AcDbMText
 10
232.2791058143385
 20
252.8676535192933
 30
0.0
 40
5.0
 41
0.0
 71
     5
 72
     1
  1
\A1;196
 73
     1
 44
1.0
1001
ACAD
1000
MTEXTBEGIN
1070
    73
1070
     1
1070
    44
1040
1.0
1070
    74
1070
     0
1000
MTEXTEND
  0
POINT
  5
54CB
330
51FB
100
AcDbEntity
  8
DEFPOINTS
 62
     0
100
AcDbPoint
 10
134.2291058143385
 20
215.8119273506407
 30
0.0
  0
POINT
  5
54CC
330
51FB
100
AcDbEntity
  8
DEFPOINTS
 62
     0
100
AcDbPoint
 10
330.3291058143385
 20
147.3119273506406
 30
0.0
  0
POINT
  5
54CD
330
51FB
100
AcDbEntity
  8
DEFPOINTS
 62
     0
100
AcDbPoint
 10
330.3291058143385
 20
252.8676535192933
 30
0.0
  0
ENDBLK
  5
5207
330
51FB
100
AcDbEntity
  8
0
100
AcDbBlockEnd
  0
ENDSEC
  0
SECTION
  2
ENTITIES
  0
INSERT
  5
AA
330
20
100
AcDbEntity
  8
90000_Frame
  6
Continuous
 62
     7
100
AcDbBlockReference
  2
SIEMENS_OUTLINE_BL0
 10
0.0
 20
0.0
 30
0.0
  0
LINE
  5
AB
330
20
100
AcDbEntity
  8
90000_Frame
  6
Continuous
 62
     7
100
AcDbLine
 10
275.0
 20
10.0
 30
0.0
 11
410.0
 21
10.0
 31
0.0
  0
LINE
  5
AC
330
20
100
AcDbEntity
  8
90000_Frame
  6
Continuous
 62
     7
100
AcDbLine
 10
275.0
 20
10.0
 30
0.0
 11
275.0
 21
28.0
 31
0.0
  0
LINE
  5
AD
330
20
100
AcDbEntity
  8
90000_Frame
  6
Continuous
 62
     7
100
AcDbLine
 10
325.0
 20
16.0
 30
0.0
 11
410.0
 21
16.0
 31
0.0
  0
LINE
  5
AE
330
20
100
AcDbEntity
  8
90000_Frame
  6
Continuous
 62
     7
100
AcDbLine
 10
275.0
 20
28.0
 30
0.0
 11
410.0
 21
28.0
 31
0.0
  0
LINE
  5
AF
330
20
100
AcDbEntity
  8
90000_Frame
  6
Continuous
 62
     7
100
AcDbLine
 10
325.0
 20
10.0
 30
0.0
 11
325.0
 21
28.0
 31
0.0
  0
LINE
  5
B0
330
20
100
AcDbEntity
  8
90000_Frame
  6
Continuous
 62
     7
100
AcDbLine
 10
367.5
 20
10.0
 30
0.0
 11
367.5
 21
16.0
 31
0.0
  0
LINE
  5
B1
330
20
100
AcDbEntity
  8
90000_Frame
  6
Continuous
 62
     7
100
AcDbLine
 10
410.0
 20
10.0
 30
0.0
 11
410.0
 21
28.0
 31
0.0
  0
TEXT
  5
B2
330
20
100
AcDbEntity
  8
90000_Frame
  6
Continuous
 62
     7
100
AcDbText
 10
325.66
 20
11.9
 30
0.0
 40
2.2
  1
Format / Size: DIN A3
 41
0.7994987468660284
 72
     5
 11
359.079047619
 21
11.9
 31
0.0
100
AcDbText
  0
TEXT
  5
B3
330
20
100
AcDbEntity
  8
90000_Frame
  6
Continuous
 62
     7
100
AcDbText
 10
368.16
 20
11.9
 30
0.0
 40
2.2
  1
Massstab / Scale: 1:1
 41
0.7732634338148471
 72
     5
 11
399.0647619048001
 21
11.9
 31
0.0
100
AcDbText
  0
TEXT
  5
B4
330
20
100
AcDbEntity
  8
90000_Frame
  6
Continuous
 62
     7
100
AcDbText
 10
332.8687290768514
 20
23.19774285894084
 30
0.0
 40
3.5
  1
3RT104__00000117_001_ALL
 41
0.9507315011906209
 72
     5
 11
402.747494414362
 21
23.19774285894084
 31
0.0
100
AcDbText
  0
LINE
  5
B7
330
20
100
AcDbEntity
  8
90000_Frame
  6
Continuous
 62
     7
100
AcDbLine
 10
10.0
 20
0.0
 30
0.0
 11
420.0
 21
0.0
 31
0.0
  0
LINE
  5
B9
330
20
100
AcDbEntity
  8
90000_Frame
  6
Continuous
 62
     7
100
AcDbLine
 10
420.0
 20
0.0
 30
0.0
 11
420.0
 21
270.0
 31
0.0
  0
LINE
  5
579
330
20
100
AcDbEntity
  8
91000_TIP
  6
Continuous
 62
     7
100
AcDbLine
 10
247.4563071792281
 20
21.48959916975296
 30
0.0
 11
257.4563069750281
 21
23.98959911875299
 31
0.0
  0
LINE
  5
57A
330
20
100
AcDbEntity
  8
91000_TIP
  6
CENTER
 62
     7
100
AcDbLine
 10
246.1767967072281
 20
18.98959922085298
 30
0.0
 11
269.7787859713281
 21
18.98959922085298
 31
0.0
  0
LINE
  5
57B
330
20
100
AcDbEntity
  8
91000_TIP
  6
Continuous
 62
     7
100
AcDbLine
 10
247.4563071792281
 20
16.48959927195296
 30
0.0
 11
257.4563069750281
 21
13.98959932295296
 31
0.0
  0
LINE
  5
57C
330
20
100
AcDbEntity
  8
91000_TIP
  6
Continuous
 62
     7
100
AcDbLine
 10
247.4563071792281
 20
21.48959916975296
 30
0.0
 11
247.4563071792281
 21
16.48959927195296
 31
0.0
  0
LINE
  5
57D
330
20
100
AcDbEntity
  8
91000_TIP
  6
Continuous
 62
     7
100
AcDbLine
 10
257.4563069750281
 20
23.98959911875299
 30
0.0
 11
257.4563069750281
 21
13.98959932295296
 31
0.0
  0
LINE
  5
57E
330
20
100
AcDbEntity
  8
91000_TIP
  6
CENTER
 62
     7
100
AcDbLine
 10
263.9563068422281
 20
13.26811801445298
 30
0.0
 11
263.9563068422281
 21
24.55150401445298
 31
0.0
  0
CIRCLE
  5
57F
330
20
100
AcDbEntity
  8
91000_TIP
  6
Continuous
 62
     7
100
AcDbCircle
 10
263.9563068422281
 20
18.98959922085298
 30
0.0
 40
4.9999998979
  0
CIRCLE
  5
580
330
20
100
AcDbEntity
  8
91000_TIP
  6
Continuous
 62
     7
100
AcDbCircle
 10
263.9563068422281
 20
18.98959922085298
 30
0.0
 40
2.499999948899997
  0
TEXT
  5
1EE0
330
20
100
AcDbEntity
  8
91000_TIP
  6
Continuous
 62
     7
100
AcDbText
 10
21.2756234532
 20
15.1898618139
 30
0.0
 40
3.5
  1
Alle Bemassungswerte sind in Millimeter (mm) angegeben.
 41
0.7901174168295486
 72
     5
 11
155.8589567865
 21
15.1898618139
 31
0.0
100
AcDbText
  0
TEXT
  5
1EE1
330
20
100
AcDbEntity
  8
91000_TIP
  6
Continuous
 62
     7
100
AcDbText
 10
21.2756234532
 20
9.9398618139
 30
0.0
 40
3.5
  1
All dimensions are in millimeters (mm).
 41
0.831845238095537
 72
     5
 11
114.4422901199
 21
9.9398618139
 31
0.0
100
AcDbText
  0
CIRCLE
  5
1F08
330
20
100
AcDbEntity
  8
30000_Drilling
  6
Continuous
 62
     7
370
    50
100
AcDbCircle
 39
0.25
 10
332.9259452951691
 20
80.81190735064067
 30
0.0
 40
2.5
  0
CIRCLE
  5
1F09
330
20
100
AcDbEntity
  8
30000_Drilling
  6
Continuous
 62
     7
370
    50
100
AcDbCircle
 39
0.25
 10
392.9259652951689
 20
210.8119273506408
 30
0.0
 40
2.5
1001
AUSTER_ANSICHT
1002
{
1000
Det03
1002
}
1001
AUSTER_FOLIE
1002
{
1000
EGH_KUNDENKATALOG
1002
}
  0
DIMENSION
  5
3742
330
20
100
AcDbEntity
  8
30100_Drilling_DIM
370
    13
100
AcDbDimension
  2
*D2
 10
392.9259652951689
 20
217.2403846447493
 30
0.0
 11
362.925955295169
 21
217.2403846447493
 31
0.0
 70
    32
 71
     5
 42
60.00001999999978
  3
H035
100
AcDbAlignedDimension
 13
332.9259452951691
 23
83.31190735064057
 33
0.0
 14
392.9259652951689
 24
213.3119273506407
 34
0.0
100
AcDbRotatedDimension
1001
ACAD
1000
DSTYLE
1002
{
1070
    40
1040
1.0
1002
}
  0
DIMENSION
  5
3743
330
20
100
AcDbEntity
  8
30100_Drilling_DIM
370
    13
100
AcDbDimension
  2
*D3
 10
326.451104240757
 20
210.8119273506408
 30
0.0
 11
326.451104240757
 21
145.8119173506406
 31
0.0
 70
   160
 71
     5
 42
130.0000200000001
  3
H035
100
AcDbAlignedDimension
 13
330.4259452951691
 23
80.81190735064067
 33
0.0
 14
390.4259652951688
 24
210.8119273506408
 34
0.0
 50
90.0
100
AcDbRotatedDimension
1001
ACAD
1000
DSTYLE
1002
{
1070
    40
1040
1.0
1002
}
  0
DIMENSION
  5
3744
330
20
100
AcDbEntity
  8
30100_Drilling_DIM
370
    13
100
AcDbDimension
  2
*D1
 10
395.4259652951689
 20
198.7076866052461
 30
0.0
 11
378.7592986285022
 21
198.7076866052461
 31
0.0
 70
   160
 71
     5
 42
5.0
  3
H035
100
AcDbAlignedDimension
 13
390.4259652951688
 23
210.8119273506408
 33
0.0
 14
395.4259652951689
 24
210.8119273506408
 34
0.0
100
AcDbRotatedDimension
1001
ACAD
1000
DSTYLE
1002
{
1070
    40
1040
1.0
1002
}
  0
LINE
  5
3DD1
330
20
100
AcDbEntity
  8
11000_Left
  6
Continuous
 62
     7
370
    50
100
AcDbLine
 39
0.45
 10
268.354672868017
 20
136.0641858626111
 30
0.0
 11
268.354672868017
 21
154.4641858626111
 31
0.0
1001
AUSTER_ANSICHT
1002
{
1000
Det03
1002
}
1001
AUSTER_FOLIE
1002
{
1000
AC_PLUS_KT_FELD
1002
}
  0
TEXT
  5
3E22
330
20
100
AcDbEntity
  8
10000_Front
370
    50
100
AcDbText
 10
41.18926452529693
 20
178.2173794632698
 30
0.0
 40
3.0
  1
SIEMENS
 41
0.6600000000000003
100
AcDbText
1001
AUSTER_ANSICHT
1002
{
1000
Det03
1002
}
1001
AUSTER_FOLIE
1002
{
1000
AC_PLUS_KT_FELD
1002
}
  0
CIRCLE
  5
3E85
330
20
100
AcDbEntity
  8
10000_Front
  6
Continuous
 62
     7
370
    50
100
AcDbCircle
 39
0.45
 10
73.93928452529689
 20
185.46737946327
 30
0.0
 40
3.5
1001
AUSTER_ANSICHT
1002
{
1000
Det03
1002
}
1001
AUSTER_FOLIE
1002
{
1000
AC_PLUS_KT_FELD
1002
}
  0
ARC
  5
3E86
330
20
100
AcDbEntity
  8
10000_Front
  6
Continuous
370
    50
100
AcDbCircle
 39
0.7
 10
78.78928452529681
 20
210.3173794632699
 30
0.0
 40
0.4
100
AcDbArc
 50
90.0
 51
180.0
1001
AUSTER_ANSICHT
1002
{
1000
Det03
1002
}
1001
AUSTER_FOLIE
1002
{
1000
AC_PLUS_KT_FELD
1002
}
  0
ARC
  5
3E87
330
20
100
AcDbEntity
  8
10000_Front
  6
Continuous
370
    50
100
AcDbCircle
 39
0.7
 10
94.5392845252968
 20
210.3173794632699
 30
0.0
 40
0.4
100
AcDbArc
 50
0.000000587718466
 51
90.0
1001
AUSTER_ANSICHT
1002
{
1000
Det03
1002
}
1001
AUSTER_FOLIE
1002
{
1000
AC_PLUS_KT_FELD
1002
}
  0
ARC
  5
3E88
330
20
100
AcDbEntity
  8
10000_Front
  6
Continuous
370
    50
100
AcDbCircle
 39
0.7
 10
69.08928452529687
 20
210.3173794632699
 30
0.0
 40
0.4
100
AcDbArc
 50
0.0000005877119523
 51
90.0
1001
AUSTER_ANSICHT
1002
{
1000
Det03
1002
}
1001
AUSTER_FOLIE
1002
{
1000
AC_PLUS_KT_FELD
1002
}
  0
ARC
  5
3E89
330
20
100
AcDbEntity
  8
10000_Front
  6
Continuous
370
    50
100
AcDbCircle
 39
0.7
 10
56.28928452529681
 20
210.3173794632699
 30
0.0
 40
0.4
100
AcDbArc
 50
90.0
 51
180.0
1001
AUSTER_ANSICHT
1002
{
1000
Det03
1002
}
1001
AUSTER_FOLIE
1002
{
1000
AC_PLUS_KT_FELD
1002
}
  0
ARC
  5
3E8A
330
20
100
AcDbEntity
  8
10000_Front
  6
Continuous
370
    50
100
AcDbCircle
 39
0.7
 10
46.58926452529681
 20
210.3173794632699
 30
0.0
 40
0.4
100
AcDbArc
 50
0.0000005877119523
 51
90.0
1001
AUSTER_ANSICHT
1002
{
1000
Det03
1002
}
1001
AUSTER_FOLIE
1002
{
1000
AC_PLUS_KT_FELD
1002
}
  0
ARC
  5
3E8B
330
20
100
AcDbEntity
  8
10000_Front
  6
Continuous
370
    50
100
AcDbCircle
 39
0.7
 10
30.83926452529681
 20
210.3173794632699
 30
0.0
 40
0.4
100
AcDbArc
 50
90.0
 51
180.0
1001
AUSTER_ANSICHT
1002
{
1000
Det03
1002
}
1001
AUSTER_FOLIE
1002
{
1000
AC_PLUS_KT_FELD
1002
}
  0
ARC
  5
3E8C
330
20
100
AcDbEntity
  8
10000_Front
  6
Continuous
 62
     7
370
    50
100
AcDbCircle
 39
0.45
 10
87.28928452529682
 20
214.8173794632699
 30
0.0
 40
0.4
100
AcDbArc
 50
0.0
 51
90.0
1001
AUSTER_ANSICHT
1002
{
1000
Det03
1002
}
1001
AUSTER_FOLIE
1002
{
1000
AC_PLUS_KT_FELD
1002
}
  0
ARC
  5
3E8D
330
20
100
AcDbEntity
  8
10000_Front
  6
Continuous
 62
     7
370
    50
100
AcDbCircle
 39
0.45
 10
32.08926452529681
 20
213.71737946327
 30
0.0
 40
1.5
100
AcDbArc
 50
0.0
 51
90.0
1001
AUSTER_ANSICHT
1002
{
1000
Det03
1002
}
1001
AUSTER_FOLIE
1002
{
1000
AC_PLUS_KT_FELD
1002
}
  0
ARC
  5
3E8E
330
20
100
AcDbEntity
  8
10000_Front
  6
Continuous
 62
     7
370
    50
100
AcDbCircle
 39
0.45
 10
43.28926452529684
 20
213.71737946327
 30
0.0
 40
1.5
100
AcDbArc
 50
90.0
 51
180.0
1001
AUSTER_ANSICHT
1002
{
1000
Det03
1002
}
1001
AUSTER_FOLIE
1002
{
1000
AC_PLUS_KT_FELD
1002
}
  0
ARC
  5
3E8F
330
20
100
AcDbEntity
  8
10000_Front
  6
Continuous
370
    50
100
AcDbCircle
 39
0.7
 10
96.1892845252969
 20
213.71737946327
 30
0.0
 40
1.5
100
AcDbArc
 50
0.0
 51
90.0
1001
AUSTER_ANSICHT
1002
{
1000
Det03
1002
}
1001
AUSTER_FOLIE
1002
{
1000
AC_PLUS_KT_FELD
1002
}
  0
ARC
  5
3E90
330
20
100
AcDbEntity
  8
10000_Front
  6
Continuous
370
    50
100
AcDbCircle
 39
0.7
 10
92.6892845252969
 20
210.21737946327
 30
0.0
 40
2.5
100
AcDbArc
 50
339.0061
 51
0.0
1001
AUSTER_ANSICHT
1002
{
1000
Det03
1002
}
1001
AUSTER_FOLIE
1002
{
1000
AC_PLUS_KT_FELD
1002
}
  0
ARC
  5
3E91
330
20
100
AcDbEntity
  8
10000_Front
  6
Continuous
370
    50
100
AcDbCircle
 39
0.7
 10
96.1892845252969
 20
191.21737946327
 30
0.0
 40
1.5
100
AcDbArc
 50
270.0
 51
0.0
1001
AUSTER_ANSICHT
1002
{
1000
Det03
1002
}
1001
AUSTER_FOLIE
1002
{
1000
AC_PLUS_KT_FELD
1002
}
  0
ARC
  5
3E92
330
20
100
AcDbEntity
  8
10000_Front
  6
Continuous
370
    50
100
AcDbCircle
 39
0.7
 10
29.18926452529695
 20
191.21737946327
 30
0.0
 40
1.5
100
AcDbArc
 50
180.0
 51
270.0
1001
AUSTER_ANSICHT
1002
{
1000
Det03
1002
}
1001
AUSTER_FOLIE
1002
{
1000
AC_PLUS_KT_FELD
1002
}
  0
ARC
  5
3E93
330
20
100
AcDbEntity
  8
10000_Front
  6
Continuous
370
    50
100
AcDbCircle
 39
0.7
 10
96.1892845252969
 20
188.2173794632699
 30
0.0
 40
1.5
100
AcDbArc
 50
0.0
 51
90.0
1001
AUSTER_ANSICHT
1002
{
1000
Det03
1002
}
1001
AUSTER_FOLIE
1002
{
1000
AC_PLUS_KT_FELD
1002
}
  0
ARC
  5
3E94
330
20
100
AcDbEntity
  8
10000_Front
  6
Continuous
370
    50
100
AcDbCircle
 39
0.7
 10
29.18926452529695
 20
188.2173794632699
 30
0.0
 40
1.5
100
AcDbArc
 50
90.0
 51
180.0
1001
AUSTER_ANSICHT
1002
{
1000
Det03
1002
}
1001
AUSTER_FOLIE
1002
{
1000
AC_PLUS_KT_FELD
1002
}
  0
ARC
  5
3E95
330
20
100
AcDbEntity
  8
10000_Front
  6
Continuous
370
    50
100
AcDbCircle
 39
0.7
 10
96.1892845252969
 20
205.6173794632699
 30
0.0
 40
1.5
100
AcDbArc
 50
0.0
 51
90.0
1001
AUSTER_ANSICHT
1002
{
1000
Det03
1002
}
1001
AUSTER_FOLIE
1002
{
1000
AC_PLUS_KT_FELD
1002
}
  0
ARC
  5
3E96
330
20
100
AcDbEntity
  8
10000_Front
  6
Continuous
 62
     7
370
    50
100
AcDbCircle
 39
0.45
 10
73.93928452529689
 20
185.46737946327
 30
0.0
 40
2.850490999999998
100
AcDbArc
 50
347.7603999999987
 51
12.23960000000126
1001
AUSTER_ANSICHT
1002
{
1000
Det03
1002
}
1001
AUSTER_FOLIE
1002
{
1000
AC_PLUS_KT_FELD
1002
}
  0
ARC
  5
3E97
330
20
100
AcDbEntity
  8
10000_Front
  6
Continuous
 62
     7
370
    50
100
AcDbCircle
 39
0.45
 10
73.93928452529689
 20
185.46737946327
 30
0.0
 40
1.85
100
AcDbArc
 50
253.8365999999997
 51
286.1634000000003
1001
AUSTER_ANSICHT
1002
{
1000
Det03
1002
}
1001
AUSTER_FOLIE
1002
{
1000
AC_PLUS_KT_FELD
1002
}
  0
ARC
  5
3E98
330
20
100
AcDbEntity
  8
10000_Front
  6
Continuous
 62
     7
370
    50
100
AcDbCircle
 39
0.45
 10
73.93928452529689
 20
185.46737946327
 30
0.0
 40
1.85
100
AcDbArc
 50
73.83655000000056
 51
106.1634000000003
1001
AUSTER_ANSICHT
1002
{
1000
Det03
1002
}
1001
AUSTER_FOLIE
1002
{
1000
AC_PLUS_KT_FELD
1002
}
  0
ARC
  5
3E99
330
20
100
AcDbEntity
  8
10000_Front
  6
Continuous
 62
     7
370
    50
100
AcDbCircle
 39
0.45
 10
73.93928452529689
 20
185.46737946327
 30
0.0
 40
2.850490999999998
100
AcDbArc
 50
167.7603999999987
 51
192.2396000000013
1001
AUSTER_ANSICHT
1002
{
1000
Det03
1002
}
1001
AUSTER_FOLIE
1002
{
1000
AC_PLUS_KT_FELD
1002
}
  0
ARC
  5
3E9A
330
20
100
AcDbEntity
  8
10000_Front
  6
Continuous
 62
     7
370
    50
100
AcDbCircle
 39
0.45
 10
37.68926452529696
 20
210.9673794632699
 30
0.0
 40
2.850490999999998
100
AcDbArc
 50
167.7603999999987
 51
185.0314999999986
1001
AUSTER_ANSICHT
1002
{
1000
Det03
1002
}
1001
AUSTER_FOLIE
1002
{
1000
AC_PLUS_KT_FELD
1002
}
  0
ARC
  5
3E9B
330
20
100
AcDbEntity
  8
10000_Front
  6
Continuous
 62
     7
370
    50
100
AcDbCircle
 39
0.45
 10
37.68926452529696
 20
210.9673794632699
 30
0.0
 40
3.1
100
AcDbArc
 50
355.3744
 51
184.6255999999999
1001
AUSTER_ANSICHT
1002
{
1000
Det03
1002
}
1001
AUSTER_FOLIE
1002
{
1000
AC_PLUS_KT_FELD
1002
}
  0
ARC
  5
3E9C
330
20
100
AcDbEntity
  8
10000_Front
  6
Continuous
 62
     7
370
    50
100
AcDbCircle
 39
0.45
 10
37.68926452529696
 20
210.9673794632699
 30
0.0
 40
2.850490999999998
100
AcDbArc
 50
354.9685000000014
 51
12.23960000000126
1001
AUSTER_ANSICHT
1002
{
1000
Det03
1002
}
1001
AUSTER_FOLIE
1002
{
1000
AC_PLUS_KT_FELD
1002
}
  0
ARC
  5
3E9D
330
20
100
AcDbEntity
  8
10000_Front
  6
Continuous
 62
     7
370
    50
100
AcDbCircle
 39
0.45
 10
37.68926452529696
 20
210.9673794632699
 30
0.0
 40
1.85
100
AcDbArc
 50
73.83655000000056
 51
106.1634000000003
1001
AUSTER_ANSICHT
1002
{
1000
Det03
1002
}
1001
AUSTER_FOLIE
1002
{
1000
AC_PLUS_KT_FELD
1002
}
  0
ARC
  5
3E9E
330
20
100
AcDbEntity
  8
10000_Front
  6
Continuous
 62
     7
370
    50
100
AcDbCircle
 39
0.45
 10
73.93918452529693
 20
209.3124794632699
 30
0.0
 40
3.1
100
AcDbArc
 50
314.9184000000009
 51
225.081599999999
1001
AUSTER_ANSICHT
1002
{
1000
Det03
1002
}
1001
AUSTER_FOLIE
1002
{
1000
AC_PLUS_KT_FELD
1002
}
  0
ARC
  5
3E9F
330
20
100
AcDbEntity
  8
10000_Front
  6
Continuous
 62
     7
370
    50
100
AcDbCircle
 39
0.45
 10
73.93918452529693
 20
209.3124794632699
 30
0.0
 40
2.850490999999998
100
AcDbArc
 50
347.7603999999987
 51
12.23960000000126
1001
AUSTER_ANSICHT
1002
{
1000
Det03
1002
}
1001
AUSTER_FOLIE
1002
{
1000
AC_PLUS_KT_FELD
1002
}
  0
ARC
  5
3EA0
330
20
100
AcDbEntity
  8
10000_Front
  6
Continuous
 62
     7
370
    50
100
AcDbCircle
 39
0.45
 10
73.93918452529693
 20
209.3124794632699
 30
0.0
 40
1.85
100
AcDbArc
 50
253.8365999999997
 51
286.1634000000003
1001
AUSTER_ANSICHT
1002
{
1000
Det03
1002
}
1001
AUSTER_FOLIE
1002
{
1000
AC_PLUS_KT_FELD
1002
}
  0
ARC
  5
3EA1
330
20
100
AcDbEntity
  8
10000_Front
  6
Continuous
 62
     7
370
    50
100
AcDbCircle
 39
0.45
 10
73.93918452529693
 20
209.3124794632699
 30
0.0
 40
1.85
100
AcDbArc
 50
73.83655000000056
 51
106.1634000000003
1001
AUSTER_ANSICHT
1002
{
1000
Det03
1002
}
1001
AUSTER_FOLIE
1002
{
1000
AC_PLUS_KT_FELD
1002
}
  0
ARC
  5
3EA2
330
20
100
AcDbEntity
  8
10000_Front
  6
Continuous
 62
     7
370
    50
100
AcDbCircle
 39
0.45
 10
73.93918452529693
 20
209.3124794632699
 30
0.0
 40
2.850490999999998
100
AcDbArc
 50
167.7603999999987
 51
192.2396000000013
1001
AUSTER_ANSICHT
1002
{
1000
Det03
1002
}
1001
AUSTER_FOLIE
1002
{
1000
AC_PLUS_KT_FELD
1002
}
  0
ARC
  5
3EA3
330
20
100
AcDbEntity
  8
10000_Front
  6
Continuous
 62
     7
370
    50
100
AcDbCircle
 39
0.45
 10
51.43903452529684
 20
209.3124794632699
 30
0.0
 40
1.85
100
AcDbArc
 50
253.8365999999997
 51
286.1634000000003
1001
AUSTER_ANSICHT
1002
{
1000
Det03
1002
}
1001
AUSTER_FOLIE
1002
{
1000
AC_PLUS_KT_FELD
1002
}
  0
ARC
  5
3EA4
330
20
100
AcDbEntity
  8
10000_Front
  6
Continuous
 62
     7
370
    50
100
AcDbCircle
 39
0.45
 10
51.43903452529684
 20
209.3124794632699
 30
0.0
 40
1.85
100
AcDbArc
 50
73.83655000000056
 51
106.1634000000003
1001
AUSTER_ANSICHT
1002
{
1000
Det03
1002
}
1001
AUSTER_FOLIE
1002
{
1000
AC_PLUS_KT_FELD
1002
}
  0
CIRCLE
  5
3EA5
330
20
100
AcDbEntity
  8
10000_Front
  6
Continuous
 62
     7
370
    50
100
AcDbCircle
 39
0.45
 10
85.1892845252969
 20
197.4173794632698
 30
0.0
 40
3.0
1001
AUSTER_ANSICHT
1002
{
1000
Det03
1002
}
1001
AUSTER_FOLIE
1002
{
1000
AC_PLUS_KT_FELD
1002
}
  0
CIRCLE
  5
3EA6
330
20
100
AcDbEntity
  8
10000_Front
  6
Continuous
 62
     7
370
    50
100
AcDbCircle
 39
0.45
 10
40.18926452529695
 20
197.4173794632698
 30
0.0
 40
3.0
1001
AUSTER_ANSICHT
1002
{
1000
Det03
1002
}
1001
AUSTER_FOLIE
1002
{
1000
AC_PLUS_KT_FELD
1002
}
  0
CIRCLE
  5
3EA7
330
20
100
AcDbEntity
  8
10000_Front
  6
Continuous
 62
     7
370
    50
100
AcDbCircle
 39
0.45
 10
62.68928452529689
 20
197.4173794632698
 30
0.0
 40
3.0
1001
AUSTER_ANSICHT
1002
{
1000
Det03
1002
}
1001
AUSTER_FOLIE
1002
{
1000
AC_PLUS_KT_FELD
1002
}
  0
ARC
  5
3EA8
330
20
100
AcDbEntity
  8
10000_Front
  6
Continuous
370
    50
100
AcDbCircle
 39
0.7
 10
29.18926452529695
 20
205.6173794632699
 30
0.0
 40
1.5
100
AcDbArc
 50
90.0
 51
180.0
1001
AUSTER_ANSICHT
1002
{
1000
Det03
1002
}
1001
AUSTER_FOLIE
1002
{
1000
AC_PLUS_KT_FELD
1002
}
  0
ARC
  5
3EA9
330
20
100
AcDbEntity
  8
10000_Front
  6
Continuous
370
    50
100
AcDbCircle
 39
0.7
 10
29.18926452529695
 20
213.71737946327
 30
0.0
 40
1.5
100
AcDbArc
 50
90.0
 51
180.0
1001
AUSTER_ANSICHT
1002
{
1000
Det03
1002
}
1001
AUSTER_FOLIE
1002
{
1000
AC_PLUS_KT_FELD
1002
}
  0
ARC
  5
3EAA
330
20
100
AcDbEntity
  8
10000_Front
  6
Continuous
370
    50
100
AcDbCircle
 39
0.7
 10
92.6892845252969
 20
210.21737946327
 30
0.0
 40
2.5
100
AcDbArc
 50
0.0
 51
168.463
1001
AUSTER_ANSICHT
1002
{
1000
Det03
1002
}
1001
AUSTER_FOLIE
1002
{
1000
AC_PLUS_KT_FELD
1002
}
  0
ARC
  5
3EAB
330
20
100
AcDbEntity
  8
10000_Front
  6
Continuous
 62
     7
370
    50
100
AcDbCircle
 39
0.45
 10
51.43903452529684
 20
209.3124794632699
 30
0.0
 40
2.850490999999998
100
AcDbArc
 50
347.7603999999987
 51
12.23960000000126
1001
AUSTER_ANSICHT
1002
{
1000
Det03
1002
}
1001
AUSTER_FOLIE
1002
{
1000
AC_PLUS_KT_FELD
1002
}
  0
ARC
  5
3EAC
330
20
100
AcDbEntity
  8
10000_Front
  6
Continuous
 62
     7
370
    50
100
AcDbCircle
 39
0.45
 10
51.43903452529684
 20
209.3124794632699
 30
0.0
 40
2.850490999999998
100
AcDbArc
 50
167.7603999999987
 51
192.2396000000013
1001
AUSTER_ANSICHT
1002
{
1000
Det03
1002
}
1001
AUSTER_FOLIE
1002
{
1000
AC_PLUS_KT_FELD
1002
}
  0
ARC
  5
3EAD
330
20
100
AcDbEntity
  8
10000_Front
  6
Continuous
 62
     7
370
    50
100
AcDbCircle
 39
0.45
 10
51.43903452529684
 20
209.3124794632699
 30
0.0
 40
3.1
100
AcDbArc
 50
314.9184000000009
 51
225.081599999999
1001
AUSTER_ANSICHT
1002
{
1000
Det03
1002
}
1001
AUSTER_FOLIE
1002
{
1000
AC_PLUS_KT_FELD
1002
}
  0
LINE
  5
3EAE
330
20
100
AcDbEntity
  8
10000_Front
  6
Continuous
370
    50
100
AcDbLine
 39
0.7
 10
45.48926452529689
 20
215.2173794632699
 30
0.0
 11
62.68928452529689
 21
215.2173794632699
 31
0.0
1001
AUSTER_ANSICHT
1002
{
1000
Det03
1002
}
1001
AUSTER_FOLIE
1002
{
1000
AC_PLUS_KT_FELD
1002
}
  0
LINE
  5
3EAF
330
20
100
AcDbEntity
  8
10000_Front
  6
Continuous
 62
     7
370
    50
100
AcDbLine
 39
0.45
 10
79.88928452529695
 20
214.8173794632699
 30
0.0
 11
79.88928452529695
 21
210.7178794632698
 31
0.0
1001
AUSTER_ANSICHT
1002
{
1000
Det03
1002
}
1001
AUSTER_FOLIE
1002
{
1000
AC_PLUS_KT_FELD
1002
}
  0
LINE
  5
3EB0
330
20
100
AcDbEntity
  8
10000_Front
  6
Continuous
 62
     7
370
    50
100
AcDbLine
 39
0.45
 10
79.88928452529695
 20
215.2173794632699
 30
0.0
 11
79.88928452529695
 21
214.8173794632699
 31
0.0
1001
AUSTER_ANSICHT
1002
{
1000
Det03
1002
}
1001
AUSTER_FOLIE
1002
{
1000
AC_PLUS_KT_FELD
1002
}
  0
LINE
  5
3EB1
330
20
100
AcDbEntity
  8
10000_Front
  6
Continuous
370
    50
100
AcDbLine
 39
0.7
 10
78.78928452529681
 20
210.7173794632699
 30
0.0
 11
94.5392845252968
 21
210.7173794632699
 31
0.0
1001
AUSTER_ANSICHT
1002
{
1000
Det03
1002
}
1001
AUSTER_FOLIE
1002
{
1000
AC_PLUS_KT_FELD
1002
}
  0
LINE
  5
3EB2
330
20
100
AcDbEntity
  8
10000_Front
  6
Continuous
370
    50
100
AcDbLine
 39
0.7
 10
56.28928452529681
 20
210.7173794632699
 30
0.0
 11
69.08928452529687
 21
210.7173794632699
 31
0.0
1001
AUSTER_ANSICHT
1002
{
1000
Det03
1002
}
1001
AUSTER_FOLIE
1002
{
1000
AC_PLUS_KT_FELD
1002
}
  0
LINE
  5
3EB3
330
20
100
AcDbEntity
  8
10000_Front
  6
Continuous
370
    50
100
AcDbLine
 39
0.7
 10
47.03926452529684
 20
207.1173794632699
 30
0.0
 11
46.98911452529682
 21
207.1173794632699
 31
0.0
1001
AUSTER_ANSICHT
1002
{
1000
Det03
1002
}
1001
AUSTER_FOLIE
1002
{
1000
AC_PLUS_KT_FELD
1002
}
  0
LINE
  5
3EB4
330
20
100
AcDbEntity
  8
10000_Front
  6
Continuous
370
    50
100
AcDbLine
 39
0.7
 10
55.88928452529693
 20
207.1173794632699
 30
0.0
 11
55.83928452529686
 21
207.1173794632699
 31
0.0
1001
AUSTER_ANSICHT
1002
{
1000
Det03
1002
}
1001
AUSTER_FOLIE
1002
{
1000
AC_PLUS_KT_FELD
1002
}
  0
LINE
  5
3EB5
330
20
100
AcDbEntity
  8
10000_Front
  6
Continuous
370
    50
100
AcDbLine
 39
0.7
 10
69.53928452529679
 20
207.1173794632699
 30
0.0
 11
69.4890845252969
 21
207.1173794632699
 31
0.0
1001
AUSTER_ANSICHT
1002
{
1000
Det03
1002
}
1001
AUSTER_FOLIE
1002
{
1000
AC_PLUS_KT_FELD
1002
}
  0
LINE
  5
3EB6
330
20
100
AcDbEntity
  8
10000_Front
  6
Continuous
370
    50
100
AcDbLine
 39
0.7
 10
78.38928452529692
 20
207.1173794632699
 30
0.0
 11
78.33928452529687
 21
207.1173794632699
 31
0.0
1001
AUSTER_ANSICHT
1002
{
1000
Det03
1002
}
1001
AUSTER_FOLIE
1002
{
1000
AC_PLUS_KT_FELD
1002
}
  0
LINE
  5
3EB7
330
20
100
AcDbEntity
  8
10000_Front
  6
Continuous
370
    50
100
AcDbLine
 39
0.7
 10
32.08926452529681
 20
215.2173794632699
 30
0.0
 11
43.28926452529684
 21
215.2173794632699
 31
0.0
1001
AUSTER_ANSICHT
1002
{
1000
Det03
1002
}
1001
AUSTER_FOLIE
1002
{
1000
AC_PLUS_KT_FELD
1002
}
  0
LINE
  5
3EB8
330
20
100
AcDbEntity
  8
10000_Front
  6
Continuous
 62
     7
370
    50
100
AcDbLine
 39
0.45
 10
87.6892845252969
 20
210.7171794632699
 30
0.0
 11
87.6892845252969
 21
214.8173794632699
 31
0.0
1001
AUSTER_ANSICHT
1002
{
1000
Det03
1002
}
1001
AUSTER_FOLIE
1002
{
1000
AC_PLUS_KT_FELD
1002
}
  0
LINE
  5
3EB9
330
20
100
AcDbEntity
  8
10000_Front
  6
Continuous
370
    50
100
AcDbLine
 39
0.7
 10
29.18926452529695
 20
215.2173794632699
 30
0.0
 11
32.08926452529681
 21
215.2173794632699
 31
0.0
1001
AUSTER_ANSICHT
1002
{
1000
Det03
1002
}
1001
AUSTER_FOLIE
1002
{
1000
AC_PLUS_KT_FELD
1002
}
  0
LINE
  5
3EBA
330
20
100
AcDbEntity
  8
10000_Front
  6
Continuous
 62
     7
370
    50
100
AcDbLine
 39
0.45
 10
33.58926452529682
 20
210.7177794632699
 30
0.0
 11
33.58926452529682
 21
213.71737946327
 31
0.0
1001
AUSTER_ANSICHT
1002
{
1000
Det03
1002
}
1001
AUSTER_FOLIE
1002
{
1000
AC_PLUS_KT_FELD
1002
}
  0
LINE
  5
3EBB
330
20
100
AcDbEntity
  8
10000_Front
  6
Continuous
370
    50
100
AcDbLine
 39
0.7
 10
43.28926452529684
 20
215.2173794632699
 30
0.0
 11
45.33881452529681
 21
215.2173794632699
 31
0.0
1001
AUSTER_ANSICHT
1002
{
1000
Det03
1002
}
1001
AUSTER_FOLIE
1002
{
1000
AC_PLUS_KT_FELD
1002
}
  0
LINE
  5
3EBC
330
20
100
AcDbEntity
  8
10000_Front
  6
Continuous
370
    50
100
AcDbLine
 39
0.7
 10
80.03928452529681
 20
215.2173794632699
 30
0.0
 11
87.28928452529682
 21
215.2173794632699
 31
0.0
1001
AUSTER_ANSICHT
1002
{
1000
Det03
1002
}
1001
AUSTER_FOLIE
1002
{
1000
AC_PLUS_KT_FELD
1002
}
  0
LINE
  5
3EBD
330
20
100
AcDbEntity
  8
10000_Front
  6
Continuous
 62
     7
370
    50
100
AcDbLine
 39
0.45
 10
45.33926452529681
 20
210.7173794632699
 30
0.0
 11
45.33881452529681
 21
215.2173794632699
 31
0.0
1001
AUSTER_ANSICHT
1002
{
1000
Det03
1002
}
1001
AUSTER_FOLIE
1002
{
1000
AC_PLUS_KT_FELD
1002
}
  0
LINE
  5
3EBE
330
20
100
AcDbEntity
  8
10000_Front
  6
Continuous
 62
     7
370
    50
100
AcDbLine
 39
0.45
 10
87.6892845252969
 20
215.2173794632699
 30
0.0
 11
87.6892845252969
 21
215.1001794632699
 31
0.0
1001
AUSTER_ANSICHT
1002
{
1000
Det03
1002
}
1001
AUSTER_FOLIE
1002
{
1000
AC_PLUS_KT_FELD
1002
}
  0
LINE
  5
3EBF
330
20
100
AcDbEntity
  8
10000_Front
  6
Continuous
370
    50
100
AcDbLine
 39
0.7
 10
45.48926452529689
 20
215.2173794632699
 30
0.0
 11
45.33881452529681
 21
215.2173794632699
 31
0.0
1001
AUSTER_ANSICHT
1002
{
1000
Det03
1002
}
1001
AUSTER_FOLIE
1002
{
1000
AC_PLUS_KT_FELD
1002
}
  0
LINE
  5
3EC0
330
20
100
AcDbEntity
  8
10000_Front
  6
Continuous
370
    50
100
AcDbLine
 39
0.7
 10
87.6892845252969
 20
215.2173794632699
 30
0.0
 11
96.1892845252969
 21
215.2173794632699
 31
0.0
1001
AUSTER_ANSICHT
1002
{
1000
Det03
1002
}
1001
AUSTER_FOLIE
1002
{
1000
AC_PLUS_KT_FELD
1002
}
  0
LINE
  5
3EC1
330
20
100
AcDbEntity
  8
10000_Front
  6
Continuous
370
    50
100
AcDbLine
 39
0.7
 10
97.6892845252969
 20
213.71737946327
 30
0.0
 11
97.6892845252969
 21
191.21737946327
 31
0.0
1001
AUSTER_ANSICHT
1002
{
1000
Det03
1002
}
1001
AUSTER_FOLIE
1002
{
1000
AC_PLUS_KT_FELD
1002
}
  0
LINE
  5
3EC2
330
20
100
AcDbEntity
  8
10000_Front
  6
Continuous
370
    50
100
AcDbLine
 39
0.7
 10
27.68926452529695
 20
213.71737946327
 30
0.0
 11
27.68926452529695
 21
191.21737946327
 31
0.0
1001
AUSTER_ANSICHT
1002
{
1000
Det03
1002
}
1001
AUSTER_FOLIE
1002
{
1000
AC_PLUS_KT_FELD
1002
}
  0
LINE
  5
3EC3
330
20
100
AcDbEntity
  8
10000_Front
  6
Continuous
 62
     7
370
    50
100
AcDbLine
 39
0.45
 10
73.4242845252968
 20
184.6827794632697
 30
0.0
 11
73.4242845252968
 21
184.8630794632699
 31
0.0
1001
AUSTER_ANSICHT
1002
{
1000
Det03
1002
}
1001
AUSTER_FOLIE
1002
{
1000
AC_PLUS_KT_FELD
1002
}
  0
LINE
  5
3EC4
330
20
100
AcDbEntity
  8
10000_Front
  6
Continuous
 62
     7
370
    50
100
AcDbLine
 39
0.45
 10
73.4242845252968
 20
186.2519794632699
 30
0.0
 11
73.4242845252968
 21
186.07167946327
 31
0.0
1001
AUSTER_ANSICHT
1002
{
1000
Det03
1002
}
1001
AUSTER_FOLIE
1002
{
1000
AC_PLUS_KT_FELD
1002
}
  0
LINE
  5
3EC5
330
20
100
AcDbEntity
  8
10000_Front
  6
Continuous
 62
     7
370
    50
100
AcDbLine
 39
0.45
 10
74.45428452529688
 20
184.6827794632697
 30
0.0
 11
74.45428452529688
 21
184.8630794632699
 31
0.0
1001
AUSTER_ANSICHT
1002
{
1000
Det03
1002
}
1001
AUSTER_FOLIE
1002
{
1000
AC_PLUS_KT_FELD
1002
}
  0
LINE
  5
3EC6
330
20
100
AcDbEntity
  8
10000_Front
  6
Continuous
 62
     7
370
    50
100
AcDbLine
 39
0.45
 10
74.45428452529688
 20
186.2519794632699
 30
0.0
 11
74.45428452529688
 21
186.07167946327
 31
0.0
1001
AUSTER_ANSICHT
1002
{
1000
Det03
1002
}
1001
AUSTER_FOLIE
1002
{
1000
AC_PLUS_KT_FELD
1002
}
  0
LINE
  5
3EC7
330
20
100
AcDbEntity
  8
10000_Front
  6
Continuous
 62
     7
370
    50
100
AcDbLine
 39
0.45
 10
73.4242845252968
 20
184.6827794632697
 30
0.0
 11
73.4242845252968
 21
183.6904794632698
 31
0.0
1001
AUSTER_ANSICHT
1002
{
1000
Det03
1002
}
1001
AUSTER_FOLIE
1002
{
1000
AC_PLUS_KT_FELD
1002
}
  0
LINE
  5
3EC8
330
20
100
AcDbEntity
  8
10000_Front
  6
Continuous
 62
     7
370
    50
100
AcDbLine
 39
0.45
 10
74.45428452529688
 20
183.6904794632698
 30
0.0
 11
74.45428452529688
 21
184.6827794632697
 31
0.0
1001
AUSTER_ANSICHT
1002
{
1000
Det03
1002
}
1001
AUSTER_FOLIE
1002
{
1000
AC_PLUS_KT_FELD
1002
}
  0
LINE
  5
3EC9
330
20
100
AcDbEntity
  8
10000_Front
  6
Continuous
 62
     7
370
    50
100
AcDbLine
 39
0.45
 10
74.45428452529688
 20
186.2519794632699
 30
0.0
 11
74.45428452529688
 21
187.2442794632699
 31
0.0
1001
AUSTER_ANSICHT
1002
{
1000
Det03
1002
}
1001
AUSTER_FOLIE
1002
{
1000
AC_PLUS_KT_FELD
1002
}
  0
LINE
  5
3ECA
330
20
100
AcDbEntity
  8
10000_Front
  6
Continuous
 62
     7
370
    50
100
AcDbLine
 39
0.45
 10
73.4242845252968
 20
187.2442794632699
 30
0.0
 11
73.4242845252968
 21
186.2519794632699
 31
0.0
1001
AUSTER_ANSICHT
1002
{
1000
Det03
1002
}
1001
AUSTER_FOLIE
1002
{
1000
AC_PLUS_KT_FELD
1002
}
  0
LINE
  5
3ECB
330
20
100
AcDbEntity
  8
10000_Front
  6
Continuous
 62
     7
370
    50
100
AcDbLine
 39
0.45
 10
73.4242845252968
 20
186.07167946327
 30
0.0
 11
71.15358452529688
 21
186.07167946327
 31
0.0
1001
AUSTER_ANSICHT
1002
{
1000
Det03
1002
}
1001
AUSTER_FOLIE
1002
{
1000
AC_PLUS_KT_FELD
1002
}
  0
LINE
  5
3ECC
330
20
100
AcDbEntity
  8
10000_Front
  6
Continuous
 62
     7
370
    50
100
AcDbLine
 39
0.45
 10
76.72498452529679
 20
186.07167946327
 30
0.0
 11
74.45428452529688
 21
186.07167946327
 31
0.0
1001
AUSTER_ANSICHT
1002
{
1000
Det03
1002
}
1001
AUSTER_FOLIE
1002
{
1000
AC_PLUS_KT_FELD
1002
}
  0
LINE
  5
3ECD
330
20
100
AcDbEntity
  8
10000_Front
  6
Continuous
 62
     7
370
    50
100
AcDbLine
 39
0.45
 10
74.45428452529688
 20
184.8630794632699
 30
0.0
 11
76.72498452529679
 21
184.8630794632699
 31
0.0
1001
AUSTER_ANSICHT
1002
{
1000
Det03
1002
}
1001
AUSTER_FOLIE
1002
{
1000
AC_PLUS_KT_FELD
1002
}
  0
LINE
  5
3ECE
330
20
100
AcDbEntity
  8
10000_Front
  6
Continuous
 62
     7
370
    50
100
AcDbLine
 39
0.45
 10
71.15358452529688
 20
184.8630794632699
 30
0.0
 11
73.4242845252968
 21
184.8630794632699
 31
0.0
1001
AUSTER_ANSICHT
1002
{
1000
Det03
1002
}
1001
AUSTER_FOLIE
1002
{
1000
AC_PLUS_KT_FELD
1002
}
  0
LINE
  5
3ECF
330
20
100
AcDbEntity
  8
10000_Front
  6
Continuous
 62
     7
370
    50
100
AcDbLine
 39
0.45
 10
37.17426452529685
 20
211.7519794632699
 30
0.0
 11
37.17426452529685
 21
211.5716794632699
 31
0.0
1001
AUSTER_ANSICHT
1002
{
1000
Det03
1002
}
1001
AUSTER_FOLIE
1002
{
1000
AC_PLUS_KT_FELD
1002
}
  0
LINE
  5
3ED0
330
20
100
AcDbEntity
  8
10000_Front
  6
Continuous
 62
     7
370
    50
100
AcDbLine
 39
0.45
 10
38.20426452529682
 20
211.7519794632699
 30
0.0
 11
38.20426452529682
 21
211.5716794632699
 31
0.0
1001
AUSTER_ANSICHT
1002
{
1000
Det03
1002
}
1001
AUSTER_FOLIE
1002
{
1000
AC_PLUS_KT_FELD
1002
}
  0
LINE
  5
3ED1
330
20
100
AcDbEntity
  8
10000_Front
  6
Continuous
 62
     7
370
    50
100
AcDbLine
 39
0.45
 10
38.20426452529682
 20
211.7519794632699
 30
0.0
 11
38.20426452529682
 21
212.7442794632699
 31
0.0
1001
AUSTER_ANSICHT
1002
{
1000
Det03
1002
}
1001
AUSTER_FOLIE
1002
{
1000
AC_PLUS_KT_FELD
1002
}
  0
LINE
  5
3ED2
330
20
100
AcDbEntity
  8
10000_Front
  6
Continuous
 62
     7
370
    50
100
AcDbLine
 39
0.45
 10
37.17426452529685
 20
212.7442794632699
 30
0.0
 11
37.17426452529685
 21
211.7519794632699
 31
0.0
1001
AUSTER_ANSICHT
1002
{
1000
Det03
1002
}
1001
AUSTER_FOLIE
1002
{
1000
AC_PLUS_KT_FELD
1002
}
  0
LINE
  5
3ED3
330
20
100
AcDbEntity
  8
10000_Front
  6
Continuous
 62
     7
370
    50
100
AcDbLine
 39
0.45
 10
73.42418452529681
 20
208.5279794632699
 30
0.0
 11
73.42418452529681
 21
208.7081794632699
 31
0.0
1001
AUSTER_ANSICHT
1002
{
1000
Det03
1002
}
1001
AUSTER_FOLIE
1002
{
1000
AC_PLUS_KT_FELD
1002
}
  0
LINE
  5
3ED4
330
20
100
AcDbEntity
  8
10000_Front
  6
Continuous
 62
     7
370
    50
100
AcDbLine
 39
0.45
 10
73.42418452529681
 20
210.0970794632698
 30
0.0
 11
73.42418452529681
 21
209.91677946327
 31
0.0
1001
AUSTER_ANSICHT
1002
{
1000
Det03
1002
}
1001
AUSTER_FOLIE
1002
{
1000
AC_PLUS_KT_FELD
1002
}
  0
LINE
  5
3ED5
330
20
100
AcDbEntity
  8
10000_Front
  6
Continuous
 62
     7
370
    50
100
AcDbLine
 39
0.45
 10
74.45418452529691
 20
208.5279794632699
 30
0.0
 11
74.45418452529691
 21
208.7081794632699
 31
0.0
1001
AUSTER_ANSICHT
1002
{
1000
Det03
1002
}
1001
AUSTER_FOLIE
1002
{
1000
AC_PLUS_KT_FELD
1002
}
  0
LINE
  5
3ED6
330
20
100
AcDbEntity
  8
10000_Front
  6
Continuous
 62
     7
370
    50
100
AcDbLine
 39
0.45
 10
74.45418452529691
 20
210.0970794632698
 30
0.0
 11
74.45418452529691
 21
209.91677946327
 31
0.0
1001
AUSTER_ANSICHT
1002
{
1000
Det03
1002
}
1001
AUSTER_FOLIE
1002
{
1000
AC_PLUS_KT_FELD
1002
}
  0
LINE
  5
3ED7
330
20
100
AcDbEntity
  8
10000_Front
  6
Continuous
 62
     7
370
    50
100
AcDbLine
 39
0.45
 10
73.42418452529681
 20
208.5279794632699
 30
0.0
 11
73.42418452529681
 21
207.5356794632699
 31
0.0
1001
AUSTER_ANSICHT
1002
{
1000
Det03
1002
}
1001
AUSTER_FOLIE
1002
{
1000
AC_PLUS_KT_FELD
1002
}
  0
LINE
  5
3ED8
330
20
100
AcDbEntity
  8
10000_Front
  6
Continuous
 62
     7
370
    50
100
AcDbLine
 39
0.45
 10
74.45418452529691
 20
207.5356794632699
 30
0.0
 11
74.45418452529691
 21
208.5279794632699
 31
0.0
1001
AUSTER_ANSICHT
1002
{
1000
Det03
1002
}
1001
AUSTER_FOLIE
1002
{
1000
AC_PLUS_KT_FELD
1002
}
  0
LINE
  5
3ED9
330
20
100
AcDbEntity
  8
10000_Front
  6
Continuous
 62
     7
370
    50
100
AcDbLine
 39
0.45
 10
74.45418452529691
 20
210.0970794632698
 30
0.0
 11
74.45418452529691
 21
211.0893794632699
 31
0.0
1001
AUSTER_ANSICHT
1002
{
1000
Det03
1002
}
1001
AUSTER_FOLIE
1002
{
1000
AC_PLUS_KT_FELD
1002
}
  0
LINE
  5
3EDA
330
20
100
AcDbEntity
  8
10000_Front
  6
Continuous
 62
     7
370
    50
100
AcDbLine
 39
0.45
 10
73.42418452529681
 20
211.0893794632699
 30
0.0
 11
73.42418452529681
 21
210.0970794632698
 31
0.0
1001
AUSTER_ANSICHT
1002
{
1000
Det03
1002
}
1001
AUSTER_FOLIE
1002
{
1000
AC_PLUS_KT_FELD
1002
}
  0
LINE
  5
3EDB
330
20
100
AcDbEntity
  8
10000_Front
  6
Continuous
 62
     7
370
    50
100
AcDbLine
 39
0.45
 10
73.42418452529681
 20
209.91677946327
 30
0.0
 11
71.15348452529691
 21
209.91677946327
 31
0.0
1001
AUSTER_ANSICHT
1002
{
1000
Det03
1002
}
1001
AUSTER_FOLIE
1002
{
1000
AC_PLUS_KT_FELD
1002
}
  0
LINE
  5
3EDC
330
20
100
AcDbEntity
  8
10000_Front
  6
Continuous
 62
     7
370
    50
100
AcDbLine
 39
0.45
 10
76.72488452529683
 20
209.91677946327
 30
0.0
 11
74.45418452529691
 21
209.91677946327
 31
0.0
1001
AUSTER_ANSICHT
1002
{
1000
Det03
1002
}
1001
AUSTER_FOLIE
1002
{
1000
AC_PLUS_KT_FELD
1002
}
  0
LINE
  5
3EDD
330
20
100
AcDbEntity
  8
10000_Front
  6
Continuous
 62
     7
370
    50
100
AcDbLine
 39
0.45
 10
74.45418452529691
 20
208.7081794632699
 30
0.0
 11
76.72488452529683
 21
208.7081794632699
 31
0.0
1001
AUSTER_ANSICHT
1002
{
1000
Det03
1002
}
1001
AUSTER_FOLIE
1002
{
1000
AC_PLUS_KT_FELD
1002
}
  0
LINE
  5
3EDE
330
20
100
AcDbEntity
  8
10000_Front
  6
Continuous
 62
     7
370
    50
100
AcDbLine
 39
0.45
 10
71.15348452529691
 20
208.7081794632699
 30
0.0
 11
73.42418452529681
 21
208.7081794632699
 31
0.0
1001
AUSTER_ANSICHT
1002
{
1000
Det03
1002
}
1001
AUSTER_FOLIE
1002
{
1000
AC_PLUS_KT_FELD
1002
}
  0
LINE
  5
3EDF
330
20
100
AcDbEntity
  8
10000_Front
  6
Continuous
 62
     7
370
    50
100
AcDbLine
 39
0.45
 10
50.92404452529695
 20
208.5279794632699
 30
0.0
 11
50.92403452529686
 21
208.7081794632699
 31
0.0
1001
AUSTER_ANSICHT
1002
{
1000
Det03
1002
}
1001
AUSTER_FOLIE
1002
{
1000
AC_PLUS_KT_FELD
1002
}
  0
LINE
  5
3EE0
330
20
100
AcDbEntity
  8
10000_Front
  6
Continuous
 62
     7
370
    50
100
AcDbLine
 39
0.45
 10
50.92403452529686
 20
210.0970794632698
 30
0.0
 11
50.92403452529686
 21
209.91677946327
 31
0.0
1001
AUSTER_ANSICHT
1002
{
1000
Det03
1002
}
1001
AUSTER_FOLIE
1002
{
1000
AC_PLUS_KT_FELD
1002
}
  0
LINE
  5
3EE1
330
20
100
AcDbEntity
  8
10000_Front
  6
Continuous
 62
     7
370
    50
100
AcDbLine
 39
0.45
 10
51.95403452529696
 20
208.5279794632699
 30
0.0
 11
51.95403452529696
 21
208.7081794632699
 31
0.0
1001
AUSTER_ANSICHT
1002
{
1000
Det03
1002
}
1001
AUSTER_FOLIE
1002
{
1000
AC_PLUS_KT_FELD
1002
}
  0
LINE
  5
3EE2
330
20
100
AcDbEntity
  8
10000_Front
  6
Continuous
 62
     7
370
    50
100
AcDbLine
 39
0.45
 10
51.95403452529696
 20
210.0970794632698
 30
0.0
 11
51.95403452529696
 21
209.91677946327
 31
0.0
1001
AUSTER_ANSICHT
1002
{
1000
Det03
1002
}
1001
AUSTER_FOLIE
1002
{
1000
AC_PLUS_KT_FELD
1002
}
  0
LINE
  5
3EE3
330
20
100
AcDbEntity
  8
10000_Front
  6
Continuous
 62
     7
370
    50
100
AcDbLine
 39
0.45
 10
50.92404452529695
 20
208.5279794632699
 30
0.0
 11
50.92403452529686
 21
207.5356794632699
 31
0.0
1001
AUSTER_ANSICHT
1002
{
1000
Det03
1002
}
1001
AUSTER_FOLIE
1002
{
1000
AC_PLUS_KT_FELD
1002
}
  0
LINE
  5
3EE4
330
20
100
AcDbEntity
  8
10000_Front
  6
Continuous
 62
     7
370
    50
100
AcDbLine
 39
0.45
 10
51.95403452529696
 20
207.5356794632699
 30
0.0
 11
51.95403452529696
 21
208.5279794632699
 31
0.0
1001
AUSTER_ANSICHT
1002
{
1000
Det03
1002
}
1001
AUSTER_FOLIE
1002
{
1000
AC_PLUS_KT_FELD
1002
}
  0
LINE
  5
3EE5
330
20
100
AcDbEntity
  8
10000_Front
  6
Continuous
 62
     7
370
    50
100
AcDbLine
 39
0.45
 10
51.95403452529696
 20
210.0970794632698
 30
0.0
 11
51.95403452529696
 21
211.0893794632699
 31
0.0
1001
AUSTER_ANSICHT
1002
{
1000
Det03
1002
}
1001
AUSTER_FOLIE
1002
{
1000
AC_PLUS_KT_FELD
1002
}
  0
LINE
  5
3EE6
330
20
100
AcDbEntity
  8
10000_Front
  6
Continuous
 62
     7
370
    50
100
AcDbLine
 39
0.45
 10
50.92403452529686
 20
211.0893794632699
 30
0.0
 11
50.92403452529686
 21
210.0970794632698
 31
0.0
1001
AUSTER_ANSICHT
1002
{
1000
Det03
1002
}
1001
AUSTER_FOLIE
1002
{
1000
AC_PLUS_KT_FELD
1002
}
  0
LINE
  5
3EE7
330
20
100
AcDbEntity
  8
10000_Front
  6
Continuous
 62
     7
370
    50
100
AcDbLine
 39
0.45
 10
51.95403452529696
 20
208.7081794632699
 30
0.0
 11
54.22478452529684
 21
208.7081794632699
 31
0.0
1001
AUSTER_ANSICHT
1002
{
1000
Det03
1002
}
1001
AUSTER_FOLIE
1002
{
1000
AC_PLUS_KT_FELD
1002
}
  0
LINE
  5
3EE8
330
20
100
AcDbEntity
  8
10000_Front
  6
Continuous
 62
     7
370
    50
100
AcDbLine
 39
0.45
 10
48.6533445252969
 20
208.7081794632699
 30
0.0
 11
50.92403452529686
 21
208.7081794632699
 31
0.0
1001
AUSTER_ANSICHT
1002
{
1000
Det03
1002
}
1001
AUSTER_FOLIE
1002
{
1000
AC_PLUS_KT_FELD
1002
}
  0
LINE
  5
3EE9
330
20
100
AcDbEntity
  8
10000_Front
  6
Continuous
 62
     7
370
    50
100
AcDbLine
 39
0.45
 10
87.49868452529687
 20
197.4173794632698
 30
0.0
 11
86.34398452529685
 21
195.4173794632698
 31
0.0
1001
AUSTER_ANSICHT
1002
{
1000
Det03
1002
}
1001
AUSTER_FOLIE
1002
{
1000
AC_PLUS_KT_FELD
1002
}
  0
LINE
  5
3EEA
330
20
100
AcDbEntity
  8
10000_Front
  6
Continuous
 62
     7
370
    50
100
AcDbLine
 39
0.45
 10
86.34398452529685
 20
195.4173794632698
 30
0.0
 11
84.03458452529683
 21
195.4173794632698
 31
0.0
1001
AUSTER_ANSICHT
1002
{
1000
Det03
1002
}
1001
AUSTER_FOLIE
1002
{
1000
AC_PLUS_KT_FELD
1002
}
  0
LINE
  5
3EEB
330
20
100
AcDbEntity
  8
10000_Front
  6
Continuous
 62
     7
370
    50
100
AcDbLine
 39
0.45
 10
84.03458452529683
 20
195.4173794632698
 30
0.0
 11
82.87988452529694
 21
197.4173794632698
 31
0.0
1001
AUSTER_ANSICHT
1002
{
1000
Det03
1002
}
1001
AUSTER_FOLIE
1002
{
1000
AC_PLUS_KT_FELD
1002
}
  0
LINE
  5
3EEC
330
20
100
AcDbEntity
  8
10000_Front
  6
Continuous
 62
     7
370
    50
100
AcDbLine
 39
0.45
 10
82.87988452529694
 20
197.4173794632698
 30
0.0
 11
83.98948452529692
 21
199.3393794632697
 31
0.0
1001
AUSTER_ANSICHT
1002
{
1000
Det03
1002
}
1001
AUSTER_FOLIE
1002
{
1000
AC_PLUS_KT_FELD
1002
}
  0
LINE
  5
3EED
330
20
100
AcDbEntity
  8
10000_Front
  6
Continuous
 62
     7
370
    50
100
AcDbLine
 39
0.45
 10
84.25598452529689
 20
199.4173794632698
 30
0.0
 11
86.22338452529687
 21
199.4173794632698
 31
0.0
1001
AUSTER_ANSICHT
1002
{
1000
Det03
1002
}
1001
AUSTER_FOLIE
1002
{
1000
AC_PLUS_KT_FELD
1002
}
  0
LINE
  5
3EEE
330
20
100
AcDbEntity
  8
10000_Front
  6
Continuous
 62
     7
370
    50
100
AcDbLine
 39
0.45
 10
86.3971845252969
 20
199.32527946327
 30
0.0
 11
87.49868452529687
 21
197.4173794632698
 31
0.0
1001
AUSTER_ANSICHT
1002
{
1000
Det03
1002
}
1001
AUSTER_FOLIE
1002
{
1000
AC_PLUS_KT_FELD
1002
}
  0
LINE
  5
3EEF
330
20
100
AcDbEntity
  8
10000_Front
  6
Continuous
 62
     7
370
    50
100
AcDbLine
 39
0.45
 10
42.49866452529682
 20
197.4173794632698
 30
0.0
 11
41.34396452529688
 21
195.4173794632698
 31
0.0
1001
AUSTER_ANSICHT
1002
{
1000
Det03
1002
}
1001
AUSTER_FOLIE
1002
{
1000
AC_PLUS_KT_FELD
1002
}
  0
LINE
  5
3EF0
330
20
100
AcDbEntity
  8
10000_Front
  6
Continuous
 62
     7
370
    50
100
AcDbLine
 39
0.45
 10
41.34396452529688
 20
195.4173794632698
 30
0.0
 11
39.0345645252969
 21
195.4173794632698
 31
0.0
1001
AUSTER_ANSICHT
1002
{
1000
Det03
1002
}
1001
AUSTER_FOLIE
1002
{
1000
AC_PLUS_KT_FELD
1002
}
  0
LINE
  5
3EF1
330
20
100
AcDbEntity
  8
10000_Front
  6
Continuous
 62
     7
370
    50
100
AcDbLine
 39
0.45
 10
39.0345645252969
 20
195.4173794632698
 30
0.0
 11
37.87986452529685
 21
197.4173794632698
 31
0.0
1001
AUSTER_ANSICHT
1002
{
1000
Det03
1002
}
1001
AUSTER_FOLIE
1002
{
1000
AC_PLUS_KT_FELD
1002
}
  0
LINE
  5
3EF2
330
20
100
AcDbEntity
  8
10000_Front
  6
Continuous
 62
     7
370
    50
100
AcDbLine
 39
0.45
 10
37.87986452529685
 20
197.4173794632698
 30
0.0
 11
38.98953452529691
 21
199.3393794632697
 31
0.0
1001
AUSTER_ANSICHT
1002
{
1000
Det03
1002
}
1001
AUSTER_FOLIE
1002
{
1000
AC_PLUS_KT_FELD
1002
}
  0
LINE
  5
3EF3
330
20
100
AcDbEntity
  8
10000_Front
  6
Continuous
 62
     7
370
    50
100
AcDbLine
 39
0.45
 10
39.25595452529683
 20
199.4173794632698
 30
0.0
 11
41.22341452529689
 21
199.4173794632698
 31
0.0
1001
AUSTER_ANSICHT
1002
{
1000
Det03
1002
}
1001
AUSTER_FOLIE
1002
{
1000
AC_PLUS_KT_FELD
1002
}
  0
LINE
  5
3EF4
330
20
100
AcDbEntity
  8
10000_Front
  6
Continuous
 62
     7
370
    50
100
AcDbLine
 39
0.45
 10
41.39714452529688
 20
199.32527946327
 30
0.0
 11
42.49866452529682
 21
197.4173794632698
 31
0.0
1001
AUSTER_ANSICHT
1002
{
1000
Det03
1002
}
1001
AUSTER_FOLIE
1002
{
1000
AC_PLUS_KT_FELD
1002
}
  0
LINE
  5
3EF5
330
20
100
AcDbEntity
  8
10000_Front
  6
Continuous
 62
     7
370
    50
100
AcDbLine
 39
0.45
 10
64.99868452529688
 20
197.4173794632698
 30
0.0
 11
63.84398452529694
 21
195.4173794632698
 31
0.0
1001
AUSTER_ANSICHT
1002
{
1000
Det03
1002
}
1001
AUSTER_FOLIE
1002
{
1000
AC_PLUS_KT_FELD
1002
}
  0
LINE
  5
3EF6
330
20
100
AcDbEntity
  8
10000_Front
  6
Continuous
 62
     7
370
    50
100
AcDbLine
 39
0.45
 10
63.84398452529694
 20
195.4173794632698
 30
0.0
 11
61.53458452529685
 21
195.4173794632698
 31
0.0
1001
AUSTER_ANSICHT
1002
{
1000
Det03
1002
}
1001
AUSTER_FOLIE
1002
{
1000
AC_PLUS_KT_FELD
1002
}
  0
LINE
  5
3EF7
330
20
100
AcDbEntity
  8
10000_Front
  6
Continuous
 62
     7
370
    50
100
AcDbLine
 39
0.45
 10
61.53458452529685
 20
195.4173794632698
 30
0.0
 11
60.37988452529679
 21
197.4173794632698
 31
0.0
1001
AUSTER_ANSICHT
1002
{
1000
Det03
1002
}
1001
AUSTER_FOLIE
1002
{
1000
AC_PLUS_KT_FELD
1002
}
  0
LINE
  5
3EF8
330
20
100
AcDbEntity
  8
10000_Front
  6
Continuous
 62
     7
370
    50
100
AcDbLine
 39
0.45
 10
60.37988452529679
 20
197.4173794632698
 30
0.0
 11
61.4894845252968
 21
199.3393794632697
 31
0.0
1001
AUSTER_ANSICHT
1002
{
1000
Det03
1002
}
1001
AUSTER_FOLIE
1002
{
1000
AC_PLUS_KT_FELD
1002
}
  0
LINE
  5
3EF9
330
20
100
AcDbEntity
  8
10000_Front
  6
Continuous
 62
     7
370
    50
100
AcDbLine
 39
0.45
 10
61.75598452529687
 20
199.4173794632698
 30
0.0
 11
63.72338452529685
 21
199.4173794632698
 31
0.0
1001
AUSTER_ANSICHT
1002
{
1000
Det03
1002
}
1001
AUSTER_FOLIE
1002
{
1000
AC_PLUS_KT_FELD
1002
}
  0
LINE
  5
3EFA
330
20
100
AcDbEntity
  8
10000_Front
  6
Continuous
 62
     7
370
    50
100
AcDbLine
 39
0.45
 10
63.89718452529688
 20
199.32527946327
 30
0.0
 11
64.99868452529688
 21
197.4173794632698
 31
0.0
1001
AUSTER_ANSICHT
1002
{
1000
Det03
1002
}
1001
AUSTER_FOLIE
1002
{
1000
AC_PLUS_KT_FELD
1002
}
  0
LINE
  5
3EFB
330
20
100
AcDbEntity
  8
10000_Front
  6
Continuous
 62
     7
370
    50
100
AcDbLine
 39
0.45
 10
41.78926452529686
 20
213.71737946327
 30
0.0
 11
41.78926452529686
 21
210.7173794632699
 31
0.0
1001
AUSTER_ANSICHT
1002
{
1000
Det03
1002
}
1001
AUSTER_FOLIE
1002
{
1000
AC_PLUS_KT_FELD
1002
}
  0
LINE
  5
3EFC
330
20
100
AcDbEntity
  8
10000_Front
  6
Continuous
370
    50
100
AcDbLine
 39
0.7
 10
97.6892845252969
 20
191.21737946327
 30
0.0
 11
97.6892845252969
 21
188.2173794632699
 31
0.0
1001
AUSTER_ANSICHT
1002
{
1000
Det03
1002
}
1001
AUSTER_FOLIE
1002
{
1000
AC_PLUS_KT_FELD
1002
}
  0
LINE
  5
3EFD
330
20
100
AcDbEntity
  8
10000_Front
  6
Continuous
370
    50
100
AcDbLine
 39
0.7
 10
27.68926452529695
 20
191.21737946327
 30
0.0
 11
27.68926452529695
 21
188.2173794632699
 31
0.0
1001
AUSTER_ANSICHT
1002
{
1000
Det03
1002
}
1001
AUSTER_FOLIE
1002
{
1000
AC_PLUS_KT_FELD
1002
}
  0
LINE
  5
3EFE
330
20
100
AcDbEntity
  8
10000_Front
  6
Continuous
370
    50
100
AcDbLine
 39
0.7
 10
62.68928452529689
 20
215.2173794632699
 30
0.0
 11
79.88928452529695
 21
215.2173794632699
 31
0.0
1001
AUSTER_ANSICHT
1002
{
1000
Det03
1002
}
1001
AUSTER_FOLIE
1002
{
1000
AC_PLUS_KT_FELD
1002
}
  0
LINE
  5
3EFF
330
20
100
AcDbEntity
  8
10000_Front
  6
Continuous
370
    50
100
AcDbLine
 39
0.7
 10
94.9392845252969
 20
210.3172794632699
 30
0.0
 11
94.9392845252969
 21
207.1172794632699
 31
0.0
1001
AUSTER_ANSICHT
1002
{
1000
Det03
1002
}
1001
AUSTER_FOLIE
1002
{
1000
AC_PLUS_KT_FELD
1002
}
  0
LINE
  5
3F00
330
20
100
AcDbEntity
  8
10000_Front
  6
Continuous
370
    50
100
AcDbLine
 39
0.7
 10
78.38928452529692
 20
210.3172794632699
 30
0.0
 11
78.38928452529692
 21
207.1173794632699
 31
0.0
1001
AUSTER_ANSICHT
1002
{
1000
Det03
1002
}
1001
AUSTER_FOLIE
1002
{
1000
AC_PLUS_KT_FELD
1002
}
  0
LINE
  5
3F01
330
20
100
AcDbEntity
  8
10000_Front
  6
Continuous
370
    50
100
AcDbLine
 39
0.7
 10
69.48928452529685
 20
210.3173794632699
 30
0.0
 11
69.48928452529685
 21
207.1173794632699
 31
0.0
1001
AUSTER_ANSICHT
1002
{
1000
Det03
1002
}
1001
AUSTER_FOLIE
1002
{
1000
AC_PLUS_KT_FELD
1002
}
  0
LINE
  5
3F02
330
20
100
AcDbEntity
  8
10000_Front
  6
Continuous
370
    50
100
AcDbLine
 39
0.7
 10
55.88928452529693
 20
210.3173794632699
 30
0.0
 11
55.88928452529693
 21
207.1173794632699
 31
0.0
1001
AUSTER_ANSICHT
1002
{
1000
Det03
1002
}
1001
AUSTER_FOLIE
1002
{
1000
AC_PLUS_KT_FELD
1002
}
  0
LINE
  5
3F03
330
20
100
AcDbEntity
  8
10000_Front
  6
Continuous
370
    50
100
AcDbLine
 39
0.7
 10
46.98926452529689
 20
210.3173794632699
 30
0.0
 11
46.98926452529689
 21
207.1173794632699
 31
0.0
1001
AUSTER_ANSICHT
1002
{
1000
Det03
1002
}
1001
AUSTER_FOLIE
1002
{
1000
AC_PLUS_KT_FELD
1002
}
  0
LINE
  5
3F04
330
20
100
AcDbEntity
  8
10000_Front
  6
Continuous
370
    50
100
AcDbLine
 39
0.7
 10
30.43926452529695
 20
210.3173794632699
 30
0.0
 11
30.43926452529695
 21
207.1173794632699
 31
0.0
1001
AUSTER_ANSICHT
1002
{
1000
Det03
1002
}
1001
AUSTER_FOLIE
1002
{
1000
AC_PLUS_KT_FELD
1002
}
  0
LINE
  5
3F05
330
20
100
AcDbEntity
  8
10000_Front
  6
Continuous
 62
     7
370
    50
100
AcDbLine
 39
0.45
 10
37.17426452529685
 20
211.5716794632699
 30
0.0
 11
34.90356452529681
 21
211.5716794632699
 31
0.0
1001
AUSTER_ANSICHT
1002
{
1000
Det03
1002
}
1001
AUSTER_FOLIE
1002
{
1000
AC_PLUS_KT_FELD
1002
}
  0
LINE
  5
3F06
330
20
100
AcDbEntity
  8
10000_Front
  6
Continuous
 62
     7
370
    50
100
AcDbLine
 39
0.45
 10
50.92403452529686
 20
209.91677946327
 30
0.0
 11
48.6533445252969
 21
209.91677946327
 31
0.0
1001
AUSTER_ANSICHT
1002
{
1000
Det03
1002
}
1001
AUSTER_FOLIE
1002
{
1000
AC_PLUS_KT_FELD
1002
}
  0
LINE
  5
3F07
330
20
100
AcDbEntity
  8
10000_Front
  6
Continuous
 62
     7
370
    50
100
AcDbLine
 39
0.45
 10
40.47496452529684
 20
211.5716794632699
 30
0.0
 11
38.20426452529682
 21
211.5716794632699
 31
0.0
1001
AUSTER_ANSICHT
1002
{
1000
Det03
1002
}
1001
AUSTER_FOLIE
1002
{
1000
AC_PLUS_KT_FELD
1002
}
  0
LINE
  5
3F08
330
20
100
AcDbEntity
  8
10000_Front
  6
Continuous
 62
     7
370
    50
100
AcDbLine
 39
0.45
 10
54.22478452529684
 20
209.91677946327
 30
0.0
 11
51.95403452529696
 21
209.91677946327
 31
0.0
1001
AUSTER_ANSICHT
1002
{
1000
Det03
1002
}
1001
AUSTER_FOLIE
1002
{
1000
AC_PLUS_KT_FELD
1002
}
  0
LINE
  5
3F09
330
20
100
AcDbEntity
  8
10000_Front
  6
Continuous
370
    50
100
AcDbLine
 39
0.7
 10
30.83926452529681
 20
210.7173794632699
 30
0.0
 11
46.58926452529681
 21
210.7173794632699
 31
0.0
1001
AUSTER_ANSICHT
1002
{
1000
Det03
1002
}
1001
AUSTER_FOLIE
1002
{
1000
AC_PLUS_KT_FELD
1002
}
  0
LINE
  5
3F0A
330
20
100
AcDbEntity
  8
10000_Front
  6
Continuous
370
    50
100
AcDbLine
 39
0.7
 10
29.18926452529695
 20
189.7173794632699
 30
0.0
 11
96.1892845252969
 21
189.7173794632699
 31
0.0
1001
AUSTER_ANSICHT
1002
{
1000
Det03
1002
}
1001
AUSTER_FOLIE
1002
{
1000
AC_PLUS_KT_FELD
1002
}
  0
LINE
  5
3F0B
330
20
100
AcDbEntity
  8
10000_Front
  6
Continuous
370
    50
100
AcDbLine
 39
0.7
 10
29.18926452529695
 20
207.1173794632699
 30
0.0
 11
96.1892845252969
 21
207.1173794632699
 31
0.0
1001
AUSTER_ANSICHT
1002
{
1000
Det03
1002
}
1001
AUSTER_FOLIE
1002
{
1000
AC_PLUS_KT_FELD
1002
}
  0
CIRCLE
  5
3FD1
330
20
100
AcDbEntity
  8
10000_Front
  6
Continuous
 62
     7
370
    50
100
AcDbCircle
 39
0.45
 10
51.43926452529693
 20
104.9673794632697
 30
0.0
 40
3.5
1001
AUSTER_ANSICHT
1002
{
1000
Det03
1002
}
1001
AUSTER_FOLIE
1002
{
1000
AC_PLUS_KT_FELD
1002
}
  0
ARC
  5
3FD2
330
20
100
AcDbEntity
  8
10000_Front
  6
Continuous
370
    50
100
AcDbCircle
 39
0.7
 10
46.58926452529681
 20
80.11735946326982
 30
0.0
 40
0.4
100
AcDbArc
 50
270.0
 51
0.0
1001
AUSTER_ANSICHT
1002
{
1000
Det03
1002
}
1001
AUSTER_FOLIE
1002
{
1000
AC_PLUS_KT_FELD
1002
}
  0
ARC
  5
3FD3
330
20
100
AcDbEntity
  8
10000_Front
  6
Continuous
370
    50
100
AcDbCircle
 39
0.7
 10
30.83926452529681
 20
80.11735946326982
 30
0.0
 40
0.4
100
AcDbArc
 50
180.0
 51
270.0
1001
AUSTER_ANSICHT
1002
{
1000
Det03
1002
}
1001
AUSTER_FOLIE
1002
{
1000
AC_PLUS_KT_FELD
1002
}
  0
ARC
  5
3FD4
330
20
100
AcDbEntity
  8
10000_Front
  6
Continuous
370
    50
100
AcDbCircle
 39
0.7
 10
56.28928452529681
 20
80.11735946326982
 30
0.0
 40
0.4
100
AcDbArc
 50
180.0
 51
270.0
1001
AUSTER_ANSICHT
1002
{
1000
Det03
1002
}
1001
AUSTER_FOLIE
1002
{
1000
AC_PLUS_KT_FELD
1002
}
  0
ARC
  5
3FD5
330
20
100
AcDbEntity
  8
10000_Front
  6
Continuous
370
    50
100
AcDbCircle
 39
0.7
 10
69.08928452529687
 20
80.11735946326982
 30
0.0
 40
0.4
100
AcDbArc
 50
270.0
 51
0.0
1001
AUSTER_ANSICHT
1002
{
1000
Det03
1002
}
1001
AUSTER_FOLIE
1002
{
1000
AC_PLUS_KT_FELD
1002
}
  0
ARC
  5
3FD6
330
20
100
AcDbEntity
  8
10000_Front
  6
Continuous
370
    50
100
AcDbCircle
 39
0.7
 10
78.78928452529681
 20
80.11735946326982
 30
0.0
 40
0.4
100
AcDbArc
 50
180.0
 51
270.0
1001
AUSTER_ANSICHT
1002
{
1000
Det03
1002
}
1001
AUSTER_FOLIE
1002
{
1000
AC_PLUS_KT_FELD
1002
}
  0
ARC
  5
3FD7
330
20
100
AcDbEntity
  8
10000_Front
  6
Continuous
370
    50
100
AcDbCircle
 39
0.7
 10
94.5392845252968
 20
80.11735946326982
 30
0.0
 40
0.4
100
AcDbArc
 50
270.0
 51
0.0
1001
AUSTER_ANSICHT
1002
{
1000
Det03
1002
}
1001
AUSTER_FOLIE
1002
{
1000
AC_PLUS_KT_FELD
1002
}
  0
ARC
  5
3FD8
330
20
100
AcDbEntity
  8
10000_Front
  6
Continuous
 62
     7
370
    50
100
AcDbCircle
 39
0.45
 10
38.08926452529681
 20
75.61735946326985
 30
0.0
 40
0.4
100
AcDbArc
 50
180.0
 51
270.0
1001
AUSTER_ANSICHT
1002
{
1000
Det03
1002
}
1001
AUSTER_FOLIE
1002
{
1000
AC_PLUS_KT_FELD
1002
}
  0
ARC
  5
3FD9
330
20
100
AcDbEntity
  8
10000_Front
  6
Continuous
 62
     7
370
    50
100
AcDbCircle
 39
0.45
 10
93.2892845252968
 20
76.71735946326982
 30
0.0
 40
1.5
100
AcDbArc
 50
180.0
 51
270.0
1001
AUSTER_ANSICHT
1002
{
1000
Det03
1002
}
1001
AUSTER_FOLIE
1002
{
1000
AC_PLUS_KT_FELD
1002
}
  0
ARC
  5
3FDA
330
20
100
AcDbEntity
  8
10000_Front
  6
Continuous
 62
     7
370
    50
100
AcDbCircle
 39
0.45
 10
82.08928452529688
 20
76.71735946326982
 30
0.0
 40
1.5
100
AcDbArc
 50
270.0
 51
0.0
1001
AUSTER_ANSICHT
1002
{
1000
Det03
1002
}
1001
AUSTER_FOLIE
1002
{
1000
AC_PLUS_KT_FELD
1002
}
  0
ARC
  5
3FDB
330
20
100
AcDbEntity
  8
10000_Front
  6
Continuous
370
    50
100
AcDbCircle
 39
0.7
 10
96.1892845252969
 20
76.71735946326982
 30
0.0
 40
1.5
100
AcDbArc
 50
270.0
 51
0.0
1001
AUSTER_ANSICHT
1002
{
1000
Det03
1002
}
1001
AUSTER_FOLIE
1002
{
1000
AC_PLUS_KT_FELD
1002
}
  0
ARC
  5
3FDC
330
20
100
AcDbEntity
  8
10000_Front
  6
Continuous
370
    50
100
AcDbCircle
 39
0.7
 10
29.18926452529695
 20
76.71735946326982
 30
0.0
 40
1.5
100
AcDbArc
 50
180.0
 51
270.0
1001
AUSTER_ANSICHT
1002
{
1000
Det03
1002
}
1001
AUSTER_FOLIE
1002
{
1000
AC_PLUS_KT_FELD
1002
}
  0
ARC
  5
3FDD
330
20
100
AcDbEntity
  8
10000_Front
  6
Continuous
370
    50
100
AcDbCircle
 39
0.7
 10
32.68926452529695
 20
80.21735946326984
 30
0.0
 40
2.5
100
AcDbArc
 50
159.0061
 51
180.0
1001
AUSTER_ANSICHT
1002
{
1000
Det03
1002
}
1001
AUSTER_FOLIE
1002
{
1000
AC_PLUS_KT_FELD
1002
}
  0
ARC
  5
3FDE
330
20
100
AcDbEntity
  8
10000_Front
  6
Continuous
370
    50
100
AcDbCircle
 39
0.7
 10
29.18926452529695
 20
99.2173494632699
 30
0.0
 40
1.5
100
AcDbArc
 50
90.0
 51
180.0
1001
AUSTER_ANSICHT
1002
{
1000
Det03
1002
}
1001
AUSTER_FOLIE
1002
{
1000
AC_PLUS_KT_FELD
1002
}
  0
ARC
  5
3FDF
330
20
100
AcDbEntity
  8
10000_Front
  6
Continuous
370
    50
100
AcDbCircle
 39
0.7
 10
96.1892845252969
 20
99.2173494632699
 30
0.0
 40
1.5
100
AcDbArc
 50
0.0
 51
90.0
1001
AUSTER_ANSICHT
1002
{
1000
Det03
1002
}
1001
AUSTER_FOLIE
1002
{
1000
AC_PLUS_KT_FELD
1002
}
  0
ARC
  5
3FE0
330
20
100
AcDbEntity
  8
10000_Front
  6
Continuous
370
    50
100
AcDbCircle
 39
0.7
 10
29.18926452529695
 20
102.2173794632697
 30
0.0
 40
1.5
100
AcDbArc
 50
180.0
 51
270.0
1001
AUSTER_ANSICHT
1002
{
1000
Det03
1002
}
1001
AUSTER_FOLIE
1002
{
1000
AC_PLUS_KT_FELD
1002
}
  0
ARC
  5
3FE1
330
20
100
AcDbEntity
  8
10000_Front
  6
Continuous
370
    50
100
AcDbCircle
 39
0.7
 10
96.1892845252969
 20
102.2173794632697
 30
0.0
 40
1.5
100
AcDbArc
 50
270.0
 51
0.0
1001
AUSTER_ANSICHT
1002
{
1000
Det03
1002
}
1001
AUSTER_FOLIE
1002
{
1000
AC_PLUS_KT_FELD
1002
}
  0
ARC
  5
3FE2
330
20
100
AcDbEntity
  8
10000_Front
  6
Continuous
370
    50
100
AcDbCircle
 39
0.7
 10
29.18926452529695
 20
84.81735946326978
 30
0.0
 40
1.5
100
AcDbArc
 50
180.0
 51
270.0
1001
AUSTER_ANSICHT
1002
{
1000
Det03
1002
}
1001
AUSTER_FOLIE
1002
{
1000
AC_PLUS_KT_FELD
1002
}
  0
ARC
  5
3FE3
330
20
100
AcDbEntity
  8
10000_Front
  6
Continuous
 62
     7
370
    50
100
AcDbCircle
 39
0.45
 10
51.43926452529693
 20
104.9673794632697
 30
0.0
 40
2.850490999999998
100
AcDbArc
 50
167.7603999999987
 51
192.2396000000013
1001
AUSTER_ANSICHT
1002
{
1000
Det03
1002
}
1001
AUSTER_FOLIE
1002
{
1000
AC_PLUS_KT_FELD
1002
}
  0
ARC
  5
3FE4
330
20
100
AcDbEntity
  8
10000_Front
  6
Continuous
 62
     7
370
    50
100
AcDbCircle
 39
0.45
 10
51.43926452529693
 20
104.9673794632697
 30
0.0
 40
1.85
100
AcDbArc
 50
73.83655000000056
 51
106.1634000000003
1001
AUSTER_ANSICHT
1002
{
1000
Det03
1002
}
1001
AUSTER_FOLIE
1002
{
1000
AC_PLUS_KT_FELD
1002
}
  0
ARC
  5
3FE5
330
20
100
AcDbEntity
  8
10000_Front
  6
Continuous
 62
     7
370
    50
100
AcDbCircle
 39
0.45
 10
51.43926452529693
 20
104.9673794632697
 30
0.0
 40
1.85
100
AcDbArc
 50
253.8365999999997
 51
286.1634000000003
1001
AUSTER_ANSICHT
1002
{
1000
Det03
1002
}
1001
AUSTER_FOLIE
1002
{
1000
AC_PLUS_KT_FELD
1002
}
  0
ARC
  5
3FE6
330
20
100
AcDbEntity
  8
10000_Front
  6
Continuous
 62
     7
370
    50
100
AcDbCircle
 39
0.45
 10
51.43926452529693
 20
104.9673794632697
 30
0.0
 40
2.850490999999998
100
AcDbArc
 50
347.7603999999987
 51
12.23960000000126
1001
AUSTER_ANSICHT
1002
{
1000
Det03
1002
}
1001
AUSTER_FOLIE
1002
{
1000
AC_PLUS_KT_FELD
1002
}
  0
ARC
  5
3FE7
330
20
100
AcDbEntity
  8
10000_Front
  6
Continuous
 62
     7
370
    50
100
AcDbCircle
 39
0.45
 10
87.6892845252969
 20
79.46735946326985
 30
0.0
 40
2.850490999999998
100
AcDbArc
 50
347.7603999999987
 51
5.031499999998628
1001
AUSTER_ANSICHT
1002
{
1000
Det03
1002
}
1001
AUSTER_FOLIE
1002
{
1000
AC_PLUS_KT_FELD
1002
}
  0
ARC
  5
3FE8
330
20
100
AcDbEntity
  8
10000_Front
  6
Continuous
 62
     7
370
    50
100
AcDbCircle
 39
0.45
 10
87.6892845252969
 20
79.46735946326985
 30
0.0
 40
3.1
100
AcDbArc
 50
175.3744
 51
4.625599999999976
1001
AUSTER_ANSICHT
1002
{
1000
Det03
1002
}
1001
AUSTER_FOLIE
1002
{
1000
AC_PLUS_KT_FELD
1002
}
  0
ARC
  5
3FE9
330
20
100
AcDbEntity
  8
10000_Front
  6
Continuous
 62
     7
370
    50
100
AcDbCircle
 39
0.45
 10
87.6892845252969
 20
79.46735946326985
 30
0.0
 40
2.850490999999998
100
AcDbArc
 50
174.9685000000011
 51
192.2396000000013
1001
AUSTER_ANSICHT
1002
{
1000
Det03
1002
}
1001
AUSTER_FOLIE
1002
{
1000
AC_PLUS_KT_FELD
1002
}
  0
ARC
  5
3FEA
330
20
100
AcDbEntity
  8
10000_Front
  6
Continuous
 62
     7
370
    50
100
AcDbCircle
 39
0.45
 10
87.6892845252969
 20
79.46735946326985
 30
0.0
 40
1.85
100
AcDbArc
 50
253.8365999999997
 51
286.1634000000003
1001
AUSTER_ANSICHT
1002
{
1000
Det03
1002
}
1001
AUSTER_FOLIE
1002
{
1000
AC_PLUS_KT_FELD
1002
}
  0
ARC
  5
3FEB
330
20
100
AcDbEntity
  8
10000_Front
  6
Continuous
 62
     7
370
    50
100
AcDbCircle
 39
0.45
 10
51.43931452529682
 20
81.12220946326983
 30
0.0
 40
3.1
100
AcDbArc
 50
134.9184000000008
 51
45.08159999999903
1001
AUSTER_ANSICHT
1002
{
1000
Det03
1002
}
1001
AUSTER_FOLIE
1002
{
1000
AC_PLUS_KT_FELD
1002
}
  0
ARC
  5
3FEC
330
20
100
AcDbEntity
  8
10000_Front
  6
Continuous
 62
     7
370
    50
100
AcDbCircle
 39
0.45
 10
51.43931452529682
 20
81.12220946326983
 30
0.0
 40
2.850490999999998
100
AcDbArc
 50
167.7603999999987
 51
192.2396000000013
1001
AUSTER_ANSICHT
1002
{
1000
Det03
1002
}
1001
AUSTER_FOLIE
1002
{
1000
AC_PLUS_KT_FELD
1002
}
  0
ARC
  5
3FED
330
20
100
AcDbEntity
  8
10000_Front
  6
Continuous
 62
     7
370
    50
100
AcDbCircle
 39
0.45
 10
51.43931452529682
 20
81.12220946326983
 30
0.0
 40
1.85
100
AcDbArc
 50
73.83655000000056
 51
106.1634000000003
1001
AUSTER_ANSICHT
1002
{
1000
Det03
1002
}
1001
AUSTER_FOLIE
1002
{
1000
AC_PLUS_KT_FELD
1002
}
  0
ARC
  5
3FEE
330
20
100
AcDbEntity
  8
10000_Front
  6
Continuous
 62
     7
370
    50
100
AcDbCircle
 39
0.45
 10
51.43931452529682
 20
81.12220946326983
 30
0.0
 40
1.85
100
AcDbArc
 50
253.8365999999997
 51
286.1634000000003
1001
AUSTER_ANSICHT
1002
{
1000
Det03
1002
}
1001
AUSTER_FOLIE
1002
{
1000
AC_PLUS_KT_FELD
1002
}
  0
ARC
  5
3FEF
330
20
100
AcDbEntity
  8
10000_Front
  6
Continuous
 62
     7
370
    50
100
AcDbCircle
 39
0.45
 10
51.43931452529682
 20
81.12220946326983
 30
0.0
 40
2.850490999999998
100
AcDbArc
 50
347.7603999999987
 51
12.23960000000126
1001
AUSTER_ANSICHT
1002
{
1000
Det03
1002
}
1001
AUSTER_FOLIE
1002
{
1000
AC_PLUS_KT_FELD
1002
}
  0
ARC
  5
3FF0
330
20
100
AcDbEntity
  8
10000_Front
  6
Continuous
 62
     7
370
    50
100
AcDbCircle
 39
0.45
 10
73.93948452529683
 20
81.12220946326983
 30
0.0
 40
3.1
100
AcDbArc
 50
134.9184000000008
 51
45.08159999999903
1001
AUSTER_ANSICHT
1002
{
1000
Det03
1002
}
1001
AUSTER_FOLIE
1002
{
1000
AC_PLUS_KT_FELD
1002
}
  0
ARC
  5
3FF1
330
20
100
AcDbEntity
  8
10000_Front
  6
Continuous
 62
     7
370
    50
100
AcDbCircle
 39
0.45
 10
73.93948452529683
 20
81.12220946326983
 30
0.0
 40
2.850490999999998
100
AcDbArc
 50
167.7603999999987
 51
192.2396000000013
1001
AUSTER_ANSICHT
1002
{
1000
Det03
1002
}
1001
AUSTER_FOLIE
1002
{
1000
AC_PLUS_KT_FELD
1002
}
  0
ARC
  5
3FF2
330
20
100
AcDbEntity
  8
10000_Front
  6
Continuous
 62
     7
370
    50
100
AcDbCircle
 39
0.45
 10
73.93948452529683
 20
81.12220946326983
 30
0.0
 40
1.85
100
AcDbArc
 50
73.83655000000056
 51
106.1634000000003
1001
AUSTER_ANSICHT
1002
{
1000
Det03
1002
}
1001
AUSTER_FOLIE
1002
{
1000
AC_PLUS_KT_FELD
1002
}
  0
ARC
  5
3FF3
330
20
100
AcDbEntity
  8
10000_Front
  6
Continuous
 62
     7
370
    50
100
AcDbCircle
 39
0.45
 10
73.93948452529683
 20
81.12220946326983
 30
0.0
 40
1.85
100
AcDbArc
 50
253.8365999999997
 51
286.1634000000003
1001
AUSTER_ANSICHT
1002
{
1000
Det03
1002
}
1001
AUSTER_FOLIE
1002
{
1000
AC_PLUS_KT_FELD
1002
}
  0
ARC
  5
3FF4
330
20
100
AcDbEntity
  8
10000_Front
  6
Continuous
 62
     7
370
    50
100
AcDbCircle
 39
0.45
 10
73.93948452529683
 20
81.12220946326983
 30
0.0
 40
2.850490999999998
100
AcDbArc
 50
347.7603999999987
 51
12.23960000000126
1001
AUSTER_ANSICHT
1002
{
1000
Det03
1002
}
1001
AUSTER_FOLIE
1002
{
1000
AC_PLUS_KT_FELD
1002
}
  0
CIRCLE
  5
3FF5
330
20
100
AcDbEntity
  8
10000_Front
  6
Continuous
 62
     7
370
    50
100
AcDbCircle
 39
0.45
 10
40.18926452529695
 20
93.01735946326976
 30
0.0
 40
3.0
1001
AUSTER_ANSICHT
1002
{
1000
Det03
1002
}
1001
AUSTER_FOLIE
1002
{
1000
AC_PLUS_KT_FELD
1002
}
  0
CIRCLE
  5
3FF6
330
20
100
AcDbEntity
  8
10000_Front
  6
Continuous
 62
     7
370
    50
100
AcDbCircle
 39
0.45
 10
85.1892845252969
 20
93.01735946326976
 30
0.0
 40
3.0
1001
AUSTER_ANSICHT
1002
{
1000
Det03
1002
}
1001
AUSTER_FOLIE
1002
{
1000
AC_PLUS_KT_FELD
1002
}
  0
CIRCLE
  5
3FF7
330
20
100
AcDbEntity
  8
10000_Front
  6
Continuous
 62
     7
370
    50
100
AcDbCircle
 39
0.45
 10
62.68928452529689
 20
93.01735946326976
 30
0.0
 40
3.0
1001
AUSTER_ANSICHT
1002
{
1000
Det03
1002
}
1001
AUSTER_FOLIE
1002
{
1000
AC_PLUS_KT_FELD
1002
}
  0
ARC
  5
3FF8
330
20
100
AcDbEntity
  8
10000_Front
  6
Continuous
370
    50
100
AcDbCircle
 39
0.7
 10
96.1892845252969
 20
84.81735946326978
 30
0.0
 40
1.5
100
AcDbArc
 50
270.0
 51
0.0
1001
AUSTER_ANSICHT
1002
{
1000
Det03
1002
}
1001
AUSTER_FOLIE
1002
{
1000
AC_PLUS_KT_FELD
1002
}
  0
ARC
  5
3FF9
330
20
100
AcDbEntity
  8
10000_Front
  6
Continuous
370
    50
100
AcDbCircle
 39
0.7
 10
32.68926452529695
 20
80.21735946326984
 30
0.0
 40
2.5
100
AcDbArc
 50
180.0
 51
348.463
1001
AUSTER_ANSICHT
1002
{
1000
Det03
1002
}
1001
AUSTER_FOLIE
1002
{
1000
AC_PLUS_KT_FELD
1002
}
  0
LINE
  5
3FFA
330
20
100
AcDbEntity
  8
10000_Front
  6
Continuous
370
    50
100
AcDbLine
 39
0.7
 10
62.68928452529689
 20
75.21735946326984
 30
0.0
 11
45.48926452529689
 21
75.21735946326984
 31
0.0
1001
AUSTER_ANSICHT
1002
{
1000
Det03
1002
}
1001
AUSTER_FOLIE
1002
{
1000
AC_PLUS_KT_FELD
1002
}
  0
LINE
  5
3FFB
330
20
100
AcDbEntity
  8
10000_Front
  6
Continuous
370
    50
100
AcDbLine
 39
0.7
 10
79.88928452529695
 20
75.21735946326984
 30
0.0
 11
62.68928452529689
 21
75.21735946326984
 31
0.0
1001
AUSTER_ANSICHT
1002
{
1000
Det03
1002
}
1001
AUSTER_FOLIE
1002
{
1000
AC_PLUS_KT_FELD
1002
}
  0
LINE
  5
3FFC
330
20
100
AcDbEntity
  8
10000_Front
  6
Continuous
 62
     7
370
    50
100
AcDbLine
 39
0.45
 10
45.48926452529689
 20
75.61735946326985
 30
0.0
 11
45.48926452529689
 21
79.71685946326982
 31
0.0
1001
AUSTER_ANSICHT
1002
{
1000
Det03
1002
}
1001
AUSTER_FOLIE
1002
{
1000
AC_PLUS_KT_FELD
1002
}
  0
LINE
  5
3FFD
330
20
100
AcDbEntity
  8
10000_Front
  6
Continuous
 62
     7
370
    50
100
AcDbLine
 39
0.45
 10
45.48926452529689
 20
75.21735946326984
 30
0.0
 11
45.48926452529689
 21
75.61735946326985
 31
0.0
1001
AUSTER_ANSICHT
1002
{
1000
Det03
1002
}
1001
AUSTER_FOLIE
1002
{
1000
AC_PLUS_KT_FELD
1002
}
  0
LINE
  5
3FFE
330
20
100
AcDbEntity
  8
10000_Front
  6
Continuous
370
    50
100
AcDbLine
 39
0.7
 10
46.58926452529681
 20
79.71735946326984
 30
0.0
 11
30.83926452529681
 21
79.71735946326984
 31
0.0
1001
AUSTER_ANSICHT
1002
{
1000
Det03
1002
}
1001
AUSTER_FOLIE
1002
{
1000
AC_PLUS_KT_FELD
1002
}
  0
LINE
  5
3FFF
330
20
100
AcDbEntity
  8
10000_Front
  6
Continuous
370
    50
100
AcDbLine
 39
0.7
 10
69.08928452529687
 20
79.71735946326984
 30
0.0
 11
56.28928452529681
 21
79.71735946326984
 31
0.0
1001
AUSTER_ANSICHT
1002
{
1000
Det03
1002
}
1001
AUSTER_FOLIE
1002
{
1000
AC_PLUS_KT_FELD
1002
}
  0
LINE
  5
4000
330
20
100
AcDbEntity
  8
10000_Front
  6
Continuous
370
    50
100
AcDbLine
 39
0.7
 10
94.5392845252968
 20
79.71735946326984
 30
0.0
 11
78.78928452529681
 21
79.71735946326984
 31
0.0
1001
AUSTER_ANSICHT
1002
{
1000
Det03
1002
}
1001
AUSTER_FOLIE
1002
{
1000
AC_PLUS_KT_FELD
1002
}
  0
LINE
  5
4001
330
20
100
AcDbEntity
  8
10000_Front
  6
Continuous
370
    50
100
AcDbLine
 39
0.7
 10
78.33928452529687
 20
83.31735946326977
 30
0.0
 11
78.38938452529693
 21
83.31735946326977
 31
0.0
1001
AUSTER_ANSICHT
1002
{
1000
Det03
1002
}
1001
AUSTER_FOLIE
1002
{
1000
AC_PLUS_KT_FELD
1002
}
  0
LINE
  5
4002
330
20
100
AcDbEntity
  8
10000_Front
  6
Continuous
370
    50
100
AcDbLine
 39
0.7
 10
69.48928452529685
 20
83.31735946326977
 30
0.0
 11
69.53928452529679
 21
83.31735946326977
 31
0.0
1001
AUSTER_ANSICHT
1002
{
1000
Det03
1002
}
1001
AUSTER_FOLIE
1002
{
1000
AC_PLUS_KT_FELD
1002
}
  0
LINE
  5
4003
330
20
100
AcDbEntity
  8
10000_Front
  6
Continuous
370
    50
100
AcDbLine
 39
0.7
 10
55.83928452529686
 20
83.31735946326977
 30
0.0
 11
55.88938452529692
 21
83.31735946326977
 31
0.0
1001
AUSTER_ANSICHT
1002
{
1000
Det03
1002
}
1001
AUSTER_FOLIE
1002
{
1000
AC_PLUS_KT_FELD
1002
}
  0
LINE
  5
4004
330
20
100
AcDbEntity
  8
10000_Front
  6
Continuous
370
    50
100
AcDbLine
 39
0.7
 10
46.98926452529689
 20
83.31735946326977
 30
0.0
 11
47.03926452529684
 21
83.31735946326977
 31
0.0
1001
AUSTER_ANSICHT
1002
{
1000
Det03
1002
}
1001
AUSTER_FOLIE
1002
{
1000
AC_PLUS_KT_FELD
1002
}
  0
LINE
  5
4005
330
20
100
AcDbEntity
  8
10000_Front
  6
Continuous
370
    50
100
AcDbLine
 39
0.7
 10
93.2892845252968
 20
75.21735946326984
 30
0.0
 11
82.08928452529688
 21
75.21735946326984
 31
0.0
1001
AUSTER_ANSICHT
1002
{
1000
Det03
1002
}
1001
AUSTER_FOLIE
1002
{
1000
AC_PLUS_KT_FELD
1002
}
  0
LINE
  5
4006
330
20
100
AcDbEntity
  8
10000_Front
  6
Continuous
 62
     7
370
    50
100
AcDbLine
 39
0.45
 10
37.68926452529696
 20
79.71749946326986
 30
0.0
 11
37.68926452529696
 21
75.61735946326985
 31
0.0
1001
AUSTER_ANSICHT
1002
{
1000
Det03
1002
}
1001
AUSTER_FOLIE
1002
{
1000
AC_PLUS_KT_FELD
1002
}
  0
LINE
  5
4007
330
20
100
AcDbEntity
  8
10000_Front
  6
Continuous
370
    50
100
AcDbLine
 39
0.7
 10
96.1892845252969
 20
75.21735946326984
 30
0.0
 11
93.2892845252968
 21
75.21735946326984
 31
0.0
1001
AUSTER_ANSICHT
1002
{
1000
Det03
1002
}
1001
AUSTER_FOLIE
1002
{
1000
AC_PLUS_KT_FELD
1002
}
  0
LINE
  5
4008
330
20
100
AcDbEntity
  8
10000_Front
  6
Continuous
 62
     7
370
    50
100
AcDbLine
 39
0.45
 10
91.7892845252968
 20
79.71698946326984
 30
0.0
 11
91.7892845252968
 21
76.71735946326982
 31
0.0
1001
AUSTER_ANSICHT
1002
{
1000
Det03
1002
}
1001
AUSTER_FOLIE
1002
{
1000
AC_PLUS_KT_FELD
1002
}
  0
LINE
  5
4009
330
20
100
AcDbEntity
  8
10000_Front
  6
Continuous
370
    50
100
AcDbLine
 39
0.7
 10
82.08928452529688
 20
75.21735946326984
 30
0.0
 11
80.03968452529694
 21
75.21735946326984
 31
0.0
1001
AUSTER_ANSICHT
1002
{
1000
Det03
1002
}
1001
AUSTER_FOLIE
1002
{
1000
AC_PLUS_KT_FELD
1002
}
  0
LINE
  5
400A
330
20
100
AcDbEntity
  8
10000_Front
  6
Continuous
370
    50
100
AcDbLine
 39
0.7
 10
45.33926452529681
 20
75.21735946326984
 30
0.0
 11
38.08926452529681
 21
75.21735946326984
 31
0.0
1001
AUSTER_ANSICHT
1002
{
1000
Det03
1002
}
1001
AUSTER_FOLIE
1002
{
1000
AC_PLUS_KT_FELD
1002
}
  0
LINE
  5
400B
330
20
100
AcDbEntity
  8
10000_Front
  6
Continuous
 62
     7
370
    50
100
AcDbLine
 39
0.45
 10
80.03928452529681
 20
79.71729946326981
 30
0.0
 11
80.03968452529694
 21
75.21735946326984
 31
0.0
1001
AUSTER_ANSICHT
1002
{
1000
Det03
1002
}
1001
AUSTER_FOLIE
1002
{
1000
AC_PLUS_KT_FELD
1002
}
  0
LINE
  5
400C
330
20
100
AcDbEntity
  8
10000_Front
  6
Continuous
 62
     7
370
    50
100
AcDbLine
 39
0.45
 10
37.68926452529696
 20
75.21735946326984
 30
0.0
 11
37.68926452529696
 21
75.33451946326983
 31
0.0
1001
AUSTER_ANSICHT
1002
{
1000
Det03
1002
}
1001
AUSTER_FOLIE
1002
{
1000
AC_PLUS_KT_FELD
1002
}
  0
LINE
  5
400D
330
20
100
AcDbEntity
  8
10000_Front
  6
Continuous
370
    50
100
AcDbLine
 39
0.7
 10
79.88928452529695
 20
75.21735946326984
 30
0.0
 11
80.03968452529694
 21
75.21735946326984
 31
0.0
1001
AUSTER_ANSICHT
1002
{
1000
Det03
1002
}
1001
AUSTER_FOLIE
1002
{
1000
AC_PLUS_KT_FELD
1002
}
  0
LINE
  5
400E
330
20
100
AcDbEntity
  8
10000_Front
  6
Continuous
370
    50
100
AcDbLine
 39
0.7
 10
37.68926452529696
 20
75.21735946326984
 30
0.0
 11
29.18926452529695
 21
75.21735946326984
 31
0.0
1001
AUSTER_ANSICHT
1002
{
1000
Det03
1002
}
1001
AUSTER_FOLIE
1002
{
1000
AC_PLUS_KT_FELD
1002
}
  0
LINE
  5
400F
330
20
100
AcDbEntity
  8
10000_Front
  6
Continuous
370
    50
100
AcDbLine
 39
0.7
 10
27.68926452529695
 20
76.71735946326982
 30
0.0
 11
27.68926452529695
 21
99.2173494632699
 31
0.0
1001
AUSTER_ANSICHT
1002
{
1000
Det03
1002
}
1001
AUSTER_FOLIE
1002
{
1000
AC_PLUS_KT_FELD
1002
}
  0
LINE
  5
4010
330
20
100
AcDbEntity
  8
10000_Front
  6
Continuous
370
    50
100
AcDbLine
 39
0.7
 10
97.6892845252969
 20
76.71735946326982
 30
0.0
 11
97.6892845252969
 21
99.2173494632699
 31
0.0
1001
AUSTER_ANSICHT
1002
{
1000
Det03
1002
}
1001
AUSTER_FOLIE
1002
{
1000
AC_PLUS_KT_FELD
1002
}
  0
LINE
  5
4011
330
20
100
AcDbEntity
  8
10000_Front
  6
Continuous
370
    50
100
AcDbLine
 39
0.7
 10
96.1892845252969
 20
100.7173494632698
 30
0.0
 11
29.18926452529695
 21
100.7173494632698
 31
0.0
1001
AUSTER_ANSICHT
1002
{
1000
Det03
1002
}
1001
AUSTER_FOLIE
1002
{
1000
AC_PLUS_KT_FELD
1002
}
  0
LINE
  5
4012
330
20
100
AcDbEntity
  8
10000_Front
  6
Continuous
370
    50
100
AcDbLine
 39
0.7
 10
96.1892845252969
 20
83.31735946326977
 30
0.0
 11
29.18926452529695
 21
83.31735946326977
 31
0.0
1001
AUSTER_ANSICHT
1002
{
1000
Det03
1002
}
1001
AUSTER_FOLIE
1002
{
1000
AC_PLUS_KT_FELD
1002
}
  0
LINE
  5
4013
330
20
100
AcDbEntity
  8
10000_Front
  6
Continuous
370
    50
100
AcDbLine
 39
0.7
 10
30.43926452529695
 20
80.11739946326981
 30
0.0
 11
30.43926452529695
 21
83.31739946326988
 31
0.0
1001
AUSTER_ANSICHT
1002
{
1000
Det03
1002
}
1001
AUSTER_FOLIE
1002
{
1000
AC_PLUS_KT_FELD
1002
}
  0
LINE
  5
4014
330
20
100
AcDbEntity
  8
10000_Front
  6
Continuous
370
    50
100
AcDbLine
 39
0.7
 10
46.98926452529689
 20
80.11738946326984
 30
0.0
 11
46.98926452529689
 21
83.31738946326977
 31
0.0
1001
AUSTER_ANSICHT
1002
{
1000
Det03
1002
}
1001
AUSTER_FOLIE
1002
{
1000
AC_PLUS_KT_FELD
1002
}
  0
LINE
  5
4015
330
20
100
AcDbEntity
  8
10000_Front
  6
Continuous
370
    50
100
AcDbLine
 39
0.7
 10
55.88928452529693
 20
80.11738946326984
 30
0.0
 11
55.88928452529693
 21
83.31738946326977
 31
0.0
1001
AUSTER_ANSICHT
1002
{
1000
Det03
1002
}
1001
AUSTER_FOLIE
1002
{
1000
AC_PLUS_KT_FELD
1002
}
  0
LINE
  5
4016
330
20
100
AcDbEntity
  8
10000_Front
  6
Continuous
370
    50
100
AcDbLine
 39
0.7
 10
69.48928452529685
 20
80.11737946326986
 30
0.0
 11
69.48928452529685
 21
83.31737946326978
 31
0.0
1001
AUSTER_ANSICHT
1002
{
1000
Det03
1002
}
1001
AUSTER_FOLIE
1002
{
1000
AC_PLUS_KT_FELD
1002
}
  0
LINE
  5
4017
330
20
100
AcDbEntity
  8
10000_Front
  6
Continuous
370
    50
100
AcDbLine
 39
0.7
 10
78.38928452529692
 20
80.11736946326982
 30
0.0
 11
78.38928452529692
 21
83.31736946326975
 31
0.0
1001
AUSTER_ANSICHT
1002
{
1000
Det03
1002
}
1001
AUSTER_FOLIE
1002
{
1000
AC_PLUS_KT_FELD
1002
}
  0
LINE
  5
4018
330
20
100
AcDbEntity
  8
10000_Front
  6
Continuous
370
    50
100
AcDbLine
 39
0.7
 10
94.9392845252969
 20
80.11735946326982
 30
0.0
 11
94.9392845252969
 21
83.31735946326977
 31
0.0
1001
AUSTER_ANSICHT
1002
{
1000
Det03
1002
}
1001
AUSTER_FOLIE
1002
{
1000
AC_PLUS_KT_FELD
1002
}
  0
LINE
  5
4019
330
20
100
AcDbEntity
  8
10000_Front
  6
Continuous
 62
     7
370
    50
100
AcDbLine
 39
0.45
 10
51.95426452529682
 20
105.7519794632697
 30
0.0
 11
51.95426452529682
 21
105.5716794632697
 31
0.0
1001
AUSTER_ANSICHT
1002
{
1000
Det03
1002
}
1001
AUSTER_FOLIE
1002
{
1000
AC_PLUS_KT_FELD
1002
}
  0
LINE
  5
401A
330
20
100
AcDbEntity
  8
10000_Front
  6
Continuous
 62
     7
370
    50
100
AcDbLine
 39
0.45
 10
51.95426452529682
 20
104.1827794632697
 30
0.0
 11
51.95426452529682
 21
104.3630794632697
 31
0.0
1001
AUSTER_ANSICHT
1002
{
1000
Det03
1002
}
1001
AUSTER_FOLIE
1002
{
1000
AC_PLUS_KT_FELD
1002
}
  0
LINE
  5
401B
330
20
100
AcDbEntity
  8
10000_Front
  6
Continuous
 62
     7
370
    50
100
AcDbLine
 39
0.45
 10
50.92426452529685
 20
105.7519794632697
 30
0.0
 11
50.92426452529685
 21
105.5716794632697
 31
0.0
1001
AUSTER_ANSICHT
1002
{
1000
Det03
1002
}
1001
AUSTER_FOLIE
1002
{
1000
AC_PLUS_KT_FELD
1002
}
  0
LINE
  5
401C
330
20
100
AcDbEntity
  8
10000_Front
  6
Continuous
 62
     7
370
    50
100
AcDbLine
 39
0.45
 10
50.92426452529685
 20
104.1827794632697
 30
0.0
 11
50.92426452529685
 21
104.3630794632697
 31
0.0
1001
AUSTER_ANSICHT
1002
{
1000
Det03
1002
}
1001
AUSTER_FOLIE
1002
{
1000
AC_PLUS_KT_FELD
1002
}
  0
LINE
  5
401D
330
20
100
AcDbEntity
  8
10000_Front
  6
Continuous
 62
     7
370
    50
100
AcDbLine
 39
0.45
 10
51.95426452529682
 20
105.7519794632697
 30
0.0
 11
51.95426452529682
 21
106.7442794632698
 31
0.0
1001
AUSTER_ANSICHT
1002
{
1000
Det03
1002
}
1001
AUSTER_FOLIE
1002
{
1000
AC_PLUS_KT_FELD
1002
}
  0
LINE
  5
401E
330
20
100
AcDbEntity
  8
10000_Front
  6
Continuous
 62
     7
370
    50
100
AcDbLine
 39
0.45
 10
50.92426452529685
 20
106.7442794632698
 30
0.0
 11
50.92426452529685
 21
105.7519794632697
 31
0.0
1001
AUSTER_ANSICHT
1002
{
1000
Det03
1002
}
1001
AUSTER_FOLIE
1002
{
1000
AC_PLUS_KT_FELD
1002
}
  0
LINE
  5
401F
330
20
100
AcDbEntity
  8
10000_Front
  6
Continuous
 62
     7
370
    50
100
AcDbLine
 39
0.45
 10
50.92426452529685
 20
104.1827794632697
 30
0.0
 11
50.92426452529685
 21
103.1904794632697
 31
0.0
1001
AUSTER_ANSICHT
1002
{
1000
Det03
1002
}
1001
AUSTER_FOLIE
1002
{
1000
AC_PLUS_KT_FELD
1002
}
  0
LINE
  5
4020
330
20
100
AcDbEntity
  8
10000_Front
  6
Continuous
 62
     7
370
    50
100
AcDbLine
 39
0.45
 10
51.95426452529682
 20
103.1904794632697
 30
0.0
 11
51.95426452529682
 21
104.1827794632697
 31
0.0
1001
AUSTER_ANSICHT
1002
{
1000
Det03
1002
}
1001
AUSTER_FOLIE
1002
{
1000
AC_PLUS_KT_FELD
1002
}
  0
LINE
  5
4021
330
20
100
AcDbEntity
  8
10000_Front
  6
Continuous
 62
     7
370
    50
100
AcDbLine
 39
0.45
 10
51.95426452529682
 20
104.3630794632697
 30
0.0
 11
54.22498452529679
 21
104.3630794632697
 31
0.0
1001
AUSTER_ANSICHT
1002
{
1000
Det03
1002
}
1001
AUSTER_FOLIE
1002
{
1000
AC_PLUS_KT_FELD
1002
}
  0
LINE
  5
4022
330
20
100
AcDbEntity
  8
10000_Front
  6
Continuous
 62
     7
370
    50
100
AcDbLine
 39
0.45
 10
48.65356452529681
 20
104.3630794632697
 30
0.0
 11
50.92426452529685
 21
104.3630794632697
 31
0.0
1001
AUSTER_ANSICHT
1002
{
1000
Det03
1002
}
1001
AUSTER_FOLIE
1002
{
1000
AC_PLUS_KT_FELD
1002
}
  0
LINE
  5
4023
330
20
100
AcDbEntity
  8
10000_Front
  6
Continuous
 62
     7
370
    50
100
AcDbLine
 39
0.45
 10
50.92426452529685
 20
105.5716794632697
 30
0.0
 11
48.65356452529681
 21
105.5716794632697
 31
0.0
1001
AUSTER_ANSICHT
1002
{
1000
Det03
1002
}
1001
AUSTER_FOLIE
1002
{
1000
AC_PLUS_KT_FELD
1002
}
  0
LINE
  5
4024
330
20
100
AcDbEntity
  8
10000_Front
  6
Continuous
 62
     7
370
    50
100
AcDbLine
 39
0.45
 10
54.22498452529679
 20
105.5716794632697
 30
0.0
 11
51.95426452529682
 21
105.5716794632697
 31
0.0
1001
AUSTER_ANSICHT
1002
{
1000
Det03
1002
}
1001
AUSTER_FOLIE
1002
{
1000
AC_PLUS_KT_FELD
1002
}
  0
LINE
  5
4025
330
20
100
AcDbEntity
  8
10000_Front
  6
Continuous
 62
     7
370
    50
100
AcDbLine
 39
0.45
 10
88.20428452529688
 20
78.68278946326984
 30
0.0
 11
88.20428452529688
 21
78.86305946326991
 31
0.0
1001
AUSTER_ANSICHT
1002
{
1000
Det03
1002
}
1001
AUSTER_FOLIE
1002
{
1000
AC_PLUS_KT_FELD
1002
}
  0
LINE
  5
4026
330
20
100
AcDbEntity
  8
10000_Front
  6
Continuous
 62
     7
370
    50
100
AcDbLine
 39
0.45
 10
87.1742845252969
 20
78.68278946326984
 30
0.0
 11
87.1742845252969
 21
78.86305946326991
 31
0.0
1001
AUSTER_ANSICHT
1002
{
1000
Det03
1002
}
1001
AUSTER_FOLIE
1002
{
1000
AC_PLUS_KT_FELD
1002
}
  0
LINE
  5
4027
330
20
100
AcDbEntity
  8
10000_Front
  6
Continuous
 62
     7
370
    50
100
AcDbLine
 39
0.45
 10
87.1742845252969
 20
78.68278946326984
 30
0.0
 11
87.1742845252969
 21
77.69048946326984
 31
0.0
1001
AUSTER_ANSICHT
1002
{
1000
Det03
1002
}
1001
AUSTER_FOLIE
1002
{
1000
AC_PLUS_KT_FELD
1002
}
  0
LINE
  5
4028
330
20
100
AcDbEntity
  8
10000_Front
  6
Continuous
 62
     7
370
    50
100
AcDbLine
 39
0.45
 10
88.20428452529688
 20
77.69048946326984
 30
0.0
 11
88.20428452529688
 21
78.68278946326984
 31
0.0
1001
AUSTER_ANSICHT
1002
{
1000
Det03
1002
}
1001
AUSTER_FOLIE
1002
{
1000
AC_PLUS_KT_FELD
1002
}
  0
LINE
  5
4029
330
20
100
AcDbEntity
  8
10000_Front
  6
Continuous
 62
     7
370
    50
100
AcDbLine
 39
0.45
 10
88.20428452529688
 20
78.86305946326991
 30
0.0
 11
90.4749845252968
 21
78.86305946326991
 31
0.0
1001
AUSTER_ANSICHT
1002
{
1000
Det03
1002
}
1001
AUSTER_FOLIE
1002
{
1000
AC_PLUS_KT_FELD
1002
}
  0
LINE
  5
402A
330
20
100
AcDbEntity
  8
10000_Front
  6
Continuous
 62
     7
370
    50
100
AcDbLine
 39
0.45
 10
84.90358452529688
 20
78.86305946326991
 30
0.0
 11
87.1742845252969
 21
78.86305946326991
 31
0.0
1001
AUSTER_ANSICHT
1002
{
1000
Det03
1002
}
1001
AUSTER_FOLIE
1002
{
1000
AC_PLUS_KT_FELD
1002
}
  0
LINE
  5
402B
330
20
100
AcDbEntity
  8
10000_Front
  6
Continuous
 62
     7
370
    50
100
AcDbLine
 39
0.45
 10
51.95431452529692
 20
81.90678946326977
 30
0.0
 11
51.95431452529692
 21
81.72651946326977
 31
0.0
1001
AUSTER_ANSICHT
1002
{
1000
Det03
1002
}
1001
AUSTER_FOLIE
1002
{
1000
AC_PLUS_KT_FELD
1002
}
  0
LINE
  5
402C
330
20
100
AcDbEntity
  8
10000_Front
  6
Continuous
 62
     7
370
    50
100
AcDbLine
 39
0.45
 10
51.95431452529692
 20
80.33763946326983
 30
0.0
 11
51.95431452529692
 21
80.51790946326992
 31
0.0
1001
AUSTER_ANSICHT
1002
{
1000
Det03
1002
}
1001
AUSTER_FOLIE
1002
{
1000
AC_PLUS_KT_FELD
1002
}
  0
LINE
  5
402D
330
20
100
AcDbEntity
  8
10000_Front
  6
Continuous
 62
     7
370
    50
100
AcDbLine
 39
0.45
 10
50.92431452529694
 20
81.90678946326977
 30
0.0
 11
50.92431452529694
 21
81.72651946326977
 31
0.0
1001
AUSTER_ANSICHT
1002
{
1000
Det03
1002
}
1001
AUSTER_FOLIE
1002
{
1000
AC_PLUS_KT_FELD
1002
}
  0
LINE
  5
402E
330
20
100
AcDbEntity
  8
10000_Front
  6
Continuous
 62
     7
370
    50
100
AcDbLine
 39
0.45
 10
50.92431452529694
 20
80.33763946326983
 30
0.0
 11
50.92431452529694
 21
80.51790946326992
 31
0.0
1001
AUSTER_ANSICHT
1002
{
1000
Det03
1002
}
1001
AUSTER_FOLIE
1002
{
1000
AC_PLUS_KT_FELD
1002
}
  0
LINE
  5
402F
330
20
100
AcDbEntity
  8
10000_Front
  6
Continuous
 62
     7
370
    50
100
AcDbLine
 39
0.45
 10
51.95431452529692
 20
81.90678946326977
 30
0.0
 11
51.95431452529692
 21
82.89907946326977
 31
0.0
1001
AUSTER_ANSICHT
1002
{
1000
Det03
1002
}
1001
AUSTER_FOLIE
1002
{
1000
AC_PLUS_KT_FELD
1002
}
  0
LINE
  5
4030
330
20
100
AcDbEntity
  8
10000_Front
  6
Continuous
 62
     7
370
    50
100
AcDbLine
 39
0.45
 10
50.92431452529694
 20
82.89907946326977
 30
0.0
 11
50.92431452529694
 21
81.90678946326977
 31
0.0
1001
AUSTER_ANSICHT
1002
{
1000
Det03
1002
}
1001
AUSTER_FOLIE
1002
{
1000
AC_PLUS_KT_FELD
1002
}
  0
LINE
  5
4031
330
20
100
AcDbEntity
  8
10000_Front
  6
Continuous
 62
     7
370
    50
100
AcDbLine
 39
0.45
 10
50.92431452529694
 20
80.33763946326983
 30
0.0
 11
50.92431452529694
 21
79.34533946326983
 31
0.0
1001
AUSTER_ANSICHT
1002
{
1000
Det03
1002
}
1001
AUSTER_FOLIE
1002
{
1000
AC_PLUS_KT_FELD
1002
}
  0
LINE
  5
4032
330
20
100
AcDbEntity
  8
10000_Front
  6
Continuous
 62
     7
370
    50
100
AcDbLine
 39
0.45
 10
51.95431452529692
 20
79.34533946326983
 30
0.0
 11
51.95431452529692
 21
80.33763946326983
 31
0.0
1001
AUSTER_ANSICHT
1002
{
1000
Det03
1002
}
1001
AUSTER_FOLIE
1002
{
1000
AC_PLUS_KT_FELD
1002
}
  0
LINE
  5
4033
330
20
100
AcDbEntity
  8
10000_Front
  6
Continuous
 62
     7
370
    50
100
AcDbLine
 39
0.45
 10
51.95431452529692
 20
80.51790946326992
 30
0.0
 11
54.22498452529679
 21
80.51790946326992
 31
0.0
1001
AUSTER_ANSICHT
1002
{
1000
Det03
1002
}
1001
AUSTER_FOLIE
1002
{
1000
AC_PLUS_KT_FELD
1002
}
  0
LINE
  5
4034
330
20
100
AcDbEntity
  8
10000_Front
  6
Continuous
 62
     7
370
    50
100
AcDbLine
 39
0.45
 10
48.65361452529691
 20
80.51790946326992
 30
0.0
 11
50.92431452529694
 21
80.51790946326992
 31
0.0
1001
AUSTER_ANSICHT
1002
{
1000
Det03
1002
}
1001
AUSTER_FOLIE
1002
{
1000
AC_PLUS_KT_FELD
1002
}
  0
LINE
  5
4035
330
20
100
AcDbEntity
  8
10000_Front
  6
Continuous
 62
     7
370
    50
100
AcDbLine
 39
0.45
 10
50.92431452529694
 20
81.72651946326977
 30
0.0
 11
48.65361452529691
 21
81.72651946326977
 31
0.0
1001
AUSTER_ANSICHT
1002
{
1000
Det03
1002
}
1001
AUSTER_FOLIE
1002
{
1000
AC_PLUS_KT_FELD
1002
}
  0
LINE
  5
4036
330
20
100
AcDbEntity
  8
10000_Front
  6
Continuous
 62
     7
370
    50
100
AcDbLine
 39
0.45
 10
54.22498452529679
 20
81.72651946326977
 30
0.0
 11
51.95431452529692
 21
81.72651946326977
 31
0.0
1001
AUSTER_ANSICHT
1002
{
1000
Det03
1002
}
1001
AUSTER_FOLIE
1002
{
1000
AC_PLUS_KT_FELD
1002
}
  0
LINE
  5
4037
330
20
100
AcDbEntity
  8
10000_Front
  6
Continuous
 62
     7
370
    50
100
AcDbLine
 39
0.45
 10
74.45448452529695
 20
81.90678946326977
 30
0.0
 11
74.45448452529695
 21
81.72651946326977
 31
0.0
1001
AUSTER_ANSICHT
1002
{
1000
Det03
1002
}
1001
AUSTER_FOLIE
1002
{
1000
AC_PLUS_KT_FELD
1002
}
  0
LINE
  5
4038
330
20
100
AcDbEntity
  8
10000_Front
  6
Continuous
 62
     7
370
    50
100
AcDbLine
 39
0.45
 10
74.45448452529695
 20
80.33763946326983
 30
0.0
 11
74.45448452529695
 21
80.51790946326992
 31
0.0
1001
AUSTER_ANSICHT
1002
{
1000
Det03
1002
}
1001
AUSTER_FOLIE
1002
{
1000
AC_PLUS_KT_FELD
1002
}
  0
LINE
  5
4039
330
20
100
AcDbEntity
  8
10000_Front
  6
Continuous
 62
     7
370
    50
100
AcDbLine
 39
0.45
 10
73.42448452529686
 20
81.90678946326977
 30
0.0
 11
73.42448452529686
 21
81.72651946326977
 31
0.0
1001
AUSTER_ANSICHT
1002
{
1000
Det03
1002
}
1001
AUSTER_FOLIE
1002
{
1000
AC_PLUS_KT_FELD
1002
}
  0
LINE
  5
403A
330
20
100
AcDbEntity
  8
10000_Front
  6
Continuous
 62
     7
370
    50
100
AcDbLine
 39
0.45
 10
73.42448452529686
 20
80.33763946326983
 30
0.0
 11
73.42448452529686
 21
80.51790946326992
 31
0.0
1001
AUSTER_ANSICHT
1002
{
1000
Det03
1002
}
1001
AUSTER_FOLIE
1002
{
1000
AC_PLUS_KT_FELD
1002
}
  0
LINE
  5
403B
330
20
100
AcDbEntity
  8
10000_Front
  6
Continuous
 62
     7
370
    50
100
AcDbLine
 39
0.45
 10
74.45448452529695
 20
81.90678946326977
 30
0.0
 11
74.45448452529695
 21
82.89907946326977
 31
0.0
1001
AUSTER_ANSICHT
1002
{
1000
Det03
1002
}
1001
AUSTER_FOLIE
1002
{
1000
AC_PLUS_KT_FELD
1002
}
  0
LINE
  5
403C
330
20
100
AcDbEntity
  8
10000_Front
  6
Continuous
 62
     7
370
    50
100
AcDbLine
 39
0.45
 10
73.42448452529686
 20
82.89907946326977
 30
0.0
 11
73.42448452529686
 21
81.90678946326977
 31
0.0
1001
AUSTER_ANSICHT
1002
{
1000
Det03
1002
}
1001
AUSTER_FOLIE
1002
{
1000
AC_PLUS_KT_FELD
1002
}
  0
LINE
  5
403D
330
20
100
AcDbEntity
  8
10000_Front
  6
Continuous
 62
     7
370
    50
100
AcDbLine
 39
0.45
 10
73.42448452529686
 20
80.33763946326983
 30
0.0
 11
73.42448452529686
 21
79.34533946326983
 31
0.0
1001
AUSTER_ANSICHT
1002
{
1000
Det03
1002
}
1001
AUSTER_FOLIE
1002
{
1000
AC_PLUS_KT_FELD
1002
}
  0
LINE
  5
403E
330
20
100
AcDbEntity
  8
10000_Front
  6
Continuous
 62
     7
370
    50
100
AcDbLine
 39
0.45
 10
74.45448452529695
 20
79.34533946326983
 30
0.0
 11
74.45448452529695
 21
80.33763946326983
 31
0.0
1001
AUSTER_ANSICHT
1002
{
1000
Det03
1002
}
1001
AUSTER_FOLIE
1002
{
1000
AC_PLUS_KT_FELD
1002
}
  0
LINE
  5
403F
330
20
100
AcDbEntity
  8
10000_Front
  6
Continuous
 62
     7
370
    50
100
AcDbLine
 39
0.45
 10
74.45448452529695
 20
80.51790946326992
 30
0.0
 11
76.72518452529685
 21
80.51790946326992
 31
0.0
1001
AUSTER_ANSICHT
1002
{
1000
Det03
1002
}
1001
AUSTER_FOLIE
1002
{
1000
AC_PLUS_KT_FELD
1002
}
  0
LINE
  5
4040
330
20
100
AcDbEntity
  8
10000_Front
  6
Continuous
 62
     7
370
    50
100
AcDbLine
 39
0.45
 10
71.15378452529694
 20
80.51790946326992
 30
0.0
 11
73.42448452529686
 21
80.51790946326992
 31
0.0
1001
AUSTER_ANSICHT
1002
{
1000
Det03
1002
}
1001
AUSTER_FOLIE
1002
{
1000
AC_PLUS_KT_FELD
1002
}
  0
LINE
  5
4041
330
20
100
AcDbEntity
  8
10000_Front
  6
Continuous
 62
     7
370
    50
100
AcDbLine
 39
0.45
 10
73.42448452529686
 20
81.72651946326977
 30
0.0
 11
71.15378452529694
 21
81.72651946326977
 31
0.0
1001
AUSTER_ANSICHT
1002
{
1000
Det03
1002
}
1001
AUSTER_FOLIE
1002
{
1000
AC_PLUS_KT_FELD
1002
}
  0
LINE
  5
4042
330
20
100
AcDbEntity
  8
10000_Front
  6
Continuous
 62
     7
370
    50
100
AcDbLine
 39
0.45
 10
76.72518452529685
 20
81.72651946326977
 30
0.0
 11
74.45448452529695
 21
81.72651946326977
 31
0.0
1001
AUSTER_ANSICHT
1002
{
1000
Det03
1002
}
1001
AUSTER_FOLIE
1002
{
1000
AC_PLUS_KT_FELD
1002
}
  0
LINE
  5
4043
330
20
100
AcDbEntity
  8
10000_Front
  6
Continuous
 62
     7
370
    50
100
AcDbLine
 39
0.45
 10
37.87986452529685
 20
93.01735946326976
 30
0.0
 11
39.0345645252969
 21
95.01735946326977
 31
0.0
1001
AUSTER_ANSICHT
1002
{
1000
Det03
1002
}
1001
AUSTER_FOLIE
1002
{
1000
AC_PLUS_KT_FELD
1002
}
  0
LINE
  5
4044
330
20
100
AcDbEntity
  8
10000_Front
  6
Continuous
 62
     7
370
    50
100
AcDbLine
 39
0.45
 10
39.0345645252969
 20
95.01735946326977
 30
0.0
 11
41.34396452529688
 21
95.01735946326977
 31
0.0
1001
AUSTER_ANSICHT
1002
{
1000
Det03
1002
}
1001
AUSTER_FOLIE
1002
{
1000
AC_PLUS_KT_FELD
1002
}
  0
LINE
  5
4045
330
20
100
AcDbEntity
  8
10000_Front
  6
Continuous
 62
     7
370
    50
100
AcDbLine
 39
0.45
 10
41.34396452529688
 20
95.01735946326977
 30
0.0
 11
42.49866452529682
 21
93.01735946326976
 31
0.0
1001
AUSTER_ANSICHT
1002
{
1000
Det03
1002
}
1001
AUSTER_FOLIE
1002
{
1000
AC_PLUS_KT_FELD
1002
}
  0
LINE
  5
4046
330
20
100
AcDbEntity
  8
10000_Front
  6
Continuous
 62
     7
370
    50
100
AcDbLine
 39
0.45
 10
42.49866452529682
 20
93.01735946326976
 30
0.0
 11
41.38899452529686
 21
91.09535946326984
 31
0.0
1001
AUSTER_ANSICHT
1002
{
1000
Det03
1002
}
1001
AUSTER_FOLIE
1002
{
1000
AC_PLUS_KT_FELD
1002
}
  0
LINE
  5
4047
330
20
100
AcDbEntity
  8
10000_Front
  6
Continuous
 62
     7
370
    50
100
AcDbLine
 39
0.45
 10
41.12257452529685
 20
91.01735946326977
 30
0.0
 11
39.15511452529688
 21
91.01735946326977
 31
0.0
1001
AUSTER_ANSICHT
1002
{
1000
Det03
1002
}
1001
AUSTER_FOLIE
1002
{
1000
AC_PLUS_KT_FELD
1002
}
  0
LINE
  5
4048
330
20
100
AcDbEntity
  8
10000_Front
  6
Continuous
 62
     7
370
    50
100
AcDbLine
 39
0.45
 10
38.98138452529691
 20
91.10945946326976
 30
0.0
 11
37.87986452529685
 21
93.01735946326976
 31
0.0
1001
AUSTER_ANSICHT
1002
{
1000
Det03
1002
}
1001
AUSTER_FOLIE
1002
{
1000
AC_PLUS_KT_FELD
1002
}
  0
LINE
  5
4049
330
20
100
AcDbEntity
  8
10000_Front
  6
Continuous
 62
     7
370
    50
100
AcDbLine
 39
0.45
 10
82.87988452529694
 20
93.01735946326976
 30
0.0
 11
84.03458452529683
 21
95.01735946326977
 31
0.0
1001
AUSTER_ANSICHT
1002
{
1000
Det03
1002
}
1001
AUSTER_FOLIE
1002
{
1000
AC_PLUS_KT_FELD
1002
}
  0
LINE
  5
404A
330
20
100
AcDbEntity
  8
10000_Front
  6
Continuous
 62
     7
370
    50
100
AcDbLine
 39
0.45
 10
84.03458452529683
 20
95.01735946326977
 30
0.0
 11
86.34398452529685
 21
95.01735946326977
 31
0.0
1001
AUSTER_ANSICHT
1002
{
1000
Det03
1002
}
1001
AUSTER_FOLIE
1002
{
1000
AC_PLUS_KT_FELD
1002
}
  0
LINE
  5
404B
330
20
100
AcDbEntity
  8
10000_Front
  6
Continuous
 62
     7
370
    50
100
AcDbLine
 39
0.45
 10
86.34398452529685
 20
95.01735946326977
 30
0.0
 11
87.49868452529687
 21
93.01735946326976
 31
0.0
1001
AUSTER_ANSICHT
1002
{
1000
Det03
1002
}
1001
AUSTER_FOLIE
1002
{
1000
AC_PLUS_KT_FELD
1002
}
  0
LINE
  5
404C
330
20
100
AcDbEntity
  8
10000_Front
  6
Continuous
 62
     7
370
    50
100
AcDbLine
 39
0.45
 10
87.49868452529687
 20
93.01735946326976
 30
0.0
 11
86.38898452529689
 21
91.09535946326984
 31
0.0
1001
AUSTER_ANSICHT
1002
{
1000
Det03
1002
}
1001
AUSTER_FOLIE
1002
{
1000
AC_PLUS_KT_FELD
1002
}
  0
LINE
  5
404D
330
20
100
AcDbEntity
  8
10000_Front
  6
Continuous
 62
     7
370
    50
100
AcDbLine
 39
0.45
 10
86.12258452529681
 20
91.01735946326977
 30
0.0
 11
84.15508452529683
 21
91.01735946326977
 31
0.0
1001
AUSTER_ANSICHT
1002
{
1000
Det03
1002
}
1001
AUSTER_FOLIE
1002
{
1000
AC_PLUS_KT_FELD
1002
}
  0
LINE
  5
404E
330
20
100
AcDbEntity
  8
10000_Front
  6
Continuous
 62
     7
370
    50
100
AcDbLine
 39
0.45
 10
83.98138452529691
 20
91.10945946326976
 30
0.0
 11
82.87988452529694
 21
93.01735946326976
 31
0.0
1001
AUSTER_ANSICHT
1002
{
1000
Det03
1002
}
1001
AUSTER_FOLIE
1002
{
1000
AC_PLUS_KT_FELD
1002
}
  0
LINE
  5
404F
330
20
100
AcDbEntity
  8
10000_Front
  6
Continuous
 62
     7
370
    50
100
AcDbLine
 39
0.45
 10
60.37988452529679
 20
93.01735946326976
 30
0.0
 11
61.53458452529685
 21
95.01735946326977
 31
0.0
1001
AUSTER_ANSICHT
1002
{
1000
Det03
1002
}
1001
AUSTER_FOLIE
1002
{
1000
AC_PLUS_KT_FELD
1002
}
  0
LINE
  5
4050
330
20
100
AcDbEntity
  8
10000_Front
  6
Continuous
 62
     7
370
    50
100
AcDbLine
 39
0.45
 10
61.53458452529685
 20
95.01735946326977
 30
0.0
 11
63.84398452529694
 21
95.01735946326977
 31
0.0
1001
AUSTER_ANSICHT
1002
{
1000
Det03
1002
}
1001
AUSTER_FOLIE
1002
{
1000
AC_PLUS_KT_FELD
1002
}
  0
LINE
  5
4051
330
20
100
AcDbEntity
  8
10000_Front
  6
Continuous
 62
     7
370
    50
100
AcDbLine
 39
0.45
 10
63.84398452529694
 20
95.01735946326977
 30
0.0
 11
64.99868452529688
 21
93.01735946326976
 31
0.0
1001
AUSTER_ANSICHT
1002
{
1000
Det03
1002
}
1001
AUSTER_FOLIE
1002
{
1000
AC_PLUS_KT_FELD
1002
}
  0
LINE
  5
4052
330
20
100
AcDbEntity
  8
10000_Front
  6
Continuous
 62
     7
370
    50
100
AcDbLine
 39
0.45
 10
64.99868452529688
 20
93.01735946326976
 30
0.0
 11
63.88898452529691
 21
91.09535946326984
 31
0.0
1001
AUSTER_ANSICHT
1002
{
1000
Det03
1002
}
1001
AUSTER_FOLIE
1002
{
1000
AC_PLUS_KT_FELD
1002
}
  0
LINE
  5
4053
330
20
100
AcDbEntity
  8
10000_Front
  6
Continuous
 62
     7
370
    50
100
AcDbLine
 39
0.45
 10
63.62258452529681
 20
91.01735946326977
 30
0.0
 11
61.65508452529684
 21
91.01735946326977
 31
0.0
1001
AUSTER_ANSICHT
1002
{
1000
Det03
1002
}
1001
AUSTER_FOLIE
1002
{
1000
AC_PLUS_KT_FELD
1002
}
  0
LINE
  5
4054
330
20
100
AcDbEntity
  8
10000_Front
  6
Continuous
 62
     7
370
    50
100
AcDbLine
 39
0.45
 10
61.48138452529689
 20
91.10945946326976
 30
0.0
 11
60.37988452529679
 21
93.01735946326976
 31
0.0
1001
AUSTER_ANSICHT
1002
{
1000
Det03
1002
}
1001
AUSTER_FOLIE
1002
{
1000
AC_PLUS_KT_FELD
1002
}
  0
LINE
  5
4055
330
20
100
AcDbEntity
  8
10000_Front
  6
Continuous
 62
     7
370
    50
100
AcDbLine
 39
0.45
 10
83.58928452529687
 20
76.71735946326982
 30
0.0
 11
83.58928452529687
 21
79.71735946326984
 31
0.0
1001
AUSTER_ANSICHT
1002
{
1000
Det03
1002
}
1001
AUSTER_FOLIE
1002
{
1000
AC_PLUS_KT_FELD
1002
}
  0
LINE
  5
4056
330
20
100
AcDbEntity
  8
10000_Front
  6
Continuous
370
    50
100
AcDbLine
 39
0.7
 10
27.68926452529695
 20
102.2173794632697
 30
0.0
 11
27.68926452529695
 21
99.2173494632699
 31
0.0
1001
AUSTER_ANSICHT
1002
{
1000
Det03
1002
}
1001
AUSTER_FOLIE
1002
{
1000
AC_PLUS_KT_FELD
1002
}
  0
LINE
  5
4057
330
20
100
AcDbEntity
  8
10000_Front
  6
Continuous
370
    50
100
AcDbLine
 39
0.7
 10
97.6892845252969
 20
102.2173794632697
 30
0.0
 11
97.6892845252969
 21
99.2173494632699
 31
0.0
1001
AUSTER_ANSICHT
1002
{
1000
Det03
1002
}
1001
AUSTER_FOLIE
1002
{
1000
AC_PLUS_KT_FELD
1002
}
  0
LINE
  5
409C
330
20
100
AcDbEntity
  8
10000_Front
  6
Continuous
370
    50
100
AcDbLine
 39
0.7
 10
97.6892845252969
 20
188.2173794632699
 30
0.0
 11
97.6892845252969
 21
102.2173794632697
 31
0.0
1001
AUSTER_ANSICHT
1002
{
1000
Det03
1002
}
1001
AUSTER_FOLIE
1002
{
1000
AC_PLUS_KT_FELD
1002
}
  0
LINE
  5
409D
330
20
100
AcDbEntity
  8
10000_Front
  6
Continuous
370
    50
100
AcDbLine
 39
0.7
 10
27.68926452529695
 20
102.2173794632697
 30
0.0
 11
27.68926452529695
 21
188.2173794632699
 31
0.0
1001
AUSTER_ANSICHT
1002
{
1000
Det03
1002
}
1001
AUSTER_FOLIE
1002
{
1000
AC_PLUS_KT_FELD
1002
}
  0
DIMENSION
  5
41B5
330
20
100
AcDbEntity
  8
10100_Front_Dim
370
    13
100
AcDbDimension
  2
*D4
 10
97.6892845252969
 20
54.34287682380726
 30
0.0
 11
62.68927452529692
 21
54.34287682380726
 31
0.0
 70
    32
 71
     5
 42
70.00001999999994
  3
H035
100
AcDbAlignedDimension
 13
27.68926452529694
 23
76.71735946326982
 33
0.0
 14
97.6892845252969
 24
76.71735946326982
 34
0.0
100
AcDbRotatedDimension
1001
ACAD
1000
DSTYLE
1002
{
1070
    40
1040
1.0
1002
}
  0
DIMENSION
  5
41C3
330
20
100
AcDbEntity
  8
10100_Front_Dim
370
    13
100
AcDbDimension
  2
*D5
 10
73.93948452529683
 20
65.09416998856385
 30
0.0
 11
62.68939952529684
 21
65.09416998856385
 31
0.0
 70
    32
 71
     5
 42
22.50017000000003
  3
H035
100
AcDbAlignedDimension
 13
51.43931452529682
 23
78.02220946326984
 33
0.0
 14
73.93948452529683
 24
78.02220946326984
 34
0.0
100
AcDbRotatedDimension
1001
ACAD
1000
DSTYLE
1002
{
1070
   271
1070
     1
1070
    40
1040
1.0
1002
}
  0
DIMENSION
  5
41D1
330
20
100
AcDbEntity
  8
10100_Front_Dim
370
    13
100
AcDbDimension
  2
*D6
 10
62.68928452529689
 20
223.3454696087766
 30
0.0
 11
51.43927452529692
 21
223.3454696087766
 31
0.0
 70
    32
 71
     5
 42
22.50001999999993
  3
H035
100
AcDbAlignedDimension
 13
40.18926452529696
 23
200.4173794632698
 33
0.0
 14
62.68928452529689
 24
200.4173794632698
 34
0.0
100
AcDbRotatedDimension
1001
ACAD
1000
DSTYLE
1002
{
1070
   140
1040
4.0
1070
    41
1040
2.0
1070
   271
1070
     1
1070
    40
1040
1.0
1002
}
  0
DIMENSION
  5
41DF
330
20
100
AcDbEntity
  8
10100_Front_Dim
370
    13
100
AcDbDimension
  2
*D7
 10
85.1892845252969
 20
223.3454696087766
 30
0.0
 11
73.93928452529689
 21
223.3454696087766
 31
0.0
 70
    32
 71
     5
 42
22.50000000000001
  3
H035
100
AcDbAlignedDimension
 13
62.68928452529689
 23
200.4173794632698
 33
0.0
 14
85.1892845252969
 24
200.4173794632698
 34
0.0
100
AcDbRotatedDimension
1001
ACAD
1000
DSTYLE
1002
{
1070
   140
1040
4.0
1070
    41
1040
2.0
1070
   271
1070
     1
1070
    40
1040
1.0
1002
}
  0
DIMENSION
  5
4201
330
20
100
AcDbEntity
  8
10100_Front_Dim
370
    13
100
AcDbDimension
  2
*D8
 10
104.7672673858368
 20
93.01735946326976
 30
0.0
 11
104.7672673858368
 21
145.2173694632698
 31
0.0
 70
    32
 71
     5
 42
104.4000200000001
  3
H035
100
AcDbAlignedDimension
 13
88.18928452529688
 23
197.4173794632698
 33
0.0
 14
88.18928452529688
 24
93.01735946326976
 34
0.0
 50
90.0
100
AcDbRotatedDimension
1001
ACAD
1000
DSTYLE
1002
{
1070
    40
1040
1.0
1002
}
  0
DIMENSION
  5
4211
330
20
100
AcDbEntity
  8
10100_Front_Dim
370
    13
100
AcDbDimension
  2
*D9
 10
112.2024573610064
 20
75.21735946326984
 30
0.0
 11
112.2024573610064
 21
145.2173694632699
 31
0.0
 70
    32
 71
     5
 42
140.00002
  3
H035
100
AcDbAlignedDimension
 13
96.1892845252969
 23
215.2173794632699
 33
0.0
 14
96.1892845252969
 24
75.21735946326984
 34
0.0
 50
90.0
100
AcDbRotatedDimension
1001
ACAD
1000
DSTYLE
1002
{
1070
    40
1040
1.0
1002
}
  0
DIMENSION
  5
4CDC
330
20
100
AcDbEntity
  8
11100_Left_Dim
370
    13
100
AcDbDimension
  2
*D15
 10
149.304672868017
 20
65.41136510456414
 30
0.0
 11
152.904672868017
 21
65.41136510456414
 31
0.0
 70
    32
 71
     5
 42
7.199999999999986
  3
H035
100
AcDbAlignedDimension
 13
156.504672868017
 23
107.0641858626111
 33
0.0
 14
149.304672868017
 24
75.26416586261117
 34
0.0
100
AcDbRotatedDimension
1001
ACAD
1000
DSTYLE
1002
{
1070
    40
1040
1.0
1002
}
  0
DIMENSION
  5
4CDD
330
20
100
AcDbEntity
  8
11100_Left_Dim
370
    13
100
AcDbDimension
  2
*D14
 10
157.304672868017
 20
54.38968322314853
 30
0.0
 11
153.3046728680171
 21
54.38968322314853
 31
0.0
 70
    32
 71
     5
 42
8.0
  3
H035
100
AcDbAlignedDimension
 13
149.304672868017
 23
75.26416586261117
 33
0.0
 14
157.304672868017
 24
75.26416586261117
 34
0.0
100
AcDbRotatedDimension
1001
ACAD
1000
DSTYLE
1002
{
1070
    40
1040
1.0
1002
}
  0
DIMENSION
  5
4CDE
330
20
100
AcDbEntity
  8
11100_Left_Dim
370
    13
100
AcDbDimension
  2
*D13
 10
213.604672868017
 20
223.3922760081179
 30
0.0
 11
184.054672868017
 21
223.3922760081179
 31
0.0
 70
    32
 71
     5
 42
59.1
  3
H035
100
AcDbAlignedDimension
 13
154.504672868017
 23
162.7641858626111
 33
0.0
 14
213.604672868017
 24
215.2641858626112
 34
0.0
100
AcDbRotatedDimension
1001
ACAD
1000
DSTYLE
1002
{
1070
    40
1040
1.0
1002
}
  0
DIMENSION
  5
4CDF
330
20
100
AcDbEntity
  8
11100_Left_Dim
370
    13
100
AcDbDimension
  2
*D12
 10
253.6046728680171
 20
232.007089765979
 30
0.0
 11
204.0546728680171
 21
232.007089765979
 31
0.0
 70
    32
 71
     5
 42
99.1
  3
H035
100
AcDbAlignedDimension
 13
154.504672868017
 23
215.2641858626112
 33
0.0
 14
253.6046728680171
 24
207.1641858626112
 34
0.0
100
AcDbRotatedDimension
1001
ACAD
1000
DSTYLE
1002
{
1070
    40
1040
1.0
1002
}
  0
DIMENSION
  5
4CE0
330
20
100
AcDbEntity
  8
11100_Left_Dim
370
    13
100
AcDbDimension
  2
*D11
 10
301.9046928680172
 20
241.796651297737
 30
0.0
 11
228.2046828680171
 21
241.796651297737
 31
0.0
 70
    32
 71
     5
 42
147.4000200000001
  3
H035
100
AcDbAlignedDimension
 13
154.504672868017
 23
215.2641858626112
 33
0.0
 14
301.9046928680172
 24
145.2641858626111
 34
0.0
100
AcDbRotatedDimension
1001
ACAD
1000
DSTYLE
1002
{
1070
    40
1040
1.0
1002
}
  0
DIMENSION
  5
4CE1
330
20
100
AcDbEntity
  8
11100_Left_Dim
370
    13
100
AcDbDimension
  2
*D10
 10
149.304672868017
 20
223.3922760081179
 30
0.0
 11
137.6380062013504
 21
223.3922760081179
 31
0.0
 70
    32
 71
     5
 42
5.199999999999987
  3
H035
100
AcDbAlignedDimension
 13
154.504672868017
 23
215.2641858626112
 33
0.0
 14
149.304672868017
 24
215.2641858626112
 34
0.0
100
AcDbRotatedDimension
1001
ACAD
1000
DSTYLE
1002
{
1070
    40
1040
1.0
1002
}
  0
LINE
  5
4CE2
330
20
100
AcDbEntity
  8
11000_Left
 62
     7
 48
10.0
370
    50
100
AcDbLine
 39
0.25
 10
129.504672868017
 20
123.2642258626111
 30
0.0
 11
129.504672868017
 21
167.2641858626111
 31
0.0
1001
AUSTER_ANSICHT
1002
{
1000
Det03
1002
}
1001
AUSTER_FOLIE
1002
{
1000
DC_PLUS_KT_FELD
1002
}
  0
ARC
  5
4CE3
330
20
100
AcDbEntity
  8
11000_Left
 62
     7
 48
10.0
370
    50
100
AcDbCircle
 39
0.25
 10
135.504672868017
 20
126.2642258626111
 30
0.0
 40
3.0
100
AcDbArc
 50
180.0
 51
270.0
1001
AUSTER_ANSICHT
1002
{
1000
Det03
1002
}
1001
AUSTER_FOLIE
1002
{
1000
DC_PLUS_KT_FELD
1002
}
  0
LINE
  5
4CE4
330
20
100
AcDbEntity
  8
11000_Left
  6
Continuous
 62
     7
370
    50
100
AcDbLine
 39
0.45
 10
204.854672868017
 20
215.2641858626112
 30
0.0
 11
204.854672868017
 21
75.26416586261117
 31
0.0
1001
AUSTER_ANSICHT
1002
{
1000
Det03
1002
}
1001
AUSTER_FOLIE
1002
{
1000
DC_PLUS_KT_FELD
1002
}
  0
LINE
  5
4CE5
330
20
100
AcDbEntity
  8
11000_Left
  6
Continuous
370
    50
100
AcDbLine
 39
0.7
 10
149.6046728680171
 20
124.8641858626111
 30
0.0
 11
149.6046728680171
 21
126.1641858626111
 31
0.0
1001
AUSTER_ANSICHT
1002
{
1000
Det03
1002
}
1001
AUSTER_FOLIE
1002
{
1000
DC_PLUS_KT_FELD
1002
}
  0
LINE
  5
4CE6
330
20
100
AcDbEntity
  8
11000_Left
  6
Continuous
 62
     7
370
    50
100
AcDbLine
 39
0.45
 10
252.4546728680172
 20
100.7641658626111
 30
0.0
 11
252.4546728680172
 21
134.4641858626111
 31
0.0
1001
AUSTER_ANSICHT
1002
{
1000
Det03
1002
}
1001
AUSTER_FOLIE
1002
{
1000
DC_PLUS_KT_FELD
1002
}
  0
LINE
  5
4CE7
330
20
100
AcDbEntity
  8
11000_Left
  6
Continuous
 62
     7
370
    50
100
AcDbLine
 39
0.45
 10
249.5546728680172
 20
126.7641858626111
 30
0.0
 11
249.5546728680172
 21
123.7641858626111
 31
0.0
1001
AUSTER_ANSICHT
1002
{
1000
Det03
1002
}
1001
AUSTER_FOLIE
1002
{
1000
DC_PLUS_KT_FELD
1002
}
  0
LINE
  5
4CE8
330
20
100
AcDbEntity
  8
11000_Left
  6
Continuous
 62
     7
370
    50
100
AcDbLine
 39
0.45
 10
243.0546728680172
 20
120.2641858626111
 30
0.0
 11
243.0546728680172
 21
126.7641858626111
 31
0.0
1001
AUSTER_ANSICHT
1002
{
1000
Det03
1002
}
1001
AUSTER_FOLIE
1002
{
1000
DC_PLUS_KT_FELD
1002
}
  0
LINE
  5
4CE9
330
20
100
AcDbEntity
  8
11000_Left
  6
Continuous
 62
     7
370
    50
100
AcDbLine
 39
0.45
 10
294.0046728680172
 20
102.2641858626111
 30
0.0
 11
294.0046728680172
 21
188.264185862611
 31
0.0
1001
AUSTER_ANSICHT
1002
{
1000
Det03
1002
}
1001
AUSTER_FOLIE
1002
{
1000
DC_PLUS_KT_FELD
1002
}
  0
ARC
  5
4CEA
330
20
100
AcDbEntity
  8
11000_Left
  6
Continuous
370
    50
100
AcDbCircle
 39
0.7
 10
-98.10140213745176
 20
145.264515049451
 30
0.0
 40
400.0060950056044
100
AcDbArc
 50
353.8170471518229
 51
6.279951792418669
1001
AUSTER_ANSICHT
1002
{
1000
Det03
1002
}
1001
AUSTER_FOLIE
1002
{
1000
DC_PLUS_KT_FELD
1002
}
  0
ARC
  5
4CEB
330
20
100
AcDbEntity
  8
11000_Left
  6
Continuous
370
    50
100
AcDbCircle
 39
0.7
 10
152.6046728680171
 20
120.8641858626111
 30
0.0
 40
4.0
100
AcDbArc
 50
0.0
 51
90.0
1001
AUSTER_ANSICHT
1002
{
1000
Det03
1002
}
1001
AUSTER_FOLIE
1002
{
1000
DC_PLUS_KT_FELD
1002
}
  0
LINE
  5
4CEC
330
20
100
AcDbEntity
  8
11000_Left
  6
Continuous
370
    50
100
AcDbLine
 39
0.7
 10
149.4046728680171
 20
75.26416586261117
 30
0.0
 11
224.5546728680172
 21
75.26416586261117
 31
0.0
1001
AUSTER_ANSICHT
1002
{
1000
Det03
1002
}
1001
AUSTER_FOLIE
1002
{
1000
DC_PLUS_KT_FELD
1002
}
  0
LINE
  5
4CED
330
20
100
AcDbEntity
  8
11000_Left
  6
Continuous
 62
     7
370
    50
100
AcDbLine
 39
0.45
 10
157.4046728680171
 20
85.2641658626111
 30
0.0
 11
204.854672868017
 21
85.2641658626111
 31
0.0
1001
AUSTER_ANSICHT
1002
{
1000
Det03
1002
}
1001
AUSTER_FOLIE
1002
{
1000
DC_PLUS_KT_FELD
1002
}
  0
ARC
  5
4CEE
330
20
100
AcDbEntity
  8
11000_Left
 62
     7
 48
10.0
370
    50
100
AcDbCircle
 39
0.25
 10
150.504672868017
 20
117.2642258626111
 30
0.0
 40
6.0
100
AcDbArc
 50
0.0
 51
90.0
1001
AUSTER_ANSICHT
1002
{
1000
Det03
1002
}
1001
AUSTER_FOLIE
1002
{
1000
DC_PLUS_KT_FELD
1002
}
  0
ARC
  5
4CEF
330
20
100
AcDbEntity
  8
11000_Left
 62
     7
 48
10.0
370
    50
100
AcDbCircle
 39
0.25
 10
150.504672868017
 20
117.2642258626111
 30
0.0
 40
3.0
100
AcDbArc
 50
0.0
 51
90.0
1001
AUSTER_ANSICHT
1002
{
1000
Det03
1002
}
1001
AUSTER_FOLIE
1002
{
1000
DC_PLUS_KT_FELD
1002
}
  0
ARC
  5
4CF0
330
20
100
AcDbEntity
  8
11000_Left
 62
     7
 48
10.0
370
    50
100
AcDbCircle
 39
0.25
 10
132.504672868017
 20
123.2642258626111
 30
0.0
 40
3.0
100
AcDbArc
 50
180.0
 51
270.0
1001
AUSTER_ANSICHT
1002
{
1000
Det03
1002
}
1001
AUSTER_FOLIE
1002
{
1000
DC_PLUS_KT_FELD
1002
}
  0
LINE
  5
4CF1
330
20
100
AcDbEntity
  8
11000_Left
  6
Continuous
370
    50
100
AcDbLine
 39
0.7
 10
152.704672868017
 20
107.0641858626111
 30
0.0
 11
149.6046728680171
 21
106.0641858626111
 31
0.0
1001
AUSTER_ANSICHT
1002
{
1000
Det03
1002
}
1001
AUSTER_FOLIE
1002
{
1000
DC_PLUS_KT_FELD
1002
}
  0
LINE
  5
4CF2
330
20
100
AcDbEntity
  8
11000_Left
  6
Continuous
370
    50
100
AcDbLine
 39
0.7
 10
156.604672868017
 20
120.8641858626111
 30
0.0
 11
156.604672868017
 21
107.0641858626111
 31
0.0
1001
AUSTER_ANSICHT
1002
{
1000
Det03
1002
}
1001
AUSTER_FOLIE
1002
{
1000
DC_PLUS_KT_FELD
1002
}
  0
LINE
  5
4CF3
330
20
100
AcDbEntity
  8
11000_Left
  6
Continuous
370
    50
100
AcDbLine
 39
0.7
 10
149.6046728680171
 20
124.8641858626111
 30
0.0
 11
152.6046728680171
 21
124.8641858626111
 31
0.0
1001
AUSTER_ANSICHT
1002
{
1000
Det03
1002
}
1001
AUSTER_FOLIE
1002
{
1000
DC_PLUS_KT_FELD
1002
}
  0
LINE
  5
4CF4
330
20
100
AcDbEntity
  8
11000_Left
  6
Continuous
370
    50
100
AcDbLine
 39
0.7
 10
156.604672868017
 20
107.0641858626111
 30
0.0
 11
152.704672868017
 21
107.0641858626111
 31
0.0
1001
AUSTER_ANSICHT
1002
{
1000
Det03
1002
}
1001
AUSTER_FOLIE
1002
{
1000
DC_PLUS_KT_FELD
1002
}
  0
LINE
  5
4CF5
330
20
100
AcDbEntity
  8
11000_Left
  6
Continuous
370
    50
100
AcDbLine
 39
0.7
 10
149.6046728680171
 20
87.26416586261111
 30
0.0
 11
149.6046728680171
 21
106.0641858626111
 31
0.0
1001
AUSTER_ANSICHT
1002
{
1000
Det03
1002
}
1001
AUSTER_FOLIE
1002
{
1000
DC_PLUS_KT_FELD
1002
}
  0
LINE
  5
4CF6
330
20
100
AcDbEntity
  8
11000_Left
  6
Continuous
370
    50
100
AcDbLine
 39
0.7
 10
149.6046728680171
 20
87.26416586261111
 30
0.0
 11
149.4046728680171
 21
87.26416586261111
 31
0.0
1001
AUSTER_ANSICHT
1002
{
1000
Det03
1002
}
1001
AUSTER_FOLIE
1002
{
1000
DC_PLUS_KT_FELD
1002
}
  0
LINE
  5
4CF7
330
20
100
AcDbEntity
  8
11000_Left
  6
Continuous
370
    50
100
AcDbLine
 39
0.7
 10
149.4046728680171
 20
87.26416586261111
 30
0.0
 11
149.4046728680171
 21
76.76416586261116
 31
0.0
1001
AUSTER_ANSICHT
1002
{
1000
Det03
1002
}
1001
AUSTER_FOLIE
1002
{
1000
DC_PLUS_KT_FELD
1002
}
  0
LINE
  5
4CF8
330
20
100
AcDbEntity
  8
11000_Left
  6
Continuous
370
    50
100
AcDbLine
 39
0.7
 10
149.4046728680171
 20
76.76416586261116
 30
0.0
 11
149.4046728680171
 21
75.26416586261117
 31
0.0
1001
AUSTER_ANSICHT
1002
{
1000
Det03
1002
}
1001
AUSTER_FOLIE
1002
{
1000
DC_PLUS_KT_FELD
1002
}
  0
LINE
  5
4CF9
330
20
100
AcDbEntity
  8
11000_Left
  6
Continuous
370
    50
100
AcDbLine
 39
0.7
 10
156.604672868017
 20
108.9641858626111
 30
0.0
 11
155.304672868017
 21
108.9641858626111
 31
0.0
1001
AUSTER_ANSICHT
1002
{
1000
Det03
1002
}
1001
AUSTER_FOLIE
1002
{
1000
DC_PLUS_KT_FELD
1002
}
  0
LINE
  5
4CFA
330
20
100
AcDbEntity
  8
11000_Left
  6
Continuous
370
    50
100
AcDbLine
 39
0.7
 10
155.304672868017
 20
108.9641858626111
 30
0.0
 11
154.0342728680171
 21
108.9641858626111
 31
0.0
1001
AUSTER_ANSICHT
1002
{
1000
Det03
1002
}
1001
AUSTER_FOLIE
1002
{
1000
DC_PLUS_KT_FELD
1002
}
  0
LINE
  5
4CFB
330
20
100
AcDbEntity
  8
11000_Left
  6
Continuous
370
    50
100
AcDbLine
 39
0.7
 10
153.640372868017
 20
109.2946858626111
 30
0.0
 11
153.504672868017
 21
110.0641858626111
 31
0.0
1001
AUSTER_ANSICHT
1002
{
1000
Det03
1002
}
1001
AUSTER_FOLIE
1002
{
1000
DC_PLUS_KT_FELD
1002
}
  0
LINE
  5
4CFC
330
20
100
AcDbEntity
  8
11000_Left
  6
Continuous
370
    50
100
AcDbLine
 39
0.7
 10
153.504672868017
 20
110.0641858626111
 30
0.0
 11
153.504672868017
 21
110.8641858626111
 31
0.0
1001
AUSTER_ANSICHT
1002
{
1000
Det03
1002
}
1001
AUSTER_FOLIE
1002
{
1000
DC_PLUS_KT_FELD
1002
}
  0
LINE
  5
4CFD
330
20
100
AcDbEntity
  8
11000_Left
  6
Continuous
370
    50
100
AcDbLine
 39
0.7
 10
153.504672868017
 20
110.8641858626111
 30
0.0
 11
153.2907728680171
 21
110.8641858626111
 31
0.0
1001
AUSTER_ANSICHT
1002
{
1000
Det03
1002
}
1001
AUSTER_FOLIE
1002
{
1000
DC_PLUS_KT_FELD
1002
}
  0
LINE
  5
4CFE
330
20
100
AcDbEntity
  8
11000_Left
  6
Continuous
370
    50
100
AcDbLine
 39
0.7
 10
152.984772868017
 20
110.7217858626111
 30
0.0
 11
149.998772868017
 21
107.1757858626111
 31
0.0
1001
AUSTER_ANSICHT
1002
{
1000
Det03
1002
}
1001
AUSTER_FOLIE
1002
{
1000
DC_PLUS_KT_FELD
1002
}
  0
LINE
  5
4CFF
330
20
100
AcDbEntity
  8
11000_Left
  6
Continuous
370
    50
100
AcDbLine
 39
0.7
 10
149.9046728680171
 20
106.1598858626111
 30
0.0
 11
149.9046728680171
 21
106.9181858626111
 31
0.0
1001
AUSTER_ANSICHT
1002
{
1000
Det03
1002
}
1001
AUSTER_FOLIE
1002
{
1000
DC_PLUS_KT_FELD
1002
}
  0
LINE
  5
4D00
330
20
100
AcDbEntity
  8
11000_Left
  6
Continuous
 62
     7
370
    50
100
AcDbLine
 39
0.45
 10
157.4046728680171
 20
85.2641658626111
 30
0.0
 11
157.4046728680171
 21
75.26416586261117
 31
0.0
1001
AUSTER_ANSICHT
1002
{
1000
Det03
1002
}
1001
AUSTER_FOLIE
1002
{
1000
DC_PLUS_KT_FELD
1002
}
  0
ARC
  5
4D01
330
20
100
AcDbEntity
  8
11000_Left
  6
Continuous
370
    50
100
AcDbCircle
 39
0.7
 10
153.2907728680171
 20
110.4641858626111
 30
0.0
 40
0.4
100
AcDbArc
 50
90.0
 51
139.8991000000009
1001
AUSTER_ANSICHT
1002
{
1000
Det03
1002
}
1001
AUSTER_FOLIE
1002
{
1000
DC_PLUS_KT_FELD
1002
}
  0
ARC
  5
4D02
330
20
100
AcDbEntity
  8
11000_Left
  6
Continuous
370
    50
100
AcDbCircle
 39
0.7
 10
154.0342728680171
 20
109.3641858626111
 30
0.0
 40
0.4
100
AcDbArc
 50
189.9999999999985
 51
270.0
1001
AUSTER_ANSICHT
1002
{
1000
Det03
1002
}
1001
AUSTER_FOLIE
1002
{
1000
DC_PLUS_KT_FELD
1002
}
  0
ARC
  5
4D03
330
20
100
AcDbEntity
  8
11000_Left
  6
Continuous
370
    50
100
AcDbCircle
 39
0.7
 10
150.304672868017
 20
106.9181858626111
 30
0.0
 40
0.4
100
AcDbArc
 50
139.8991000000009
 51
180.0
1001
AUSTER_ANSICHT
1002
{
1000
Det03
1002
}
1001
AUSTER_FOLIE
1002
{
1000
DC_PLUS_KT_FELD
1002
}
  0
LINE
  5
4D04
330
20
100
AcDbEntity
  8
11000_Left
 62
     7
 48
10.0
370
    50
100
AcDbLine
 39
0.25
 10
150.504672868017
 20
123.2642258626111
 30
0.0
 11
135.504672868017
 21
123.2642258626111
 31
0.0
1001
AUSTER_ANSICHT
1002
{
1000
Det03
1002
}
1001
AUSTER_FOLIE
1002
{
1000
DC_PLUS_KT_FELD
1002
}
  0
LINE
  5
4D05
330
20
100
AcDbEntity
  8
11000_Left
 62
     7
 48
10.0
370
    50
100
AcDbLine
 39
0.25
 10
150.504672868017
 20
120.2642258626111
 30
0.0
 11
132.504672868017
 21
120.2642258626111
 31
0.0
1001
AUSTER_ANSICHT
1002
{
1000
Det03
1002
}
1001
AUSTER_FOLIE
1002
{
1000
DC_PLUS_KT_FELD
1002
}
  0
LINE
  5
4D06
330
20
100
AcDbEntity
  8
11000_Left
 62
     7
 48
10.0
370
    50
100
AcDbLine
 39
0.25
 10
153.504672868017
 20
117.2642258626111
 30
0.0
 11
153.504672868017
 21
108.4642258626111
 31
0.0
1001
AUSTER_ANSICHT
1002
{
1000
Det03
1002
}
1001
AUSTER_FOLIE
1002
{
1000
DC_PLUS_KT_FELD
1002
}
  0
LINE
  5
4D07
330
20
100
AcDbEntity
  8
11000_Left
  6
Continuous
370
    50
100
AcDbLine
 39
0.7
 10
224.5546728680172
 20
83.36416586261112
 30
0.0
 11
224.5546728680172
 21
75.26416586261117
 31
0.0
1001
AUSTER_FOLIE
1002
{
1000
DC_PLUS_KT_FELD
1002
}
1001
AUSTER_ANSICHT
1002
{
1000
Det03
1002
}
  0
LINE
  5
4D08
330
20
100
AcDbEntity
  8
11000_Left
  6
Continuous
 62
     7
370
    50
100
AcDbLine
 39
0.45
 10
222.354672868017
 20
118.1041858626111
 30
0.0
 11
212.954672868017
 21
118.1041858626111
 31
0.0
1001
AUSTER_ANSICHT
1002
{
1000
Det03
1002
}
1001
AUSTER_FOLIE
1002
{
1000
DC_PLUS_KT_FELD
1002
}
  0
LINE
  5
4D09
330
20
100
AcDbEntity
  8
11000_Left
  6
Continuous
 62
     7
370
    50
100
AcDbLine
 39
0.45
 10
212.954672868017
 20
113.4741858626111
 30
0.0
 11
222.354672868017
 21
113.4741858626111
 31
0.0
1001
AUSTER_ANSICHT
1002
{
1000
Det03
1002
}
1001
AUSTER_FOLIE
1002
{
1000
DC_PLUS_KT_FELD
1002
}
  0
LINE
  5
4D0A
330
20
100
AcDbEntity
  8
11000_Left
  6
Continuous
370
    50
100
AcDbLine
 39
0.7
 10
224.5546728680172
 20
83.36416586261112
 30
0.0
 11
296.6635728680172
 21
83.36416586261112
 31
0.0
1001
AUSTER_ANSICHT
1002
{
1000
Det03
1002
}
1001
AUSTER_FOLIE
1002
{
1000
DC_PLUS_KT_FELD
1002
}
  0
LINE
  5
4D0B
330
20
100
AcDbEntity
  8
11000_Left
  6
Continuous
370
    50
100
AcDbLine
 39
0.7
 10
297.455172868017
 20
84.04865586261109
 30
0.0
 11
299.4117728680172
 21
99.87972586261113
 31
0.0
1001
AUSTER_ANSICHT
1002
{
1000
Det03
1002
}
1001
AUSTER_FOLIE
1002
{
1000
DC_PLUS_KT_FELD
1002
}
  0
LINE
  5
4D0C
330
20
100
AcDbEntity
  8
11000_Left
  6
Continuous
 62
     7
370
    50
100
AcDbLine
 39
0.45
 10
298.741372868017
 20
100.7641658626111
 30
0.0
 11
294.0046728680172
 21
100.7641658626111
 31
0.0
1001
AUSTER_ANSICHT
1002
{
1000
Det03
1002
}
1001
AUSTER_FOLIE
1002
{
1000
DC_PLUS_KT_FELD
1002
}
  0
LINE
  5
4D0D
330
20
100
AcDbEntity
  8
11000_Left
  6
Continuous
 62
     7
370
    50
100
AcDbLine
 39
0.45
 10
224.5546728680172
 20
100.7641658626111
 30
0.0
 11
252.4546728680172
 21
100.7641658626111
 31
0.0
1001
AUSTER_ANSICHT
1002
{
1000
Det03
1002
}
1001
AUSTER_FOLIE
1002
{
1000
DC_PLUS_KT_FELD
1002
}
  0
LINE
  5
4D0E
330
20
100
AcDbEntity
  8
11000_Left
  6
Continuous
370
    50
100
AcDbLine
 39
0.7
 10
299.5043728680172
 20
101.5085558626111
 30
0.0
 11
299.4763728680172
 21
101.3305558626111
 31
0.0
1001
AUSTER_ANSICHT
1002
{
1000
Det03
1002
}
1001
AUSTER_FOLIE
1002
{
1000
DC_PLUS_KT_FELD
1002
}
  0
LINE
  5
4D0F
330
20
100
AcDbEntity
  8
11000_Left
  6
Continuous
 62
     7
370
    50
100
AcDbLine
 39
0.45
 10
252.6546728680171
 20
100.7641658626111
 30
0.0
 11
294.0046728680172
 21
100.7641658626111
 31
0.0
1001
AUSTER_ANSICHT
1002
{
1000
Det03
1002
}
1001
AUSTER_FOLIE
1002
{
1000
DC_PLUS_KT_FELD
1002
}
  0
LINE
  5
4D10
330
20
100
AcDbEntity
  8
11000_Left
  6
Continuous
 62
     7
370
    50
100
AcDbLine
 39
0.45
 10
294.0046728680172
 20
102.2641858626111
 30
0.0
 11
294.0046728680172
 21
100.7641658626111
 31
0.0
1001
AUSTER_ANSICHT
1002
{
1000
Det03
1002
}
1001
AUSTER_FOLIE
1002
{
1000
DC_PLUS_KT_FELD
1002
}
  0
LINE
  5
4D11
330
20
100
AcDbEntity
  8
11000_Left
  6
Continuous
370
    50
100
AcDbLine
 39
0.7
 10
249.5546728680172
 20
83.36416586261112
 30
0.0
 11
249.5546728680172
 21
80.16416586261113
 31
0.0
1001
AUSTER_ANSICHT
1002
{
1000
Det03
1002
}
1001
AUSTER_FOLIE
1002
{
1000
DC_PLUS_KT_FELD
1002
}
  0
LINE
  5
4D12
330
20
100
AcDbEntity
  8
11000_Left
  6
Continuous
370
    50
100
AcDbLine
 39
0.7
 10
249.9546728680172
 20
79.76416586261116
 30
0.0
 11
266.354672868017
 21
79.76416586261116
 31
0.0
1001
AUSTER_ANSICHT
1002
{
1000
Det03
1002
}
1001
AUSTER_FOLIE
1002
{
1000
DC_PLUS_KT_FELD
1002
}
  0
LINE
  5
4D13
330
20
100
AcDbEntity
  8
11000_Left
  6
Continuous
370
    50
100
AcDbLine
 39
0.7
 10
266.7546728680171
 20
80.16416586261113
 30
0.0
 11
266.7546728680171
 21
83.36416586261112
 31
0.0
1001
AUSTER_ANSICHT
1002
{
1000
Det03
1002
}
1001
AUSTER_FOLIE
1002
{
1000
DC_PLUS_KT_FELD
1002
}
  0
LINE
  5
4D14
330
20
100
AcDbEntity
  8
11000_Left
  6
Continuous
 62
     7
370
    50
100
AcDbLine
 39
0.45
 10
212.954672868017
 20
118.1041858626111
 30
0.0
 11
212.954672868017
 21
113.4741858626111
 31
0.0
1001
AUSTER_ANSICHT
1002
{
1000
Det03
1002
}
1001
AUSTER_FOLIE
1002
{
1000
DC_PLUS_KT_FELD
1002
}
  0
LINE
  5
4D15
330
20
100
AcDbEntity
  8
11000_Left
  6
Continuous
 62
     7
370
    50
100
AcDbLine
 39
0.45
 10
222.354672868017
 20
113.4741858626111
 30
0.0
 11
222.354672868017
 21
118.1041858626111
 31
0.0
1001
AUSTER_ANSICHT
1002
{
1000
Det03
1002
}
1001
AUSTER_FOLIE
1002
{
1000
DC_PLUS_KT_FELD
1002
}
  0
LINE
  5
4D16
330
20
100
AcDbEntity
  8
11000_Left
  6
Continuous
 62
     7
370
    50
100
AcDbLine
 39
0.45
 10
218.840972868017
 20
118.1041858626111
 30
0.0
 11
218.840972868017
 21
113.4741858626111
 31
0.0
1001
AUSTER_ANSICHT
1002
{
1000
Det03
1002
}
1001
AUSTER_FOLIE
1002
{
1000
DC_PLUS_KT_FELD
1002
}
  0
LINE
  5
4D17
330
20
100
AcDbEntity
  8
11000_Left
  6
Continuous
 62
     7
370
    50
100
AcDbLine
 39
0.45
 10
224.5546728680172
 20
83.36416586261112
 30
0.0
 11
224.5546728680172
 21
100.7641658626111
 31
0.0
1001
AUSTER_ANSICHT
1002
{
1000
Det03
1002
}
1001
AUSTER_FOLIE
1002
{
1000
DC_PLUS_KT_FELD
1002
}
  0
LINE
  5
4D18
330
20
100
AcDbEntity
  8
11000_Left
  6
Continuous
 62
     7
370
    50
100
AcDbLine
 39
0.45
 10
204.854672868017
 20
85.2641658626111
 30
0.0
 11
224.5546728680172
 21
85.2641658626111
 31
0.0
1001
AUSTER_ANSICHT
1002
{
1000
Det03
1002
}
1001
AUSTER_FOLIE
1002
{
1000
DC_PLUS_KT_FELD
1002
}
  0
LINE
  5
4D19
330
20
100
AcDbEntity
  8
11000_Left
  6
Continuous
 62
     7
370
    50
100
AcDbLine
 39
0.45
 10
252.4546728680172
 20
120.2641858626111
 30
0.0
 11
243.0546728680172
 21
120.2641858626111
 31
0.0
1001
AUSTER_ANSICHT
1002
{
1000
Det03
1002
}
1001
AUSTER_FOLIE
1002
{
1000
DC_PLUS_KT_FELD
1002
}
  0
LINE
  5
4D1A
330
20
100
AcDbEntity
  8
11000_Left
  6
Continuous
 62
     7
370
    50
100
AcDbLine
 39
0.45
 10
249.5546728680172
 20
123.7641858626111
 30
0.0
 11
252.4546728680172
 21
123.7641858626111
 31
0.0
1001
AUSTER_ANSICHT
1002
{
1000
Det03
1002
}
1001
AUSTER_FOLIE
1002
{
1000
DC_PLUS_KT_FELD
1002
}
  0
LINE
  5
4D1B
330
20
100
AcDbEntity
  8
11000_Left
  6
Continuous
370
    50
100
AcDbLine
 39
0.7
 10
299.8666728680171
 20
104.9375858626111
 30
0.0
 11
299.8522728680172
 21
104.9389858626111
 31
0.0
1001
AUSTER_ANSICHT
1002
{
1000
Det03
1002
}
1001
AUSTER_FOLIE
1002
{
1000
DC_PLUS_KT_FELD
1002
}
  0
LINE
  5
4D1C
330
20
100
AcDbEntity
  8
11000_Left
  6
Continuous
 62
     7
370
    50
100
AcDbLine
 39
0.45
 10
294.0046728680172
 20
100.7641658626111
 30
0.0
 11
294.0046728680172
 21
102.2641858626111
 31
0.0
1001
AUSTER_ANSICHT
1002
{
1000
Det03
1002
}
1001
AUSTER_FOLIE
1002
{
1000
DC_PLUS_KT_FELD
1002
}
  0
ARC
  5
4D1D
330
20
100
AcDbEntity
  8
11000_Left
  6
Continuous
370
    50
100
AcDbCircle
 39
0.7
 10
298.6162728680172
 20
99.96416586261108
 30
0.0
 40
0.8
100
AcDbArc
 50
353.9408000000002
 51
90.0
1001
AUSTER_ANSICHT
1002
{
1000
Det03
1002
}
1001
AUSTER_FOLIE
1002
{
1000
DC_PLUS_KT_FELD
1002
}
  0
ARC
  5
4D1E
330
20
100
AcDbEntity
  8
11000_Left
  6
Continuous
370
    50
100
AcDbCircle
 39
0.7
 10
298.741372868017
 20
101.5241658626111
 30
0.0
 40
0.76
100
AcDbArc
 50
270.0
 51
345.2412999999997
1001
AUSTER_ANSICHT
1002
{
1000
Det03
1002
}
1001
AUSTER_FOLIE
1002
{
1000
DC_PLUS_KT_FELD
1002
}
  0
ARC
  5
4D1F
330
20
100
AcDbEntity
  8
11000_Left
  6
Continuous
370
    50
100
AcDbCircle
 39
0.7
 10
249.9546728680172
 20
80.16416586261113
 30
0.0
 40
0.4
100
AcDbArc
 50
180.0
 51
270.0
1001
AUSTER_ANSICHT
1002
{
1000
Det03
1002
}
1001
AUSTER_FOLIE
1002
{
1000
DC_PLUS_KT_FELD
1002
}
  0
ARC
  5
4D20
330
20
100
AcDbEntity
  8
11000_Left
  6
Continuous
370
    50
100
AcDbCircle
 39
0.7
 10
266.354672868017
 20
80.16416586261113
 30
0.0
 40
0.4
100
AcDbArc
 50
270.0
 51
0.0
1001
AUSTER_ANSICHT
1002
{
1000
Det03
1002
}
1001
AUSTER_FOLIE
1002
{
1000
DC_PLUS_KT_FELD
1002
}
  0
ARC
  5
4D21
330
20
100
AcDbEntity
  8
11000_Left
  6
Continuous
370
    50
100
AcDbCircle
 39
0.7
 10
296.6635728680172
 20
84.1641658626111
 30
0.0
 40
0.7999998000000002
100
AcDbArc
 50
270.0
 51
351.6984000000016
1001
AUSTER_ANSICHT
1002
{
1000
Det03
1002
}
1001
AUSTER_FOLIE
1002
{
1000
DC_PLUS_KT_FELD
1002
}
  0
LINE
  5
4D22
330
20
100
AcDbEntity
  8
11000_Left
 48
10.0
370
    50
100
AcDbLine
 39
0.25
 10
216.604672868017
 20
85.2641658626111
 30
0.0
 11
216.604672868017
 21
75.26416586261117
 31
0.0
1001
AUSTER_ANSICHT
1002
{
1000
Det03
1002
}
1001
AUSTER_FOLIE
1002
{
1000
DC_PLUS_KT_FELD
1002
}
  0
LINE
  5
4D23
330
20
100
AcDbEntity
  8
11000_Left
 48
10.0
370
    50
100
AcDbLine
 39
0.25
 10
213.604672868017
 20
75.26416586261117
 30
0.0
 11
213.604672868017
 21
85.2641658626111
 31
0.0
1001
AUSTER_ANSICHT
1002
{
1000
Det03
1002
}
1001
AUSTER_FOLIE
1002
{
1000
DC_PLUS_KT_FELD
1002
}
  0
LINE
  5
4D24
330
20
100
AcDbEntity
  8
11000_Left
 48
10.0
370
    50
100
AcDbLine
 39
0.25
 10
213.604672868017
 20
85.2641658626111
 30
0.0
 11
216.604672868017
 21
85.2641658626111
 31
0.0
1001
AUSTER_ANSICHT
1002
{
1000
Det03
1002
}
1001
AUSTER_FOLIE
1002
{
1000
DC_PLUS_KT_FELD
1002
}
  0
LINE
  5
4D25
330
20
100
AcDbEntity
  8
11000_Left
 48
10.0
370
    50
100
AcDbLine
 39
0.25
 10
253.604672868017
 20
83.36416586261112
 30
0.0
 11
253.604672868017
 21
99.36416586261112
 31
0.0
1001
AUSTER_ANSICHT
1002
{
1000
Det03
1002
}
1001
AUSTER_FOLIE
1002
{
1000
DC_PLUS_KT_FELD
1002
}
  0
LINE
  5
4D26
330
20
100
AcDbEntity
  8
11000_Left
 48
10.0
370
    50
100
AcDbLine
 39
0.25
 10
252.604672868017
 20
99.36416586261112
 30
0.0
 11
252.604672868017
 21
83.36416586261112
 31
0.0
1001
AUSTER_ANSICHT
1002
{
1000
Det03
1002
}
1001
AUSTER_FOLIE
1002
{
1000
DC_PLUS_KT_FELD
1002
}
  0
LINE
  5
4D27
330
20
100
AcDbEntity
  8
11000_Left
 48
10.0
370
    50
100
AcDbLine
 39
0.25
 10
238.104672868017
 20
83.36416586261112
 30
0.0
 11
238.104672868017
 21
99.36416586261112
 31
0.0
1001
AUSTER_ANSICHT
1002
{
1000
Det03
1002
}
1001
AUSTER_FOLIE
1002
{
1000
DC_PLUS_KT_FELD
1002
}
  0
LINE
  5
4D28
330
20
100
AcDbEntity
  8
11000_Left
 48
10.0
370
    50
100
AcDbLine
 39
0.25
 10
268.104672868017
 20
99.36416586261112
 30
0.0
 11
268.104672868017
 21
83.36416586261112
 31
0.0
1001
AUSTER_ANSICHT
1002
{
1000
Det03
1002
}
1001
AUSTER_FOLIE
1002
{
1000
DC_PLUS_KT_FELD
1002
}
  0
LINE
  5
4D29
330
20
100
AcDbEntity
  8
11000_Left
 48
10.0
370
    50
100
AcDbLine
 39
0.25
 10
253.604672868017
 20
99.36416586261112
 30
0.0
 11
268.104672868017
 21
99.36416586261112
 31
0.0
1001
AUSTER_ANSICHT
1002
{
1000
Det03
1002
}
1001
AUSTER_FOLIE
1002
{
1000
DC_PLUS_KT_FELD
1002
}
  0
LINE
  5
4D2A
330
20
100
AcDbEntity
  8
11000_Left
 48
10.0
370
    50
100
AcDbLine
 39
0.25
 10
238.104672868017
 20
99.36416586261112
 30
0.0
 11
252.604672868017
 21
99.36416586261112
 31
0.0
1001
AUSTER_ANSICHT
1002
{
1000
Det03
1002
}
1001
AUSTER_FOLIE
1002
{
1000
DC_PLUS_KT_FELD
1002
}
  0
LINE
  5
4D2B
330
20
100
AcDbEntity
  8
11000_Left
  6
Continuous
370
    50
100
AcDbLine
 39
0.7
 10
149.6046728680171
 20
215.2641858626112
 30
0.0
 11
204.854672868017
 21
215.2641858626112
 31
0.0
1001
AUSTER_ANSICHT
1002
{
1000
Det03
1002
}
1001
AUSTER_FOLIE
1002
{
1000
DC_PLUS_KT_FELD
1002
}
  0
LINE
  5
4D2C
330
20
100
AcDbEntity
  8
11000_Left
  6
Continuous
 62
     7
370
    50
100
AcDbLine
 39
0.25
 10
153.504672868017
 20
127.7642258626111
 30
0.0
 11
154.504672868017
 21
127.7642258626111
 31
0.0
1001
AUSTER_ANSICHT
1002
{
1000
Det03
1002
}
1001
AUSTER_FOLIE
1002
{
1000
DC_PLUS_KT_FELD
1002
}
  0
ARC
  5
4D2D
330
20
100
AcDbEntity
  8
11000_Left
 62
     7
 48
10.0
370
    50
100
AcDbCircle
 39
0.25
 10
151.191272868017
 20
132.0527258626111
 30
0.0
 40
1.211467999999997
100
AcDbArc
 50
0.0
 51
90.0
1001
AUSTER_ANSICHT
1002
{
1000
Det03
1002
}
1001
AUSTER_FOLIE
1002
{
1000
DC_PLUS_KT_FELD
1002
}
  0
ARC
  5
4D2E
330
20
100
AcDbEntity
  8
11000_Left
 62
     7
 48
10.0
370
    50
100
AcDbCircle
 39
0.25
 10
152.504672868017
 20
133.7642258626111
 30
0.0
 40
2.0
100
AcDbArc
 50
0.0
 51
90.0
1001
AUSTER_ANSICHT
1002
{
1000
Det03
1002
}
1001
AUSTER_FOLIE
1002
{
1000
DC_PLUS_KT_FELD
1002
}
  0
ARC
  5
4D2F
330
20
100
AcDbEntity
  8
11000_Left
 62
     7
 48
10.0
370
    50
100
AcDbCircle
 39
0.25
 10
151.191272868017
 20
158.4756458626111
 30
0.0
 40
1.211467999999997
100
AcDbArc
 50
270.0
 51
0.0
1001
AUSTER_ANSICHT
1002
{
1000
Det03
1002
}
1001
AUSTER_FOLIE
1002
{
1000
DC_PLUS_KT_FELD
1002
}
  0
ARC
  5
4D30
330
20
100
AcDbEntity
  8
11000_Left
 62
     7
 48
10.0
370
    50
100
AcDbCircle
 39
0.25
 10
152.504672868017
 20
156.7641858626111
 30
0.0
 40
2.0
100
AcDbArc
 50
270.0
 51
0.0
1001
AUSTER_ANSICHT
1002
{
1000
Det03
1002
}
1001
AUSTER_FOLIE
1002
{
1000
DC_PLUS_KT_FELD
1002
}
  0
ARC
  5
4D31
330
20
100
AcDbEntity
  8
11000_Left
 62
     7
 48
10.0
370
    50
100
AcDbCircle
 39
0.25
 10
143.204672868017
 20
136.9642258626111
 30
0.0
 40
1.199999999999999
100
AcDbArc
 50
180.0
 51
270.0
1001
AUSTER_ANSICHT
1002
{
1000
Det03
1002
}
1001
AUSTER_FOLIE
1002
{
1000
DC_PLUS_KT_FELD
1002
}
  0
ARC
  5
4D32
330
20
100
AcDbEntity
  8
11000_Left
 62
     7
 48
10.0
370
    50
100
AcDbCircle
 39
0.25
 10
142.004672868017
 20
135.7642258626111
 30
0.0
 40
2.5
100
AcDbArc
 50
180.0
 51
270.0
1001
AUSTER_ANSICHT
1002
{
1000
Det03
1002
}
1001
AUSTER_FOLIE
1002
{
1000
DC_PLUS_KT_FELD
1002
}
  0
ARC
  5
4D33
330
20
100
AcDbEntity
  8
11000_Left
 62
     7
 48
10.0
370
    50
100
AcDbCircle
 39
0.25
 10
143.204672868017
 20
153.5641858626111
 30
0.0
 40
1.199999999999999
100
AcDbArc
 50
90.0
 51
180.0
1001
AUSTER_ANSICHT
1002
{
1000
Det03
1002
}
1001
AUSTER_FOLIE
1002
{
1000
DC_PLUS_KT_FELD
1002
}
  0
ARC
  5
4D34
330
20
100
AcDbEntity
  8
11000_Left
 62
     7
 48
10.0
370
    50
100
AcDbCircle
 39
0.25
 10
142.004672868017
 20
154.7641858626111
 30
0.0
 40
2.5
100
AcDbArc
 50
90.0
 51
180.0
1001
AUSTER_ANSICHT
1002
{
1000
Det03
1002
}
1001
AUSTER_FOLIE
1002
{
1000
DC_PLUS_KT_FELD
1002
}
  0
ARC
  5
4D35
330
20
100
AcDbEntity
  8
11000_Left
 62
     7
 48
10.0
370
    50
100
AcDbCircle
 39
0.25
 10
150.504672868017
 20
173.264185862611
 30
0.0
 40
6.0
100
AcDbArc
 50
270.0
 51
0.0
1001
AUSTER_ANSICHT
1002
{
1000
Det03
1002
}
1001
AUSTER_FOLIE
1002
{
1000
DC_PLUS_KT_FELD
1002
}
  0
ARC
  5
4D36
330
20
100
AcDbEntity
  8
11000_Left
 62
     7
 48
10.0
370
    50
100
AcDbCircle
 39
0.25
 10
135.504672868017
 20
164.2641858626111
 30
0.0
 40
3.0
100
AcDbArc
 50
90.0
 51
180.0
1001
AUSTER_ANSICHT
1002
{
1000
Det03
1002
}
1001
AUSTER_FOLIE
1002
{
1000
DC_PLUS_KT_FELD
1002
}
  0
ARC
  5
4D37
330
20
100
AcDbEntity
  8
11000_Left
 62
     7
 48
10.0
370
    50
100
AcDbCircle
 39
0.25
 10
150.504672868017
 20
173.264185862611
 30
0.0
 40
3.0
100
AcDbArc
 50
270.0
 51
0.0
1001
AUSTER_ANSICHT
1002
{
1000
Det03
1002
}
1001
AUSTER_FOLIE
1002
{
1000
DC_PLUS_KT_FELD
1002
}
  0
ARC
  5
4D38
330
20
100
AcDbEntity
  8
11000_Left
 62
     7
 48
10.0
370
    50
100
AcDbCircle
 39
0.25
 10
132.504672868017
 20
167.2641858626111
 30
0.0
 40
3.0
100
AcDbArc
 50
90.0
 51
180.0
1001
AUSTER_ANSICHT
1002
{
1000
Det03
1002
}
1001
AUSTER_FOLIE
1002
{
1000
DC_PLUS_KT_FELD
1002
}
  0
LINE
  5
4D39
330
20
100
AcDbEntity
  8
11000_Left
  6
Continuous
370
    50
100
AcDbLine
 39
0.7
 10
154.6046728680171
 20
162.7641858626111
 30
0.0
 11
154.6046728680171
 21
127.1641858626111
 31
0.0
1001
AUSTER_ANSICHT
1002
{
1000
Det03
1002
}
1001
AUSTER_FOLIE
1002
{
1000
DC_PLUS_KT_FELD
1002
}
  0
LINE
  5
4D3A
330
20
100
AcDbEntity
  8
11000_Left
  6
Continuous
370
    50
100
AcDbLine
 39
0.7
 10
156.604672868017
 20
182.8641858626111
 30
0.0
 11
156.604672868017
 21
170.4641858626111
 31
0.0
1001
AUSTER_ANSICHT
1002
{
1000
Det03
1002
}
1001
AUSTER_FOLIE
1002
{
1000
DC_PLUS_KT_FELD
1002
}
  0
LINE
  5
4D3B
330
20
100
AcDbEntity
  8
11000_Left
  6
Continuous
370
    50
100
AcDbLine
 39
0.7
 10
149.9046728680171
 20
126.2492858626111
 30
0.0
 11
149.9046728680171
 21
127.1161858626112
 31
0.0
1001
AUSTER_ANSICHT
1002
{
1000
Det03
1002
}
1001
AUSTER_FOLIE
1002
{
1000
DC_PLUS_KT_FELD
1002
}
  0
LINE
  5
4D3C
330
20
100
AcDbEntity
  8
11000_Left
  6
Continuous
370
    50
100
AcDbLine
 39
0.7
 10
156.604672868017
 20
170.7652858626111
 30
0.0
 11
156.604672868017
 21
170.4641858626111
 31
0.0
1001
AUSTER_ANSICHT
1002
{
1000
Det03
1002
}
1001
AUSTER_FOLIE
1002
{
1000
DC_PLUS_KT_FELD
1002
}
  0
LINE
  5
4D3D
330
20
100
AcDbEntity
  8
11000_Left
  6
Continuous
370
    50
100
AcDbLine
 39
0.7
 10
152.6046728680171
 20
166.4641858626111
 30
0.0
 11
149.6046728680171
 21
166.4641858626111
 31
0.0
1001
AUSTER_ANSICHT
1002
{
1000
Det03
1002
}
1001
AUSTER_FOLIE
1002
{
1000
DC_PLUS_KT_FELD
1002
}
  0
LINE
  5
4D3E
330
20
100
AcDbEntity
  8
11000_Left
  6
Continuous
370
    50
100
AcDbLine
 39
0.7
 10
149.6046728680171
 20
162.7641858626111
 30
0.0
 11
149.6046728680171
 21
166.4641858626111
 31
0.0
1001
AUSTER_ANSICHT
1002
{
1000
Det03
1002
}
1001
AUSTER_FOLIE
1002
{
1000
DC_PLUS_KT_FELD
1002
}
  0
LINE
  5
4D3F
330
20
100
AcDbEntity
  8
11000_Left
  6
Continuous
370
    50
100
AcDbLine
 39
0.7
 10
149.6046728680171
 20
162.7641858626111
 30
0.0
 11
154.6046728680171
 21
162.7641858626111
 31
0.0
1001
AUSTER_ANSICHT
1002
{
1000
Det03
1002
}
1001
AUSTER_FOLIE
1002
{
1000
DC_PLUS_KT_FELD
1002
}
  0
LINE
  5
4D40
330
20
100
AcDbEntity
  8
11000_Left
  6
Continuous
370
    50
100
AcDbLine
 39
0.7
 10
154.6046728680171
 20
127.1641858626111
 30
0.0
 11
153.1046728680171
 21
127.1641858626111
 31
0.0
1001
AUSTER_ANSICHT
1002
{
1000
Det03
1002
}
1001
AUSTER_FOLIE
1002
{
1000
DC_PLUS_KT_FELD
1002
}
  0
LINE
  5
4D41
330
20
100
AcDbEntity
  8
11000_Left
  6
Continuous
370
    50
100
AcDbLine
 39
0.7
 10
153.1046728680171
 20
127.1641858626111
 30
0.0
 11
149.6046728680171
 21
126.1641858626111
 31
0.0
1001
AUSTER_ANSICHT
1002
{
1000
Det03
1002
}
1001
AUSTER_FOLIE
1002
{
1000
DC_PLUS_KT_FELD
1002
}
  0
LINE
  5
4D42
330
20
100
AcDbEntity
  8
11000_Left
  6
Continuous
370
    50
100
AcDbLine
 39
0.7
 10
153.2998728680171
 20
162.0641858626111
 30
0.0
 11
153.554672868017
 21
162.7641858626111
 31
0.0
1001
AUSTER_ANSICHT
1002
{
1000
Det03
1002
}
1001
AUSTER_FOLIE
1002
{
1000
DC_PLUS_KT_FELD
1002
}
  0
LINE
  5
4D43
330
20
100
AcDbEntity
  8
11000_Left
  6
Continuous
370
    50
100
AcDbLine
 39
0.7
 10
149.6046728680171
 20
161.0641858626111
 30
0.0
 11
149.6046728680171
 21
162.7641858626111
 31
0.0
1001
AUSTER_ANSICHT
1002
{
1000
Det03
1002
}
1001
AUSTER_FOLIE
1002
{
1000
DC_PLUS_KT_FELD
1002
}
  0
LINE
  5
4D44
330
20
100
AcDbEntity
  8
11000_Left
  6
Continuous
370
    50
100
AcDbLine
 39
0.7
 10
149.6046728680171
 20
161.0641858626111
 30
0.0
 11
152.108172868017
 21
161.0641858626111
 31
0.0
1001
AUSTER_ANSICHT
1002
{
1000
Det03
1002
}
1001
AUSTER_FOLIE
1002
{
1000
DC_PLUS_KT_FELD
1002
}
  0
LINE
  5
4D45
330
20
100
AcDbEntity
  8
11000_Left
  6
Continuous
370
    50
100
AcDbLine
 39
0.7
 10
152.108172868017
 20
161.0641858626111
 30
0.0
 11
153.2998728680171
 21
162.0641858626111
 31
0.0
1001
AUSTER_ANSICHT
1002
{
1000
Det03
1002
}
1001
AUSTER_FOLIE
1002
{
1000
DC_PLUS_KT_FELD
1002
}
  0
LINE
  5
4D46
330
20
100
AcDbEntity
  8
11000_Left
  6
Continuous
370
    50
100
AcDbLine
 39
0.7
 10
149.6046728680171
 20
182.8641858626111
 30
0.0
 11
156.604672868017
 21
182.8641858626111
 31
0.0
1001
AUSTER_ANSICHT
1002
{
1000
Det03
1002
}
1001
AUSTER_FOLIE
1002
{
1000
DC_PLUS_KT_FELD
1002
}
  0
LINE
  5
4D47
330
20
100
AcDbEntity
  8
11000_Left
  6
Continuous
370
    50
100
AcDbLine
 39
0.7
 10
149.6046728680171
 20
180.3641858626111
 30
0.0
 11
149.6046728680171
 21
182.8641858626111
 31
0.0
1001
AUSTER_ANSICHT
1002
{
1000
Det03
1002
}
1001
AUSTER_FOLIE
1002
{
1000
DC_PLUS_KT_FELD
1002
}
  0
LINE
  5
4D48
330
20
100
AcDbEntity
  8
11000_Left
  6
Continuous
370
    50
100
AcDbLine
 39
0.7
 10
153.240172868017
 20
181.3641858626111
 30
0.0
 11
153.504672868017
 21
182.8641858626111
 31
0.0
1001
AUSTER_ANSICHT
1002
{
1000
Det03
1002
}
1001
AUSTER_FOLIE
1002
{
1000
DC_PLUS_KT_FELD
1002
}
  0
LINE
  5
4D49
330
20
100
AcDbEntity
  8
11000_Left
  6
Continuous
370
    50
100
AcDbLine
 39
0.7
 10
152.0484728680171
 20
180.3641858626111
 30
0.0
 11
149.6046728680171
 21
180.3641858626111
 31
0.0
1001
AUSTER_ANSICHT
1002
{
1000
Det03
1002
}
1001
AUSTER_FOLIE
1002
{
1000
DC_PLUS_KT_FELD
1002
}
  0
LINE
  5
4D4A
330
20
100
AcDbEntity
  8
11000_Left
  6
Continuous
370
    50
100
AcDbLine
 39
0.7
 10
152.0484728680171
 20
180.3641858626111
 30
0.0
 11
153.240172868017
 21
181.3641858626111
 31
0.0
1001
AUSTER_ANSICHT
1002
{
1000
Det03
1002
}
1001
AUSTER_FOLIE
1002
{
1000
DC_PLUS_KT_FELD
1002
}
  0
LINE
  5
4D4B
330
20
100
AcDbEntity
  8
11000_Left
  6
Continuous
370
    50
100
AcDbLine
 39
0.7
 10
152.784972868017
 20
130.6244858626111
 30
0.0
 11
150.0009728680171
 21
127.3764858626111
 31
0.0
1001
AUSTER_ANSICHT
1002
{
1000
Det03
1002
}
1001
AUSTER_FOLIE
1002
{
1000
DC_PLUS_KT_FELD
1002
}
  0
LINE
  5
4D4C
330
20
100
AcDbEntity
  8
11000_Left
  6
Continuous
370
    50
100
AcDbLine
 39
0.7
 10
153.504672868017
 20
130.7641858626111
 30
0.0
 11
153.088672868017
 21
130.7641858626111
 31
0.0
1001
AUSTER_ANSICHT
1002
{
1000
Det03
1002
}
1001
AUSTER_FOLIE
1002
{
1000
DC_PLUS_KT_FELD
1002
}
  0
LINE
  5
4D4D
330
20
100
AcDbEntity
  8
11000_Left
  6
Continuous
370
    50
100
AcDbLine
 39
0.7
 10
153.504672868017
 20
129.9641858626111
 30
0.0
 11
153.504672868017
 21
130.7641858626111
 31
0.0
1001
AUSTER_ANSICHT
1002
{
1000
Det03
1002
}
1001
AUSTER_FOLIE
1002
{
1000
DC_PLUS_KT_FELD
1002
}
  0
LINE
  5
4D4E
330
20
100
AcDbEntity
  8
11000_Left
  6
Continuous
370
    50
100
AcDbLine
 39
0.7
 10
154.604472868017
 20
128.7641858626111
 30
0.0
 11
154.051972868017
 21
128.7641858626111
 31
0.0
1001
AUSTER_ANSICHT
1002
{
1000
Det03
1002
}
1001
AUSTER_FOLIE
1002
{
1000
DC_PLUS_KT_FELD
1002
}
  0
LINE
  5
4D4F
330
20
100
AcDbEntity
  8
11000_Left
  6
Continuous
370
    50
100
AcDbLine
 39
0.7
 10
153.657972868017
 20
129.0946858626111
 30
0.0
 11
153.504672868017
 21
129.9641858626111
 31
0.0
1001
AUSTER_ANSICHT
1002
{
1000
Det03
1002
}
1001
AUSTER_FOLIE
1002
{
1000
DC_PLUS_KT_FELD
1002
}
  0
LINE
  5
4D50
330
20
100
AcDbEntity
  8
11000_Left
  6
Continuous
370
    50
100
AcDbLine
 39
0.7
 10
149.4046728680171
 20
203.2641858626111
 30
0.0
 11
149.4046728680171
 21
215.2641858626112
 31
0.0
1001
AUSTER_ANSICHT
1002
{
1000
Det03
1002
}
1001
AUSTER_FOLIE
1002
{
1000
DC_PLUS_KT_FELD
1002
}
  0
LINE
  5
4D51
330
20
100
AcDbEntity
  8
11000_Left
  6
Continuous
370
    50
100
AcDbLine
 39
0.7
 10
149.4046728680171
 20
203.2641858626111
 30
0.0
 11
149.605172868017
 21
203.2641858626111
 31
0.0
1001
AUSTER_ANSICHT
1002
{
1000
Det03
1002
}
1001
AUSTER_FOLIE
1002
{
1000
DC_PLUS_KT_FELD
1002
}
  0
LINE
  5
4D52
330
20
100
AcDbEntity
  8
11000_Left
  6
Continuous
370
    50
100
AcDbLine
 39
0.7
 10
149.4046728680171
 20
215.2641858626112
 30
0.0
 11
149.6046728680171
 21
215.2641858626112
 31
0.0
1001
AUSTER_ANSICHT
1002
{
1000
Det03
1002
}
1001
AUSTER_FOLIE
1002
{
1000
DC_PLUS_KT_FELD
1002
}
  0
ARC
  5
4D53
330
20
100
AcDbEntity
  8
11000_Left
  6
Continuous
370
    50
100
AcDbCircle
 39
0.7
 10
150.304672868017
 20
127.1161858626112
 30
0.0
 40
0.4
100
AcDbArc
 50
139.398699999999
 51
180.0
1001
AUSTER_ANSICHT
1002
{
1000
Det03
1002
}
1001
AUSTER_FOLIE
1002
{
1000
DC_PLUS_KT_FELD
1002
}
  0
ARC
  5
4D54
330
20
100
AcDbEntity
  8
11000_Left
  6
Continuous
370
    50
100
AcDbCircle
 39
0.7
 10
152.6046728680171
 20
170.4641858626111
 30
0.0
 40
4.0
100
AcDbArc
 50
270.0
 51
0.0
1001
AUSTER_ANSICHT
1002
{
1000
Det03
1002
}
1001
AUSTER_FOLIE
1002
{
1000
DC_PLUS_KT_FELD
1002
}
  0
ARC
  5
4D55
330
20
100
AcDbEntity
  8
11000_Left
  6
Continuous
370
    50
100
AcDbCircle
 39
0.7
 10
154.051972868017
 20
129.1641858626111
 30
0.0
 40
0.4
100
AcDbArc
 50
189.9999999999985
 51
270.0
1001
AUSTER_ANSICHT
1002
{
1000
Det03
1002
}
1001
AUSTER_FOLIE
1002
{
1000
DC_PLUS_KT_FELD
1002
}
  0
ARC
  5
4D56
330
20
100
AcDbEntity
  8
11000_Left
  6
Continuous
370
    50
100
AcDbCircle
 39
0.7
 10
153.088672868017
 20
130.3641858626111
 30
0.0
 40
0.4
100
AcDbArc
 50
90.0
 51
139.398699999999
1001
AUSTER_ANSICHT
1002
{
1000
Det03
1002
}
1001
AUSTER_FOLIE
1002
{
1000
DC_PLUS_KT_FELD
1002
}
  0
LINE
  5
4D57
330
20
100
AcDbEntity
  8
11000_Left
  6
Continuous
370
    50
100
AcDbLine
 39
0.7
 10
149.6046728680171
 20
182.8641858626111
 30
0.0
 11
149.605172868017
 21
203.2641858626111
 31
0.0
1001
AUSTER_ANSICHT
1002
{
1000
Det03
1002
}
1001
AUSTER_FOLIE
1002
{
1000
DC_PLUS_KT_FELD
1002
}
  0
LINE
  5
4D58
330
20
100
AcDbEntity
  8
11000_Left
 62
     7
 48
10.0
370
    50
100
AcDbLine
 39
0.25
 10
153.504672868017
 20
162.7641858626111
 30
0.0
 11
152.391272868017
 21
158.4756458626111
 31
0.0
1001
AUSTER_ANSICHT
1002
{
1000
Det03
1002
}
1001
AUSTER_FOLIE
1002
{
1000
DC_PLUS_KT_FELD
1002
}
  0
LINE
  5
4D59
330
20
100
AcDbEntity
  8
11000_Left
 62
     7
 48
10.0
370
    50
100
AcDbLine
 39
0.25
 10
132.504672868017
 20
126.2642258626111
 30
0.0
 11
132.504672868017
 21
164.2641858626111
 31
0.0
1001
AUSTER_ANSICHT
1002
{
1000
Det03
1002
}
1001
AUSTER_FOLIE
1002
{
1000
DC_PLUS_KT_FELD
1002
}
  0
LINE
  5
4D5A
330
20
100
AcDbEntity
  8
11000_Left
 62
     7
 48
10.0
370
    50
100
AcDbLine
 39
0.25
 10
142.004672868017
 20
145.2642258626111
 30
0.0
 11
142.004672868017
 21
136.9642258626111
 31
0.0
1001
AUSTER_ANSICHT
1002
{
1000
Det03
1002
}
1001
AUSTER_FOLIE
1002
{
1000
DC_PLUS_KT_FELD
1002
}
  0
LINE
  5
4D5B
330
20
100
AcDbEntity
  8
11000_Left
 62
     7
 48
10.0
370
    50
100
AcDbLine
 39
0.25
 10
139.504672868017
 20
145.2642258626111
 30
0.0
 11
139.504672868017
 21
135.7642258626111
 31
0.0
1001
AUSTER_ANSICHT
1002
{
1000
Det03
1002
}
1001
AUSTER_FOLIE
1002
{
1000
DC_PLUS_KT_FELD
1002
}
  0
LINE
  5
4D5C
330
20
100
AcDbEntity
  8
11000_Left
 62
     7
 48
10.0
370
    50
100
AcDbLine
 39
0.25
 10
151.191272868017
 20
133.2642258626111
 30
0.0
 11
142.004672868017
 21
133.2642258626111
 31
0.0
1001
AUSTER_ANSICHT
1002
{
1000
Det03
1002
}
1001
AUSTER_FOLIE
1002
{
1000
DC_PLUS_KT_FELD
1002
}
  0
LINE
  5
4D5D
330
20
100
AcDbEntity
  8
11000_Left
 62
     7
 48
10.0
370
    50
100
AcDbLine
 39
0.25
 10
143.204672868017
 20
135.7642258626111
 30
0.0
 11
152.504672868017
 21
135.7642258626111
 31
0.0
1001
AUSTER_ANSICHT
1002
{
1000
Det03
1002
}
1001
AUSTER_FOLIE
1002
{
1000
DC_PLUS_KT_FELD
1002
}
  0
LINE
  5
4D5E
330
20
100
AcDbEntity
  8
11000_Left
 62
     7
 48
10.0
370
    50
100
AcDbLine
 39
0.25
 10
153.504672868017
 20
127.7642258626111
 30
0.0
 11
152.391272868017
 21
132.0527258626111
 31
0.0
1001
AUSTER_ANSICHT
1002
{
1000
Det03
1002
}
1001
AUSTER_FOLIE
1002
{
1000
DC_PLUS_KT_FELD
1002
}
  0
LINE
  5
4D5F
330
20
100
AcDbEntity
  8
11000_Left
 62
     7
 48
10.0
370
    50
100
AcDbLine
 39
0.25
 10
151.191272868017
 20
157.2641858626111
 30
0.0
 11
142.004672868017
 21
157.2641858626111
 31
0.0
1001
AUSTER_ANSICHT
1002
{
1000
Det03
1002
}
1001
AUSTER_FOLIE
1002
{
1000
DC_PLUS_KT_FELD
1002
}
  0
LINE
  5
4D60
330
20
100
AcDbEntity
  8
11000_Left
 62
     7
 48
10.0
370
    50
100
AcDbLine
 39
0.25
 10
143.204672868017
 20
154.7641858626111
 30
0.0
 11
152.504672868017
 21
154.7641858626111
 31
0.0
1001
AUSTER_ANSICHT
1002
{
1000
Det03
1002
}
1001
AUSTER_FOLIE
1002
{
1000
DC_PLUS_KT_FELD
1002
}
  0
LINE
  5
4D61
330
20
100
AcDbEntity
  8
11000_Left
 62
     7
 48
10.0
370
    50
100
AcDbLine
 39
0.25
 10
142.004672868017
 20
145.2642258626111
 30
0.0
 11
142.004672868017
 21
153.5641858626111
 31
0.0
1001
AUSTER_ANSICHT
1002
{
1000
Det03
1002
}
1001
AUSTER_FOLIE
1002
{
1000
DC_PLUS_KT_FELD
1002
}
  0
LINE
  5
4D62
330
20
100
AcDbEntity
  8
11000_Left
 62
     7
 48
10.0
370
    50
100
AcDbLine
 39
0.25
 10
139.504672868017
 20
145.2642258626111
 30
0.0
 11
139.504672868017
 21
154.7641858626111
 31
0.0
1001
AUSTER_ANSICHT
1002
{
1000
Det03
1002
}
1001
AUSTER_FOLIE
1002
{
1000
DC_PLUS_KT_FELD
1002
}
  0
LINE
  5
4D63
330
20
100
AcDbEntity
  8
11000_Left
 62
     7
 48
10.0
370
    50
100
AcDbLine
 39
0.25
 10
150.504672868017
 20
167.2641858626111
 30
0.0
 11
135.504672868017
 21
167.2641858626111
 31
0.0
1001
AUSTER_ANSICHT
1002
{
1000
Det03
1002
}
1001
AUSTER_FOLIE
1002
{
1000
DC_PLUS_KT_FELD
1002
}
  0
LINE
  5
4D64
330
20
100
AcDbEntity
  8
11000_Left
 62
     7
 48
10.0
370
    50
100
AcDbLine
 39
0.25
 10
132.504672868017
 20
170.2641858626111
 30
0.0
 11
150.504672868017
 21
170.2641858626111
 31
0.0
1001
AUSTER_ANSICHT
1002
{
1000
Det03
1002
}
1001
AUSTER_FOLIE
1002
{
1000
DC_PLUS_KT_FELD
1002
}
  0
LINE
  5
4D65
330
20
100
AcDbEntity
  8
11000_Left
 62
     7
 48
10.0
370
    50
100
AcDbLine
 39
0.25
 10
153.504672868017
 20
182.8641858626111
 30
0.0
 11
153.504672868017
 21
173.264185862611
 31
0.0
1001
AUSTER_ANSICHT
1002
{
1000
Det03
1002
}
1001
AUSTER_FOLIE
1002
{
1000
DC_PLUS_KT_FELD
1002
}
  0
LINE
  5
4D66
330
20
100
AcDbEntity
  8
11000_Left
  6
Continuous
370
    50
100
AcDbLine
 39
0.7
 10
224.5546728680172
 20
215.2641858626112
 30
0.0
 11
224.5546728680172
 21
207.1641858626112
 31
0.0
1001
AUSTER_FOLIE
1002
{
1000
DC_PLUS_KT_FELD
1002
}
1001
AUSTER_ANSICHT
1002
{
1000
Det03
1002
}
  0
LINE
  5
4D67
330
20
100
AcDbEntity
  8
11000_Left
  6
Continuous
 62
     7
370
    50
100
AcDbLine
 39
0.45
 10
298.741372868017
 20
189.7641858626112
 30
0.0
 11
294.0046728680172
 21
189.7641858626112
 31
0.0
1001
AUSTER_ANSICHT
1002
{
1000
Det03
1002
}
1001
AUSTER_FOLIE
1002
{
1000
DC_PLUS_KT_FELD
1002
}
  0
LINE
  5
4D68
330
20
100
AcDbEntity
  8
11000_Left
  6
Continuous
370
    50
100
AcDbLine
 39
0.7
 10
224.5546728680172
 20
207.1641858626112
 30
0.0
 11
296.6635728680172
 21
207.1641858626112
 31
0.0
1001
AUSTER_ANSICHT
1002
{
1000
Det03
1002
}
1001
AUSTER_FOLIE
1002
{
1000
DC_PLUS_KT_FELD
1002
}
  0
LINE
  5
4D69
330
20
100
AcDbEntity
  8
11000_Left
  6
Continuous
370
    50
100
AcDbLine
 39
0.7
 10
204.854672868017
 20
215.2641858626112
 30
0.0
 11
224.5546728680172
 21
215.2641858626112
 31
0.0
1001
AUSTER_ANSICHT
1002
{
1000
Det03
1002
}
1001
AUSTER_FOLIE
1002
{
1000
DC_PLUS_KT_FELD
1002
}
  0
LINE
  5
4D6A
330
20
100
AcDbEntity
  8
11000_Left
  6
Continuous
 62
     7
370
    50
100
AcDbLine
 39
0.45
 10
212.954672868017
 20
172.4241858626111
 30
0.0
 11
222.354672868017
 21
172.4241858626111
 31
0.0
1001
AUSTER_ANSICHT
1002
{
1000
Det03
1002
}
1001
AUSTER_FOLIE
1002
{
1000
DC_PLUS_KT_FELD
1002
}
  0
LINE
  5
4D6B
330
20
100
AcDbEntity
  8
11000_Left
  6
Continuous
370
    50
100
AcDbLine
 39
0.7
 10
297.455172868017
 20
206.4796858626111
 30
0.0
 11
299.4117728680172
 21
190.648585862611
 31
0.0
1001
AUSTER_ANSICHT
1002
{
1000
Det03
1002
}
1001
AUSTER_FOLIE
1002
{
1000
DC_PLUS_KT_FELD
1002
}
  0
LINE
  5
4D6C
330
20
100
AcDbEntity
  8
11000_Left
  6
Continuous
 62
     7
370
    50
100
AcDbLine
 39
0.45
 10
224.5546728680172
 20
189.7641858626112
 30
0.0
 11
252.4546728680172
 21
189.7641858626112
 31
0.0
1001
AUSTER_ANSICHT
1002
{
1000
Det03
1002
}
1001
AUSTER_FOLIE
1002
{
1000
DC_PLUS_KT_FELD
1002
}
  0
LINE
  5
4D6D
330
20
100
AcDbEntity
  8
11000_Left
  6
Continuous
370
    50
100
AcDbLine
 39
0.7
 10
299.5043728680172
 20
189.0197858626112
 30
0.0
 11
299.4763728680172
 21
189.1977858626112
 31
0.0
1001
AUSTER_ANSICHT
1002
{
1000
Det03
1002
}
1001
AUSTER_FOLIE
1002
{
1000
DC_PLUS_KT_FELD
1002
}
  0
LINE
  5
4D6E
330
20
100
AcDbEntity
  8
11000_Left
  6
Continuous
 62
     7
370
    50
100
AcDbLine
 39
0.45
 10
252.6546728680171
 20
189.7641858626112
 30
0.0
 11
294.0046728680172
 21
189.7641858626112
 31
0.0
1001
AUSTER_ANSICHT
1002
{
1000
Det03
1002
}
1001
AUSTER_FOLIE
1002
{
1000
DC_PLUS_KT_FELD
1002
}
  0
LINE
  5
4D6F
330
20
100
AcDbEntity
  8
11000_Left
  6
Continuous
 62
     7
370
    50
100
AcDbLine
 39
0.45
 10
294.0046728680172
 20
188.264185862611
 30
0.0
 11
294.0046728680172
 21
189.7641858626112
 31
0.0
1001
AUSTER_ANSICHT
1002
{
1000
Det03
1002
}
1001
AUSTER_FOLIE
1002
{
1000
DC_PLUS_KT_FELD
1002
}
  0
LINE
  5
4D70
330
20
100
AcDbEntity
  8
11000_Left
  6
Continuous
370
    50
100
AcDbLine
 39
0.7
 10
249.5546728680172
 20
207.1641858626112
 30
0.0
 11
249.5546728680172
 21
210.3641858626111
 31
0.0
1001
AUSTER_ANSICHT
1002
{
1000
Det03
1002
}
1001
AUSTER_FOLIE
1002
{
1000
DC_PLUS_KT_FELD
1002
}
  0
LINE
  5
4D71
330
20
100
AcDbEntity
  8
11000_Left
  6
Continuous
370
    50
100
AcDbLine
 39
0.7
 10
249.9546728680172
 20
210.7641858626112
 30
0.0
 11
266.354672868017
 21
210.7641858626112
 31
0.0
1001
AUSTER_ANSICHT
1002
{
1000
Det03
1002
}
1001
AUSTER_FOLIE
1002
{
1000
DC_PLUS_KT_FELD
1002
}
  0
LINE
  5
4D72
330
20
100
AcDbEntity
  8
11000_Left
  6
Continuous
370
    50
100
AcDbLine
 39
0.7
 10
266.7546728680171
 20
210.3641858626111
 30
0.0
 11
266.7546728680171
 21
207.1641858626112
 31
0.0
1001
AUSTER_ANSICHT
1002
{
1000
Det03
1002
}
1001
AUSTER_FOLIE
1002
{
1000
DC_PLUS_KT_FELD
1002
}
  0
LINE
  5
4D73
330
20
100
AcDbEntity
  8
11000_Left
  6
Continuous
 62
     7
370
    50
100
AcDbLine
 39
0.45
 10
212.954672868017
 20
177.0541858626111
 30
0.0
 11
212.954672868017
 21
172.4241858626111
 31
0.0
1001
AUSTER_ANSICHT
1002
{
1000
Det03
1002
}
1001
AUSTER_FOLIE
1002
{
1000
DC_PLUS_KT_FELD
1002
}
  0
LINE
  5
4D74
330
20
100
AcDbEntity
  8
11000_Left
  6
Continuous
 62
     7
370
    50
100
AcDbLine
 39
0.45
 10
222.354672868017
 20
172.4241858626111
 30
0.0
 11
222.354672868017
 21
177.0541858626111
 31
0.0
1001
AUSTER_ANSICHT
1002
{
1000
Det03
1002
}
1001
AUSTER_FOLIE
1002
{
1000
DC_PLUS_KT_FELD
1002
}
  0
LINE
  5
4D75
330
20
100
AcDbEntity
  8
11000_Left
  6
Continuous
 62
     7
370
    50
100
AcDbLine
 39
0.45
 10
222.354672868017
 20
177.0541858626111
 30
0.0
 11
212.954672868017
 21
177.0541858626111
 31
0.0
1001
AUSTER_ANSICHT
1002
{
1000
Det03
1002
}
1001
AUSTER_FOLIE
1002
{
1000
DC_PLUS_KT_FELD
1002
}
  0
LINE
  5
4D76
330
20
100
AcDbEntity
  8
11000_Left
  6
Continuous
 62
     7
370
    50
100
AcDbLine
 39
0.45
 10
218.840972868017
 20
177.0541858626111
 30
0.0
 11
218.840972868017
 21
172.4241858626111
 31
0.0
1001
AUSTER_ANSICHT
1002
{
1000
Det03
1002
}
1001
AUSTER_FOLIE
1002
{
1000
DC_PLUS_KT_FELD
1002
}
  0
LINE
  5
4D77
330
20
100
AcDbEntity
  8
11000_Left
  6
Continuous
 62
     7
370
    50
100
AcDbLine
 39
0.45
 10
243.0546728680172
 20
170.2641858626111
 30
0.0
 11
243.0546728680172
 21
163.7641858626111
 31
0.0
1001
AUSTER_ANSICHT
1002
{
1000
Det03
1002
}
1001
AUSTER_FOLIE
1002
{
1000
DC_PLUS_KT_FELD
1002
}
  0
LINE
  5
4D78
330
20
100
AcDbEntity
  8
11000_Left
  6
Continuous
 62
     7
370
    50
100
AcDbLine
 39
0.45
 10
224.5546728680172
 20
207.1641858626112
 30
0.0
 11
224.5546728680172
 21
189.7641858626112
 31
0.0
1001
AUSTER_ANSICHT
1002
{
1000
Det03
1002
}
1001
AUSTER_FOLIE
1002
{
1000
DC_PLUS_KT_FELD
1002
}
  0
LINE
  5
4D79
330
20
100
AcDbEntity
  8
11000_Left
  6
Continuous
 62
     7
370
    50
100
AcDbLine
 39
0.45
 10
252.4546728680172
 20
189.7641858626112
 30
0.0
 11
252.4546728680172
 21
156.0641858626111
 31
0.0
1001
AUSTER_ANSICHT
1002
{
1000
Det03
1002
}
1001
AUSTER_FOLIE
1002
{
1000
DC_PLUS_KT_FELD
1002
}
  0
LINE
  5
4D7A
330
20
100
AcDbEntity
  8
11000_Left
  6
Continuous
 62
     7
370
    50
100
AcDbLine
 39
0.45
 10
267.5546728680172
 20
135.2641858626111
 30
0.0
 11
253.2546728680172
 21
135.2641858626111
 31
0.0
1001
AUSTER_ANSICHT
1002
{
1000
Det03
1002
}
1001
AUSTER_FOLIE
1002
{
1000
DC_PLUS_KT_FELD
1002
}
  0
LINE
  5
4D7B
330
20
100
AcDbEntity
  8
11000_Left
  6
Continuous
 62
     7
370
    50
100
AcDbLine
 39
0.45
 10
267.5546728680172
 20
155.2641858626111
 30
0.0
 11
253.2546728680172
 21
155.2641858626111
 31
0.0
1001
AUSTER_ANSICHT
1002
{
1000
Det03
1002
}
1001
AUSTER_FOLIE
1002
{
1000
DC_PLUS_KT_FELD
1002
}
  0
LINE
  5
4D7C
330
20
100
AcDbEntity
  8
11000_Left
  6
Continuous
 62
     7
370
    50
100
AcDbLine
 39
0.45
 10
243.0546728680172
 20
170.2641858626111
 30
0.0
 11
252.4546728680172
 21
170.2641858626111
 31
0.0
1001
AUSTER_ANSICHT
1002
{
1000
Det03
1002
}
1001
AUSTER_FOLIE
1002
{
1000
DC_PLUS_KT_FELD
1002
}
  0
LINE
  5
4D7D
330
20
100
AcDbEntity
  8
11000_Left
  6
Continuous
 62
     7
370
    50
100
AcDbLine
 39
0.45
 10
243.2546728680172
 20
142.8141858626111
 30
0.0
 11
243.2546728680172
 21
147.7141858626111
 31
0.0
1001
AUSTER_ANSICHT
1002
{
1000
Det03
1002
}
1001
AUSTER_FOLIE
1002
{
1000
DC_PLUS_KT_FELD
1002
}
  0
LINE
  5
4D7E
330
20
100
AcDbEntity
  8
11000_Left
  6
Continuous
 62
     7
370
    50
100
AcDbLine
 39
0.45
 10
261.2546728680172
 20
142.0141858626111
 30
0.0
 11
244.0546728680172
 21
142.0141858626111
 31
0.0
1001
AUSTER_ANSICHT
1002
{
1000
Det03
1002
}
1001
AUSTER_FOLIE
1002
{
1000
DC_PLUS_KT_FELD
1002
}
  0
LINE
  5
4D7F
330
20
100
AcDbEntity
  8
11000_Left
  6
Continuous
 62
     7
370
    50
100
AcDbLine
 39
0.45
 10
262.0546728680172
 20
147.7141858626111
 30
0.0
 11
262.0546728680172
 21
142.8141858626111
 31
0.0
1001
AUSTER_ANSICHT
1002
{
1000
Det03
1002
}
1001
AUSTER_FOLIE
1002
{
1000
DC_PLUS_KT_FELD
1002
}
  0
LINE
  5
4D80
330
20
100
AcDbEntity
  8
11000_Left
  6
Continuous
 62
     7
370
    50
100
AcDbLine
 39
0.45
 10
244.0546728680172
 20
148.5141858626111
 30
0.0
 11
261.2546728680172
 21
148.5141858626111
 31
0.0
1001
AUSTER_ANSICHT
1002
{
1000
Det03
1002
}
1001
AUSTER_FOLIE
1002
{
1000
DC_PLUS_KT_FELD
1002
}
  0
LINE
  5
4D81
330
20
100
AcDbEntity
  8
11000_Left
  6
Continuous
 62
     7
370
    50
100
AcDbLine
 39
0.45
 10
249.5546728680172
 20
166.7641858626111
 30
0.0
 11
249.5546728680172
 21
163.7641858626111
 31
0.0
1001
AUSTER_ANSICHT
1002
{
1000
Det03
1002
}
1001
AUSTER_FOLIE
1002
{
1000
DC_PLUS_KT_FELD
1002
}
  0
LINE
  5
4D82
330
20
100
AcDbEntity
  8
11000_Left
  6
Continuous
 62
     7
370
    50
100
AcDbLine
 39
0.45
 10
249.5546728680172
 20
163.7641858626111
 30
0.0
 11
243.0546728680172
 21
163.7641858626111
 31
0.0
1001
AUSTER_ANSICHT
1002
{
1000
Det03
1002
}
1001
AUSTER_FOLIE
1002
{
1000
DC_PLUS_KT_FELD
1002
}
  0
LINE
  5
4D83
330
20
100
AcDbEntity
  8
11000_Left
  6
Continuous
 62
     7
370
    50
100
AcDbLine
 39
0.45
 10
252.4546728680172
 20
166.7641858626111
 30
0.0
 11
249.5546728680172
 21
166.7641858626111
 31
0.0
1001
AUSTER_ANSICHT
1002
{
1000
Det03
1002
}
1001
AUSTER_FOLIE
1002
{
1000
DC_PLUS_KT_FELD
1002
}
  0
LINE
  5
4D84
330
20
100
AcDbEntity
  8
11000_Left
  6
Continuous
 62
     7
370
    50
100
AcDbLine
 39
0.45
 10
243.0546728680172
 20
126.7641858626111
 30
0.0
 11
249.5546728680172
 21
126.7641858626111
 31
0.0
1001
AUSTER_ANSICHT
1002
{
1000
Det03
1002
}
1001
AUSTER_FOLIE
1002
{
1000
DC_PLUS_KT_FELD
1002
}
  0
LINE
  5
4D85
330
20
100
AcDbEntity
  8
11000_Left
  6
Continuous
 62
     7
370
    50
100
AcDbLine
 39
0.45
 10
254.6546728680171
 20
142.0144858626111
 30
0.0
 11
254.6546728680171
 21
148.5129858626111
 31
0.0
1001
AUSTER_ANSICHT
1002
{
1000
Det03
1002
}
1001
AUSTER_FOLIE
1002
{
1000
DC_PLUS_KT_FELD
1002
}
  0
LINE
  5
4D86
330
20
100
AcDbEntity
  8
11000_Left
  6
Continuous
 62
     7
370
    50
100
AcDbLine
 39
0.45
 10
248.9833728680172
 20
142.0144858626111
 30
0.0
 11
248.9833728680172
 21
148.5129858626111
 31
0.0
1001
AUSTER_ANSICHT
1002
{
1000
Det03
1002
}
1001
AUSTER_FOLIE
1002
{
1000
DC_PLUS_KT_FELD
1002
}
  0
LINE
  5
4D87
330
20
100
AcDbEntity
  8
11000_Left
  6
Continuous
 62
     7
370
    50
100
AcDbLine
 39
0.45
 10
259.4546728680171
 20
148.5129858626111
 30
0.0
 11
259.4546728680171
 21
142.0144858626111
 31
0.0
1001
AUSTER_ANSICHT
1002
{
1000
Det03
1002
}
1001
AUSTER_FOLIE
1002
{
1000
DC_PLUS_KT_FELD
1002
}
  0
LINE
  5
4D88
330
20
100
AcDbEntity
  8
11000_Left
  6
Continuous
370
    50
100
AcDbLine
 39
0.7
 10
301.2270728680172
 20
168.2641858626111
 30
0.0
 11
301.2428728680172
 21
168.2641858626111
 31
0.0
1001
AUSTER_ANSICHT
1002
{
1000
Det03
1002
}
1001
AUSTER_FOLIE
1002
{
1000
DC_PLUS_KT_FELD
1002
}
  0
ARC
  5
4D89
330
20
100
AcDbEntity
  8
11000_Left
  6
Continuous
370
    50
100
AcDbCircle
 39
0.7
 10
298.6162728680172
 20
190.5641858626112
 30
0.0
 40
0.8
100
AcDbArc
 50
270.0
 51
6.059199999999862
1001
AUSTER_ANSICHT
1002
{
1000
Det03
1002
}
1001
AUSTER_FOLIE
1002
{
1000
DC_PLUS_KT_FELD
1002
}
  0
ARC
  5
4D8A
330
20
100
AcDbEntity
  8
11000_Left
  6
Continuous
370
    50
100
AcDbCircle
 39
0.7
 10
298.741372868017
 20
189.0041858626112
 30
0.0
 40
0.76
100
AcDbArc
 50
14.75865000000073
 51
90.0
1001
AUSTER_ANSICHT
1002
{
1000
Det03
1002
}
1001
AUSTER_FOLIE
1002
{
1000
DC_PLUS_KT_FELD
1002
}
  0
ARC
  5
4D8B
330
20
100
AcDbEntity
  8
11000_Left
  6
Continuous
370
    50
100
AcDbCircle
 39
0.7
 10
249.9546728680172
 20
210.3641858626111
 30
0.0
 40
0.4
100
AcDbArc
 50
90.0
 51
180.0
1001
AUSTER_ANSICHT
1002
{
1000
Det03
1002
}
1001
AUSTER_FOLIE
1002
{
1000
DC_PLUS_KT_FELD
1002
}
  0
ARC
  5
4D8C
330
20
100
AcDbEntity
  8
11000_Left
  6
Continuous
370
    50
100
AcDbCircle
 39
0.7
 10
266.354672868017
 20
210.3641858626111
 30
0.0
 40
0.4
100
AcDbArc
 50
0.0
 51
90.0
1001
AUSTER_ANSICHT
1002
{
1000
Det03
1002
}
1001
AUSTER_FOLIE
1002
{
1000
DC_PLUS_KT_FELD
1002
}
  0
ARC
  5
4D8D
330
20
100
AcDbEntity
  8
11000_Left
  6
Continuous
370
    50
100
AcDbCircle
 39
0.7
 10
296.6635728680172
 20
206.3641858626111
 30
0.0
 40
0.7999998000000002
100
AcDbArc
 50
8.301577999998674
 51
90.000010000001
1001
AUSTER_ANSICHT
1002
{
1000
Det03
1002
}
1001
AUSTER_FOLIE
1002
{
1000
DC_PLUS_KT_FELD
1002
}
  0
ARC
  5
4D8E
330
20
100
AcDbEntity
  8
11000_Left
  6
Continuous
 62
     7
370
    50
100
AcDbCircle
 39
0.45
 10
253.2546728680172
 20
134.4641858626111
 30
0.0
 40
0.8
100
AcDbArc
 50
90.0
 51
180.0
1001
AUSTER_ANSICHT
1002
{
1000
Det03
1002
}
1001
AUSTER_FOLIE
1002
{
1000
DC_PLUS_KT_FELD
1002
}
  0
ARC
  5
4D8F
330
20
100
AcDbEntity
  8
11000_Left
  6
Continuous
 62
     7
370
    50
100
AcDbCircle
 39
0.45
 10
267.5546728680172
 20
136.0641858626111
 30
0.0
 40
0.8
100
AcDbArc
 50
270.0
 51
0.0
1001
AUSTER_ANSICHT
1002
{
1000
Det03
1002
}
1001
AUSTER_FOLIE
1002
{
1000
DC_PLUS_KT_FELD
1002
}
  0
ARC
  5
4D90
330
20
100
AcDbEntity
  8
11000_Left
  6
Continuous
 62
     7
370
    50
100
AcDbCircle
 39
0.45
 10
253.2546728680172
 20
156.0641858626111
 30
0.0
 40
0.8
100
AcDbArc
 50
180.0
 51
270.0
1001
AUSTER_ANSICHT
1002
{
1000
Det03
1002
}
1001
AUSTER_FOLIE
1002
{
1000
DC_PLUS_KT_FELD
1002
}
  0
ARC
  5
4D91
330
20
100
AcDbEntity
  8
11000_Left
  6
Continuous
 62
     7
370
    50
100
AcDbCircle
 39
0.45
 10
267.5546728680172
 20
154.4641858626111
 30
0.0
 40
0.8
100
AcDbArc
 50
0.0
 51
90.0
1001
AUSTER_ANSICHT
1002
{
1000
Det03
1002
}
1001
AUSTER_FOLIE
1002
{
1000
DC_PLUS_KT_FELD
1002
}
  0
ARC
  5
4D92
330
20
100
AcDbEntity
  8
11000_Left
  6
Continuous
 62
     7
370
    50
100
AcDbCircle
 39
0.45
 10
244.0546728680172
 20
147.7141858626111
 30
0.0
 40
0.8
100
AcDbArc
 50
90.0
 51
180.0
1001
AUSTER_ANSICHT
1002
{
1000
Det03
1002
}
1001
AUSTER_FOLIE
1002
{
1000
DC_PLUS_KT_FELD
1002
}
  0
ARC
  5
4D93
330
20
100
AcDbEntity
  8
11000_Left
  6
Continuous
 62
     7
370
    50
100
AcDbCircle
 39
0.45
 10
244.0546728680172
 20
142.8141858626111
 30
0.0
 40
0.8
100
AcDbArc
 50
180.0
 51
270.0
1001
AUSTER_ANSICHT
1002
{
1000
Det03
1002
}
1001
AUSTER_FOLIE
1002
{
1000
DC_PLUS_KT_FELD
1002
}
  0
ARC
  5
4D94
330
20
100
AcDbEntity
  8
11000_Left
  6
Continuous
 62
     7
370
    50
100
AcDbCircle
 39
0.45
 10
261.2546728680172
 20
142.8141858626111
 30
0.0
 40
0.8
100
AcDbArc
 50
270.0
 51
0.0
1001
AUSTER_ANSICHT
1002
{
1000
Det03
1002
}
1001
AUSTER_FOLIE
1002
{
1000
DC_PLUS_KT_FELD
1002
}
  0
ARC
  5
4D95
330
20
100
AcDbEntity
  8
11000_Left
  6
Continuous
 62
     7
370
    50
100
AcDbCircle
 39
0.45
 10
261.2546728680172
 20
147.7141858626111
 30
0.0
 40
0.8
100
AcDbArc
 50
0.0
 51
90.0
1001
AUSTER_ANSICHT
1002
{
1000
Det03
1002
}
1001
AUSTER_FOLIE
1002
{
1000
DC_PLUS_KT_FELD
1002
}
  0
LINE
  5
4D96
330
20
100
AcDbEntity
  8
11000_Left
 48
10.0
370
    50
100
AcDbLine
 39
0.25
 10
213.604672868017
 20
215.2641858626112
 30
0.0
 11
213.604672868017
 21
205.2641858626111
 31
0.0
1001
AUSTER_ANSICHT
1002
{
1000
Det03
1002
}
1001
AUSTER_FOLIE
1002
{
1000
DC_PLUS_KT_FELD
1002
}
  0
LINE
  5
4D97
330
20
100
AcDbEntity
  8
11000_Left
 48
10.0
370
    50
100
AcDbLine
 39
0.25
 10
216.604672868017
 20
205.2641858626111
 30
0.0
 11
216.604672868017
 21
215.2641858626112
 31
0.0
1001
AUSTER_ANSICHT
1002
{
1000
Det03
1002
}
1001
AUSTER_FOLIE
1002
{
1000
DC_PLUS_KT_FELD
1002
}
  0
LINE
  5
4D98
330
20
100
AcDbEntity
  8
11000_Left
 48
10.0
370
    50
100
AcDbLine
 39
0.25
 10
213.604672868017
 20
205.2641858626111
 30
0.0
 11
216.604672868017
 21
205.2641858626111
 31
0.0
1001
AUSTER_ANSICHT
1002
{
1000
Det03
1002
}
1001
AUSTER_FOLIE
1002
{
1000
DC_PLUS_KT_FELD
1002
}
  0
LINE
  5
4D99
330
20
100
AcDbEntity
  8
11000_Left
 48
10.0
370
    50
100
AcDbLine
 39
0.25
 10
252.604672868017
 20
191.1641858626112
 30
0.0
 11
252.604672868017
 21
207.1641858626112
 31
0.0
1001
AUSTER_ANSICHT
1002
{
1000
Det03
1002
}
1001
AUSTER_FOLIE
1002
{
1000
DC_PLUS_KT_FELD
1002
}
  0
LINE
  5
4D9A
330
20
100
AcDbEntity
  8
11000_Left
 48
10.0
370
    50
100
AcDbLine
 39
0.25
 10
253.604672868017
 20
207.1641858626112
 30
0.0
 11
253.604672868017
 21
191.1641858626112
 31
0.0
1001
AUSTER_ANSICHT
1002
{
1000
Det03
1002
}
1001
AUSTER_FOLIE
1002
{
1000
DC_PLUS_KT_FELD
1002
}
  0
LINE
  5
4D9B
330
20
100
AcDbEntity
  8
11000_Left
 48
10.0
370
    50
100
AcDbLine
 39
0.25
 10
238.104672868017
 20
207.1641858626112
 30
0.0
 11
238.104672868017
 21
191.1641858626112
 31
0.0
1001
AUSTER_ANSICHT
1002
{
1000
Det03
1002
}
1001
AUSTER_FOLIE
1002
{
1000
DC_PLUS_KT_FELD
1002
}
  0
LINE
  5
4D9C
330
20
100
AcDbEntity
  8
11000_Left
 48
10.0
370
    50
100
AcDbLine
 39
0.25
 10
268.104672868017
 20
191.1641858626112
 30
0.0
 11
268.104672868017
 21
207.1641858626112
 31
0.0
1001
AUSTER_ANSICHT
1002
{
1000
Det03
1002
}
1001
AUSTER_FOLIE
1002
{
1000
DC_PLUS_KT_FELD
1002
}
  0
LINE
  5
4D9D
330
20
100
AcDbEntity
  8
11000_Left
 48
10.0
370
    50
100
AcDbLine
 39
0.25
 10
253.604672868017
 20
191.1641858626112
 30
0.0
 11
268.104672868017
 21
191.1641858626112
 31
0.0
1001
AUSTER_ANSICHT
1002
{
1000
Det03
1002
}
1001
AUSTER_FOLIE
1002
{
1000
DC_PLUS_KT_FELD
1002
}
  0
LINE
  5
4D9E
330
20
100
AcDbEntity
  8
11000_Left
 48
10.0
370
    50
100
AcDbLine
 39
0.25
 10
238.104672868017
 20
191.1641858626112
 30
0.0
 11
252.604672868017
 21
191.1641858626112
 31
0.0
1001
AUSTER_ANSICHT
1002
{
1000
Det03
1002
}
1001
AUSTER_FOLIE
1002
{
1000
DC_PLUS_KT_FELD
1002
}
  0
LINE
  5
52CA
330
20
100
AcDbEntity
  8
90000_Frame
  6
Continuous
 62
     7
100
AcDbLine
 10
10.0
 20
0.0
 30
0.0
 11
10.0
 21
270.0
 31
0.0
  0
LINE
  5
52CB
330
20
100
AcDbEntity
  8
90000_Frame
  6
Continuous
 62
     7
100
AcDbLine
 10
10.0
 20
270.0
 30
0.0
 11
420.0
 21
270.0
 31
0.0
  0
LINE
  5
563F
330
20
100
AcDbEntity
  8
10000_Front
  6
Continuous
 62
     7
370
    13
100
AcDbLine
 39
0.7
 10
40.18926452529696
 20
130.2173794632697
 30
0.0
 11
40.18926452529696
 21
168.2173794632699
 31
0.0
1001
AUSTER_ANSICHT
1002
{
1000
Det03
1002
}
1001
AUSTER_FOLIE
1002
{
1000
AC_PLUS_KT_FELD
1002
}
  0
LINE
  5
5640
330
20
100
AcDbEntity
  8
10000_Front
  6
Continuous
 62
     7
370
    13
100
AcDbLine
 39
0.7
 10
40.18926452529696
 20
168.2173794632699
 30
0.0
 11
85.1892845252969
 21
168.2173794632699
 31
0.0
1001
AUSTER_ANSICHT
1002
{
1000
Det03
1002
}
1001
AUSTER_FOLIE
1002
{
1000
AC_PLUS_KT_FELD
1002
}
  0
LINE
  5
5641
330
20
100
AcDbEntity
  8
10000_Front
  6
Continuous
 62
     7
370
    13
100
AcDbLine
 39
0.7
 10
85.1892845252969
 20
130.2173794632697
 30
0.0
 11
40.18926452529696
 21
130.2173794632697
 31
0.0
1001
AUSTER_ANSICHT
1002
{
1000
Det03
1002
}
1001
AUSTER_FOLIE
1002
{
1000
AC_PLUS_KT_FELD
1002
}
  0
LINE
  5
5642
330
20
100
AcDbEntity
  8
10000_Front
  6
Continuous
 62
     7
370
    13
100
AcDbLine
 39
0.7
 10
40.18926452529696
 20
163.2173794632698
 30
0.0
 11
85.1892845252969
 21
163.2173794632698
 31
0.0
1001
AUSTER_ANSICHT
1002
{
1000
Det03
1002
}
1001
AUSTER_FOLIE
1002
{
1000
AC_PLUS_KT_FELD
1002
}
  0
LINE
  5
5643
330
20
100
AcDbEntity
  8
10000_Front
  6
Continuous
 62
     7
370
    13
100
AcDbLine
 39
0.7
 10
82.78928452529681
 20
126.6183794632698
 30
0.0
 11
84.35178452529681
 21
126.6183794632698
 31
0.0
1001
AUSTER_ANSICHT
1002
{
1000
Det03
1002
}
1001
AUSTER_FOLIE
1002
{
1000
AC_PLUS_KT_FELD
1002
}
  0
LINE
  5
5644
330
20
100
AcDbEntity
  8
10000_Front
  6
Continuous
 62
     7
370
    13
100
AcDbLine
 39
0.7
 10
82.78928452529681
 20
127.7173794632697
 30
0.0
 11
82.78928452529681
 21
126.6183794632698
 31
0.0
1001
AUSTER_ANSICHT
1002
{
1000
Det03
1002
}
1001
AUSTER_FOLIE
1002
{
1000
AC_PLUS_KT_FELD
1002
}
  0
LINE
  5
5645
330
20
100
AcDbEntity
  8
10000_Front
  6
Continuous
 62
     7
370
    13
100
AcDbLine
 39
0.7
 10
42.58926452529683
 20
126.6183794632698
 30
0.0
 11
41.02674452529687
 21
126.6183794632698
 31
0.0
1001
AUSTER_ANSICHT
1002
{
1000
Det03
1002
}
1001
AUSTER_FOLIE
1002
{
1000
AC_PLUS_KT_FELD
1002
}
  0
LINE
  5
5646
330
20
100
AcDbEntity
  8
10000_Front
  6
Continuous
 62
     7
370
    13
100
AcDbLine
 39
0.7
 10
42.58926452529683
 20
127.7173794632697
 30
0.0
 11
42.58926452529683
 21
126.6183794632698
 31
0.0
1001
AUSTER_ANSICHT
1002
{
1000
Det03
1002
}
1001
AUSTER_FOLIE
1002
{
1000
AC_PLUS_KT_FELD
1002
}
  0
LINE
  5
5647
330
20
100
AcDbEntity
  8
10000_Front
  6
Continuous
 62
     7
370
    13
100
AcDbLine
 39
0.7
 10
83.78928452529681
 20
156.9173794632697
 30
0.0
 11
83.78928452529681
 21
160.4673794632697
 31
0.0
1001
AUSTER_ANSICHT
1002
{
1000
Det03
1002
}
1001
AUSTER_FOLIE
1002
{
1000
AC_PLUS_KT_FELD
1002
}
  0
LINE
  5
5648
330
20
100
AcDbEntity
  8
10000_Front
  6
Continuous
 62
     7
370
    13
100
AcDbLine
 39
0.7
 10
81.38928452529695
 20
156.9173794632697
 30
0.0
 11
83.78928452529681
 21
156.9173794632697
 31
0.0
1001
AUSTER_ANSICHT
1002
{
1000
Det03
1002
}
1001
AUSTER_FOLIE
1002
{
1000
AC_PLUS_KT_FELD
1002
}
  0
LINE
  5
5649
330
20
100
AcDbEntity
  8
10000_Front
  6
Continuous
 62
     7
370
    13
100
AcDbLine
 39
0.7
 10
74.58928452529689
 20
156.9173794632697
 30
0.0
 11
76.98928452529685
 21
156.9173794632697
 31
0.0
1001
AUSTER_ANSICHT
1002
{
1000
Det03
1002
}
1001
AUSTER_FOLIE
1002
{
1000
AC_PLUS_KT_FELD
1002
}
  0
LINE
  5
564A
330
20
100
AcDbEntity
  8
10000_Front
  6
Continuous
 62
     7
370
    13
100
AcDbLine
 39
0.7
 10
74.58928452529689
 20
160.4673794632697
 30
0.0
 11
74.58928452529689
 21
156.9173794632697
 31
0.0
1001
AUSTER_ANSICHT
1002
{
1000
Det03
1002
}
1001
AUSTER_FOLIE
1002
{
1000
AC_PLUS_KT_FELD
1002
}
  0
LINE
  5
564B
330
20
100
AcDbEntity
  8
10000_Front
  6
Continuous
 62
     7
370
    13
100
AcDbLine
 39
0.7
 10
72.78928452529682
 20
156.9173794632697
 30
0.0
 11
72.78928452529682
 21
160.4673794632697
 31
0.0
1001
AUSTER_ANSICHT
1002
{
1000
Det03
1002
}
1001
AUSTER_FOLIE
1002
{
1000
AC_PLUS_KT_FELD
1002
}
  0
LINE
  5
564C
330
20
100
AcDbEntity
  8
10000_Front
  6
Continuous
 62
     7
370
    13
100
AcDbLine
 39
0.7
 10
70.38928452529695
 20
156.9173794632697
 30
0.0
 11
72.78928452529682
 21
156.9173794632697
 31
0.0
1001
AUSTER_ANSICHT
1002
{
1000
Det03
1002
}
1001
AUSTER_FOLIE
1002
{
1000
AC_PLUS_KT_FELD
1002
}
  0
LINE
  5
564D
330
20
100
AcDbEntity
  8
10000_Front
  6
Continuous
 62
     7
370
    13
100
AcDbLine
 39
0.7
 10
63.58928452529691
 20
156.9173794632697
 30
0.0
 11
65.98928452529687
 21
156.9173794632697
 31
0.0
1001
AUSTER_ANSICHT
1002
{
1000
Det03
1002
}
1001
AUSTER_FOLIE
1002
{
1000
AC_PLUS_KT_FELD
1002
}
  0
LINE
  5
564E
330
20
100
AcDbEntity
  8
10000_Front
  6
Continuous
 62
     7
370
    13
100
AcDbLine
 39
0.7
 10
63.58928452529691
 20
160.4673794632697
 30
0.0
 11
63.58928452529691
 21
156.9173794632697
 31
0.0
1001
AUSTER_ANSICHT
1002
{
1000
Det03
1002
}
1001
AUSTER_FOLIE
1002
{
1000
AC_PLUS_KT_FELD
1002
}
  0
LINE
  5
564F
330
20
100
AcDbEntity
  8
10000_Front
  6
Continuous
 62
     7
370
    13
100
AcDbLine
 39
0.7
 10
61.78928452529683
 20
156.9173794632697
 30
0.0
 11
61.78928452529683
 21
160.4673794632697
 31
0.0
1001
AUSTER_ANSICHT
1002
{
1000
Det03
1002
}
1001
AUSTER_FOLIE
1002
{
1000
AC_PLUS_KT_FELD
1002
}
  0
LINE
  5
5650
330
20
100
AcDbEntity
  8
10000_Front
  6
Continuous
 62
     7
370
    13
100
AcDbLine
 39
0.7
 10
59.38928452529694
 20
156.9173794632697
 30
0.0
 11
61.78928452529683
 21
156.9173794632697
 31
0.0
1001
AUSTER_ANSICHT
1002
{
1000
Det03
1002
}
1001
AUSTER_FOLIE
1002
{
1000
AC_PLUS_KT_FELD
1002
}
  0
LINE
  5
5651
330
20
100
AcDbEntity
  8
10000_Front
  6
Continuous
 62
     7
370
    13
100
AcDbLine
 39
0.7
 10
52.58926452529682
 20
156.9173794632697
 30
0.0
 11
54.98928452529686
 21
156.9173794632697
 31
0.0
1001
AUSTER_ANSICHT
1002
{
1000
Det03
1002
}
1001
AUSTER_FOLIE
1002
{
1000
AC_PLUS_KT_FELD
1002
}
  0
LINE
  5
5652
330
20
100
AcDbEntity
  8
10000_Front
  6
Continuous
 62
     7
370
    13
100
AcDbLine
 39
0.7
 10
52.58926452529682
 20
160.4673794632697
 30
0.0
 11
52.58926452529682
 21
156.9173794632697
 31
0.0
1001
AUSTER_ANSICHT
1002
{
1000
Det03
1002
}
1001
AUSTER_FOLIE
1002
{
1000
AC_PLUS_KT_FELD
1002
}
  0
LINE
  5
5653
330
20
100
AcDbEntity
  8
10000_Front
  6
Continuous
 62
     7
370
    13
100
AcDbLine
 39
0.7
 10
50.78926452529686
 20
156.9173794632697
 30
0.0
 11
50.78926452529686
 21
160.4673794632697
 31
0.0
1001
AUSTER_ANSICHT
1002
{
1000
Det03
1002
}
1001
AUSTER_FOLIE
1002
{
1000
AC_PLUS_KT_FELD
1002
}
  0
LINE
  5
5654
330
20
100
AcDbEntity
  8
10000_Front
  6
Continuous
 62
     7
370
    13
100
AcDbLine
 39
0.7
 10
48.38926452529687
 20
156.9173794632697
 30
0.0
 11
50.78926452529686
 21
156.9173794632697
 31
0.0
1001
AUSTER_ANSICHT
1002
{
1000
Det03
1002
}
1001
AUSTER_FOLIE
1002
{
1000
AC_PLUS_KT_FELD
1002
}
  0
LINE
  5
5655
330
20
100
AcDbEntity
  8
10000_Front
  6
Continuous
 62
     7
370
    13
100
AcDbLine
 39
0.7
 10
41.58926452529679
 20
156.9173794632697
 30
0.0
 11
43.9892645252969
 21
156.9173794632697
 31
0.0
1001
AUSTER_ANSICHT
1002
{
1000
Det03
1002
}
1001
AUSTER_FOLIE
1002
{
1000
AC_PLUS_KT_FELD
1002
}
  0
LINE
  5
5656
330
20
100
AcDbEntity
  8
10000_Front
  6
Continuous
 62
     7
370
    13
100
AcDbLine
 39
0.7
 10
41.58926452529679
 20
160.4673794632697
 30
0.0
 11
41.58926452529679
 21
156.9173794632697
 31
0.0
1001
AUSTER_ANSICHT
1002
{
1000
Det03
1002
}
1001
AUSTER_FOLIE
1002
{
1000
AC_PLUS_KT_FELD
1002
}
  0
LINE
  5
5657
330
20
100
AcDbEntity
  8
10000_Front
  6
Continuous
 62
     7
370
    13
100
AcDbLine
 39
0.7
 10
76.58928452529689
 20
133.9673794632697
 30
0.0
 11
81.7892845252968
 21
133.9673794632697
 31
0.0
1001
AUSTER_ANSICHT
1002
{
1000
Det03
1002
}
1001
AUSTER_FOLIE
1002
{
1000
AC_PLUS_KT_FELD
1002
}
  0
LINE
  5
5658
330
20
100
AcDbEntity
  8
10000_Front
  6
Continuous
 62
     7
370
    13
100
AcDbLine
 39
0.7
 10
65.58928452529689
 20
133.9673794632697
 30
0.0
 11
70.78928452529682
 21
133.9673794632697
 31
0.0
1001
AUSTER_ANSICHT
1002
{
1000
Det03
1002
}
1001
AUSTER_FOLIE
1002
{
1000
AC_PLUS_KT_FELD
1002
}
  0
LINE
  5
5659
330
20
100
AcDbEntity
  8
10000_Front
  6
Continuous
 62
     7
370
    13
100
AcDbLine
 39
0.7
 10
54.58928452529687
 20
133.9673794632697
 30
0.0
 11
59.78928452529682
 21
133.9673794632697
 31
0.0
1001
AUSTER_ANSICHT
1002
{
1000
Det03
1002
}
1001
AUSTER_FOLIE
1002
{
1000
AC_PLUS_KT_FELD
1002
}
  0
LINE
  5
565A
330
20
100
AcDbEntity
  8
10000_Front
  6
Continuous
 62
     7
370
    13
100
AcDbLine
 39
0.7
 10
43.58926452529683
 20
133.9673794632697
 30
0.0
 11
48.78926452529686
 21
133.9673794632697
 31
0.0
1001
AUSTER_ANSICHT
1002
{
1000
Det03
1002
}
1001
AUSTER_FOLIE
1002
{
1000
AC_PLUS_KT_FELD
1002
}
  0
LINE
  5
565B
330
20
100
AcDbEntity
  8
10000_Front
  6
Continuous
 62
     7
370
    13
100
AcDbLine
 39
0.7
 10
41.58926452529679
 20
160.4673794632697
 30
0.0
 11
50.78926452529686
 21
160.4673794632697
 31
0.0
1001
AUSTER_ANSICHT
1002
{
1000
Det03
1002
}
1001
AUSTER_FOLIE
1002
{
1000
AC_PLUS_KT_FELD
1002
}
  0
LINE
  5
565C
330
20
100
AcDbEntity
  8
10000_Front
  6
Continuous
 62
     7
370
    13
100
AcDbLine
 39
0.7
 10
48.38926452529687
 20
156.9173794632697
 30
0.0
 11
48.38926452529687
 21
152.4173794632697
 31
0.0
1001
AUSTER_ANSICHT
1002
{
1000
Det03
1002
}
1001
AUSTER_FOLIE
1002
{
1000
AC_PLUS_KT_FELD
1002
}
  0
LINE
  5
565D
330
20
100
AcDbEntity
  8
10000_Front
  6
Continuous
 62
     7
370
    13
100
AcDbLine
 39
0.7
 10
43.9892645252969
 20
156.9173794632697
 30
0.0
 11
43.9892645252969
 21
152.4173794632697
 31
0.0
1001
AUSTER_ANSICHT
1002
{
1000
Det03
1002
}
1001
AUSTER_FOLIE
1002
{
1000
AC_PLUS_KT_FELD
1002
}
  0
LINE
  5
565E
330
20
100
AcDbEntity
  8
10000_Front
  6
Continuous
 62
     7
370
    13
100
AcDbLine
 39
0.7
 10
50.08926452529682
 20
138.2173794632697
 30
0.0
 11
48.78926452529686
 21
138.2173794632697
 31
0.0
1001
AUSTER_ANSICHT
1002
{
1000
Det03
1002
}
1001
AUSTER_FOLIE
1002
{
1000
AC_PLUS_KT_FELD
1002
}
  0
LINE
  5
565F
330
20
100
AcDbEntity
  8
10000_Front
  6
Continuous
 62
     7
370
    13
100
AcDbLine
 39
0.7
 10
50.08926452529682
 20
152.4173794632697
 30
0.0
 11
50.08926452529682
 21
138.2173794632697
 31
0.0
1001
AUSTER_ANSICHT
1002
{
1000
Det03
1002
}
1001
AUSTER_FOLIE
1002
{
1000
AC_PLUS_KT_FELD
1002
}
  0
LINE
  5
5660
330
20
100
AcDbEntity
  8
10000_Front
  6
Continuous
 62
     7
370
    13
100
AcDbLine
 39
0.7
 10
42.28926452529687
 20
138.2173794632697
 30
0.0
 11
42.28926452529687
 21
152.4173794632697
 31
0.0
1001
AUSTER_ANSICHT
1002
{
1000
Det03
1002
}
1001
AUSTER_FOLIE
1002
{
1000
AC_PLUS_KT_FELD
1002
}
  0
LINE
  5
5661
330
20
100
AcDbEntity
  8
10000_Front
  6
Continuous
 62
     7
370
    13
100
AcDbLine
 39
0.7
 10
43.58926452529683
 20
138.2173794632697
 30
0.0
 11
42.28926452529687
 21
138.2173794632697
 31
0.0
1001
AUSTER_ANSICHT
1002
{
1000
Det03
1002
}
1001
AUSTER_FOLIE
1002
{
1000
AC_PLUS_KT_FELD
1002
}
  0
LINE
  5
5662
330
20
100
AcDbEntity
  8
10000_Front
  6
Continuous
 62
     7
370
    13
100
AcDbLine
 39
0.7
 10
74.58928452529689
 20
160.4673794632697
 30
0.0
 11
83.78928452529681
 21
160.4673794632697
 31
0.0
1001
AUSTER_ANSICHT
1002
{
1000
Det03
1002
}
1001
AUSTER_FOLIE
1002
{
1000
AC_PLUS_KT_FELD
1002
}
  0
LINE
  5
5663
330
20
100
AcDbEntity
  8
10000_Front
  6
Continuous
 62
     7
370
    13
100
AcDbLine
 39
0.7
 10
81.38928452529695
 20
156.9173794632697
 30
0.0
 11
81.38928452529695
 21
152.4173794632697
 31
0.0
1001
AUSTER_ANSICHT
1002
{
1000
Det03
1002
}
1001
AUSTER_FOLIE
1002
{
1000
AC_PLUS_KT_FELD
1002
}
  0
LINE
  5
5664
330
20
100
AcDbEntity
  8
10000_Front
  6
Continuous
 62
     7
370
    13
100
AcDbLine
 39
0.7
 10
76.98928452529685
 20
156.9173794632697
 30
0.0
 11
76.98928452529685
 21
152.4173794632697
 31
0.0
1001
AUSTER_ANSICHT
1002
{
1000
Det03
1002
}
1001
AUSTER_FOLIE
1002
{
1000
AC_PLUS_KT_FELD
1002
}
  0
LINE
  5
5665
330
20
100
AcDbEntity
  8
10000_Front
  6
Continuous
 62
     7
370
    13
100
AcDbLine
 39
0.7
 10
83.0892845252969
 20
138.2173794632697
 30
0.0
 11
81.7892845252968
 21
138.2173794632697
 31
0.0
1001
AUSTER_ANSICHT
1002
{
1000
Det03
1002
}
1001
AUSTER_FOLIE
1002
{
1000
AC_PLUS_KT_FELD
1002
}
  0
LINE
  5
5666
330
20
100
AcDbEntity
  8
10000_Front
  6
Continuous
 62
     7
370
    13
100
AcDbLine
 39
0.7
 10
83.0892845252969
 20
152.4173794632697
 30
0.0
 11
83.0892845252969
 21
138.2173794632697
 31
0.0
1001
AUSTER_ANSICHT
1002
{
1000
Det03
1002
}
1001
AUSTER_FOLIE
1002
{
1000
AC_PLUS_KT_FELD
1002
}
  0
LINE
  5
5667
330
20
100
AcDbEntity
  8
10000_Front
  6
Continuous
 62
     7
370
    13
100
AcDbLine
 39
0.7
 10
75.28928452529682
 20
138.2173794632697
 30
0.0
 11
75.28928452529682
 21
152.4173794632697
 31
0.0
1001
AUSTER_ANSICHT
1002
{
1000
Det03
1002
}
1001
AUSTER_FOLIE
1002
{
1000
AC_PLUS_KT_FELD
1002
}
  0
LINE
  5
5668
330
20
100
AcDbEntity
  8
10000_Front
  6
Continuous
 62
     7
370
    13
100
AcDbLine
 39
0.7
 10
76.58928452529689
 20
138.2173794632697
 30
0.0
 11
75.28928452529682
 21
138.2173794632697
 31
0.0
1001
AUSTER_ANSICHT
1002
{
1000
Det03
1002
}
1001
AUSTER_FOLIE
1002
{
1000
AC_PLUS_KT_FELD
1002
}
  0
LINE
  5
5669
330
20
100
AcDbEntity
  8
10000_Front
  6
Continuous
 62
     7
370
    13
100
AcDbLine
 39
0.7
 10
81.7892845252968
 20
133.9673794632697
 30
0.0
 11
81.7892845252968
 21
138.2173794632697
 31
0.0
1001
AUSTER_ANSICHT
1002
{
1000
Det03
1002
}
1001
AUSTER_FOLIE
1002
{
1000
AC_PLUS_KT_FELD
1002
}
  0
LINE
  5
566A
330
20
100
AcDbEntity
  8
10000_Front
  6
Continuous
 62
     7
370
    13
100
AcDbLine
 39
0.7
 10
76.58928452529689
 20
138.2173794632697
 30
0.0
 11
76.58928452529689
 21
133.9673794632697
 31
0.0
1001
AUSTER_ANSICHT
1002
{
1000
Det03
1002
}
1001
AUSTER_FOLIE
1002
{
1000
AC_PLUS_KT_FELD
1002
}
  0
LINE
  5
566B
330
20
100
AcDbEntity
  8
10000_Front
  6
Continuous
 62
     7
370
    13
100
AcDbLine
 39
0.7
 10
83.0892845252969
 20
152.4173794632697
 30
0.0
 11
81.38928452529695
 21
152.4173794632697
 31
0.0
1001
AUSTER_ANSICHT
1002
{
1000
Det03
1002
}
1001
AUSTER_FOLIE
1002
{
1000
AC_PLUS_KT_FELD
1002
}
  0
LINE
  5
566C
330
20
100
AcDbEntity
  8
10000_Front
  6
Continuous
 62
     7
370
    13
100
AcDbLine
 39
0.7
 10
75.28928452529682
 20
152.4173794632697
 30
0.0
 11
76.98928452529685
 21
152.4173794632697
 31
0.0
1001
AUSTER_ANSICHT
1002
{
1000
Det03
1002
}
1001
AUSTER_FOLIE
1002
{
1000
AC_PLUS_KT_FELD
1002
}
  0
LINE
  5
566D
330
20
100
AcDbEntity
  8
10000_Front
  6
Continuous
 62
     7
370
    13
100
AcDbLine
 39
0.7
 10
76.93928452529691
 20
141.3173794632698
 30
0.0
 11
76.93928452529691
 21
146.7173794632697
 31
0.0
1001
AUSTER_ANSICHT
1002
{
1000
Det03
1002
}
1001
AUSTER_FOLIE
1002
{
1000
AC_PLUS_KT_FELD
1002
}
  0
LINE
  5
566E
330
20
100
AcDbEntity
  8
10000_Front
  6
Continuous
 62
     7
370
    13
100
AcDbLine
 39
0.7
 10
81.4392845252969
 20
141.3173794632698
 30
0.0
 11
76.93928452529691
 21
141.3173794632698
 31
0.0
1001
AUSTER_ANSICHT
1002
{
1000
Det03
1002
}
1001
AUSTER_FOLIE
1002
{
1000
AC_PLUS_KT_FELD
1002
}
  0
LINE
  5
566F
330
20
100
AcDbEntity
  8
10000_Front
  6
Continuous
 62
     7
370
    13
100
AcDbLine
 39
0.7
 10
81.4392845252969
 20
146.7173794632697
 30
0.0
 11
81.4392845252969
 21
141.3173794632698
 31
0.0
1001
AUSTER_ANSICHT
1002
{
1000
Det03
1002
}
1001
AUSTER_FOLIE
1002
{
1000
AC_PLUS_KT_FELD
1002
}
  0
LINE
  5
5670
330
20
100
AcDbEntity
  8
10000_Front
  6
Continuous
 62
     7
370
    13
100
AcDbLine
 39
0.7
 10
81.11968452529689
 20
147.0173794632698
 30
0.0
 11
81.4392845252969
 21
146.7173794632697
 31
0.0
1001
AUSTER_ANSICHT
1002
{
1000
Det03
1002
}
1001
AUSTER_FOLIE
1002
{
1000
AC_PLUS_KT_FELD
1002
}
  0
LINE
  5
5671
330
20
100
AcDbEntity
  8
10000_Front
  6
Continuous
 62
     7
370
    13
100
AcDbLine
 39
0.7
 10
77.25878452529686
 20
147.0173794632698
 30
0.0
 11
81.11968452529689
 21
147.0173794632698
 31
0.0
1001
AUSTER_ANSICHT
1002
{
1000
Det03
1002
}
1001
AUSTER_FOLIE
1002
{
1000
AC_PLUS_KT_FELD
1002
}
  0
LINE
  5
5672
330
20
100
AcDbEntity
  8
10000_Front
  6
Continuous
 62
     7
370
    13
100
AcDbLine
 39
0.7
 10
76.93928452529691
 20
146.7173794632697
 30
0.0
 11
77.25878452529686
 21
147.0173794632698
 31
0.0
1001
AUSTER_ANSICHT
1002
{
1000
Det03
1002
}
1001
AUSTER_FOLIE
1002
{
1000
AC_PLUS_KT_FELD
1002
}
  0
LINE
  5
5673
330
20
100
AcDbEntity
  8
10000_Front
  6
Continuous
 62
     7
370
    13
100
AcDbLine
 39
0.7
 10
63.58928452529691
 20
160.4673794632697
 30
0.0
 11
72.78928452529682
 21
160.4673794632697
 31
0.0
1001
AUSTER_ANSICHT
1002
{
1000
Det03
1002
}
1001
AUSTER_FOLIE
1002
{
1000
AC_PLUS_KT_FELD
1002
}
  0
LINE
  5
5674
330
20
100
AcDbEntity
  8
10000_Front
  6
Continuous
 62
     7
370
    13
100
AcDbLine
 39
0.7
 10
70.38928452529695
 20
156.9173794632697
 30
0.0
 11
70.38928452529695
 21
152.4173794632697
 31
0.0
1001
AUSTER_ANSICHT
1002
{
1000
Det03
1002
}
1001
AUSTER_FOLIE
1002
{
1000
AC_PLUS_KT_FELD
1002
}
  0
LINE
  5
5675
330
20
100
AcDbEntity
  8
10000_Front
  6
Continuous
 62
     7
370
    13
100
AcDbLine
 39
0.7
 10
65.98928452529687
 20
156.9173794632697
 30
0.0
 11
65.98928452529687
 21
152.4173794632697
 31
0.0
1001
AUSTER_ANSICHT
1002
{
1000
Det03
1002
}
1001
AUSTER_FOLIE
1002
{
1000
AC_PLUS_KT_FELD
1002
}
  0
LINE
  5
5676
330
20
100
AcDbEntity
  8
10000_Front
  6
Continuous
 62
     7
370
    13
100
AcDbLine
 39
0.7
 10
72.08928452529689
 20
138.2173794632697
 30
0.0
 11
70.78928452529682
 21
138.2173794632697
 31
0.0
1001
AUSTER_ANSICHT
1002
{
1000
Det03
1002
}
1001
AUSTER_FOLIE
1002
{
1000
AC_PLUS_KT_FELD
1002
}
  0
LINE
  5
5677
330
20
100
AcDbEntity
  8
10000_Front
  6
Continuous
 62
     7
370
    13
100
AcDbLine
 39
0.7
 10
72.08928452529689
 20
152.4173794632697
 30
0.0
 11
72.08928452529689
 21
138.2173794632697
 31
0.0
1001
AUSTER_ANSICHT
1002
{
1000
Det03
1002
}
1001
AUSTER_FOLIE
1002
{
1000
AC_PLUS_KT_FELD
1002
}
  0
LINE
  5
5678
330
20
100
AcDbEntity
  8
10000_Front
  6
Continuous
 62
     7
370
    13
100
AcDbLine
 39
0.7
 10
64.28928452529683
 20
138.2173794632697
 30
0.0
 11
64.28928452529683
 21
152.4173794632697
 31
0.0
1001
AUSTER_ANSICHT
1002
{
1000
Det03
1002
}
1001
AUSTER_FOLIE
1002
{
1000
AC_PLUS_KT_FELD
1002
}
  0
LINE
  5
5679
330
20
100
AcDbEntity
  8
10000_Front
  6
Continuous
 62
     7
370
    13
100
AcDbLine
 39
0.7
 10
65.58928452529689
 20
138.2173794632697
 30
0.0
 11
64.28928452529683
 21
138.2173794632697
 31
0.0
1001
AUSTER_ANSICHT
1002
{
1000
Det03
1002
}
1001
AUSTER_FOLIE
1002
{
1000
AC_PLUS_KT_FELD
1002
}
  0
LINE
  5
567A
330
20
100
AcDbEntity
  8
10000_Front
  6
Continuous
 62
     7
370
    13
100
AcDbLine
 39
0.7
 10
70.78928452529682
 20
133.9673794632697
 30
0.0
 11
70.78928452529682
 21
138.2173794632697
 31
0.0
1001
AUSTER_ANSICHT
1002
{
1000
Det03
1002
}
1001
AUSTER_FOLIE
1002
{
1000
AC_PLUS_KT_FELD
1002
}
  0
LINE
  5
567B
330
20
100
AcDbEntity
  8
10000_Front
  6
Continuous
 62
     7
370
    13
100
AcDbLine
 39
0.7
 10
65.58928452529689
 20
138.2173794632697
 30
0.0
 11
65.58928452529689
 21
133.9673794632697
 31
0.0
1001
AUSTER_ANSICHT
1002
{
1000
Det03
1002
}
1001
AUSTER_FOLIE
1002
{
1000
AC_PLUS_KT_FELD
1002
}
  0
LINE
  5
567C
330
20
100
AcDbEntity
  8
10000_Front
  6
Continuous
 62
     7
370
    13
100
AcDbLine
 39
0.7
 10
72.08928452529689
 20
152.4173794632697
 30
0.0
 11
70.38928452529695
 21
152.4173794632697
 31
0.0
1001
AUSTER_ANSICHT
1002
{
1000
Det03
1002
}
1001
AUSTER_FOLIE
1002
{
1000
AC_PLUS_KT_FELD
1002
}
  0
LINE
  5
567D
330
20
100
AcDbEntity
  8
10000_Front
  6
Continuous
 62
     7
370
    13
100
AcDbLine
 39
0.7
 10
64.28928452529683
 20
152.4173794632697
 30
0.0
 11
65.98928452529687
 21
152.4173794632697
 31
0.0
1001
AUSTER_ANSICHT
1002
{
1000
Det03
1002
}
1001
AUSTER_FOLIE
1002
{
1000
AC_PLUS_KT_FELD
1002
}
  0
LINE
  5
567E
330
20
100
AcDbEntity
  8
10000_Front
  6
Continuous
 62
     7
370
    13
100
AcDbLine
 39
0.7
 10
65.93928452529691
 20
141.3173794632698
 30
0.0
 11
65.93928452529691
 21
146.7173794632697
 31
0.0
1001
AUSTER_ANSICHT
1002
{
1000
Det03
1002
}
1001
AUSTER_FOLIE
1002
{
1000
AC_PLUS_KT_FELD
1002
}
  0
LINE
  5
567F
330
20
100
AcDbEntity
  8
10000_Front
  6
Continuous
 62
     7
370
    13
100
AcDbLine
 39
0.7
 10
70.43928452529691
 20
141.3173794632698
 30
0.0
 11
65.93928452529691
 21
141.3173794632698
 31
0.0
1001
AUSTER_ANSICHT
1002
{
1000
Det03
1002
}
1001
AUSTER_FOLIE
1002
{
1000
AC_PLUS_KT_FELD
1002
}
  0
LINE
  5
5680
330
20
100
AcDbEntity
  8
10000_Front
  6
Continuous
 62
     7
370
    13
100
AcDbLine
 39
0.7
 10
70.43928452529691
 20
146.7173794632697
 30
0.0
 11
70.43928452529691
 21
141.3173794632698
 31
0.0
1001
AUSTER_ANSICHT
1002
{
1000
Det03
1002
}
1001
AUSTER_FOLIE
1002
{
1000
AC_PLUS_KT_FELD
1002
}
  0
LINE
  5
5681
330
20
100
AcDbEntity
  8
10000_Front
  6
Continuous
 62
     7
370
    13
100
AcDbLine
 39
0.7
 10
70.11968452529686
 20
147.0173794632698
 30
0.0
 11
70.43928452529691
 21
146.7173794632697
 31
0.0
1001
AUSTER_ANSICHT
1002
{
1000
Det03
1002
}
1001
AUSTER_FOLIE
1002
{
1000
AC_PLUS_KT_FELD
1002
}
  0
LINE
  5
5682
330
20
100
AcDbEntity
  8
10000_Front
  6
Continuous
 62
     7
370
    13
100
AcDbLine
 39
0.7
 10
66.25878452529686
 20
147.0173794632698
 30
0.0
 11
70.11968452529686
 21
147.0173794632698
 31
0.0
1001
AUSTER_ANSICHT
1002
{
1000
Det03
1002
}
1001
AUSTER_FOLIE
1002
{
1000
AC_PLUS_KT_FELD
1002
}
  0
LINE
  5
5683
330
20
100
AcDbEntity
  8
10000_Front
  6
Continuous
 62
     7
370
    13
100
AcDbLine
 39
0.7
 10
65.93928452529691
 20
146.7173794632697
 30
0.0
 11
66.25878452529686
 21
147.0173794632698
 31
0.0
1001
AUSTER_ANSICHT
1002
{
1000
Det03
1002
}
1001
AUSTER_FOLIE
1002
{
1000
AC_PLUS_KT_FELD
1002
}
  0
LINE
  5
5684
330
20
100
AcDbEntity
  8
10000_Front
  6
Continuous
 62
     7
370
    13
100
AcDbLine
 39
0.7
 10
52.58926452529682
 20
160.4673794632697
 30
0.0
 11
61.78928452529683
 21
160.4673794632697
 31
0.0
1001
AUSTER_ANSICHT
1002
{
1000
Det03
1002
}
1001
AUSTER_FOLIE
1002
{
1000
AC_PLUS_KT_FELD
1002
}
  0
LINE
  5
5685
330
20
100
AcDbEntity
  8
10000_Front
  6
Continuous
 62
     7
370
    13
100
AcDbLine
 39
0.7
 10
59.38928452529694
 20
156.9173794632697
 30
0.0
 11
59.38928452529694
 21
152.4173794632697
 31
0.0
1001
AUSTER_ANSICHT
1002
{
1000
Det03
1002
}
1001
AUSTER_FOLIE
1002
{
1000
AC_PLUS_KT_FELD
1002
}
  0
LINE
  5
5686
330
20
100
AcDbEntity
  8
10000_Front
  6
Continuous
 62
     7
370
    13
100
AcDbLine
 39
0.7
 10
54.98928452529686
 20
156.9173794632697
 30
0.0
 11
54.98928452529686
 21
152.4173794632697
 31
0.0
1001
AUSTER_ANSICHT
1002
{
1000
Det03
1002
}
1001
AUSTER_FOLIE
1002
{
1000
AC_PLUS_KT_FELD
1002
}
  0
LINE
  5
5687
330
20
100
AcDbEntity
  8
10000_Front
  6
Continuous
 62
     7
370
    13
100
AcDbLine
 39
0.7
 10
61.08928452529691
 20
138.2173794632697
 30
0.0
 11
59.78928452529682
 21
138.2173794632697
 31
0.0
1001
AUSTER_ANSICHT
1002
{
1000
Det03
1002
}
1001
AUSTER_FOLIE
1002
{
1000
AC_PLUS_KT_FELD
1002
}
  0
LINE
  5
5688
330
20
100
AcDbEntity
  8
10000_Front
  6
Continuous
 62
     7
370
    13
100
AcDbLine
 39
0.7
 10
61.08928452529691
 20
152.4173794632697
 30
0.0
 11
61.08928452529691
 21
138.2173794632697
 31
0.0
1001
AUSTER_ANSICHT
1002
{
1000
Det03
1002
}
1001
AUSTER_FOLIE
1002
{
1000
AC_PLUS_KT_FELD
1002
}
  0
LINE
  5
5689
330
20
100
AcDbEntity
  8
10000_Front
  6
Continuous
 62
     7
370
    13
100
AcDbLine
 39
0.7
 10
53.28928452529683
 20
138.2173794632697
 30
0.0
 11
53.28928452529683
 21
152.4173794632697
 31
0.0
1001
AUSTER_ANSICHT
1002
{
1000
Det03
1002
}
1001
AUSTER_FOLIE
1002
{
1000
AC_PLUS_KT_FELD
1002
}
  0
LINE
  5
568A
330
20
100
AcDbEntity
  8
10000_Front
  6
Continuous
 62
     7
370
    13
100
AcDbLine
 39
0.7
 10
54.58928452529687
 20
138.2173794632697
 30
0.0
 11
53.28928452529683
 21
138.2173794632697
 31
0.0
1001
AUSTER_ANSICHT
1002
{
1000
Det03
1002
}
1001
AUSTER_FOLIE
1002
{
1000
AC_PLUS_KT_FELD
1002
}
  0
LINE
  5
568B
330
20
100
AcDbEntity
  8
10000_Front
  6
Continuous
 62
     7
370
    13
100
AcDbLine
 39
0.7
 10
59.78928452529682
 20
133.9673794632697
 30
0.0
 11
59.78928452529682
 21
138.2173794632697
 31
0.0
1001
AUSTER_ANSICHT
1002
{
1000
Det03
1002
}
1001
AUSTER_FOLIE
1002
{
1000
AC_PLUS_KT_FELD
1002
}
  0
LINE
  5
568C
330
20
100
AcDbEntity
  8
10000_Front
  6
Continuous
 62
     7
370
    13
100
AcDbLine
 39
0.7
 10
54.58928452529687
 20
138.2173794632697
 30
0.0
 11
54.58928452529687
 21
133.9673794632697
 31
0.0
1001
AUSTER_ANSICHT
1002
{
1000
Det03
1002
}
1001
AUSTER_FOLIE
1002
{
1000
AC_PLUS_KT_FELD
1002
}
  0
LINE
  5
568D
330
20
100
AcDbEntity
  8
10000_Front
  6
Continuous
 62
     7
370
    13
100
AcDbLine
 39
0.7
 10
61.08928452529691
 20
152.4173794632697
 30
0.0
 11
59.38928452529694
 21
152.4173794632697
 31
0.0
1001
AUSTER_ANSICHT
1002
{
1000
Det03
1002
}
1001
AUSTER_FOLIE
1002
{
1000
AC_PLUS_KT_FELD
1002
}
  0
LINE
  5
568E
330
20
100
AcDbEntity
  8
10000_Front
  6
Continuous
 62
     7
370
    13
100
AcDbLine
 39
0.7
 10
50.08926452529682
 20
152.4173794632697
 30
0.0
 11
48.38926452529687
 21
152.4173794632697
 31
0.0
1001
AUSTER_ANSICHT
1002
{
1000
Det03
1002
}
1001
AUSTER_FOLIE
1002
{
1000
AC_PLUS_KT_FELD
1002
}
  0
LINE
  5
568F
330
20
100
AcDbEntity
  8
10000_Front
  6
Continuous
 62
     7
370
    13
100
AcDbLine
 39
0.7
 10
53.28928452529683
 20
152.4173794632697
 30
0.0
 11
54.98928452529686
 21
152.4173794632697
 31
0.0
1001
AUSTER_ANSICHT
1002
{
1000
Det03
1002
}
1001
AUSTER_FOLIE
1002
{
1000
AC_PLUS_KT_FELD
1002
}
  0
LINE
  5
5690
330
20
100
AcDbEntity
  8
10000_Front
  6
Continuous
 62
     7
370
    13
100
AcDbLine
 39
0.7
 10
54.93928452529691
 20
141.3173794632698
 30
0.0
 11
54.93928452529691
 21
146.7173794632697
 31
0.0
1001
AUSTER_ANSICHT
1002
{
1000
Det03
1002
}
1001
AUSTER_FOLIE
1002
{
1000
AC_PLUS_KT_FELD
1002
}
  0
LINE
  5
5691
330
20
100
AcDbEntity
  8
10000_Front
  6
Continuous
 62
     7
370
    13
100
AcDbLine
 39
0.7
 10
59.43928452529691
 20
141.3173794632698
 30
0.0
 11
54.93928452529691
 21
141.3173794632698
 31
0.0
1001
AUSTER_ANSICHT
1002
{
1000
Det03
1002
}
1001
AUSTER_FOLIE
1002
{
1000
AC_PLUS_KT_FELD
1002
}
  0
LINE
  5
5692
330
20
100
AcDbEntity
  8
10000_Front
  6
Continuous
 62
     7
370
    13
100
AcDbLine
 39
0.7
 10
59.43928452529691
 20
146.7173794632697
 30
0.0
 11
59.43928452529691
 21
141.3173794632698
 31
0.0
1001
AUSTER_ANSICHT
1002
{
1000
Det03
1002
}
1001
AUSTER_FOLIE
1002
{
1000
AC_PLUS_KT_FELD
1002
}
  0
LINE
  5
5693
330
20
100
AcDbEntity
  8
10000_Front
  6
Continuous
 62
     7
370
    13
100
AcDbLine
 39
0.7
 10
59.11968452529687
 20
147.0173794632698
 30
0.0
 11
59.43928452529691
 21
146.7173794632697
 31
0.0
1001
AUSTER_ANSICHT
1002
{
1000
Det03
1002
}
1001
AUSTER_FOLIE
1002
{
1000
AC_PLUS_KT_FELD
1002
}
  0
LINE
  5
5694
330
20
100
AcDbEntity
  8
10000_Front
  6
Continuous
 62
     7
370
    13
100
AcDbLine
 39
0.7
 10
55.25878452529687
 20
147.0173794632698
 30
0.0
 11
59.11968452529687
 21
147.0173794632698
 31
0.0
1001
AUSTER_ANSICHT
1002
{
1000
Det03
1002
}
1001
AUSTER_FOLIE
1002
{
1000
AC_PLUS_KT_FELD
1002
}
  0
LINE
  5
5695
330
20
100
AcDbEntity
  8
10000_Front
  6
Continuous
 62
     7
370
    13
100
AcDbLine
 39
0.7
 10
54.93928452529691
 20
146.7173794632697
 30
0.0
 11
55.25878452529687
 21
147.0173794632698
 31
0.0
1001
AUSTER_ANSICHT
1002
{
1000
Det03
1002
}
1001
AUSTER_FOLIE
1002
{
1000
AC_PLUS_KT_FELD
1002
}
  0
LINE
  5
5696
330
20
100
AcDbEntity
  8
10000_Front
  6
Continuous
 62
     7
370
    13
100
AcDbLine
 39
0.7
 10
48.78926452529686
 20
133.9673794632697
 30
0.0
 11
48.78926452529686
 21
138.2173794632697
 31
0.0
1001
AUSTER_ANSICHT
1002
{
1000
Det03
1002
}
1001
AUSTER_FOLIE
1002
{
1000
AC_PLUS_KT_FELD
1002
}
  0
LINE
  5
5697
330
20
100
AcDbEntity
  8
10000_Front
  6
Continuous
 62
     7
370
    13
100
AcDbLine
 39
0.7
 10
43.58926452529683
 20
138.2173794632697
 30
0.0
 11
43.58926452529683
 21
133.9673794632697
 31
0.0
1001
AUSTER_ANSICHT
1002
{
1000
Det03
1002
}
1001
AUSTER_FOLIE
1002
{
1000
AC_PLUS_KT_FELD
1002
}
  0
LINE
  5
5698
330
20
100
AcDbEntity
  8
10000_Front
  6
Continuous
 62
     7
370
    13
100
AcDbLine
 39
0.7
 10
42.28926452529687
 20
152.4173794632697
 30
0.0
 11
43.9892645252969
 21
152.4173794632697
 31
0.0
1001
AUSTER_ANSICHT
1002
{
1000
Det03
1002
}
1001
AUSTER_FOLIE
1002
{
1000
AC_PLUS_KT_FELD
1002
}
  0
LINE
  5
5699
330
20
100
AcDbEntity
  8
10000_Front
  6
Continuous
 62
     7
370
    13
100
AcDbLine
 39
0.7
 10
43.93926452529695
 20
141.3173794632698
 30
0.0
 11
43.93926452529695
 21
146.7173794632697
 31
0.0
1001
AUSTER_ANSICHT
1002
{
1000
Det03
1002
}
1001
AUSTER_FOLIE
1002
{
1000
AC_PLUS_KT_FELD
1002
}
  0
LINE
  5
569A
330
20
100
AcDbEntity
  8
10000_Front
  6
Continuous
 62
     7
370
    13
100
AcDbLine
 39
0.7
 10
48.43926452529693
 20
141.3173794632698
 30
0.0
 11
43.93926452529695
 21
141.3173794632698
 31
0.0
1001
AUSTER_ANSICHT
1002
{
1000
Det03
1002
}
1001
AUSTER_FOLIE
1002
{
1000
AC_PLUS_KT_FELD
1002
}
  0
LINE
  5
569B
330
20
100
AcDbEntity
  8
10000_Front
  6
Continuous
 62
     7
370
    13
100
AcDbLine
 39
0.7
 10
48.43926452529693
 20
146.7173794632697
 30
0.0
 11
48.43926452529693
 21
141.3173794632698
 31
0.0
1001
AUSTER_ANSICHT
1002
{
1000
Det03
1002
}
1001
AUSTER_FOLIE
1002
{
1000
AC_PLUS_KT_FELD
1002
}
  0
LINE
  5
569C
330
20
100
AcDbEntity
  8
10000_Front
  6
Continuous
 62
     7
370
    13
100
AcDbLine
 39
0.7
 10
48.11973452529686
 20
147.0173794632698
 30
0.0
 11
48.43926452529693
 21
146.7173794632697
 31
0.0
1001
AUSTER_ANSICHT
1002
{
1000
Det03
1002
}
1001
AUSTER_FOLIE
1002
{
1000
AC_PLUS_KT_FELD
1002
}
  0
LINE
  5
569D
330
20
100
AcDbEntity
  8
10000_Front
  6
Continuous
 62
     7
370
    13
100
AcDbLine
 39
0.7
 10
44.25879452529694
 20
147.0173794632698
 30
0.0
 11
48.11973452529686
 21
147.0173794632698
 31
0.0
1001
AUSTER_ANSICHT
1002
{
1000
Det03
1002
}
1001
AUSTER_FOLIE
1002
{
1000
AC_PLUS_KT_FELD
1002
}
  0
LINE
  5
569E
330
20
100
AcDbEntity
  8
10000_Front
  6
Continuous
 62
     7
370
    13
100
AcDbLine
 39
0.7
 10
43.93926452529695
 20
146.7173794632697
 30
0.0
 11
44.25879452529694
 21
147.0173794632698
 31
0.0
1001
AUSTER_ANSICHT
1002
{
1000
Det03
1002
}
1001
AUSTER_FOLIE
1002
{
1000
AC_PLUS_KT_FELD
1002
}
  0
LINE
  5
569F
330
20
100
AcDbEntity
  8
10000_Front
  6
Continuous
 62
     7
370
    13
100
AcDbLine
 39
0.7
 10
85.1892845252969
 20
168.2173794632699
 30
0.0
 11
85.1892845252969
 21
130.2173794632697
 31
0.0
1001
AUSTER_ANSICHT
1002
{
1000
Det03
1002
}
1001
AUSTER_FOLIE
1002
{
1000
AC_PLUS_KT_FELD
1002
}
  0
LINE
  5
56A0
330
20
100
AcDbEntity
  8
10000_Front
  6
Continuous
 62
     7
370
    13
100
AcDbLine
 39
0.7
 10
82.78928452529681
 20
127.7173794632697
 30
0.0
 11
42.58926452529683
 21
127.7173794632697
 31
0.0
1001
AUSTER_ANSICHT
1002
{
1000
Det03
1002
}
1001
AUSTER_FOLIE
1002
{
1000
AC_PLUS_KT_FELD
1002
}
  0
LINE
  5
56A1
330
20
100
AcDbEntity
  8
10000_Front
  6
Continuous
 62
     7
370
    13
100
AcDbLine
 39
0.7
 10
41.02674452529687
 20
120.5743794632698
 30
0.0
 11
84.35178452529681
 21
120.5743794632698
 31
0.0
1001
AUSTER_ANSICHT
1002
{
1000
Det03
1002
}
1001
AUSTER_FOLIE
1002
{
1000
AC_PLUS_KT_FELD
1002
}
  0
LINE
  5
56A3
330
20
100
AcDbEntity
  8
10000_Front
  6
Continuous
 62
     7
370
    13
100
AcDbLine
 39
0.7
 10
84.35178452529681
 20
126.6183794632698
 30
0.0
 11
84.35178452529681
 21
120.5743794632698
 31
0.0
1001
AUSTER_ANSICHT
1002
{
1000
Det03
1002
}
1001
AUSTER_FOLIE
1002
{
1000
AC_PLUS_KT_FELD
1002
}
  0
LINE
  5
56A4
330
20
100
AcDbEntity
  8
10000_Front
  6
Continuous
 62
     7
370
    13
100
AcDbLine
 39
0.7
 10
41.02674452529687
 20
126.6183794632698
 30
0.0
 11
41.02674452529687
 21
120.5743794632698
 31
0.0
1001
AUSTER_ANSICHT
1002
{
1000
Det03
1002
}
1001
AUSTER_FOLIE
1002
{
1000
AC_PLUS_KT_FELD
1002
}
  0
LINE
  5
56A5
330
20
100
AcDbEntity
  8
10000_Front
  6
Continuous
 62
     7
370
    13
100
AcDbLine
 39
0.7
 10
62.68928452529691
 20
127.7173794632697
 30
0.0
 11
62.68928452529691
 21
120.5743794632698
 31
0.0
1001
AUSTER_ANSICHT
1002
{
1000
Det03
1002
}
1001
AUSTER_FOLIE
1002
{
1000
AC_PLUS_KT_FELD
1002
}
  0
TEXT
  5
56A6
330
20
100
AcDbEntity
  8
90000_Frame
  6
Continuous
 62
     7
100
AcDbText
 10
332.8687290768514
 20
17.59703047677646
 30
0.0
 40
3.5
  1
Schütz S3 DC
 41
1.711316702143118
 72
     5
 11
402.747494414362
 21
17.59703047677646
 31
0.0
100
AcDbText
  0
ENDSEC
  0
SECTION
  2
OBJECTS
  0
DICTIONARY
  5
C
330
0
100
AcDbDictionary
281
     1
  3
ACAD_COLOR
350
1B
  3
ACAD_GROUP
350
D
  3
ACAD_LAYOUT
350
19
  3
ACAD_MATERIAL
350
1A
  3
ACAD_MLINESTYLE
350
16
  3
ACAD_PLOTSETTINGS
350
18
  3
ACAD_PLOTSTYLENAME
350
E
  3
ACAD_TABLESTYLE
350
55CF
  3
ACAD_VISUALSTYLE
350
55BE
  3
AcDbVariableDictionary
350
56A7
  3
DWGPROPS
350
56B9
  0
DICTIONARY
  5
1B
102
{ACAD_REACTORS
330
C
102
}
330
C
100
AcDbDictionary
281
     1
  0
DICTIONARY
  5
D
102
{ACAD_REACTORS
330
C
102
}
330
C
100
AcDbDictionary
281
     1
  0
DICTIONARY
  5
19
102
{ACAD_REACTORS
330
C
102
}
330
C
100
AcDbDictionary
281
     1
  3
Layout1
350
1F
  3
Model
350
23
  0
DICTIONARY
  5
1A
102
{ACAD_REACTORS
330
C
102
}
330
C
100
AcDbDictionary
281
     1
  3
ByBlock
350
55BC
  3
ByLayer
350
55BB
  3
Global
350
55BD
  0
DICTIONARY
  5
16
102
{ACAD_REACTORS
330
C
102
}
330
C
100
AcDbDictionary
281
     1
  3
Standard
350
17
  0
DICTIONARY
  5
18
102
{ACAD_REACTORS
330
C
102
}
330
C
100
AcDbDictionary
281
     1
  0
ACDBDICTIONARYWDFLT
  5
E
102
{ACAD_REACTORS
330
C
102
}
330
C
100
AcDbDictionary
281
     1
  3
Normal
350
F
100
AcDbDictionaryWithDefault
340
F
  0
DICTIONARY
  5
55CF
102
{ACAD_REACTORS
330
C
102
}
330
C
100
AcDbDictionary
281
     1
  3
Standard
350
55D0
  0
DICTIONARY
  5
55BE
102
{ACAD_REACTORS
330
C
102
}
330
C
100
AcDbDictionary
281
     1
  3
2dWireframe
350
55C4
  3
3D Hidden
350
55C6
  3
3dWireframe
350
55C5
  3
Basic
350
55C3
  3
Brighten
350
55CA
  3
ColorChange
350
55CE
  3
Conceptual
350
55C7
  3
Dim
350
55C9
  3
Facepattern
350
55CD
  3
Flat
350
55BF
  3
FlatWithEdges
350
55C0
  3
Gouraud
350
55C1
  3
GouraudWithEdges
350
55C2
  3
Linepattern
350
55CC
  3
Realistic
350
55C8
  3
Thicken
350
55CB
  0
DICTIONARY
  5
56A7
102
{ACAD_REACTORS
330
C
102
}
330
C
100
AcDbDictionary
281
     1
  3
CTABLESTYLE
350
56A8
  3
DIMASSOC
350
56AB
  3
INDEXCTL
350
56AA
  3
SORTENTS
350
56A9
  0
XRECORD
  5
56B9
102
{ACAD_REACTORS
330
C
102
}
330
C
100
AcDbXrecord
280
     1
  1
DWGPROPS COOKIE
  2

  3

  4

  6

  7

  8
chpf
  9

300
=
301
=
302
=
303
=
304
=
305
=
306
=
307
=
308
=
309
=
 40
0.823341423611111
 41
2452829.417613079
 42
2454112.421457037
  1

 90
        0
  0
LAYOUT
  5
1F
102
{ACAD_XDICTIONARY
360
56BA
102
}
102
{ACAD_REACTORS
330
19
102
}
330
19
100
AcDbPlotSettings
  1

  2
HP LaserJet 5000 Series PS
  4

  6

 40
0.0
 41
0.0
 42
0.0
 43
0.0
 44
0.0
 45
0.0
 46
0.0
 47
0.0
 48
0.0
 49
0.0
140
0.0
141
0.0
142
1.0
143
1.0
 70
   688
 72
     0
 73
     0
 74
     5
  7
monochrome.ctb
 75
    16
147
1.0
148
0.0
149
0.0
100
AcDbLayout
  1
Layout1
 70
     1
 71
     1
 10
0.0
 20
0.0
 11
12.0
 21
9.0
 12
0.0
 22
0.0
 32
0.0
 14
1.000000000000000E+20
 24
1.000000000000000E+20
 34
1.000000000000000E+20
 15
-1.000000000000000E+20
 25
-1.000000000000000E+20
 35
-1.000000000000000E+20
146
0.0
 13
0.0
 23
0.0
 33
0.0
 16
1.0
 26
0.0
 36
0.0
 17
0.0
 27
1.0
 37
0.0
 76
     0
330
1C
  0
LAYOUT
  5
23
102
{ACAD_XDICTIONARY
360
56BC
102
}
102
{ACAD_REACTORS
330
19
102
}
330
19
100
AcDbPlotSettings
  1

  2
\\AMBW779A\A_P00873 (Canon iR2200-3300 PCL6)
  4
A3
  6

 40
4.815416812896728
 41
4.815412044525146
 42
4.815399169921875
 43
4.8154296875
 44
296.9259948730469
 45
419.9466552734373
 46
0.0
 47
0.0
 48
0.0
 49
0.0
140
0.0
141
0.0
142
1.0
143
1.0
 70
 11952
 72
     1
 73
     1
 74
     1
  7
monochrome.ctb
 75
    16
147
1.0
148
-9.972541491193851
149
0.0181221163699092
100
AcDbLayout
  1
Model
 70
     1
 71
     0
 10
0.0
 20
0.0
 11
12.0
 21
9.0
 12
0.0
 22
0.0
 32
0.0
 14
0.0
 24
0.0
 34
0.0
 15
0.0
 25
0.0
 35
0.0
146
0.0
 13
0.0
 23
0.0
 33
0.0
 16
1.0
 26
0.0
 36
0.0
 17
0.0
 27
1.0
 37
0.0
 76
     0
330
20
331
55B7
  0
MATERIAL
  5
55BC
102
{ACAD_XDICTIONARY
360
56C0
102
}
102
{ACAD_REACTORS
330
1A
102
}
330
1A
100
AcDbMaterial
  1
ByBlock
  0
MATERIAL
  5
55BB
102
{ACAD_XDICTIONARY
360
56BE
102
}
102
{ACAD_REACTORS
330
1A
102
}
330
1A
100
AcDbMaterial
  1
ByLayer
  0
MATERIAL
  5
55BD
102
{ACAD_XDICTIONARY
360
56C2
102
}
102
{ACAD_REACTORS
330
1A
102
}
330
1A
100
AcDbMaterial
  1
Global
  0
MLINESTYLE
  5
17
102
{ACAD_REACTORS
330
16
102
}
330
16
100
AcDbMlineStyle
  2
STANDARD
 70
     0
  3

 62
   256
 51
90.0
 52
90.0
 71
     2
 49
0.5
 62
   256
  6
BYLAYER
 49
-0.5
 62
   256
  6
BYLAYER
  0
ACDBPLACEHOLDER
  5
F
102
{ACAD_REACTORS
330
E
102
}
330
E
  0
TABLESTYLE
  5
55D0
102
{ACAD_XDICTIONARY
360
56C4
102
}
102
{ACAD_REACTORS
330
55CF
102
}
330
55CF
100
AcDbTableStyle
  3
Standard
 70
     0
 71
     0
 40
0.06
 41
0.06
280
     0
281
     0
  7
Standard
140
0.18
170
     2
 62
     0
 63
     7
283
     0
274
    -2
284
     1
 64
     0
275
    -2
285
     1
 65
     0
276
    -2
286
     1
 66
     0
277
    -2
287
     1
 67
     0
278
    -2
288
     1
 68
     0
279
    -2
289
     1
 69
     0
  7
Standard
140
0.25
170
     5
 62
     0
 63
     7
283
     0
274
    -2
284
     1
 64
     0
275
    -2
285
     1
 65
     0
276
    -2
286
     1
 66
     0
277
    -2
287
     1
 67
     0
278
    -2
288
     1
 68
     0
279
    -2
289
     1
 69
     0
  7
Standard
140
0.18
170
     5
 62
     0
 63
     7
283
     0
274
    -2
284
     1
 64
     0
275
    -2
285
     1
 65
     0
276
    -2
286
     1
 66
     0
277
    -2
287
     1
 67
     0
278
    -2
288
     1
 68
     0
279
    -2
289
     1
 69
     0
  0
VISUALSTYLE
  5
55C4
102
{ACAD_REACTORS
330
55BE
102
}
330
55BE
100
AcDbVisualStyle
  2
2dWireframe
 70
     4
 71
     0
 72
     2
 73
     0
 90
        0
 40
-0.6
 41
-30.0
 62
     5
 63
     7
 74
     1
 91
        4
 64
     7
 65
   257
 75
     1
175
     1
 42
1.0
 92
        0
 66
   257
 43
1.0
 76
     1
 77
     6
 78
     2
 67
     7
 79
     5
170
     0
171
     0
290
     0
174
     0
 93
        1
 44
0.0
173
     0
291
     0
 45
0.0
1001
ACAD
1000
AcDbSavedByObjectVersion
1070
     0
  0
VISUALSTYLE
  5
55C6
102
{ACAD_REACTORS
330
55BE
102
}
330
55BE
100
AcDbVisualStyle
  2
3D Hidden
 70
     6
 71
     1
 72
     2
 73
     2
 90
        0
 40
-0.6
 41
-30.0
 62
     5
 63
     7
 74
     2
 91
        2
 64
     7
 65
   257
 75
     2
175
     1
 42
40.0
 92
        0
 66
   257
 43
1.0
 76
     1
 77
     6
 78
     2
 67
     7
 79
     3
170
     0
171
     0
290
     0
174
     0
 93
        1
 44
0.0
173
     0
291
     0
 45
0.0
1001
ACAD
1000
AcDbSavedByObjectVersion
1070
     0
  0
VISUALSTYLE
  5
55C5
102
{ACAD_REACTORS
330
55BE
102
}
330
55BE
100
AcDbVisualStyle
  2
3dWireframe
 70
     5
 71
     0
 72
     2
 73
     0
 90
        0
 40
-0.6
 41
-30.0
 62
     5
 63
     7
 74
     1
 91
        4
 64
     7
 65
   257
 75
     1
175
     1
 42
1.0
 92
        0
 66
   257
 43
1.0
 76
     1
 77
     6
 78
     2
 67
     7
 79
     5
170
     0
171
     0
290
     0
174
     0
 93
        1
 44
0.0
173
     0
291
     0
 45
0.0
1001
ACAD
1000
AcDbSavedByObjectVersion
1070
     0
  0
VISUALSTYLE
  5
55C3
102
{ACAD_REACTORS
330
55BE
102
}
330
55BE
100
AcDbVisualStyle
  2
Basic
 70
     7
 71
     1
 72
     0
 73
     1
 90
        0
 40
-0.6
 41
-30.0
 62
     5
 63
     7
 74
     0
 91
        4
 64
     7
 65
   257
 75
     1
175
     1
 42
1.0
 92
        8
 66
     7
 43
1.0
 76
     1
 77
     6
 78
     2
 67
     7
 79
     5
170
     0
171
     0
290
     0
174
     0
 93
        1
 44
0.0
173
     0
291
     1
 45
0.0
1001
ACAD
1000
AcDbSavedByObjectVersion
1070
     0
  0
VISUALSTYLE
  5
55CA
102
{ACAD_REACTORS
330
55BE
102
}
330
55BE
100
AcDbVisualStyle
  2
Brighten
 70
    12
 71
     2
 72
     2
 73
     0
 90
        0
 40
-0.6
 41
-30.0
 62
     5
 63
     7
 74
     1
 91
        4
 64
     7
 65
   257
 75
     1
175
     1
 42
1.0
 92
        8
 66
     7
 43
1.0
 76
     1
 77
     6
 78
     2
 67
     7
 79
     5
170
     0
171
     0
290
     0
174
     0
 93
        1
 44
50.0
173
     0
291
     1
 45
0.0
1001
ACAD
1000
AcDbSavedByObjectVersion
1070
     0
  0
VISUALSTYLE
  5
55CE
102
{ACAD_REACTORS
330
55BE
102
}
330
55BE
100
AcDbVisualStyle
  2
ColorChange
 70
    16
 71
     2
 72
     2
 73
     3
 90
        0
 40
-0.6
 41
-30.0
 62
     5
 63
     8
 74
     1
 91
        4
 64
     7
 65
   257
 75
     1
175
     1
 42
1.0
 92
        8
 66
     8
 43
1.0
 76
     1
 77
     6
 78
     2
 67
     7
 79
     5
170
     0
171
     0
290
     0
174
     0
 93
        1
 44
0.0
173
     0
291
     1
 45
0.0
1001
ACAD
1000
AcDbSavedByObjectVersion
1070
     0
  0
VISUALSTYLE
  5
55C7
102
{ACAD_REACTORS
330
55BE
102
}
330
55BE
100
AcDbVisualStyle
  2
Conceptual
 70
     9
 71
     3
 72
     2
 73
     0
 90
        0
 40
-0.6
 41
-30.0
 62
     5
 63
     7
 74
     2
 91
        2
 64
     7
 65
   257
 75
     1
175
     1
 42
40.0
 92
        8
 66
     7
 43
1.0
 76
     1
 77
     6
 78
     2
 67
     7
 79
     3
170
     0
171
     0
290
     0
174
     0
 93
        1
 44
0.0
173
     0
291
     0
 45
0.0
1001
ACAD
1000
AcDbSavedByObjectVersion
1070
     0
  0
VISUALSTYLE
  5
55C9
102
{ACAD_REACTORS
330
55BE
102
}
330
55BE
100
AcDbVisualStyle
  2
Dim
 70
    11
 71
     2
 72
     2
 73
     0
 90
        0
 40
-0.6
 41
-30.0
 62
     5
 63
     7
 74
     1
 91
        4
 64
     7
 65
   257
 75
     1
175
     1
 42
1.0
 92
        8
 66
     7
 43
1.0
 76
     1
 77
     6
 78
     2
 67
     7
 79
     5
170
     0
171
     0
290
     0
174
     0
 93
        1
 44
-50.0
173
     0
291
     1
 45
0.0
1001
ACAD
1000
AcDbSavedByObjectVersion
1070
     0
  0
VISUALSTYLE
  5
55CD
102
{ACAD_REACTORS
330
55BE
102
}
330
55BE
100
AcDbVisualStyle
  2
Facepattern
 70
    15
 71
     2
 72
     2
 73
     0
 90
        0
 40
-0.6
 41
-30.0
 62
     5
 63
     7
 74
     1
 91
        4
 64
     7
 65
   257
 75
     1
175
     1
 42
1.0
 92
        8
 66
     7
 43
1.0
 76
     1
 77
     6
 78
     2
 67
     7
 79
     5
170
     0
171
     0
290
     0
174
     0
 93
        1
 44
0.0
173
     0
291
     1
 45
0.0
1001
ACAD
1000
AcDbSavedByObjectVersion
1070
     0
  0
VISUALSTYLE
  5
55BF
102
{ACAD_REACTORS
330
55BE
102
}
330
55BE
100
AcDbVisualStyle
  2
Flat
 70
     0
 71
     2
 72
     1
 73
     1
 90
        2
 40
-0.6
 41
30.0
 62
     5
 63
     7
 74
     0
 91
        4
 64
     7
 65
   257
 75
     1
175
     1
 42
1.0
 92
        8
 66
     7
 43
1.0
 76
     1
 77
     6
 78
     2
 67
     7
 79
     5
170
     0
171
     0
290
     0
174
     0
 93
       13
 44
0.0
173
     0
291
     1
 45
0.0
1001
ACAD
1000
AcDbSavedByObjectVersion
1070
     0
  0
VISUALSTYLE
  5
55C0
102
{ACAD_REACTORS
330
55BE
102
}
330
55BE
100
AcDbVisualStyle
  2
FlatWithEdges
 70
     1
 71
     2
 72
     1
 73
     1
 90
        2
 40
-0.6
 41
30.0
 62
     5
 63
     7
 74
     1
 91
        4
 64
     7
 65
   257
 75
     1
175
     1
 42
1.0
 92
        0
 66
   257
 43
1.0
 76
     1
 77
     6
 78
     2
 67
     7
 79
     5
170
     0
171
     0
290
     0
174
     0
 93
       13
 44
0.0
173
     0
291
     1
 45
0.0
1001
ACAD
1000
AcDbSavedByObjectVersion
1070
     0
  0
VISUALSTYLE
  5
55C1
102
{ACAD_REACTORS
330
55BE
102
}
330
55BE
100
AcDbVisualStyle
  2
Gouraud
 70
     2
 71
     2
 72
     2
 73
     1
 90
        2
 40
-0.6
 41
30.0
 62
     5
 63
     7
 74
     0
 91
        4
 64
     7
 65
   257
 75
     1
175
     1
 42
1.0
 92
        0
 66
     7
 43
1.0
 76
     1
 77
     6
 78
     2
 67
     7
 79
     5
170
     0
171
     0
290
     0
174
     0
 93
       13
 44
0.0
173
     0
291
     1
 45
0.0
1001
ACAD
1000
AcDbSavedByObjectVersion
1070
     0
  0
VISUALSTYLE
  5
55C2
102
{ACAD_REACTORS
330
55BE
102
}
330
55BE
100
AcDbVisualStyle
  2
GouraudWithEdges
 70
     3
 71
     2
 72
     2
 73
     1
 90
        2
 40
-0.6
 41
30.0
 62
     5
 63
     7
 74
     1
 91
        4
 64
     7
 65
   257
 75
     1
175
     1
 42
1.0
 92
        0
 66
   257
 43
1.0
 76
     1
 77
     6
 78
     2
 67
     7
 79
     5
170
     0
171
     0
290
     0
174
     0
 93
       13
 44
0.0
173
     0
291
     1
 45
0.0
1001
ACAD
1000
AcDbSavedByObjectVersion
1070
     0
  0
VISUALSTYLE
  5
55CC
102
{ACAD_REACTORS
330
55BE
102
}
330
55BE
100
AcDbVisualStyle
  2
Linepattern
 70
    14
 71
     2
 72
     2
 73
     0
 90
        0
 40
-0.6
 41
-30.0
 62
     5
 63
     7
 74
     1
 91
        4
 64
     7
 65
   257
 75
     7
175
     7
 42
1.0
 92
        8
 66
     7
 43
1.0
 76
     1
 77
     6
 78
     2
 67
     7
 79
     5
170
     0
171
     0
290
     0
174
     0
 93
        1
 44
0.0
173
     0
291
     1
 45
0.0
1001
ACAD
1000
AcDbSavedByObjectVersion
1070
     0
  0
VISUALSTYLE
  5
55C8
102
{ACAD_REACTORS
330
55BE
102
}
330
55BE
100
AcDbVisualStyle
  2
Realistic
 70
     8
 71
     2
 72
     2
 73
     0
 90
        0
 40
-0.6
 41
-30.0
 62
     5
 63
     7
 74
     1
 91
        0
 64
     7
 65
   257
 75
     1
175
     1
 42
1.0
 92
        8
 66
     8
 43
1.0
 76
     1
 77
     6
 78
     2
 67
     7
 79
     5
170
     0
171
     0
290
     0
174
     0
 93
       13
 44
0.0
173
     0
291
     0
 45
0.0
1001
ACAD
1000
AcDbSavedByObjectVersion
1070
     0
  0
VISUALSTYLE
  5
55CB
102
{ACAD_REACTORS
330
55BE
102
}
330
55BE
100
AcDbVisualStyle
  2
Thicken
 70
    13
 71
     2
 72
     2
 73
     0
 90
        0
 40
-0.6
 41
-30.0
 62
     5
 63
     7
 74
     1
 91
        4
 64
     7
 65
   257
 75
     1
175
     1
 42
1.0
 92
       12
 66
     7
 43
1.0
 76
     1
 77
     6
 78
     2
 67
     7
 79
     5
170
     0
171
     0
290
     0
174
     0
 93
        1
 44
0.0
173
     0
291
     1
 45
0.0
1001
ACAD
1000
AcDbSavedByObjectVersion
1070
     0
  0
DICTIONARYVAR
  5
56A8
102
{ACAD_REACTORS
330
56A7
102
}
330
56A7
100
DictionaryVariables
280
     0
  1
STANDARD
  0
DICTIONARYVAR
  5
56AB
102
{ACAD_REACTORS
330
56A7
102
}
330
56A7
100
DictionaryVariables
280
     0
  1
1
  0
DICTIONARYVAR
  5
56AA
102
{ACAD_REACTORS
330
56A7
102
}
330
56A7
100
DictionaryVariables
280
     0
  1
0
  0
DICTIONARYVAR
  5
56A9
102
{ACAD_REACTORS
330
56A7
102
}
330
56A7
100
DictionaryVariables
280
     0
  1
127
  0
DICTIONARY
  5
56BA
330
1F
100
AcDbDictionary
280
     1
281
     1
  3
ACAD_XREC_ROUNDTRIP
360
56BB
  0
DICTIONARY
  5
56BC
330
23
100
AcDbDictionary
280
     1
281
     1
  3
ACAD_XREC_ROUNDTRIP
360
56BD
  0
DICTIONARY
  5
56C0
330
55BC
100
AcDbDictionary
280
     1
281
     1
  3
ACAD_XREC_ROUNDTRIP
360
56C1
  0
DICTIONARY
  5
56BE
330
55BB
100
AcDbDictionary
280
     1
281
     1
  3
ACAD_XREC_ROUNDTRIP
360
56BF
  0
DICTIONARY
  5
56C2
330
55BD
100
AcDbDictionary
280
     1
281
     1
  3
ACAD_XREC_ROUNDTRIP
360
56C3
  0
DICTIONARY
  5
56C4
330
55D0
100
AcDbDictionary
280
     1
281
     1
  3
ACAD_XREC_ROUNDTRIP
360
56C5
  0
XRECORD
  5
56BB
102
{ACAD_REACTORS
330
56BA
102
}
330
56BA
100
AcDbXrecord
280
     1
102
SHADEPLOT
 70
     0
102
SHADEPLOTRESLEVEL
 70
     2
102
SHADEPLOTCUSTOMDPI
 70
   300
  0
XRECORD
  5
56BD
102
{ACAD_REACTORS
330
56BC
102
}
330
56BC
100
AcDbXrecord
280
     1
102
SHADEPLOT
 70
     1
102
SHADEPLOTRESLEVEL
 70
     2
102
SHADEPLOTCUSTOMDPI
 70
   300
  0
XRECORD
  5
56C1
102
{ACAD_REACTORS
330
56C0
102
}
330
56C0
100
AcDbXrecord
280
     1
102
MATERIAL
148
0.0
149
0.0
149
0.0
 93
        0
 94
       63
282
     0
 72
     1
 77
     1
171
     1
175
     1
179
     1
273
     0
  0
XRECORD
  5
56BF
102
{ACAD_REACTORS
330
56BE
102
}
330
56BE
100
AcDbXrecord
280
     1
102
MATERIAL
148
0.0
149
0.0
149
0.0
 93
        0
 94
       63
282
     0
 72
     1
 77
     1
171
     1
175
     1
179
     1
273
     0
  0
XRECORD
  5
56C3
102
{ACAD_REACTORS
330
56C2
102
}
330
56C2
100
AcDbXrecord
280
     1
102
MATERIAL
148
0.0
149
0.0
149
0.0
 93
        0
 94
       63
282
     0
 72
     1
 77
     1
171
     1
175
     1
179
     1
273
     0
  0
XRECORD
  5
56C5
102
{ACAD_REACTORS
330
56C4
102
}
330
56C4
100
AcDbXrecord
280
     1
102
ACAD_ROUNDTRIP_PRE2007_TABLESTYLE
 90
      512
 91
        0
  1

 92
      512
 93
        0
  2

 94
      512
 95
        0
  3

  0
ENDSEC
  0
EOF
