  0
SECTION
  2
HEADER
  9
$ACADVER
  1
AC1015
  9
$ACADMAINTVER
 70
    20
  9
$DWGCODEPAGE
  3
ANSI_1252
  9
$INSBASE
 10
0.0
 20
0.0
 30
0.0
  9
$EXTMIN
 10
10.00000000000085
 20
0.0
 30
-1.0
  9
$EXTMAX
 10
420.0000000000008
 20
270.0
 30
0.7
  9
$LIMMIN
 10
0.0
 20
0.0
  9
$LIMMAX
 10
420.0
 20
297.0
  9
$ORTHOMODE
 70
     1
  9
$REGENMODE
 70
     1
  9
$FILLMODE
 70
     1
  9
$QTEXTMODE
 70
     0
  9
$MIRRTEXT
 70
     0
  9
$LTSCALE
 40
23.1
  9
$ATTMODE
 70
     1
  9
$TEXTSIZE
 40
0.2
  9
$TRACEWID
 40
0.05
  9
$TEXTSTYLE
  7
Standard
  9
$CLAYER
  8
0
  9
$CELTYPE
  6
ByLayer
  9
$CECOLOR
 62
   256
  9
$CELTSCALE
 40
1.0
  9
$DISPSILH
 70
     0
  9
$DIMSCALE
 40
0.0
  9
$DIMASZ
 40
3.5
  9
$DIMEXO
 40
0.0
  9
$DIMDLI
 40
3.75
  9
$DIMRND
 40
0.0
  9
$DIMDLE
 40
0.0
  9
$DIMEXE
 40
2.0
  9
$DIMTP
 40
0.0
  9
$DIMTM
 40
0.0
  9
$DIMTXT
 40
3.5
  9
$DIMCEN
 40
2.5
  9
$DIMTSZ
 40
0.0
  9
$DIMTOL
 70
     0
  9
$DIMLIM
 70
     0
  9
$DIMTIH
 70
     0
  9
$DIMTOH
 70
     0
  9
$DIMSE1
 70
     0
  9
$DIMSE2
 70
     0
  9
$DIMTAD
 70
     1
  9
$DIMZIN
 70
     8
  9
$DIMBLK
  1

  9
$DIMASO
 70
     1
  9
$DIMSHO
 70
     1
  9
$DIMPOST
  1

  9
$DIMAPOST
  1

  9
$DIMALT
 70
     0
  9
$DIMALTD
 70
     4
  9
$DIMALTF
 40
0.039
  9
$DIMLFAC
 40
1.0
  9
$DIMTOFL
 70
     1
  9
$DIMTVP
 40
0.0
  9
$DIMTIX
 70
     0
  9
$DIMSOXD
 70
     0
  9
$DIMSAH
 70
     0
  9
$DIMBLK1
  1

  9
$DIMBLK2
  1

  9
$DIMSTYLE
  2
H035
  9
$DIMCLRD
 70
   256
  9
$DIMCLRE
 70
     7
  9
$DIMCLRT
 70
     7
  9
$DIMTFAC
 40
1.0
  9
$DIMGAP
 40
0.5
  9
$DIMJUST
 70
     0
  9
$DIMSD1
 70
     0
  9
$DIMSD2
 70
     0
  9
$DIMTOLJ
 70
     1
  9
$DIMTZIN
 70
     0
  9
$DIMALTZ
 70
     0
  9
$DIMALTTZ
 70
     0
  9
$DIMUPT
 70
     0
  9
$DIMDEC
 70
     0
  9
$DIMTDEC
 70
     2
  9
$DIMALTU
 70
     8
  9
$DIMALTTD
 70
     4
  9
$DIMTXSTY
  7
Standard
  9
$DIMAUNIT
 70
     0
  9
$DIMADEC
 70
     0
  9
$DIMALTRND
 40
0.0
  9
$DIMAZIN
 70
     0
  9
$DIMDSEP
 70
    46
  9
$DIMATFIT
 70
     3
  9
$DIMFRAC
 70
     0
  9
$DIMLDRBLK
  1

  9
$DIMLUNIT
 70
     2
  9
$DIMLWD
 70
    -2
  9
$DIMLWE
 70
    -2
  9
$DIMTMOVE
 70
     0
  9
$LUNITS
 70
     2
  9
$LUPREC
 70
     4
  9
$SKETCHINC
 40
0.1
  9
$FILLETRAD
 40
0.5
  9
$AUNITS
 70
     0
  9
$AUPREC
 70
     0
  9
$MENU
  1
.
  9
$ELEVATION
 40
0.0
  9
$PELEVATION
 40
0.0
  9
$THICKNESS
 40
0.0
  9
$LIMCHECK
 70
     0
  9
$CHAMFERA
 40
0.0
  9
$CHAMFERB
 40
0.0
  9
$CHAMFERC
 40
0.0
  9
$CHAMFERD
 40
0.0
  9
$SKPOLY
 70
     0
  9
$TDCREATE
 40
2452829.417613079
  9
$TDUCREATE
 40
2452829.375946412
  9
$TDUPDATE
 40
2453425.328347269
  9
$TDUUPDATE
 40
2453425.286680602
  9
$TDINDWG
 40
2.2833456713
  9
$TDUSRTIMER
 40
2.2833400579
  9
$USRTIMER
 70
     1
  9
$ANGBASE
 50
0.0
  9
$ANGDIR
 70
     0
  9
$PDMODE
 70
     0
  9
$PDSIZE
 40
0.0
  9
$PLINEWID
 40
0.0
  9
$SPLFRAME
 70
     0
  9
$SPLINETYPE
 70
     6
  9
$SPLINESEGS
 70
     8
  9
$HANDSEED
  5
AF72
  9
$SURFTAB1
 70
     6
  9
$SURFTAB2
 70
     6
  9
$SURFTYPE
 70
     6
  9
$SURFU
 70
     6
  9
$SURFV
 70
     6
  9
$UCSBASE
  2

  9
$UCSNAME
  2

  9
$UCSORG
 10
0.0
 20
0.0
 30
0.0
  9
$UCSXDIR
 10
1.0
 20
0.0
 30
0.0
  9
$UCSYDIR
 10
0.0
 20
1.0
 30
0.0
  9
$UCSORTHOREF
  2

  9
$UCSORTHOVIEW
 70
     0
  9
$UCSORGTOP
 10
0.0
 20
0.0
 30
0.0
  9
$UCSORGBOTTOM
 10
0.0
 20
0.0
 30
0.0
  9
$UCSORGLEFT
 10
0.0
 20
0.0
 30
0.0
  9
$UCSORGRIGHT
 10
0.0
 20
0.0
 30
0.0
  9
$UCSORGFRONT
 10
0.0
 20
0.0
 30
0.0
  9
$UCSORGBACK
 10
0.0
 20
0.0
 30
0.0
  9
$PUCSBASE
  2

  9
$PUCSNAME
  2

  9
$PUCSORG
 10
0.0
 20
0.0
 30
0.0
  9
$PUCSXDIR
 10
1.0
 20
0.0
 30
0.0
  9
$PUCSYDIR
 10
0.0
 20
1.0
 30
0.0
  9
$PUCSORTHOREF
  2

  9
$PUCSORTHOVIEW
 70
     0
  9
$PUCSORGTOP
 10
0.0
 20
0.0
 30
0.0
  9
$PUCSORGBOTTOM
 10
0.0
 20
0.0
 30
0.0
  9
$PUCSORGLEFT
 10
0.0
 20
0.0
 30
0.0
  9
$PUCSORGRIGHT
 10
0.0
 20
0.0
 30
0.0
  9
$PUCSORGFRONT
 10
0.0
 20
0.0
 30
0.0
  9
$PUCSORGBACK
 10
0.0
 20
0.0
 30
0.0
  9
$USERI1
 70
     0
  9
$USERI2
 70
     0
  9
$USERI3
 70
     0
  9
$USERI4
 70
     0
  9
$USERI5
 70
     0
  9
$USERR1
 40
0.0
  9
$USERR2
 40
0.0
  9
$USERR3
 40
0.0
  9
$USERR4
 40
0.0
  9
$USERR5
 40
0.0
  9
$WORLDVIEW
 70
     1
  9
$SHADEDGE
 70
     3
  9
$SHADEDIF
 70
    70
  9
$TILEMODE
 70
     1
  9
$MAXACTVP
 70
    64
  9
$PINSBASE
 10
0.0
 20
0.0
 30
0.0
  9
$PLIMCHECK
 70
     0
  9
$PEXTMIN
 10
1.000000000000000E+20
 20
1.000000000000000E+20
 30
1.000000000000000E+20
  9
$PEXTMAX
 10
-1.000000000000000E+20
 20
-1.000000000000000E+20
 30
-1.000000000000000E+20
  9
$PLIMMIN
 10
0.0
 20
0.0
  9
$PLIMMAX
 10
12.0
 20
9.0
  9
$UNITMODE
 70
     0
  9
$VISRETAIN
 70
     1
  9
$PLINEGEN
 70
     0
  9
$PSLTSCALE
 70
     1
  9
$TREEDEPTH
 70
  3020
  9
$CMLSTYLE
  2
Standard
  9
$CMLJUST
 70
     0
  9
$CMLSCALE
 40
1.0
  9
$PROXYGRAPHICS
 70
     1
  9
$MEASUREMENT
 70
     0
  9
$CELWEIGHT
370
    -1
  9
$ENDCAPS
280
     0
  9
$JOINSTYLE
280
     0
  9
$LWDISPLAY
290
     0
  9
$INSUNITS
 70
     0
  9
$HYPERLINKBASE
  1

  9
$STYLESHEET
  1
MONOCHROME.CTB
  9
$XEDIT
290
     1
  9
$CEPSNTYPE
380
     0
  9
$PSTYLEMODE
290
     1
  9
$FINGERPRINTGUID
  2
{D88032C4-1185-41D3-97DD-7638FCF99E3F}
  9
$VERSIONGUID
  2
{46D84622-FB87-439D-81EF-8FE408C59F1B}
  9
$EXTNAMES
290
     1
  9
$PSVPSCALE
 40
0.0
  9
$OLESTARTUP
290
     0
  0
ENDSEC
  0
SECTION
  2
CLASSES
  0
CLASS
  1
ACDBDICTIONARYWDFLT
  2
AcDbDictionaryWithDefault
  3
ObjectDBX Classes
 90
        0
280
     0
281
     0
  0
CLASS
  1
DICTIONARYVAR
  2
AcDbDictionaryVar
  3
ObjectDBX Classes
 90
        0
280
     0
281
     0
  0
CLASS
  1
ACDBPLACEHOLDER
  2
AcDbPlaceHolder
  3
ObjectDBX Classes
 90
        0
280
     0
281
     0
  0
CLASS
  1
LAYOUT
  2
AcDbLayout
  3
ObjectDBX Classes
 90
        0
280
     0
281
     0
  0
ENDSEC
  0
SECTION
  2
TABLES
  0
TABLE
  2
VPORT
  5
8
330
0
100
AcDbSymbolTable
 70
     2
  0
VPORT
  5
AF69
330
8
100
AcDbSymbolTableRecord
100
AcDbViewportTableRecord
  2
*Active
 70
     0
 10
0.0
 20
0.0
 11
1.0
 21
1.0
 12
215.0081002993612
 22
138.3685609006155
 13
0.0
 23
0.0
 14
1.0
 24
1.0
 15
0.0
 25
0.0
 16
0.0
 26
0.0
 36
1.0
 17
0.0
 27
0.0
 37
0.0
 40
278.8807630229763
 41
1.571994715984147
 42
50.0
 43
0.0
 44
0.0
 50
0.0
 51
0.0
 71
     0
 72
   100
 73
     1
 74
     1
 75
     0
 76
     0
 77
     0
 78
     0
281
     0
 65
     1
110
0.0
120
0.0
130
0.0
111
1.0
121
0.0
131
0.0
112
0.0
122
1.0
132
0.0
 79
     0
146
0.0
  0
ENDTAB
  0
TABLE
  2
LTYPE
  5
5
330
0
100
AcDbSymbolTable
 70
     3
  0
LTYPE
  5
13
330
5
100
AcDbSymbolTableRecord
100
AcDbLinetypeTableRecord
  2
ByBlock
 70
     0
  3

 72
    65
 73
     0
 40
0.0
  0
LTYPE
  5
14
330
5
100
AcDbSymbolTableRecord
100
AcDbLinetypeTableRecord
  2
ByLayer
 70
     0
  3

 72
    65
 73
     0
 40
0.0
  0
LTYPE
  5
15
330
5
100
AcDbSymbolTableRecord
100
AcDbLinetypeTableRecord
  2
CONTINUOUS
 70
     0
  3
Solid line
 72
    65
 73
     0
 40
0.0
  0
LTYPE
  5
26
330
5
100
AcDbSymbolTableRecord
100
AcDbLinetypeTableRecord
  2
CENTER
 70
     0
  3
____ _ ____ _ ____ _ ____ _ ____ _ ____ _ ____
 72
    65
 73
     4
 40
0.6
 49
0.375
 74
     0
 49
-0.075
 74
     0
 49
0.075
 74
     0
 49
-0.075
 74
     0
  0
LTYPE
  5
4F7A
330
5
100
AcDbSymbolTableRecord
100
AcDbLinetypeTableRecord
  2
DASHED
 70
     0
  3
_ _ _ _ _ _ _ _ _ _ _ _ _ _ _ _ _ _ _ _ _ _ _ _
 72
    65
 73
     2
 40
0.375
 49
0.25
 74
     0
 49
-0.125
 74
     0
  0
ENDTAB
  0
TABLE
  2
LAYER
  5
2
330
0
100
AcDbSymbolTable
 70
    10
  0
LAYER
  5
10
330
2
100
AcDbSymbolTableRecord
100
AcDbLayerTableRecord
  2
0
 70
     0
 62
     7
  6
CONTINUOUS
370
    -3
390
F
  0
LAYER
  5
1D8
330
2
100
AcDbSymbolTableRecord
100
AcDbLayerTableRecord
  2
Defpoints
 70
     0
 62
     7
  6
CONTINUOUS
290
     0
370
    -3
390
F
  0
LAYER
  5
1D9
330
2
100
AcDbSymbolTableRecord
100
AcDbLayerTableRecord
  2
91000_TIP
 70
     0
 62
     7
  6
CONTINUOUS
370
    -3
390
F
  0
LAYER
  5
1DA
330
2
100
AcDbSymbolTableRecord
100
AcDbLayerTableRecord
  2
11000_Left
 70
     0
 62
     7
  6
CONTINUOUS
370
    -3
390
F
  0
LAYER
  5
1DB
330
2
100
AcDbSymbolTableRecord
100
AcDbLayerTableRecord
  2
10000_FRONT
 70
     0
 62
     7
  6
CONTINUOUS
370
    -3
390
F
  0
LAYER
  5
1DC
330
2
100
AcDbSymbolTableRecord
100
AcDbLayerTableRecord
  2
10100_FRONT_DIM
 70
     0
 62
     7
  6
CONTINUOUS
370
    -3
390
F
  0
LAYER
  5
1DD
330
2
100
AcDbSymbolTableRecord
100
AcDbLayerTableRecord
  2
90000_FRAME
 70
     0
 62
     7
  6
CONTINUOUS
370
    -3
390
F
  0
LAYER
  5
1DE
330
2
100
AcDbSymbolTableRecord
100
AcDbLayerTableRecord
  2
11100_LEFT_DIM
 70
     0
 62
     7
  6
CONTINUOUS
370
    -3
390
F
  0
LAYER
  5
ADDF
330
2
100
AcDbSymbolTableRecord
100
AcDbLayerTableRecord
  2
30000_Drilling
 70
     0
 62
     7
  6
CONTINUOUS
370
    -3
390
F
  0
LAYER
  5
ADE0
330
2
100
AcDbSymbolTableRecord
100
AcDbLayerTableRecord
  2
30100_Drilling_DIM
 70
     0
 62
     7
  6
CONTINUOUS
370
    -3
390
F
  0
ENDTAB
  0
TABLE
  2
STYLE
  5
3
330
0
100
AcDbSymbolTable
 70
     1
  0
STYLE
  5
11
330
3
100
AcDbSymbolTableRecord
100
AcDbTextStyleTableRecord
  2
Standard
 70
     0
 40
0.0
 41
1.0
 50
0.0
 71
     0
 42
0.2
  3
txt
  4

  0
ENDTAB
  0
TABLE
  2
VIEW
  5
6
330
0
100
AcDbSymbolTable
 70
     0
  0
ENDTAB
  0
TABLE
  2
UCS
  5
7
330
0
100
AcDbSymbolTable
 70
     0
  0
ENDTAB
  0
TABLE
  2
APPID
  5
9
330
0
100
AcDbSymbolTable
 70
     3
  0
APPID
  5
12
330
9
100
AcDbSymbolTableRecord
100
AcDbRegAppTableRecord
  2
ACAD
 70
     0
  0
APPID
  5
1E8
330
9
100
AcDbSymbolTableRecord
100
AcDbRegAppTableRecord
  2
AUSTER_ANSICHT
 70
     0
  0
APPID
  5
1E9
330
9
100
AcDbSymbolTableRecord
100
AcDbRegAppTableRecord
  2
AUSTER_FOLIE
 70
     0
  0
ENDTAB
  0
TABLE
  2
DIMSTYLE
  5
A
330
0
100
AcDbSymbolTable
 70
     3
100
AcDbDimStyleTable
 71
     3
340
1E7
340
3A1A
340
BA
  0
DIMSTYLE
105
BA
330
A
100
AcDbSymbolTableRecord
100
AcDbDimStyleTableRecord
  2
Standard
 70
     0
340
11
  0
DIMSTYLE
105
1E7
102
{ACAD_REACTORS
330
AC6E
330
AC7D
330
ACD1
330
AD25
330
ACF4
330
ACE7
330
ADAB
330
AD9E
102
}
330
A
100
AcDbSymbolTableRecord
100
AcDbDimStyleTableRecord
  2
DSTYLE1
 70
     0
 41
3.0
 42
0.0
 44
1.0
 73
     0
 74
     0
 77
     1
 78
     3
140
2.5
143
0.039370079
147
1.0
271
     3
272
     3
274
     0
279
     2
340
11
  0
DIMSTYLE
105
3A1A
102
{ACAD_REACTORS
330
AC48
330
AC55
330
AC62
102
}
330
A
100
AcDbSymbolTableRecord
100
AcDbDimStyleTableRecord
  2
H035
 70
     0
 40
0.0
 41
3.5
 42
0.0
 43
3.75
 44
2.0
 73
     0
 74
     0
 77
     1
 78
     8
140
3.5
141
2.5
143
0.039
147
0.5
171
     4
172
     1
176
   256
177
     7
178
     7
271
     0
272
     2
273
     8
274
     4
340
11
  0
ENDTAB
  0
TABLE
  2
BLOCK_RECORD
  5
1
330
0
100
AcDbSymbolTable
 70
    12
  0
BLOCK_RECORD
  5
20
330
1
100
AcDbSymbolTableRecord
100
AcDbBlockTableRecord
  2
*Model_Space
340
23
  0
BLOCK_RECORD
  5
1C
330
1
100
AcDbSymbolTableRecord
100
AcDbBlockTableRecord
  2
*Paper_Space
340
1F
  0
BLOCK_RECORD
  5
3A
330
1
100
AcDbSymbolTableRecord
100
AcDbBlockTableRecord
  2
SIEMENS_OUTLINE_BL0
340
0
102
{BLKREFS
331
AA
102
}
  0
BLOCK_RECORD
  5
AC49
330
1
100
AcDbSymbolTableRecord
100
AcDbBlockTableRecord
  2
*D1
340
0
  0
BLOCK_RECORD
  5
AC56
330
1
100
AcDbSymbolTableRecord
100
AcDbBlockTableRecord
  2
*D2
340
0
  0
BLOCK_RECORD
  5
AC63
330
1
100
AcDbSymbolTableRecord
100
AcDbBlockTableRecord
  2
*D3
340
0
  0
BLOCK_RECORD
  5
AC6F
330
1
100
AcDbSymbolTableRecord
100
AcDbBlockTableRecord
  2
*D4
340
0
  0
BLOCK_RECORD
  5
AC7E
330
1
100
AcDbSymbolTableRecord
100
AcDbBlockTableRecord
  2
*D5
340
0
  0
BLOCK_RECORD
  5
ACD2
330
1
100
AcDbSymbolTableRecord
100
AcDbBlockTableRecord
  2
*D6
340
0
  0
BLOCK_RECORD
  5
ACE8
330
1
100
AcDbSymbolTableRecord
100
AcDbBlockTableRecord
  2
*D7
340
0
  0
BLOCK_RECORD
  5
ACF5
330
1
100
AcDbSymbolTableRecord
100
AcDbBlockTableRecord
  2
*D8
340
0
  0
BLOCK_RECORD
  5
AD26
330
1
100
AcDbSymbolTableRecord
100
AcDbBlockTableRecord
  2
*D9
340
0
  0
BLOCK_RECORD
  5
AD9F
330
1
100
AcDbSymbolTableRecord
100
AcDbBlockTableRecord
  2
*D10
340
0
  0
BLOCK_RECORD
  5
ADAC
330
1
100
AcDbSymbolTableRecord
100
AcDbBlockTableRecord
  2
*D11
340
0
  0
ENDTAB
  0
ENDSEC
  0
SECTION
  2
BLOCKS
  0
BLOCK
  5
21
330
20
100
AcDbEntity
  8
0
100
AcDbBlockBegin
  2
*Model_Space
 70
     0
 10
0.0
 20
0.0
 30
0.0
  3
*Model_Space
  1

  0
ENDBLK
  5
22
330
20
100
AcDbEntity
  8
0
100
AcDbBlockEnd
  0
BLOCK
  5
1D
330
1C
100
AcDbEntity
 67
     1
  8
0
100
AcDbBlockBegin
  2
*Paper_Space
 70
     0
 10
0.0
 20
0.0
 30
0.0
  3
*Paper_Space
  1

  0
ENDBLK
  5
1E
330
1C
100
AcDbEntity
 67
     1
  8
0
100
AcDbBlockEnd
  0
BLOCK
  5
3B
330
3A
100
AcDbEntity
  8
0
  6
Continuous
 62
     7
100
AcDbBlockBegin
  2
SIEMENS_OUTLINE_BL0
 70
     0
 10
0.0
 20
0.0
 30
0.0
  3
SIEMENS_OUTLINE_BL0
  1

  0
LINE
  5
3C
330
3A
100
AcDbEntity
  8
0
  6
Continuous
 62
     7
100
AcDbLine
 10
289.1235341257
 20
21.4969115175
 30
0.0
 11
289.1235341257
 21
16.7436424342
 31
0.0
  0
LINE
  5
3D
330
3A
100
AcDbEntity
  8
0
  6
Continuous
 62
     7
100
AcDbLine
 10
290.5495148507
 20
21.4969115175
 30
0.0
 11
290.5495148507
 21
16.7436424342
 31
0.0
  0
LINE
  5
3E
330
3A
100
AcDbEntity
  8
0
  6
Continuous
 62
     7
100
AcDbLine
 10
289.1235341257
 20
16.7436424342
 30
0.0
 11
290.5495148507
 21
16.7436424342
 31
0.0
  0
LINE
  5
3F
330
3A
100
AcDbEntity
  8
0
  6
Continuous
 62
     7
100
AcDbLine
 10
289.1235341257
 20
21.4969115175
 30
0.0
 11
290.5495148507
 21
21.4969115175
 31
0.0
  0
LINE
  5
40
330
3A
100
AcDbEntity
  8
0
  6
Continuous
 62
     7
100
AcDbLine
 10
291.6427667399
 20
21.4969115175
 30
0.0
 11
291.6427667399
 21
16.7436424342
 31
0.0
  0
LINE
  5
41
330
3A
100
AcDbEntity
  8
0
  6
Continuous
 62
     7
100
AcDbLine
 10
291.6427667399
 20
16.7436424342
 30
0.0
 11
295.2077185523
 21
16.7436424342
 31
0.0
  0
LINE
  5
42
330
3A
100
AcDbEntity
  8
0
  6
Continuous
 62
     7
100
AcDbLine
 10
295.2077185523
 20
17.64676356
 30
0.0
 11
293.021214774
 21
17.64676356
 31
0.0
  0
LINE
  5
43
330
3A
100
AcDbEntity
  8
0
  6
Continuous
 62
     7
100
AcDbLine
 10
295.2077185523
 20
17.64676356
 30
0.0
 11
295.2077185523
 21
16.7436424342
 31
0.0
  0
LINE
  5
44
330
3A
100
AcDbEntity
  8
0
  6
Continuous
 62
     7
100
AcDbLine
 10
295.1601858615
 20
21.4969115175
 30
0.0
 11
291.6427667399
 21
21.4969115175
 31
0.0
  0
LINE
  5
45
330
3A
100
AcDbEntity
  8
0
  6
Continuous
 62
     7
100
AcDbLine
 10
295.1601858615
 20
20.6175567371
 30
0.0
 11
293.021214774
 21
20.6175567371
 31
0.0
  0
LINE
  5
46
330
3A
100
AcDbEntity
  8
0
  6
Continuous
 62
     7
100
AcDbLine
 10
295.1601858615
 20
21.4969115175
 30
0.0
 11
295.1601858615
 21
20.6175567371
 31
0.0
  0
LINE
  5
47
330
3A
100
AcDbEntity
  8
0
  6
Continuous
 62
     7
100
AcDbLine
 10
294.8749897165
 20
18.7637817946
 30
0.0
 11
293.021214774
 21
18.7637817946
 31
0.0
  0
LINE
  5
48
330
3A
100
AcDbEntity
  8
0
  6
Continuous
 62
     7
100
AcDbLine
 10
294.8749897165
 20
19.5480711933
 30
0.0
 11
294.8749897165
 21
18.7637817946
 31
0.0
  0
LINE
  5
49
330
3A
100
AcDbEntity
  8
0
  6
Continuous
 62
     7
100
AcDbLine
 10
294.8749897165
 20
19.5480711933
 30
0.0
 11
293.021214774
 21
19.5480711933
 31
0.0
  0
LINE
  5
4A
330
3A
100
AcDbEntity
  8
0
  6
Continuous
 62
     7
100
AcDbLine
 10
293.021214774
 20
20.6175567371
 30
0.0
 11
293.021214774
 21
19.5480711933
 31
0.0
  0
LINE
  5
4B
330
3A
100
AcDbEntity
  8
0
  6
Continuous
 62
     7
100
AcDbLine
 10
293.021214774
 20
18.7637817946
 30
0.0
 11
293.021214774
 21
17.64676356
 31
0.0
  0
LINE
  5
4C
330
3A
100
AcDbEntity
  8
0
  6
Continuous
 62
     7
100
AcDbLine
 10
296.0157742965
 20
16.7436424342
 30
0.0
 11
296.0157742965
 21
21.4969115175
 31
0.0
  0
LINE
  5
4D
330
3A
100
AcDbEntity
  8
0
  6
Continuous
 62
     7
100
AcDbLine
 10
296.0157742965
 20
16.7436424342
 30
0.0
 11
296.9664281131
 21
16.7436424342
 31
0.0
  0
LINE
  5
4E
330
3A
100
AcDbEntity
  8
0
  6
Continuous
 62
     7
100
AcDbLine
 10
301.8622952689
 20
21.4969115175
 30
0.0
 11
301.8622952689
 21
16.7436424342
 31
0.0
  0
LINE
  5
4F
330
3A
100
AcDbEntity
  8
0
  6
Continuous
 62
     7
100
AcDbLine
 10
301.8622952689
 20
16.7436424342
 30
0.0
 11
300.4838472348
 21
16.7436424342
 31
0.0
  0
LINE
  5
50
330
3A
100
AcDbEntity
  8
0
  6
Continuous
 62
     7
100
AcDbLine
 10
298.2973434565
 20
16.6961097434
 30
0.0
 11
299.1529318914
 21
16.6961097434
 31
0.0
  0
LINE
  5
51
330
3A
100
AcDbEntity
  8
0
  6
Continuous
 62
     7
100
AcDbLine
 10
298.2973434565
 20
16.6961097434
 30
0.0
 11
296.9664281131
 21
19.7857346475
 31
0.0
  0
LINE
  5
52
330
3A
100
AcDbEntity
  8
0
  6
Continuous
 62
     7
100
AcDbLine
 10
296.9664281131
 20
16.7436424342
 30
0.0
 11
296.9664281131
 21
19.7857346475
 31
0.0
  0
LINE
  5
53
330
3A
100
AcDbEntity
  8
0
  6
Continuous
 62
     7
100
AcDbLine
 10
300.4838472348
 20
19.8332673383
 30
0.0
 11
299.1529318914
 21
16.6961097434
 31
0.0
  0
LINE
  5
54
330
3A
100
AcDbEntity
  8
0
  6
Continuous
 62
     7
100
AcDbLine
 10
297.7269511665
 20
21.4969115175
 30
0.0
 11
296.0157742965
 21
21.4969115175
 31
0.0
  0
LINE
  5
55
330
3A
100
AcDbEntity
  8
0
  6
Continuous
 62
     7
100
AcDbLine
 10
301.8622952689
 20
21.4969115175
 30
0.0
 11
300.1511183989
 21
21.4969115175
 31
0.0
  0
LINE
  5
56
330
3A
100
AcDbEntity
  8
0
  6
Continuous
 62
     7
100
AcDbLine
 10
297.7269511665
 20
21.4969115175
 30
0.0
 11
298.9628011281
 21
18.5974173767
 31
0.0
  0
LINE
  5
57
330
3A
100
AcDbEntity
  8
0
  6
Continuous
 62
     7
100
AcDbLine
 10
300.1511183989
 20
21.4969115175
 30
0.0
 11
298.9628011281
 21
18.5974173767
 31
0.0
  0
LINE
  5
58
330
3A
100
AcDbEntity
  8
0
  6
Continuous
 62
     7
100
AcDbLine
 10
300.4838472348
 20
19.8332673383
 30
0.0
 11
300.4838472348
 21
16.7436424342
 31
0.0
  0
LINE
  5
59
330
3A
100
AcDbEntity
  8
0
  6
Continuous
 62
     7
100
AcDbLine
 10
302.9555471581
 20
21.4969115175
 30
0.0
 11
302.9555471581
 21
16.7436424342
 31
0.0
  0
LINE
  5
5A
330
3A
100
AcDbEntity
  8
0
  6
Continuous
 62
     7
100
AcDbLine
 10
302.9555471581
 20
16.7436424342
 30
0.0
 11
306.5204989705
 21
16.7436424342
 31
0.0
  0
LINE
  5
5B
330
3A
100
AcDbEntity
  8
0
  6
Continuous
 62
     7
100
AcDbLine
 10
306.5204989705
 20
17.64676356
 30
0.0
 11
304.3339951922
 21
17.64676356
 31
0.0
  0
LINE
  5
5C
330
3A
100
AcDbEntity
  8
0
  6
Continuous
 62
     7
100
AcDbLine
 10
306.5204989705
 20
17.64676356
 30
0.0
 11
306.5204989705
 21
16.7436424342
 31
0.0
  0
LINE
  5
5D
330
3A
100
AcDbEntity
  8
0
  6
Continuous
 62
     7
100
AcDbLine
 10
306.4729662797
 20
21.4969115175
 30
0.0
 11
302.9555471581
 21
21.4969115175
 31
0.0
  0
LINE
  5
5E
330
3A
100
AcDbEntity
  8
0
  6
Continuous
 62
     7
100
AcDbLine
 10
306.4729662797
 20
20.6175567371
 30
0.0
 11
304.3339951922
 21
20.6175567371
 31
0.0
  0
LINE
  5
5F
330
3A
100
AcDbEntity
  8
0
  6
Continuous
 62
     7
100
AcDbLine
 10
306.4729662797
 20
21.4969115175
 30
0.0
 11
306.4729662797
 21
20.6175567371
 31
0.0
  0
LINE
  5
60
330
3A
100
AcDbEntity
  8
0
  6
Continuous
 62
     7
100
AcDbLine
 10
306.1877701347
 20
18.7637817946
 30
0.0
 11
304.3339951922
 21
18.7637817946
 31
0.0
  0
LINE
  5
61
330
3A
100
AcDbEntity
  8
0
  6
Continuous
 62
     7
100
AcDbLine
 10
306.1877701347
 20
19.5480711933
 30
0.0
 11
306.1877701347
 21
18.7637817946
 31
0.0
  0
LINE
  5
62
330
3A
100
AcDbEntity
  8
0
  6
Continuous
 62
     7
100
AcDbLine
 10
306.1877701347
 20
19.5480711933
 30
0.0
 11
304.3339951922
 21
19.5480711933
 31
0.0
  0
LINE
  5
63
330
3A
100
AcDbEntity
  8
0
  6
Continuous
 62
     7
100
AcDbLine
 10
304.3339951922
 20
20.6175567371
 30
0.0
 11
304.3339951922
 21
19.5480711933
 31
0.0
  0
LINE
  5
64
330
3A
100
AcDbEntity
  8
0
  6
Continuous
 62
     7
100
AcDbLine
 10
304.3339951922
 20
18.7637817946
 30
0.0
 11
304.3339951922
 21
17.64676356
 31
0.0
  0
LINE
  5
65
330
3A
100
AcDbEntity
  8
0
  6
Continuous
 62
     7
100
AcDbLine
 10
307.3047883693
 20
16.7436424342
 30
0.0
 11
307.3047883693
 21
21.4969115175
 31
0.0
  0
LINE
  5
66
330
3A
100
AcDbEntity
  8
0
  6
Continuous
 62
     7
100
AcDbLine
 10
311.4876651625
 20
21.4969115175
 30
0.0
 11
311.4876651625
 21
16.7436424342
 31
0.0
  0
LINE
  5
67
330
3A
100
AcDbEntity
  8
0
  6
Continuous
 62
     7
100
AcDbLine
 10
307.3047883693
 20
16.7436424342
 30
0.0
 11
308.2554421859
 21
16.7436424342
 31
0.0
  0
LINE
  5
68
330
3A
100
AcDbEntity
  8
0
  6
Continuous
 62
     7
100
AcDbLine
 10
311.4876651625
 20
21.4969115175
 30
0.0
 11
310.5370113459
 21
21.4969115175
 31
0.0
  0
LINE
  5
69
330
3A
100
AcDbEntity
  8
0
  6
Continuous
 62
     7
100
AcDbLine
 10
308.8496008213
 20
21.4969115175
 30
0.0
 11
307.3047883693
 21
21.4969115175
 31
0.0
  0
LINE
  5
6A
330
3A
100
AcDbEntity
  8
0
  6
Continuous
 62
     7
100
AcDbLine
 10
311.4876651625
 20
16.7436424342
 30
0.0
 11
309.9666190559
 21
16.7436424342
 31
0.0
  0
LINE
  5
6B
330
3A
100
AcDbEntity
  8
0
  6
Continuous
 62
     7
100
AcDbLine
 10
309.9666190559
 20
16.7436424342
 30
0.0
 11
308.2554421859
 21
19.7857346475
 31
0.0
  0
LINE
  5
6C
330
3A
100
AcDbEntity
  8
0
  6
Continuous
 62
     7
100
AcDbLine
 10
308.8496008213
 20
21.4969115175
 30
0.0
 11
310.5370113459
 21
18.5498846858
 31
0.0
  0
LINE
  5
6D
330
3A
100
AcDbEntity
  8
0
  6
Continuous
 62
     7
100
AcDbLine
 10
310.5370113459
 20
21.4969115175
 30
0.0
 11
310.5370113459
 21
18.5498846858
 31
0.0
  0
LINE
  5
6E
330
3A
100
AcDbEntity
  8
0
  6
Continuous
 62
     7
100
AcDbLine
 10
308.2554421859
 20
16.7436424342
 30
0.0
 11
308.2554421859
 21
19.7857346475
 31
0.0
  0
LINE
  5
6F
330
3A
100
AcDbEntity
  8
0
  6
Continuous
 62
     7
100
AcDbLine
 10
312.2957209067
 20
16.8387078159
 30
0.0
 11
312.2957209067
 21
17.7893616325
 31
0.0
  0
LINE
  5
70
330
3A
100
AcDbEntity
  8
0
  6
Continuous
 62
     7
100
AcDbLine
 10
315.623009265
 20
20.49872501
 30
0.0
 11
315.623009265
 21
21.4493788266
 31
0.0
  0
ARC
  5
71
330
3A
100
AcDbEntity
  8
0
  6
Continuous
 62
     7
100
AcDbCircle
 10
314.0003620317
 20
18.7008009792
 30
0.0
 40
1.111619360599997
100
AcDbArc
 50
277.7099956934
 51
295.6884927746
  0
ARC
  5
72
330
3A
100
AcDbEntity
  8
0
  6
Continuous
 62
     7
100
AcDbCircle
 10
314.2846720145
 20
17.9759752156
 30
0.0
 40
0.3401689265
100
AcDbArc
 50
305.503221255
 51
72.46528985229999
  0
ARC
  5
73
330
3A
100
AcDbEntity
  8
0
  6
Continuous
 62
     7
100
AcDbCircle
 10
313.7186782063
 20
21.3776821252
 30
0.0
 40
4.756794641099999
100
AcDbArc
 50
252.5939200548001
 51
280.9816604256
  0
ARC
  5
74
330
3A
100
AcDbEntity
  8
0
  6
Continuous
 62
     7
100
AcDbCircle
 10
314.1735135694
 20
18.7596683887
 30
0.0
 40
2.100726595299998
100
AcDbArc
 50
282.405835852
 51
311.8644433928
  0
ARC
  5
75
330
3A
100
AcDbEntity
  8
0
  6
Continuous
 62
     7
100
AcDbCircle
 10
313.8999492223
 20
20.3680101102
 30
0.0
 40
0.3029626476
100
AcDbArc
 50
154.4400348282
 51
221.8201698801
  0
ARC
  5
76
330
3A
100
AcDbEntity
  8
0
  6
Continuous
 62
     7
100
AcDbCircle
 10
313.9791703737
 20
20.2887889588
 30
0.0
 40
0.4103089737
100
AcDbArc
 50
102.8287828681
 51
149.2259639003
  0
ARC
  5
77
330
3A
100
AcDbEntity
  8
0
  6
Continuous
 62
     7
100
AcDbCircle
 10
314.3961972093
 20
18.546453629
 30
0.0
 40
2.201836557
100
AcDbArc
 50
84.0400061857
 51
103.3427657870999
  0
ARC
  5
78
330
3A
100
AcDbEntity
  8
0
  6
Continuous
 62
     7
100
AcDbCircle
 10
314.0552333846
 20
16.1290897051
 30
0.0
 40
4.642373736499997
100
AcDbArc
 50
70.2625858546
 51
82.95241863799999
  0
ARC
  5
79
330
3A
100
AcDbEntity
  8
0
  6
Continuous
 62
     7
100
AcDbCircle
 10
313.5412151824001
 20
20.8007125947
 30
0.0
 40
3.258755990899997
100
AcDbArc
 50
247.5300206145
 51
280.7579522143
  0
ARC
  5
7A
330
3A
100
AcDbEntity
  8
0
  6
Continuous
 62
     7
100
AcDbCircle
 10
307.1562487104
 20
2.5491926343
 30
0.0
 40
17.3316084133
100
AcDbArc
 50
65.34146746500001
 51
67.39977707359999
  0
ARC
  5
7B
330
3A
100
AcDbEntity
  8
0
  6
Continuous
 62
     7
100
AcDbCircle
 10
317.9521111158
 20
28.3416189974
 30
0.0
 40
10.6291642039
100
AcDbArc
 50
242.8620101252001
 51
247.1042029186
  0
ARC
  5
7C
330
3A
100
AcDbEntity
  8
0
  6
Continuous
 62
     7
100
AcDbCircle
 10
314.0972098893
 20
20.8076875004
 30
0.0
 40
2.166291629199998
100
AcDbArc
 50
227.3119280794
 51
242.7040315235
  0
ARC
  5
7D
330
3A
100
AcDbEntity
  8
0
  6
Continuous
 62
     7
100
AcDbCircle
 10
313.4931790796
 20
20.1020098596
 30
0.0
 40
1.238521734
100
AcDbArc
 50
194.7952194236
 51
225.7176549047
  0
ARC
  5
7E
330
3A
100
AcDbEntity
  8
0
  6
Continuous
 62
     7
100
AcDbCircle
 10
313.5553372138
 20
20.1422298287
 30
0.0
 40
1.309092072899999
100
AcDbArc
 50
164.1974860461
 51
195.8025139539
  0
ARC
  5
7F
330
3A
100
AcDbEntity
  8
0
  6
Continuous
 62
     7
100
AcDbCircle
 10
314.1123609345001
 20
19.2539626688
 30
0.0
 40
2.366924815299999
100
AcDbArc
 50
86.22180229280001
 51
120.4272602309
  0
ARC
  5
80
330
3A
100
AcDbEntity
  8
0
  6
Continuous
 62
     7
100
AcDbCircle
 10
313.8435041519
 20
12.5577948477
 30
0.0
 40
9.0679051661
100
AcDbArc
 50
78.68270492259998
 51
87.3147599624
  0
ARC
  5
81
330
3A
100
AcDbEntity
  8
0
  6
Continuous
 62
     7
100
AcDbCircle
 10
313.3874349735
 20
20.2497375912
 30
0.0
 40
1.119747444
100
AcDbArc
 50
142.813917903
 51
167.1522951417
  0
ARC
  5
82
330
3A
100
AcDbEntity
  8
0
  6
Continuous
 62
     7
100
AcDbCircle
 10
313.7327443151
 20
19.9431558946
 30
0.0
 40
1.580546684499998
100
AcDbArc
 50
121.2140948535
 51
141.5254768286
  0
ARC
  5
83
330
3A
100
AcDbEntity
  8
0
  6
Continuous
 62
     7
100
AcDbCircle
 10
314.3099186807
 20
20.7542132232
 30
0.0
 40
0.8661276051999998
100
AcDbArc
 50
222.7760387596
 51
239.0362434679
  0
ARC
  5
84
330
3A
100
AcDbEntity
  8
0
  6
Continuous
 62
     7
100
AcDbCircle
 10
311.8032091024
 20
13.4239410246
 30
0.0
 40
6.858773576299999
100
AcDbArc
 50
59.90202725600001
 51
68.2036481279
  0
ARC
  5
85
330
3A
100
AcDbEntity
  8
0
  6
Continuous
 62
     7
100
AcDbCircle
 10
315.2117035963
 20
22.3498275319
 30
0.0
 40
2.698741017099999
100
AcDbArc
 50
240.0481997804
 51
251.3779673736999
  0
ARC
  5
86
330
3A
100
AcDbEntity
  8
0
  6
Continuous
 62
     7
100
AcDbCircle
 10
314.5462464295
 20
18.1929289165
 30
0.0
 40
1.4334474881
100
AcDbArc
 50
315.8904553224
 51
333.5229264373
  0
ARC
  5
87
330
3A
100
AcDbEntity
  8
0
  6
Continuous
 62
     7
100
AcDbCircle
 10
314.5508846732
 20
18.1395217664
 30
0.0
 40
1.406228711899998
100
AcDbArc
 50
335.3867972702
 51
24.3915119402
  0
ARC
  5
88
330
3A
100
AcDbEntity
  8
0
  6
Continuous
 62
     7
100
AcDbCircle
 10
314.4786797697
 20
18.0616650746
 30
0.0
 40
1.504702514799999
100
AcDbArc
 50
25.95629166050001
 51
59.4834829668
  0
LINE
  5
89
330
3A
100
AcDbEntity
  8
0
  6
Continuous
 62
     7
100
AcDbLine
 10
284.7029938783
 20
16.8387078159
 30
0.0
 11
284.7029938783
 21
17.7893616325
 31
0.0
  0
LINE
  5
8A
330
3A
100
AcDbEntity
  8
0
  6
Continuous
 62
     7
100
AcDbLine
 10
288.0302822366
 20
20.49872501
 30
0.0
 11
288.0302822366
 21
21.4493788266
 31
0.0
  0
ARC
  5
8B
330
3A
100
AcDbEntity
  8
0
  6
Continuous
 62
     7
100
AcDbCircle
 10
286.4076350033
 20
18.7008009792
 30
0.0
 40
1.111619360599997
100
AcDbArc
 50
277.7099956934
 51
295.6884927746
  0
ARC
  5
8C
330
3A
100
AcDbEntity
  8
0
  6
Continuous
 62
     7
100
AcDbCircle
 10
286.691944986
 20
17.9759752156
 30
0.0
 40
0.3401689265
100
AcDbArc
 50
305.5032212556
 51
72.4652898515
  0
ARC
  5
8D
330
3A
100
AcDbEntity
  8
0
  6
Continuous
 62
     7
100
AcDbCircle
 10
286.1259511779
 20
21.3776821252
 30
0.0
 40
4.756794641099999
100
AcDbArc
 50
252.5939200545
 51
280.9816604253
  0
ARC
  5
8E
330
3A
100
AcDbEntity
  8
0
  6
Continuous
 62
     7
100
AcDbCircle
 10
286.580786541
 20
18.7596683887
 30
0.0
 40
2.100726595299998
100
AcDbArc
 50
282.4058358513
 51
311.8644433923
  0
ARC
  5
8F
330
3A
100
AcDbEntity
  8
0
  6
Continuous
 62
     7
100
AcDbCircle
 10
286.3072221939
 20
20.3680101102
 30
0.0
 40
0.3029626476
100
AcDbArc
 50
154.4400348282
 51
221.8201698801
  0
ARC
  5
90
330
3A
100
AcDbEntity
  8
0
  6
Continuous
 62
     7
100
AcDbCircle
 10
286.3864433453
 20
20.2887889588
 30
0.0
 40
0.4103089737
100
AcDbArc
 50
102.8287828727
 51
149.2259639027
  0
ARC
  5
91
330
3A
100
AcDbEntity
  8
0
  6
Continuous
 62
     7
100
AcDbCircle
 10
286.8034701809
 20
18.546453629
 30
0.0
 40
2.201836557
100
AcDbArc
 50
84.0400061859
 51
103.3427657872
  0
ARC
  5
92
330
3A
100
AcDbEntity
  8
0
  6
Continuous
 62
     7
100
AcDbCircle
 10
286.4625063562
 20
16.1290897051
 30
0.0
 40
4.642373736499997
100
AcDbArc
 50
70.2625858546
 51
82.9524186379
  0
ARC
  5
93
330
3A
100
AcDbEntity
  8
0
  6
Continuous
 62
     7
100
AcDbCircle
 10
285.948488154
 20
20.8007125947
 30
0.0
 40
3.258755990899997
100
AcDbArc
 50
247.5300206148
 51
280.7579522145
  0
ARC
  5
94
330
3A
100
AcDbEntity
  8
0
  6
Continuous
 62
     7
100
AcDbCircle
 10
279.563521682
 20
2.5491926343
 30
0.0
 40
17.3316084133
100
AcDbArc
 50
65.34146746500001
 51
67.39977707359999
  0
ARC
  5
95
330
3A
100
AcDbEntity
  8
0
  6
Continuous
 62
     7
100
AcDbCircle
 10
290.3593840874
 20
28.3416189974
 30
0.0
 40
10.6291642039
100
AcDbArc
 50
242.8620101252001
 51
247.1042029185
  0
ARC
  5
96
330
3A
100
AcDbEntity
  8
0
  6
Continuous
 62
     7
100
AcDbCircle
 10
286.5044828608
 20
20.8076875004
 30
0.0
 40
2.166291629199998
100
AcDbArc
 50
227.3119280794
 51
242.7040315235
  0
ARC
  5
97
330
3A
100
AcDbEntity
  8
0
  6
Continuous
 62
     7
100
AcDbCircle
 10
285.9004520512
 20
20.1020098596
 30
0.0
 40
1.238521734
100
AcDbArc
 50
194.7952194234
 51
225.7176549042
  0
ARC
  5
98
330
3A
100
AcDbEntity
  8
0
  6
Continuous
 62
     7
100
AcDbCircle
 10
286.519633906
 20
19.2539626688
 30
0.0
 40
2.366924815299999
100
AcDbArc
 50
86.22180229280001
 51
120.4272602309
  0
ARC
  5
99
330
3A
100
AcDbEntity
  8
0
  6
Continuous
 62
     7
100
AcDbCircle
 10
286.2507771235
 20
12.5577948477
 30
0.0
 40
9.0679051661
100
AcDbArc
 50
78.68270492259998
 51
87.3147599624
  0
ARC
  5
9A
330
3A
100
AcDbEntity
  8
0
  6
Continuous
 62
     7
100
AcDbCircle
 10
286.1400172867
 20
19.9431558946
 30
0.0
 40
1.580546684599998
100
AcDbArc
 50
121.2140948541
 51
141.525476829
  0
ARC
  5
9B
330
3A
100
AcDbEntity
  8
0
  6
Continuous
 62
     7
100
AcDbCircle
 10
286.7171916523
 20
20.7542132232
 30
0.0
 40
0.8661276051999998
100
AcDbArc
 50
222.7760387596
 51
239.0362434679
  0
ARC
  5
9C
330
3A
100
AcDbEntity
  8
0
  6
Continuous
 62
     7
100
AcDbCircle
 10
284.210482074
 20
13.4239410246
 30
0.0
 40
6.858773576299999
100
AcDbArc
 50
59.90202725620001
 51
68.20364812820002
  0
ARC
  5
9D
330
3A
100
AcDbEntity
  8
0
  6
Continuous
 62
     7
100
AcDbCircle
 10
287.6189765678
 20
22.3498275319
 30
0.0
 40
2.698741017099999
100
AcDbArc
 50
240.0481997804
 51
251.3779673734
  0
ARC
  5
9E
330
3A
100
AcDbEntity
  8
0
  6
Continuous
 62
     7
100
AcDbCircle
 10
286.953519401
 20
18.1929289165
 30
0.0
 40
1.4334474881
100
AcDbArc
 50
315.8904553226
 51
333.5229264375
  0
ARC
  5
9F
330
3A
100
AcDbEntity
  8
0
  6
Continuous
 62
     7
100
AcDbCircle
 10
286.9581576447
 20
18.1395217664
 30
0.0
 40
1.406228711899998
100
AcDbArc
 50
335.3867972703
 51
24.3915119403
  0
ARC
  5
A0
330
3A
100
AcDbEntity
  8
0
  6
Continuous
 62
     7
100
AcDbCircle
 10
286.8859527412
 20
18.0616650746
 30
0.0
 40
1.504702514699999
100
AcDbArc
 50
25.9562916611
 51
59.4834829676
  0
LINE
  5
A1
330
3A
100
AcDbEntity
  8
0
  6
Continuous
 62
     7
100
AcDbLine
 10
284.8948224676
 20
20.9161059766
 30
0.0
 11
285.1688882922
 21
21.1901790542
 31
0.0
  0
ARC
  5
A2
330
3A
100
AcDbEntity
  8
0
  6
Continuous
 62
     7
100
AcDbCircle
 10
285.9626101853
 20
20.1422298287
 30
0.0
 40
1.309092072899999
100
AcDbArc
 50
164.1974860461
 51
195.8025139539
  0
ARC
  5
A3
330
3A
100
AcDbEntity
  8
0
  6
Continuous
 62
     7
100
AcDbCircle
 10
285.7947079451
 20
20.2497375912
 30
0.0
 40
1.119747444
100
AcDbArc
 50
142.813917903
 51
167.1522951417
  0
ENDBLK
  5
A4
330
3A
100
AcDbEntity
  8
0
100
AcDbBlockEnd
  0
BLOCK
  5
AC53
330
AC49
100
AcDbEntity
  8
0
100
AcDbBlockBegin
  2
*D1
 70
     1
 10
0.0
 20
0.0
 30
0.0
  3
*D1
  1

  0
LINE
  5
AF40
330
AC49
100
AcDbEntity
  8
30100_Drilling_DIM
 62
     7
370
    -2
100
AcDbLine
 10
369.0879272874878
 20
231.9218343169209
 30
0.0
 11
369.0879272874878
 21
241.1685584444631
 31
0.0
  0
LINE
  5
AF41
330
AC49
100
AcDbEntity
  8
30100_Drilling_DIM
 62
     7
370
    -2
100
AcDbLine
 10
339.2879272874878
 20
101.930834316921
 30
0.0
 11
339.2879272874878
 21
241.1685584444631
 31
0.0
  0
LINE
  5
AF42
330
AC49
100
AcDbEntity
  8
30100_Drilling_DIM
370
    -2
100
AcDbLine
 10
365.5879272874878
 20
239.1685584444631
 30
0.0
 11
342.7879272874879
 21
239.1685584444631
 31
0.0
  0
SOLID
  5
AF43
330
AC49
100
AcDbEntity
  8
30100_Drilling_DIM
100
AcDbTrace
 10
365.5879272874878
 20
239.7518917777964
 30
0.0
 11
365.5879272874878
 21
238.5852251111297
 31
0.0
 12
369.0879272874878
 22
239.1685584444631
 32
0.0
 13
369.0879272874878
 23
239.1685584444631
 33
0.0
  0
SOLID
  5
AF44
330
AC49
100
AcDbEntity
  8
30100_Drilling_DIM
100
AcDbTrace
 10
342.7879272874879
 20
239.7518917777964
 30
0.0
 11
342.7879272874879
 21
238.5852251111297
 31
0.0
 12
339.2879272874878
 22
239.1685584444631
 32
0.0
 13
339.2879272874878
 23
239.1685584444631
 33
0.0
  0
MTEXT
  5
AF45
330
AC49
100
AcDbEntity
  8
30100_Drilling_DIM
 62
     7
370
    13
100
AcDbMText
 10
354.1879272874878
 20
241.4185584444631
 30
0.0
 40
3.5
 41
0.0
 71
     5
 72
     1
  1
\A1;30
 73
     1
 44
1.0
1001
ACAD
1000
MTEXTBEGIN
1070
    73
1070
     1
1070
    44
1040
1.0
1070
    74
1070
     0
1000
MTEXTEND
  0
POINT
  5
AF46
330
AC49
100
AcDbEntity
  8
Defpoints
 62
     0
100
AcDbPoint
 10
369.0879272874878
 20
231.9218343169209
 30
0.0
  0
POINT
  5
AF47
330
AC49
100
AcDbEntity
  8
Defpoints
 62
     0
100
AcDbPoint
 10
339.2879272874878
 20
101.930834316921
 30
0.0
  0
POINT
  5
AF48
330
AC49
100
AcDbEntity
  8
Defpoints
 62
     0
100
AcDbPoint
 10
339.2879272874878
 20
239.1685584444631
 30
0.0
  0
ENDBLK
  5
AC54
330
AC49
100
AcDbEntity
  8
0
100
AcDbBlockEnd
  0
BLOCK
  5
AC60
330
AC56
100
AcDbEntity
  8
0
100
AcDbBlockBegin
  2
*D2
 70
     1
 10
0.0
 20
0.0
 30
0.0
  3
*D2
  1

  0
LINE
  5
AF37
330
AC56
100
AcDbEntity
  8
30100_Drilling_DIM
 62
     7
370
    -2
100
AcDbLine
 10
366.6969272874878
 20
229.530834316921
 30
0.0
 11
327.2265196781567
 21
229.530834316921
 31
0.0
  0
LINE
  5
AF38
330
AC56
100
AcDbEntity
  8
30100_Drilling_DIM
 62
     7
370
    -2
100
AcDbLine
 10
336.9405909938039
 20
100.0308466411232
 30
0.0
 11
327.2265196781567
 21
100.0308466411232
 31
0.0
  0
LINE
  5
AF39
330
AC56
100
AcDbEntity
  8
30100_Drilling_DIM
370
    -2
100
AcDbLine
 10
329.2265196781567
 20
226.030834316921
 30
0.0
 11
329.2265196781567
 21
103.5308466411232
 31
0.0
  0
SOLID
  5
AF3A
330
AC56
100
AcDbEntity
  8
30100_Drilling_DIM
100
AcDbTrace
 10
328.6431863448233
 20
226.030834316921
 30
0.0
 11
329.8098530114899
 21
226.030834316921
 31
0.0
 12
329.2265196781567
 22
229.530834316921
 32
0.0
 13
329.2265196781567
 23
229.530834316921
 33
0.0
  0
SOLID
  5
AF3B
330
AC56
100
AcDbEntity
  8
30100_Drilling_DIM
100
AcDbTrace
 10
328.6431863448233
 20
103.5308466411232
 30
0.0
 11
329.8098530114899
 21
103.5308466411232
 31
0.0
 12
329.2265196781567
 22
100.0308466411232
 32
0.0
 13
329.2265196781567
 23
100.0308466411232
 33
0.0
  0
MTEXT
  5
AF3C
330
AC56
100
AcDbEntity
  8
30100_Drilling_DIM
 62
     7
370
    13
100
AcDbMText
 10
326.9765196781567
 20
164.7808404790221
 30
0.0
 40
3.5
 41
0.0
 71
     5
 72
     1
  1
\A1;129
 11
0.0000000000000001
 21
1.0
 31
0.0
 73
     1
 44
1.0
1001
ACAD
1000
MTEXTBEGIN
1070
    73
1070
     1
1070
    44
1040
1.0
1070
    74
1070
     0
1000
MTEXTEND
  0
POINT
  5
AF3D
330
AC56
100
AcDbEntity
  8
Defpoints
 62
     0
100
AcDbPoint
 10
366.6969272874878
 20
229.530834316921
 30
0.0
  0
POINT
  5
AF3E
330
AC56
100
AcDbEntity
  8
Defpoints
 62
     0
100
AcDbPoint
 10
336.9405909938039
 20
100.0308466411232
 30
0.0
  0
POINT
  5
AF3F
330
AC56
100
AcDbEntity
  8
Defpoints
 62
     0
100
AcDbPoint
 10
329.2265196781567
 20
100.0308466411232
 30
0.0
  0
ENDBLK
  5
AC61
330
AC56
100
AcDbEntity
  8
0
100
AcDbBlockEnd
  0
BLOCK
  5
AC6C
330
AC63
100
AcDbEntity
  8
0
100
AcDbBlockBegin
  2
*D3
 70
     1
 10
0.0
 20
0.0
 30
0.0
  3
*D3
  1

  0
LINE
  5
AF2F
330
AC63
100
AcDbEntity
  8
30100_Drilling_DIM
370
    -2
100
AcDbLine
 10
355.9349178718365
 20
220.0320272643004
 30
0.0
 11
364.3121145082711
 21
226.0818499304856
 31
0.0
  0
LINE
  5
AF30
330
AC63
100
AcDbEntity
  8
30100_Drilling_DIM
370
    -2
100
AcDbLine
 10
373.8637400667039
 20
232.9798187033558
 30
0.0
 11
376.7011776371092
 21
235.0289521870637
 31
0.0
  0
MTEXT
  5
AF31
330
AC63
100
AcDbEntity
  8
30100_Drilling_DIM
 62
     7
370
    13
100
AcDbMText
 10
357.3874973081818
 20
223.8564388650853
 30
0.0
 40
3.5
 41
0.0
 71
     5
 72
     1
  1
\A1;\U+22055
 11
0.8106964486872179
 21
0.5854667096308153
 31
0.0
 73
     1
 44
1.0
1001
ACAD
1000
MTEXTBEGIN
1070
    73
1070
     1
1070
    44
1040
1.0
1070
    74
1070
     0
1000
MTEXTEND
  0
LINE
  5
AF32
330
AC63
100
AcDbEntity
  8
30100_Drilling_DIM
370
    -2
100
AcDbLine
 10
371.0263024962987
 20
230.930685219648
 30
0.0
 11
367.1495520786764
 21
228.1309834141934
 31
0.0
  0
SOLID
  5
AF33
330
AC63
100
AcDbEntity
  8
30100_Drilling_DIM
100
AcDbTrace
 10
373.5222178194192
 20
233.45272496509
 30
0.0
 11
374.2052623139887
 21
232.5069124416216
 31
0.0
 12
371.0263024962987
 22
230.930685219648
 32
0.0
 13
371.0263024962987
 23
230.930685219648
 33
0.0
  0
SOLID
  5
AF34
330
AC63
100
AcDbEntity
  8
30100_Drilling_DIM
100
AcDbTrace
 10
363.9705922609865
 20
226.5547561922198
 30
0.0
 11
364.6536367555557
 21
225.6089436687513
 31
0.0
 12
367.1495520786764
 22
228.1309834141934
 32
0.0
 13
367.1495520786764
 23
228.1309834141934
 33
0.0
  0
POINT
  5
AF35
330
AC63
100
AcDbEntity
  8
Defpoints
 62
     0
100
AcDbPoint
 10
367.1495520786764
 20
228.1309834141934
 30
0.0
  0
POINT
  5
AF36
330
AC63
100
AcDbEntity
  8
Defpoints
 62
     0
100
AcDbPoint
 10
371.0263024962987
 20
230.930685219648
 30
0.0
  0
ENDBLK
  5
AC6D
330
AC63
100
AcDbEntity
  8
0
100
AcDbBlockEnd
  0
BLOCK
  5
AC7B
330
AC6F
100
AcDbEntity
  8
0
100
AcDbBlockBegin
  2
*D4
 70
     1
 10
0.0
 20
0.0
 30
0.0
  3
*D4
  1

  0
LINE
  5
AF24
330
AC6F
100
AcDbEntity
  8
11100_LEFT_DIM
  6
Continuous
 62
     0
370
    -2
100
AcDbLine
 10
157.0509272874878
 20
145.729834316921
 30
0.0
 11
157.0509272874878
 21
83.15451238747064
 31
0.0
  0
LINE
  5
AF25
330
AC6F
100
AcDbEntity
  8
11100_LEFT_DIM
  6
Continuous
 62
     0
370
    -2
100
AcDbLine
 10
152.0509272874878
 20
94.03083431692101
 30
0.0
 11
152.0509272874878
 21
83.15451238747064
 31
0.0
  0
LINE
  5
AF26
330
AC6F
100
AcDbEntity
  8
11100_LEFT_DIM
  6
Continuous
 62
     0
370
    -2
100
AcDbLine
 10
159.0509272874878
 20
84.15451238747063
 30
0.0
 11
161.0509272874878
 21
84.15451238747063
 31
0.0
  0
LINE
  5
AF27
330
AC6F
100
AcDbEntity
  8
11100_LEFT_DIM
  6
Continuous
 62
     0
370
    -2
100
AcDbLine
 10
150.0509272874878
 20
84.15451238747063
 30
0.0
 11
148.0509272874878
 21
84.15451238747063
 31
0.0
  0
LINE
  5
AF28
330
AC6F
100
AcDbEntity
  8
11100_LEFT_DIM
  6
Continuous
 62
     0
370
    -2
100
AcDbLine
 10
157.0509272874878
 20
84.15451238747063
 30
0.0
 11
152.0509272874878
 21
84.15451238747063
 31
0.0
  0
SOLID
  5
AF29
330
AC6F
100
AcDbEntity
  8
11100_LEFT_DIM
  6
Continuous
 62
     0
100
AcDbTrace
 10
159.0509272874878
 20
84.48784572080397
 30
0.0
 11
159.0509272874878
 21
83.82117905413727
 31
0.0
 12
157.0509272874878
 22
84.15451238747063
 32
0.0
 13
157.0509272874878
 23
84.15451238747063
 33
0.0
  0
SOLID
  5
AF2A
330
AC6F
100
AcDbEntity
  8
11100_LEFT_DIM
  6
Continuous
 62
     0
100
AcDbTrace
 10
150.0509272874878
 20
84.48784572080397
 30
0.0
 11
150.0509272874878
 21
83.82117905413727
 31
0.0
 12
152.0509272874878
 22
84.15451238747063
 32
0.0
 13
152.0509272874878
 23
84.15451238747063
 33
0.0
  0
MTEXT
  5
AF2B
330
AC6F
100
AcDbEntity
  8
11100_LEFT_DIM
  6
Continuous
 62
     0
370
    13
100
AcDbMText
 10
145.3842606208211
 20
84.15451238747063
 30
0.0
 40
5.0
 41
0.0
 71
     5
 72
     1
  1
\A1;5
 73
     1
 44
1.0
1001
ACAD
1000
MTEXTBEGIN
1070
    73
1070
     1
1070
    44
1040
1.0
1070
    74
1070
     0
1000
MTEXTEND
  0
POINT
  5
AF2C
330
AC6F
100
AcDbEntity
  8
Defpoints
  6
Continuous
 62
     0
100
AcDbPoint
 10
157.0509272874878
 20
146.729834316921
 30
-0.3
  0
POINT
  5
AF2D
330
AC6F
100
AcDbEntity
  8
Defpoints
  6
Continuous
 62
     0
100
AcDbPoint
 10
152.0509272874878
 20
95.03083431692102
 30
0.0
  0
POINT
  5
AF2E
330
AC6F
100
AcDbEntity
  8
Defpoints
  6
Continuous
 62
     0
100
AcDbPoint
 10
152.0509272874878
 20
84.15451238747063
 30
0.0
  0
ENDBLK
  5
AC7C
330
AC6F
100
AcDbEntity
  8
0
100
AcDbBlockEnd
  0
BLOCK
  5
AC8A
330
AC7E
100
AcDbEntity
  8
0
100
AcDbBlockBegin
  2
*D5
 70
     1
 10
0.0
 20
0.0
 30
0.0
  3
*D5
  1

  0
LINE
  5
AF1A
330
AC7E
100
AcDbEntity
  8
11100_LEFT_DIM
  6
Continuous
 62
     0
370
    -2
100
AcDbLine
 10
152.0509272874878
 20
94.03083431692101
 30
0.0
 11
152.0509272874878
 21
74.68151982946769
 31
0.0
  0
LINE
  5
AF1B
330
AC7E
100
AcDbEntity
  8
11100_LEFT_DIM
  6
Continuous
 62
     0
370
    -2
100
AcDbLine
 10
160.0509272874878
 20
101.030834316921
 30
0.0
 11
160.0509272874878
 21
74.68151982946769
 31
0.0
  0
LINE
  5
AF1C
330
AC7E
100
AcDbEntity
  8
11100_LEFT_DIM
  6
Continuous
 62
     0
370
    -2
100
AcDbLine
 10
158.0509272874878
 20
75.68151982946767
 30
0.0
 11
154.0509272874878
 21
75.68151982946767
 31
0.0
  0
LINE
  5
AF1D
330
AC7E
100
AcDbEntity
  8
11100_LEFT_DIM
  6
Continuous
 62
     0
370
    -2
100
AcDbLine
 10
152.0509272874878
 20
75.68151982946767
 30
0.0
 11
150.0509272874878
 21
75.68151982946767
 31
0.0
  0
SOLID
  5
AF1E
330
AC7E
100
AcDbEntity
  8
11100_LEFT_DIM
  6
Continuous
 62
     0
100
AcDbTrace
 10
158.0509272874878
 20
76.01485316280101
 30
0.0
 11
158.0509272874878
 21
75.34818649613434
 31
0.0
 12
160.0509272874878
 22
75.68151982946767
 32
0.0
 13
160.0509272874878
 23
75.68151982946767
 33
0.0
  0
SOLID
  5
AF1F
330
AC7E
100
AcDbEntity
  8
11100_LEFT_DIM
  6
Continuous
 62
     0
100
AcDbTrace
 10
154.0509272874878
 20
76.01485316280101
 30
0.0
 11
154.0509272874878
 21
75.34818649613434
 31
0.0
 12
152.0509272874878
 22
75.68151982946767
 32
0.0
 13
152.0509272874878
 23
75.68151982946767
 33
0.0
  0
MTEXT
  5
AF20
330
AC7E
100
AcDbEntity
  8
11100_LEFT_DIM
  6
Continuous
 62
     0
370
    13
100
AcDbMText
 10
147.3842606208211
 20
75.68151982946767
 30
0.0
 40
5.0
 41
0.0
 71
     5
 72
     1
  1
\A1;8
 73
     1
 44
1.0
1001
ACAD
1000
MTEXTBEGIN
1070
    73
1070
     1
1070
    44
1040
1.0
1070
    74
1070
     0
1000
MTEXTEND
  0
POINT
  5
AF21
330
AC7E
100
AcDbEntity
  8
Defpoints
  6
Continuous
 62
     0
100
AcDbPoint
 10
152.0509272874878
 20
95.03083431692102
 30
0.0
  0
POINT
  5
AF22
330
AC7E
100
AcDbEntity
  8
Defpoints
  6
Continuous
 62
     0
100
AcDbPoint
 10
160.0509272874878
 20
102.030834316921
 30
0.0
  0
POINT
  5
AF23
330
AC7E
100
AcDbEntity
  8
Defpoints
  6
Continuous
 62
     0
100
AcDbPoint
 10
160.0509272874878
 20
75.68151982946767
 30
0.0
  0
ENDBLK
  5
AC8B
330
AC7E
100
AcDbEntity
  8
0
100
AcDbBlockEnd
  0
BLOCK
  5
ACDC
330
ACD2
100
AcDbEntity
  8
0
100
AcDbBlockBegin
  2
*D6
 70
     1
 10
0.0
 20
0.0
 30
0.0
  3
*D6
  1

  0
LINE
  5
AECD
330
ACD2
100
AcDbEntity
  8
10100_FRONT_DIM
  6
Continuous
 62
     0
370
    -2
100
AcDbLine
 10
42.1744494662397
 20
95.03083431692102
 30
0.0
 11
42.1744494662397
 21
83.204884892231
 31
0.0
  0
LINE
  5
AECE
330
ACD2
100
AcDbEntity
  8
10100_FRONT_DIM
  6
Continuous
 62
     0
370
    -2
100
AcDbLine
 10
96.97444946623972
 20
95.03083431692102
 30
0.0
 11
96.97444946623972
 21
83.204884892231
 31
0.0
  0
LINE
  5
AECF
330
ACD2
100
AcDbEntity
  8
10100_FRONT_DIM
  6
Continuous
 62
     0
370
    -2
100
AcDbLine
 10
44.1744494662397
 20
84.20488489223101
 30
0.0
 11
64.40778279957304
 21
84.20488489223101
 31
0.0
  0
LINE
  5
AED0
330
ACD2
100
AcDbEntity
  8
10100_FRONT_DIM
  6
Continuous
 62
     0
370
    -2
100
AcDbLine
 10
94.97444946623971
 20
84.20488489223101
 30
0.0
 11
74.74111613290638
 21
84.20488489223101
 31
0.0
  0
SOLID
  5
AED1
330
ACD2
100
AcDbEntity
  8
10100_FRONT_DIM
  6
Continuous
 62
     0
100
AcDbTrace
 10
44.1744494662397
 20
84.53821822556433
 30
0.0
 11
44.1744494662397
 21
83.8715515588977
 31
0.0
 12
42.1744494662397
 22
84.20488489223101
 32
0.0
 13
42.1744494662397
 23
84.20488489223101
 33
0.0
  0
SOLID
  5
AED2
330
ACD2
100
AcDbEntity
  8
10100_FRONT_DIM
  6
Continuous
 62
     0
100
AcDbTrace
 10
94.97444946623971
 20
84.53821822556433
 30
0.0
 11
94.97444946623971
 21
83.8715515588977
 31
0.0
 12
96.97444946623972
 22
84.20488489223101
 32
0.0
 13
96.97444946623972
 23
84.20488489223101
 33
0.0
  0
MTEXT
  5
AED3
330
ACD2
100
AcDbEntity
  8
10100_FRONT_DIM
  6
Continuous
 62
     0
370
    13
100
AcDbMText
 10
69.57444946623971
 20
84.20488489223101
 30
0.0
 40
5.0
 41
0.0
 71
     5
 72
     1
  1
\A1;55
 73
     1
 44
1.0
1001
ACAD
1000
MTEXTBEGIN
1070
    73
1070
     1
1070
    44
1040
1.0
1070
    74
1070
     0
1000
MTEXTEND
  0
POINT
  5
AED4
330
ACD2
100
AcDbEntity
  8
Defpoints
  6
Continuous
 62
     0
100
AcDbPoint
 10
42.1744494662397
 20
96.03083431692104
 30
0.0
  0
POINT
  5
AED5
330
ACD2
100
AcDbEntity
  8
Defpoints
  6
Continuous
 62
     0
100
AcDbPoint
 10
96.97444946623972
 20
96.03083431692104
 30
0.0
  0
POINT
  5
AED6
330
ACD2
100
AcDbEntity
  8
Defpoints
  6
Continuous
 62
     0
100
AcDbPoint
 10
96.97444946623972
 20
84.20488489223101
 30
0.0
  0
ENDBLK
  5
ACDD
330
ACD2
100
AcDbEntity
  8
0
100
AcDbBlockEnd
  0
BLOCK
  5
ACF2
330
ACE8
100
AcDbEntity
  8
0
100
AcDbBlockBegin
  2
*D7
 70
     1
 10
0.0
 20
0.0
 30
0.0
  3
*D7
  1

  0
LINE
  5
AEC3
330
ACE8
100
AcDbEntity
  8
10100_FRONT_DIM
  6
Continuous
 62
     0
370
    -2
100
AcDbLine
 10
97.97444946623972
 20
187.030834316921
 30
0.0
 11
107.5217706667305
 21
187.030834316921
 31
0.0
  0
LINE
  5
AEC4
330
ACE8
100
AcDbEntity
  8
10100_FRONT_DIM
  6
Continuous
 62
     0
370
    -2
100
AcDbLine
 10
97.97444946623972
 20
142.030834316921
 30
0.0
 11
107.5217706667305
 21
142.030834316921
 31
0.0
  0
LINE
  5
AEC5
330
ACE8
100
AcDbEntity
  8
10100_FRONT_DIM
  6
Continuous
 62
     0
370
    -2
100
AcDbLine
 10
106.5217706667305
 20
185.030834316921
 30
0.0
 11
106.5217706667305
 21
169.6975009835876
 31
0.0
  0
LINE
  5
AEC6
330
ACE8
100
AcDbEntity
  8
10100_FRONT_DIM
  6
Continuous
 62
     0
370
    -2
100
AcDbLine
 10
106.5217706667305
 20
144.030834316921
 30
0.0
 11
106.5217706667305
 21
159.3641676502543
 31
0.0
  0
SOLID
  5
AEC7
330
ACE8
100
AcDbEntity
  8
10100_FRONT_DIM
  6
Continuous
 62
     0
100
AcDbTrace
 10
106.1884373333972
 20
185.030834316921
 30
0.0
 11
106.8551040000638
 21
185.030834316921
 31
0.0
 12
106.5217706667305
 22
187.030834316921
 32
0.0
 13
106.5217706667305
 23
187.030834316921
 33
0.0
  0
SOLID
  5
AEC8
330
ACE8
100
AcDbEntity
  8
10100_FRONT_DIM
  6
Continuous
 62
     0
100
AcDbTrace
 10
106.1884373333972
 20
144.030834316921
 30
0.0
 11
106.8551040000638
 21
144.030834316921
 31
0.0
 12
106.5217706667305
 22
142.030834316921
 32
0.0
 13
106.5217706667305
 23
142.030834316921
 33
0.0
  0
MTEXT
  5
AEC9
330
ACE8
100
AcDbEntity
  8
10100_FRONT_DIM
  6
Continuous
 62
     0
370
    13
100
AcDbMText
 10
106.5217706667305
 20
164.530834316921
 30
0.0
 40
5.0
 41
0.0
 71
     5
 72
     1
  1
\A1;45
 11
0.0000000000000001
 21
1.0
 31
0.0
 73
     1
 44
1.0
1001
ACAD
1000
MTEXTBEGIN
1070
    73
1070
     1
1070
    44
1040
1.0
1070
    74
1070
     0
1000
MTEXTEND
  0
POINT
  5
AECA
330
ACE8
100
AcDbEntity
  8
Defpoints
  6
Continuous
 62
     0
100
AcDbPoint
 10
96.97444946623972
 20
187.030834316921
 30
0.0
  0
POINT
  5
AECB
330
ACE8
100
AcDbEntity
  8
Defpoints
  6
Continuous
 62
     0
100
AcDbPoint
 10
96.97444946623972
 20
142.030834316921
 30
0.0
  0
POINT
  5
AECC
330
ACE8
100
AcDbEntity
  8
Defpoints
  6
Continuous
 62
     0
100
AcDbPoint
 10
106.5217706667305
 20
142.030834316921
 30
0.0
  0
ENDBLK
  5
ACF3
330
ACE8
100
AcDbEntity
  8
0
100
AcDbBlockEnd
  0
BLOCK
  5
ACFF
330
ACF5
100
AcDbEntity
  8
0
100
AcDbBlockBegin
  2
*D8
 70
     1
 10
0.0
 20
0.0
 30
0.0
  3
*D8
  1

  0
LINE
  5
AEB9
330
ACF5
100
AcDbEntity
  8
10100_FRONT_DIM
  6
Continuous
 62
     0
370
    -2
100
AcDbLine
 10
92.19444946623971
 20
212.295834316921
 30
0.0
 11
114.5049081725061
 21
212.295834316921
 31
0.0
  0
LINE
  5
AEBA
330
ACF5
100
AcDbEntity
  8
10100_FRONT_DIM
  6
Continuous
 62
     0
370
    -2
100
AcDbLine
 10
92.19444946623971
 20
111.796834316921
 30
0.0
 11
114.5049081725061
 21
111.796834316921
 31
0.0
  0
LINE
  5
AEBB
330
ACF5
100
AcDbEntity
  8
10100_FRONT_DIM
  6
Continuous
 62
     0
370
    -2
100
AcDbLine
 10
113.5049081725061
 20
210.295834316921
 30
0.0
 11
113.5049081725061
 21
168.046334316921
 31
0.0
  0
LINE
  5
AEBC
330
ACF5
100
AcDbEntity
  8
10100_FRONT_DIM
  6
Continuous
 62
     0
370
    -2
100
AcDbLine
 10
113.5049081725061
 20
113.796834316921
 30
0.0
 11
113.5049081725061
 21
156.046334316921
 31
0.0
  0
SOLID
  5
AEBD
330
ACF5
100
AcDbEntity
  8
10100_FRONT_DIM
  6
Continuous
 62
     0
100
AcDbTrace
 10
113.1715748391728
 20
210.295834316921
 30
0.0
 11
113.8382415058394
 21
210.295834316921
 31
0.0
 12
113.5049081725061
 22
212.295834316921
 32
0.0
 13
113.5049081725061
 23
212.295834316921
 33
0.0
  0
SOLID
  5
AEBE
330
ACF5
100
AcDbEntity
  8
10100_FRONT_DIM
  6
Continuous
 62
     0
100
AcDbTrace
 10
113.1715748391728
 20
113.796834316921
 30
0.0
 11
113.8382415058394
 21
113.796834316921
 31
0.0
 12
113.5049081725061
 22
111.796834316921
 32
0.0
 13
113.5049081725061
 23
111.796834316921
 33
0.0
  0
MTEXT
  5
AEBF
330
ACF5
100
AcDbEntity
  8
10100_FRONT_DIM
  6
Continuous
 62
     0
370
    13
100
AcDbMText
 10
113.5049081725061
 20
162.0463343169211
 30
0.0
 40
5.0
 41
0.0
 71
     5
 72
     1
  1
\A1;100
 11
0.0000000000000001
 21
1.0
 31
0.0
 73
     1
 44
1.0
1001
ACAD
1000
MTEXTBEGIN
1070
    73
1070
     1
1070
    44
1040
1.0
1070
    74
1070
     0
1000
MTEXTEND
  0
POINT
  5
AEC0
330
ACF5
100
AcDbEntity
  8
Defpoints
  6
Continuous
 62
     0
100
AcDbPoint
 10
91.19444946623971
 20
212.295834316921
 30
0.0
  0
POINT
  5
AEC1
330
ACF5
100
AcDbEntity
  8
Defpoints
  6
Continuous
 62
     0
100
AcDbPoint
 10
91.19444946623971
 20
111.796834316921
 30
0.0
  0
POINT
  5
AEC2
330
ACF5
100
AcDbEntity
  8
Defpoints
  6
Continuous
 62
     0
100
AcDbPoint
 10
113.5049081725061
 20
111.796834316921
 30
0.0
  0
ENDBLK
  5
AD00
330
ACF5
100
AcDbEntity
  8
0
100
AcDbBlockEnd
  0
BLOCK
  5
AD30
330
AD26
100
AcDbEntity
  8
0
100
AcDbBlockBegin
  2
*D9
 70
     1
 10
0.0
 20
0.0
 30
0.0
  3
*D9
  1

  0
LINE
  5
AEAF
330
AD26
100
AcDbEntity
  8
10100_FRONT_DIM
  6
Continuous
 62
     0
370
    -2
100
AcDbLine
 10
96.47444946623972
 20
234.530834316921
 30
0.0
 11
123.1558226655914
 21
234.530834316921
 31
0.0
  0
LINE
  5
AEB0
330
AD26
100
AcDbEntity
  8
10100_FRONT_DIM
  6
Continuous
 62
     0
370
    -2
100
AcDbLine
 10
96.47444946623972
 20
94.53083431692093
 30
0.0
 11
123.1558226655913
 21
94.53083431692093
 31
0.0
  0
LINE
  5
AEB1
330
AD26
100
AcDbEntity
  8
10100_FRONT_DIM
  6
Continuous
 62
     0
370
    -2
100
AcDbLine
 10
122.1558226655914
 20
232.530834316921
 30
0.0
 11
122.1558226655913
 21
170.9475009835876
 31
0.0
  0
LINE
  5
AEB2
330
AD26
100
AcDbEntity
  8
10100_FRONT_DIM
  6
Continuous
 62
     0
370
    -2
100
AcDbLine
 10
122.1558226655913
 20
96.53083431692095
 30
0.0
 11
122.1558226655913
 21
158.1141676502543
 31
0.0
  0
SOLID
  5
AEB3
330
AD26
100
AcDbEntity
  8
10100_FRONT_DIM
  6
Continuous
 62
     0
100
AcDbTrace
 10
121.822489332258
 20
232.530834316921
 30
0.0
 11
122.4891559989247
 21
232.530834316921
 31
0.0
 12
122.1558226655914
 22
234.530834316921
 32
0.0
 13
122.1558226655914
 23
234.530834316921
 33
0.0
  0
SOLID
  5
AEB4
330
AD26
100
AcDbEntity
  8
10100_FRONT_DIM
  6
Continuous
 62
     0
100
AcDbTrace
 10
121.822489332258
 20
96.53083431692095
 30
0.0
 11
122.4891559989247
 21
96.53083431692095
 31
0.0
 12
122.1558226655913
 22
94.53083431692093
 32
0.0
 13
122.1558226655913
 23
94.53083431692093
 33
0.0
  0
MTEXT
  5
AEB5
330
AD26
100
AcDbEntity
  8
10100_FRONT_DIM
  6
Continuous
 62
     0
370
    13
100
AcDbMText
 10
122.1558226655913
 20
164.530834316921
 30
0.0
 40
5.0
 41
0.0
 71
     5
 72
     1
  1
\A1;140
 11
0.0000000000000001
 21
1.0
 31
0.0
 73
     1
 44
1.0
1001
ACAD
1000
MTEXTBEGIN
1070
    73
1070
     1
1070
    44
1040
1.0
1070
    74
1070
     0
1000
MTEXTEND
  0
POINT
  5
AEB6
330
AD26
100
AcDbEntity
  8
Defpoints
  6
Continuous
 62
     0
100
AcDbPoint
 10
95.47444946623972
 20
234.530834316921
 30
0.0
  0
POINT
  5
AEB7
330
AD26
100
AcDbEntity
  8
Defpoints
  6
Continuous
 62
     0
100
AcDbPoint
 10
95.47444946623972
 20
94.53083431692094
 30
0.0
  0
POINT
  5
AEB8
330
AD26
100
AcDbEntity
  8
Defpoints
  6
Continuous
 62
     0
100
AcDbPoint
 10
122.1558226655913
 20
94.53083431692093
 30
0.0
  0
ENDBLK
  5
AD31
330
AD26
100
AcDbEntity
  8
0
100
AcDbBlockEnd
  0
BLOCK
  5
ADA9
330
AD9F
100
AcDbEntity
  8
0
100
AcDbBlockBegin
  2
*D10
 70
     1
 10
0.0
 20
0.0
 30
0.0
  3
*D10
  1

  0
LINE
  5
AF10
330
AD9F
100
AcDbEntity
  8
11100_LEFT_DIM
  6
Continuous
 62
     0
370
    -2
100
AcDbLine
 10
157.0509272874878
 20
93.53083431692104
 30
0.0
 11
157.0509272874878
 21
83.15451238747064
 31
0.0
  0
LINE
  5
AF11
330
AD9F
100
AcDbEntity
  8
11100_LEFT_DIM
  6
Continuous
 62
     0
370
    -2
100
AcDbLine
 10
220.8509272874878
 20
101.030834316921
 30
0.0
 11
220.8509272874878
 21
83.15451238747064
 31
0.0
  0
LINE
  5
AF12
330
AD9F
100
AcDbEntity
  8
11100_LEFT_DIM
  6
Continuous
 62
     0
370
    -2
100
AcDbLine
 10
159.0509272874878
 20
84.15451238747063
 30
0.0
 11
183.784260620821
 21
84.15451238747063
 31
0.0
  0
LINE
  5
AF13
330
AD9F
100
AcDbEntity
  8
11100_LEFT_DIM
  6
Continuous
 62
     0
370
    -2
100
AcDbLine
 10
218.8509272874878
 20
84.15451238747063
 30
0.0
 11
194.1175939541544
 21
84.15451238747063
 31
0.0
  0
SOLID
  5
AF14
330
AD9F
100
AcDbEntity
  8
11100_LEFT_DIM
  6
Continuous
 62
     0
100
AcDbTrace
 10
159.0509272874878
 20
84.48784572080397
 30
0.0
 11
159.0509272874878
 21
83.82117905413727
 31
0.0
 12
157.0509272874878
 22
84.15451238747063
 32
0.0
 13
157.0509272874878
 23
84.15451238747063
 33
0.0
  0
SOLID
  5
AF15
330
AD9F
100
AcDbEntity
  8
11100_LEFT_DIM
  6
Continuous
 62
     0
100
AcDbTrace
 10
218.8509272874878
 20
84.48784572080397
 30
0.0
 11
218.8509272874878
 21
83.82117905413727
 31
0.0
 12
220.8509272874878
 22
84.15451238747063
 32
0.0
 13
220.8509272874878
 23
84.15451238747063
 33
0.0
  0
MTEXT
  5
AF16
330
AD9F
100
AcDbEntity
  8
11100_LEFT_DIM
  6
Continuous
 62
     0
370
    13
100
AcDbMText
 10
188.9509272874878
 20
84.15451238747063
 30
0.0
 40
5.0
 41
0.0
 71
     5
 72
     1
  1
\A1;64
 73
     1
 44
1.0
1001
ACAD
1000
MTEXTBEGIN
1070
    73
1070
     1
1070
    44
1040
1.0
1070
    74
1070
     0
1000
MTEXTEND
  0
POINT
  5
AF17
330
AD9F
100
AcDbEntity
  8
Defpoints
  6
Continuous
 62
     0
100
AcDbPoint
 10
157.0509272874878
 20
94.530834316921
 30
0.0
  0
POINT
  5
AF18
330
AD9F
100
AcDbEntity
  8
Defpoints
  6
Continuous
 62
     0
100
AcDbPoint
 10
220.8509272874878
 20
102.030834316921
 30
0.0
  0
POINT
  5
AF19
330
AD9F
100
AcDbEntity
  8
Defpoints
  6
Continuous
 62
     0
100
AcDbPoint
 10
220.8509272874878
 20
84.15451238747063
 30
0.0
  0
ENDBLK
  5
ADAA
330
AD9F
100
AcDbEntity
  8
0
100
AcDbBlockEnd
  0
BLOCK
  5
ADB6
330
ADAC
100
AcDbEntity
  8
0
100
AcDbBlockBegin
  2
*D11
 70
     1
 10
0.0
 20
0.0
 30
0.0
  3
*D11
  1

  0
LINE
  5
AF06
330
ADAC
100
AcDbEntity
  8
11100_LEFT_DIM
  6
Continuous
 62
     0
370
    -2
100
AcDbLine
 10
157.0509272874878
 20
93.53083431692104
 30
0.0
 11
157.0509272874878
 21
68.796242098373
 31
0.0
  0
LINE
  5
AF07
330
ADAC
100
AcDbEntity
  8
11100_LEFT_DIM
  6
Continuous
 62
     0
370
    -2
100
AcDbLine
 10
300.9079272874878
 20
150.071834316921
 30
0.0
 11
300.9079272874878
 21
68.796242098373
 31
0.0
  0
LINE
  5
AF08
330
ADAC
100
AcDbEntity
  8
11100_LEFT_DIM
  6
Continuous
 62
     0
370
    -2
100
AcDbLine
 10
159.0509272874878
 20
69.796242098373
 30
0.0
 11
222.1460939541544
 21
69.796242098373
 31
0.0
  0
LINE
  5
AF09
330
ADAC
100
AcDbEntity
  8
11100_LEFT_DIM
  6
Continuous
 62
     0
370
    -2
100
AcDbLine
 10
298.9079272874878
 20
69.796242098373
 30
0.0
 11
235.8127606208211
 21
69.796242098373
 31
0.0
  0
SOLID
  5
AF0A
330
ADAC
100
AcDbEntity
  8
11100_LEFT_DIM
  6
Continuous
 62
     0
100
AcDbTrace
 10
159.0509272874878
 20
70.12957543170633
 30
0.0
 11
159.0509272874878
 21
69.46290876503967
 31
0.0
 12
157.0509272874878
 22
69.796242098373
 32
0.0
 13
157.0509272874878
 23
69.796242098373
 33
0.0
  0
SOLID
  5
AF0B
330
ADAC
100
AcDbEntity
  8
11100_LEFT_DIM
  6
Continuous
 62
     0
100
AcDbTrace
 10
298.9079272874878
 20
70.12957543170633
 30
0.0
 11
298.9079272874878
 21
69.46290876503967
 31
0.0
 12
300.9079272874878
 22
69.796242098373
 32
0.0
 13
300.9079272874878
 23
69.796242098373
 33
0.0
  0
MTEXT
  5
AF0C
330
ADAC
100
AcDbEntity
  8
11100_LEFT_DIM
  6
Continuous
 62
     0
370
    13
100
AcDbMText
 10
228.9794272874878
 20
69.796242098373
 30
0.0
 40
5.0
 41
0.0
 71
     5
 72
     1
  1
\A1;144
 73
     1
 44
1.0
1001
ACAD
1000
MTEXTBEGIN
1070
    73
1070
     1
1070
    44
1040
1.0
1070
    74
1070
     0
1000
MTEXTEND
  0
POINT
  5
AF0D
330
ADAC
100
AcDbEntity
  8
Defpoints
  6
Continuous
 62
     0
100
AcDbPoint
 10
157.0509272874878
 20
94.530834316921
 30
0.0
  0
POINT
  5
AF0E
330
ADAC
100
AcDbEntity
  8
Defpoints
  6
Continuous
 62
     0
100
AcDbPoint
 10
300.9079272874878
 20
151.071834316921
 30
0.0
  0
POINT
  5
AF0F
330
ADAC
100
AcDbEntity
  8
Defpoints
  6
Continuous
 62
     0
100
AcDbPoint
 10
300.9079272874878
 20
69.796242098373
 30
0.0
  0
ENDBLK
  5
ADB7
330
ADAC
100
AcDbEntity
  8
0
100
AcDbBlockEnd
  0
ENDSEC
  0
SECTION
  2
ENTITIES
  0
INSERT
  5
AA
330
20
100
AcDbEntity
  8
90000_FRAME
  6
Continuous
 62
     7
100
AcDbBlockReference
  2
SIEMENS_OUTLINE_BL0
 10
0.0
 20
0.0
 30
0.0
  0
LINE
  5
AB
330
20
100
AcDbEntity
  8
90000_FRAME
  6
Continuous
 62
     7
100
AcDbLine
 10
275.0
 20
10.0
 30
0.0
 11
410.0
 21
10.0
 31
0.0
  0
LINE
  5
AC
330
20
100
AcDbEntity
  8
90000_FRAME
  6
Continuous
 62
     7
100
AcDbLine
 10
275.0
 20
10.0
 30
0.0
 11
275.0
 21
28.0
 31
0.0
  0
LINE
  5
AD
330
20
100
AcDbEntity
  8
90000_FRAME
  6
Continuous
 62
     7
100
AcDbLine
 10
325.0
 20
16.0
 30
0.0
 11
410.0
 21
16.0
 31
0.0
  0
LINE
  5
AE
330
20
100
AcDbEntity
  8
90000_FRAME
  6
Continuous
 62
     7
100
AcDbLine
 10
275.0
 20
28.0
 30
0.0
 11
410.0
 21
28.0
 31
0.0
  0
LINE
  5
AF
330
20
100
AcDbEntity
  8
90000_FRAME
  6
Continuous
 62
     7
100
AcDbLine
 10
325.0
 20
10.0
 30
0.0
 11
325.0
 21
28.0
 31
0.0
  0
LINE
  5
B0
330
20
100
AcDbEntity
  8
90000_FRAME
  6
Continuous
 62
     7
100
AcDbLine
 10
367.5
 20
10.0
 30
0.0
 11
367.5
 21
16.0
 31
0.0
  0
LINE
  5
B1
330
20
100
AcDbEntity
  8
90000_FRAME
  6
Continuous
 62
     7
100
AcDbLine
 10
410.0
 20
10.0
 30
0.0
 11
410.0
 21
28.0
 31
0.0
  0
TEXT
  5
B2
330
20
100
AcDbEntity
  8
90000_FRAME
  6
Continuous
 62
     7
100
AcDbText
 10
325.66
 20
11.9
 30
0.0
 40
2.2
  1
Format / Size: DIN A3
 41
0.7994987468660281
 72
     5
 11
359.079047619
 21
11.9
 31
0.0
100
AcDbText
  0
TEXT
  5
B3
330
20
100
AcDbEntity
  8
90000_FRAME
  6
Continuous
 62
     7
100
AcDbText
 10
368.16
 20
11.9
 30
0.0
 40
2.2
  1
Massstab / Scale: 1:1
 41
0.7732634338148471
 72
     5
 11
399.0647619048001
 21
11.9
 31
0.0
100
AcDbText
  0
LINE
  5
20F5
330
20
100
AcDbEntity
  8
91000_TIP
  6
Continuous
 62
     7
100
AcDbLine
 10
249.8146701040259
 20
21.32373752237061
 30
0.0
 11
259.814669899826
 21
23.82373747137058
 31
0.0
  0
LINE
  5
20F6
330
20
100
AcDbEntity
  8
91000_TIP
  6
CENTER
 62
     7
100
AcDbLine
 10
248.5351596320249
 20
18.82373757347062
 30
0.0
 11
272.1371488961249
 21
18.82373757347062
 31
0.0
  0
LINE
  5
20F7
330
20
100
AcDbEntity
  8
91000_TIP
  6
Continuous
 62
     7
100
AcDbLine
 10
249.8146701040259
 20
16.32373762457058
 30
0.0
 11
259.814669899826
 21
13.8237376755705
 31
0.0
  0
LINE
  5
20F8
330
20
100
AcDbEntity
  8
91000_TIP
  6
Continuous
 62
     7
100
AcDbLine
 10
249.8146701040259
 20
21.32373752237061
 30
0.0
 11
249.8146701040259
 21
16.32373762457058
 31
0.0
  0
LINE
  5
20F9
330
20
100
AcDbEntity
  8
91000_TIP
  6
Continuous
 62
     7
100
AcDbLine
 10
259.814669899826
 20
23.82373747137058
 30
0.0
 11
259.814669899826
 21
13.8237376755705
 31
0.0
  0
LINE
  5
20FA
330
20
100
AcDbEntity
  8
91000_TIP
  6
CENTER
 62
     7
100
AcDbLine
 10
266.3146697670259
 20
13.10225636707057
 30
0.0
 11
266.3146697670259
 21
24.38564236707057
 31
0.0
  0
CIRCLE
  5
20FB
330
20
100
AcDbEntity
  8
91000_TIP
  6
Continuous
 62
     7
100
AcDbCircle
 10
266.3146697670259
 20
18.82373757347062
 30
0.0
 40
4.9999998979
  0
CIRCLE
  5
20FC
330
20
100
AcDbEntity
  8
91000_TIP
  6
Continuous
 62
     7
100
AcDbCircle
 10
266.3146697670259
 20
18.82373757347062
 30
0.0
 40
2.499999948899997
  0
TEXT
  5
2196
330
20
100
AcDbEntity
  8
90000_FRAME
  6
Continuous
 62
     7
100
AcDbText
 10
338.3059245239508
 20
20.25
 30
0.0
 40
3.5
  1
3RV103__00000192_000_ALL
 41
0.731675115627259
 72
     5
 11
394.2180979431339
 21
20.25
 31
0.0
100
AcDbText
  0
LINE
  5
633F
330
20
100
AcDbEntity
  8
90000_FRAME
  6
Continuous
 62
     7
100
AcDbLine
 10
420.0000000000008
 20
0.0
 30
0.0
 11
420.0000000000008
 21
270.0
 31
0.0
  0
LINE
  5
6340
330
20
100
AcDbEntity
  8
90000_FRAME
  6
Continuous
 62
     7
100
AcDbLine
 10
10.00000000000085
 20
0.0
 30
0.0
 11
420.0000000000008
 21
0.0
 31
0.0
  0
LINE
  5
6343
330
20
100
AcDbEntity
  8
90000_FRAME
  6
Continuous
 62
     7
100
AcDbLine
 10
410.0
 20
10.0
 30
0.0
 11
410.0
 21
28.0
 31
0.0
  0
TEXT
  5
634B
330
20
100
AcDbEntity
  8
91000_TIP
  6
Continuous
 62
     7
100
AcDbText
 10
14.05334978266475
 20
3.482236621676662
 30
0.0
 40
2.5
  1
All dimensions are in millimeters (mm).
 41
0.7513350295680246
 72
     5
 11
74.16015214810676
 21
3.482236621676662
 31
0.0
100
AcDbText
  0
TEXT
  5
634C
330
20
100
AcDbEntity
  8
91000_TIP
  6
Continuous
 62
     7
100
AcDbText
 10
14.05334978266475
 20
8.732236621676605
 30
0.0
 40
2.5
  1
Alle Bemassungswerte sind in Millimeter (mm) angegeben.
 41
0.6056311217924569
 72
     5
 11
87.73846960074704
 21
8.732236621676605
 31
0.0
100
AcDbText
  0
LINE
  5
7BAE
330
20
100
AcDbEntity
  8
90000_FRAME
  6
Continuous
 62
     7
100
AcDbLine
 10
10.00000000000085
 20
0.0
 30
0.0
 11
10.00000000000085
 21
270.0
 31
0.0
  0
LINE
  5
7BAF
330
20
100
AcDbEntity
  8
90000_FRAME
  6
Continuous
 62
     7
100
AcDbLine
 10
10.00000000000085
 20
270.0
 30
0.0
 11
420.0000000000008
 21
270.0
 31
0.0
  0
TEXT
  5
A6A9
330
20
100
AcDbEntity
  8
10000_FRONT
 62
     7
370
    20
100
AcDbText
 10
47.26844946623976
 20
183.180834316921
 30
0.0
 40
3.0
  1
SIEMENS
 41
0.6600000000000002
100
AcDbText
1001
AUSTER_ANSICHT
1002
{
1000
Det03
1002
}
1001
AUSTER_FOLIE
1002
{
1000
NSB00028_S2
1002
}
  0
ARC
  5
A6AA
330
20
100
AcDbEntity
  8
11000_Left
 62
     7
370
    50
100
AcDbCircle
 39
0.7
 10
159.6509272874878
 20
94.93083431692104
 30
0.0
 40
0.4
100
AcDbArc
 50
270.0
 51
0.0
1001
AUSTER_ANSICHT
1002
{
1000
Det03
1002
}
1001
AUSTER_FOLIE
1002
{
1000
NSB00028_S2
1002
}
  0
ARC
  5
A6AB
330
20
100
AcDbEntity
  8
11000_Left
 62
     7
370
    50
100
AcDbCircle
 39
0.7
 10
159.6509272874878
 20
234.1308343169211
 30
0.0
 40
0.4
100
AcDbArc
 50
0.0
 51
90.0
1001
AUSTER_ANSICHT
1002
{
1000
Det03
1002
}
1001
AUSTER_FOLIE
1002
{
1000
NSB00028_S2
1002
}
  0
ARC
  5
A6AC
330
20
100
AcDbEntity
  8
11000_Left
 62
     7
370
    20
100
AcDbCircle
 39
0.45
 10
181.2509272874878
 20
205.530834316921
 30
0.0
 40
0.8
100
AcDbArc
 50
0.0
 51
90.0
1001
AUSTER_ANSICHT
1002
{
1000
Det03
1002
}
1001
AUSTER_FOLIE
1002
{
1000
NSB00028_S2
1002
}
  0
ARC
  5
A6AD
330
20
100
AcDbEntity
  8
11000_Left
 62
     7
370
    20
100
AcDbCircle
 39
0.45
 10
181.2509272874878
 20
123.530834316921
 30
0.0
 40
0.8
100
AcDbArc
 50
270.0
 51
0.0
1001
AUSTER_ANSICHT
1002
{
1000
Det03
1002
}
1001
AUSTER_FOLIE
1002
{
1000
NSB00028_S2
1002
}
  0
ARC
  5
A6AE
330
20
100
AcDbEntity
  8
11000_Left
 62
     7
370
    20
100
AcDbCircle
 39
0.45
 10
179.0509272874878
 20
121.730834316921
 30
0.0
 40
1.0
100
AcDbArc
 50
90.0
 51
180.0
1001
AUSTER_ANSICHT
1002
{
1000
Det03
1002
}
1001
AUSTER_FOLIE
1002
{
1000
NSB00028_S2
1002
}
  0
ARC
  5
A6AF
330
20
100
AcDbEntity
  8
11000_Left
 62
     7
370
    20
100
AcDbCircle
 39
0.45
 10
179.0509272874878
 20
207.330834316921
 30
0.0
 40
1.0
100
AcDbArc
 50
180.0
 51
270.0
1001
AUSTER_ANSICHT
1002
{
1000
Det03
1002
}
1001
AUSTER_FOLIE
1002
{
1000
NSB00028_S2
1002
}
  0
ARC
  5
A6B0
330
20
100
AcDbEntity
  8
11000_Left
 62
     7
370
    50
100
AcDbCircle
 39
0.7
 10
152.9509272874878
 20
94.93083431692104
 30
0.0
 40
0.4
100
AcDbArc
 50
180.0
 51
270.0
1001
AUSTER_ANSICHT
1002
{
1000
Det03
1002
}
1001
AUSTER_FOLIE
1002
{
1000
NSB00028_S2
1002
}
  0
ARC
  5
A6B1
330
20
100
AcDbEntity
  8
11000_Left
 62
     7
370
    50
100
AcDbCircle
 39
0.7
 10
154.8509272874878
 20
148.630834316921
 30
0.0
 40
0.4
100
AcDbArc
 50
90.0
 51
140.0000000000001
1001
AUSTER_ANSICHT
1002
{
1000
Det03
1002
}
1001
AUSTER_FOLIE
1002
{
1000
NSB00028_S2
1002
}
  0
ARC
  5
A6B2
330
20
100
AcDbEntity
  8
11000_Left
 62
     7
370
    50
100
AcDbCircle
 39
0.7
 10
156.4679272874878
 20
147.885834316921
 30
0.0
 40
1.0
100
AcDbArc
 50
189.9999999999985
 51
224.1790000000011
1001
AUSTER_ANSICHT
1002
{
1000
Det03
1002
}
1001
AUSTER_FOLIE
1002
{
1000
NSB00028_S2
1002
}
  0
ARC
  5
A6B3
330
20
100
AcDbEntity
  8
11000_Left
 62
     7
370
    50
100
AcDbCircle
 39
0.7
 10
221.2509272874878
 20
100.430834316921
 30
0.0
 40
0.4
100
AcDbArc
 50
180.0
 51
270.0
1001
AUSTER_ANSICHT
1002
{
1000
Det03
1002
}
1001
AUSTER_FOLIE
1002
{
1000
NSB00028_S2
1002
}
  0
ARC
  5
A6B4
330
20
100
AcDbEntity
  8
11000_Left
 62
     7
370
    50
100
AcDbCircle
 39
0.7
 10
232.9509272874878
 20
100.430834316921
 30
0.0
 40
0.4
100
AcDbArc
 50
270.0
 51
0.0
1001
AUSTER_ANSICHT
1002
{
1000
Det03
1002
}
1001
AUSTER_FOLIE
1002
{
1000
NSB00028_S2
1002
}
  0
ARC
  5
A6B5
330
20
100
AcDbEntity
  8
11000_Left
 62
     7
370
    50
100
AcDbCircle
 39
0.7
 10
232.5009272874879
 20
228.030834316921
 30
0.0
 40
1.5
100
AcDbArc
 50
0.0
 51
90.0
1001
AUSTER_ANSICHT
1002
{
1000
Det03
1002
}
1001
AUSTER_FOLIE
1002
{
1000
NSB00028_S2
1002
}
  0
ARC
  5
A6B6
330
20
100
AcDbEntity
  8
11000_Left
 62
     7
370
    50
100
AcDbCircle
 39
0.7
 10
189.6009272874878
 20
228.030834316921
 30
0.0
 40
1.5
100
AcDbArc
 50
90.0
 51
180.0
1001
AUSTER_ANSICHT
1002
{
1000
Det03
1002
}
1001
AUSTER_FOLIE
1002
{
1000
NSB00028_S2
1002
}
  0
ARC
  5
A6B7
330
20
100
AcDbEntity
  8
11000_Left
 62
     7
370
    50
100
AcDbCircle
 39
0.7
 10
186.2009272874878
 20
226.6308343169211
 30
0.0
 40
0.4
100
AcDbArc
 50
0.0
 51
90.0
1001
AUSTER_ANSICHT
1002
{
1000
Det03
1002
}
1001
AUSTER_FOLIE
1002
{
1000
NSB00028_S2
1002
}
  0
ARC
  5
A6B8
330
20
100
AcDbEntity
  8
11000_Left
 62
     7
370
    50
100
AcDbCircle
 39
0.7
 10
235.9009272874878
 20
226.6308343169211
 30
0.0
 40
0.4
100
AcDbArc
 50
90.0
 51
180.0
1001
AUSTER_ANSICHT
1002
{
1000
Det03
1002
}
1001
AUSTER_FOLIE
1002
{
1000
NSB00028_S2
1002
}
  0
ARC
  5
A6B9
330
20
100
AcDbEntity
  8
11000_Left
 62
     7
370
    20
100
AcDbCircle
 39
0.45
 10
187.4009272874878
 20
216.830834316921
 30
0.0
 40
0.8
100
AcDbArc
 50
180.0
 51
270.0
1001
AUSTER_ANSICHT
1002
{
1000
Det03
1002
}
1001
AUSTER_FOLIE
1002
{
1000
NSB00028_S2
1002
}
  0
ARC
  5
A6BA
330
20
100
AcDbEntity
  8
11000_Left
 62
     7
370
    20
100
AcDbCircle
 39
0.45
 10
234.7009272874879
 20
216.830834316921
 30
0.0
 40
0.8
100
AcDbArc
 50
270.0
 51
0.0
1001
AUSTER_ANSICHT
1002
{
1000
Det03
1002
}
1001
AUSTER_FOLIE
1002
{
1000
NSB00028_S2
1002
}
  0
ARC
  5
A6BB
330
20
100
AcDbEntity
  8
11000_Left
 62
     7
370
    20
100
AcDbCircle
 39
0.45
 10
233.6009272874878
 20
217.9308343169211
 30
0.0
 40
0.4
100
AcDbArc
 50
270.0
 51
0.0
1001
AUSTER_ANSICHT
1002
{
1000
Det03
1002
}
1001
AUSTER_FOLIE
1002
{
1000
NSB00028_S2
1002
}
  0
ARC
  5
A6BC
330
20
100
AcDbEntity
  8
11000_Left
 62
     7
370
    20
100
AcDbCircle
 39
0.45
 10
188.5009272874878
 20
217.9308343169211
 30
0.0
 40
0.4
100
AcDbArc
 50
180.0
 51
270.0
1001
AUSTER_ANSICHT
1002
{
1000
Det03
1002
}
1001
AUSTER_FOLIE
1002
{
1000
NSB00028_S2
1002
}
  0
ARC
  5
A6BD
330
20
100
AcDbEntity
  8
11000_Left
 62
     7
370
    50
100
AcDbCircle
 39
0.7
 10
281.6759272874878
 20
122.830834316921
 30
0.0
 40
0.8
100
AcDbArc
 50
270.0
 51
351.9889999999992
1001
AUSTER_ANSICHT
1002
{
1000
Det03
1002
}
1001
AUSTER_FOLIE
1002
{
1000
NSB00028_S2
1002
}
  0
ARC
  5
A6BE
330
20
100
AcDbEntity
  8
11000_Left
 62
     7
370
    50
100
AcDbCircle
 39
0.7
 10
263.3559272874878
 20
102.830834316921
 30
0.0
 40
0.8
100
AcDbArc
 50
270.0
 51
345.2360000000006
1001
AUSTER_ANSICHT
1002
{
1000
Det03
1002
}
1001
AUSTER_FOLIE
1002
{
1000
NSB00028_S2
1002
}
  0
ARC
  5
A6BF
330
20
100
AcDbEntity
  8
11000_Left
 62
     7
370
    50
100
AcDbCircle
 39
0.7
 10
287.8039272874879
 20
142.830834316921
 30
0.0
 40
0.8
100
AcDbArc
 50
270.0
 51
355.0049999999988
1001
AUSTER_ANSICHT
1002
{
1000
Det03
1002
}
1001
AUSTER_FOLIE
1002
{
1000
NSB00028_S2
1002
}
  0
ARC
  5
A6C0
330
20
100
AcDbEntity
  8
11000_Left
 62
     7
370
    50
100
AcDbCircle
 39
0.7
 10
281.6759272874878
 20
206.230834316921
 30
0.0
 40
0.8
100
AcDbArc
 50
8.011000000000851
 51
90.0
1001
AUSTER_ANSICHT
1002
{
1000
Det03
1002
}
1001
AUSTER_FOLIE
1002
{
1000
NSB00028_S2
1002
}
  0
ARC
  5
A6C1
330
20
100
AcDbEntity
  8
11000_Left
 62
     7
370
    50
100
AcDbCircle
 39
0.7
 10
263.3559272874878
 20
226.230834316921
 30
0.0
 40
0.8
100
AcDbArc
 50
14.77099999999885
 51
90.0
1001
AUSTER_ANSICHT
1002
{
1000
Det03
1002
}
1001
AUSTER_FOLIE
1002
{
1000
NSB00028_S2
1002
}
  0
ARC
  5
A6C2
330
20
100
AcDbEntity
  8
11000_Left
 62
     7
370
    50
100
AcDbCircle
 39
0.7
 10
155.0279272874878
 20
234.1308343169211
 30
0.0
 40
0.4
100
AcDbArc
 50
90.0
 51
172.4040000000001
1001
AUSTER_ANSICHT
1002
{
1000
Det03
1002
}
1001
AUSTER_FOLIE
1002
{
1000
NSB00028_S2
1002
}
  0
ARC
  5
A6C3
330
20
100
AcDbEntity
  8
11000_Left
 62
     7
370
    50
100
AcDbCircle
 39
0.7
 10
287.8039272874879
 20
186.230834316921
 30
0.0
 40
0.8
100
AcDbArc
 50
4.995000000001192
 51
90.0
1001
AUSTER_ANSICHT
1002
{
1000
Det03
1002
}
1001
AUSTER_FOLIE
1002
{
1000
NSB00028_S2
1002
}
  0
ARC
  5
A6C4
330
20
100
AcDbEntity
  8
11000_Left
 62
     7
370
    50
100
AcDbCircle
 39
0.7
 10
39.55092728748787
 20
164.530834316921
 30
0.0
 40
250.0
100
AcDbArc
 50
355.0039999999989
 51
4.996000000001058
1001
AUSTER_ANSICHT
1002
{
1000
Det03
1002
}
1001
AUSTER_FOLIE
1002
{
1000
NSB00028_S2
1002
}
  0
CIRCLE
  5
A761
330
20
100
AcDbEntity
  8
10000_FRONT
 62
     7
370
    20
100
AcDbCircle
 39
0.45
 10
56.37444946623975
 20
176.030834316921
 30
0.0
 40
0.65
1001
AUSTER_ANSICHT
1002
{
1000
Det03
1002
}
1001
AUSTER_FOLIE
1002
{
1000
NSB00028_S2
1002
}
  0
ARC
  5
A762
330
20
100
AcDbEntity
  8
10000_FRONT
 62
     7
370
    50
100
AcDbCircle
 39
0.7
 10
43.67444946623971
 20
233.0308343169209
 30
0.0
 40
1.5
100
AcDbArc
 50
90.0
 51
180.0
1001
AUSTER_ANSICHT
1002
{
1000
Det03
1002
}
1001
AUSTER_FOLIE
1002
{
1000
NSB00028_S2
1002
}
  0
ARC
  5
A763
330
20
100
AcDbEntity
  8
10000_FRONT
 62
     7
370
    50
100
AcDbCircle
 39
0.7
 10
95.47444946623972
 20
233.0308343169209
 30
0.0
 40
1.5
100
AcDbArc
 50
0.0
 51
90.0
1001
AUSTER_ANSICHT
1002
{
1000
Det03
1002
}
1001
AUSTER_FOLIE
1002
{
1000
NSB00028_S2
1002
}
  0
ARC
  5
A764
330
20
100
AcDbEntity
  8
10000_FRONT
 62
     7
370
    50
100
AcDbCircle
 39
0.7
 10
43.67444946623971
 20
96.03083431692104
 30
0.0
 40
1.5
100
AcDbArc
 50
180.0
 51
270.0
1001
AUSTER_ANSICHT
1002
{
1000
Det03
1002
}
1001
AUSTER_FOLIE
1002
{
1000
NSB00028_S2
1002
}
  0
ARC
  5
A765
330
20
100
AcDbEntity
  8
10000_FRONT
 62
     7
370
    50
100
AcDbCircle
 39
0.7
 10
95.47444946623972
 20
96.03083431692104
 30
0.0
 40
1.5
100
AcDbArc
 50
270.0
 51
0.0
1001
AUSTER_ANSICHT
1002
{
1000
Det03
1002
}
1001
AUSTER_FOLIE
1002
{
1000
NSB00028_S2
1002
}
  0
ARC
  5
A766
330
20
100
AcDbEntity
  8
10000_FRONT
 62
     7
370
    20
100
AcDbCircle
 39
0.45
 10
54.6744494662397
 20
99.530834316921
 30
0.0
 40
2.399999999999999
100
AcDbArc
 50
180.0
 51
12.02500000000121
1001
AUSTER_ANSICHT
1002
{
1000
Det03
1002
}
1001
AUSTER_FOLIE
1002
{
1000
NSB00028_S2
1002
}
  0
ARC
  5
A767
330
20
100
AcDbEntity
  8
10000_FRONT
 62
     7
370
    20
100
AcDbCircle
 39
0.45
 10
54.6744494662397
 20
99.530834316921
 30
0.0
 40
2.399999999999999
100
AcDbArc
 50
167.9749999999988
 51
180.0
1001
AUSTER_ANSICHT
1002
{
1000
Det03
1002
}
1001
AUSTER_FOLIE
1002
{
1000
NSB00028_S2
1002
}
  0
ARC
  5
A768
330
20
100
AcDbEntity
  8
10000_FRONT
 62
     7
370
    20
100
AcDbCircle
 39
0.45
 10
81.02444946623974
 20
100.430834316921
 30
0.0
 40
0.4
100
AcDbArc
 50
180.0
 51
270.0
1001
AUSTER_ANSICHT
1002
{
1000
Det03
1002
}
1001
AUSTER_FOLIE
1002
{
1000
NSB00028_S2
1002
}
  0
ARC
  5
A769
330
20
100
AcDbEntity
  8
10000_FRONT
 62
     7
370
    20
100
AcDbCircle
 39
0.45
 10
94.92444946623972
 20
100.430834316921
 30
0.0
 40
0.4
100
AcDbArc
 50
270.0
 51
0.0
1001
AUSTER_ANSICHT
1002
{
1000
Det03
1002
}
1001
AUSTER_FOLIE
1002
{
1000
NSB00028_S2
1002
}
  0
ARC
  5
A76A
330
20
100
AcDbEntity
  8
10000_FRONT
 62
     7
370
    20
100
AcDbCircle
 39
0.45
 10
63.47444946623972
 20
100.430834316921
 30
0.0
 40
0.4
100
AcDbArc
 50
180.0
 51
270.0
1001
AUSTER_ANSICHT
1002
{
1000
Det03
1002
}
1001
AUSTER_FOLIE
1002
{
1000
NSB00028_S2
1002
}
  0
ARC
  5
A76B
330
20
100
AcDbEntity
  8
10000_FRONT
 62
     7
370
    20
100
AcDbCircle
 39
0.45
 10
75.67444946623971
 20
100.430834316921
 30
0.0
 40
0.4
100
AcDbArc
 50
270.0
 51
0.0
1001
AUSTER_ANSICHT
1002
{
1000
Det03
1002
}
1001
AUSTER_FOLIE
1002
{
1000
NSB00028_S2
1002
}
  0
ARC
  5
A76C
330
20
100
AcDbEntity
  8
10000_FRONT
 62
     7
370
    20
100
AcDbCircle
 39
0.45
 10
44.22444946623971
 20
100.430834316921
 30
0.0
 40
0.4
100
AcDbArc
 50
180.0
 51
270.0
1001
AUSTER_ANSICHT
1002
{
1000
Det03
1002
}
1001
AUSTER_FOLIE
1002
{
1000
NSB00028_S2
1002
}
  0
ARC
  5
A76D
330
20
100
AcDbEntity
  8
10000_FRONT
 62
     7
370
    20
100
AcDbCircle
 39
0.45
 10
58.12444946623974
 20
100.430834316921
 30
0.0
 40
0.4
100
AcDbArc
 50
270.0
 51
0.0
1001
AUSTER_ANSICHT
1002
{
1000
Det03
1002
}
1001
AUSTER_FOLIE
1002
{
1000
NSB00028_S2
1002
}
  0
ARC
  5
A76E
330
20
100
AcDbEntity
  8
10000_FRONT
 62
     7
370
    20
100
AcDbCircle
 39
0.45
 10
56.37444946623975
 20
176.030834316921
 30
0.0
 40
2.0
100
AcDbArc
 50
345.5229999999992
 51
14.47700000000089
1001
AUSTER_ANSICHT
1002
{
1000
Det03
1002
}
1001
AUSTER_FOLIE
1002
{
1000
NSB00028_S2
1002
}
  0
ARC
  5
A76F
330
20
100
AcDbEntity
  8
10000_FRONT
 62
     7
370
    20
100
AcDbCircle
 39
0.45
 10
43.67144946623972
 20
103.528834316921
 30
0.0
 40
1.498
100
AcDbArc
 50
179.9410000000009
 51
224.8889999999994
1001
AUSTER_ANSICHT
1002
{
1000
Det03
1002
}
1001
AUSTER_FOLIE
1002
{
1000
NSB00028_S2
1002
}
  0
ARC
  5
A770
330
20
100
AcDbEntity
  8
10000_FRONT
 62
     7
370
    20
100
AcDbCircle
 39
0.45
 10
77.08144946623973
 20
164.571834316921
 30
0.0
 40
8.0
100
AcDbArc
 50
196.7700000000014
 51
339.7409999999998
1001
AUSTER_ANSICHT
1002
{
1000
Det03
1002
}
1001
AUSTER_FOLIE
1002
{
1000
NSB00028_S2
1002
}
  0
ARC
  5
A771
330
20
100
AcDbEntity
  8
10000_FRONT
 62
     7
370
    20
100
AcDbCircle
 39
0.45
 10
77.08144946623973
 20
164.571834316921
 30
0.0
 40
8.0
100
AcDbArc
 50
20.25900000000024
 51
163.2299999999985
1001
AUSTER_ANSICHT
1002
{
1000
Det03
1002
}
1001
AUSTER_FOLIE
1002
{
1000
NSB00028_S2
1002
}
  0
ARC
  5
A772
330
20
100
AcDbEntity
  8
10000_FRONT
 62
     7
370
    20
100
AcDbCircle
 39
0.45
 10
86.77444946623975
 20
212.295834316921
 30
0.0
 40
3.826999999999998
100
AcDbArc
 50
350.9160000000016
 51
9.085000000000107
1001
AUSTER_ANSICHT
1002
{
1000
Det03
1002
}
1001
AUSTER_FOLIE
1002
{
1000
NSB00028_S2
1002
}
  0
ARC
  5
A773
330
20
100
AcDbEntity
  8
10000_FRONT
 62
     7
370
    20
100
AcDbCircle
 39
0.45
 10
86.77444946623975
 20
212.295834316921
 30
0.0
 40
4.166999999999998
100
AcDbArc
 50
260.1209999999999
 51
279.8790000000001
1001
AUSTER_ANSICHT
1002
{
1000
Det03
1002
}
1001
AUSTER_FOLIE
1002
{
1000
NSB00028_S2
1002
}
  0
ARC
  5
A774
330
20
100
AcDbEntity
  8
10000_FRONT
 62
     7
370
    20
100
AcDbCircle
 39
0.45
 10
86.77444946623975
 20
212.295834316921
 30
0.0
 40
3.826999999999998
100
AcDbArc
 50
170.9160000000015
 51
189.085
1001
AUSTER_ANSICHT
1002
{
1000
Det03
1002
}
1001
AUSTER_FOLIE
1002
{
1000
NSB00028_S2
1002
}
  0
ARC
  5
A775
330
20
100
AcDbEntity
  8
10000_FRONT
 62
     7
370
    20
100
AcDbCircle
 39
0.45
 10
86.77444946623975
 20
212.295834316921
 30
0.0
 40
4.166999999999998
100
AcDbArc
 50
80.12099999999989
 51
99.8790000000001
1001
AUSTER_ANSICHT
1002
{
1000
Det03
1002
}
1001
AUSTER_FOLIE
1002
{
1000
NSB00028_S2
1002
}
  0
CIRCLE
  5
A776
330
20
100
AcDbEntity
  8
10000_FRONT
 62
     7
370
    20
100
AcDbCircle
 39
0.45
 10
86.77444946623975
 20
212.295834316921
 30
0.0
 40
4.419999999999999
1001
AUSTER_ANSICHT
1002
{
1000
Det03
1002
}
1001
AUSTER_FOLIE
1002
{
1000
NSB00028_S2
1002
}
  0
ARC
  5
A777
330
20
100
AcDbEntity
  8
10000_FRONT
 62
     7
370
    20
100
AcDbCircle
 39
0.45
 10
69.57444946623969
 20
212.295834316921
 30
0.0
 40
3.826999999999998
100
AcDbArc
 50
350.9160000000016
 51
9.085000000000107
1001
AUSTER_ANSICHT
1002
{
1000
Det03
1002
}
1001
AUSTER_FOLIE
1002
{
1000
NSB00028_S2
1002
}
  0
ARC
  5
A778
330
20
100
AcDbEntity
  8
10000_FRONT
 62
     7
370
    20
100
AcDbCircle
 39
0.45
 10
69.57444946623969
 20
212.295834316921
 30
0.0
 40
4.166999999999998
100
AcDbArc
 50
260.1209999999999
 51
279.8790000000001
1001
AUSTER_ANSICHT
1002
{
1000
Det03
1002
}
1001
AUSTER_FOLIE
1002
{
1000
NSB00028_S2
1002
}
  0
ARC
  5
A779
330
20
100
AcDbEntity
  8
10000_FRONT
 62
     7
370
    20
100
AcDbCircle
 39
0.45
 10
69.57444946623969
 20
212.295834316921
 30
0.0
 40
3.826999999999998
100
AcDbArc
 50
170.9160000000015
 51
189.085
1001
AUSTER_ANSICHT
1002
{
1000
Det03
1002
}
1001
AUSTER_FOLIE
1002
{
1000
NSB00028_S2
1002
}
  0
ARC
  5
A77A
330
20
100
AcDbEntity
  8
10000_FRONT
 62
     7
370
    20
100
AcDbCircle
 39
0.45
 10
69.57444946623969
 20
212.295834316921
 30
0.0
 40
4.166999999999998
100
AcDbArc
 50
80.12099999999989
 51
99.8790000000001
1001
AUSTER_ANSICHT
1002
{
1000
Det03
1002
}
1001
AUSTER_FOLIE
1002
{
1000
NSB00028_S2
1002
}
  0
CIRCLE
  5
A77B
330
20
100
AcDbEntity
  8
10000_FRONT
 62
     7
370
    20
100
AcDbCircle
 39
0.45
 10
69.57444946623969
 20
212.295834316921
 30
0.0
 40
4.419999999999999
1001
AUSTER_ANSICHT
1002
{
1000
Det03
1002
}
1001
AUSTER_FOLIE
1002
{
1000
NSB00028_S2
1002
}
  0
ARC
  5
A77C
330
20
100
AcDbEntity
  8
10000_FRONT
 62
     7
370
    20
100
AcDbCircle
 39
0.45
 10
52.37444946623974
 20
212.295834316921
 30
0.0
 40
3.826999999999998
100
AcDbArc
 50
350.9160000000016
 51
9.085000000000107
1001
AUSTER_ANSICHT
1002
{
1000
Det03
1002
}
1001
AUSTER_FOLIE
1002
{
1000
NSB00028_S2
1002
}
  0
ARC
  5
A77D
330
20
100
AcDbEntity
  8
10000_FRONT
 62
     7
370
    20
100
AcDbCircle
 39
0.45
 10
52.37444946623974
 20
212.295834316921
 30
0.0
 40
4.166999999999998
100
AcDbArc
 50
260.1209999999999
 51
279.8790000000001
1001
AUSTER_ANSICHT
1002
{
1000
Det03
1002
}
1001
AUSTER_FOLIE
1002
{
1000
NSB00028_S2
1002
}
  0
ARC
  5
A77E
330
20
100
AcDbEntity
  8
10000_FRONT
 62
     7
370
    20
100
AcDbCircle
 39
0.45
 10
52.37444946623974
 20
212.295834316921
 30
0.0
 40
3.826999999999998
100
AcDbArc
 50
170.9160000000015
 51
189.085
1001
AUSTER_ANSICHT
1002
{
1000
Det03
1002
}
1001
AUSTER_FOLIE
1002
{
1000
NSB00028_S2
1002
}
  0
ARC
  5
A77F
330
20
100
AcDbEntity
  8
10000_FRONT
 62
     7
370
    20
100
AcDbCircle
 39
0.45
 10
52.37444946623974
 20
212.295834316921
 30
0.0
 40
4.166999999999998
100
AcDbArc
 50
80.12099999999989
 51
99.8790000000001
1001
AUSTER_ANSICHT
1002
{
1000
Det03
1002
}
1001
AUSTER_FOLIE
1002
{
1000
NSB00028_S2
1002
}
  0
ARC
  5
A780
330
20
100
AcDbEntity
  8
10000_FRONT
 62
     7
370
    20
100
AcDbCircle
 39
0.45
 10
86.77444946623975
 20
111.796834316921
 30
0.0
 40
3.826999999999998
100
AcDbArc
 50
350.9160000000016
 51
9.085000000000107
1001
AUSTER_ANSICHT
1002
{
1000
Det03
1002
}
1001
AUSTER_FOLIE
1002
{
1000
NSB00028_S2
1002
}
  0
ARC
  5
A781
330
20
100
AcDbEntity
  8
10000_FRONT
 62
     7
370
    20
100
AcDbCircle
 39
0.45
 10
86.77444946623975
 20
111.796834316921
 30
0.0
 40
4.166999999999998
100
AcDbArc
 50
260.1209999999999
 51
279.8790000000001
1001
AUSTER_ANSICHT
1002
{
1000
Det03
1002
}
1001
AUSTER_FOLIE
1002
{
1000
NSB00028_S2
1002
}
  0
ARC
  5
A782
330
20
100
AcDbEntity
  8
10000_FRONT
 62
     7
370
    20
100
AcDbCircle
 39
0.45
 10
86.77444946623975
 20
111.796834316921
 30
0.0
 40
3.826999999999998
100
AcDbArc
 50
170.9160000000015
 51
189.085
1001
AUSTER_ANSICHT
1002
{
1000
Det03
1002
}
1001
AUSTER_FOLIE
1002
{
1000
NSB00028_S2
1002
}
  0
ARC
  5
A783
330
20
100
AcDbEntity
  8
10000_FRONT
 62
     7
370
    20
100
AcDbCircle
 39
0.45
 10
86.77444946623975
 20
111.796834316921
 30
0.0
 40
4.166999999999998
100
AcDbArc
 50
80.12099999999989
 51
99.8790000000001
1001
AUSTER_ANSICHT
1002
{
1000
Det03
1002
}
1001
AUSTER_FOLIE
1002
{
1000
NSB00028_S2
1002
}
  0
CIRCLE
  5
A784
330
20
100
AcDbEntity
  8
10000_FRONT
 62
     7
370
    20
100
AcDbCircle
 39
0.45
 10
86.77444946623975
 20
111.796834316921
 30
0.0
 40
4.419999999999999
1001
AUSTER_ANSICHT
1002
{
1000
Det03
1002
}
1001
AUSTER_FOLIE
1002
{
1000
NSB00028_S2
1002
}
  0
ARC
  5
A785
330
20
100
AcDbEntity
  8
10000_FRONT
 62
     7
370
    20
100
AcDbCircle
 39
0.45
 10
69.57444946623969
 20
111.796834316921
 30
0.0
 40
3.826999999999998
100
AcDbArc
 50
350.9160000000016
 51
9.085000000000107
1001
AUSTER_ANSICHT
1002
{
1000
Det03
1002
}
1001
AUSTER_FOLIE
1002
{
1000
NSB00028_S2
1002
}
  0
ARC
  5
A786
330
20
100
AcDbEntity
  8
10000_FRONT
 62
     7
370
    20
100
AcDbCircle
 39
0.45
 10
69.57444946623969
 20
111.796834316921
 30
0.0
 40
4.166999999999998
100
AcDbArc
 50
260.1209999999999
 51
279.8790000000001
1001
AUSTER_ANSICHT
1002
{
1000
Det03
1002
}
1001
AUSTER_FOLIE
1002
{
1000
NSB00028_S2
1002
}
  0
ARC
  5
A787
330
20
100
AcDbEntity
  8
10000_FRONT
 62
     7
370
    20
100
AcDbCircle
 39
0.45
 10
69.57444946623969
 20
111.796834316921
 30
0.0
 40
3.826999999999998
100
AcDbArc
 50
170.9160000000015
 51
189.085
1001
AUSTER_ANSICHT
1002
{
1000
Det03
1002
}
1001
AUSTER_FOLIE
1002
{
1000
NSB00028_S2
1002
}
  0
ARC
  5
A788
330
20
100
AcDbEntity
  8
10000_FRONT
 62
     7
370
    20
100
AcDbCircle
 39
0.45
 10
69.57444946623969
 20
111.796834316921
 30
0.0
 40
4.166999999999998
100
AcDbArc
 50
80.12099999999989
 51
99.8790000000001
1001
AUSTER_ANSICHT
1002
{
1000
Det03
1002
}
1001
AUSTER_FOLIE
1002
{
1000
NSB00028_S2
1002
}
  0
CIRCLE
  5
A789
330
20
100
AcDbEntity
  8
10000_FRONT
 62
     7
370
    20
100
AcDbCircle
 39
0.45
 10
69.57444946623969
 20
111.796834316921
 30
0.0
 40
4.419999999999999
1001
AUSTER_ANSICHT
1002
{
1000
Det03
1002
}
1001
AUSTER_FOLIE
1002
{
1000
NSB00028_S2
1002
}
  0
ARC
  5
A78A
330
20
100
AcDbEntity
  8
10000_FRONT
 62
     7
370
    20
100
AcDbCircle
 39
0.45
 10
52.37444946623974
 20
111.796834316921
 30
0.0
 40
3.826999999999998
100
AcDbArc
 50
350.9160000000016
 51
9.085000000000107
1001
AUSTER_ANSICHT
1002
{
1000
Det03
1002
}
1001
AUSTER_FOLIE
1002
{
1000
NSB00028_S2
1002
}
  0
ARC
  5
A78B
330
20
100
AcDbEntity
  8
10000_FRONT
 62
     7
370
    20
100
AcDbCircle
 39
0.45
 10
52.37444946623974
 20
111.796834316921
 30
0.0
 40
4.166999999999998
100
AcDbArc
 50
260.1209999999999
 51
279.8790000000001
1001
AUSTER_ANSICHT
1002
{
1000
Det03
1002
}
1001
AUSTER_FOLIE
1002
{
1000
NSB00028_S2
1002
}
  0
ARC
  5
A78C
330
20
100
AcDbEntity
  8
10000_FRONT
 62
     7
370
    20
100
AcDbCircle
 39
0.45
 10
52.37444946623974
 20
111.796834316921
 30
0.0
 40
3.826999999999998
100
AcDbArc
 50
170.9160000000015
 51
189.085
1001
AUSTER_ANSICHT
1002
{
1000
Det03
1002
}
1001
AUSTER_FOLIE
1002
{
1000
NSB00028_S2
1002
}
  0
ARC
  5
A78D
330
20
100
AcDbEntity
  8
10000_FRONT
 62
     7
370
    20
100
AcDbCircle
 39
0.45
 10
52.37444946623974
 20
111.796834316921
 30
0.0
 40
4.166999999999998
100
AcDbArc
 50
80.12099999999989
 51
99.8790000000001
1001
AUSTER_ANSICHT
1002
{
1000
Det03
1002
}
1001
AUSTER_FOLIE
1002
{
1000
NSB00028_S2
1002
}
  0
CIRCLE
  5
A78E
330
20
100
AcDbEntity
  8
10000_FRONT
 62
     7
370
    20
100
AcDbCircle
 39
0.45
 10
52.37444946623974
 20
111.796834316921
 30
0.0
 40
4.419999999999999
1001
AUSTER_ANSICHT
1002
{
1000
Det03
1002
}
1001
AUSTER_FOLIE
1002
{
1000
NSB00028_S2
1002
}
  0
CIRCLE
  5
A78F
330
20
100
AcDbEntity
  8
10000_FRONT
 62
     7
370
    20
100
AcDbCircle
 39
0.45
 10
84.47444946623972
 20
229.530834316921
 30
0.0
 40
2.391
1001
AUSTER_ANSICHT
1002
{
1000
Det03
1002
}
1001
AUSTER_FOLIE
1002
{
1000
NSB00028_S2
1002
}
  0
ARC
  5
A790
330
20
100
AcDbEntity
  8
10000_FRONT
 62
     7
370
    20
100
AcDbCircle
 39
0.45
 10
43.67344946623973
 20
123.526834316921
 30
0.0
 40
1.499
100
AcDbArc
 50
179.8800000000004
 51
224.8369999999988
1001
AUSTER_ANSICHT
1002
{
1000
Det03
1002
}
1001
AUSTER_FOLIE
1002
{
1000
NSB00028_S2
1002
}
  0
ARC
  5
A791
330
20
100
AcDbEntity
  8
10000_FRONT
 62
     7
370
    20
100
AcDbCircle
 39
0.45
 10
43.67644946623977
 20
123.533834316921
 30
0.0
 40
1.504
100
AcDbArc
 50
225.0350000000011
 51
269.9219999999998
1001
AUSTER_ANSICHT
1002
{
1000
Det03
1002
}
1001
AUSTER_FOLIE
1002
{
1000
NSB00028_S2
1002
}
  0
ARC
  5
A792
330
20
100
AcDbEntity
  8
10000_FRONT
 62
     7
370
    20
100
AcDbCircle
 39
0.45
 10
95.47244946623973
 20
123.532834316921
 30
0.0
 40
1.501999999999999
100
AcDbArc
 50
270.0630000000004
 51
359.9129999999986
1001
AUSTER_ANSICHT
1002
{
1000
Det03
1002
}
1001
AUSTER_FOLIE
1002
{
1000
NSB00028_S2
1002
}
  0
ARC
  5
A793
330
20
100
AcDbEntity
  8
10000_FRONT
 62
     7
370
    20
100
AcDbCircle
 39
0.45
 10
43.67544946623974
 20
225.527834316921
 30
0.0
 40
1.501999999999999
100
AcDbArc
 50
90.06400000000031
 51
179.9199999999988
1001
AUSTER_ANSICHT
1002
{
1000
Det03
1002
}
1001
AUSTER_FOLIE
1002
{
1000
NSB00028_S2
1002
}
  0
ARC
  5
A794
330
20
100
AcDbEntity
  8
10000_FRONT
 62
     7
370
    50
100
AcDbCircle
 39
0.45
 10
95.47644946623972
 20
225.5318343169211
 30
0.0
 40
1.498
100
AcDbArc
 50
359.9410000000008
 51
44.88899999999943
1001
AUSTER_ANSICHT
1002
{
1000
Det03
1002
}
1001
AUSTER_FOLIE
1002
{
1000
NSB00028_S2
1002
}
  0
ARC
  5
A795
330
20
100
AcDbEntity
  8
10000_FRONT
 62
     7
370
    20
100
AcDbCircle
 39
0.45
 10
95.47144946623971
 20
225.526834316921
 30
0.0
 40
1.504
100
AcDbArc
 50
45.03500000000108
 51
89.92100000000034
1001
AUSTER_ANSICHT
1002
{
1000
Det03
1002
}
1001
AUSTER_FOLIE
1002
{
1000
NSB00028_S2
1002
}
  0
ARC
  5
A796
330
20
100
AcDbEntity
  8
10000_FRONT
 62
     7
370
    20
100
AcDbCircle
 39
0.45
 10
95.47644946623972
 20
205.5318343169211
 30
0.0
 40
1.498
100
AcDbArc
 50
359.9399999999994
 51
90.08500000000031
1001
AUSTER_ANSICHT
1002
{
1000
Det03
1002
}
1001
AUSTER_FOLIE
1002
{
1000
NSB00028_S2
1002
}
  0
ARC
  5
A797
330
20
100
AcDbEntity
  8
10000_FRONT
 62
     7
370
    20
100
AcDbCircle
 39
0.45
 10
95.47244946623973
 20
103.532834316921
 30
0.0
 40
1.501999999999999
100
AcDbArc
 50
270.0640000000003
 51
359.9119999999988
1001
AUSTER_ANSICHT
1002
{
1000
Det03
1002
}
1001
AUSTER_FOLIE
1002
{
1000
NSB00028_S2
1002
}
  0
ARC
  5
A798
330
20
100
AcDbEntity
  8
10000_FRONT
 62
     7
370
    20
100
AcDbCircle
 39
0.45
 10
43.67644946623977
 20
103.533834316921
 30
0.0
 40
1.504
100
AcDbArc
 50
225.0350000000011
 51
269.9210000000003
1001
AUSTER_ANSICHT
1002
{
1000
Det03
1002
}
1001
AUSTER_FOLIE
1002
{
1000
NSB00028_S2
1002
}
  0
ARC
  5
A799
330
20
100
AcDbEntity
  8
10000_FRONT
 62
     7
370
    20
100
AcDbCircle
 39
0.45
 10
43.67544946623974
 20
205.527834316921
 30
0.0
 40
1.501999999999999
100
AcDbArc
 50
90.06299999999956
 51
179.9129999999986
1001
AUSTER_ANSICHT
1002
{
1000
Det03
1002
}
1001
AUSTER_FOLIE
1002
{
1000
NSB00028_S2
1002
}
  0
CIRCLE
  5
A79A
330
20
100
AcDbEntity
  8
10000_FRONT
 62
     7
370
    20
100
AcDbCircle
 39
0.45
 10
56.37444946623975
 20
176.030834316921
 30
0.0
 40
4.419999999999999
1001
AUSTER_ANSICHT
1002
{
1000
Det03
1002
}
1001
AUSTER_FOLIE
1002
{
1000
NSB00028_S2
1002
}
  0
CIRCLE
  5
A79B
330
20
100
AcDbEntity
  8
10000_FRONT
 62
     7
370
    20
100
AcDbCircle
 39
0.45
 10
52.37444946623974
 20
212.295834316921
 30
0.0
 40
4.419999999999999
1001
AUSTER_ANSICHT
1002
{
1000
Det03
1002
}
1001
AUSTER_FOLIE
1002
{
1000
NSB00028_S2
1002
}
  0
ARC
  5
A79F
330
20
100
AcDbEntity
  8
10000_FRONT
 62
     7
370
    20
100
AcDbCircle
 39
0.45
 10
89.8814494662397
 20
163.204834316921
 30
0.0
 40
0.7
100
AcDbArc
 50
270.0
 51
0.0
1001
AUSTER_ANSICHT
1002
{
1000
Det03
1002
}
1001
AUSTER_FOLIE
1002
{
1000
NSB00028_S2
1002
}
  0
ARC
  5
A7A0
330
20
100
AcDbEntity
  8
10000_FRONT
 62
     7
370
    20
100
AcDbCircle
 39
0.45
 10
89.8814494662397
 20
165.937834316921
 30
0.0
 40
0.7
100
AcDbArc
 50
0.0
 51
90.0
1001
AUSTER_ANSICHT
1002
{
1000
Det03
1002
}
1001
AUSTER_FOLIE
1002
{
1000
NSB00028_S2
1002
}
  0
ARC
  5
A7A1
330
20
100
AcDbEntity
  8
11000_Left
  6
DASHED
 62
     7
370
    15
100
AcDbCircle
 39
0.35
 10
153.0509272874878
 20
173.879834316921
 30
-1.0
 40
1.0
100
AcDbArc
 50
90.0
 51
180.0
1001
AUSTER_ANSICHT
1002
{
1000
Det03
1002
}
1001
AUSTER_FOLIE
1002
{
1000
NSB00028_S2
1002
}
  0
ARC
  5
A7A2
330
20
100
AcDbEntity
  8
11000_Left
  6
DASHED
 62
     7
370
    15
100
AcDbCircle
 39
0.35
 10
153.0509272874878
 20
154.879834316921
 30
-1.0
 40
1.0
100
AcDbArc
 50
180.0
 51
270.0
1001
AUSTER_ANSICHT
1002
{
1000
Det03
1002
}
1001
AUSTER_FOLIE
1002
{
1000
NSB00028_S2
1002
}
  0
ARC
  5
A7A3
330
20
100
AcDbEntity
  8
11000_Left
  6
DASHED
 62
     7
370
    15
100
AcDbCircle
 39
0.35
 10
153.1509272874878
 20
178.779834316921
 30
-1.0
 40
1.9
100
AcDbArc
 50
270.0
 51
0.0
1001
AUSTER_ANSICHT
1002
{
1000
Det03
1002
}
1001
AUSTER_FOLIE
1002
{
1000
NSB00028_S2
1002
}
  0
ARC
  5
A7A4
330
20
100
AcDbEntity
  8
11000_Left
  6
DASHED
 62
     7
370
    15
100
AcDbCircle
 39
0.35
 10
155.5509272874878
 20
179.529834316921
 30
-1.0
 40
0.5
100
AcDbArc
 50
270.0
 51
0.0
1001
AUSTER_ANSICHT
1002
{
1000
Det03
1002
}
1001
AUSTER_FOLIE
1002
{
1000
NSB00028_S2
1002
}
  0
ARC
  5
A7A5
330
20
100
AcDbEntity
  8
11000_Left
  6
DASHED
 62
     7
370
    15
100
AcDbCircle
 39
0.35
 10
153.1509272874878
 20
149.979834316921
 30
-1.0
 40
1.9
100
AcDbArc
 50
0.0
 51
90.0
1001
AUSTER_ANSICHT
1002
{
1000
Det03
1002
}
1001
AUSTER_FOLIE
1002
{
1000
NSB00028_S2
1002
}
  0
ARC
  5
A7A8
330
20
100
AcDbEntity
  8
11000_Left
 62
     7
370
    50
100
AcDbCircle
 39
0.7
 10
-14.60407271251216
 20
164.612834316921
 30
0.0
 40
300.0
100
AcDbArc
 50
4.300999999998808
 51
7.876000000000875
1001
AUSTER_ANSICHT
1002
{
1000
Det03
1002
}
1001
AUSTER_FOLIE
1002
{
1000
NSB00028_S2
1002
}
  0
ARC
  5
A7A9
330
20
100
AcDbEntity
  8
11000_Left
 62
     7
370
    50
100
AcDbCircle
 39
0.7
 10
-14.60407271251216
 20
164.530834316921
 30
0.0
 40
300.0
100
AcDbArc
 50
352.1239999999992
 51
355.6990000000012
1001
AUSTER_ANSICHT
1002
{
1000
Det03
1002
}
1001
AUSTER_FOLIE
1002
{
1000
NSB00028_S2
1002
}
  0
ARC
  5
A7AA
330
20
100
AcDbEntity
  8
10000_FRONT
 62
     7
370
    20
100
AcDbCircle
 39
0.45
 10
59.08144946623973
 20
164.571834316921
 30
0.0
 40
2.5
100
AcDbArc
 50
23.57799999999841
 51
336.4220000000015
1001
AUSTER_ANSICHT
1002
{
1000
Det03
1002
}
1001
AUSTER_FOLIE
1002
{
1000
NSB00028_S2
1002
}
  0
ARC
  5
A7AB
330
20
100
AcDbEntity
  8
10000_FRONT
 62
     7
370
    20
100
AcDbCircle
 39
0.45
 10
78.91444946623972
 20
224.7558343169211
 30
0.0
 40
63.21
100
AcDbArc
 50
261.363
 51
279.9910000000001
1001
AUSTER_ANSICHT
1002
{
1000
Det03
1002
}
1001
AUSTER_FOLIE
1002
{
1000
NSB00028_S2
1002
}
  0
ARC
  5
A7AC
330
20
100
AcDbEntity
  8
10000_FRONT
 62
     7
370
    20
100
AcDbCircle
 39
0.45
 10
78.13444946623974
 20
223.279834316921
 30
0.0
 40
61.636
100
AcDbArc
 50
257.2690000000006
 51
261.8730000000005
1001
AUSTER_ANSICHT
1002
{
1000
Det03
1002
}
1001
AUSTER_FOLIE
1002
{
1000
NSB00028_S2
1002
}
  0
ARC
  5
A7AD
330
20
100
AcDbEntity
  8
10000_FRONT
 62
     7
370
    20
100
AcDbCircle
 39
0.45
 10
78.91444946623972
 20
104.386834316921
 30
0.0
 40
63.21
100
AcDbArc
 50
80.00899999999999
 51
98.63700000000001
1001
AUSTER_ANSICHT
1002
{
1000
Det03
1002
}
1001
AUSTER_FOLIE
1002
{
1000
NSB00028_S2
1002
}
  0
ARC
  5
A7AE
330
20
100
AcDbEntity
  8
10000_FRONT
 62
     7
370
    20
100
AcDbCircle
 39
0.45
 10
78.29744946623975
 20
104.874834316921
 30
0.0
 40
62.637
100
AcDbArc
 50
98.14699999999994
 51
102.6770000000003
1001
AUSTER_ANSICHT
1002
{
1000
Det03
1002
}
1001
AUSTER_FOLIE
1002
{
1000
NSB00028_S2
1002
}
  0
ARC
  5
A7B0
330
20
100
AcDbEntity
  8
11000_Left
 62
     7
370
    20
100
AcDbCircle
 39
0.45
 10
257.8569272874879
 20
164.648834316921
 30
0.0
 40
33.875
100
AcDbArc
 50
347.0659999999999
 51
12.93499999999855
1001
AUSTER_ANSICHT
1002
{
1000
Det03
1002
}
1001
AUSTER_FOLIE
1002
{
1000
NSB00028_S2
1002
}
  0
ARC
  5
A7B1
330
20
100
AcDbEntity
  8
11000_Left
 62
     7
370
    50
100
AcDbCircle
 39
0.7
 10
101.2049272874878
 20
164.570834316921
 30
0.0
 40
200.158
100
AcDbArc
 50
356.1329999999992
 51
3.8680000000009
1001
AUSTER_ANSICHT
1002
{
1000
Det03
1002
}
1001
AUSTER_FOLIE
1002
{
1000
NSB00028_S2
1002
}
  0
ARC
  5
A7B2
330
20
100
AcDbEntity
  8
11000_Left
  6
DASHED
 62
     7
370
    15
100
AcDbCircle
 39
0.35
 10
150.5509272874878
 20
152.879834316921
 30
0.0
 40
1.0
100
AcDbArc
 50
180.0
 51
270.0
1001
AUSTER_ANSICHT
1002
{
1000
Det03
1002
}
1001
AUSTER_FOLIE
1002
{
1000
NSB00028_S2
1002
}
  0
ARC
  5
A7B3
330
20
100
AcDbEntity
  8
11000_Left
  6
DASHED
 62
     7
370
    15
100
AcDbCircle
 39
0.35
 10
150.5509272874878
 20
175.879834316921
 30
0.0
 40
1.0
100
AcDbArc
 50
90.0
 51
180.0
1001
AUSTER_ANSICHT
1002
{
1000
Det03
1002
}
1001
AUSTER_FOLIE
1002
{
1000
NSB00028_S2
1002
}
  0
ARC
  5
A7B5
330
20
100
AcDbEntity
  8
10000_FRONT
 62
     7
370
    20
100
AcDbCircle
 39
0.45
 10
65.08144946623975
 20
164.571834316921
 30
0.0
 40
1.509
100
AcDbArc
 50
110.5300000000007
 51
249.4490000000003
1001
AUSTER_ANSICHT
1002
{
1000
Det03
1002
}
1001
AUSTER_FOLIE
1002
{
1000
NSB00028_S2
1002
}
  0
LINE
  5
A7B6
330
20
100
AcDbEntity
  8
11000_Left
 62
     7
370
    50
100
AcDbLine
 39
0.7
 10
289.8729272874878
 20
157.266834316921
 30
0.0
 11
289.4389272874878
 21
157.266834316921
 31
0.0
1001
AUSTER_ANSICHT
1002
{
1000
Det03
1002
}
1001
AUSTER_FOLIE
1002
{
1000
NSB00028_S2
1002
}
  0
LINE
  5
A7B7
330
20
100
AcDbEntity
  8
11000_Left
 62
     7
370
    50
100
AcDbLine
 39
0.7
 10
155.0279272874878
 20
234.530834316921
 30
0.0
 11
159.6509272874878
 21
234.530834316921
 31
0.0
1001
AUSTER_ANSICHT
1002
{
1000
Det03
1002
}
1001
AUSTER_FOLIE
1002
{
1000
NSB00028_S2
1002
}
  0
LINE
  5
A7B8
330
20
100
AcDbEntity
  8
11000_Left
 62
     7
370
    50
100
AcDbLine
 39
0.7
 10
160.0509272874878
 20
234.1308343169211
 30
0.0
 11
160.0509272874878
 21
233.0308343169209
 31
0.0
1001
AUSTER_ANSICHT
1002
{
1000
Det03
1002
}
1001
AUSTER_FOLIE
1002
{
1000
NSB00028_S2
1002
}
  0
LINE
  5
A7B9
330
20
100
AcDbEntity
  8
11000_Left
 62
     7
370
    50
100
AcDbLine
 39
0.7
 10
154.6309272874878
 20
234.182834316921
 30
0.0
 11
154.4849272874878
 21
233.0828343169211
 31
0.0
1001
AUSTER_ANSICHT
1002
{
1000
Det03
1002
}
1001
AUSTER_FOLIE
1002
{
1000
NSB00028_S2
1002
}
  0
LINE
  5
A7BA
330
20
100
AcDbEntity
  8
11000_Left
 62
     7
370
    50
100
AcDbLine
 39
0.7
 10
154.4849272874878
 20
233.0828343169211
 30
0.0
 11
152.5509272874878
 21
218.580834316921
 31
0.0
1001
AUSTER_ANSICHT
1002
{
1000
Det03
1002
}
1001
AUSTER_FOLIE
1002
{
1000
NSB00028_S2
1002
}
  0
LINE
  5
A7BB
330
20
100
AcDbEntity
  8
11000_Left
 62
     7
370
    50
100
AcDbLine
 39
0.7
 10
152.5509272874878
 20
180.430834316921
 30
0.0
 11
152.5509272874878
 21
214.5308343169209
 31
0.0
1001
AUSTER_ANSICHT
1002
{
1000
Det03
1002
}
1001
AUSTER_FOLIE
1002
{
1000
NSB00028_S2
1002
}
  0
LINE
  5
A7BC
330
20
100
AcDbEntity
  8
11000_Left
 62
     7
370
    50
100
AcDbLine
 39
0.7
 10
152.7509272874878
 20
145.113834316921
 30
0.0
 11
152.9509272874878
 21
145.228834316921
 31
0.0
1001
AUSTER_ANSICHT
1002
{
1000
Det03
1002
}
1001
AUSTER_FOLIE
1002
{
1000
NSB00028_S2
1002
}
  0
LINE
  5
A7BD
330
20
100
AcDbEntity
  8
11000_Left
 62
     7
370
    50
100
AcDbLine
 39
0.7
 10
155.5509272874878
 20
146.730834316921
 30
0.0
 11
152.9509272874878
 21
145.228834316921
 31
0.0
1001
AUSTER_ANSICHT
1002
{
1000
Det03
1002
}
1001
AUSTER_FOLIE
1002
{
1000
NSB00028_S2
1002
}
  0
LINE
  5
A7BE
330
20
100
AcDbEntity
  8
11000_Left
 62
     7
370
    50
100
AcDbLine
 39
0.7
 10
157.0509272874878
 20
182.030834316921
 30
0.0
 11
157.0509272874878
 21
146.730834316921
 31
0.0
1001
AUSTER_ANSICHT
1002
{
1000
Det03
1002
}
1001
AUSTER_FOLIE
1002
{
1000
NSB00028_S2
1002
}
  0
LINE
  5
A7BF
330
20
100
AcDbEntity
  8
11000_Left
 62
     7
370
    50
100
AcDbLine
 39
0.35
 10
156.0509272874878
 20
182.030834316921
 30
0.0
 11
157.0509272874878
 21
182.030834316921
 31
0.0
1001
AUSTER_ANSICHT
1002
{
1000
Det03
1002
}
1001
AUSTER_FOLIE
1002
{
1000
NSB00028_S2
1002
}
  0
LINE
  5
A7C0
330
20
100
AcDbEntity
  8
11000_Left
 62
     7
370
    50
100
AcDbLine
 39
0.7
 10
155.7959272874878
 20
181.330834316921
 30
0.0
 11
156.0509272874878
 21
182.030834316921
 31
0.0
1001
AUSTER_ANSICHT
1002
{
1000
Det03
1002
}
1001
AUSTER_FOLIE
1002
{
1000
NSB00028_S2
1002
}
  0
LINE
  5
A7C1
330
20
100
AcDbEntity
  8
11000_Left
 62
     7
370
    50
100
AcDbLine
 39
0.7
 10
153.9399272874879
 20
180.030834316921
 30
0.0
 11
155.7959272874878
 21
181.330834316921
 31
0.0
1001
AUSTER_ANSICHT
1002
{
1000
Det03
1002
}
1001
AUSTER_FOLIE
1002
{
1000
NSB00028_S2
1002
}
  0
LINE
  5
A7C2
330
20
100
AcDbEntity
  8
11000_Left
 62
     7
370
    50
100
AcDbLine
 39
0.7
 10
152.9509272874878
 20
180.030834316921
 30
0.0
 11
153.9399272874879
 21
180.030834316921
 31
0.0
1001
AUSTER_ANSICHT
1002
{
1000
Det03
1002
}
1001
AUSTER_FOLIE
1002
{
1000
NSB00028_S2
1002
}
  0
LINE
  5
A7C3
330
20
100
AcDbEntity
  8
11000_Left
 62
     7
370
    50
100
AcDbLine
 39
0.7
 10
152.0509272874878
 20
214.5308343169209
 30
0.0
 11
152.0509272874878
 21
218.580834316921
 31
0.0
1001
AUSTER_ANSICHT
1002
{
1000
Det03
1002
}
1001
AUSTER_FOLIE
1002
{
1000
NSB00028_S2
1002
}
  0
LINE
  5
A7C4
330
20
100
AcDbEntity
  8
11000_Left
 62
     7
370
    20
100
AcDbLine
 39
0.45
 10
182.0509272874878
 20
123.530834316921
 30
0.0
 11
182.0509272874878
 21
205.530834316921
 31
0.0
1001
AUSTER_ANSICHT
1002
{
1000
Det03
1002
}
1001
AUSTER_FOLIE
1002
{
1000
NSB00028_S2
1002
}
  0
LINE
  5
A7C5
330
20
100
AcDbEntity
  8
11000_Left
 62
     7
370
    20
100
AcDbLine
 39
0.45
 10
179.0509272874878
 20
122.730834316921
 30
0.0
 11
181.2509272874878
 21
122.730834316921
 31
0.0
1001
AUSTER_ANSICHT
1002
{
1000
Det03
1002
}
1001
AUSTER_FOLIE
1002
{
1000
NSB00028_S2
1002
}
  0
LINE
  5
A7C6
330
20
100
AcDbEntity
  8
11000_Left
 62
     7
370
    50
100
AcDbLine
 39
0.7
 10
160.0509272874878
 20
227.0308343169209
 30
0.0
 11
178.0509272874878
 21
227.0308343169209
 31
0.0
1001
AUSTER_ANSICHT
1002
{
1000
Det03
1002
}
1001
AUSTER_FOLIE
1002
{
1000
NSB00028_S2
1002
}
  0
LINE
  5
A7C7
330
20
100
AcDbEntity
  8
11000_Left
 62
     7
370
    20
100
AcDbLine
 39
0.45
 10
178.0509272874878
 20
225.530834316921
 30
0.0
 11
178.0509272874878
 21
227.0308343169209
 31
0.0
1001
AUSTER_ANSICHT
1002
{
1000
Det03
1002
}
1001
AUSTER_FOLIE
1002
{
1000
NSB00028_S2
1002
}
  0
LINE
  5
A7C8
330
20
100
AcDbEntity
  8
11000_Left
 62
     7
370
    20
100
AcDbLine
 39
0.45
 10
178.0509272874878
 20
207.330834316921
 30
0.0
 11
178.0509272874878
 21
225.530834316921
 31
0.0
1001
AUSTER_ANSICHT
1002
{
1000
Det03
1002
}
1001
AUSTER_FOLIE
1002
{
1000
NSB00028_S2
1002
}
  0
LINE
  5
A7C9
330
20
100
AcDbEntity
  8
11000_Left
 62
     7
370
    20
100
AcDbLine
 39
0.45
 10
181.2509272874878
 20
206.330834316921
 30
0.0
 11
179.0509272874878
 21
206.330834316921
 31
0.0
1001
AUSTER_ANSICHT
1002
{
1000
Det03
1002
}
1001
AUSTER_FOLIE
1002
{
1000
NSB00028_S2
1002
}
  0
LINE
  5
A7CA
330
20
100
AcDbEntity
  8
11000_Left
 62
     7
370
    50
100
AcDbLine
 39
0.7
 10
152.5509272874878
 20
96.03083431692104
 30
0.0
 11
152.5509272874878
 21
144.767834316921
 31
0.0
1001
AUSTER_ANSICHT
1002
{
1000
Det03
1002
}
1001
AUSTER_FOLIE
1002
{
1000
NSB00028_S2
1002
}
  0
LINE
  5
A7CB
330
20
100
AcDbEntity
  8
11000_Left
 62
     7
370
    50
100
AcDbLine
 39
0.7
 10
152.5509272874878
 20
94.93083431692104
 30
0.0
 11
152.5509272874878
 21
96.03083431692104
 31
0.0
1001
AUSTER_ANSICHT
1002
{
1000
Det03
1002
}
1001
AUSTER_FOLIE
1002
{
1000
NSB00028_S2
1002
}
  0
LINE
  5
A7CC
330
20
100
AcDbEntity
  8
11000_Left
 62
     7
370
    50
100
AcDbLine
 39
0.7
 10
152.5509272874878
 20
95.03083431692102
 30
0.0
 11
152.0509272874878
 21
95.03083431692102
 31
0.0
1001
AUSTER_ANSICHT
1002
{
1000
Det03
1002
}
1001
AUSTER_FOLIE
1002
{
1000
NSB00028_S2
1002
}
  0
LINE
  5
A7CD
330
20
100
AcDbEntity
  8
11000_Left
 62
     7
370
    50
100
AcDbLine
 39
0.7
 10
152.0509272874878
 20
104.030834316921
 30
0.0
 11
152.0509272874878
 21
95.03083431692102
 31
0.0
1001
AUSTER_ANSICHT
1002
{
1000
Det03
1002
}
1001
AUSTER_FOLIE
1002
{
1000
NSB00028_S2
1002
}
  0
LINE
  5
A7CE
330
20
100
AcDbEntity
  8
11000_Left
 62
     7
370
    50
100
AcDbLine
 39
0.7
 10
159.6509272874878
 20
94.530834316921
 30
0.0
 11
152.9509272874878
 21
94.530834316921
 31
0.0
1001
AUSTER_ANSICHT
1002
{
1000
Det03
1002
}
1001
AUSTER_FOLIE
1002
{
1000
NSB00028_S2
1002
}
  0
LINE
  5
A7CF
330
20
100
AcDbEntity
  8
11000_Left
 62
     7
370
    20
100
AcDbLine
 39
0.45
 10
178.0509272874878
 20
103.530834316921
 30
0.0
 11
178.0509272874878
 21
102.030834316921
 31
0.0
1001
AUSTER_ANSICHT
1002
{
1000
Det03
1002
}
1001
AUSTER_FOLIE
1002
{
1000
NSB00028_S2
1002
}
  0
LINE
  5
A7D0
330
20
100
AcDbEntity
  8
11000_Left
 62
     7
370
    20
100
AcDbLine
 39
0.45
 10
178.0509272874878
 20
121.730834316921
 30
0.0
 11
178.0509272874878
 21
103.530834316921
 31
0.0
1001
AUSTER_ANSICHT
1002
{
1000
Det03
1002
}
1001
AUSTER_FOLIE
1002
{
1000
NSB00028_S2
1002
}
  0
LINE
  5
A7D1
330
20
100
AcDbEntity
  8
11000_Left
 62
     7
370
    50
100
AcDbLine
 39
0.7
 10
178.0509272874878
 20
102.030834316921
 30
0.0
 11
160.0509272874878
 21
102.030834316921
 31
0.0
1001
AUSTER_ANSICHT
1002
{
1000
Det03
1002
}
1001
AUSTER_FOLIE
1002
{
1000
NSB00028_S2
1002
}
  0
LINE
  5
A7D2
330
20
100
AcDbEntity
  8
11000_Left
 62
     7
370
    50
100
AcDbLine
 39
0.7
 10
152.5509272874878
 20
104.030834316921
 30
0.0
 11
152.0509272874878
 21
104.030834316921
 31
0.0
1001
AUSTER_ANSICHT
1002
{
1000
Det03
1002
}
1001
AUSTER_FOLIE
1002
{
1000
NSB00028_S2
1002
}
  0
LINE
  5
A7D3
330
20
100
AcDbEntity
  8
11000_Left
 62
     7
370
    50
100
AcDbLine
 39
0.7
 10
155.2509272874878
 20
149.030834316921
 30
0.0
 11
155.4829272874878
 21
147.712834316921
 31
0.0
1001
AUSTER_ANSICHT
1002
{
1000
Det03
1002
}
1001
AUSTER_FOLIE
1002
{
1000
NSB00028_S2
1002
}
  0
LINE
  5
A7D4
330
20
100
AcDbEntity
  8
11000_Left
 62
     7
370
    50
100
AcDbLine
 39
0.7
 10
154.8509272874878
 20
149.030834316921
 30
0.0
 11
155.2509272874878
 21
149.030834316921
 31
0.0
1001
AUSTER_ANSICHT
1002
{
1000
Det03
1002
}
1001
AUSTER_FOLIE
1002
{
1000
NSB00028_S2
1002
}
  0
LINE
  5
A7D5
330
20
100
AcDbEntity
  8
11000_Left
 62
     7
370
    50
100
AcDbLine
 39
0.7
 10
221.2019272874878
 20
100.030834316921
 30
0.0
 11
221.1419272874878
 21
100.030834316921
 31
0.0
1001
AUSTER_ANSICHT
1002
{
1000
Det03
1002
}
1001
AUSTER_FOLIE
1002
{
1000
NSB00028_S2
1002
}
  0
LINE
  5
A7D6
330
20
100
AcDbEntity
  8
11000_Left
 62
     7
370
    50
100
AcDbLine
 39
0.7
 10
221.2509272874878
 20
100.030834316921
 30
0.0
 11
221.2019272874878
 21
100.030834316921
 31
0.0
1001
AUSTER_ANSICHT
1002
{
1000
Det03
1002
}
1001
AUSTER_FOLIE
1002
{
1000
NSB00028_S2
1002
}
  0
LINE
  5
A7D7
330
20
100
AcDbEntity
  8
11000_Left
 62
     7
370
    50
100
AcDbLine
 39
0.7
 10
232.9509272874878
 20
100.030834316921
 30
0.0
 11
221.2509272874878
 21
100.030834316921
 31
0.0
1001
AUSTER_ANSICHT
1002
{
1000
Det03
1002
}
1001
AUSTER_FOLIE
1002
{
1000
NSB00028_S2
1002
}
  0
LINE
  5
A7D8
330
20
100
AcDbEntity
  8
11000_Left
 62
     7
370
    50
100
AcDbLine
 39
0.7
 10
220.8509272874878
 20
100.430834316921
 30
0.0
 11
220.8509272874878
 21
102.030834316921
 31
0.0
1001
AUSTER_ANSICHT
1002
{
1000
Det03
1002
}
1001
AUSTER_FOLIE
1002
{
1000
NSB00028_S2
1002
}
  0
LINE
  5
A7D9
330
20
100
AcDbEntity
  8
11000_Left
 62
     7
370
    50
100
AcDbLine
 39
0.7
 10
189.6009272874878
 20
229.530834316921
 30
0.0
 11
232.5009272874879
 21
229.530834316921
 31
0.0
1001
AUSTER_ANSICHT
1002
{
1000
Det03
1002
}
1001
AUSTER_FOLIE
1002
{
1000
NSB00028_S2
1002
}
  0
LINE
  5
A7DA
330
20
100
AcDbEntity
  8
11000_Left
 62
     7
370
    20
100
AcDbLine
 39
0.45
 10
234.7009272874879
 20
216.030834316921
 30
0.0
 11
187.4009272874878
 21
216.030834316921
 31
0.0
1001
AUSTER_ANSICHT
1002
{
1000
Det03
1002
}
1001
AUSTER_FOLIE
1002
{
1000
NSB00028_S2
1002
}
  0
LINE
  5
A7DB
330
20
100
AcDbEntity
  8
11000_Left
 62
     7
370
    50
100
AcDbLine
 39
0.7
 10
188.1009272874878
 20
221.0308343169209
 30
0.0
 11
186.6009272874878
 21
221.0308343169209
 31
0.0
1001
AUSTER_ANSICHT
1002
{
1000
Det03
1002
}
1001
AUSTER_FOLIE
1002
{
1000
NSB00028_S2
1002
}
  0
LINE
  5
A7DC
330
20
100
AcDbEntity
  8
11000_Left
 62
     7
370
    50
100
AcDbLine
 39
0.7
 10
235.5009272874879
 20
221.0308343169209
 30
0.0
 11
234.0009272874878
 21
221.0308343169209
 31
0.0
1001
AUSTER_ANSICHT
1002
{
1000
Det03
1002
}
1001
AUSTER_FOLIE
1002
{
1000
NSB00028_S2
1002
}
  0
LINE
  5
A7DD
330
20
100
AcDbEntity
  8
11000_Left
 62
     7
370
    20
100
AcDbLine
 39
0.45
 10
188.5009272874878
 20
217.530834316921
 30
0.0
 11
233.6009272874878
 21
217.530834316921
 31
0.0
1001
AUSTER_ANSICHT
1002
{
1000
Det03
1002
}
1001
AUSTER_FOLIE
1002
{
1000
NSB00028_S2
1002
}
  0
LINE
  5
A7DE
330
20
100
AcDbEntity
  8
11000_Left
 62
     7
370
    50
100
AcDbLine
 39
0.7
 10
178.2509272874878
 20
227.0308343169209
 30
0.0
 11
186.2009272874878
 21
227.0308343169209
 31
0.0
1001
AUSTER_ANSICHT
1002
{
1000
Det03
1002
}
1001
AUSTER_FOLIE
1002
{
1000
NSB00028_S2
1002
}
  0
LINE
  5
A7DF
330
20
100
AcDbEntity
  8
11000_Left
 62
     7
370
    50
100
AcDbLine
 39
0.7
 10
235.9009272874878
 20
227.0308343169209
 30
0.0
 11
258.5509272874878
 21
227.0308343169209
 31
0.0
1001
AUSTER_ANSICHT
1002
{
1000
Det03
1002
}
1001
AUSTER_FOLIE
1002
{
1000
NSB00028_S2
1002
}
  0
LINE
  5
A7E0
330
20
100
AcDbEntity
  8
11000_Left
 62
     7
370
    50
100
AcDbLine
 39
0.7
 10
299.0729272874879
 20
179.071834316921
 30
0.0
 11
291.6729272874878
 21
179.071834316921
 31
0.0
1001
AUSTER_ANSICHT
1002
{
1000
Det03
1002
}
1001
AUSTER_FOLIE
1002
{
1000
NSB00028_S2
1002
}
  0
LINE
  5
A7E1
330
20
100
AcDbEntity
  8
11000_Left
 62
     7
370
    20
100
AcDbLine
 39
0.45
 10
289.8729272874878
 20
157.066834316921
 30
0.0
 11
290.8729272874878
 21
157.066834316921
 31
0.0
1001
AUSTER_ANSICHT
1002
{
1000
Det03
1002
}
1001
AUSTER_FOLIE
1002
{
1000
NSB00028_S2
1002
}
  0
LINE
  5
A7E2
330
20
100
AcDbEntity
  8
11000_Left
 62
     7
370
    20
100
AcDbLine
 39
0.45
 10
290.8729272874878
 20
172.230834316921
 30
0.0
 11
289.8729272874878
 21
172.230834316921
 31
0.0
1001
AUSTER_ANSICHT
1002
{
1000
Det03
1002
}
1001
AUSTER_FOLIE
1002
{
1000
NSB00028_S2
1002
}
  0
LINE
  5
A7E3
330
20
100
AcDbEntity
  8
11000_Left
 62
     7
370
    50
100
AcDbLine
 39
0.7
 10
289.8729272874878
 20
151.071834316921
 30
0.0
 11
300.9079272874878
 21
151.071834316921
 31
0.0
1001
AUSTER_ANSICHT
1002
{
1000
Det03
1002
}
1001
AUSTER_FOLIE
1002
{
1000
NSB00028_S2
1002
}
  0
LINE
  5
A7E4
330
20
100
AcDbEntity
  8
11000_Left
 62
     7
370
    50
100
AcDbLine
 39
0.7
 10
289.8729272874878
 20
177.807834316921
 30
0.0
 11
291.6729272874878
 21
177.807834316921
 31
0.0
1001
AUSTER_ANSICHT
1002
{
1000
Det03
1002
}
1001
AUSTER_FOLIE
1002
{
1000
NSB00028_S2
1002
}
  0
LINE
  5
A7E5
330
20
100
AcDbEntity
  8
11000_Left
 62
     7
370
    50
100
AcDbLine
 39
0.7
 10
300.9069272874878
 20
178.071834316921
 30
0.0
 11
299.0729272874879
 21
178.071834316921
 31
0.0
1001
AUSTER_ANSICHT
1002
{
1000
Det03
1002
}
1001
AUSTER_FOLIE
1002
{
1000
NSB00028_S2
1002
}
  0
LINE
  5
A7E6
330
20
100
AcDbEntity
  8
11000_Left
 62
     7
370
    50
100
AcDbLine
 39
0.7
 10
258.5509272874878
 20
227.0308343169209
 30
0.0
 11
263.3559272874878
 21
227.0308343169209
 31
0.0
1001
AUSTER_ANSICHT
1002
{
1000
Det03
1002
}
1001
AUSTER_FOLIE
1002
{
1000
NSB00028_S2
1002
}
  0
LINE
  5
A7E7
330
20
100
AcDbEntity
  8
11000_Left
 62
     7
370
    50
100
AcDbLine
 39
0.7
 10
287.8039272874879
 20
142.030834316921
 30
0.0
 11
284.5509272874878
 21
142.030834316921
 31
0.0
1001
AUSTER_ANSICHT
1002
{
1000
Det03
1002
}
1001
AUSTER_FOLIE
1002
{
1000
NSB00028_S2
1002
}
  0
LINE
  5
A7E8
330
20
100
AcDbEntity
  8
11000_Left
 62
     7
370
    50
100
AcDbLine
 39
0.7
 10
281.6759272874878
 20
122.030834316921
 30
0.0
 11
266.2319272874878
 21
122.030834316921
 31
0.0
1001
AUSTER_ANSICHT
1002
{
1000
Det03
1002
}
1001
AUSTER_FOLIE
1002
{
1000
NSB00028_S2
1002
}
  0
LINE
  5
A7E9
330
20
100
AcDbEntity
  8
11000_Left
 62
     7
370
    50
100
AcDbLine
 39
0.7
 10
284.5509272874878
 20
187.030834316921
 30
0.0
 11
287.8039272874879
 21
187.030834316921
 31
0.0
1001
AUSTER_ANSICHT
1002
{
1000
Det03
1002
}
1001
AUSTER_FOLIE
1002
{
1000
NSB00028_S2
1002
}
  0
LINE
  5
A7EA
330
20
100
AcDbEntity
  8
11000_Left
 62
     7
370
    50
100
AcDbLine
 39
0.7
 10
263.3559272874878
 20
102.030834316921
 30
0.0
 11
258.5509272874878
 21
102.030834316921
 31
0.0
1001
AUSTER_ANSICHT
1002
{
1000
Det03
1002
}
1001
AUSTER_FOLIE
1002
{
1000
NSB00028_S2
1002
}
  0
LINE
  5
A7EB
330
20
100
AcDbEntity
  8
11000_Left
 62
     7
370
    50
100
AcDbLine
 39
0.7
 10
289.5299272874879
 20
165.530834316921
 30
0.0
 11
289.5489272874879
 21
165.530834316921
 31
0.0
1001
AUSTER_ANSICHT
1002
{
1000
Det03
1002
}
1001
AUSTER_FOLIE
1002
{
1000
NSB00028_S2
1002
}
  0
LINE
  5
A7EC
330
20
100
AcDbEntity
  8
11000_Left
 62
     7
370
    50
100
AcDbLine
 39
0.7
 10
282.4759272874878
 20
122.777834316921
 30
0.0
 11
282.4489272874879
 21
122.626834316921
 31
0.0
1001
AUSTER_ANSICHT
1002
{
1000
Det03
1002
}
1001
AUSTER_FOLIE
1002
{
1000
NSB00028_S2
1002
}
  0
LINE
  5
A7ED
330
20
100
AcDbEntity
  8
11000_Left
 62
     7
370
    50
100
AcDbLine
 39
0.7
 10
178.0509272874878
 20
102.030834316921
 30
0.0
 11
178.2509272874878
 21
102.030834316921
 31
0.0
1001
AUSTER_ANSICHT
1002
{
1000
Det03
1002
}
1001
AUSTER_FOLIE
1002
{
1000
NSB00028_S2
1002
}
  0
LINE
  5
A7EE
330
20
100
AcDbEntity
  8
11000_Left
 62
     7
370
    20
100
AcDbLine
 39
0.7
 10
178.0509272874878
 20
227.0308343169209
 30
0.0
 11
178.2509272874878
 21
227.0308343169209
 31
0.0
1001
AUSTER_ANSICHT
1002
{
1000
Det03
1002
}
1001
AUSTER_FOLIE
1002
{
1000
NSB00028_S2
1002
}
  0
LINE
  5
A7EF
330
20
100
AcDbEntity
  8
11000_Left
 62
     7
370
    50
100
AcDbLine
 39
0.7
 10
160.0509272874878
 20
102.030834316921
 30
0.0
 11
160.0509272874878
 21
94.93083431692104
 31
0.0
1001
AUSTER_ANSICHT
1002
{
1000
Det03
1002
}
1001
AUSTER_FOLIE
1002
{
1000
NSB00028_S2
1002
}
  0
LINE
  5
A7F0
330
20
100
AcDbEntity
  8
11000_Left
 62
     7
370
    50
100
AcDbLine
 39
0.7
 10
152.0509272874878
 20
214.5308343169209
 30
0.0
 11
152.5509272874878
 21
214.5308343169209
 31
0.0
1001
AUSTER_ANSICHT
1002
{
1000
Det03
1002
}
1001
AUSTER_FOLIE
1002
{
1000
NSB00028_S2
1002
}
  0
LINE
  5
A7F1
330
20
100
AcDbEntity
  8
11000_Left
 62
     7
370
    50
100
AcDbLine
 39
0.7
 10
152.0509272874878
 20
218.580834316921
 30
0.0
 11
152.5509272874878
 21
218.580834316921
 31
0.0
1001
AUSTER_ANSICHT
1002
{
1000
Det03
1002
}
1001
AUSTER_FOLIE
1002
{
1000
NSB00028_S2
1002
}
  0
LINE
  5
A7F2
330
20
100
AcDbEntity
  8
11000_Left
 62
     7
370
    50
100
AcDbLine
 39
0.7
 10
160.0509272874878
 20
233.0308343169209
 30
0.0
 11
160.0509272874878
 21
227.0308343169209
 31
0.0
1001
AUSTER_ANSICHT
1002
{
1000
Det03
1002
}
1001
AUSTER_FOLIE
1002
{
1000
NSB00028_S2
1002
}
  0
LINE
  5
A7F3
330
20
100
AcDbEntity
  8
11000_Left
 62
     7
370
    50
100
AcDbLine
 39
0.7
 10
152.5509272874878
 20
146.511834316921
 30
0.0
 11
152.5509272874878
 21
144.767834316921
 31
0.0
1001
AUSTER_ANSICHT
1002
{
1000
Det03
1002
}
1001
AUSTER_FOLIE
1002
{
1000
NSB00028_S2
1002
}
  0
LINE
  5
A7F4
330
20
100
AcDbEntity
  8
11000_Left
 62
     7
370
    50
100
AcDbLine
 39
0.7
 10
154.5439272874878
 20
148.887834316921
 30
0.0
 11
152.5509272874878
 21
146.511834316921
 31
0.0
1001
AUSTER_ANSICHT
1002
{
1000
Det03
1002
}
1001
AUSTER_FOLIE
1002
{
1000
NSB00028_S2
1002
}
  0
LINE
  5
A7F5
330
20
100
AcDbEntity
  8
11000_Left
 62
     7
370
    50
100
AcDbLine
 39
0.7
 10
155.7509272874878
 20
147.189834316921
 30
0.0
 11
155.7509272874878
 21
146.730834316921
 31
0.0
1001
AUSTER_ANSICHT
1002
{
1000
Det03
1002
}
1001
AUSTER_FOLIE
1002
{
1000
NSB00028_S2
1002
}
  0
LINE
  5
A7F6
330
20
100
AcDbEntity
  8
11000_Left
 62
     7
370
    50
100
AcDbLine
 39
0.7
 10
289.8729272874878
 20
172.230834316921
 30
0.0
 11
289.8729272874878
 21
157.066834316921
 31
0.0
1001
AUSTER_ANSICHT
1002
{
1000
Det03
1002
}
1001
AUSTER_FOLIE
1002
{
1000
NSB00028_S2
1002
}
  0
LINE
  5
A7F7
330
20
100
AcDbEntity
  8
11000_Left
 62
     7
370
    20
100
AcDbLine
 39
0.45
 10
291.6729272874878
 20
174.907834316921
 30
0.0
 11
299.0729272874879
 21
174.907834316921
 31
0.0
1001
AUSTER_ANSICHT
1002
{
1000
Det03
1002
}
1001
AUSTER_FOLIE
1002
{
1000
NSB00028_S2
1002
}
  0
LINE
  5
A7F8
330
20
100
AcDbEntity
  8
11000_Left
 62
     7
370
    50
100
AcDbLine
 39
0.7
 10
233.3509272874878
 20
100.430834316921
 30
0.0
 11
233.3509272874878
 21
102.030834316921
 31
0.0
1001
AUSTER_ANSICHT
1002
{
1000
Det03
1002
}
1001
AUSTER_FOLIE
1002
{
1000
NSB00028_S2
1002
}
  0
LINE
  5
A7F9
330
20
100
AcDbEntity
  8
11000_Left
 62
     7
370
    50
100
AcDbLine
 39
0.7
 10
264.1299272874879
 20
226.4348343169211
 30
0.0
 11
264.2469272874878
 21
225.6398343169211
 31
0.0
1001
AUSTER_ANSICHT
1002
{
1000
Det03
1002
}
1001
AUSTER_FOLIE
1002
{
1000
NSB00028_S2
1002
}
  0
LINE
  5
A7FA
330
20
100
AcDbEntity
  8
11000_Left
 62
     7
370
    50
100
AcDbLine
 39
0.7
 10
282.5659272874879
 20
123.420834316921
 30
0.0
 11
282.4489272874879
 21
122.626834316921
 31
0.0
1001
AUSTER_ANSICHT
1002
{
1000
Det03
1002
}
1001
AUSTER_FOLIE
1002
{
1000
NSB00028_S2
1002
}
  0
LINE
  5
A7FB
330
20
100
AcDbEntity
  8
11000_Left
 62
     7
370
    50
100
AcDbLine
 39
0.7
 10
289.8729272874878
 20
172.030834316921
 30
0.0
 11
289.4389272874878
 21
172.030834316921
 31
0.0
1001
AUSTER_ANSICHT
1002
{
1000
Det03
1002
}
1001
AUSTER_FOLIE
1002
{
1000
NSB00028_S2
1002
}
  0
LINE
  5
A7FC
330
20
100
AcDbEntity
  8
11000_Left
 62
     7
370
    50
100
AcDbLine
 39
0.7
 10
155.5509272874878
 20
146.730834316921
 30
0.0
 11
157.0509272874878
 21
146.730834316921
 31
0.0
1001
AUSTER_ANSICHT
1002
{
1000
Det03
1002
}
1001
AUSTER_FOLIE
1002
{
1000
NSB00028_S2
1002
}
  0
LINE
  5
A7FD
330
20
100
AcDbEntity
  8
11000_Left
 62
     7
370
    50
100
AcDbLine
 39
0.7
 10
258.5509272874878
 20
102.030834316921
 30
0.0
 11
178.2509272874878
 21
102.030834316921
 31
0.0
1001
AUSTER_ANSICHT
1002
{
1000
Det03
1002
}
1001
AUSTER_FOLIE
1002
{
1000
NSB00028_S2
1002
}
  0
LINE
  5
A8E9
330
20
100
AcDbEntity
  8
10000_FRONT
 62
     7
370
    50
100
AcDbLine
 39
0.7
 10
96.97444946623972
 20
209.130834316921
 30
0.0
 11
96.97444946623972
 21
120.130834316921
 31
0.0
1001
AUSTER_ANSICHT
1002
{
1000
Det03
1002
}
1001
AUSTER_FOLIE
1002
{
1000
NSB00028_S2
1002
}
  0
LINE
  5
A8F3
330
20
100
AcDbEntity
  8
10000_FRONT
 62
     7
370
    50
100
AcDbLine
 39
0.7
 10
96.97444946623972
 20
209.130834316921
 30
0.0
 11
96.97444946623972
 21
120.130834316921
 31
0.0
1001
AUSTER_ANSICHT
1002
{
1000
Det03
1002
}
1001
AUSTER_FOLIE
1002
{
1000
NSB00028_S2
1002
}
  0
LINE
  5
A8F4
330
20
100
AcDbEntity
  8
10000_FRONT
 62
     7
370
    50
100
AcDbLine
 39
0.7
 10
96.97444946623972
 20
209.130834316921
 30
0.0
 11
96.97444946623972
 21
120.130834316921
 31
0.0
1001
AUSTER_ANSICHT
1002
{
1000
Det03
1002
}
1001
AUSTER_FOLIE
1002
{
1000
NSB00028_S2
1002
}
  0
LINE
  5
A8F5
330
20
100
AcDbEntity
  8
10000_FRONT
 62
     7
370
    50
100
AcDbLine
 39
0.7
 10
96.97444946623972
 20
209.130834316921
 30
0.0
 11
96.97444946623972
 21
120.130834316921
 31
0.0
1001
AUSTER_ANSICHT
1002
{
1000
Det03
1002
}
1001
AUSTER_FOLIE
1002
{
1000
NSB00028_S2
1002
}
  0
LINE
  5
A92F
330
20
100
AcDbEntity
  8
10000_FRONT
 62
     7
370
    50
100
AcDbLine
 39
0.7
 10
96.97444946623972
 20
209.130834316921
 30
0.0
 11
96.97444946623972
 21
120.130834316921
 31
0.0
1001
AUSTER_ANSICHT
1002
{
1000
Det03
1002
}
1001
AUSTER_FOLIE
1002
{
1000
NSB00028_S2
1002
}
  0
LINE
  5
A930
330
20
100
AcDbEntity
  8
10000_FRONT
 62
     7
370
    50
100
AcDbLine
 39
0.7
 10
96.97444946623972
 20
209.130834316921
 30
0.0
 11
96.97444946623972
 21
120.130834316921
 31
0.0
1001
AUSTER_ANSICHT
1002
{
1000
Det03
1002
}
1001
AUSTER_FOLIE
1002
{
1000
NSB00028_S2
1002
}
  0
LINE
  5
A93A
330
20
100
AcDbEntity
  8
10000_FRONT
 62
     7
370
    50
100
AcDbLine
 39
0.7
 10
96.97444946623972
 20
209.130834316921
 30
0.0
 11
96.97444946623972
 21
120.130834316921
 31
0.0
1001
AUSTER_ANSICHT
1002
{
1000
Det03
1002
}
1001
AUSTER_FOLIE
1002
{
1000
NSB00028_S2
1002
}
  0
LINE
  5
A93B
330
20
100
AcDbEntity
  8
10000_FRONT
 62
     7
370
    50
100
AcDbLine
 39
0.7
 10
96.97444946623972
 20
209.130834316921
 30
0.0
 11
96.97444946623972
 21
120.130834316921
 31
0.0
1001
AUSTER_ANSICHT
1002
{
1000
Det03
1002
}
1001
AUSTER_FOLIE
1002
{
1000
NSB00028_S2
1002
}
  0
LINE
  5
A975
330
20
100
AcDbEntity
  8
10000_FRONT
 62
     7
370
    50
100
AcDbLine
 39
0.7
 10
96.97444946623972
 20
209.130834316921
 30
0.0
 11
96.97444946623972
 21
120.130834316921
 31
0.0
1001
AUSTER_ANSICHT
1002
{
1000
Det03
1002
}
1001
AUSTER_FOLIE
1002
{
1000
NSB00028_S2
1002
}
  0
LINE
  5
A976
330
20
100
AcDbEntity
  8
10000_FRONT
 62
     7
370
    50
100
AcDbLine
 39
0.7
 10
96.97444946623972
 20
209.130834316921
 30
0.0
 11
96.97444946623972
 21
120.130834316921
 31
0.0
1001
AUSTER_ANSICHT
1002
{
1000
Det03
1002
}
1001
AUSTER_FOLIE
1002
{
1000
NSB00028_S2
1002
}
  0
LINE
  5
AAB2
330
20
100
AcDbEntity
  8
10000_FRONT
 62
     7
370
    50
100
AcDbLine
 39
0.7
 10
43.67444946623971
 20
234.530834316921
 30
0.0
 11
95.47444946623972
 21
234.530834316921
 31
0.0
1001
AUSTER_ANSICHT
1002
{
1000
Det03
1002
}
1001
AUSTER_FOLIE
1002
{
1000
NSB00028_S2
1002
}
  0
LINE
  5
AAB3
330
20
100
AcDbEntity
  8
10000_FRONT
 62
     7
370
    50
100
AcDbLine
 39
0.7
 10
42.17344946623973
 20
225.530834316921
 30
0.0
 11
42.1744494662397
 21
233.0308343169209
 31
0.0
1001
AUSTER_ANSICHT
1002
{
1000
Det03
1002
}
1001
AUSTER_FOLIE
1002
{
1000
NSB00028_S2
1002
}
  0
LINE
  5
AAB4
330
20
100
AcDbEntity
  8
10000_FRONT
 62
     7
370
    50
100
AcDbLine
 39
0.7
 10
42.1744494662397
 20
96.03083431692104
 30
0.0
 11
42.1744494662397
 21
103.530834316921
 31
0.0
1001
AUSTER_ANSICHT
1002
{
1000
Det03
1002
}
1001
AUSTER_FOLIE
1002
{
1000
NSB00028_S2
1002
}
  0
LINE
  5
AAB5
330
20
100
AcDbEntity
  8
10000_FRONT
 62
     7
370
    50
100
AcDbLine
 39
0.7
 10
96.97444946623972
 20
233.0308343169209
 30
0.0
 11
96.97444946623972
 21
225.530834316921
 31
0.0
1001
AUSTER_ANSICHT
1002
{
1000
Det03
1002
}
1001
AUSTER_FOLIE
1002
{
1000
NSB00028_S2
1002
}
  0
LINE
  5
AAB6
330
20
100
AcDbEntity
  8
10000_FRONT
 62
     7
370
    50
100
AcDbLine
 39
0.7
 10
96.97444946623972
 20
103.530834316921
 30
0.0
 11
96.97444946623972
 21
96.03083431692104
 31
0.0
1001
AUSTER_ANSICHT
1002
{
1000
Det03
1002
}
1001
AUSTER_FOLIE
1002
{
1000
NSB00028_S2
1002
}
  0
LINE
  5
AAB7
330
20
100
AcDbEntity
  8
10000_FRONT
 62
     7
370
    50
100
AcDbLine
 39
0.7
 10
72.82444946623968
 20
94.93083431692104
 30
0.0
 11
72.82444946623968
 21
94.53383431692101
 31
0.0
1001
AUSTER_ANSICHT
1002
{
1000
Det03
1002
}
1001
AUSTER_FOLIE
1002
{
1000
NSB00028_S2
1002
}
  0
LINE
  5
AAB8
330
20
100
AcDbEntity
  8
10000_FRONT
 62
     7
370
    20
100
AcDbLine
 39
0.45
 10
72.82444946623968
 20
100.030834316921
 30
0.0
 11
72.82444946623968
 21
94.93083431692104
 31
0.0
1001
AUSTER_ANSICHT
1002
{
1000
Det03
1002
}
1001
AUSTER_FOLIE
1002
{
1000
NSB00028_S2
1002
}
  0
LINE
  5
AAB9
330
20
100
AcDbEntity
  8
10000_FRONT
 62
     7
370
    20
100
AcDbLine
 39
0.45
 10
66.32444946623968
 20
94.93083431692104
 30
0.0
 11
66.32444946623968
 21
100.030834316921
 31
0.0
1001
AUSTER_ANSICHT
1002
{
1000
Det03
1002
}
1001
AUSTER_FOLIE
1002
{
1000
NSB00028_S2
1002
}
  0
LINE
  5
AABA
330
20
100
AcDbEntity
  8
10000_FRONT
 62
     7
370
    50
100
AcDbLine
 39
0.7
 10
66.32444946623968
 20
94.530834316921
 30
0.0
 11
66.32444946623968
 21
94.93083431692104
 31
0.0
1001
AUSTER_ANSICHT
1002
{
1000
Det03
1002
}
1001
AUSTER_FOLIE
1002
{
1000
NSB00028_S2
1002
}
  0
LINE
  5
AABB
330
20
100
AcDbEntity
  8
10000_FRONT
 62
     7
370
    50
100
AcDbLine
 39
0.7
 10
74.87244946623968
 20
94.530834316921
 30
0.0
 11
72.82444946623968
 21
94.530834316921
 31
0.0
1001
AUSTER_ANSICHT
1002
{
1000
Det03
1002
}
1001
AUSTER_FOLIE
1002
{
1000
NSB00028_S2
1002
}
  0
LINE
  5
AABC
330
20
100
AcDbEntity
  8
10000_FRONT
 62
     7
370
    50
100
AcDbLine
 39
0.7
 10
75.15544946623974
 20
94.530834316921
 30
0.0
 11
74.87244946623968
 21
94.530834316921
 31
0.0
1001
AUSTER_ANSICHT
1002
{
1000
Det03
1002
}
1001
AUSTER_FOLIE
1002
{
1000
NSB00028_S2
1002
}
  0
LINE
  5
AABD
330
20
100
AcDbEntity
  8
10000_FRONT
 62
     7
370
    50
100
AcDbLine
 39
0.7
 10
95.47444946623972
 20
94.530834316921
 30
0.0
 11
75.15544946623974
 21
94.530834316921
 31
0.0
1001
AUSTER_ANSICHT
1002
{
1000
Det03
1002
}
1001
AUSTER_FOLIE
1002
{
1000
NSB00028_S2
1002
}
  0
LINE
  5
AABE
330
20
100
AcDbEntity
  8
10000_FRONT
 62
     7
370
    50
100
AcDbLine
 39
0.7
 10
63.99244946623975
 20
94.530834316921
 30
0.0
 11
43.67444946623971
 21
94.530834316921
 31
0.0
1001
AUSTER_ANSICHT
1002
{
1000
Det03
1002
}
1001
AUSTER_FOLIE
1002
{
1000
NSB00028_S2
1002
}
  0
LINE
  5
AABF
330
20
100
AcDbEntity
  8
10000_FRONT
 62
     7
370
    50
100
AcDbLine
 39
0.7
 10
64.27544946623971
 20
94.530834316921
 30
0.0
 11
63.99244946623975
 21
94.530834316921
 31
0.0
1001
AUSTER_ANSICHT
1002
{
1000
Det03
1002
}
1001
AUSTER_FOLIE
1002
{
1000
NSB00028_S2
1002
}
  0
LINE
  5
AAC0
330
20
100
AcDbEntity
  8
10000_FRONT
 62
     7
370
    50
100
AcDbLine
 39
0.7
 10
66.32444946623968
 20
94.530834316921
 30
0.0
 11
64.27544946623971
 21
94.530834316921
 31
0.0
1001
AUSTER_ANSICHT
1002
{
1000
Det03
1002
}
1001
AUSTER_FOLIE
1002
{
1000
NSB00028_S2
1002
}
  0
LINE
  5
AAC1
330
20
100
AcDbEntity
  8
10000_FRONT
 62
     7
370
    50
100
AcDbLine
 39
0.7
 10
69.57444946623969
 20
94.530834316921
 30
0.0
 11
72.82444946623968
 21
94.530834316921
 31
0.0
1001
AUSTER_ANSICHT
1002
{
1000
Det03
1002
}
1001
AUSTER_FOLIE
1002
{
1000
NSB00028_S2
1002
}
  0
LINE
  5
AAC2
330
20
100
AcDbEntity
  8
10000_FRONT
 62
     7
370
    50
100
AcDbLine
 39
0.7
 10
69.57444946623969
 20
94.530834316921
 30
0.0
 11
66.32644946623975
 21
94.530834316921
 31
0.0
1001
AUSTER_ANSICHT
1002
{
1000
Det03
1002
}
1001
AUSTER_FOLIE
1002
{
1000
NSB00028_S2
1002
}
  0
LINE
  5
AAC3
330
20
100
AcDbEntity
  8
10000_FRONT
 62
     7
370
    20
100
AcDbLine
 39
0.45
 10
66.32444946623968
 20
96.43083431692105
 30
0.0
 11
69.57444946623969
 21
96.43083431692105
 31
0.0
1001
AUSTER_ANSICHT
1002
{
1000
Det03
1002
}
1001
AUSTER_FOLIE
1002
{
1000
NSB00028_S2
1002
}
  0
LINE
  5
AAC4
330
20
100
AcDbEntity
  8
10000_FRONT
 62
     7
370
    20
100
AcDbLine
 39
0.45
 10
72.82444946623968
 20
96.43083431692105
 30
0.0
 11
69.57444946623969
 21
96.43083431692105
 31
0.0
1001
AUSTER_ANSICHT
1002
{
1000
Det03
1002
}
1001
AUSTER_FOLIE
1002
{
1000
NSB00028_S2
1002
}
  0
LINE
  5
AAC5
330
20
100
AcDbEntity
  8
10000_FRONT
 62
     7
370
    20
100
AcDbLine
 39
0.45
 10
95.32444946623968
 20
102.030834316921
 30
0.0
 11
95.32444946623968
 21
100.430834316921
 31
0.0
1001
AUSTER_ANSICHT
1002
{
1000
Det03
1002
}
1001
AUSTER_FOLIE
1002
{
1000
NSB00028_S2
1002
}
  0
LINE
  5
AAC6
330
20
100
AcDbEntity
  8
10000_FRONT
 62
     7
370
    20
100
AcDbLine
 39
0.45
 10
94.92444946623972
 20
100.030834316921
 30
0.0
 11
81.02444946623974
 21
100.030834316921
 31
0.0
1001
AUSTER_ANSICHT
1002
{
1000
Det03
1002
}
1001
AUSTER_FOLIE
1002
{
1000
NSB00028_S2
1002
}
  0
LINE
  5
AAC7
330
20
100
AcDbEntity
  8
10000_FRONT
 62
     7
370
    20
100
AcDbLine
 39
0.45
 10
80.62444946623974
 20
102.030834316921
 30
0.0
 11
80.62444946623974
 21
100.430834316921
 31
0.0
1001
AUSTER_ANSICHT
1002
{
1000
Det03
1002
}
1001
AUSTER_FOLIE
1002
{
1000
NSB00028_S2
1002
}
  0
LINE
  5
AAC8
330
20
100
AcDbEntity
  8
10000_FRONT
 62
     7
370
    20
100
AcDbLine
 39
0.45
 10
75.67444946623971
 20
100.030834316921
 30
0.0
 11
63.47444946623972
 21
100.030834316921
 31
0.0
1001
AUSTER_ANSICHT
1002
{
1000
Det03
1002
}
1001
AUSTER_FOLIE
1002
{
1000
NSB00028_S2
1002
}
  0
LINE
  5
AAC9
330
20
100
AcDbEntity
  8
10000_FRONT
 62
     7
370
    20
100
AcDbLine
 39
0.45
 10
76.07444946623968
 20
102.030834316921
 30
0.0
 11
76.07444946623968
 21
100.430834316921
 31
0.0
1001
AUSTER_ANSICHT
1002
{
1000
Det03
1002
}
1001
AUSTER_FOLIE
1002
{
1000
NSB00028_S2
1002
}
  0
LINE
  5
AACA
330
20
100
AcDbEntity
  8
10000_FRONT
 62
     7
370
    20
100
AcDbLine
 39
0.45
 10
63.07444946623968
 20
102.030834316921
 30
0.0
 11
63.07444946623968
 21
100.430834316921
 31
0.0
1001
AUSTER_ANSICHT
1002
{
1000
Det03
1002
}
1001
AUSTER_FOLIE
1002
{
1000
NSB00028_S2
1002
}
  0
LINE
  5
AACB
330
20
100
AcDbEntity
  8
10000_FRONT
 62
     7
370
    20
100
AcDbLine
 39
0.45
 10
58.52444946623973
 20
100.430834316921
 30
0.0
 11
58.52444946623973
 21
102.030834316921
 31
0.0
1001
AUSTER_ANSICHT
1002
{
1000
Det03
1002
}
1001
AUSTER_FOLIE
1002
{
1000
NSB00028_S2
1002
}
  0
LINE
  5
AACC
330
20
100
AcDbEntity
  8
10000_FRONT
 62
     7
370
    20
100
AcDbLine
 39
0.45
 10
58.12444946623974
 20
100.030834316921
 30
0.0
 11
44.22444946623971
 21
100.030834316921
 31
0.0
1001
AUSTER_ANSICHT
1002
{
1000
Det03
1002
}
1001
AUSTER_FOLIE
1002
{
1000
NSB00028_S2
1002
}
  0
LINE
  5
AACD
330
20
100
AcDbEntity
  8
10000_FRONT
 62
     7
370
    20
100
AcDbLine
 39
0.45
 10
43.82444946623968
 20
100.430834316921
 30
0.0
 11
43.82444946623968
 21
101.992834316921
 31
0.0
1001
AUSTER_ANSICHT
1002
{
1000
Det03
1002
}
1001
AUSTER_FOLIE
1002
{
1000
NSB00028_S2
1002
}
  0
LINE
  5
AACE
330
20
100
AcDbEntity
  8
10000_FRONT
 62
     7
370
    20
100
AcDbLine
 39
0.45
 10
56.97444946623972
 20
179.280834316921
 30
0.0
 11
56.97444946623972
 21
176.530834316921
 31
0.0
1001
AUSTER_ANSICHT
1002
{
1000
Det03
1002
}
1001
AUSTER_FOLIE
1002
{
1000
NSB00028_S2
1002
}
  0
LINE
  5
AACF
330
20
100
AcDbEntity
  8
10000_FRONT
 62
     7
370
    20
100
AcDbLine
 39
0.45
 10
56.97444946623972
 20
175.530834316921
 30
0.0
 11
56.97444946623972
 21
172.780834316921
 31
0.0
1001
AUSTER_ANSICHT
1002
{
1000
Det03
1002
}
1001
AUSTER_FOLIE
1002
{
1000
NSB00028_S2
1002
}
  0
LINE
  5
AAD0
330
20
100
AcDbEntity
  8
10000_FRONT
 62
     7
370
    20
100
AcDbLine
 39
0.45
 10
56.97444946623972
 20
176.530834316921
 30
0.0
 11
58.31044946623973
 21
176.530834316921
 31
0.0
1001
AUSTER_ANSICHT
1002
{
1000
Det03
1002
}
1001
AUSTER_FOLIE
1002
{
1000
NSB00028_S2
1002
}
  0
LINE
  5
AAD1
330
20
100
AcDbEntity
  8
10000_FRONT
 62
     7
370
    20
100
AcDbLine
 39
0.45
 10
58.31044946623973
 20
175.530834316921
 30
0.0
 11
56.97444946623972
 21
175.530834316921
 31
0.0
1001
AUSTER_ANSICHT
1002
{
1000
Det03
1002
}
1001
AUSTER_FOLIE
1002
{
1000
NSB00028_S2
1002
}
  0
LINE
  5
AAD2
330
20
100
AcDbEntity
  8
10000_FRONT
 62
     7
370
    20
100
AcDbLine
 39
0.45
 10
56.97444946623972
 20
172.780834316921
 30
0.0
 11
55.77444946623973
 21
172.780834316921
 31
0.0
1001
AUSTER_ANSICHT
1002
{
1000
Det03
1002
}
1001
AUSTER_FOLIE
1002
{
1000
NSB00028_S2
1002
}
  0
LINE
  5
AAD3
330
20
100
AcDbEntity
  8
10000_FRONT
 62
     7
370
    20
100
AcDbLine
 39
0.45
 10
55.77444946623973
 20
179.280834316921
 30
0.0
 11
56.97444946623972
 21
179.280834316921
 31
0.0
1001
AUSTER_ANSICHT
1002
{
1000
Det03
1002
}
1001
AUSTER_FOLIE
1002
{
1000
NSB00028_S2
1002
}
  0
LINE
  5
AAD4
330
20
100
AcDbEntity
  8
10000_FRONT
 62
     7
370
    20
100
AcDbLine
 39
0.45
 10
53.12444946623974
 20
175.530834316921
 30
0.0
 11
53.12444946623974
 21
176.530834316921
 31
0.0
1001
AUSTER_ANSICHT
1002
{
1000
Det03
1002
}
1001
AUSTER_FOLIE
1002
{
1000
NSB00028_S2
1002
}
  0
LINE
  5
AAD5
330
20
100
AcDbEntity
  8
10000_FRONT
 62
     7
370
    20
100
AcDbLine
 39
0.45
 10
55.77444946623973
 20
175.530834316921
 30
0.0
 11
53.12444946623974
 21
175.530834316921
 31
0.0
1001
AUSTER_ANSICHT
1002
{
1000
Det03
1002
}
1001
AUSTER_FOLIE
1002
{
1000
NSB00028_S2
1002
}
  0
LINE
  5
AAD6
330
20
100
AcDbEntity
  8
10000_FRONT
 62
     7
370
    20
100
AcDbLine
 39
0.45
 10
53.12444946623974
 20
176.530834316921
 30
0.0
 11
55.77444946623973
 21
176.530834316921
 31
0.0
1001
AUSTER_ANSICHT
1002
{
1000
Det03
1002
}
1001
AUSTER_FOLIE
1002
{
1000
NSB00028_S2
1002
}
  0
LINE
  5
AAD7
330
20
100
AcDbEntity
  8
10000_FRONT
 62
     7
370
    20
100
AcDbLine
 39
0.45
 10
55.77444946623973
 20
172.780834316921
 30
0.0
 11
55.77444946623973
 21
175.530834316921
 31
0.0
1001
AUSTER_ANSICHT
1002
{
1000
Det03
1002
}
1001
AUSTER_FOLIE
1002
{
1000
NSB00028_S2
1002
}
  0
LINE
  5
AAD8
330
20
100
AcDbEntity
  8
10000_FRONT
 62
     7
370
    20
100
AcDbLine
 39
0.45
 10
55.77444946623973
 20
176.530834316921
 30
0.0
 11
55.77444946623973
 21
179.280834316921
 31
0.0
1001
AUSTER_ANSICHT
1002
{
1000
Det03
1002
}
1001
AUSTER_FOLIE
1002
{
1000
NSB00028_S2
1002
}
  0
LINE
  5
AAD9
330
20
100
AcDbEntity
  8
10000_FRONT
 62
     7
370
    20
100
AcDbLine
 39
0.35
 10
46.97444946623972
 20
197.030834316921
 30
0.0
 11
46.97444946623972
 21
207.030834316921
 31
0.0
1001
AUSTER_ANSICHT
1002
{
1000
Det03
1002
}
1001
AUSTER_FOLIE
1002
{
1000
NSB00028_S2
1002
}
  0
LINE
  5
AADA
330
20
100
AcDbEntity
  8
10000_FRONT
 62
     7
370
    20
100
AcDbLine
 39
0.45
 10
42.97444946623971
 20
142.030834316921
 30
0.0
 11
42.1744494662397
 21
142.030834316921
 31
0.0
1001
AUSTER_ANSICHT
1002
{
1000
Det03
1002
}
1001
AUSTER_FOLIE
1002
{
1000
NSB00028_S2
1002
}
  0
LINE
  5
AADB
330
20
100
AcDbEntity
  8
10000_FRONT
 62
     7
370
    20
100
AcDbLine
 39
0.45
 10
95.47444946623972
 20
122.030834316921
 30
0.0
 11
43.67444946623971
 21
122.030834316921
 31
0.0
1001
AUSTER_ANSICHT
1002
{
1000
Det03
1002
}
1001
AUSTER_FOLIE
1002
{
1000
NSB00028_S2
1002
}
  0
LINE
  5
AADC
330
20
100
AcDbEntity
  8
10000_FRONT
 62
     7
370
    20
100
AcDbLine
 39
0.45
 10
96.97444946623972
 20
142.030834316921
 30
0.0
 11
96.17444946623972
 21
142.030834316921
 31
0.0
1001
AUSTER_ANSICHT
1002
{
1000
Det03
1002
}
1001
AUSTER_FOLIE
1002
{
1000
NSB00028_S2
1002
}
  0
LINE
  5
AADD
330
20
100
AcDbEntity
  8
10000_FRONT
 62
     7
370
    20
100
AcDbLine
 39
0.45
 10
96.17444946623972
 20
142.030834316921
 30
0.0
 11
42.97444946623971
 21
142.030834316921
 31
0.0
1001
AUSTER_ANSICHT
1002
{
1000
Det03
1002
}
1001
AUSTER_FOLIE
1002
{
1000
NSB00028_S2
1002
}
  0
LINE
  5
AADE
330
20
100
AcDbEntity
  8
10000_FRONT
 62
     7
370
    20
100
AcDbLine
 39
0.45
 10
43.67444946623971
 20
227.0308343169209
 30
0.0
 11
95.47444946623972
 21
227.0308343169209
 31
0.0
1001
AUSTER_ANSICHT
1002
{
1000
Det03
1002
}
1001
AUSTER_FOLIE
1002
{
1000
NSB00028_S2
1002
}
  0
LINE
  5
AADF
330
20
100
AcDbEntity
  8
10000_FRONT
 62
     7
370
    20
100
AcDbLine
 39
0.35
 10
92.1744494662397
 20
197.030834316921
 30
0.0
 11
46.97444946623972
 21
197.030834316921
 31
0.0
1001
AUSTER_ANSICHT
1002
{
1000
Det03
1002
}
1001
AUSTER_FOLIE
1002
{
1000
NSB00028_S2
1002
}
  0
LINE
  5
AAE0
330
20
100
AcDbEntity
  8
10000_FRONT
 62
     7
370
    20
100
AcDbLine
 39
0.35
 10
92.1744494662397
 20
207.030834316921
 30
0.0
 11
92.1744494662397
 21
197.030834316921
 31
0.0
1001
AUSTER_ANSICHT
1002
{
1000
Det03
1002
}
1001
AUSTER_FOLIE
1002
{
1000
NSB00028_S2
1002
}
  0
LINE
  5
AAE1
330
20
100
AcDbEntity
  8
10000_FRONT
 62
     7
370
    20
100
AcDbLine
 39
0.45
 10
44.67444946623969
 20
225.530834316921
 30
0.0
 11
44.67444946623969
 21
207.030834316921
 31
0.0
1001
AUSTER_ANSICHT
1002
{
1000
Det03
1002
}
1001
AUSTER_FOLIE
1002
{
1000
NSB00028_S2
1002
}
  0
LINE
  5
AAE2
330
20
100
AcDbEntity
  8
10000_FRONT
 62
     7
370
    20
100
AcDbLine
 39
0.45
 10
43.17444946623971
 20
225.530834316921
 30
0.0
 11
44.67444946623969
 21
225.530834316921
 31
0.0
1001
AUSTER_ANSICHT
1002
{
1000
Det03
1002
}
1001
AUSTER_FOLIE
1002
{
1000
NSB00028_S2
1002
}
  0
LINE
  5
AAE3
330
20
100
AcDbEntity
  8
10000_FRONT
 62
     7
370
    20
100
AcDbLine
 39
0.45
 10
43.17444946623971
 20
207.030834316921
 30
0.0
 11
43.17444946623971
 21
225.530834316921
 31
0.0
1001
AUSTER_ANSICHT
1002
{
1000
Det03
1002
}
1001
AUSTER_FOLIE
1002
{
1000
NSB00028_S2
1002
}
  0
LINE
  5
AAE4
330
20
100
AcDbEntity
  8
10000_FRONT
 62
     7
370
    20
100
AcDbLine
 39
0.45
 10
95.47444946623972
 20
207.030834316921
 30
0.0
 11
95.97444946623971
 21
207.030834316921
 31
0.0
1001
AUSTER_ANSICHT
1002
{
1000
Det03
1002
}
1001
AUSTER_FOLIE
1002
{
1000
NSB00028_S2
1002
}
  0
LINE
  5
AAE5
330
20
100
AcDbEntity
  8
10000_FRONT
 62
     7
370
    20
100
AcDbLine
 39
0.45
 10
95.97444946623971
 20
225.530834316921
 30
0.0
 11
95.97444946623971
 21
207.030834316921
 31
0.0
1001
AUSTER_ANSICHT
1002
{
1000
Det03
1002
}
1001
AUSTER_FOLIE
1002
{
1000
NSB00028_S2
1002
}
  0
LINE
  5
AAE6
330
20
100
AcDbEntity
  8
10000_FRONT
 62
     7
370
    20
100
AcDbLine
 39
0.45
 10
94.47444946623972
 20
225.530834316921
 30
0.0
 11
95.97444946623971
 21
225.530834316921
 31
0.0
1001
AUSTER_ANSICHT
1002
{
1000
Det03
1002
}
1001
AUSTER_FOLIE
1002
{
1000
NSB00028_S2
1002
}
  0
LINE
  5
AAE7
330
20
100
AcDbEntity
  8
10000_FRONT
 62
     7
370
    20
100
AcDbLine
 39
0.45
 10
94.47444946623972
 20
207.030834316921
 30
0.0
 11
94.47444946623972
 21
225.530834316921
 31
0.0
1001
AUSTER_ANSICHT
1002
{
1000
Det03
1002
}
1001
AUSTER_FOLIE
1002
{
1000
NSB00028_S2
1002
}
  0
LINE
  5
AAE8
330
20
100
AcDbEntity
  8
10000_FRONT
 62
     7
370
    20
100
AcDbLine
 39
0.45
 10
77.57444946623968
 20
225.530834316921
 30
0.0
 11
79.07444946623968
 21
225.530834316921
 31
0.0
1001
AUSTER_ANSICHT
1002
{
1000
Det03
1002
}
1001
AUSTER_FOLIE
1002
{
1000
NSB00028_S2
1002
}
  0
LINE
  5
AAE9
330
20
100
AcDbEntity
  8
10000_FRONT
 62
     7
370
    20
100
AcDbLine
 39
0.45
 10
60.07444946623968
 20
225.530834316921
 30
0.0
 11
61.57444946623968
 21
225.530834316921
 31
0.0
1001
AUSTER_ANSICHT
1002
{
1000
Det03
1002
}
1001
AUSTER_FOLIE
1002
{
1000
NSB00028_S2
1002
}
  0
LINE
  5
AAEA
330
20
100
AcDbEntity
  8
10000_FRONT
 62
     7
370
    50
100
AcDbLine
 39
0.7
 10
96.97444946623972
 20
123.530834316921
 30
0.0
 11
96.97444946623972
 21
103.530834316921
 31
0.0
1001
AUSTER_ANSICHT
1002
{
1000
Det03
1002
}
1001
AUSTER_FOLIE
1002
{
1000
NSB00028_S2
1002
}
  0
LINE
  5
AAEB
330
20
100
AcDbEntity
  8
10000_FRONT
 62
     7
370
    50
100
AcDbLine
 39
0.7
 10
96.97444946623972
 20
142.030834316921
 30
0.0
 11
96.97444946623972
 21
123.530834316921
 31
0.0
1001
AUSTER_ANSICHT
1002
{
1000
Det03
1002
}
1001
AUSTER_FOLIE
1002
{
1000
NSB00028_S2
1002
}
  0
LINE
  5
AAEC
330
20
100
AcDbEntity
  8
10000_FRONT
 62
     7
370
    50
100
AcDbLine
 39
0.7
 10
96.97444946623972
 20
205.530834316921
 30
0.0
 11
96.97444946623972
 21
187.030834316921
 31
0.0
1001
AUSTER_ANSICHT
1002
{
1000
Det03
1002
}
1001
AUSTER_FOLIE
1002
{
1000
NSB00028_S2
1002
}
  0
LINE
  5
AAED
330
20
100
AcDbEntity
  8
10000_FRONT
 62
     7
370
    20
100
AcDbLine
 39
0.45
 10
95.47444946623972
 20
102.030834316921
 30
0.0
 11
43.67444946623971
 21
102.029834316921
 31
0.0
1001
AUSTER_ANSICHT
1002
{
1000
Det03
1002
}
1001
AUSTER_FOLIE
1002
{
1000
NSB00028_S2
1002
}
  0
LINE
  5
AAEE
330
20
100
AcDbEntity
  8
10000_FRONT
 62
     7
370
    50
100
AcDbLine
 39
0.7
 10
42.1744494662397
 20
187.030834316921
 30
0.0
 11
42.1744494662397
 21
205.530834316921
 31
0.0
1001
AUSTER_ANSICHT
1002
{
1000
Det03
1002
}
1001
AUSTER_FOLIE
1002
{
1000
NSB00028_S2
1002
}
  0
LINE
  5
AAEF
330
20
100
AcDbEntity
  8
10000_FRONT
 62
     7
370
    50
100
AcDbLine
 39
0.7
 10
42.1744494662397
 20
123.530834316921
 30
0.0
 11
42.1744494662397
 21
142.030834316921
 31
0.0
1001
AUSTER_ANSICHT
1002
{
1000
Det03
1002
}
1001
AUSTER_FOLIE
1002
{
1000
NSB00028_S2
1002
}
  0
LINE
  5
AAF0
330
20
100
AcDbEntity
  8
10000_FRONT
 62
     7
370
    20
100
AcDbLine
 39
0.45
 10
90.58144946623974
 20
163.204834316921
 30
0.0
 11
90.58144946623974
 21
165.937834316921
 31
0.0
1001
AUSTER_ANSICHT
1002
{
1000
Det03
1002
}
1001
AUSTER_FOLIE
1002
{
1000
NSB00028_S2
1002
}
  0
LINE
  5
AAF1
330
20
100
AcDbEntity
  8
10000_FRONT
 62
     7
370
    20
100
AcDbLine
 39
0.45
 10
69.57444946623969
 20
152.537834316921
 30
0.0
 11
69.57444946623969
 21
145.551834316921
 31
0.0
1001
AUSTER_ANSICHT
1002
{
1000
Det03
1002
}
1001
AUSTER_FOLIE
1002
{
1000
NSB00028_S2
1002
}
  0
LINE
  5
AAF2
330
20
100
AcDbEntity
  8
10000_FRONT
 62
     7
370
    20
100
AcDbLine
 39
0.45
 10
92.59244946623971
 20
151.539834316921
 30
0.0
 11
92.59244946623971
 21
145.484834316921
 31
0.0
1001
AUSTER_ANSICHT
1002
{
1000
Det03
1002
}
1001
AUSTER_FOLIE
1002
{
1000
NSB00028_S2
1002
}
  0
LINE
  5
AAF3
330
20
100
AcDbEntity
  8
10000_FRONT
 62
     7
370
    20
100
AcDbLine
 39
0.45
 10
89.67544946623974
 20
151.539834316921
 30
0.0
 11
92.59244946623971
 21
151.539834316921
 31
0.0
1001
AUSTER_ANSICHT
1002
{
1000
Det03
1002
}
1001
AUSTER_FOLIE
1002
{
1000
NSB00028_S2
1002
}
  0
LINE
  5
AAF4
330
20
100
AcDbEntity
  8
10000_FRONT
 62
     7
370
    20
100
AcDbLine
 39
0.45
 10
46.55544946623972
 20
151.539834316921
 30
0.0
 11
46.55544946623972
 21
145.484834316921
 31
0.0
1001
AUSTER_ANSICHT
1002
{
1000
Det03
1002
}
1001
AUSTER_FOLIE
1002
{
1000
NSB00028_S2
1002
}
  0
LINE
  5
AAF5
330
20
100
AcDbEntity
  8
10000_FRONT
 62
     7
370
    20
100
AcDbLine
 39
0.45
 10
49.47544946623974
 20
151.539834316921
 30
0.0
 11
46.55544946623972
 21
151.539834316921
 31
0.0
1001
AUSTER_ANSICHT
1002
{
1000
Det03
1002
}
1001
AUSTER_FOLIE
1002
{
1000
NSB00028_S2
1002
}
  0
LINE
  5
AAF6
330
20
100
AcDbEntity
  8
10000_FRONT
 62
     7
370
    20
100
AcDbLine
 39
0.45
 10
92.59244946623971
 20
145.484834316921
 30
0.0
 11
46.55544946623972
 21
145.484834316921
 31
0.0
1001
AUSTER_ANSICHT
1002
{
1000
Det03
1002
}
1001
AUSTER_FOLIE
1002
{
1000
NSB00028_S2
1002
}
  0
LINE
  5
AAF7
330
20
100
AcDbEntity
  8
10000_FRONT
 62
     7
370
    20
100
AcDbLine
 39
0.45
 10
89.67544946623974
 20
152.659834316921
 30
0.0
 11
89.67544946623974
 21
151.539834316921
 31
0.0
1001
AUSTER_ANSICHT
1002
{
1000
Det03
1002
}
1001
AUSTER_FOLIE
1002
{
1000
NSB00028_S2
1002
}
  0
LINE
  5
AAF8
330
20
100
AcDbEntity
  8
10000_FRONT
 62
     7
370
    20
100
AcDbLine
 39
0.45
 10
49.47544946623974
 20
152.659834316921
 30
0.0
 11
89.67544946623974
 21
152.659834316921
 31
0.0
1001
AUSTER_ANSICHT
1002
{
1000
Det03
1002
}
1001
AUSTER_FOLIE
1002
{
1000
NSB00028_S2
1002
}
  0
LINE
  5
AAF9
330
20
100
AcDbEntity
  8
10000_FRONT
 62
     7
370
    20
100
AcDbLine
 39
0.45
 10
49.47544946623974
 20
151.539834316921
 30
0.0
 11
49.47544946623974
 21
152.659834316921
 31
0.0
1001
AUSTER_ANSICHT
1002
{
1000
Det03
1002
}
1001
AUSTER_FOLIE
1002
{
1000
NSB00028_S2
1002
}
  0
LINE
  5
AAFA
330
20
100
AcDbEntity
  8
10000_FRONT
 62
     7
370
    20
100
AcDbLine
 39
0.45
 10
45.57444946623968
 20
155.028834316921
 30
0.0
 11
45.57444946623968
 21
158.230834316921
 31
0.0
1001
AUSTER_ANSICHT
1002
{
1000
Det03
1002
}
1001
AUSTER_FOLIE
1002
{
1000
NSB00028_S2
1002
}
  0
LINE
  5
AAFB
330
20
100
AcDbEntity
  8
10000_FRONT
 62
     7
370
    20
100
AcDbLine
 39
0.45
 10
50.77444946623973
 20
155.030834316921
 30
0.0
 11
45.57444946623968
 21
155.028834316921
 31
0.0
1001
AUSTER_ANSICHT
1002
{
1000
Det03
1002
}
1001
AUSTER_FOLIE
1002
{
1000
NSB00028_S2
1002
}
  0
LINE
  5
AAFC
330
20
100
AcDbEntity
  8
10000_FRONT
 62
     7
370
    20
100
AcDbLine
 39
0.45
 10
50.77444946623973
 20
158.230834316921
 30
0.0
 11
50.77444946623973
 21
155.030834316921
 31
0.0
1001
AUSTER_ANSICHT
1002
{
1000
Det03
1002
}
1001
AUSTER_FOLIE
1002
{
1000
NSB00028_S2
1002
}
  0
LINE
  5
AAFD
330
20
100
AcDbEntity
  8
10000_FRONT
 62
     7
370
    20
100
AcDbLine
 39
0.45
 10
45.57444946623968
 20
158.230834316921
 30
0.0
 11
50.77444946623973
 21
158.230834316921
 31
0.0
1001
AUSTER_ANSICHT
1002
{
1000
Det03
1002
}
1001
AUSTER_FOLIE
1002
{
1000
NSB00028_S2
1002
}
  0
LINE
  5
AAFE
330
20
100
AcDbEntity
  8
10000_FRONT
 62
     7
370
    20
100
AcDbLine
 39
0.45
 10
65.47944946623971
 20
182.180834316921
 30
0.0
 11
65.47944946623971
 21
180.231834316921
 31
0.0
1001
AUSTER_ANSICHT
1002
{
1000
Det03
1002
}
1001
AUSTER_FOLIE
1002
{
1000
NSB00028_S2
1002
}
  0
LINE
  5
AAFF
330
20
100
AcDbEntity
  8
10000_FRONT
 62
     7
370
    20
100
AcDbLine
 39
0.45
 10
61.66844946623974
 20
182.180834316921
 30
0.0
 11
61.66844946623974
 21
180.231834316921
 31
0.0
1001
AUSTER_ANSICHT
1002
{
1000
Det03
1002
}
1001
AUSTER_FOLIE
1002
{
1000
NSB00028_S2
1002
}
  0
LINE
  5
AB00
330
20
100
AcDbEntity
  8
10000_FRONT
 62
     7
370
    20
100
AcDbLine
 39
0.45
 10
51.07944946623973
 20
182.180834316921
 30
0.0
 11
51.07944946623973
 21
180.231834316921
 31
0.0
1001
AUSTER_ANSICHT
1002
{
1000
Det03
1002
}
1001
AUSTER_FOLIE
1002
{
1000
NSB00028_S2
1002
}
  0
LINE
  5
AB01
330
20
100
AcDbEntity
  8
10000_FRONT
 62
     7
370
    20
100
AcDbLine
 39
0.45
 10
47.26844946623976
 20
182.180834316921
 30
0.0
 11
47.26844946623976
 21
180.231834316921
 31
0.0
1001
AUSTER_ANSICHT
1002
{
1000
Det03
1002
}
1001
AUSTER_FOLIE
1002
{
1000
NSB00028_S2
1002
}
  0
LINE
  5
AB02
330
20
100
AcDbEntity
  8
10000_FRONT
 62
     7
370
    20
100
AcDbLine
 39
0.45
 10
61.66844946623974
 20
180.231834316921
 30
0.0
 11
65.47944946623971
 21
180.231834316921
 31
0.0
1001
AUSTER_ANSICHT
1002
{
1000
Det03
1002
}
1001
AUSTER_FOLIE
1002
{
1000
NSB00028_S2
1002
}
  0
LINE
  5
AB03
330
20
100
AcDbEntity
  8
10000_FRONT
 62
     7
370
    20
100
AcDbLine
 39
0.45
 10
61.66844946623974
 20
182.180834316921
 30
0.0
 11
65.47944946623971
 21
182.180834316921
 31
0.0
1001
AUSTER_ANSICHT
1002
{
1000
Det03
1002
}
1001
AUSTER_FOLIE
1002
{
1000
NSB00028_S2
1002
}
  0
LINE
  5
AB04
330
20
100
AcDbEntity
  8
10000_FRONT
 62
     7
370
    20
100
AcDbLine
 39
0.45
 10
47.26844946623976
 20
180.231834316921
 30
0.0
 11
51.07944946623973
 21
180.231834316921
 31
0.0
1001
AUSTER_ANSICHT
1002
{
1000
Det03
1002
}
1001
AUSTER_FOLIE
1002
{
1000
NSB00028_S2
1002
}
  0
LINE
  5
AB05
330
20
100
AcDbEntity
  8
10000_FRONT
 62
     7
370
    20
100
AcDbLine
 39
0.45
 10
47.26844946623976
 20
182.180834316921
 30
0.0
 11
51.07944946623973
 21
182.180834316921
 31
0.0
1001
AUSTER_ANSICHT
1002
{
1000
Det03
1002
}
1001
AUSTER_FOLIE
1002
{
1000
NSB00028_S2
1002
}
  0
LINE
  5
AB06
330
20
100
AcDbEntity
  8
10000_FRONT
 62
     7
370
    50
100
AcDbLine
 39
0.7
 10
96.97444946623972
 20
187.030834316921
 30
0.0
 11
96.97444946623972
 21
142.030834316921
 31
0.0
1001
AUSTER_ANSICHT
1002
{
1000
Det03
1002
}
1001
AUSTER_FOLIE
1002
{
1000
NSB00028_S2
1002
}
  0
LINE
  5
AB07
330
20
100
AcDbEntity
  8
10000_FRONT
 62
     7
370
    50
100
AcDbLine
 39
0.7
 10
42.1744494662397
 20
187.030834316921
 30
0.0
 11
42.1744494662397
 21
142.030834316921
 31
0.0
1001
AUSTER_ANSICHT
1002
{
1000
Det03
1002
}
1001
AUSTER_FOLIE
1002
{
1000
NSB00028_S2
1002
}
  0
LINE
  5
AB08
330
20
100
AcDbEntity
  8
10000_FRONT
 62
     7
370
    20
100
AcDbLine
 39
0.45
 10
42.1744494662397
 20
187.030834316921
 30
0.0
 11
96.97444946623972
 21
187.030834316921
 31
0.0
1001
AUSTER_ANSICHT
1002
{
1000
Det03
1002
}
1001
AUSTER_FOLIE
1002
{
1000
NSB00028_S2
1002
}
  0
LINE
  5
AB09
330
20
100
AcDbEntity
  8
10000_FRONT
 62
     7
370
    20
100
AcDbLine
 39
0.45
 10
86.05944946623969
 20
216.4008343169211
 30
0.0
 11
86.05944946623969
 21
212.899834316921
 31
0.0
1001
AUSTER_ANSICHT
1002
{
1000
Det03
1002
}
1001
AUSTER_FOLIE
1002
{
1000
NSB00028_S2
1002
}
  0
LINE
  5
AB0A
330
20
100
AcDbEntity
  8
10000_FRONT
 62
     7
370
    20
100
AcDbLine
 39
0.45
 10
87.48944946623977
 20
212.899834316921
 30
0.0
 11
87.48944946623977
 21
216.4008343169211
 31
0.0
1001
AUSTER_ANSICHT
1002
{
1000
Det03
1002
}
1001
AUSTER_FOLIE
1002
{
1000
NSB00028_S2
1002
}
  0
LINE
  5
AB0B
330
20
100
AcDbEntity
  8
10000_FRONT
 62
     7
370
    20
100
AcDbLine
 39
0.45
 10
90.55344946623973
 20
212.899834316921
 30
0.0
 11
87.48944946623977
 21
212.899834316921
 31
0.0
1001
AUSTER_ANSICHT
1002
{
1000
Det03
1002
}
1001
AUSTER_FOLIE
1002
{
1000
NSB00028_S2
1002
}
  0
LINE
  5
AB0C
330
20
100
AcDbEntity
  8
10000_FRONT
 62
     7
370
    20
100
AcDbLine
 39
0.45
 10
87.48944946623977
 20
211.690834316921
 30
0.0
 11
90.55344946623973
 21
211.690834316921
 31
0.0
1001
AUSTER_ANSICHT
1002
{
1000
Det03
1002
}
1001
AUSTER_FOLIE
1002
{
1000
NSB00028_S2
1002
}
  0
LINE
  5
AB0D
330
20
100
AcDbEntity
  8
10000_FRONT
 62
     7
370
    20
100
AcDbLine
 39
0.45
 10
87.48944946623977
 20
208.1898343169211
 30
0.0
 11
87.48944946623977
 21
211.690834316921
 31
0.0
1001
AUSTER_ANSICHT
1002
{
1000
Det03
1002
}
1001
AUSTER_FOLIE
1002
{
1000
NSB00028_S2
1002
}
  0
LINE
  5
AB0E
330
20
100
AcDbEntity
  8
10000_FRONT
 62
     7
370
    20
100
AcDbLine
 39
0.45
 10
86.05944946623969
 20
211.690834316921
 30
0.0
 11
86.05944946623969
 21
208.1898343169211
 31
0.0
1001
AUSTER_ANSICHT
1002
{
1000
Det03
1002
}
1001
AUSTER_FOLIE
1002
{
1000
NSB00028_S2
1002
}
  0
LINE
  5
AB0F
330
20
100
AcDbEntity
  8
10000_FRONT
 62
     7
370
    20
100
AcDbLine
 39
0.45
 10
82.99444946623976
 20
211.690834316921
 30
0.0
 11
86.05944946623969
 21
211.690834316921
 31
0.0
1001
AUSTER_ANSICHT
1002
{
1000
Det03
1002
}
1001
AUSTER_FOLIE
1002
{
1000
NSB00028_S2
1002
}
  0
LINE
  5
AB10
330
20
100
AcDbEntity
  8
10000_FRONT
 62
     7
370
    20
100
AcDbLine
 39
0.45
 10
86.05944946623969
 20
212.899834316921
 30
0.0
 11
82.99444946623976
 21
212.899834316921
 31
0.0
1001
AUSTER_ANSICHT
1002
{
1000
Det03
1002
}
1001
AUSTER_FOLIE
1002
{
1000
NSB00028_S2
1002
}
  0
LINE
  5
AB11
330
20
100
AcDbEntity
  8
10000_FRONT
 62
     7
370
    20
100
AcDbLine
 39
0.45
 10
68.85944946623975
 20
216.4008343169211
 30
0.0
 11
68.85944946623975
 21
212.899834316921
 31
0.0
1001
AUSTER_ANSICHT
1002
{
1000
Det03
1002
}
1001
AUSTER_FOLIE
1002
{
1000
NSB00028_S2
1002
}
  0
LINE
  5
AB12
330
20
100
AcDbEntity
  8
10000_FRONT
 62
     7
370
    20
100
AcDbLine
 39
0.45
 10
70.28944946623972
 20
212.899834316921
 30
0.0
 11
70.28944946623972
 21
216.4008343169211
 31
0.0
1001
AUSTER_ANSICHT
1002
{
1000
Det03
1002
}
1001
AUSTER_FOLIE
1002
{
1000
NSB00028_S2
1002
}
  0
LINE
  5
AB13
330
20
100
AcDbEntity
  8
10000_FRONT
 62
     7
370
    20
100
AcDbLine
 39
0.45
 10
73.35344946623973
 20
212.899834316921
 30
0.0
 11
70.28944946623972
 21
212.899834316921
 31
0.0
1001
AUSTER_ANSICHT
1002
{
1000
Det03
1002
}
1001
AUSTER_FOLIE
1002
{
1000
NSB00028_S2
1002
}
  0
LINE
  5
AB14
330
20
100
AcDbEntity
  8
10000_FRONT
 62
     7
370
    20
100
AcDbLine
 39
0.45
 10
70.28944946623972
 20
211.690834316921
 30
0.0
 11
73.35344946623973
 21
211.690834316921
 31
0.0
1001
AUSTER_ANSICHT
1002
{
1000
Det03
1002
}
1001
AUSTER_FOLIE
1002
{
1000
NSB00028_S2
1002
}
  0
LINE
  5
AB15
330
20
100
AcDbEntity
  8
10000_FRONT
 62
     7
370
    20
100
AcDbLine
 39
0.45
 10
70.28944946623972
 20
208.1898343169211
 30
0.0
 11
70.28944946623972
 21
211.690834316921
 31
0.0
1001
AUSTER_ANSICHT
1002
{
1000
Det03
1002
}
1001
AUSTER_FOLIE
1002
{
1000
NSB00028_S2
1002
}
  0
LINE
  5
AB16
330
20
100
AcDbEntity
  8
10000_FRONT
 62
     7
370
    20
100
AcDbLine
 39
0.45
 10
68.85944946623975
 20
211.690834316921
 30
0.0
 11
68.85944946623975
 21
208.1898343169211
 31
0.0
1001
AUSTER_ANSICHT
1002
{
1000
Det03
1002
}
1001
AUSTER_FOLIE
1002
{
1000
NSB00028_S2
1002
}
  0
LINE
  5
AB17
330
20
100
AcDbEntity
  8
10000_FRONT
 62
     7
370
    20
100
AcDbLine
 39
0.45
 10
65.79444946623971
 20
211.690834316921
 30
0.0
 11
68.85944946623975
 21
211.690834316921
 31
0.0
1001
AUSTER_ANSICHT
1002
{
1000
Det03
1002
}
1001
AUSTER_FOLIE
1002
{
1000
NSB00028_S2
1002
}
  0
LINE
  5
AB18
330
20
100
AcDbEntity
  8
10000_FRONT
 62
     7
370
    20
100
AcDbLine
 39
0.45
 10
68.85944946623975
 20
212.899834316921
 30
0.0
 11
65.79444946623971
 21
212.899834316921
 31
0.0
1001
AUSTER_ANSICHT
1002
{
1000
Det03
1002
}
1001
AUSTER_FOLIE
1002
{
1000
NSB00028_S2
1002
}
  0
LINE
  5
AB19
330
20
100
AcDbEntity
  8
10000_FRONT
 62
     7
370
    20
100
AcDbLine
 39
0.45
 10
51.65944946623972
 20
216.4008343169211
 30
0.0
 11
51.65944946623972
 21
212.899834316921
 31
0.0
1001
AUSTER_ANSICHT
1002
{
1000
Det03
1002
}
1001
AUSTER_FOLIE
1002
{
1000
NSB00028_S2
1002
}
  0
LINE
  5
AB1A
330
20
100
AcDbEntity
  8
10000_FRONT
 62
     7
370
    20
100
AcDbLine
 39
0.45
 10
53.08944946623973
 20
212.899834316921
 30
0.0
 11
53.08944946623973
 21
216.4008343169211
 31
0.0
1001
AUSTER_ANSICHT
1002
{
1000
Det03
1002
}
1001
AUSTER_FOLIE
1002
{
1000
NSB00028_S2
1002
}
  0
LINE
  5
AB1B
330
20
100
AcDbEntity
  8
10000_FRONT
 62
     7
370
    20
100
AcDbLine
 39
0.45
 10
56.15344946623975
 20
212.899834316921
 30
0.0
 11
53.08944946623973
 21
212.899834316921
 31
0.0
1001
AUSTER_ANSICHT
1002
{
1000
Det03
1002
}
1001
AUSTER_FOLIE
1002
{
1000
NSB00028_S2
1002
}
  0
LINE
  5
AB1C
330
20
100
AcDbEntity
  8
10000_FRONT
 62
     7
370
    20
100
AcDbLine
 39
0.45
 10
53.08944946623973
 20
211.690834316921
 30
0.0
 11
56.15344946623975
 21
211.690834316921
 31
0.0
1001
AUSTER_ANSICHT
1002
{
1000
Det03
1002
}
1001
AUSTER_FOLIE
1002
{
1000
NSB00028_S2
1002
}
  0
LINE
  5
AB1D
330
20
100
AcDbEntity
  8
10000_FRONT
 62
     7
370
    20
100
AcDbLine
 39
0.45
 10
53.08944946623973
 20
208.1898343169211
 30
0.0
 11
53.08944946623973
 21
211.690834316921
 31
0.0
1001
AUSTER_ANSICHT
1002
{
1000
Det03
1002
}
1001
AUSTER_FOLIE
1002
{
1000
NSB00028_S2
1002
}
  0
LINE
  5
AB1E
330
20
100
AcDbEntity
  8
10000_FRONT
 62
     7
370
    20
100
AcDbLine
 39
0.45
 10
51.65944946623972
 20
211.690834316921
 30
0.0
 11
51.65944946623972
 21
208.1898343169211
 31
0.0
1001
AUSTER_ANSICHT
1002
{
1000
Det03
1002
}
1001
AUSTER_FOLIE
1002
{
1000
NSB00028_S2
1002
}
  0
LINE
  5
AB1F
330
20
100
AcDbEntity
  8
10000_FRONT
 62
     7
370
    20
100
AcDbLine
 39
0.45
 10
48.59444946623971
 20
211.690834316921
 30
0.0
 11
51.65944946623972
 21
211.690834316921
 31
0.0
1001
AUSTER_ANSICHT
1002
{
1000
Det03
1002
}
1001
AUSTER_FOLIE
1002
{
1000
NSB00028_S2
1002
}
  0
LINE
  5
AB20
330
20
100
AcDbEntity
  8
10000_FRONT
 62
     7
370
    20
100
AcDbLine
 39
0.45
 10
51.65944946623972
 20
212.899834316921
 30
0.0
 11
48.59444946623971
 21
212.899834316921
 31
0.0
1001
AUSTER_ANSICHT
1002
{
1000
Det03
1002
}
1001
AUSTER_FOLIE
1002
{
1000
NSB00028_S2
1002
}
  0
LINE
  5
AB21
330
20
100
AcDbEntity
  8
10000_FRONT
 62
     7
370
    20
100
AcDbLine
 39
0.45
 10
86.05944946623969
 20
115.902834316921
 30
0.0
 11
86.05944946623969
 21
112.400834316921
 31
0.0
1001
AUSTER_ANSICHT
1002
{
1000
Det03
1002
}
1001
AUSTER_FOLIE
1002
{
1000
NSB00028_S2
1002
}
  0
LINE
  5
AB22
330
20
100
AcDbEntity
  8
10000_FRONT
 62
     7
370
    20
100
AcDbLine
 39
0.45
 10
87.48944946623977
 20
112.400834316921
 30
0.0
 11
87.48944946623977
 21
115.902834316921
 31
0.0
1001
AUSTER_ANSICHT
1002
{
1000
Det03
1002
}
1001
AUSTER_FOLIE
1002
{
1000
NSB00028_S2
1002
}
  0
LINE
  5
AB23
330
20
100
AcDbEntity
  8
10000_FRONT
 62
     7
370
    20
100
AcDbLine
 39
0.45
 10
90.55344946623973
 20
112.400834316921
 30
0.0
 11
87.48944946623977
 21
112.400834316921
 31
0.0
1001
AUSTER_ANSICHT
1002
{
1000
Det03
1002
}
1001
AUSTER_FOLIE
1002
{
1000
NSB00028_S2
1002
}
  0
LINE
  5
AB24
330
20
100
AcDbEntity
  8
10000_FRONT
 62
     7
370
    20
100
AcDbLine
 39
0.45
 10
87.48944946623977
 20
111.192834316921
 30
0.0
 11
90.55344946623973
 21
111.192834316921
 31
0.0
1001
AUSTER_ANSICHT
1002
{
1000
Det03
1002
}
1001
AUSTER_FOLIE
1002
{
1000
NSB00028_S2
1002
}
  0
LINE
  5
AB25
330
20
100
AcDbEntity
  8
10000_FRONT
 62
     7
370
    20
100
AcDbLine
 39
0.45
 10
87.48944946623977
 20
107.691834316921
 30
0.0
 11
87.48944946623977
 21
111.192834316921
 31
0.0
1001
AUSTER_ANSICHT
1002
{
1000
Det03
1002
}
1001
AUSTER_FOLIE
1002
{
1000
NSB00028_S2
1002
}
  0
LINE
  5
AB26
330
20
100
AcDbEntity
  8
10000_FRONT
 62
     7
370
    20
100
AcDbLine
 39
0.45
 10
86.05944946623969
 20
111.192834316921
 30
0.0
 11
86.05944946623969
 21
107.691834316921
 31
0.0
1001
AUSTER_ANSICHT
1002
{
1000
Det03
1002
}
1001
AUSTER_FOLIE
1002
{
1000
NSB00028_S2
1002
}
  0
LINE
  5
AB27
330
20
100
AcDbEntity
  8
10000_FRONT
 62
     7
370
    20
100
AcDbLine
 39
0.45
 10
82.99444946623976
 20
111.192834316921
 30
0.0
 11
86.05944946623969
 21
111.192834316921
 31
0.0
1001
AUSTER_ANSICHT
1002
{
1000
Det03
1002
}
1001
AUSTER_FOLIE
1002
{
1000
NSB00028_S2
1002
}
  0
LINE
  5
AB28
330
20
100
AcDbEntity
  8
10000_FRONT
 62
     7
370
    20
100
AcDbLine
 39
0.45
 10
86.05944946623969
 20
112.400834316921
 30
0.0
 11
82.99444946623976
 21
112.400834316921
 31
0.0
1001
AUSTER_ANSICHT
1002
{
1000
Det03
1002
}
1001
AUSTER_FOLIE
1002
{
1000
NSB00028_S2
1002
}
  0
LINE
  5
AB29
330
20
100
AcDbEntity
  8
10000_FRONT
 62
     7
370
    20
100
AcDbLine
 39
0.45
 10
68.85944946623975
 20
115.902834316921
 30
0.0
 11
68.85944946623975
 21
112.400834316921
 31
0.0
1001
AUSTER_ANSICHT
1002
{
1000
Det03
1002
}
1001
AUSTER_FOLIE
1002
{
1000
NSB00028_S2
1002
}
  0
LINE
  5
AB2A
330
20
100
AcDbEntity
  8
10000_FRONT
 62
     7
370
    20
100
AcDbLine
 39
0.45
 10
70.28944946623972
 20
112.400834316921
 30
0.0
 11
70.28944946623972
 21
115.902834316921
 31
0.0
1001
AUSTER_ANSICHT
1002
{
1000
Det03
1002
}
1001
AUSTER_FOLIE
1002
{
1000
NSB00028_S2
1002
}
  0
LINE
  5
AB2B
330
20
100
AcDbEntity
  8
10000_FRONT
 62
     7
370
    20
100
AcDbLine
 39
0.45
 10
73.35344946623973
 20
112.400834316921
 30
0.0
 11
70.28944946623972
 21
112.400834316921
 31
0.0
1001
AUSTER_ANSICHT
1002
{
1000
Det03
1002
}
1001
AUSTER_FOLIE
1002
{
1000
NSB00028_S2
1002
}
  0
LINE
  5
AB2C
330
20
100
AcDbEntity
  8
10000_FRONT
 62
     7
370
    20
100
AcDbLine
 39
0.45
 10
70.28944946623972
 20
111.192834316921
 30
0.0
 11
73.35344946623973
 21
111.192834316921
 31
0.0
1001
AUSTER_ANSICHT
1002
{
1000
Det03
1002
}
1001
AUSTER_FOLIE
1002
{
1000
NSB00028_S2
1002
}
  0
LINE
  5
AB2D
330
20
100
AcDbEntity
  8
10000_FRONT
 62
     7
370
    20
100
AcDbLine
 39
0.45
 10
70.28944946623972
 20
107.691834316921
 30
0.0
 11
70.28944946623972
 21
111.192834316921
 31
0.0
1001
AUSTER_ANSICHT
1002
{
1000
Det03
1002
}
1001
AUSTER_FOLIE
1002
{
1000
NSB00028_S2
1002
}
  0
LINE
  5
AB2E
330
20
100
AcDbEntity
  8
10000_FRONT
 62
     7
370
    20
100
AcDbLine
 39
0.45
 10
68.85944946623975
 20
111.192834316921
 30
0.0
 11
68.85944946623975
 21
107.691834316921
 31
0.0
1001
AUSTER_ANSICHT
1002
{
1000
Det03
1002
}
1001
AUSTER_FOLIE
1002
{
1000
NSB00028_S2
1002
}
  0
LINE
  5
AB2F
330
20
100
AcDbEntity
  8
10000_FRONT
 62
     7
370
    20
100
AcDbLine
 39
0.45
 10
65.79444946623971
 20
111.192834316921
 30
0.0
 11
68.85944946623975
 21
111.192834316921
 31
0.0
1001
AUSTER_ANSICHT
1002
{
1000
Det03
1002
}
1001
AUSTER_FOLIE
1002
{
1000
NSB00028_S2
1002
}
  0
LINE
  5
AB30
330
20
100
AcDbEntity
  8
10000_FRONT
 62
     7
370
    20
100
AcDbLine
 39
0.45
 10
68.85944946623975
 20
112.400834316921
 30
0.0
 11
65.79444946623971
 21
112.400834316921
 31
0.0
1001
AUSTER_ANSICHT
1002
{
1000
Det03
1002
}
1001
AUSTER_FOLIE
1002
{
1000
NSB00028_S2
1002
}
  0
LINE
  5
AB31
330
20
100
AcDbEntity
  8
10000_FRONT
 62
     7
370
    20
100
AcDbLine
 39
0.45
 10
51.65944946623972
 20
115.902834316921
 30
0.0
 11
51.65944946623972
 21
112.400834316921
 31
0.0
1001
AUSTER_ANSICHT
1002
{
1000
Det03
1002
}
1001
AUSTER_FOLIE
1002
{
1000
NSB00028_S2
1002
}
  0
LINE
  5
AB32
330
20
100
AcDbEntity
  8
10000_FRONT
 62
     7
370
    20
100
AcDbLine
 39
0.45
 10
53.08944946623973
 20
112.400834316921
 30
0.0
 11
53.08944946623973
 21
115.902834316921
 31
0.0
1001
AUSTER_ANSICHT
1002
{
1000
Det03
1002
}
1001
AUSTER_FOLIE
1002
{
1000
NSB00028_S2
1002
}
  0
LINE
  5
AB33
330
20
100
AcDbEntity
  8
10000_FRONT
 62
     7
370
    20
100
AcDbLine
 39
0.45
 10
56.15344946623975
 20
112.400834316921
 30
0.0
 11
53.08944946623973
 21
112.400834316921
 31
0.0
1001
AUSTER_ANSICHT
1002
{
1000
Det03
1002
}
1001
AUSTER_FOLIE
1002
{
1000
NSB00028_S2
1002
}
  0
LINE
  5
AB34
330
20
100
AcDbEntity
  8
10000_FRONT
 62
     7
370
    20
100
AcDbLine
 39
0.45
 10
53.08944946623973
 20
111.192834316921
 30
0.0
 11
56.15344946623975
 21
111.192834316921
 31
0.0
1001
AUSTER_ANSICHT
1002
{
1000
Det03
1002
}
1001
AUSTER_FOLIE
1002
{
1000
NSB00028_S2
1002
}
  0
LINE
  5
AB35
330
20
100
AcDbEntity
  8
10000_FRONT
 62
     7
370
    20
100
AcDbLine
 39
0.45
 10
53.08944946623973
 20
107.691834316921
 30
0.0
 11
53.08944946623973
 21
111.192834316921
 31
0.0
1001
AUSTER_ANSICHT
1002
{
1000
Det03
1002
}
1001
AUSTER_FOLIE
1002
{
1000
NSB00028_S2
1002
}
  0
LINE
  5
AB36
330
20
100
AcDbEntity
  8
10000_FRONT
 62
     7
370
    20
100
AcDbLine
 39
0.45
 10
51.65944946623972
 20
111.192834316921
 30
0.0
 11
51.65944946623972
 21
107.691834316921
 31
0.0
1001
AUSTER_ANSICHT
1002
{
1000
Det03
1002
}
1001
AUSTER_FOLIE
1002
{
1000
NSB00028_S2
1002
}
  0
LINE
  5
AB37
330
20
100
AcDbEntity
  8
10000_FRONT
 62
     7
370
    20
100
AcDbLine
 39
0.45
 10
48.59444946623971
 20
111.192834316921
 30
0.0
 11
51.65944946623972
 21
111.192834316921
 31
0.0
1001
AUSTER_ANSICHT
1002
{
1000
Det03
1002
}
1001
AUSTER_FOLIE
1002
{
1000
NSB00028_S2
1002
}
  0
LINE
  5
AB38
330
20
100
AcDbEntity
  8
10000_FRONT
 62
     7
370
    20
100
AcDbLine
 39
0.45
 10
51.65944946623972
 20
112.400834316921
 30
0.0
 11
48.59444946623971
 21
112.400834316921
 31
0.0
1001
AUSTER_ANSICHT
1002
{
1000
Det03
1002
}
1001
AUSTER_FOLIE
1002
{
1000
NSB00028_S2
1002
}
  0
LINE
  5
AB39
330
20
100
AcDbEntity
  8
11000_Left
  6
DASHED
 62
     7
370
    15
100
AcDbLine
 39
0.35
 10
157.0509272874878
 20
146.729834316921
 30
-1.0
 11
157.0509272874878
 21
151.879834316921
 31
-1.0
1001
AUSTER_ANSICHT
1002
{
1000
Det03
1002
}
1001
AUSTER_FOLIE
1002
{
1000
NSB00028_S2
1002
}
  0
LINE
  5
AB3A
330
20
100
AcDbEntity
  8
11000_Left
  6
DASHED
 62
     7
370
    15
100
AcDbLine
 39
0.35
 10
157.0509272874878
 20
182.029834316921
 30
-1.0
 11
157.0509272874878
 21
176.879834316921
 31
-1.0
1001
AUSTER_ANSICHT
1002
{
1000
Det03
1002
}
1001
AUSTER_FOLIE
1002
{
1000
NSB00028_S2
1002
}
  0
LINE
  5
AB3B
330
20
100
AcDbEntity
  8
11000_Left
 62
     7
370
    50
100
AcDbLine
 39
0.7
 10
156.0509272874878
 20
182.029834316921
 30
-1.0
 11
157.0509272874878
 21
182.029834316921
 31
-1.0
1001
AUSTER_ANSICHT
1002
{
1000
Det03
1002
}
1001
AUSTER_FOLIE
1002
{
1000
NSB00028_S2
1002
}
  0
LINE
  5
AB3C
330
20
100
AcDbEntity
  8
11000_Left
 62
     7
370
    50
100
AcDbLine
 39
0.7
 10
156.0509272874878
 20
146.729834316921
 30
-1.0
 11
157.0509272874878
 21
146.729834316921
 31
-1.0
1001
AUSTER_ANSICHT
1002
{
1000
Det03
1002
}
1001
AUSTER_FOLIE
1002
{
1000
NSB00028_S2
1002
}
  0
LINE
  5
AB3D
330
20
100
AcDbEntity
  8
11000_Left
  6
DASHED
 62
     7
370
    15
100
AcDbLine
 39
0.35
 10
156.0509272874878
 20
149.229834316921
 30
-1.0
 11
156.0509272874878
 21
146.729834316921
 31
-1.0
1001
AUSTER_ANSICHT
1002
{
1000
Det03
1002
}
1001
AUSTER_FOLIE
1002
{
1000
NSB00028_S2
1002
}
  0
LINE
  5
AB3E
330
20
100
AcDbEntity
  8
11000_Left
  6
DASHED
 62
     7
370
    15
100
AcDbLine
 39
0.35
 10
156.0509272874878
 20
179.529834316921
 30
-1.0
 11
156.0509272874878
 21
182.029834316921
 31
-1.0
1001
AUSTER_ANSICHT
1002
{
1000
Det03
1002
}
1001
AUSTER_FOLIE
1002
{
1000
NSB00028_S2
1002
}
  0
LINE
  5
AB3F
330
20
100
AcDbEntity
  8
11000_Left
  6
DASHED
 62
     7
370
    15
100
AcDbLine
 39
0.35
 10
152.0509272874878
 20
173.879834316921
 30
-1.0
 11
152.0509272874878
 21
164.379834316921
 31
-1.0
1001
AUSTER_ANSICHT
1002
{
1000
Det03
1002
}
1001
AUSTER_FOLIE
1002
{
1000
NSB00028_S2
1002
}
  0
LINE
  5
AB40
330
20
100
AcDbEntity
  8
11000_Left
  6
DASHED
 62
     7
370
    15
100
AcDbLine
 39
0.35
 10
152.0509272874878
 20
154.879834316921
 30
-1.0
 11
152.0509272874878
 21
164.379834316921
 31
-1.0
1001
AUSTER_ANSICHT
1002
{
1000
Det03
1002
}
1001
AUSTER_FOLIE
1002
{
1000
NSB00028_S2
1002
}
  0
LINE
  5
AB41
330
20
100
AcDbEntity
  8
11000_Left
  6
DASHED
 62
     7
370
    15
100
AcDbLine
 39
0.35
 10
155.0509272874878
 20
178.779834316921
 30
-1.0
 11
155.0509272874878
 21
179.029834316921
 31
-1.0
1001
AUSTER_ANSICHT
1002
{
1000
Det03
1002
}
1001
AUSTER_FOLIE
1002
{
1000
NSB00028_S2
1002
}
  0
LINE
  5
AB42
330
20
100
AcDbEntity
  8
11000_Left
  6
DASHED
 62
     7
370
    15
100
AcDbLine
 39
0.35
 10
155.5509272874878
 20
179.029834316921
 30
-1.0
 11
155.0509272874878
 21
179.029834316921
 31
-1.0
1001
AUSTER_ANSICHT
1002
{
1000
Det03
1002
}
1001
AUSTER_FOLIE
1002
{
1000
NSB00028_S2
1002
}
  0
LINE
  5
AB43
330
20
100
AcDbEntity
  8
11000_Left
  6
DASHED
 62
     7
370
    15
100
AcDbLine
 39
0.35
 10
157.0509272874878
 20
176.879834316921
 30
-1.0
 11
155.0509272874878
 21
174.879834316921
 31
-1.0
1001
AUSTER_ANSICHT
1002
{
1000
Det03
1002
}
1001
AUSTER_FOLIE
1002
{
1000
NSB00028_S2
1002
}
  0
LINE
  5
AB44
330
20
100
AcDbEntity
  8
11000_Left
  6
DASHED
 62
     7
370
    15
100
AcDbLine
 39
0.35
 10
155.0509272874878
 20
149.979834316921
 30
-1.0
 11
155.0509272874878
 21
149.729834316921
 31
-1.0
1001
AUSTER_ANSICHT
1002
{
1000
Det03
1002
}
1001
AUSTER_FOLIE
1002
{
1000
NSB00028_S2
1002
}
  0
LINE
  5
AB45
330
20
100
AcDbEntity
  8
11000_Left
  6
DASHED
 62
     7
370
    15
100
AcDbLine
 39
0.35
 10
155.5509272874878
 20
149.729834316921
 30
-1.0
 11
155.0509272874878
 21
149.729834316921
 31
-1.0
1001
AUSTER_ANSICHT
1002
{
1000
Det03
1002
}
1001
AUSTER_FOLIE
1002
{
1000
NSB00028_S2
1002
}
  0
LINE
  5
AB46
330
20
100
AcDbEntity
  8
11000_Left
  6
DASHED
 62
     7
370
    15
100
AcDbLine
 39
0.35
 10
157.0509272874878
 20
151.879834316921
 30
-1.0
 11
155.0509272874878
 21
153.879834316921
 31
-1.0
1001
AUSTER_ANSICHT
1002
{
1000
Det03
1002
}
1001
AUSTER_FOLIE
1002
{
1000
NSB00028_S2
1002
}
  0
LINE
  5
AB47
330
20
100
AcDbEntity
  8
11000_Left
  6
DASHED
 62
     7
370
    15
100
AcDbLine
 39
0.35
 10
153.0509272874878
 20
174.879834316921
 30
-1.0
 11
155.0509272874878
 21
174.879834316921
 31
-1.0
1001
AUSTER_ANSICHT
1002
{
1000
Det03
1002
}
1001
AUSTER_FOLIE
1002
{
1000
NSB00028_S2
1002
}
  0
LINE
  5
AB48
330
20
100
AcDbEntity
  8
11000_Left
  6
DASHED
 62
     7
370
    15
100
AcDbLine
 39
0.35
 10
153.0509272874878
 20
153.879834316921
 30
-1.0
 11
155.0509272874878
 21
153.879834316921
 31
-1.0
1001
AUSTER_ANSICHT
1002
{
1000
Det03
1002
}
1001
AUSTER_FOLIE
1002
{
1000
NSB00028_S2
1002
}
  0
LINE
  5
AB49
330
20
100
AcDbEntity
  8
11000_Left
  6
DASHED
 62
     7
370
    15
100
AcDbLine
 39
0.35
 10
153.1509272874878
 20
151.879834316921
 30
0.0
 11
150.5509272874878
 21
151.879834316921
 31
0.0
1001
AUSTER_ANSICHT
1002
{
1000
Det03
1002
}
1001
AUSTER_FOLIE
1002
{
1000
NSB00028_S2
1002
}
  0
LINE
  5
AB4A
330
20
100
AcDbEntity
  8
11000_Left
  6
DASHED
 62
     7
370
    15
100
AcDbLine
 39
0.35
 10
149.5509272874878
 20
175.879834316921
 30
0.0
 11
149.5509272874878
 21
152.879834316921
 31
0.0
1001
AUSTER_ANSICHT
1002
{
1000
Det03
1002
}
1001
AUSTER_FOLIE
1002
{
1000
NSB00028_S2
1002
}
  0
LINE
  5
AB4B
330
20
100
AcDbEntity
  8
11000_Left
  6
DASHED
 62
     7
370
    15
100
AcDbLine
 39
0.35
 10
153.1509272874878
 20
176.879834316921
 30
0.0
 11
150.5509272874878
 21
176.879834316921
 31
0.0
1001
AUSTER_ANSICHT
1002
{
1000
Det03
1002
}
1001
AUSTER_FOLIE
1002
{
1000
NSB00028_S2
1002
}
  0
LINE
  5
AB58
330
20
100
AcDbEntity
  8
10000_FRONT
 62
     7
370
    20
100
AcDbLine
 39
0.45
 10
79.07444946623968
 20
225.530834316921
 30
0.0
 11
79.07444946623968
 21
207.7998343169211
 31
0.0
1001
AUSTER_ANSICHT
1002
{
1000
Det03
1002
}
1001
AUSTER_FOLIE
1002
{
1000
NSB00028_S2
1002
}
  0
LINE
  5
AB59
330
20
100
AcDbEntity
  8
10000_FRONT
 62
     7
370
    20
100
AcDbLine
 39
0.45
 10
77.57444946623968
 20
225.530834316921
 30
0.0
 11
77.57444946623968
 21
207.7998343169211
 31
0.0
1001
AUSTER_ANSICHT
1002
{
1000
Det03
1002
}
1001
AUSTER_FOLIE
1002
{
1000
NSB00028_S2
1002
}
  0
LINE
  5
AB5A
330
20
100
AcDbEntity
  8
10000_FRONT
 62
     7
370
    20
100
AcDbLine
 39
0.45
 10
61.57444946623968
 20
225.530834316921
 30
0.0
 11
61.57444946623968
 21
207.7998343169211
 31
0.0
1001
AUSTER_ANSICHT
1002
{
1000
Det03
1002
}
1001
AUSTER_FOLIE
1002
{
1000
NSB00028_S2
1002
}
  0
LINE
  5
AB5B
330
20
100
AcDbEntity
  8
10000_FRONT
 62
     7
370
    20
100
AcDbLine
 39
0.45
 10
60.07444946623968
 20
225.530834316921
 30
0.0
 11
60.07444946623968
 21
207.7998343169211
 31
0.0
1001
AUSTER_ANSICHT
1002
{
1000
Det03
1002
}
1001
AUSTER_FOLIE
1002
{
1000
NSB00028_S2
1002
}
  0
LINE
  5
AB5C
330
20
100
AcDbEntity
  8
10000_FRONT
 62
     7
370
    20
100
AcDbLine
 39
0.45
 10
92.1744494662397
 20
207.030834316921
 30
0.0
 11
95.47444946623972
 21
207.030834316921
 31
0.0
1001
AUSTER_ANSICHT
1002
{
1000
Det03
1002
}
1001
AUSTER_FOLIE
1002
{
1000
NSB00028_S2
1002
}
  0
LINE
  5
AB5D
330
20
100
AcDbEntity
  8
10000_FRONT
 62
     7
370
    20
100
AcDbLine
 39
0.45
 10
43.67444946623971
 20
207.030834316921
 30
0.0
 11
46.97444946623972
 21
207.030834316921
 31
0.0
1001
AUSTER_ANSICHT
1002
{
1000
Det03
1002
}
1001
AUSTER_FOLIE
1002
{
1000
NSB00028_S2
1002
}
  0
LINE
  5
AB5E
330
20
100
AcDbEntity
  8
10000_FRONT
 62
     7
370
    20
100
AcDbLine
 39
0.45
 10
92.1744494662397
 20
207.7998343169211
 30
0.0
 11
92.1744494662397
 21
207.030834316921
 31
0.0
1001
AUSTER_ANSICHT
1002
{
1000
Det03
1002
}
1001
AUSTER_FOLIE
1002
{
1000
NSB00028_S2
1002
}
  0
LINE
  5
AB5F
330
20
100
AcDbEntity
  8
10000_FRONT
 62
     7
370
    20
100
AcDbLine
 39
0.35
 10
46.97444946623972
 20
207.7998343169211
 30
0.0
 11
46.97444946623972
 21
207.030834316921
 31
0.0
1001
AUSTER_ANSICHT
1002
{
1000
Det03
1002
}
1001
AUSTER_FOLIE
1002
{
1000
NSB00028_S2
1002
}
  0
LINE
  5
AB60
330
20
100
AcDbEntity
  8
11000_Left
 62
     7
370
    50
100
AcDbLine
 39
0.7
 10
280.2269272874879
 20
207.030834316921
 30
0.0
 11
281.6759272874878
 21
207.030834316921
 31
0.0
1001
AUSTER_ANSICHT
1002
{
1000
Det03
1002
}
1001
AUSTER_FOLIE
1002
{
1000
NSB00028_S2
1002
}
  0
LINE
  5
AB61
330
20
100
AcDbEntity
  8
11000_Left
 62
     7
370
    50
100
AcDbLine
 39
0.7
 10
267.2319272874879
 20
207.030834316921
 30
0.0
 11
275.2319272874879
 21
207.030834316921
 31
0.0
1001
AUSTER_ANSICHT
1002
{
1000
Det03
1002
}
1001
AUSTER_FOLIE
1002
{
1000
NSB00028_S2
1002
}
  0
LINE
  5
AB62
330
20
100
AcDbEntity
  8
11000_Left
 62
     7
370
    50
100
AcDbLine
 39
0.7
 10
275.2319272874879
 20
207.030834316921
 30
0.0
 11
280.2269272874879
 21
207.030834316921
 31
0.0
1001
AUSTER_ANSICHT
1002
{
1000
Det03
1002
}
1001
AUSTER_FOLIE
1002
{
1000
NSB00028_S2
1002
}
  0
LINE
  5
AB63
330
20
100
AcDbEntity
  8
11000_Left
 62
     7
370
    50
100
AcDbLine
 39
0.7
 10
266.2319272874878
 20
207.030834316921
 30
0.0
 11
267.2319272874879
 21
207.030834316921
 31
0.0
1001
AUSTER_ANSICHT
1002
{
1000
Det03
1002
}
1001
AUSTER_FOLIE
1002
{
1000
NSB00028_S2
1002
}
  0
LINE
  5
AB69
330
20
100
AcDbEntity
  8
11000_Left
 62
     7
370
    50
100
AcDbLine
 39
0.7
 10
282.4679272874878
 20
206.3398343169211
 30
0.0
 11
282.5659272874879
 21
205.719834316921
 31
0.0
1001
AUSTER_ANSICHT
1002
{
1000
Det03
1002
}
1001
AUSTER_FOLIE
1002
{
1000
NSB00028_S2
1002
}
  0
LINE
  5
AB6A
330
20
100
AcDbEntity
  8
11000_Left
 62
     7
370
    20
100
AcDbLine
 39
0.45
 10
235.5009272874879
 20
221.0308343169209
 30
0.0
 11
235.5009272874879
 21
216.830834316921
 31
0.0
1001
AUSTER_ANSICHT
1002
{
1000
Det03
1002
}
1001
AUSTER_FOLIE
1002
{
1000
NSB00028_S2
1002
}
  0
LINE
  5
AB6B
330
20
100
AcDbEntity
  8
11000_Left
 62
     7
370
    20
100
AcDbLine
 39
0.45
 10
234.0009272874878
 20
221.0308343169209
 30
0.0
 11
234.0009272874878
 21
217.9308343169211
 31
0.0
1001
AUSTER_ANSICHT
1002
{
1000
Det03
1002
}
1001
AUSTER_FOLIE
1002
{
1000
NSB00028_S2
1002
}
  0
LINE
  5
AB6C
330
20
100
AcDbEntity
  8
11000_Left
 62
     7
370
    50
100
AcDbLine
 39
0.7
 10
235.5009272874879
 20
221.0308343169209
 30
0.0
 11
235.5009272874879
 21
226.6308343169211
 31
0.0
1001
AUSTER_ANSICHT
1002
{
1000
Det03
1002
}
1001
AUSTER_FOLIE
1002
{
1000
NSB00028_S2
1002
}
  0
LINE
  5
AB6D
330
20
100
AcDbEntity
  8
11000_Left
 62
     7
370
    50
100
AcDbLine
 39
0.7
 10
234.0009272874878
 20
228.030834316921
 30
0.0
 11
234.0009272874878
 21
221.0308343169209
 31
0.0
1001
AUSTER_ANSICHT
1002
{
1000
Det03
1002
}
1001
AUSTER_FOLIE
1002
{
1000
NSB00028_S2
1002
}
  0
LINE
  5
AB6E
330
20
100
AcDbEntity
  8
11000_Left
 62
     7
370
    20
100
AcDbLine
 39
0.45
 10
188.1009272874878
 20
221.0308343169209
 30
0.0
 11
188.1009272874878
 21
217.9308343169211
 31
0.0
1001
AUSTER_ANSICHT
1002
{
1000
Det03
1002
}
1001
AUSTER_FOLIE
1002
{
1000
NSB00028_S2
1002
}
  0
LINE
  5
AB6F
330
20
100
AcDbEntity
  8
11000_Left
 62
     7
370
    20
100
AcDbLine
 39
0.45
 10
186.6009272874878
 20
221.0308343169209
 30
0.0
 11
186.6009272874878
 21
216.830834316921
 31
0.0
1001
AUSTER_ANSICHT
1002
{
1000
Det03
1002
}
1001
AUSTER_FOLIE
1002
{
1000
NSB00028_S2
1002
}
  0
LINE
  5
AB70
330
20
100
AcDbEntity
  8
11000_Left
 62
     7
370
    50
100
AcDbLine
 39
0.7
 10
188.1009272874878
 20
221.0308343169209
 30
0.0
 11
188.1009272874878
 21
228.030834316921
 31
0.0
1001
AUSTER_ANSICHT
1002
{
1000
Det03
1002
}
1001
AUSTER_FOLIE
1002
{
1000
NSB00028_S2
1002
}
  0
LINE
  5
AB71
330
20
100
AcDbEntity
  8
11000_Left
 62
     7
370
    50
100
AcDbLine
 39
0.7
 10
186.6009272874878
 20
226.6308343169211
 30
0.0
 11
186.6009272874878
 21
221.0308343169209
 31
0.0
1001
AUSTER_ANSICHT
1002
{
1000
Det03
1002
}
1001
AUSTER_FOLIE
1002
{
1000
NSB00028_S2
1002
}
  0
LINE
  5
AB72
330
20
100
AcDbEntity
  8
11000_Left
 62
     7
370
    50
100
AcDbLine
 39
0.7
 10
289.8729272874878
 20
157.066834316921
 30
0.0
 11
289.8729272874878
 21
151.071834316921
 31
0.0
1001
AUSTER_ANSICHT
1002
{
1000
Det03
1002
}
1001
AUSTER_FOLIE
1002
{
1000
NSB00028_S2
1002
}
  0
LINE
  5
AB73
330
20
100
AcDbEntity
  8
11000_Left
 62
     7
370
    50
100
AcDbLine
 39
0.7
 10
289.8729272874878
 20
177.807834316921
 30
0.0
 11
289.8729272874878
 21
172.230834316921
 31
0.0
1001
AUSTER_ANSICHT
1002
{
1000
Det03
1002
}
1001
AUSTER_FOLIE
1002
{
1000
NSB00028_S2
1002
}
  0
LINE
  5
AB74
330
20
100
AcDbEntity
  8
11000_Left
 62
     7
370
    20
100
AcDbLine
 39
0.45
 10
299.0729272874879
 20
178.071834316921
 30
0.0
 11
299.0729272874879
 21
174.907834316921
 31
0.0
1001
AUSTER_ANSICHT
1002
{
1000
Det03
1002
}
1001
AUSTER_FOLIE
1002
{
1000
NSB00028_S2
1002
}
  0
LINE
  5
AB75
330
20
100
AcDbEntity
  8
11000_Left
 62
     7
370
    20
100
AcDbLine
 39
0.45
 10
291.6729272874878
 20
177.807834316921
 30
0.0
 11
291.6729272874878
 21
174.907834316921
 31
0.0
1001
AUSTER_ANSICHT
1002
{
1000
Det03
1002
}
1001
AUSTER_FOLIE
1002
{
1000
NSB00028_S2
1002
}
  0
LINE
  5
AB76
330
20
100
AcDbEntity
  8
11000_Left
 62
     7
370
    50
100
AcDbLine
 39
0.7
 10
299.0729272874879
 20
179.071834316921
 30
0.0
 11
299.0729272874879
 21
178.071834316921
 31
0.0
1001
AUSTER_ANSICHT
1002
{
1000
Det03
1002
}
1001
AUSTER_FOLIE
1002
{
1000
NSB00028_S2
1002
}
  0
LINE
  5
AB77
330
20
100
AcDbEntity
  8
11000_Left
 62
     7
370
    50
100
AcDbLine
 39
0.7
 10
291.6729272874878
 20
179.071834316921
 30
0.0
 11
291.6729272874878
 21
177.807834316921
 31
0.0
1001
AUSTER_ANSICHT
1002
{
1000
Det03
1002
}
1001
AUSTER_FOLIE
1002
{
1000
NSB00028_S2
1002
}
  0
LINE
  5
AB78
330
20
100
AcDbEntity
  8
11000_Left
 62
     7
370
    50
100
AcDbLine
 39
0.7
 10
266.3219272874878
 20
207.104834316921
 30
0.0
 11
264.2609272874878
 21
226.5128343169211
 31
0.0
1001
AUSTER_ANSICHT
1002
{
1000
Det03
1002
}
1001
AUSTER_FOLIE
1002
{
1000
NSB00028_S2
1002
}
  0
LINE
  5
AB79
330
20
100
AcDbEntity
  8
11000_Left
 62
     7
370
    50
100
AcDbLine
 39
0.7
 10
266.2319272874878
 20
122.030834316921
 30
0.0
 11
264.1299272874879
 21
102.626834316921
 31
0.0
1001
AUSTER_ANSICHT
1002
{
1000
Det03
1002
}
1001
AUSTER_FOLIE
1002
{
1000
NSB00028_S2
1002
}
  0
LINE
  5
AB7B
330
20
100
AcDbEntity
  8
10000_FRONT
 62
     7
370
    20
100
AcDbLine
 39
0.45
 10
66.37244946623969
 20
163.571834316921
 30
0.0
 11
63.95044946623972
 21
163.571834316921
 31
0.0
1001
AUSTER_ANSICHT
1002
{
1000
Det03
1002
}
1001
AUSTER_FOLIE
1002
{
1000
NSB00028_S2
1002
}
  0
LINE
  5
AB7C
330
20
100
AcDbEntity
  8
10000_FRONT
 62
     7
370
    20
100
AcDbLine
 39
0.45
 10
66.37244946623969
 20
165.571834316921
 30
0.0
 11
66.37244946623969
 21
163.571834316921
 31
0.0
1001
AUSTER_ANSICHT
1002
{
1000
Det03
1002
}
1001
AUSTER_FOLIE
1002
{
1000
NSB00028_S2
1002
}
  0
LINE
  5
AB7D
330
20
100
AcDbEntity
  8
10000_FRONT
 62
     7
370
    20
100
AcDbLine
 39
0.45
 10
63.95044946623972
 20
165.571834316921
 30
0.0
 11
66.37244946623969
 21
165.571834316921
 31
0.0
1001
AUSTER_ANSICHT
1002
{
1000
Det03
1002
}
1001
AUSTER_FOLIE
1002
{
1000
NSB00028_S2
1002
}
  0
LINE
  5
AB7E
330
20
100
AcDbEntity
  8
10000_FRONT
 62
     7
370
    20
100
AcDbLine
 39
0.45
 10
61.37244946623973
 20
165.571834316921
 30
0.0
 11
63.95044946623972
 21
165.571834316921
 31
0.0
1001
AUSTER_ANSICHT
1002
{
1000
Det03
1002
}
1001
AUSTER_FOLIE
1002
{
1000
NSB00028_S2
1002
}
  0
LINE
  5
AB89
330
20
100
AcDbEntity
  8
10000_FRONT
 62
     7
370
    50
100
AcDbLine
 39
0.7
 10
42.17344946623973
 20
205.530834316921
 30
0.0
 11
42.17344946623973
 21
225.530834316921
 31
0.0
1001
AUSTER_ANSICHT
1002
{
1000
Det03
1002
}
1001
AUSTER_FOLIE
1002
{
1000
NSB00028_S2
1002
}
  0
LINE
  5
AB8A
330
20
100
AcDbEntity
  8
10000_FRONT
 62
     7
370
    50
100
AcDbLine
 39
0.7
 10
96.97444946623972
 20
225.530834316921
 30
0.0
 11
96.97444946623972
 21
205.530834316921
 31
0.0
1001
AUSTER_ANSICHT
1002
{
1000
Det03
1002
}
1001
AUSTER_FOLIE
1002
{
1000
NSB00028_S2
1002
}
  0
LINE
  5
AB8B
330
20
100
AcDbEntity
  8
10000_FRONT
 62
     7
370
    20
100
AcDbLine
 39
0.35
 10
46.97444946623972
 20
207.7998343169211
 30
0.0
 11
92.1744494662397
 21
207.7998343169211
 31
0.0
1001
AUSTER_ANSICHT
1002
{
1000
Det03
1002
}
1001
AUSTER_FOLIE
1002
{
1000
NSB00028_S2
1002
}
  0
LINE
  5
AB8F
330
20
100
AcDbEntity
  8
10000_FRONT
 62
     7
370
    50
100
AcDbLine
 39
0.7
 10
42.1744494662397
 20
103.530834316921
 30
0.0
 11
42.1744494662397
 21
123.530834316921
 31
0.0
1001
AUSTER_ANSICHT
1002
{
1000
Det03
1002
}
1001
AUSTER_FOLIE
1002
{
1000
NSB00028_S2
1002
}
  0
LINE
  5
AB92
330
20
100
AcDbEntity
  8
10000_FRONT
 62
     7
370
    20
100
AcDbLine
 39
0.45
 10
61.37244946623973
 20
163.571834316921
 30
0.0
 11
63.95044946623972
 21
163.571834316921
 31
0.0
1001
AUSTER_ANSICHT
1002
{
1000
Det03
1002
}
1001
AUSTER_FOLIE
1002
{
1000
NSB00028_S2
1002
}
  0
CIRCLE
  5
AB93
330
20
100
AcDbEntity
  8
30000_Drilling
 62
     7
370
    50
100
AcDbCircle
 39
0.7
 10
369.0879272874878
 20
229.530834316921
 30
0.0
 40
2.391
1001
AUSTER_ANSICHT
1002
{
1000
Det03
1002
}
1001
AUSTER_FOLIE
1002
{
1000
NSB00028_S2
1002
}
  0
CIRCLE
  5
AB95
330
20
100
AcDbEntity
  8
30000_Drilling
 62
     7
370
    50
100
AcDbCircle
 39
0.7
 10
339.2879272874878
 20
99.530834316921
 30
0.0
 40
2.399999999999999
1001
AUSTER_FOLIE
1002
{
1000
NSB00028_S2
1002
}
1001
AUSTER_ANSICHT
1002
{
1000
Det03
1002
}
  0
POINT
  5
ABA7
330
20
100
AcDbEntity
  8
10000_FRONT
 62
     7
370
    50
100
AcDbPoint
 10
95.47444946623972
 20
94.530834316921
 30
0.0
 39
0.45
1001
AUSTER_FOLIE
1002
{
1000
NSB00028_S2
1002
}
1001
AUSTER_ANSICHT
1002
{
1000
Det03
1002
}
  0
POINT
  5
ABA8
330
20
100
AcDbEntity
  8
10000_FRONT
 62
     7
370
    50
100
AcDbPoint
 10
95.47444946623972
 20
234.530834316921
 30
0.0
 39
0.45
1001
AUSTER_FOLIE
1002
{
1000
NSB00028_S2
1002
}
1001
AUSTER_ANSICHT
1002
{
1000
Det03
1002
}
  0
POINT
  5
ABC1
330
20
100
AcDbEntity
  8
10000_FRONT
 62
     7
370
    50
100
AcDbPoint
 10
42.1744494662397
 20
96.03083431692104
 30
0.0
 39
0.45
1001
AUSTER_FOLIE
1002
{
1000
NSB00028_S2
1002
}
1001
AUSTER_ANSICHT
1002
{
1000
Det03
1002
}
  0
POINT
  5
ABC2
330
20
100
AcDbEntity
  8
10000_FRONT
 62
     7
370
    50
100
AcDbPoint
 10
96.97444946623972
 20
96.03083431692104
 30
0.0
 39
0.45
1001
AUSTER_FOLIE
1002
{
1000
NSB00028_S2
1002
}
1001
AUSTER_ANSICHT
1002
{
1000
Det03
1002
}
  0
POINT
  5
AC18
330
20
100
AcDbEntity
  8
11000_Left
  6
DASHED
 62
     7
370
    15
100
AcDbPoint
 10
157.0509272874878
 20
182.030834316921
 30
0.0
 39
0.45
1001
AUSTER_FOLIE
1002
{
1000
NSB00028_S2
1002
}
1001
AUSTER_ANSICHT
1002
{
1000
Det03
1002
}
  0
POINT
  5
AC32
330
20
100
AcDbEntity
  8
30000_Drilling
 62
     7
370
    50
100
AcDbPoint
 10
366.6969272874878
 20
229.530834316921
 30
0.0
 39
0.7
1001
AUSTER_FOLIE
1002
{
1000
NSB00028_S2
1002
}
1001
AUSTER_ANSICHT
1002
{
1000
Det03
1002
}
  0
POINT
  5
AC33
330
20
100
AcDbEntity
  8
30000_Drilling
 62
     7
370
    50
100
AcDbPoint
 10
371.4789272874879
 20
229.530834316921
 30
0.0
 39
0.7
1001
AUSTER_FOLIE
1002
{
1000
NSB00028_S2
1002
}
1001
AUSTER_ANSICHT
1002
{
1000
Det03
1002
}
  0
DIMENSION
  5
AC48
330
20
100
AcDbEntity
  8
30100_Drilling_DIM
 62
     7
370
    13
100
AcDbDimension
  2
*D1
 10
339.2879272874878
 20
239.1685584444631
 30
0.0
 11
354.1879272874878
 21
241.4185584444631
 31
0.0
 70
    32
 71
     5
 42
29.79999999999995
  3
H035
100
AcDbAlignedDimension
 13
369.0879272874878
 23
231.9218343169209
 33
0.0
 14
339.2879272874878
 24
101.930834316921
 34
0.0
100
AcDbRotatedDimension
1001
ACAD
1000
DSTYLE
1002
{
1070
    40
1040
1.0
1002
}
  0
DIMENSION
  5
AC55
330
20
100
AcDbEntity
  8
30100_Drilling_DIM
 62
     7
370
    13
100
AcDbDimension
  2
*D2
 10
329.2265196781567
 20
100.0308466411232
 30
0.0
 11
326.9765196781567
 21
164.7808404790221
 31
0.0
 70
    32
 71
     5
 42
129.4999876757977
  3
H035
100
AcDbAlignedDimension
 13
366.6969272874878
 23
229.530834316921
 33
0.0
 14
336.9405909938039
 24
100.0308466411232
 34
0.0
 50
90.0
100
AcDbRotatedDimension
1001
ACAD
1000
DSTYLE
1002
{
1070
    40
1040
1.0
1002
}
  0
DIMENSION
  5
AC62
330
20
100
AcDbEntity
  8
30100_Drilling_DIM
 62
     7
370
    13
100
AcDbDimension
  2
*D3
 10
371.0263024962987
 20
230.930685219648
 30
0.0
 11
357.3874973081818
 21
223.8564388650853
 31
0.0
 70
    35
 71
     5
 42
4.782000000000039
  3
H035
100
AcDbDiametricDimension
 15
367.1495520786764
 25
228.1309834141934
 35
0.0
 40
0.0
1001
ACAD
1000
DSTYLE
1002
{
1070
    40
1040
1.0
1070
   288
1070
     1
1002
}
  0
DIMENSION
  5
AC6E
330
20
100
AcDbEntity
  8
11100_LEFT_DIM
  6
Continuous
 62
     7
370
    13
100
AcDbDimension
  2
*D4
 10
152.0509272874878
 20
84.15451238747063
 30
0.0
 11
145.3842606208211
 21
84.15451238747063
 31
0.0
 70
    32
 71
     5
 42
5.0
  3
DSTYLE1
100
AcDbAlignedDimension
 13
157.0509272874878
 23
146.729834316921
 33
-0.3
 14
152.0509272874878
 24
95.03083431692102
 34
0.0
100
AcDbRotatedDimension
1001
ACAD
1000
DSTYLE
1002
{
1070
    41
1040
2.0
1070
    42
1040
1.0
1070
    43
1040
1.0
1070
    47
1040
0.005
1070
    48
1040
-0.005
1070
    77
1070
     0
1070
    78
1070
     0
1070
   140
1040
5.0
1070
   143
1040
25.4
1070
   171
1070
     0
1070
   172
1070
     1
1070
   271
1070
     0
1070
   272
1070
     1
1070
   277
1070
     6
1070
   279
1070
     0
1002
}
  0
DIMENSION
  5
AC7D
330
20
100
AcDbEntity
  8
11100_LEFT_DIM
  6
Continuous
 62
     7
370
    13
100
AcDbDimension
  2
*D5
 10
160.0509272874878
 20
75.68151982946767
 30
0.0
 11
147.3842606208211
 21
75.68151982946767
 31
0.0
 70
   160
 71
     5
 42
8.0
  3
DSTYLE1
100
AcDbAlignedDimension
 13
152.0509272874878
 23
95.03083431692102
 33
0.0
 14
160.0509272874878
 24
102.030834316921
 34
0.0
100
AcDbRotatedDimension
1001
ACAD
1000
DSTYLE
1002
{
1070
    41
1040
2.0
1070
    42
1040
1.0
1070
    43
1040
1.0
1070
    47
1040
0.005
1070
    48
1040
-0.005
1070
    77
1070
     0
1070
    78
1070
     0
1070
   140
1040
5.0
1070
   143
1040
25.4
1070
   171
1070
     0
1070
   172
1070
     1
1070
   271
1070
     0
1070
   272
1070
     1
1070
   277
1070
     6
1070
   279
1070
     0
1002
}
  0
DIMENSION
  5
ACD1
330
20
100
AcDbEntity
  8
10100_FRONT_DIM
  6
Continuous
 62
     7
370
    13
100
AcDbDimension
  2
*D6
 10
96.97444946623972
 20
84.20488489223101
 30
0.0
 11
69.57444946623971
 21
84.20488489223101
 31
0.0
 70
    32
 71
     5
 42
54.80000000000001
  3
DSTYLE1
100
AcDbAlignedDimension
 13
42.1744494662397
 23
96.03083431692104
 33
0.0
 14
96.97444946623972
 24
96.03083431692104
 34
0.0
100
AcDbRotatedDimension
1001
ACAD
1000
DSTYLE
1002
{
1070
    41
1040
2.0
1070
    42
1040
1.0
1070
    43
1040
1.0
1070
    47
1040
0.005
1070
    48
1040
-0.005
1070
    77
1070
     0
1070
    78
1070
     0
1070
   140
1040
5.0
1070
   143
1040
25.4
1070
   171
1070
     0
1070
   172
1070
     1
1070
   271
1070
     0
1070
   272
1070
     1
1070
   277
1070
     6
1070
   279
1070
     0
1002
}
  0
DIMENSION
  5
ACE7
330
20
100
AcDbEntity
  8
10100_FRONT_DIM
  6
Continuous
 62
     7
370
    13
100
AcDbDimension
  2
*D7
 10
106.5217706667305
 20
142.030834316921
 30
0.0
 11
106.5217706667305
 21
164.530834316921
 31
0.0
 70
    32
 71
     5
 42
45.0
  3
DSTYLE1
100
AcDbAlignedDimension
 13
96.97444946623972
 23
187.030834316921
 33
0.0
 14
96.97444946623972
 24
142.030834316921
 34
0.0
 50
90.0
100
AcDbRotatedDimension
1001
ACAD
1000
DSTYLE
1002
{
1070
    41
1040
2.0
1070
    42
1040
1.0
1070
    43
1040
1.0
1070
    47
1040
0.005
1070
    48
1040
-0.005
1070
    77
1070
     0
1070
    78
1070
     0
1070
   140
1040
5.0
1070
   143
1040
25.4
1070
   171
1070
     0
1070
   172
1070
     1
1070
   271
1070
     0
1070
   272
1070
     1
1070
   277
1070
     6
1070
   279
1070
     0
1002
}
  0
DIMENSION
  5
ACF4
330
20
100
AcDbEntity
  8
10100_FRONT_DIM
  6
Continuous
 62
     7
370
    13
100
AcDbDimension
  2
*D8
 10
113.5049081725061
 20
111.796834316921
 30
0.0
 11
113.5049081725061
 21
162.0463343169211
 31
0.0
 70
    32
 71
     5
 42
100.499
  3
DSTYLE1
100
AcDbAlignedDimension
 13
91.19444946623971
 23
212.295834316921
 33
0.0
 14
91.19444946623971
 24
111.796834316921
 34
0.0
 50
90.0
100
AcDbRotatedDimension
1001
ACAD
1000
DSTYLE
1002
{
1070
    41
1040
2.0
1070
    42
1040
1.0
1070
    43
1040
1.0
1070
    47
1040
0.005
1070
    48
1040
-0.005
1070
    77
1070
     0
1070
    78
1070
     0
1070
   140
1040
5.0
1070
   143
1040
25.4
1070
   171
1070
     0
1070
   172
1070
     1
1070
   271
1070
     0
1070
   272
1070
     1
1070
   277
1070
     6
1070
   279
1070
     0
1002
}
  0
DIMENSION
  5
AD25
330
20
100
AcDbEntity
  8
10100_FRONT_DIM
  6
Continuous
 62
     7
370
    13
100
AcDbDimension
  2
*D9
 10
122.1558226655913
 20
94.53083431692093
 30
0.0
 11
122.1558226655913
 21
164.530834316921
 31
0.0
 70
    32
 71
     5
 42
140.0
  3
DSTYLE1
100
AcDbAlignedDimension
 13
95.47444946623972
 23
234.530834316921
 33
0.0
 14
95.47444946623972
 24
94.53083431692094
 34
0.0
 50
90.0
100
AcDbRotatedDimension
1001
ACAD
1000
DSTYLE
1002
{
1070
    41
1040
2.0
1070
    42
1040
1.0
1070
    43
1040
1.0
1070
    47
1040
0.005
1070
    48
1040
-0.005
1070
    77
1070
     0
1070
    78
1070
     0
1070
   140
1040
5.0
1070
   143
1040
25.4
1070
   171
1070
     0
1070
   172
1070
     1
1070
   271
1070
     0
1070
   272
1070
     1
1070
   277
1070
     6
1070
   279
1070
     0
1002
}
  0
DIMENSION
  5
AD9E
330
20
100
AcDbEntity
  8
11100_LEFT_DIM
  6
Continuous
 62
     7
370
    13
100
AcDbDimension
  2
*D10
 10
220.8509272874878
 20
84.15451238747063
 30
0.0
 11
188.9509272874878
 21
84.15451238747063
 31
0.0
 70
    32
 71
     5
 42
63.80000000000001
  3
DSTYLE1
100
AcDbAlignedDimension
 13
157.0509272874878
 23
94.530834316921
 33
0.0
 14
220.8509272874878
 24
102.030834316921
 34
0.0
100
AcDbRotatedDimension
1001
ACAD
1000
DSTYLE
1002
{
1070
    41
1040
2.0
1070
    42
1040
1.0
1070
    43
1040
1.0
1070
    47
1040
0.005
1070
    48
1040
-0.005
1070
    77
1070
     0
1070
    78
1070
     0
1070
   140
1040
5.0
1070
   143
1040
25.4
1070
   171
1070
     0
1070
   172
1070
     1
1070
   271
1070
     0
1070
   272
1070
     1
1070
   277
1070
     6
1070
   279
1070
     0
1002
}
  0
DIMENSION
  5
ADAB
330
20
100
AcDbEntity
  8
11100_LEFT_DIM
  6
Continuous
 62
     7
370
    13
100
AcDbDimension
  2
*D11
 10
300.9079272874878
 20
69.796242098373
 30
0.0
 11
228.9794272874878
 21
69.796242098373
 31
0.0
 70
    32
 71
     5
 42
143.8569999999999
  3
DSTYLE1
100
AcDbAlignedDimension
 13
157.0509272874878
 23
94.530834316921
 33
0.0
 14
300.9079272874878
 24
151.071834316921
 34
0.0
100
AcDbRotatedDimension
1001
ACAD
1000
DSTYLE
1002
{
1070
    41
1040
2.0
1070
    42
1040
1.0
1070
    43
1040
1.0
1070
    47
1040
0.005
1070
    48
1040
-0.005
1070
    77
1070
     0
1070
    78
1070
     0
1070
   140
1040
5.0
1070
   143
1040
25.4
1070
   171
1070
     0
1070
   172
1070
     1
1070
   271
1070
     0
1070
   272
1070
     1
1070
   277
1070
     6
1070
   279
1070
     0
1002
}
  0
ENDSEC
  0
SECTION
  2
OBJECTS
  0
DICTIONARY
  5
C
330
0
100
AcDbDictionary
281
     1
  3
ACAD_COLOR
350
1B
  3
ACAD_GROUP
350
D
  3
ACAD_LAYOUT
350
19
  3
ACAD_MATERIAL
350
1A
  3
ACAD_MLINESTYLE
350
16
  3
ACAD_PLOTSETTINGS
350
18
  3
ACAD_PLOTSTYLENAME
350
E
  3
ACDBHEADERROUNDTRIPXREC
350
AF6B
  3
AcDbVariableDictionary
350
687E
  3
DWGPROPS
350
AF6A
  0
DICTIONARY
  5
1B
102
{ACAD_REACTORS
330
C
102
}
330
C
100
AcDbDictionary
281
     1
  0
DICTIONARY
  5
D
102
{ACAD_REACTORS
330
C
102
}
330
C
100
AcDbDictionary
281
     1
  0
DICTIONARY
  5
19
102
{ACAD_REACTORS
330
C
102
}
330
C
100
AcDbDictionary
281
     1
  3
Layout1
350
1F
  3
Model
350
23
  0
DICTIONARY
  5
1A
102
{ACAD_REACTORS
330
C
102
}
330
C
100
AcDbDictionary
281
     1
  0
DICTIONARY
  5
16
102
{ACAD_REACTORS
330
C
102
}
330
C
100
AcDbDictionary
281
     1
  3
Standard
350
17
  0
DICTIONARY
  5
18
102
{ACAD_REACTORS
330
C
102
}
330
C
100
AcDbDictionary
281
     1
  0
ACDBDICTIONARYWDFLT
  5
E
102
{ACAD_REACTORS
330
C
102
}
330
C
100
AcDbDictionary
281
     1
  3
Normal
350
F
100
AcDbDictionaryWithDefault
340
F
  0
DICTIONARY
  5
AF6B
102
{ACAD_REACTORS
330
C
102
}
330
C
100
AcDbDictionary
281
     1
  3
COLORDICT
350
AF6D
  3
MATERIALDICT
350
AF6C
  0
DICTIONARY
  5
687E
102
{ACAD_REACTORS
330
C
102
}
330
C
100
AcDbDictionary
281
     1
  3
DIMASSOC
350
687F
  3
PROJECTNAME
350
6880
  0
XRECORD
  5
AF6A
102
{ACAD_REACTORS
330
C
102
}
330
C
100
AcDbXrecord
280
     1
  1
DWGPROPS COOKIE
  2

  3

  4

  6

  7

  8

  9

300
=
301
=
302
=
303
=
304
=
305
=
306
=
307
=
308
=
309
=
 40
2.283345671296296
 41
2452829.417613079
 42
2453425.328347269
  1

 90
        0
  0
LAYOUT
  5
1F
102
{ACAD_XDICTIONARY
360
AF6E
102
}
102
{ACAD_REACTORS
330
19
102
}
330
19
100
AcDbPlotSettings
  1

  2
HP LaserJet 5000 Series PS
  4

  6

 40
0.0
 41
0.0
 42
0.0
 43
0.0
 44
0.0
 45
0.0
 46
0.0
 47
0.0
 48
0.0
 49
0.0
140
0.0
141
0.0
142
1.0
143
1.0
 70
   688
 72
     0
 73
     0
 74
     5
  7
monochrome.ctb
 75
    16
147
1.0
148
0.0
149
0.0
100
AcDbLayout
  1
Layout1
 70
     1
 71
     1
 10
0.0
 20
0.0
 11
12.0
 21
9.0
 12
0.0
 22
0.0
 32
0.0
 14
1.000000000000000E+20
 24
1.000000000000000E+20
 34
1.000000000000000E+20
 15
-1.000000000000000E+20
 25
-1.000000000000000E+20
 35
-1.000000000000000E+20
146
0.0
 13
0.0
 23
0.0
 33
0.0
 16
1.0
 26
0.0
 36
0.0
 17
0.0
 27
1.0
 37
0.0
 76
     0
330
1C
  0
LAYOUT
  5
23
102
{ACAD_XDICTIONARY
360
AF70
102
}
102
{ACAD_REACTORS
330
19
102
}
330
19
100
AcDbPlotSettings
  1

  2
\\AMBW779A\A_P00873 (Canon iR2200-3300 PCL6)
  4
A3
  6

 40
4.815416812896728
 41
4.815412044525146
 42
4.815399169921875
 43
4.8154296875
 44
296.9259948730469
 45
419.9466552734373
 46
0.0
 47
0.0
 48
0.0
 49
0.0
140
0.0
141
0.0
142
1.0
143
1.0
 70
 11952
 72
     1
 73
     1
 74
     1
  7
monochrome.ctb
 75
    16
147
1.0
148
-9.985175030741743
149
0.0045292325963828
100
AcDbLayout
  1
Model
 70
     1
 71
     0
 10
0.0
 20
0.0
 11
12.0
 21
9.0
 12
0.0
 22
0.0
 32
0.0
 14
0.0
 24
0.0
 34
0.0
 15
0.0
 25
0.0
 35
0.0
146
0.0
 13
0.0
 23
0.0
 33
0.0
 16
1.0
 26
0.0
 36
0.0
 17
0.0
 27
1.0
 37
0.0
 76
     0
330
20
  0
MLINESTYLE
  5
17
102
{ACAD_REACTORS
330
16
102
}
330
16
100
AcDbMlineStyle
  2
STANDARD
 70
     0
  3

 62
   256
 51
90.0
 52
90.0
 71
     2
 49
0.5
 62
   256
  6
BYLAYER
 49
-0.5
 62
   256
  6
BYLAYER
  0
ACDBPLACEHOLDER
  5
F
102
{ACAD_REACTORS
330
E
102
}
330
E
  0
XRECORD
  5
AF6D
102
{ACAD_REACTORS
330
AF6B
102
}
330
AF6B
100
AcDbXrecord
280
     1
340
1B
  0
XRECORD
  5
AF6C
102
{ACAD_REACTORS
330
AF6B
102
}
330
AF6B
100
AcDbXrecord
280
     1
340
1A
  0
DICTIONARYVAR
  5
687F
102
{ACAD_REACTORS
330
687E
102
}
330
687E
100
DictionaryVariables
280
     0
  1
1
  0
DICTIONARYVAR
  5
6880
102
{ACAD_REACTORS
330
687E
102
}
330
687E
100
DictionaryVariables
280
     0
  1

  0
DICTIONARY
  5
AF6E
330
1F
100
AcDbDictionary
280
     1
281
     1
  3
ACAD_XREC_ROUNDTRIP
360
AF6F
  0
DICTIONARY
  5
AF70
330
23
100
AcDbDictionary
280
     1
281
     1
  3
ACAD_XREC_ROUNDTRIP
360
AF71
  0
XRECORD
  5
AF6F
102
{ACAD_REACTORS
330
AF6E
102
}
330
AF6E
100
AcDbXrecord
280
     1
102
SHADEPLOT
 70
     0
102
SHADEPLOTRESLEVEL
 70
     2
102
SHADEPLOTCUSTOMDPI
 70
   300
  0
XRECORD
  5
AF71
102
{ACAD_REACTORS
330
AF70
102
}
330
AF70
100
AcDbXrecord
280
     1
102
SHADEPLOT
 70
     1
102
SHADEPLOTRESLEVEL
 70
     2
102
SHADEPLOTCUSTOMDPI
 70
   300
  0
ENDSEC
  0
EOF
