  0
SECTION
  2
HEADER
  9
$ACADVER
  1
AC1015
  9
$ACADMAINTVER
 70
    20
  9
$DWGCODEPAGE
  3
ANSI_1252
  9
$INSBASE
 10
0.0
 20
0.0
 30
0.0
  9
$EXTMIN
 10
270.130254652335
 20
195.5572468574052
 30
-1.000001308685355
  9
$EXTMAX
 10
680.182747280866
 20
465.6152006765152
 30
0.7001050982706279
  9
$LIMMIN
 10
0.0
 20
0.0
  9
$LIMMAX
 10
0.0
 20
0.0
  9
$ORTHOMODE
 70
     0
  9
$REGENMODE
 70
     1
  9
$FILLMODE
 70
     1
  9
$QTEXTMODE
 70
     0
  9
$MIRRTEXT
 70
     1
  9
$LTSCALE
 40
1.0
  9
$ATTMODE
 70
     1
  9
$TEXTSIZE
 40
1.0
  9
$TRACEWID
 40
0.05
  9
$TEXTSTYLE
  7
STANDARD
  9
$CLAYER
  8
0
  9
$CELTYPE
  6
CONTINUOUS
  9
$CECOLOR
 62
     1
  9
$CELTSCALE
 40
0.1
  9
$DISPSILH
 70
     0
  9
$DIMSCALE
 40
1.0
  9
$DIMASZ
 40
0.125
  9
$DIMEXO
 40
0.0625
  9
$DIMDLI
 40
0.25
  9
$DIMRND
 40
0.0
  9
$DIMDLE
 40
0.0
  9
$DIMEXE
 40
0.125
  9
$DIMTP
 40
0.005
  9
$DIMTM
 40
-0.005
  9
$DIMTXT
 40
3.0
  9
$DIMCEN
 40
0.09
  9
$DIMTSZ
 40
0.0
  9
$DIMTOL
 70
     0
  9
$DIMLIM
 70
     0
  9
$DIMTIH
 70
     1
  9
$DIMTOH
 70
     1
  9
$DIMSE1
 70
     0
  9
$DIMSE2
 70
     0
  9
$DIMTAD
 70
     0
  9
$DIMZIN
 70
     0
  9
$DIMBLK
  1

  9
$DIMASO
 70
     1
  9
$DIMSHO
 70
     1
  9
$DIMPOST
  1

  9
$DIMAPOST
  1

  9
$DIMALT
 70
     0
  9
$DIMALTD
 70
     0
  9
$DIMALTF
 40
25.4
  9
$DIMLFAC
 40
1.0
  9
$DIMTOFL
 70
     1
  9
$DIMTVP
 40
0.0
  9
$DIMTIX
 70
     0
  9
$DIMSOXD
 70
     0
  9
$DIMSAH
 70
     0
  9
$DIMBLK1
  1

  9
$DIMBLK2
  1

  9
$DIMSTYLE
  2
STANDARD
  9
$DIMCLRD
 70
     0
  9
$DIMCLRE
 70
     0
  9
$DIMCLRT
 70
     0
  9
$DIMTFAC
 40
1.0
  9
$DIMGAP
 40
0.0625
  9
$DIMJUST
 70
     0
  9
$DIMSD1
 70
     0
  9
$DIMSD2
 70
     0
  9
$DIMTOLJ
 70
     1
  9
$DIMTZIN
 70
     0
  9
$DIMALTZ
 70
     0
  9
$DIMALTTZ
 70
     0
  9
$DIMUPT
 70
     0
  9
$DIMDEC
 70
     3
  9
$DIMTDEC
 70
     3
  9
$DIMALTU
 70
     2
  9
$DIMALTTD
 70
     0
  9
$DIMTXSTY
  7
STANDARD
  9
$DIMAUNIT
 70
     0
  9
$DIMADEC
 70
     1
  9
$DIMALTRND
 40
0.0
  9
$DIMAZIN
 70
     0
  9
$DIMDSEP
 70
    46
  9
$DIMATFIT
 70
     3
  9
$DIMFRAC
 70
     0
  9
$DIMLDRBLK
  1

  9
$DIMLUNIT
 70
     2
  9
$DIMLWD
 70
    -2
  9
$DIMLWE
 70
    -2
  9
$DIMTMOVE
 70
     2
  9
$LUNITS
 70
     2
  9
$LUPREC
 70
     3
  9
$SKETCHINC
 40
0.1
  9
$FILLETRAD
 40
10.0
  9
$AUNITS
 70
     0
  9
$AUPREC
 70
     1
  9
$MENU
  1
acad
  9
$ELEVATION
 40
0.0
  9
$PELEVATION
 40
0.0
  9
$THICKNESS
 40
0.25
  9
$LIMCHECK
 70
     0
  9
$CHAMFERA
 40
6.0
  9
$CHAMFERB
 40
6.0
  9
$CHAMFERC
 40
0.0
  9
$CHAMFERD
 40
0.0
  9
$SKPOLY
 70
     0
  9
$TDCREATE
 40
2444975.041666666
  9
$TDUCREATE
 40
2444975.000000000
  9
$TDUPDATE
 40
2454079.878455937
  9
$TDUUPDATE
 40
2454079.836789271
  9
$TDINDWG
 40
0.2291332292
  9
$TDUSRTIMER
 40
0.2291321412
  9
$USRTIMER
 70
     1
  9
$ANGBASE
 50
0.0
  9
$ANGDIR
 70
     0
  9
$PDMODE
 70
     2
  9
$PDSIZE
 40
-0.01
  9
$PLINEWID
 40
0.0
  9
$SPLFRAME
 70
     0
  9
$SPLINETYPE
 70
     6
  9
$SPLINESEGS
 70
     8
  9
$HANDSEED
  5
39F1
  9
$SURFTAB1
 70
     6
  9
$SURFTAB2
 70
     6
  9
$SURFTYPE
 70
     6
  9
$SURFU
 70
     6
  9
$SURFV
 70
     6
  9
$UCSBASE
  2

  9
$UCSNAME
  2

  9
$UCSORG
 10
0.0
 20
0.0
 30
0.0
  9
$UCSXDIR
 10
1.0
 20
0.0
 30
0.0
  9
$UCSYDIR
 10
0.0
 20
1.0
 30
0.0
  9
$UCSORTHOREF
  2

  9
$UCSORTHOVIEW
 70
     0
  9
$UCSORGTOP
 10
0.0
 20
0.0
 30
0.0
  9
$UCSORGBOTTOM
 10
0.0
 20
0.0
 30
0.0
  9
$UCSORGLEFT
 10
0.0
 20
0.0
 30
0.0
  9
$UCSORGRIGHT
 10
0.0
 20
0.0
 30
0.0
  9
$UCSORGFRONT
 10
0.0
 20
0.0
 30
0.0
  9
$UCSORGBACK
 10
0.0
 20
0.0
 30
0.0
  9
$PUCSBASE
  2

  9
$PUCSNAME
  2

  9
$PUCSORG
 10
0.0
 20
0.0
 30
0.0
  9
$PUCSXDIR
 10
1.0
 20
0.0
 30
0.0
  9
$PUCSYDIR
 10
0.0
 20
1.0
 30
0.0
  9
$PUCSORTHOREF
  2

  9
$PUCSORTHOVIEW
 70
     0
  9
$PUCSORGTOP
 10
0.0
 20
0.0
 30
0.0
  9
$PUCSORGBOTTOM
 10
0.0
 20
0.0
 30
0.0
  9
$PUCSORGLEFT
 10
0.0
 20
0.0
 30
0.0
  9
$PUCSORGRIGHT
 10
0.0
 20
0.0
 30
0.0
  9
$PUCSORGFRONT
 10
0.0
 20
0.0
 30
0.0
  9
$PUCSORGBACK
 10
0.0
 20
0.0
 30
0.0
  9
$USERI1
 70
     0
  9
$USERI2
 70
     0
  9
$USERI3
 70
     0
  9
$USERI4
 70
     0
  9
$USERI5
 70
     0
  9
$USERR1
 40
0.0
  9
$USERR2
 40
0.0
  9
$USERR3
 40
0.0
  9
$USERR4
 40
0.0
  9
$USERR5
 40
0.0
  9
$WORLDVIEW
 70
     1
  9
$SHADEDGE
 70
     3
  9
$SHADEDIF
 70
    70
  9
$TILEMODE
 70
     1
  9
$MAXACTVP
 70
    16
  9
$PINSBASE
 10
0.0
 20
0.0
 30
0.0
  9
$PLIMCHECK
 70
     0
  9
$PEXTMIN
 10
0.0
 20
0.0
 30
0.0
  9
$PEXTMAX
 10
1189.0
 20
841.0
 30
0.0
  9
$PLIMMIN
 10
0.0
 20
0.0
  9
$PLIMMAX
 10
1189.0
 20
841.0
  9
$UNITMODE
 70
     0
  9
$VISRETAIN
 70
     0
  9
$PLINEGEN
 70
     1
  9
$PSLTSCALE
 70
     0
  9
$TREEDEPTH
 70
  3020
  9
$CMLSTYLE
  2
Standard
  9
$CMLJUST
 70
     0
  9
$CMLSCALE
 40
1.0
  9
$PROXYGRAPHICS
 70
     1
  9
$MEASUREMENT
 70
     0
  9
$CELWEIGHT
370
    -1
  9
$ENDCAPS
280
     0
  9
$JOINSTYLE
280
     0
  9
$LWDISPLAY
290
     0
  9
$INSUNITS
 70
     0
  9
$HYPERLINKBASE
  1

  9
$STYLESHEET
  1
monochrome.ctb
  9
$XEDIT
290
     1
  9
$CEPSNTYPE
380
     0
  9
$PSTYLEMODE
290
     1
  9
$FINGERPRINTGUID
  2
{3DDF6076-A6FB-4590-8FF7-C0182D714650}
  9
$VERSIONGUID
  2
{679891E4-3902-4D78-B05C-6852CF87962C}
  9
$EXTNAMES
290
     1
  9
$PSVPSCALE
 40
0.0
  9
$OLESTARTUP
290
     0
  0
ENDSEC
  0
SECTION
  2
CLASSES
  0
CLASS
  1
ACDBDICTIONARYWDFLT
  2
AcDbDictionaryWithDefault
  3
ObjectDBX Classes
 90
        0
280
     0
281
     0
  0
CLASS
  1
MATERIAL
  2
AcDbMaterial
  3
ObjectDBX Classes
 90
     1024
280
     0
281
     0
  0
CLASS
  1
VISUALSTYLE
  2
AcDbVisualStyle
  3
ObjectDBX Classes
 90
     4095
280
     0
281
     0
  0
CLASS
  1
TABLESTYLE
  2
AcDbTableStyle
  3
ObjectDBX Classes
 90
     4095
280
     0
281
     0
  0
CLASS
  1
DICTIONARYVAR
  2
AcDbDictionaryVar
  3
ObjectDBX Classes
 90
        0
280
     0
281
     0
  0
CLASS
  1
DIMASSOC
  2
AcDbDimAssoc
  3
"AcDbDimAssoc|Product Desc:     AcDim ARX App For Dimension|Company:          Autodesk, Inc.|WEB Address:      www.autodesk.com"
 90
        0
280
     0
281
     0
  0
CLASS
  1
SORTENTSTABLE
  2
AcDbSortentsTable
  3
ObjectDBX Classes
 90
        0
280
     0
281
     0
  0
CLASS
  1
ACDBPLACEHOLDER
  2
AcDbPlaceHolder
  3
ObjectDBX Classes
 90
        0
280
     0
281
     0
  0
CLASS
  1
LAYOUT
  2
AcDbLayout
  3
ObjectDBX Classes
 90
        0
280
     0
281
     0
  0
ENDSEC
  0
SECTION
  2
TABLES
  0
TABLE
  2
VPORT
  5
6F2
330
0
100
AcDbSymbolTable
 70
     1
  0
VPORT
  5
737
330
6F2
100
AcDbSymbolTableRecord
100
AcDbViewportTableRecord
  2
*ACTIVE
 70
     0
 10
0.0
 20
0.0
 11
1.0
 21
1.0
 12
475.1565009666006
 22
330.5862237669602
 13
0.0
 23
0.0
 14
1.0
 24
1.0
 15
0.0
 25
0.0
 16
0.0
 26
0.0
 36
1.0
 17
0.0
 27
0.0
 37
0.0
 40
271.6783015420247
 41
1.864864864864864
 42
50.0
 43
0.0
 44
0.0
 50
0.0
 51
0.0
 71
     0
 72
   100
 73
     1
 74
     3
 75
     0
 76
     0
 77
     0
 78
     0
281
     0
 65
     1
110
0.0
120
0.0
130
0.0
111
1.0
121
0.0
131
0.0
112
0.0
122
1.0
132
0.0
 79
     0
146
0.0
  0
ENDTAB
  0
TABLE
  2
LTYPE
  5
6EF
330
0
100
AcDbSymbolTable
 70
     8
  0
LTYPE
  5
712
330
6EF
100
AcDbSymbolTableRecord
100
AcDbLinetypeTableRecord
  2
ByBlock
 70
     0
  3

 72
    65
 73
     0
 40
0.0
  0
LTYPE
  5
713
330
6EF
100
AcDbSymbolTableRecord
100
AcDbLinetypeTableRecord
  2
ByLayer
 70
     0
  3

 72
    65
 73
     0
 40
0.0
  0
LTYPE
  5
714
330
6EF
100
AcDbSymbolTableRecord
100
AcDbLinetypeTableRecord
  2
CONTINUOUS
 70
     0
  3
Solid line
 72
    65
 73
     0
 40
0.0
  0
LTYPE
  5
735
330
6EF
100
AcDbSymbolTableRecord
100
AcDbLinetypeTableRecord
  2
SHORT_DASH
 70
     0
  3
_ 
 72
    65
 73
     3
 40
3.0
 49
0.75
 74
     0
 49
-1.5
 74
     0
 49
0.75
 74
     0
  0
LTYPE
  5
915
330
6EF
100
AcDbSymbolTableRecord
100
AcDbLinetypeTableRecord
  2
CENTER
 70
     0
  3
____ _ ____ _ ____ _ ____ _ ____ _ ____ _ ____
 72
    65
 73
     4
 40
0.6
 49
0.375
 74
     0
 49
-0.075
 74
     0
 49
0.075
 74
     0
 49
-0.075
 74
     0
  0
ENDTAB
  0
TABLE
  2
LAYER
  5
6EC
102
{ACAD_XDICTIONARY
360
1391
102
}
330
0
100
AcDbSymbolTable
 70
    18
  0
LAYER
  5
70F
330
6EC
100
AcDbSymbolTableRecord
100
AcDbLayerTableRecord
  2
0
 70
     0
 62
     7
  6
CONTINUOUS
370
    -3
390
6F9
  0
LAYER
  5
916
330
6EC
100
AcDbSymbolTableRecord
100
AcDbLayerTableRecord
  2
Defpoints
 70
     0
 62
     7
  6
CONTINUOUS
290
     0
370
    -3
390
6F9
  0
LAYER
  5
917
330
6EC
100
AcDbSymbolTableRecord
100
AcDbLayerTableRecord
  2
91000_TIP
 70
     0
 62
     7
  6
CONTINUOUS
370
    -3
390
6F9
  0
LAYER
  5
918
330
6EC
100
AcDbSymbolTableRecord
100
AcDbLayerTableRecord
  2
11000_Left
 70
     0
 62
     7
  6
CONTINUOUS
370
    -3
390
6F9
  0
LAYER
  5
919
330
6EC
100
AcDbSymbolTableRecord
100
AcDbLayerTableRecord
  2
10000_FRONT
 70
     0
 62
     7
  6
CONTINUOUS
370
    -3
390
6F9
  0
LAYER
  5
91A
330
6EC
100
AcDbSymbolTableRecord
100
AcDbLayerTableRecord
  2
10100_FRONT_DIM
 70
     0
 62
     7
  6
CONTINUOUS
370
    -3
390
6F9
  0
LAYER
  5
91B
330
6EC
100
AcDbSymbolTableRecord
100
AcDbLayerTableRecord
  2
90000_FRAME
 70
     0
 62
     7
  6
CONTINUOUS
370
    -3
390
6F9
  0
LAYER
  5
91C
330
6EC
100
AcDbSymbolTableRecord
100
AcDbLayerTableRecord
  2
11100_LEFT_DIM
 70
     0
 62
     7
  6
CONTINUOUS
370
    -3
390
6F9
  0
ENDTAB
  0
TABLE
  2
STYLE
  5
6ED
330
0
100
AcDbSymbolTable
 70
     3
  0
STYLE
  5
710
330
6ED
100
AcDbSymbolTableRecord
100
AcDbTextStyleTableRecord
  2
STANDARD
 70
     0
 40
0.0
 41
1.0
 50
0.0
 71
     0
 42
1.0
  3
monotxt.shx
  4

  0
ENDTAB
  0
TABLE
  2
VIEW
  5
6F0
330
0
100
AcDbSymbolTable
 70
     0
  0
ENDTAB
  0
TABLE
  2
UCS
  5
6F1
330
0
100
AcDbSymbolTable
 70
     0
  0
ENDTAB
  0
TABLE
  2
APPID
  5
6F3
330
0
100
AcDbSymbolTable
 70
     5
  0
APPID
  5
711
330
6F3
100
AcDbSymbolTableRecord
100
AcDbRegAppTableRecord
  2
ACAD
 70
     0
  0
APPID
  5
91F
330
6F3
100
AcDbSymbolTableRecord
100
AcDbRegAppTableRecord
  2
AUSTER_ANSICHT
 70
     0
  0
APPID
  5
920
330
6F3
100
AcDbSymbolTableRecord
100
AcDbRegAppTableRecord
  2
AUSTER_FOLIE
 70
     0
  0
APPID
  5
921
330
6F3
100
AcDbSymbolTableRecord
100
AcDbRegAppTableRecord
  2
ACAD_PSEXT
 70
     0
  0
APPID
  5
244E
330
6F3
100
AcDbSymbolTableRecord
100
AcDbRegAppTableRecord
  2
ACAD_EXEMPT_FROM_CAD_STANDARDS
 70
     0
  0
ENDTAB
  0
TABLE
  2
DIMSTYLE
  5
6F4
330
0
100
AcDbSymbolTable
 70
     6
100
AcDbDimStyleTable
 71
     2
340
738
340
91E
  0
DIMSTYLE
105
738
330
6F4
100
AcDbSymbolTableRecord
100
AcDbDimStyleTableRecord
  2
STANDARD
 70
     0
 41
0.125
 43
0.25
 44
0.125
 47
0.005
 48
-0.005
140
3.0
147
0.0625
171
     0
172
     1
271
     3
272
     3
274
     0
279
     2
340
710
  0
DIMSTYLE
105
91E
102
{ACAD_REACTORS
330
2569
330
2583
330
259D
330
25B7
330
373E
330
2550
330
25D1
330
397F
330
3965
330
39AD
102
}
330
6F4
100
AcDbSymbolTableRecord
100
AcDbDimStyleTableRecord
  2
H035
 70
     0
 40
0.0
 41
2.5
 42
2.0
 43
4.0
 44
1.0
 73
     0
 74
     0
 78
     8
140
3.5
141
2.5
143
0.0394
147
2.0
171
     4
172
     1
176
     7
177
     7
178
     7
271
     0
272
     0
273
     8
274
     4
277
     6
340
710
  0
ENDTAB
  0
TABLE
  2
BLOCK_RECORD
  5
6EB
330
0
100
AcDbSymbolTable
 70
    92
  0
BLOCK_RECORD
  5
720
102
{ACAD_XDICTIONARY
360
13EF
102
}
330
6EB
100
AcDbSymbolTableRecord
100
AcDbBlockTableRecord
  2
*Model_Space
340
723
  0
BLOCK_RECORD
  5
71C
330
6EB
100
AcDbSymbolTableRecord
100
AcDbBlockTableRecord
  2
*Paper_Space
340
71F
  0
BLOCK_RECORD
  5
80E
330
6EB
100
AcDbSymbolTableRecord
100
AcDbBlockTableRecord
  2
SIEMENS_OUTLINE_BL0
340
0
102
{BLKREFS
331
E02
102
}
  0
BLOCK_RECORD
  5
2551
330
6EB
100
AcDbSymbolTableRecord
100
AcDbBlockTableRecord
  2
*D37
340
0
  0
BLOCK_RECORD
  5
256A
330
6EB
100
AcDbSymbolTableRecord
100
AcDbBlockTableRecord
  2
*D38
340
0
  0
BLOCK_RECORD
  5
2584
330
6EB
100
AcDbSymbolTableRecord
100
AcDbBlockTableRecord
  2
*D39
340
0
  0
BLOCK_RECORD
  5
259E
330
6EB
100
AcDbSymbolTableRecord
100
AcDbBlockTableRecord
  2
*D40
340
0
  0
BLOCK_RECORD
  5
25B8
330
6EB
100
AcDbSymbolTableRecord
100
AcDbBlockTableRecord
  2
*D41
340
0
  0
BLOCK_RECORD
  5
25D2
330
6EB
100
AcDbSymbolTableRecord
100
AcDbBlockTableRecord
  2
*D42
340
0
  0
BLOCK_RECORD
  5
3750
330
6EB
100
AcDbSymbolTableRecord
100
AcDbBlockTableRecord
  2
*D84
340
0
  0
BLOCK_RECORD
  5
3966
330
6EB
100
AcDbSymbolTableRecord
100
AcDbBlockTableRecord
  2
*D88
340
0
  0
BLOCK_RECORD
  5
3980
330
6EB
100
AcDbSymbolTableRecord
100
AcDbBlockTableRecord
  2
*D89
340
0
  0
BLOCK_RECORD
  5
39AE
330
6EB
100
AcDbSymbolTableRecord
100
AcDbBlockTableRecord
  2
*D90
340
0
  0
ENDTAB
  0
ENDSEC
  0
SECTION
  2
BLOCKS
  0
BLOCK
  5
808
330
720
100
AcDbEntity
  8
0
 62
     1
100
AcDbBlockBegin
  2
*Model_Space
 70
     0
 10
0.0
 20
0.0
 30
0.0
  3
*Model_Space
  1

  0
ENDBLK
  5
809
330
720
100
AcDbEntity
  8
0
 62
     1
100
AcDbBlockEnd
  0
BLOCK
  5
806
330
71C
100
AcDbEntity
 67
     1
  8
0
 62
     1
100
AcDbBlockBegin
  2
*Paper_Space
 70
     0
 10
0.0
 20
0.0
 30
0.0
  3
*Paper_Space
  1

  0
ENDBLK
  5
807
330
71C
100
AcDbEntity
 67
     1
  8
0
 62
     1
100
AcDbBlockEnd
  0
BLOCK
  5
80F
330
80E
100
AcDbEntity
  8
0
  6
Continuous
 62
     7
100
AcDbBlockBegin
  2
SIEMENS_OUTLINE_BL0
 70
     0
 10
0.0
 20
0.0
 30
0.0
  3
SIEMENS_OUTLINE_BL0
  1

  0
LINE
  5
810
330
80E
100
AcDbEntity
  8
0
  6
Continuous
 62
     7
100
AcDbLine
 10
79.186200508
 20
21.4145478991
 30
0.0
 11
79.186200508
 21
16.6612788158
 31
0.0
  0
LINE
  5
811
330
80E
100
AcDbEntity
  8
0
  6
Continuous
 62
     7
100
AcDbLine
 10
80.61218123299999
 20
21.4145478991
 30
0.0
 11
80.61218123299999
 21
16.6612788158
 31
0.0
  0
LINE
  5
812
330
80E
100
AcDbEntity
  8
0
  6
Continuous
 62
     7
100
AcDbLine
 10
79.186200508
 20
16.6612788158
 30
0.0
 11
80.61218123299999
 21
16.6612788158
 31
0.0
  0
LINE
  5
813
330
80E
100
AcDbEntity
  8
0
  6
Continuous
 62
     7
100
AcDbLine
 10
79.186200508
 20
21.4145478991
 30
0.0
 11
80.61218123299999
 21
21.4145478991
 31
0.0
  0
LINE
  5
814
330
80E
100
AcDbEntity
  8
0
  6
Continuous
 62
     7
100
AcDbLine
 10
81.7054331221
 20
21.4145478991
 30
0.0
 11
81.7054331221
 21
16.6612788158
 31
0.0
  0
LINE
  5
815
330
80E
100
AcDbEntity
  8
0
  6
Continuous
 62
     7
100
AcDbLine
 10
81.7054331221
 20
16.6612788158
 30
0.0
 11
85.2703849346
 21
16.6612788158
 31
0.0
  0
LINE
  5
816
330
80E
100
AcDbEntity
  8
0
  6
Continuous
 62
     7
100
AcDbLine
 10
85.2703849346
 20
17.56439994169999
 30
0.0
 11
83.0838811563
 21
17.56439994169999
 31
0.0
  0
LINE
  5
817
330
80E
100
AcDbEntity
  8
0
  6
Continuous
 62
     7
100
AcDbLine
 10
85.2703849346
 20
17.56439994169999
 30
0.0
 11
85.2703849346
 21
16.6612788158
 31
0.0
  0
LINE
  5
818
330
80E
100
AcDbEntity
  8
0
  6
Continuous
 62
     7
100
AcDbLine
 10
85.2228522438
 20
21.4145478991
 30
0.0
 11
81.7054331221
 21
21.4145478991
 31
0.0
  0
LINE
  5
819
330
80E
100
AcDbEntity
  8
0
  6
Continuous
 62
     7
100
AcDbLine
 10
85.2228522438
 20
20.5351931187
 30
0.0
 11
83.0838811563
 21
20.5351931187
 31
0.0
  0
LINE
  5
81A
330
80E
100
AcDbEntity
  8
0
  6
Continuous
 62
     7
100
AcDbLine
 10
85.2228522438
 20
21.4145478991
 30
0.0
 11
85.2228522438
 21
20.5351931187
 31
0.0
  0
LINE
  5
81B
330
80E
100
AcDbEntity
  8
0
  6
Continuous
 62
     7
100
AcDbLine
 10
84.9376560988
 20
18.68141817619999
 30
0.0
 11
83.0838811563
 21
18.68141817619999
 31
0.0
  0
LINE
  5
81C
330
80E
100
AcDbEntity
  8
0
  6
Continuous
 62
     7
100
AcDbLine
 10
84.9376560988
 20
19.46570757499999
 30
0.0
 11
84.9376560988
 21
18.68141817619999
 31
0.0
  0
LINE
  5
81D
330
80E
100
AcDbEntity
  8
0
  6
Continuous
 62
     7
100
AcDbLine
 10
84.9376560988
 20
19.46570757499999
 30
0.0
 11
83.0838811563
 21
19.46570757499999
 31
0.0
  0
LINE
  5
81E
330
80E
100
AcDbEntity
  8
0
  6
Continuous
 62
     7
100
AcDbLine
 10
83.0838811563
 20
20.5351931187
 30
0.0
 11
83.0838811563
 21
19.46570757499999
 31
0.0
  0
LINE
  5
81F
330
80E
100
AcDbEntity
  8
0
  6
Continuous
 62
     7
100
AcDbLine
 10
83.0838811563
 20
18.68141817619999
 30
0.0
 11
83.0838811563
 21
17.56439994169999
 31
0.0
  0
LINE
  5
820
330
80E
100
AcDbEntity
  8
0
  6
Continuous
 62
     7
100
AcDbLine
 10
86.0784406788
 20
16.6612788158
 30
0.0
 11
86.0784406788
 21
21.4145478991
 31
0.0
  0
LINE
  5
821
330
80E
100
AcDbEntity
  8
0
  6
Continuous
 62
     7
100
AcDbLine
 10
86.0784406788
 20
16.6612788158
 30
0.0
 11
87.02909449539999
 21
16.6612788158
 31
0.0
  0
LINE
  5
822
330
80E
100
AcDbEntity
  8
0
  6
Continuous
 62
     7
100
AcDbLine
 10
91.92496165120001
 20
21.4145478991
 30
0.0
 11
91.92496165120001
 21
16.6612788158
 31
0.0
  0
LINE
  5
823
330
80E
100
AcDbEntity
  8
0
  6
Continuous
 62
     7
100
AcDbLine
 10
91.92496165120001
 20
16.6612788158
 30
0.0
 11
90.54651361700001
 21
16.6612788158
 31
0.0
  0
LINE
  5
824
330
80E
100
AcDbEntity
  8
0
  6
Continuous
 62
     7
100
AcDbLine
 10
88.3600098387
 20
16.61374612499999
 30
0.0
 11
89.21559827370002
 21
16.61374612499999
 31
0.0
  0
LINE
  5
825
330
80E
100
AcDbEntity
  8
0
  6
Continuous
 62
     7
100
AcDbLine
 10
88.3600098387
 20
16.61374612499999
 30
0.0
 11
87.02909449539999
 21
19.7033710291
 31
0.0
  0
LINE
  5
826
330
80E
100
AcDbEntity
  8
0
  6
Continuous
 62
     7
100
AcDbLine
 10
87.02909449539999
 20
16.6612788158
 30
0.0
 11
87.02909449539999
 21
19.7033710291
 31
0.0
  0
LINE
  5
827
330
80E
100
AcDbEntity
  8
0
  6
Continuous
 62
     7
100
AcDbLine
 10
90.54651361700001
 20
19.75090372
 30
0.0
 11
89.21559827370002
 21
16.61374612499999
 31
0.0
  0
LINE
  5
828
330
80E
100
AcDbEntity
  8
0
  6
Continuous
 62
     7
100
AcDbLine
 10
87.78961754870001
 20
21.4145478991
 30
0.0
 11
86.0784406788
 21
21.4145478991
 31
0.0
  0
LINE
  5
829
330
80E
100
AcDbEntity
  8
0
  6
Continuous
 62
     7
100
AcDbLine
 10
91.92496165120001
 20
21.4145478991
 30
0.0
 11
90.2137847812
 21
21.4145478991
 31
0.0
  0
LINE
  5
82A
330
80E
100
AcDbEntity
  8
0
  6
Continuous
 62
     7
100
AcDbLine
 10
87.78961754870001
 20
21.4145478991
 30
0.0
 11
89.0254675104
 21
18.51505375829999
 31
0.0
  0
LINE
  5
82B
330
80E
100
AcDbEntity
  8
0
  6
Continuous
 62
     7
100
AcDbLine
 10
90.2137847812
 20
21.4145478991
 30
0.0
 11
89.0254675104
 21
18.51505375829999
 31
0.0
  0
LINE
  5
82C
330
80E
100
AcDbEntity
  8
0
  6
Continuous
 62
     7
100
AcDbLine
 10
90.54651361700001
 20
19.75090372
 30
0.0
 11
90.54651361700001
 21
16.6612788158
 31
0.0
  0
LINE
  5
82D
330
80E
100
AcDbEntity
  8
0
  6
Continuous
 62
     7
100
AcDbLine
 10
93.01821354030002
 20
21.4145478991
 30
0.0
 11
93.01821354030002
 21
16.6612788158
 31
0.0
  0
LINE
  5
82E
330
80E
100
AcDbEntity
  8
0
  6
Continuous
 62
     7
100
AcDbLine
 10
93.01821354030002
 20
16.6612788158
 30
0.0
 11
96.5831653528
 21
16.6612788158
 31
0.0
  0
LINE
  5
82F
330
80E
100
AcDbEntity
  8
0
  6
Continuous
 62
     7
100
AcDbLine
 10
96.5831653528
 20
17.56439994169999
 30
0.0
 11
94.3966615745
 21
17.56439994169999
 31
0.0
  0
LINE
  5
830
330
80E
100
AcDbEntity
  8
0
  6
Continuous
 62
     7
100
AcDbLine
 10
96.5831653528
 20
17.56439994169999
 30
0.0
 11
96.5831653528
 21
16.6612788158
 31
0.0
  0
LINE
  5
831
330
80E
100
AcDbEntity
  8
0
  6
Continuous
 62
     7
100
AcDbLine
 10
96.53563266200002
 20
21.4145478991
 30
0.0
 11
93.01821354030002
 21
21.4145478991
 31
0.0
  0
LINE
  5
832
330
80E
100
AcDbEntity
  8
0
  6
Continuous
 62
     7
100
AcDbLine
 10
96.53563266200002
 20
20.5351931187
 30
0.0
 11
94.3966615745
 21
20.5351931187
 31
0.0
  0
LINE
  5
833
330
80E
100
AcDbEntity
  8
0
  6
Continuous
 62
     7
100
AcDbLine
 10
96.53563266200002
 20
21.4145478991
 30
0.0
 11
96.53563266200002
 21
20.5351931187
 31
0.0
  0
LINE
  5
834
330
80E
100
AcDbEntity
  8
0
  6
Continuous
 62
     7
100
AcDbLine
 10
96.25043651700002
 20
18.68141817619999
 30
0.0
 11
94.3966615745
 21
18.68141817619999
 31
0.0
  0
LINE
  5
835
330
80E
100
AcDbEntity
  8
0
  6
Continuous
 62
     7
100
AcDbLine
 10
96.25043651700002
 20
19.46570757499999
 30
0.0
 11
96.25043651700002
 21
18.68141817619999
 31
0.0
  0
LINE
  5
836
330
80E
100
AcDbEntity
  8
0
  6
Continuous
 62
     7
100
AcDbLine
 10
96.25043651700002
 20
19.46570757499999
 30
0.0
 11
94.3966615745
 21
19.46570757499999
 31
0.0
  0
LINE
  5
837
330
80E
100
AcDbEntity
  8
0
  6
Continuous
 62
     7
100
AcDbLine
 10
94.3966615745
 20
20.5351931187
 30
0.0
 11
94.3966615745
 21
19.46570757499999
 31
0.0
  0
LINE
  5
838
330
80E
100
AcDbEntity
  8
0
  6
Continuous
 62
     7
100
AcDbLine
 10
94.3966615745
 20
18.68141817619999
 30
0.0
 11
94.3966615745
 21
17.56439994169999
 31
0.0
  0
LINE
  5
839
330
80E
100
AcDbEntity
  8
0
  6
Continuous
 62
     7
100
AcDbLine
 10
97.3674547515
 20
16.6612788158
 30
0.0
 11
97.3674547515
 21
21.4145478991
 31
0.0
  0
LINE
  5
83A
330
80E
100
AcDbEntity
  8
0
  6
Continuous
 62
     7
100
AcDbLine
 10
101.5503315447999
 20
21.4145478991
 30
0.0
 11
101.5503315447999
 21
16.6612788158
 31
0.0
  0
LINE
  5
83B
330
80E
100
AcDbEntity
  8
0
  6
Continuous
 62
     7
100
AcDbLine
 10
97.3674547515
 20
16.6612788158
 30
0.0
 11
98.3181085682
 21
16.6612788158
 31
0.0
  0
LINE
  5
83C
330
80E
100
AcDbEntity
  8
0
  6
Continuous
 62
     7
100
AcDbLine
 10
101.5503315447999
 20
21.4145478991
 30
0.0
 11
100.5996777281999
 21
21.4145478991
 31
0.0
  0
LINE
  5
83D
330
80E
100
AcDbEntity
  8
0
  6
Continuous
 62
     7
100
AcDbLine
 10
98.91226720360002
 20
21.4145478991
 30
0.0
 11
97.3674547515
 21
21.4145478991
 31
0.0
  0
LINE
  5
83E
330
80E
100
AcDbEntity
  8
0
  6
Continuous
 62
     7
100
AcDbLine
 10
101.5503315447999
 20
16.6612788158
 30
0.0
 11
100.0292854381999
 21
16.6612788158
 31
0.0
  0
LINE
  5
83F
330
80E
100
AcDbEntity
  8
0
  6
Continuous
 62
     7
100
AcDbLine
 10
100.0292854381999
 20
16.6612788158
 30
0.0
 11
98.3181085682
 21
19.7033710291
 31
0.0
  0
LINE
  5
840
330
80E
100
AcDbEntity
  8
0
  6
Continuous
 62
     7
100
AcDbLine
 10
98.91226720360002
 20
21.4145478991
 30
0.0
 11
100.5996777281999
 21
18.4675210675
 31
0.0
  0
LINE
  5
841
330
80E
100
AcDbEntity
  8
0
  6
Continuous
 62
     7
100
AcDbLine
 10
100.5996777281999
 20
21.4145478991
 30
0.0
 11
100.5996777281999
 21
18.4675210675
 31
0.0
  0
LINE
  5
842
330
80E
100
AcDbEntity
  8
0
  6
Continuous
 62
     7
100
AcDbLine
 10
98.3181085682
 20
16.6612788158
 30
0.0
 11
98.3181085682
 21
19.7033710291
 31
0.0
  0
LINE
  5
843
330
80E
100
AcDbEntity
  8
0
  6
Continuous
 62
     7
100
AcDbLine
 10
102.3583872889999
 20
16.75634419749999
 30
0.0
 11
102.3583872889999
 21
17.7069980142
 31
0.0
  0
LINE
  5
844
330
80E
100
AcDbEntity
  8
0
  6
Continuous
 62
     7
100
AcDbLine
 10
105.6856756473
 20
20.4163613916
 30
0.0
 11
105.6856756473
 21
21.36701520829999
 31
0.0
  0
ARC
  5
845
330
80E
100
AcDbEntity
  8
0
  6
Continuous
 62
     7
100
AcDbCircle
 10
104.063028414
 20
18.61843736089998
 30
0.0
 40
1.111619360599997
100
AcDbArc
 50
277.7099956934
 51
295.6884927745999
  0
ARC
  5
846
330
80E
100
AcDbEntity
  8
0
  6
Continuous
 62
     7
100
AcDbCircle
 10
104.3473383967
 20
17.8936115972
 30
0.0
 40
0.3401689265
100
AcDbArc
 50
305.503221255
 51
72.46528985229999
  0
ARC
  5
847
330
80E
100
AcDbEntity
  8
0
  6
Continuous
 62
     7
100
AcDbCircle
 10
103.7813445885999
 20
21.2953185068
 30
0.0
 40
4.756794641099999
100
AcDbArc
 50
252.5939200548001
 51
280.9816604255999
  0
ARC
  5
848
330
80E
100
AcDbEntity
  8
0
  6
Continuous
 62
     7
100
AcDbCircle
 10
104.2361799517
 20
18.6773047703
 30
0.0
 40
2.100726595299998
100
AcDbArc
 50
282.4058358519999
 51
311.8644433928
  0
ARC
  5
849
330
80E
100
AcDbEntity
  8
0
  6
Continuous
 62
     7
100
AcDbCircle
 10
103.9626156045999
 20
20.2856464918
 30
0.0
 40
0.3029626476
100
AcDbArc
 50
154.4400348282
 51
221.8201698800999
  0
ARC
  5
84A
330
80E
100
AcDbEntity
  8
0
  6
Continuous
 62
     7
100
AcDbCircle
 10
104.0418367559
 20
20.2064253405
 30
0.0
 40
0.4103089737
100
AcDbArc
 50
102.8287828680999
 51
149.2259639003
  0
ARC
  5
84B
330
80E
100
AcDbEntity
  8
0
  6
Continuous
 62
     7
100
AcDbCircle
 10
104.4588635915999
 20
18.46409001059999
 30
0.0
 40
2.201836557
100
AcDbArc
 50
84.0400061857
 51
103.3427657870999
  0
ARC
  5
84C
330
80E
100
AcDbEntity
  8
0
  6
Continuous
 62
     7
100
AcDbCircle
 10
104.1178997669
 20
16.0467260867
 30
0.0
 40
4.642373736499997
100
AcDbArc
 50
70.2625858546
 51
82.95241863799999
  0
ARC
  5
84D
330
80E
100
AcDbEntity
  8
0
  6
Continuous
 62
     7
100
AcDbCircle
 10
103.6038815646999
 20
20.7183489764
 30
0.0
 40
3.258755990899997
100
AcDbArc
 50
247.5300206145
 51
280.7579522143
  0
ARC
  5
84E
330
80E
100
AcDbEntity
  8
0
  6
Continuous
 62
     7
100
AcDbCircle
 10
97.21891509270001
 20
2.4668290159
 30
0.0
 40
17.3316084133
100
AcDbArc
 50
65.34146746500001
 51
67.39977707359999
  0
ARC
  5
84F
330
80E
100
AcDbEntity
  8
0
  6
Continuous
 62
     7
100
AcDbCircle
 10
108.0147774981
 20
28.259255379
 30
0.0
 40
10.6291642039
100
AcDbArc
 50
242.8620101252001
 51
247.1042029186
  0
ARC
  5
850
330
80E
100
AcDbEntity
  8
0
  6
Continuous
 62
     7
100
AcDbCircle
 10
104.1598762715
 20
20.725323882
 30
0.0
 40
2.166291629199998
100
AcDbArc
 50
227.3119280793999
 51
242.7040315235
  0
ARC
  5
851
330
80E
100
AcDbEntity
  8
0
  6
Continuous
 62
     7
100
AcDbCircle
 10
103.5558454618999
 20
20.0196462412
 30
0.0
 40
1.238521734
100
AcDbArc
 50
194.7952194236
 51
225.7176549047
  0
ARC
  5
852
330
80E
100
AcDbEntity
  8
0
  6
Continuous
 62
     7
100
AcDbCircle
 10
103.6180035961
 20
20.05986621039999
 30
0.0
 40
1.309092072899999
100
AcDbArc
 50
164.1974860461
 51
195.8025139539
  0
ARC
  5
853
330
80E
100
AcDbEntity
  8
0
  6
Continuous
 62
     7
100
AcDbCircle
 10
104.1750273167
 20
19.1715990505
 30
0.0
 40
2.366924815299999
100
AcDbArc
 50
86.22180229280001
 51
120.4272602309
  0
ARC
  5
854
330
80E
100
AcDbEntity
  8
0
  6
Continuous
 62
     7
100
AcDbCircle
 10
103.9061705341999
 20
12.4754312294
 30
0.0
 40
9.0679051661
100
AcDbArc
 50
78.68270492259998
 51
87.3147599624
  0
ARC
  5
855
330
80E
100
AcDbEntity
  8
0
  6
Continuous
 62
     7
100
AcDbCircle
 10
103.4501013557999
 20
20.1673739729
 30
0.0
 40
1.119747444
100
AcDbArc
 50
142.8139179029999
 51
167.1522951416999
  0
ARC
  5
856
330
80E
100
AcDbEntity
  8
0
  6
Continuous
 62
     7
100
AcDbCircle
 10
103.7954106973999
 20
19.86079227619999
 30
0.0
 40
1.580546684499998
100
AcDbArc
 50
121.2140948535
 51
141.5254768286
  0
ARC
  5
857
330
80E
100
AcDbEntity
  8
0
  6
Continuous
 62
     7
100
AcDbCircle
 10
104.372585063
 20
20.6718496049
 30
0.0
 40
0.8661276051999998
100
AcDbArc
 50
222.7760387596
 51
239.0362434679
  0
ARC
  5
858
330
80E
100
AcDbEntity
  8
0
  6
Continuous
 62
     7
100
AcDbCircle
 10
101.8658754847
 20
13.3415774063
 30
0.0
 40
6.858773576299999
100
AcDbArc
 50
59.90202725599999
 51
68.2036481279
  0
ARC
  5
859
330
80E
100
AcDbEntity
  8
0
  6
Continuous
 62
     7
100
AcDbCircle
 10
105.2743699785
 20
22.26746391349999
 30
0.0
 40
2.698741017099999
100
AcDbArc
 50
240.0481997804
 51
251.3779673736999
  0
ARC
  5
85A
330
80E
100
AcDbEntity
  8
0
  6
Continuous
 62
     7
100
AcDbCircle
 10
104.6089128116999
 20
18.1105652982
 30
0.0
 40
1.4334474881
100
AcDbArc
 50
315.8904553224
 51
333.5229264372999
  0
ARC
  5
85B
330
80E
100
AcDbEntity
  8
0
  6
Continuous
 62
     7
100
AcDbCircle
 10
104.6135510555
 20
18.057158148
 30
0.0
 40
1.406228711899998
100
AcDbArc
 50
335.3867972702
 51
24.39151194019999
  0
ARC
  5
85C
330
80E
100
AcDbEntity
  8
0
  6
Continuous
 62
     7
100
AcDbCircle
 10
104.5413461519
 20
17.97930145619999
 30
0.0
 40
1.504702514799999
100
AcDbArc
 50
25.95629166050001
 51
59.4834829668
  0
LINE
  5
85D
330
80E
100
AcDbEntity
  8
0
  6
Continuous
 62
     7
100
AcDbLine
 10
74.7656602606
 20
16.75634419749999
 30
0.0
 11
74.7656602606
 21
17.7069980142
 31
0.0
  0
LINE
  5
85E
330
80E
100
AcDbEntity
  8
0
  6
Continuous
 62
     7
100
AcDbLine
 10
78.09294861879997
 20
20.4163613916
 30
0.0
 11
78.09294861879997
 21
21.36701520829999
 31
0.0
  0
ARC
  5
85F
330
80E
100
AcDbEntity
  8
0
  6
Continuous
 62
     7
100
AcDbCircle
 10
76.4703013855
 20
18.61843736089998
 30
0.0
 40
1.111619360599997
100
AcDbArc
 50
277.7099956934
 51
295.6884927745999
  0
ARC
  5
860
330
80E
100
AcDbEntity
  8
0
  6
Continuous
 62
     7
100
AcDbCircle
 10
76.7546113683
 20
17.8936115972
 30
0.0
 40
0.3401689265
100
AcDbArc
 50
305.5032212556
 51
72.4652898515
  0
ARC
  5
861
330
80E
100
AcDbEntity
  8
0
  6
Continuous
 62
     7
100
AcDbCircle
 10
76.1886175602
 20
21.2953185068
 30
0.0
 40
4.756794641099999
100
AcDbArc
 50
252.5939200545
 51
280.9816604253
  0
ARC
  5
862
330
80E
100
AcDbEntity
  8
0
  6
Continuous
 62
     7
100
AcDbCircle
 10
76.64345292330001
 20
18.6773047703
 30
0.0
 40
2.100726595299998
100
AcDbArc
 50
282.4058358513
 51
311.8644433923
  0
ARC
  5
863
330
80E
100
AcDbEntity
  8
0
  6
Continuous
 62
     7
100
AcDbCircle
 10
76.3698885762
 20
20.2856464918
 30
0.0
 40
0.3029626476
100
AcDbArc
 50
154.4400348282
 51
221.8201698800999
  0
ARC
  5
864
330
80E
100
AcDbEntity
  8
0
  6
Continuous
 62
     7
100
AcDbCircle
 10
76.4491097276
 20
20.2064253405
 30
0.0
 40
0.4103089737
100
AcDbArc
 50
102.8287828727
 51
149.2259639027
  0
ARC
  5
865
330
80E
100
AcDbEntity
  8
0
  6
Continuous
 62
     7
100
AcDbCircle
 10
76.8661365632
 20
18.46409001059999
 30
0.0
 40
2.201836557
100
AcDbArc
 50
84.0400061859
 51
103.3427657871999
  0
ARC
  5
866
330
80E
100
AcDbEntity
  8
0
  6
Continuous
 62
     7
100
AcDbCircle
 10
76.5251727384
 20
16.0467260867
 30
0.0
 40
4.642373736499997
100
AcDbArc
 50
70.2625858546
 51
82.9524186379
  0
ARC
  5
867
330
80E
100
AcDbEntity
  8
0
  6
Continuous
 62
     7
100
AcDbCircle
 10
76.0111545363
 20
20.7183489764
 30
0.0
 40
3.258755990899997
100
AcDbArc
 50
247.5300206148
 51
280.7579522145
  0
ARC
  5
868
330
80E
100
AcDbEntity
  8
0
  6
Continuous
 62
     7
100
AcDbCircle
 10
69.6261880643
 20
2.4668290159
 30
0.0
 40
17.3316084133
100
AcDbArc
 50
65.34146746500001
 51
67.39977707359999
  0
ARC
  5
869
330
80E
100
AcDbEntity
  8
0
  6
Continuous
 62
     7
100
AcDbCircle
 10
80.4220504697
 20
28.259255379
 30
0.0
 40
10.6291642039
100
AcDbArc
 50
242.8620101252001
 51
247.1042029184999
  0
ARC
  5
86A
330
80E
100
AcDbEntity
  8
0
  6
Continuous
 62
     7
100
AcDbCircle
 10
76.56714924310001
 20
20.725323882
 30
0.0
 40
2.166291629199998
100
AcDbArc
 50
227.3119280793999
 51
242.7040315235
  0
ARC
  5
86B
330
80E
100
AcDbEntity
  8
0
  6
Continuous
 62
     7
100
AcDbCircle
 10
75.9631184335
 20
20.0196462412
 30
0.0
 40
1.238521734
100
AcDbArc
 50
194.7952194234
 51
225.7176549041999
  0
ARC
  5
86C
330
80E
100
AcDbEntity
  8
0
  6
Continuous
 62
     7
100
AcDbCircle
 10
76.58230028830002
 20
19.1715990505
 30
0.0
 40
2.366924815299999
100
AcDbArc
 50
86.22180229280001
 51
120.4272602309
  0
ARC
  5
86D
330
80E
100
AcDbEntity
  8
0
  6
Continuous
 62
     7
100
AcDbCircle
 10
76.3134435058
 20
12.4754312294
 30
0.0
 40
9.0679051661
100
AcDbArc
 50
78.68270492259998
 51
87.3147599624
  0
ARC
  5
86E
330
80E
100
AcDbEntity
  8
0
  6
Continuous
 62
     7
100
AcDbCircle
 10
76.20268366899998
 20
19.86079227619999
 30
0.0
 40
1.580546684599998
100
AcDbArc
 50
121.2140948540999
 51
141.5254768289999
  0
ARC
  5
86F
330
80E
100
AcDbEntity
  8
0
  6
Continuous
 62
     7
100
AcDbCircle
 10
76.7798580346
 20
20.6718496049
 30
0.0
 40
0.8661276051999998
100
AcDbArc
 50
222.7760387596
 51
239.0362434679
  0
ARC
  5
870
330
80E
100
AcDbEntity
  8
0
  6
Continuous
 62
     7
100
AcDbCircle
 10
74.2731484563
 20
13.3415774063
 30
0.0
 40
6.858773576299999
100
AcDbArc
 50
59.90202725620001
 51
68.20364812820002
  0
ARC
  5
871
330
80E
100
AcDbEntity
  8
0
  6
Continuous
 62
     7
100
AcDbCircle
 10
77.6816429501
 20
22.26746391349999
 30
0.0
 40
2.698741017099999
100
AcDbArc
 50
240.0481997804
 51
251.3779673734
  0
ARC
  5
872
330
80E
100
AcDbEntity
  8
0
  6
Continuous
 62
     7
100
AcDbCircle
 10
77.0161857833
 20
18.1105652982
 30
0.0
 40
1.4334474881
100
AcDbArc
 50
315.8904553225998
 51
333.5229264375
  0
ARC
  5
873
330
80E
100
AcDbEntity
  8
0
  6
Continuous
 62
     7
100
AcDbCircle
 10
77.020824027
 20
18.057158148
 30
0.0
 40
1.406228711899998
100
AcDbArc
 50
335.3867972703
 51
24.3915119403
  0
ARC
  5
874
330
80E
100
AcDbEntity
  8
0
  6
Continuous
 62
     7
100
AcDbCircle
 10
76.94861912350001
 20
17.97930145619999
 30
0.0
 40
1.504702514699999
100
AcDbArc
 50
25.9562916611
 51
59.4834829676
  0
LINE
  5
875
330
80E
100
AcDbEntity
  8
0
  6
Continuous
 62
     7
100
AcDbLine
 10
74.9574888499
 20
20.8337423583
 30
0.0
 11
75.2315546745
 21
21.10781543579999
 31
0.0
  0
ARC
  5
876
330
80E
100
AcDbEntity
  8
0
  6
Continuous
 62
     7
100
AcDbCircle
 10
76.0252765676
 20
20.05986621039999
 30
0.0
 40
1.309092072899999
100
AcDbArc
 50
164.1974860461
 51
195.8025139539
  0
ARC
  5
877
330
80E
100
AcDbEntity
  8
0
  6
Continuous
 62
     7
100
AcDbCircle
 10
75.8573743274
 20
20.1673739729
 30
0.0
 40
1.119747444
100
AcDbArc
 50
142.8139179029999
 51
167.1522951416999
  0
ENDBLK
  5
878
330
80E
100
AcDbEntity
  8
0
100
AcDbBlockEnd
  0
BLOCK
  5
255B
330
2551
100
AcDbEntity
  8
0
 62
     1
 48
0.1
100
AcDbBlockBegin
  2
*D37
 70
     1
 10
0.0
 20
0.0
 30
0.0
  3
*D37
  1

  0
LINE
  5
3947
330
2551
100
AcDbEntity
  8
11100_LEFT_DIM
  6
Continuous
 62
     7
370
    -2
100
AcDbLine
 10
434.5256137267386
 20
339.3907791190819
 30
0.0
 11
434.5256137267386
 21
309.6795556172054
 31
0.0
  0
LINE
  5
3948
330
2551
100
AcDbEntity
  8
11100_LEFT_DIM
  6
Continuous
 62
     7
370
    -2
100
AcDbLine
 10
429.4256137267386
 20
325.2407791190818
 30
0.0
 11
429.4256137267386
 21
309.6795556172054
 31
0.0
  0
LINE
  5
3949
330
2551
100
AcDbEntity
  8
11100_LEFT_DIM
  6
Continuous
 62
     7
370
    -2
100
AcDbLine
 10
437.0256137267386
 20
310.6795556172055
 30
0.0
 11
439.5256137267386
 21
310.6795556172055
 31
0.0
  0
LINE
  5
394A
330
2551
100
AcDbEntity
  8
11100_LEFT_DIM
  6
Continuous
 62
     7
370
    -2
100
AcDbLine
 10
426.9256137267386
 20
310.6795556172055
 30
0.0
 11
424.4256137267385
 21
310.6795556172055
 31
0.0
  0
LINE
  5
394B
330
2551
100
AcDbEntity
  8
11100_LEFT_DIM
  6
Continuous
 62
     7
370
    -2
100
AcDbLine
 10
434.5256137267386
 20
310.6795556172055
 30
0.0
 11
429.4256137267386
 21
310.6795556172055
 31
0.0
  0
SOLID
  5
394C
330
2551
100
AcDbEntity
  8
11100_LEFT_DIM
  6
Continuous
 62
     7
100
AcDbTrace
 10
437.0256137267386
 20
311.0962222838721
 30
0.0
 11
437.0256137267386
 21
310.2628889505388
 31
0.0
 12
434.5256137267386
 22
310.6795556172055
 32
0.0
 13
434.5256137267386
 23
310.6795556172055
 33
0.0
  0
SOLID
  5
394D
330
2551
100
AcDbEntity
  8
11100_LEFT_DIM
  6
Continuous
 62
     7
100
AcDbTrace
 10
426.9256137267386
 20
311.0962222838721
 30
0.0
 11
426.9256137267386
 21
310.2628889505388
 31
0.0
 12
429.4256137267386
 22
310.6795556172055
 32
0.0
 13
429.4256137267386
 23
310.6795556172055
 33
0.0
  0
MTEXT
  5
394E
330
2551
100
AcDbEntity
  8
11100_LEFT_DIM
  6
Continuous
 62
     7
370
    13
100
AcDbMText
 10
421.2589470600719
 20
310.6795556172055
 30
0.0
 40
3.5
 41
0.0
 71
     5
 72
     1
  1
\A1;5
 73
     1
 44
1.0
1001
ACAD
1000
MTEXTBEGIN
1070
    73
1070
     1
1070
    44
1040
1.0
1070
    74
1070
     0
1000
MTEXTEND
  0
POINT
  5
394F
330
2551
100
AcDbEntity
  8
Defpoints
  6
Continuous
 62
     0
100
AcDbPoint
 10
434.5256137267386
 20
341.3907791190819
 30
0.0
  0
POINT
  5
3950
330
2551
100
AcDbEntity
  8
Defpoints
  6
Continuous
 62
     0
100
AcDbPoint
 10
429.4256137267386
 20
327.2407791190818
 30
0.0
  0
POINT
  5
3951
330
2551
100
AcDbEntity
  8
Defpoints
  6
Continuous
 62
     0
100
AcDbPoint
 10
429.4256137267386
 20
310.6795556172055
 30
0.0
  0
ENDBLK
  5
255C
330
2551
100
AcDbEntity
  8
0
 62
     1
 48
0.1
100
AcDbBlockEnd
  0
BLOCK
  5
2575
330
256A
100
AcDbEntity
  8
0
 62
     1
 48
0.1
100
AcDbBlockBegin
  2
*D38
 70
     1
 10
0.0
 20
0.0
 30
0.0
  3
*D38
  1

  0
LINE
  5
38A1
330
256A
100
AcDbEntity
  8
11100_LEFT_DIM
  6
Continuous
 62
     7
370
    -2
100
AcDbLine
 10
434.5256137267386
 20
322.9407791190818
 30
0.0
 11
434.5256137267386
 21
309.6795556172054
 31
0.0
  0
LINE
  5
38A2
330
256A
100
AcDbEntity
  8
11100_LEFT_DIM
  6
Continuous
 62
     7
370
    -2
100
AcDbLine
 10
483.5256137267387
 20
316.9407791190817
 30
0.0
 11
483.5256137267387
 21
309.6795556172054
 31
0.0
  0
LINE
  5
38A3
330
256A
100
AcDbEntity
  8
11100_LEFT_DIM
  6
Continuous
 62
     7
370
    -2
100
AcDbLine
 10
437.0256137267386
 20
310.6795556172055
 30
0.0
 11
454.108947060072
 21
310.6795556172055
 31
0.0
  0
LINE
  5
38A4
330
256A
100
AcDbEntity
  8
11100_LEFT_DIM
  6
Continuous
 62
     7
370
    -2
100
AcDbLine
 10
481.0256137267388
 20
310.6795556172055
 30
0.0
 11
463.9422803934054
 21
310.6795556172055
 31
0.0
  0
SOLID
  5
38A5
330
256A
100
AcDbEntity
  8
11100_LEFT_DIM
  6
Continuous
 62
     7
100
AcDbTrace
 10
437.0256137267386
 20
311.0962222838721
 30
0.0
 11
437.0256137267386
 21
310.2628889505388
 31
0.0
 12
434.5256137267386
 22
310.6795556172055
 32
0.0
 13
434.5256137267386
 23
310.6795556172055
 33
0.0
  0
SOLID
  5
38A6
330
256A
100
AcDbEntity
  8
11100_LEFT_DIM
  6
Continuous
 62
     7
100
AcDbTrace
 10
481.0256137267388
 20
311.0962222838721
 30
0.0
 11
481.0256137267388
 21
310.2628889505388
 31
0.0
 12
483.5256137267387
 22
310.6795556172055
 32
0.0
 13
483.5256137267387
 23
310.6795556172055
 33
0.0
  0
MTEXT
  5
38A7
330
256A
100
AcDbEntity
  8
11100_LEFT_DIM
  6
Continuous
 62
     7
370
    13
100
AcDbMText
 10
459.0256137267386
 20
310.6795556172055
 30
0.0
 40
3.5
 41
0.0
 71
     5
 72
     1
  1
\A1;49
 73
     1
 44
1.0
1001
ACAD
1000
MTEXTBEGIN
1070
    73
1070
     1
1070
    44
1040
1.0
1070
    74
1070
     0
1000
MTEXTEND
  0
POINT
  5
38A8
330
256A
100
AcDbEntity
  8
Defpoints
  6
Continuous
 62
     0
100
AcDbPoint
 10
434.5256137267386
 20
324.9407791190818
 30
0.0
  0
POINT
  5
38A9
330
256A
100
AcDbEntity
  8
Defpoints
  6
Continuous
 62
     0
100
AcDbPoint
 10
483.5256137267387
 20
318.9407791190817
 30
0.0
  0
POINT
  5
38AA
330
256A
100
AcDbEntity
  8
Defpoints
  6
Continuous
 62
     0
100
AcDbPoint
 10
483.5256137267387
 20
310.6795556172055
 30
0.0
  0
ENDBLK
  5
2576
330
256A
100
AcDbEntity
  8
0
 62
     1
 48
0.1
100
AcDbBlockEnd
  0
BLOCK
  5
258F
330
2584
100
AcDbEntity
  8
0
 62
     1
 48
0.1
100
AcDbBlockBegin
  2
*D39
 70
     1
 10
0.0
 20
0.0
 30
0.0
  3
*D39
  1

  0
LINE
  5
38AB
330
2584
100
AcDbEntity
  8
11100_LEFT_DIM
  6
Continuous
 62
     7
370
    -2
100
AcDbLine
 10
434.5256137267386
 20
322.8782791190818
 30
0.0
 11
434.5256137267386
 21
303.3404967505754
 31
0.0
  0
LINE
  5
38AC
330
2584
100
AcDbEntity
  8
11100_LEFT_DIM
  6
Continuous
 62
     7
370
    -2
100
AcDbLine
 10
505.5256137267385
 20
320.5519596773507
 30
0.0
 11
505.5256137267385
 21
303.3404967505754
 31
0.0
  0
LINE
  5
38AD
330
2584
100
AcDbEntity
  8
11100_LEFT_DIM
  6
Continuous
 62
     7
370
    -2
100
AcDbLine
 10
437.0256137267386
 20
304.3404967505754
 30
0.0
 11
465.4006137267385
 21
304.3404967505754
 31
0.0
  0
LINE
  5
38AE
330
2584
100
AcDbEntity
  8
11100_LEFT_DIM
  6
Continuous
 62
     7
370
    -2
100
AcDbLine
 10
503.0256137267385
 20
304.3404967505754
 30
0.0
 11
474.6506137267386
 21
304.3404967505754
 31
0.0
  0
SOLID
  5
38AF
330
2584
100
AcDbEntity
  8
11100_LEFT_DIM
  6
Continuous
 62
     7
100
AcDbTrace
 10
437.0256137267386
 20
304.7571634172421
 30
0.0
 11
437.0256137267386
 21
303.9238300839087
 31
0.0
 12
434.5256137267386
 22
304.3404967505754
 32
0.0
 13
434.5256137267386
 23
304.3404967505754
 33
0.0
  0
SOLID
  5
38B0
330
2584
100
AcDbEntity
  8
11100_LEFT_DIM
  6
Continuous
 62
     7
100
AcDbTrace
 10
503.0256137267385
 20
304.7571634172421
 30
0.0
 11
503.0256137267385
 21
303.9238300839087
 31
0.0
 12
505.5256137267385
 22
304.3404967505754
 32
0.0
 13
505.5256137267385
 23
304.3404967505754
 33
0.0
  0
MTEXT
  5
38B1
330
2584
100
AcDbEntity
  8
11100_LEFT_DIM
  6
Continuous
 62
     7
370
    13
100
AcDbMText
 10
470.0256137267386
 20
304.3404967505754
 30
0.0
 40
3.5
 41
0.0
 71
     5
 72
     1
  1
\A1;71
 73
     1
 44
1.0
1001
ACAD
1000
MTEXTBEGIN
1070
    73
1070
     1
1070
    44
1040
1.0
1070
    74
1070
     0
1000
MTEXTEND
  0
POINT
  5
38B2
330
2584
100
AcDbEntity
  8
Defpoints
  6
Continuous
 62
     0
100
AcDbPoint
 10
434.5256137267386
 20
324.8782791190818
 30
0.0
  0
POINT
  5
38B3
330
2584
100
AcDbEntity
  8
Defpoints
  6
Continuous
 62
     0
100
AcDbPoint
 10
505.5256137267385
 20
322.5519596773507
 30
0.0
  0
POINT
  5
38B4
330
2584
100
AcDbEntity
  8
Defpoints
  6
Continuous
 62
     0
100
AcDbPoint
 10
505.5256137267385
 20
304.3404967505754
 30
0.0
  0
ENDBLK
  5
2590
330
2584
100
AcDbEntity
  8
0
 62
     1
 48
0.1
100
AcDbBlockEnd
  0
BLOCK
  5
25A9
330
259E
100
AcDbEntity
  8
0
 62
     1
 48
0.1
100
AcDbBlockBegin
  2
*D40
 70
     1
 10
0.0
 20
0.0
 30
0.0
  3
*D40
  1

  0
LINE
  5
38B5
330
259E
100
AcDbEntity
  8
11100_LEFT_DIM
  6
Continuous
 62
     7
370
    -2
100
AcDbLine
 10
434.5256137267386
 20
322.8157791190818
 30
0.0
 11
434.5256137267386
 21
297.1206823999894
 31
0.0
  0
LINE
  5
38B6
330
259E
100
AcDbEntity
  8
11100_LEFT_DIM
  6
Continuous
 62
     7
370
    -2
100
AcDbLine
 10
530.3506060675251
 20
345.204036259422
 30
0.0
 11
530.3506060675251
 21
297.1206823999894
 31
0.0
  0
LINE
  5
38B7
330
259E
100
AcDbEntity
  8
11100_LEFT_DIM
  6
Continuous
 62
     7
370
    -2
100
AcDbLine
 10
437.0256137267386
 20
298.1206823999894
 30
0.0
 11
477.5214432304651
 21
298.1206823999894
 31
0.0
  0
LINE
  5
38B8
330
259E
100
AcDbEntity
  8
11100_LEFT_DIM
  6
Continuous
 62
     7
370
    -2
100
AcDbLine
 10
527.8506060675251
 20
298.1206823999894
 30
0.0
 11
487.3547765637986
 21
298.1206823999894
 31
0.0
  0
SOLID
  5
38B9
330
259E
100
AcDbEntity
  8
11100_LEFT_DIM
  6
Continuous
 62
     7
100
AcDbTrace
 10
437.0256137267386
 20
298.5373490666561
 30
0.0
 11
437.0256137267386
 21
297.7040157333227
 31
0.0
 12
434.5256137267386
 22
298.1206823999894
 32
0.0
 13
434.5256137267386
 23
298.1206823999894
 33
0.0
  0
SOLID
  5
38BA
330
259E
100
AcDbEntity
  8
11100_LEFT_DIM
  6
Continuous
 62
     7
100
AcDbTrace
 10
527.8506060675251
 20
298.5373490666561
 30
0.0
 11
527.8506060675251
 21
297.7040157333227
 31
0.0
 12
530.3506060675251
 22
298.1206823999894
 32
0.0
 13
530.3506060675251
 23
298.1206823999894
 33
0.0
  0
MTEXT
  5
38BB
330
259E
100
AcDbEntity
  8
11100_LEFT_DIM
  6
Continuous
 62
     7
370
    13
100
AcDbMText
 10
482.4381098971318
 20
298.1206823999894
 30
0.0
 40
3.5
 41
0.0
 71
     5
 72
     1
  1
\A1;96
 73
     1
 44
1.0
1001
ACAD
1000
MTEXTBEGIN
1070
    73
1070
     1
1070
    44
1040
1.0
1070
    74
1070
     0
1000
MTEXTEND
  0
POINT
  5
38BC
330
259E
100
AcDbEntity
  8
Defpoints
  6
Continuous
 62
     0
100
AcDbPoint
 10
434.5256137267386
 20
324.8157791190818
 30
0.0
  0
POINT
  5
38BD
330
259E
100
AcDbEntity
  8
Defpoints
  6
Continuous
 62
     0
100
AcDbPoint
 10
530.3506060675251
 20
347.204036259422
 30
0.0
  0
POINT
  5
38BE
330
259E
100
AcDbEntity
  8
Defpoints
  6
Continuous
 62
     0
100
AcDbPoint
 10
530.3506060675251
 20
298.1206823999894
 30
0.0
  0
ENDBLK
  5
25AA
330
259E
100
AcDbEntity
  8
0
 62
     1
 48
0.1
100
AcDbBlockEnd
  0
BLOCK
  5
25C3
330
25B8
100
AcDbEntity
  8
0
 62
     1
 48
0.1
100
AcDbBlockBegin
  2
*D41
 70
     1
 10
0.0
 20
0.0
 30
0.0
  3
*D41
  1

  0
LINE
  5
38BF
330
25B8
100
AcDbEntity
  8
11100_LEFT_DIM
  6
Continuous
 62
     7
370
    -2
100
AcDbLine
 10
434.5256137267386
 20
322.8782791190818
 30
0.0
 11
434.5256137267386
 21
290.1110055728603
 31
0.0
  0
LINE
  5
38C0
330
25B8
100
AcDbEntity
  8
11100_LEFT_DIM
  6
Continuous
 62
     7
370
    -2
100
AcDbLine
 10
603.3678095133208
 20
356.5959993306231
 30
0.0
 11
603.3678095133208
 21
290.1110055728603
 31
0.0
  0
LINE
  5
38C1
330
25B8
100
AcDbEntity
  8
11100_LEFT_DIM
  6
Continuous
 62
     7
370
    -2
100
AcDbLine
 10
437.0256137267386
 20
291.1110055728603
 30
0.0
 11
512.2800449533631
 21
291.1110055728603
 31
0.0
  0
LINE
  5
38C2
330
25B8
100
AcDbEntity
  8
11100_LEFT_DIM
  6
Continuous
 62
     7
370
    -2
100
AcDbLine
 10
600.8678095133208
 20
291.1110055728603
 30
0.0
 11
525.6133782866964
 21
291.1110055728603
 31
0.0
  0
SOLID
  5
38C3
330
25B8
100
AcDbEntity
  8
11100_LEFT_DIM
  6
Continuous
 62
     7
100
AcDbTrace
 10
437.0256137267386
 20
291.527672239527
 30
0.0
 11
437.0256137267386
 21
290.6943389061936
 31
0.0
 12
434.5256137267386
 22
291.1110055728603
 32
0.0
 13
434.5256137267386
 23
291.1110055728603
 33
0.0
  0
SOLID
  5
38C4
330
25B8
100
AcDbEntity
  8
11100_LEFT_DIM
  6
Continuous
 62
     7
100
AcDbTrace
 10
600.8678095133208
 20
291.527672239527
 30
0.0
 11
600.8678095133208
 21
290.6943389061936
 31
0.0
 12
603.3678095133208
 22
291.1110055728603
 32
0.0
 13
603.3678095133208
 23
291.1110055728603
 33
0.0
  0
MTEXT
  5
38C5
330
25B8
100
AcDbEntity
  8
11100_LEFT_DIM
  6
Continuous
 62
     7
370
    13
100
AcDbMText
 10
518.9467116200297
 20
291.1110055728603
 30
0.0
 40
3.5
 41
0.0
 71
     5
 72
     1
  1
\A1;169
 73
     1
 44
1.0
1001
ACAD
1000
MTEXTBEGIN
1070
    73
1070
     1
1070
    44
1040
1.0
1070
    74
1070
     0
1000
MTEXTEND
  0
POINT
  5
38C6
330
25B8
100
AcDbEntity
  8
Defpoints
  6
Continuous
 62
     0
100
AcDbPoint
 10
434.5256137267386
 20
324.8782791190818
 30
0.0
  0
POINT
  5
38C7
330
25B8
100
AcDbEntity
  8
Defpoints
  6
Continuous
 62
     0
100
AcDbPoint
 10
603.3678095133208
 20
358.5959993306231
 30
0.0
  0
POINT
  5
38C8
330
25B8
100
AcDbEntity
  8
Defpoints
  6
Continuous
 62
     0
100
AcDbPoint
 10
603.3678095133208
 20
291.1110055728603
 30
0.0
  0
ENDBLK
  5
25C4
330
25B8
100
AcDbEntity
  8
0
 62
     1
 48
0.1
100
AcDbBlockEnd
  0
BLOCK
  5
25DD
330
25D2
100
AcDbEntity
  8
0
 62
     1
 48
0.1
100
AcDbBlockBegin
  2
*D42
 70
     1
 10
0.0
 20
0.0
 30
0.0
  3
*D42
  1

  0
LINE
  5
3952
330
25D2
100
AcDbEntity
  8
11100_LEFT_DIM
  6
Continuous
 62
     7
370
    -2
100
AcDbLine
 10
427.4256137267386
 20
330.9407791190817
 30
0.0
 11
419.7333021358115
 21
330.9407791190817
 31
0.0
  0
LINE
  5
3953
330
25D2
100
AcDbEntity
  8
11100_LEFT_DIM
  6
Continuous
 62
     7
370
    -2
100
AcDbLine
 10
427.4256137267386
 20
390.9418791190818
 30
0.0
 11
419.7333021358116
 21
390.9418791190818
 31
0.0
  0
LINE
  5
3954
330
25D2
100
AcDbEntity
  8
11100_LEFT_DIM
  6
Continuous
 62
     7
370
    -2
100
AcDbLine
 10
420.7333021358115
 20
333.4407791190817
 30
0.0
 11
420.7333021358115
 21
356.0246624524151
 31
0.0
  0
LINE
  5
3955
330
25D2
100
AcDbEntity
  8
11100_LEFT_DIM
  6
Continuous
 62
     7
370
    -2
100
AcDbLine
 10
420.7333021358116
 20
388.4418791190818
 30
0.0
 11
420.7333021358115
 21
365.8579957857485
 31
0.0
  0
SOLID
  5
3956
330
25D2
100
AcDbEntity
  8
11100_LEFT_DIM
  6
Continuous
 62
     7
100
AcDbTrace
 10
420.3166354691449
 20
333.4407791190817
 30
0.0
 11
421.1499688024782
 21
333.4407791190817
 31
0.0
 12
420.7333021358115
 22
330.9407791190817
 32
0.0
 13
420.7333021358115
 23
330.9407791190817
 33
0.0
  0
SOLID
  5
3957
330
25D2
100
AcDbEntity
  8
11100_LEFT_DIM
  6
Continuous
 62
     7
100
AcDbTrace
 10
420.3166354691449
 20
388.4418791190818
 30
0.0
 11
421.1499688024783
 21
388.4418791190818
 31
0.0
 12
420.7333021358116
 22
390.9418791190818
 32
0.0
 13
420.7333021358116
 23
390.9418791190818
 33
0.0
  0
MTEXT
  5
3958
330
25D2
100
AcDbEntity
  8
11100_LEFT_DIM
  6
Continuous
 62
     7
370
    13
100
AcDbMText
 10
420.7333021358115
 20
360.9413291190819
 30
0.0
 40
3.5
 41
0.0
 71
     5
 72
     1
  1
\A1;60
 11
0.0000000000000001
 21
1.0
 31
0.0
 73
     1
 44
1.0
1001
ACAD
1000
MTEXTBEGIN
1070
    73
1070
     1
1070
    44
1040
1.0
1070
    74
1070
     0
1000
MTEXTEND
  0
POINT
  5
3959
330
25D2
100
AcDbEntity
  8
Defpoints
  6
Continuous
 62
     0
100
AcDbPoint
 10
429.4256137267386
 20
330.9407791190817
 30
0.0
  0
POINT
  5
395A
330
25D2
100
AcDbEntity
  8
Defpoints
  6
Continuous
 62
     0
100
AcDbPoint
 10
429.4256137267386
 20
390.9418791190818
 30
0.0
  0
POINT
  5
395B
330
25D2
100
AcDbEntity
  8
Defpoints
  6
Continuous
 62
     0
100
AcDbPoint
 10
420.7333021358116
 20
390.9418791190818
 30
0.0
  0
ENDBLK
  5
25DE
330
25D2
100
AcDbEntity
  8
0
 62
     1
 48
0.1
100
AcDbBlockEnd
  0
BLOCK
  5
375B
330
3750
100
AcDbEntity
  8
0
 62
     1
 48
0.1
100
AcDbBlockBegin
  2
*D84
 70
     1
 10
0.0
 20
0.0
 30
0.0
  3
*D84
  1

  0
LINE
  5
38EB
330
3750
100
AcDbEntity
  8
10100_FRONT_DIM
  6
Continuous
 62
     7
370
    -2
100
AcDbLine
 10
338.4675015321934
 20
323.7392791190819
 30
0.0
 11
338.4675015321934
 21
304.09010750808
 31
0.0
  0
LINE
  5
38EC
330
3750
100
AcDbEntity
  8
10100_FRONT_DIM
  6
Continuous
 62
     7
370
    -2
100
AcDbLine
 10
383.3675015321934
 20
323.7392791190819
 30
0.0
 11
383.3675015321934
 21
304.09010750808
 31
0.0
  0
LINE
  5
38ED
330
3750
100
AcDbEntity
  8
10100_FRONT_DIM
  6
Continuous
 62
     7
370
    -2
100
AcDbLine
 10
340.9675015321933
 20
305.0901075080799
 30
0.0
 11
356.0008348655267
 21
305.0901075080799
 31
0.0
  0
LINE
  5
38EE
330
3750
100
AcDbEntity
  8
10100_FRONT_DIM
  6
Continuous
 62
     7
370
    -2
100
AcDbLine
 10
380.8675015321934
 20
305.0901075080799
 30
0.0
 11
365.8341681988601
 21
305.0901075080799
 31
0.0
  0
SOLID
  5
38EF
330
3750
100
AcDbEntity
  8
10100_FRONT_DIM
  6
Continuous
 62
     7
100
AcDbTrace
 10
340.9675015321933
 20
305.5067741747466
 30
0.0
 11
340.9675015321933
 21
304.6734408414133
 31
0.0
 12
338.4675015321934
 22
305.0901075080799
 32
0.0
 13
338.4675015321934
 23
305.0901075080799
 33
0.0
  0
SOLID
  5
38F0
330
3750
100
AcDbEntity
  8
10100_FRONT_DIM
  6
Continuous
 62
     7
100
AcDbTrace
 10
380.8675015321934
 20
305.5067741747466
 30
0.0
 11
380.8675015321934
 21
304.6734408414133
 31
0.0
 12
383.3675015321934
 22
305.0901075080799
 32
0.0
 13
383.3675015321934
 23
305.0901075080799
 33
0.0
  0
MTEXT
  5
38F1
330
3750
100
AcDbEntity
  8
10100_FRONT_DIM
  6
Continuous
 62
     7
370
    13
100
AcDbMText
 10
360.9175015321934
 20
305.0901075080799
 30
0.0
 40
3.5
 41
0.0
 71
     5
 72
     1
  1
\A1;45
 73
     1
 44
1.0
1001
ACAD
1000
MTEXTBEGIN
1070
    73
1070
     1
1070
    44
1040
1.0
1070
    74
1070
     0
1000
MTEXTEND
  0
POINT
  5
38F2
330
3750
100
AcDbEntity
  8
Defpoints
  6
Continuous
 62
     0
100
AcDbPoint
 10
338.4675015321934
 20
325.7392791190819
 30
0.0
  0
POINT
  5
38F3
330
3750
100
AcDbEntity
  8
Defpoints
  6
Continuous
 62
     0
100
AcDbPoint
 10
383.3675015321934
 20
325.7392791190819
 30
0.0
  0
POINT
  5
38F4
330
3750
100
AcDbEntity
  8
Defpoints
  6
Continuous
 62
     0
100
AcDbPoint
 10
383.3675015321934
 20
305.0901075080799
 30
0.0
  0
ENDBLK
  5
375C
330
3750
100
AcDbEntity
  8
0
 62
     1
 48
0.1
100
AcDbBlockEnd
  0
BLOCK
  5
3971
330
3966
100
AcDbEntity
  8
0
 62
     1
 48
0.1
100
AcDbBlockBegin
  2
*D88
 70
     1
 10
0.0
 20
0.0
 30
0.0
  3
*D88
  1

  0
LINE
  5
39A3
330
3966
100
AcDbEntity
  8
10100_FRONT_DIM
  6
Continuous
 62
     7
370
    -2
100
AcDbLine
 10
383.2186405770367
 20
348.3258466329123
 30
0.0
 11
392.8002763037055
 21
348.3258466329123
 31
0.0
  0
LINE
  5
39A4
330
3966
100
AcDbEntity
  8
10100_FRONT_DIM
  6
Continuous
 62
     7
370
    -2
100
AcDbLine
 10
383.2205245321933
 20
373.4386791190821
 30
0.0
 11
392.8002763037055
 21
373.4386791190821
 31
0.0
  0
LINE
  5
39A5
330
3966
100
AcDbEntity
  8
10100_FRONT_DIM
  6
Continuous
 62
     7
370
    -2
100
AcDbLine
 10
391.8002763037055
 20
350.8258466329122
 30
0.0
 11
391.8002763037055
 21
355.9655962093305
 31
0.0
  0
LINE
  5
39A6
330
3966
100
AcDbEntity
  8
10100_FRONT_DIM
  6
Continuous
 62
     7
370
    -2
100
AcDbLine
 10
391.8002763037055
 20
370.9386791190821
 30
0.0
 11
391.8002763037055
 21
365.7989295426639
 31
0.0
  0
SOLID
  5
39A7
330
3966
100
AcDbEntity
  8
10100_FRONT_DIM
  6
Continuous
 62
     7
100
AcDbTrace
 10
391.3836096370388
 20
350.8258466329122
 30
0.0
 11
392.2169429703722
 21
350.8258466329122
 31
0.0
 12
391.8002763037055
 22
348.3258466329123
 32
0.0
 13
391.8002763037055
 23
348.3258466329123
 33
0.0
  0
SOLID
  5
39A8
330
3966
100
AcDbEntity
  8
10100_FRONT_DIM
  6
Continuous
 62
     7
100
AcDbTrace
 10
391.3836096370388
 20
370.9386791190821
 30
0.0
 11
392.2169429703722
 21
370.9386791190821
 31
0.0
 12
391.8002763037055
 22
373.4386791190821
 32
0.0
 13
391.8002763037055
 23
373.4386791190821
 33
0.0
  0
MTEXT
  5
39A9
330
3966
100
AcDbEntity
  8
10100_FRONT_DIM
  6
Continuous
 62
     7
370
    13
100
AcDbMText
 10
391.8002763037054
 20
360.8822628759973
 30
0.0
 40
3.5
 41
0.0
 71
     5
 72
     1
  1
\A1;25
 11
0.0000000000000001
 21
1.0
 31
0.0
 73
     1
 44
1.0
1001
ACAD
1000
MTEXTBEGIN
1070
    73
1070
     1
1070
    44
1040
1.0
1070
    74
1070
     0
1000
MTEXTEND
  0
POINT
  5
39AA
330
3966
100
AcDbEntity
  8
Defpoints
  6
Continuous
 62
     0
100
AcDbPoint
 10
381.2186405770367
 20
348.3258466329123
 30
0.0
  0
POINT
  5
39AB
330
3966
100
AcDbEntity
  8
Defpoints
  6
Continuous
 62
     0
100
AcDbPoint
 10
381.2205245321933
 20
373.4386791190821
 30
0.0
  0
POINT
  5
39AC
330
3966
100
AcDbEntity
  8
Defpoints
  6
Continuous
 62
     0
100
AcDbPoint
 10
391.8002763037055
 20
373.4386791190821
 30
0.0
  0
ENDBLK
  5
3972
330
3966
100
AcDbEntity
  8
0
 62
     1
 48
0.1
100
AcDbBlockEnd
  0
BLOCK
  5
398B
330
3980
100
AcDbEntity
  8
0
 62
     1
 48
0.1
100
AcDbBlockBegin
  2
*D89
 70
     1
 10
0.0
 20
0.0
 30
0.0
  3
*D89
  1

  0
LINE
  5
3999
330
3980
100
AcDbEntity
  8
10100_FRONT_DIM
  6
Continuous
 62
     7
370
    -2
100
AcDbLine
 10
384.3407415321934
 20
337.9386791190821
 30
0.0
 11
400.4145914123283
 21
337.9386791190821
 31
0.0
  0
LINE
  5
399A
330
3980
100
AcDbEntity
  8
10100_FRONT_DIM
  6
Continuous
 62
     7
370
    -2
100
AcDbLine
 10
384.3407415321934
 20
383.938679119082
 30
0.0
 11
400.4145914123283
 21
383.938679119082
 31
0.0
  0
LINE
  5
399B
330
3980
100
AcDbEntity
  8
10100_FRONT_DIM
  6
Continuous
 62
     7
370
    -2
100
AcDbLine
 10
399.4145914123283
 20
340.438679119082
 30
0.0
 11
399.4145914123283
 21
356.0220124524154
 31
0.0
  0
LINE
  5
399C
330
3980
100
AcDbEntity
  8
10100_FRONT_DIM
  6
Continuous
 62
     7
370
    -2
100
AcDbLine
 10
399.4145914123283
 20
381.4386791190821
 30
0.0
 11
399.4145914123283
 21
365.8553457857487
 31
0.0
  0
SOLID
  5
399D
330
3980
100
AcDbEntity
  8
10100_FRONT_DIM
  6
Continuous
 62
     7
100
AcDbTrace
 10
398.9979247456616
 20
340.438679119082
 30
0.0
 11
399.831258078995
 21
340.438679119082
 31
0.0
 12
399.4145914123283
 22
337.9386791190821
 32
0.0
 13
399.4145914123283
 23
337.9386791190821
 33
0.0
  0
SOLID
  5
399E
330
3980
100
AcDbEntity
  8
10100_FRONT_DIM
  6
Continuous
 62
     7
100
AcDbTrace
 10
398.9979247456616
 20
381.4386791190821
 30
0.0
 11
399.831258078995
 21
381.4386791190821
 31
0.0
 12
399.4145914123283
 22
383.938679119082
 32
0.0
 13
399.4145914123283
 23
383.938679119082
 33
0.0
  0
MTEXT
  5
399F
330
3980
100
AcDbEntity
  8
10100_FRONT_DIM
  6
Continuous
 62
     7
370
    13
100
AcDbMText
 10
399.4145914123282
 20
360.9386791190822
 30
0.0
 40
3.5
 41
0.0
 71
     5
 72
     1
  1
\A1;46
 11
0.0000000000000001
 21
1.0
 31
0.0
 73
     1
 44
1.0
1001
ACAD
1000
MTEXTBEGIN
1070
    73
1070
     1
1070
    44
1040
1.0
1070
    74
1070
     0
1000
MTEXTEND
  0
POINT
  5
39A0
330
3980
100
AcDbEntity
  8
Defpoints
  6
Continuous
 62
     0
100
AcDbPoint
 10
382.3407415321934
 20
337.9386791190821
 30
0.0
  0
POINT
  5
39A1
330
3980
100
AcDbEntity
  8
Defpoints
  6
Continuous
 62
     0
100
AcDbPoint
 10
382.3407415321934
 20
383.9386791190821
 30
0.0
  0
POINT
  5
39A2
330
3980
100
AcDbEntity
  8
Defpoints
  6
Continuous
 62
     0
100
AcDbPoint
 10
399.4145914123283
 20
383.938679119082
 30
0.0
  0
ENDBLK
  5
398C
330
3980
100
AcDbEntity
  8
0
 62
     1
 48
0.1
100
AcDbBlockEnd
  0
BLOCK
  5
39B9
330
39AE
100
AcDbEntity
  8
0
 62
     1
 48
0.1
100
AcDbBlockBegin
  2
*D90
 70
     1
 10
0.0
 20
0.0
 30
0.0
  3
*D90
  1

  0
LINE
  5
39C7
330
39AE
100
AcDbEntity
  8
10100_FRONT_DIM
  6
Continuous
 62
     7
370
    -2
100
AcDbLine
 10
349.9407415321934
 20
336.3386791190822
 30
0.0
 11
349.9407415321934
 21
310.4678015975268
 31
0.0
  0
LINE
  5
39C8
330
39AE
100
AcDbEntity
  8
10100_FRONT_DIM
  6
Continuous
 62
     7
370
    -2
100
AcDbLine
 10
382.7407415321935
 20
336.3386791190822
 30
0.0
 11
382.7407415321935
 21
310.4678015975268
 31
0.0
  0
LINE
  5
39C9
330
39AE
100
AcDbEntity
  8
10100_FRONT_DIM
  6
Continuous
 62
     7
370
    -2
100
AcDbLine
 10
352.4407415321934
 20
311.4678015975268
 30
0.0
 11
361.4240748655267
 21
311.4678015975268
 31
0.0
  0
LINE
  5
39CA
330
39AE
100
AcDbEntity
  8
10100_FRONT_DIM
  6
Continuous
 62
     7
370
    -2
100
AcDbLine
 10
380.2407415321935
 20
311.4678015975268
 30
0.0
 11
371.2574081988601
 21
311.4678015975268
 31
0.0
  0
SOLID
  5
39CB
330
39AE
100
AcDbEntity
  8
10100_FRONT_DIM
  6
Continuous
 62
     7
100
AcDbTrace
 10
352.4407415321934
 20
311.8844682641935
 30
0.0
 11
352.4407415321934
 21
311.0511349308601
 31
0.0
 12
349.9407415321934
 22
311.4678015975268
 32
0.0
 13
349.9407415321934
 23
311.4678015975268
 33
0.0
  0
SOLID
  5
39CC
330
39AE
100
AcDbEntity
  8
10100_FRONT_DIM
  6
Continuous
 62
     7
100
AcDbTrace
 10
380.2407415321935
 20
311.8844682641935
 30
0.0
 11
380.2407415321935
 21
311.0511349308601
 31
0.0
 12
382.7407415321935
 22
311.4678015975268
 32
0.0
 13
382.7407415321935
 23
311.4678015975268
 33
0.0
  0
MTEXT
  5
39CD
330
39AE
100
AcDbEntity
  8
10100_FRONT_DIM
  6
Continuous
 62
     7
370
    13
100
AcDbMText
 10
366.3407415321934
 20
311.4678015975268
 30
0.0
 40
3.5
 41
0.0
 71
     5
 72
     1
  1
\A1;33
 73
     1
 44
1.0
1001
ACAD
1000
MTEXTBEGIN
1070
    73
1070
     1
1070
    44
1040
1.0
1070
    74
1070
     0
1000
MTEXTEND
  0
POINT
  5
39CE
330
39AE
100
AcDbEntity
  8
Defpoints
  6
Continuous
 62
     0
100
AcDbPoint
 10
349.9407415321934
 20
338.3386791190822
 30
0.0
  0
POINT
  5
39CF
330
39AE
100
AcDbEntity
  8
Defpoints
  6
Continuous
 62
     0
100
AcDbPoint
 10
382.7407415321935
 20
338.3386791190822
 30
0.0
  0
POINT
  5
39D0
330
39AE
100
AcDbEntity
  8
Defpoints
  6
Continuous
 62
     0
100
AcDbPoint
 10
382.7407415321935
 20
311.4678015975268
 30
0.0
  0
ENDBLK
  5
39BA
330
39AE
100
AcDbEntity
  8
0
 62
     1
 48
0.1
100
AcDbBlockEnd
  0
ENDSEC
  0
SECTION
  2
ENTITIES
  0
INSERT
  5
E02
330
720
100
AcDbEntity
  8
90000_FRAME
  6
Continuous
 62
     7
100
AcDbBlockReference
  2
SIEMENS_OUTLINE_BL0
 10
467.7911081351563
 20
195.2484904623583
 30
0.0
  0
LINE
  5
E03
330
720
100
AcDbEntity
  8
90000_FRAME
  6
Continuous
 62
     7
100
AcDbLine
 10
535.1452107512352
 20
205.5867496899616
 30
0.0
 11
670.1452107512352
 21
205.5867496899616
 31
0.0
  0
LINE
  5
E04
330
720
100
AcDbEntity
  8
90000_FRAME
  6
Continuous
 62
     7
100
AcDbLine
 10
535.1452107512352
 20
205.5867496899616
 30
0.0
 11
535.1452107512352
 21
223.5867496899616
 31
0.0
  0
LINE
  5
E05
330
720
100
AcDbEntity
  8
90000_FRAME
  6
Continuous
 62
     7
100
AcDbLine
 10
585.1452107512352
 20
211.5867496899616
 30
0.0
 11
670.1452107512352
 21
211.5867496899616
 31
0.0
  0
LINE
  5
E06
330
720
100
AcDbEntity
  8
90000_FRAME
  6
Continuous
 62
     7
100
AcDbLine
 10
535.1452107512352
 20
223.5867496899616
 30
0.0
 11
670.1452107512352
 21
223.5867496899616
 31
0.0
  0
LINE
  5
E07
330
720
100
AcDbEntity
  8
90000_FRAME
  6
Continuous
 62
     7
100
AcDbLine
 10
585.1452107512352
 20
205.5867496899616
 30
0.0
 11
585.1452107512352
 21
223.5867496899616
 31
0.0
  0
LINE
  5
E08
330
720
100
AcDbEntity
  8
90000_FRAME
  6
Continuous
 62
     7
100
AcDbLine
 10
627.6452107512352
 20
205.5867496899616
 30
0.0
 11
627.6452107512352
 21
211.5867496899616
 31
0.0
  0
LINE
  5
E09
330
720
100
AcDbEntity
  8
90000_FRAME
  6
Continuous
 62
     7
100
AcDbLine
 10
670.1452107512352
 20
205.5867496899616
 30
0.0
 11
670.1452107512352
 21
223.5867496899616
 31
0.0
  0
TEXT
  5
E0A
330
720
100
AcDbEntity
  8
90000_FRAME
  6
Continuous
 62
     7
100
AcDbText
 10
585.8052107512352
 20
207.4867496899616
 30
0.0
 40
2.2
  1
Format / Size: DIN A3
 41
0.7350230414736052
 72
     5
 11
619.2242583702351
 21
207.4867496899616
 31
0.0
100
AcDbText
  0
TEXT
  5
E0B
330
720
100
AcDbEntity
  8
90000_FRAME
  6
Continuous
 62
     7
100
AcDbText
 10
628.3052107512352
 20
207.4867496899616
 30
0.0
 40
2.2
  1
Massstab / Scale: 1:1
 41
0.6852497096407964
 72
     5
 11
659.2099726560351
 21
207.4867496899616
 31
0.0
100
AcDbText
  0
TEXT
  5
E0C
330
720
100
AcDbEntity
  8
90000_FRAME
  6
Continuous
 62
     7
370
    13
100
AcDbText
 10
598.451135275186
 20
219.228691873217
 30
0.0
 40
3.5
  1
3RT1926_00001941_000_ALL
 41
0.674996057374445
 72
     5
 11
654.3633086943692
 21
219.228691873217
 31
0.0
100
AcDbText
  0
LINE
  5
E0D
330
720
100
AcDbEntity
  8
90000_FRAME
  6
Continuous
 62
     7
100
AcDbLine
 10
270.1452107512363
 20
195.5867496899616
 30
0.0
 11
680.1452107512362
 21
195.5867496899616
 31
0.0
  0
LINE
  5
E0E
330
720
100
AcDbEntity
  8
90000_FRAME
  6
Continuous
 62
     7
100
AcDbLine
 10
680.1452107512362
 20
195.5867496899616
 30
0.0
 11
680.1452107512362
 21
465.5867496899615
 31
0.0
  0
TEXT
  5
E0F
330
720
100
AcDbEntity
  8
91000_TIP
  6
Continuous
 62
     7
100
AcDbText
 10
274.1985605339002
 20
204.3189863116382
 30
0.0
 40
2.5
  1
Alle Bemassungswerte sind in Millimeter (mm) angegeben.
 41
0.5458157023561646
 72
     5
 11
347.8836803519825
 21
204.3189863116382
 31
0.0
100
AcDbText
  0
TEXT
  5
E10
330
720
100
AcDbEntity
  8
91000_TIP
  6
Continuous
 62
     7
100
AcDbText
 10
274.1985605339002
 20
199.0689863116383
 30
0.0
 40
2.5
  1
All dimensions are in millimeters (mm).
 41
0.6327031827941259
 72
     5
 11
334.3053628993422
 21
199.0689863116383
 31
0.0
100
AcDbText
  0
LINE
  5
E11
330
720
100
AcDbEntity
  8
91000_TIP
  6
Continuous
 62
     7
100
AcDbLine
 10
509.9598808552611
 20
216.9104872123322
 30
0.0
 11
519.9598806510613
 21
219.4104871613322
 31
0.0
  0
LINE
  5
E12
330
720
100
AcDbEntity
  8
91000_TIP
  6
Continuous
 62
     7
100
AcDbLine
 10
509.9598808552611
 20
211.9104873145322
 30
0.0
 11
519.9598806510613
 21
209.4104873655321
 31
0.0
  0
LINE
  5
E13
330
720
100
AcDbEntity
  8
91000_TIP
  6
Continuous
 62
     7
100
AcDbLine
 10
509.9598808552611
 20
216.9104872123322
 30
0.0
 11
509.9598808552611
 21
211.9104873145322
 31
0.0
  0
LINE
  5
E14
330
720
100
AcDbEntity
  8
91000_TIP
  6
Continuous
 62
     7
100
AcDbLine
 10
519.9598806510613
 20
219.4104871613322
 30
0.0
 11
519.9598806510613
 21
209.4104873655321
 31
0.0
  0
LINE
  5
E15
330
720
100
AcDbEntity
  8
91000_TIP
  6
CENTER
 62
     7
100
AcDbLine
 10
526.4598805182612
 20
208.6890060570322
 30
0.0
 11
526.4598805182612
 21
219.9723920570321
 31
0.0
  0
CIRCLE
  5
E16
330
720
100
AcDbEntity
  8
91000_TIP
  6
Continuous
 62
     7
100
AcDbCircle
 10
526.4598805182612
 20
214.4104872634323
 30
0.0
 40
4.9999998979
  0
CIRCLE
  5
E17
330
720
100
AcDbEntity
  8
91000_TIP
  6
Continuous
 62
     7
100
AcDbCircle
 10
526.4598805182612
 20
214.4104872634323
 30
0.0
 40
2.499999948899997
  0
LINE
  5
E18
330
720
100
AcDbEntity
  8
90000_FRAME
  6
Continuous
 62
     7
100
AcDbLine
 10
270.1452107512363
 20
195.5867496899616
 30
0.0
 11
270.1452107512363
 21
465.5867496899615
 31
0.0
  0
LINE
  5
E19
330
720
100
AcDbEntity
  8
90000_FRAME
  6
Continuous
 62
     7
100
AcDbLine
 10
270.1452107512363
 20
465.5867496899615
 30
0.0
 11
680.1452107512362
 21
465.5867496899615
 31
0.0
  0
TEXT
  5
E1A
330
720
100
AcDbEntity
  8
90000_FRAME
  6
Continuous
 62
     7
370
    13
100
AcDbText
 10
598.451135275186
 20
213.7425725924913
 30
0.0
 40
3.5
  1
Elektronisch verzögerter Hilfsschalterblock
 41
0.3744118755748876
 72
     5
 11
654.3633086943692
 21
213.7425725924913
 31
0.0
100
AcDbText
  0
LINE
  5
21E6
330
720
100
AcDbEntity
  8
10000_FRONT
  6
SHORT_DASH
 62
     7
370
     9
100
AcDbLine
 39
0.45
 10
372.5318015321935
 20
385.5435791190819
 30
0.0
 11
374.8025015321933
 21
385.5435791190819
 31
0.0
1001
AUSTER_ANSICHT
1002
{
1000
Det03
1002
}
1001
AUSTER_FOLIE
1002
{
1000
S0_W_VERDRAHTUNGSBAUSATZ
1002
}
  0
LINE
  5
21E7
330
720
100
AcDbEntity
  8
10000_FRONT
  6
SHORT_DASH
 62
     7
370
     9
100
AcDbLine
 39
0.45
 10
375.8325015321934
 20
385.5435791190819
 30
0.0
 11
378.1032015321934
 21
385.5435791190819
 31
0.0
1001
AUSTER_ANSICHT
1002
{
1000
Det03
1002
}
1001
AUSTER_FOLIE
1002
{
1000
S0_W_VERDRAHTUNGSBAUSATZ
1002
}
  0
LINE
  5
21E8
330
720
100
AcDbEntity
  8
10000_FRONT
  6
SHORT_DASH
 62
     7
370
     9
100
AcDbLine
 39
0.45
 10
378.1032015321934
 20
384.3349791190819
 30
0.0
 11
375.8325015321934
 21
384.3349791190819
 31
0.0
1001
AUSTER_ANSICHT
1002
{
1000
Det03
1002
}
1001
AUSTER_FOLIE
1002
{
1000
S0_W_VERDRAHTUNGSBAUSATZ
1002
}
  0
LINE
  5
21E9
330
720
100
AcDbEntity
  8
10000_FRONT
  6
SHORT_DASH
 62
     7
370
     9
100
AcDbLine
 39
0.45
 10
374.8025015321933
 20
384.3349791190819
 30
0.0
 11
372.5318015321935
 21
384.3349791190819
 31
0.0
1001
AUSTER_ANSICHT
1002
{
1000
Det03
1002
}
1001
AUSTER_FOLIE
1002
{
1000
S0_W_VERDRAHTUNGSBAUSATZ
1002
}
  0
LINE
  5
21EA
330
720
100
AcDbEntity
  8
10000_FRONT
  6
SHORT_DASH
 62
     7
370
     9
100
AcDbLine
 39
0.45
 10
374.8025015321933
 20
383.1623791190819
 30
0.0
 11
374.8025015321933
 21
384.154679119082
 31
0.0
1001
AUSTER_ANSICHT
1002
{
1000
Det03
1002
}
1001
AUSTER_FOLIE
1002
{
1000
S0_W_VERDRAHTUNGSBAUSATZ
1002
}
  0
LINE
  5
21EB
330
720
100
AcDbEntity
  8
10000_FRONT
  6
SHORT_DASH
 62
     7
370
     9
100
AcDbLine
 39
0.45
 10
375.8325015321934
 20
384.154679119082
 30
0.0
 11
375.8325015321934
 21
383.1623791190819
 31
0.0
1001
AUSTER_ANSICHT
1002
{
1000
Det03
1002
}
1001
AUSTER_FOLIE
1002
{
1000
S0_W_VERDRAHTUNGSBAUSATZ
1002
}
  0
LINE
  5
21EC
330
720
100
AcDbEntity
  8
10000_FRONT
  6
SHORT_DASH
 62
     7
370
     9
100
AcDbLine
 39
0.45
 10
375.8325015321934
 20
386.716079119082
 30
0.0
 11
375.8325015321934
 21
385.723779119082
 31
0.0
1001
AUSTER_ANSICHT
1002
{
1000
Det03
1002
}
1001
AUSTER_FOLIE
1002
{
1000
S0_W_VERDRAHTUNGSBAUSATZ
1002
}
  0
LINE
  5
21ED
330
720
100
AcDbEntity
  8
10000_FRONT
  6
SHORT_DASH
 62
     7
370
     9
100
AcDbLine
 39
0.45
 10
374.8025015321933
 20
385.723779119082
 30
0.0
 11
374.8025015321933
 21
386.716079119082
 31
0.0
1001
AUSTER_ANSICHT
1002
{
1000
Det03
1002
}
1001
AUSTER_FOLIE
1002
{
1000
S0_W_VERDRAHTUNGSBAUSATZ
1002
}
  0
LINE
  5
21EE
330
720
100
AcDbEntity
  8
10000_FRONT
  6
SHORT_DASH
 62
     7
370
     9
100
AcDbLine
 39
0.45
 10
375.8325015321934
 20
384.154679119082
 30
0.0
 11
375.8325015321934
 21
384.3349791190819
 31
0.0
1001
AUSTER_ANSICHT
1002
{
1000
Det03
1002
}
1001
AUSTER_FOLIE
1002
{
1000
S0_W_VERDRAHTUNGSBAUSATZ
1002
}
  0
LINE
  5
21EF
330
720
100
AcDbEntity
  8
10000_FRONT
  6
SHORT_DASH
 62
     7
370
     9
100
AcDbLine
 39
0.45
 10
375.8325015321934
 20
385.723779119082
 30
0.0
 11
375.8325015321934
 21
385.5435791190819
 31
0.0
1001
AUSTER_ANSICHT
1002
{
1000
Det03
1002
}
1001
AUSTER_FOLIE
1002
{
1000
S0_W_VERDRAHTUNGSBAUSATZ
1002
}
  0
LINE
  5
21F0
330
720
100
AcDbEntity
  8
10000_FRONT
  6
SHORT_DASH
 62
     7
370
     9
100
AcDbLine
 39
0.45
 10
374.8025015321933
 20
384.154679119082
 30
0.0
 11
374.8025015321933
 21
384.3349791190819
 31
0.0
1001
AUSTER_ANSICHT
1002
{
1000
Det03
1002
}
1001
AUSTER_FOLIE
1002
{
1000
S0_W_VERDRAHTUNGSBAUSATZ
1002
}
  0
LINE
  5
21F1
330
720
100
AcDbEntity
  8
10000_FRONT
  6
SHORT_DASH
 62
     7
370
     9
100
AcDbLine
 39
0.45
 10
374.8025015321933
 20
385.723779119082
 30
0.0
 11
374.8025015321933
 21
385.5435791190819
 31
0.0
1001
AUSTER_ANSICHT
1002
{
1000
Det03
1002
}
1001
AUSTER_FOLIE
1002
{
1000
S0_W_VERDRAHTUNGSBAUSATZ
1002
}
  0
CIRCLE
  5
2262
330
720
100
AcDbEntity
  8
10000_FRONT
  6
SHORT_DASH
 62
     7
370
     9
100
AcDbCircle
 39
0.45
 10
375.3175015321934
 20
384.939279119082
 30
0.0
 40
3.1
1001
AUSTER_ANSICHT
1002
{
1000
Det03
1002
}
1001
AUSTER_FOLIE
1002
{
1000
S0_W_VERDRAHTUNGSBAUSATZ
1002
}
  0
ARC
  5
2263
330
720
100
AcDbEntity
  8
10000_FRONT
  6
SHORT_DASH
 62
     7
370
     9
100
AcDbCircle
 39
0.45
 10
375.3175015321934
 20
384.939279119082
 30
0.0
 40
2.850490999999998
100
AcDbArc
 50
167.7603999999987
 51
192.2396000000013
1001
AUSTER_ANSICHT
1002
{
1000
Det03
1002
}
1001
AUSTER_FOLIE
1002
{
1000
S0_W_VERDRAHTUNGSBAUSATZ
1002
}
  0
ARC
  5
2264
330
720
100
AcDbEntity
  8
10000_FRONT
  6
SHORT_DASH
 62
     7
370
     9
100
AcDbCircle
 39
0.45
 10
375.3175015321934
 20
384.939279119082
 30
0.0
 40
1.85
100
AcDbArc
 50
253.8366000000001
 51
286.1633999999999
1001
AUSTER_ANSICHT
1002
{
1000
Det03
1002
}
1001
AUSTER_FOLIE
1002
{
1000
S0_W_VERDRAHTUNGSBAUSATZ
1002
}
  0
ARC
  5
2265
330
720
100
AcDbEntity
  8
10000_FRONT
  6
SHORT_DASH
 62
     7
370
     9
100
AcDbCircle
 39
0.45
 10
375.3175015321934
 20
384.939279119082
 30
0.0
 40
1.85
100
AcDbArc
 50
73.83654999999968
 51
106.1633999999999
1001
AUSTER_ANSICHT
1002
{
1000
Det03
1002
}
1001
AUSTER_FOLIE
1002
{
1000
S0_W_VERDRAHTUNGSBAUSATZ
1002
}
  0
ARC
  5
2266
330
720
100
AcDbEntity
  8
10000_FRONT
  6
SHORT_DASH
 62
     7
370
     9
100
AcDbCircle
 39
0.45
 10
375.3175015321934
 20
384.939279119082
 30
0.0
 40
2.850490999999998
100
AcDbArc
 50
347.7603999999987
 51
12.23960000000125
1001
AUSTER_ANSICHT
1002
{
1000
Det03
1002
}
1001
AUSTER_FOLIE
1002
{
1000
S0_W_VERDRAHTUNGSBAUSATZ
1002
}
  0
CIRCLE
  5
2267
330
720
100
AcDbEntity
  8
10000_FRONT
  6
SHORT_DASH
 62
     7
370
     9
100
AcDbCircle
 39
0.45
 10
375.3175015321934
 20
384.939279119082
 30
0.0
 40
3.1
1001
AUSTER_ANSICHT
1002
{
1000
Det03
1002
}
1001
AUSTER_FOLIE
1002
{
1000
S0_W_VERDRAHTUNGSBAUSATZ
1002
}
  0
LINE
  5
2271
330
720
100
AcDbEntity
  8
11000_Left
  6
SHORT_DASH
 62
     7
370
     9
100
AcDbLine
 39
0.5
 10
429.5249137267386
 20
351.5378791190817
 30
-1.0
 11
429.5249137267386
 21
361.0378791190818
 31
-1.0
1001
AUSTER_ANSICHT
1002
{
1000
Det03
1002
}
1001
AUSTER_FOLIE
1002
{
1000
S0_W_VERDRAHTUNGSBAUSATZ
1002
}
  0
LINE
  5
2272
330
720
100
AcDbEntity
  8
11000_Left
  6
SHORT_DASH
 62
     7
370
     9
100
AcDbLine
 39
0.5
 10
430.5249137267386
 20
350.5378791190818
 30
-1.0
 11
432.5249137267386
 21
350.5378791190818
 31
-1.0
1001
AUSTER_ANSICHT
1002
{
1000
Det03
1002
}
1001
AUSTER_FOLIE
1002
{
1000
S0_W_VERDRAHTUNGSBAUSATZ
1002
}
  0
LINE
  5
2273
330
720
100
AcDbEntity
  8
11000_Left
  6
SHORT_DASH
 62
     7
370
     9
100
AcDbLine
 39
0.5
 10
434.5249137267386
 20
348.5378791190818
 30
-1.0
 11
432.5249137267386
 21
350.5378791190818
 31
-1.0
1001
AUSTER_ANSICHT
1002
{
1000
Det03
1002
}
1001
AUSTER_FOLIE
1002
{
1000
S0_W_VERDRAHTUNGSBAUSATZ
1002
}
  0
LINE
  5
2274
330
720
100
AcDbEntity
  8
11000_Left
  6
SHORT_DASH
 62
     7
370
     9
100
AcDbLine
 39
0.5
 10
433.0249137267385
 20
346.3878791190818
 30
-1.0
 11
432.5249137267386
 21
346.3878791190818
 31
-1.0
1001
AUSTER_ANSICHT
1002
{
1000
Det03
1002
}
1001
AUSTER_FOLIE
1002
{
1000
S0_W_VERDRAHTUNGSBAUSATZ
1002
}
  0
LINE
  5
2275
330
720
100
AcDbEntity
  8
11000_Left
  6
SHORT_DASH
 62
     7
370
     9
100
AcDbLine
 39
0.5
 10
432.5249137267386
 20
346.6378791190818
 30
-1.0
 11
432.5249137267386
 21
346.3878791190818
 31
-1.0
1001
AUSTER_ANSICHT
1002
{
1000
Det03
1002
}
1001
AUSTER_FOLIE
1002
{
1000
S0_W_VERDRAHTUNGSBAUSATZ
1002
}
  0
LINE
  5
2276
330
720
100
AcDbEntity
  8
11000_Left
  6
SHORT_DASH
 62
     7
370
     9
100
AcDbLine
 39
0.5
 10
433.5249137267385
 20
345.8878791190818
 30
-1.0
 11
433.5249137267385
 21
343.3878791190818
 31
-1.0
1001
AUSTER_ANSICHT
1002
{
1000
Det03
1002
}
1001
AUSTER_FOLIE
1002
{
1000
S0_W_VERDRAHTUNGSBAUSATZ
1002
}
  0
LINE
  5
2277
330
720
100
AcDbEntity
  8
11000_Left
  6
SHORT_DASH
 62
     7
370
     9
100
AcDbLine
 39
0.5
 10
433.5249137267385
 20
343.3878791190818
 30
-1.0
 11
434.5249137267386
 21
343.3878791190818
 31
-1.0
1001
AUSTER_ANSICHT
1002
{
1000
Det03
1002
}
1001
AUSTER_FOLIE
1002
{
1000
S0_W_VERDRAHTUNGSBAUSATZ
1002
}
  0
LINE
  5
2278
330
720
100
AcDbEntity
  8
11000_Left
  6
SHORT_DASH
 62
     7
370
     9
100
AcDbLine
 39
0.5
 10
434.5249137267386
 20
343.3878791190818
 30
-1.0
 11
434.5249137267386
 21
348.5378791190818
 31
-1.0
1001
AUSTER_ANSICHT
1002
{
1000
Det03
1002
}
1001
AUSTER_FOLIE
1002
{
1000
S0_W_VERDRAHTUNGSBAUSATZ
1002
}
  0
ARC
  5
2279
330
720
100
AcDbEntity
  8
11000_Left
  6
SHORT_DASH
 62
     7
370
     9
100
AcDbCircle
 39
0.5
 10
430.6249137267386
 20
346.6378791190818
 30
-1.0
 40
1.9
100
AcDbArc
 50
0.0000000107542442
 51
90.0
1001
AUSTER_ANSICHT
1002
{
1000
Det03
1002
}
1001
AUSTER_FOLIE
1002
{
1000
S0_W_VERDRAHTUNGSBAUSATZ
1002
}
  0
ARC
  5
227A
330
720
100
AcDbEntity
  8
11000_Left
  6
SHORT_DASH
 62
     7
370
     9
100
AcDbCircle
 39
0.5
 10
430.5249137267386
 20
351.5378791190817
 30
-1.0
 40
1.0
100
AcDbArc
 50
180.0
 51
270.0
1001
AUSTER_ANSICHT
1002
{
1000
Det03
1002
}
1001
AUSTER_FOLIE
1002
{
1000
S0_W_VERDRAHTUNGSBAUSATZ
1002
}
  0
LINE
  5
227B
330
720
100
AcDbEntity
  8
11000_Left
  6
SHORT_DASH
 62
     7
370
     9
100
AcDbLine
 39
0.5
 10
430.5249137267386
 20
371.5378791190818
 30
-1.0
 11
432.5249137267386
 21
371.5378791190818
 31
-1.0
1001
AUSTER_ANSICHT
1002
{
1000
Det03
1002
}
1001
AUSTER_FOLIE
1002
{
1000
S0_W_VERDRAHTUNGSBAUSATZ
1002
}
  0
LINE
  5
227C
330
720
100
AcDbEntity
  8
11000_Left
  6
SHORT_DASH
 62
     7
370
     9
100
AcDbLine
 39
0.5
 10
434.5249137267386
 20
373.5378791190818
 30
-1.0
 11
432.5249137267386
 21
371.5378791190818
 31
-1.0
1001
AUSTER_ANSICHT
1002
{
1000
Det03
1002
}
1001
AUSTER_FOLIE
1002
{
1000
S0_W_VERDRAHTUNGSBAUSATZ
1002
}
  0
LINE
  5
227D
330
720
100
AcDbEntity
  8
11000_Left
  6
SHORT_DASH
 62
     7
370
     9
100
AcDbLine
 39
0.5
 10
433.0249137267385
 20
375.6878791190819
 30
-1.0
 11
432.5249137267386
 21
375.6878791190819
 31
-1.0
1001
AUSTER_ANSICHT
1002
{
1000
Det03
1002
}
1001
AUSTER_FOLIE
1002
{
1000
S0_W_VERDRAHTUNGSBAUSATZ
1002
}
  0
LINE
  5
227E
330
720
100
AcDbEntity
  8
11000_Left
  6
SHORT_DASH
 62
     7
370
     9
100
AcDbLine
 39
0.5
 10
432.5249137267386
 20
375.4378791190819
 30
-1.0
 11
432.5249137267386
 21
375.6878791190819
 31
-1.0
1001
AUSTER_ANSICHT
1002
{
1000
Det03
1002
}
1001
AUSTER_FOLIE
1002
{
1000
S0_W_VERDRAHTUNGSBAUSATZ
1002
}
  0
LINE
  5
227F
330
720
100
AcDbEntity
  8
11000_Left
  6
SHORT_DASH
 62
     7
370
     9
100
AcDbLine
 39
0.5
 10
429.5249137267386
 20
370.5378791190818
 30
-1.0
 11
429.5249137267386
 21
361.0378791190818
 31
-1.0
1001
AUSTER_ANSICHT
1002
{
1000
Det03
1002
}
1001
AUSTER_FOLIE
1002
{
1000
S0_W_VERDRAHTUNGSBAUSATZ
1002
}
  0
LINE
  5
2280
330
720
100
AcDbEntity
  8
11000_Left
  6
SHORT_DASH
 62
     7
370
     9
100
AcDbLine
 39
0.5
 10
433.5249137267385
 20
376.1878791190819
 30
-1.0
 11
433.5249137267385
 21
378.6878791190818
 31
-1.0
1001
AUSTER_ANSICHT
1002
{
1000
Det03
1002
}
1001
AUSTER_FOLIE
1002
{
1000
S0_W_VERDRAHTUNGSBAUSATZ
1002
}
  0
LINE
  5
2281
330
720
100
AcDbEntity
  8
11000_Left
  6
SHORT_DASH
 62
     7
370
     9
100
AcDbLine
 39
0.5
 10
433.5249137267385
 20
378.6878791190818
 30
-1.0
 11
434.5249137267386
 21
378.6878791190818
 31
-1.0
1001
AUSTER_ANSICHT
1002
{
1000
Det03
1002
}
1001
AUSTER_FOLIE
1002
{
1000
S0_W_VERDRAHTUNGSBAUSATZ
1002
}
  0
LINE
  5
2282
330
720
100
AcDbEntity
  8
11000_Left
  6
SHORT_DASH
 62
     7
370
     9
100
AcDbLine
 39
0.5
 10
434.5249137267386
 20
378.6878791190818
 30
-1.0
 11
434.5249137267386
 21
373.5378791190818
 31
-1.0
1001
AUSTER_ANSICHT
1002
{
1000
Det03
1002
}
1001
AUSTER_FOLIE
1002
{
1000
S0_W_VERDRAHTUNGSBAUSATZ
1002
}
  0
ARC
  5
2283
330
720
100
AcDbEntity
  8
11000_Left
  6
SHORT_DASH
 62
     7
370
     9
100
AcDbCircle
 39
0.5
 10
433.0249137267385
 20
376.1878791190819
 30
-1.0
 40
0.5
100
AcDbArc
 50
270.0
 51
0.0
1001
AUSTER_ANSICHT
1002
{
1000
Det03
1002
}
1001
AUSTER_FOLIE
1002
{
1000
S0_W_VERDRAHTUNGSBAUSATZ
1002
}
  0
ARC
  5
2284
330
720
100
AcDbEntity
  8
11000_Left
  6
SHORT_DASH
 62
     7
370
     9
100
AcDbCircle
 39
0.5
 10
430.6249137267386
 20
375.4378791190819
 30
-1.0
 40
1.9
100
AcDbArc
 50
270.0
 51
0.0
1001
AUSTER_ANSICHT
1002
{
1000
Det03
1002
}
1001
AUSTER_FOLIE
1002
{
1000
S0_W_VERDRAHTUNGSBAUSATZ
1002
}
  0
ARC
  5
2285
330
720
100
AcDbEntity
  8
11000_Left
  6
SHORT_DASH
 62
     7
370
     9
100
AcDbCircle
 39
0.5
 10
430.5249137267386
 20
370.5378791190818
 30
-1.0
 40
1.0
100
AcDbArc
 50
90.0
 51
180.0
1001
AUSTER_ANSICHT
1002
{
1000
Det03
1002
}
1001
AUSTER_FOLIE
1002
{
1000
S0_W_VERDRAHTUNGSBAUSATZ
1002
}
  0
LINE
  5
2286
330
720
100
AcDbEntity
  8
11000_Left
  6
SHORT_DASH
 62
     7
370
     9
100
AcDbLine
 39
0.5
 10
491.0256137267386
 20
324.9407791190818
 30
0.0
 11
497.1256137267386
 21
324.9407791190818
 31
0.0
1001
AUSTER_ANSICHT
1002
{
1000
Det03
1002
}
1001
AUSTER_FOLIE
1002
{
1000
S0_W_VERDRAHTUNGSBAUSATZ
1002
}
  0
LINE
  5
2288
330
720
100
AcDbEntity
  8
11000_Left
  6
SHORT_DASH
 62
     7
370
     9
100
AcDbLine
 39
0.5
 10
525.2256137267387
 20
395.4407791190818
 30
0.0
 11
525.2256137267387
 21
393.6293791190818
 31
0.0
1001
AUSTER_ANSICHT
1002
{
1000
Det03
1002
}
1001
AUSTER_FOLIE
1002
{
1000
S0_W_VERDRAHTUNGSBAUSATZ
1002
}
  0
LINE
  5
2289
330
720
100
AcDbEntity
  8
11000_Left
  6
SHORT_DASH
 62
     7
370
     9
100
AcDbLine
 39
0.5
 10
529.3778137267387
 20
393.6293791190818
 30
0.0
 11
529.9033137267388
 21
393.1300791190818
 31
0.0
1001
AUSTER_ANSICHT
1002
{
1000
Det03
1002
}
1001
AUSTER_FOLIE
1002
{
1000
S0_W_VERDRAHTUNGSBAUSATZ
1002
}
  0
LINE
  5
228A
330
720
100
AcDbEntity
  8
11000_Left
  6
SHORT_DASH
 62
     7
370
     9
100
AcDbLine
 39
0.5
 10
436.9256137267385
 20
396.5407791190818
 30
0.0
 11
436.9256137267385
 21
393.4407791190818
 31
0.0
1001
AUSTER_ANSICHT
1002
{
1000
Det03
1002
}
1001
AUSTER_FOLIE
1002
{
1000
S0_W_VERDRAHTUNGSBAUSATZ
1002
}
  0
LINE
  5
228B
330
720
100
AcDbEntity
  8
11000_Left
  6
SHORT_DASH
 62
     7
370
     9
100
AcDbLine
 39
0.5
 10
433.4256137267386
 20
343.3907791190819
 30
0.0
 11
434.5256137267386
 21
343.3907791190819
 31
0.0
1001
AUSTER_ANSICHT
1002
{
1000
Det03
1002
}
1001
AUSTER_FOLIE
1002
{
1000
S0_W_VERDRAHTUNGSBAUSATZ
1002
}
  0
LINE
  5
228C
330
720
100
AcDbEntity
  8
11000_Left
  6
SHORT_DASH
 62
     7
370
     9
100
AcDbLine
 39
0.5
 10
433.1576137267387
 20
344.3907791190818
 30
0.0
 11
433.4256137267386
 21
343.3907791190819
 31
0.0
1001
AUSTER_ANSICHT
1002
{
1000
Det03
1002
}
1001
AUSTER_FOLIE
1002
{
1000
S0_W_VERDRAHTUNGSBAUSATZ
1002
}
  0
LINE
  5
228D
330
720
100
AcDbEntity
  8
11000_Left
  6
SHORT_DASH
 62
     7
370
     9
100
AcDbLine
 39
0.5
 10
432.6576137267387
 20
344.3907791190818
 30
0.0
 11
433.1576137267387
 21
344.3907791190818
 31
0.0
1001
AUSTER_ANSICHT
1002
{
1000
Det03
1002
}
1001
AUSTER_FOLIE
1002
{
1000
S0_W_VERDRAHTUNGSBAUSATZ
1002
}
  0
LINE
  5
228E
330
720
100
AcDbEntity
  8
11000_Left
  6
SHORT_DASH
 62
     7
370
     9
100
AcDbLine
 39
0.5
 10
433.3256137267386
 20
377.6050791190818
 30
0.0
 11
432.8256137267386
 21
376.8907791190819
 31
0.0
1001
AUSTER_ANSICHT
1002
{
1000
Det03
1002
}
1001
AUSTER_FOLIE
1002
{
1000
S0_W_VERDRAHTUNGSBAUSATZ
1002
}
  0
LINE
  5
228F
330
720
100
AcDbEntity
  8
11000_Left
  6
SHORT_DASH
 62
     7
370
     9
100
AcDbLine
 39
0.5
 10
432.8256137267386
 20
376.8907791190819
 30
0.0
 11
431.9256137267386
 21
376.8907791190819
 31
0.0
1001
AUSTER_ANSICHT
1002
{
1000
Det03
1002
}
1001
AUSTER_FOLIE
1002
{
1000
S0_W_VERDRAHTUNGSBAUSATZ
1002
}
  0
LINE
  5
2290
330
720
100
AcDbEntity
  8
11000_Left
  6
SHORT_DASH
 62
     7
370
     9
100
AcDbLine
 39
0.5
 10
433.5256137267386
 20
377.8907791190818
 30
0.0
 11
433.5256137267386
 21
378.8907791190819
 31
0.0
1001
AUSTER_ANSICHT
1002
{
1000
Det03
1002
}
1001
AUSTER_FOLIE
1002
{
1000
S0_W_VERDRAHTUNGSBAUSATZ
1002
}
  0
LINE
  5
2291
330
720
100
AcDbEntity
  8
11000_Left
  6
SHORT_DASH
 62
     7
370
     9
100
AcDbLine
 39
0.5
 10
433.5256137267386
 20
378.8907791190819
 30
0.0
 11
433.3256137267386
 21
379.2371791190817
 31
0.0
1001
AUSTER_ANSICHT
1002
{
1000
Det03
1002
}
1001
AUSTER_FOLIE
1002
{
1000
S0_W_VERDRAHTUNGSBAUSATZ
1002
}
  0
LINE
  5
2293
330
720
100
AcDbEntity
  8
11000_Left
  6
SHORT_DASH
 62
     7
370
     9
100
AcDbLine
 39
0.5
 10
525.2256137267387
 20
393.6293791190818
 30
0.0
 11
529.3778137267387
 21
393.6293791190818
 31
0.0
1001
AUSTER_ANSICHT
1002
{
1000
Det03
1002
}
1001
AUSTER_FOLIE
1002
{
1000
S0_W_VERDRAHTUNGSBAUSATZ
1002
}
  0
LINE
  5
2294
330
720
100
AcDbEntity
  8
11000_Left
  6
SHORT_DASH
 62
     7
370
     9
100
AcDbLine
 39
0.5
 10
529.9109137267387
 20
392.9808791190819
 30
0.0
 11
529.9033137267388
 21
393.1300791190818
 31
0.0
1001
AUSTER_ANSICHT
1002
{
1000
Det03
1002
}
1001
AUSTER_FOLIE
1002
{
1000
S0_W_VERDRAHTUNGSBAUSATZ
1002
}
  0
LINE
  5
2295
330
720
100
AcDbEntity
  8
11000_Left
  6
SHORT_DASH
 62
     7
370
     9
100
AcDbLine
 39
0.5
 10
467.1256137267388
 20
326.4407791190818
 30
0.0
 11
467.1256137267388
 21
328.4406791190818
 31
0.0
1001
AUSTER_ANSICHT
1002
{
1000
Det03
1002
}
1001
AUSTER_FOLIE
1002
{
1000
S0_W_VERDRAHTUNGSBAUSATZ
1002
}
  0
LINE
  5
2296
330
720
100
AcDbEntity
  8
11000_Left
  6
SHORT_DASH
 62
     7
370
     9
100
AcDbLine
 39
0.5
 10
467.1256137267388
 20
395.4407791190818
 30
0.0
 11
467.1256137267388
 21
393.4408791190818
 31
0.0
1001
AUSTER_ANSICHT
1002
{
1000
Det03
1002
}
1001
AUSTER_FOLIE
1002
{
1000
S0_W_VERDRAHTUNGSBAUSATZ
1002
}
  0
LINE
  5
2297
330
720
100
AcDbEntity
  8
11000_Left
  6
SHORT_DASH
 62
     7
370
     9
100
AcDbLine
 39
0.5
 10
473.1256137267386
 20
324.9407791190818
 30
0.0
 11
468.6256137267386
 21
324.9407791190818
 31
0.0
1001
AUSTER_ANSICHT
1002
{
1000
Det03
1002
}
1001
AUSTER_FOLIE
1002
{
1000
S0_W_VERDRAHTUNGSBAUSATZ
1002
}
  0
LINE
  5
2298
330
720
100
AcDbEntity
  8
11000_Left
  6
SHORT_DASH
 62
     7
370
     9
100
AcDbLine
 39
0.5
 10
473.1256137267386
 20
396.9407791190818
 30
0.0
 11
468.6256137267386
 21
396.9407791190818
 31
0.0
1001
AUSTER_ANSICHT
1002
{
1000
Det03
1002
}
1001
AUSTER_FOLIE
1002
{
1000
S0_W_VERDRAHTUNGSBAUSATZ
1002
}
  0
LINE
  5
2299
330
720
100
AcDbEntity
  8
11000_Left
  6
SHORT_DASH
 62
     7
370
     9
100
AcDbLine
 39
0.5
 10
473.1256137267386
 20
322.4407791190818
 30
0.0
 11
473.1256137267386
 21
328.4407791190818
 31
0.0
1001
AUSTER_ANSICHT
1002
{
1000
Det03
1002
}
1001
AUSTER_FOLIE
1002
{
1000
S0_W_VERDRAHTUNGSBAUSATZ
1002
}
  0
LINE
  5
229A
330
720
100
AcDbEntity
  8
11000_Left
  6
SHORT_DASH
 62
     7
370
     9
100
AcDbLine
 39
0.5
 10
473.1256137267386
 20
399.4407791190818
 30
0.0
 11
473.1256137267386
 21
393.4407791190818
 31
0.0
1001
AUSTER_ANSICHT
1002
{
1000
Det03
1002
}
1001
AUSTER_FOLIE
1002
{
1000
S0_W_VERDRAHTUNGSBAUSATZ
1002
}
  0
LINE
  5
229B
330
720
100
AcDbEntity
  8
11000_Left
  6
SHORT_DASH
 62
     7
370
     9
100
AcDbLine
 39
0.5
 10
491.1008137267385
 20
320.9407791190818
 30
0.0
 11
497.1256137267386
 21
320.9407791190818
 31
0.0
1001
AUSTER_ANSICHT
1002
{
1000
Det03
1002
}
1001
AUSTER_FOLIE
1002
{
1000
S0_W_VERDRAHTUNGSBAUSATZ
1002
}
  0
LINE
  5
229C
330
720
100
AcDbEntity
  8
11000_Left
  6
SHORT_DASH
 62
     7
370
     9
100
AcDbLine
 39
0.5
 10
491.1008137267385
 20
400.9407791190818
 30
0.0
 11
497.1256137267386
 21
400.9407791190818
 31
0.0
1001
AUSTER_ANSICHT
1002
{
1000
Det03
1002
}
1001
AUSTER_FOLIE
1002
{
1000
S0_W_VERDRAHTUNGSBAUSATZ
1002
}
  0
LINE
  5
229D
330
720
100
AcDbEntity
  8
11000_Left
  6
SHORT_DASH
 62
     7
370
     9
100
AcDbLine
 39
0.5
 10
490.7256137267386
 20
320.9407791190818
 30
0.0
 11
474.6256137267388
 21
320.9407791190818
 31
0.0
1001
AUSTER_ANSICHT
1002
{
1000
Det03
1002
}
1001
AUSTER_FOLIE
1002
{
1000
S0_W_VERDRAHTUNGSBAUSATZ
1002
}
  0
LINE
  5
229E
330
720
100
AcDbEntity
  8
11000_Left
  6
SHORT_DASH
 62
     7
370
     9
100
AcDbLine
 39
0.5
 10
490.7256137267386
 20
400.9407791190818
 30
0.0
 11
474.6256137267388
 21
400.9407791190818
 31
0.0
1001
AUSTER_ANSICHT
1002
{
1000
Det03
1002
}
1001
AUSTER_FOLIE
1002
{
1000
S0_W_VERDRAHTUNGSBAUSATZ
1002
}
  0
LINE
  5
229F
330
720
100
AcDbEntity
  8
11000_Left
  6
SHORT_DASH
 62
     7
370
     9
100
AcDbLine
 39
0.5
 10
497.1256137267386
 20
320.9407791190818
 30
0.0
 11
497.1256137267386
 21
324.9411791190818
 31
0.0
1001
AUSTER_ANSICHT
1002
{
1000
Det03
1002
}
1001
AUSTER_FOLIE
1002
{
1000
S0_W_VERDRAHTUNGSBAUSATZ
1002
}
  0
LINE
  5
22A0
330
720
100
AcDbEntity
  8
11000_Left
  6
SHORT_DASH
 62
     7
370
     9
100
AcDbLine
 39
0.5
 10
497.1256137267386
 20
400.9407791190818
 30
0.0
 11
497.1256137267386
 21
396.9403791190818
 31
0.0
1001
AUSTER_ANSICHT
1002
{
1000
Det03
1002
}
1001
AUSTER_FOLIE
1002
{
1000
S0_W_VERDRAHTUNGSBAUSATZ
1002
}
  0
LINE
  5
22A1
330
720
100
AcDbEntity
  8
11000_Left
  6
SHORT_DASH
 62
     7
370
     9
100
AcDbLine
 39
0.5
 10
529.9109137267387
 20
328.9006791190819
 30
0.0
 11
529.8728137267386
 21
328.2521791190819
 31
0.0
1001
AUSTER_ANSICHT
1002
{
1000
Det03
1002
}
1001
AUSTER_FOLIE
1002
{
1000
S0_W_VERDRAHTUNGSBAUSATZ
1002
}
  0
LINE
  5
22AB
330
720
100
AcDbEntity
  8
11000_Left
  6
SHORT_DASH
 62
     7
370
     9
100
AcDbLine
 39
0.5
 10
492.2256137267387
 20
393.4407791190818
 30
0.0
 11
473.1256137267386
 21
393.4407791190818
 31
0.0
1001
AUSTER_ANSICHT
1002
{
1000
Det03
1002
}
1001
AUSTER_FOLIE
1002
{
1000
S0_W_VERDRAHTUNGSBAUSATZ
1002
}
  0
LINE
  5
22AC
330
720
100
AcDbEntity
  8
11000_Left
  6
SHORT_DASH
 62
     7
370
     9
100
AcDbLine
 39
0.5
 10
530.2256137267387
 20
380.4407791190818
 30
0.0
 11
530.2256137267387
 21
347.9899791190818
 31
0.0
1001
AUSTER_ANSICHT
1002
{
1000
Det03
1002
}
1001
AUSTER_FOLIE
1002
{
1000
S0_W_VERDRAHTUNGSBAUSATZ
1002
}
  0
LINE
  5
22AD
330
720
100
AcDbEntity
  8
11000_Left
  6
SHORT_DASH
 62
     7
370
     9
100
AcDbLine
 39
0.5
 10
530.2256137267387
 20
347.9907791190818
 30
0.0
 11
530.2256137267387
 21
341.4407791190818
 31
0.0
1001
AUSTER_ANSICHT
1002
{
1000
Det03
1002
}
1001
AUSTER_FOLIE
1002
{
1000
S0_W_VERDRAHTUNGSBAUSATZ
1002
}
  0
LINE
  5
22AE
330
720
100
AcDbEntity
  8
11000_Left
  6
SHORT_DASH
 62
     7
370
     9
100
AcDbLine
 39
0.5
 10
473.1256137267386
 20
328.4407791190818
 30
0.0
 11
492.2256137267387
 21
328.4407791190818
 31
0.0
1001
AUSTER_ANSICHT
1002
{
1000
Det03
1002
}
1001
AUSTER_FOLIE
1002
{
1000
S0_W_VERDRAHTUNGSBAUSATZ
1002
}
  0
LINE
  5
22AF
330
720
100
AcDbEntity
  8
11000_Left
  6
SHORT_DASH
 62
     7
370
     9
100
AcDbLine
 39
0.5
 10
529.0758137267386
 20
327.4407791190818
 30
0.0
 11
525.2256137267387
 21
327.4407791190818
 31
0.0
1001
AUSTER_ANSICHT
1002
{
1000
Det03
1002
}
1001
AUSTER_FOLIE
1002
{
1000
S0_W_VERDRAHTUNGSBAUSATZ
1002
}
  0
LINE
  5
22B2
330
720
100
AcDbEntity
  8
11000_Left
  6
SHORT_DASH
 62
     7
370
     9
100
AcDbLine
 39
0.5
 10
506.0256137267385
 20
396.9392791190818
 30
0.0
 11
505.0256137267385
 21
396.9392791190818
 31
0.0
1001
AUSTER_ANSICHT
1002
{
1000
Det03
1002
}
1001
AUSTER_FOLIE
1002
{
1000
S0_W_VERDRAHTUNGSBAUSATZ
1002
}
  0
LINE
  5
22B7
330
720
100
AcDbEntity
  8
11000_Left
  6
SHORT_DASH
 62
     7
370
     9
100
AcDbLine
 39
0.5
 10
523.7256137267386
 20
396.9407791190818
 30
0.0
 11
497.1256137267386
 21
396.9407791190818
 31
0.0
1001
AUSTER_ANSICHT
1002
{
1000
Det03
1002
}
1001
AUSTER_FOLIE
1002
{
1000
S0_W_VERDRAHTUNGSBAUSATZ
1002
}
  0
LINE
  5
22B8
102
{ACAD_REACTORS
330
2567
102
}
330
720
100
AcDbEntity
  8
11000_Left
  6
SHORT_DASH
 62
     7
370
     9
100
AcDbLine
 39
0.5
 10
429.4256137267386
 20
334.6407791190818
 30
0.0
 11
429.4256137267386
 21
327.2407791190818
 31
0.0
1001
AUSTER_ANSICHT
1002
{
1000
Det03
1002
}
1001
AUSTER_FOLIE
1002
{
1000
S0_W_VERDRAHTUNGSBAUSATZ
1002
}
  0
LINE
  5
22B9
330
720
100
AcDbEntity
  8
11000_Left
  6
SHORT_DASH
 62
     7
370
     9
100
AcDbLine
 39
0.5
 10
430.2256137267388
 20
326.9407791190818
 30
0.0
 11
429.7256137267388
 21
326.9407791190818
 31
0.0
1001
AUSTER_ANSICHT
1002
{
1000
Det03
1002
}
1001
AUSTER_FOLIE
1002
{
1000
S0_W_VERDRAHTUNGSBAUSATZ
1002
}
  0
LINE
  5
22BA
330
720
100
AcDbEntity
  8
11000_Left
  6
SHORT_DASH
 62
     7
370
     9
100
AcDbLine
 39
0.5
 10
430.2256137267388
 20
334.9407791190818
 30
0.0
 11
429.7256137267388
 21
334.9407791190818
 31
0.0
1001
AUSTER_ANSICHT
1002
{
1000
Det03
1002
}
1001
AUSTER_FOLIE
1002
{
1000
S0_W_VERDRAHTUNGSBAUSATZ
1002
}
  0
LINE
  5
22BB
330
720
100
AcDbEntity
  8
11000_Left
  6
SHORT_DASH
 62
     7
370
     9
100
AcDbLine
 39
0.5
 10
473.1256137267386
 20
328.4407791190818
 30
0.0
 11
436.9256137267385
 21
328.4407791190818
 31
0.0
1001
AUSTER_ANSICHT
1002
{
1000
Det03
1002
}
1001
AUSTER_FOLIE
1002
{
1000
S0_W_VERDRAHTUNGSBAUSATZ
1002
}
  0
LINE
  5
22BC
330
720
100
AcDbEntity
  8
11000_Left
  6
SHORT_DASH
 62
     7
370
     9
100
AcDbLine
 39
0.5
 10
430.2256137267388
 20
381.8907791190818
 30
0.0
 11
434.5256137267386
 21
381.8907791190818
 31
0.0
1001
AUSTER_ANSICHT
1002
{
1000
Det03
1002
}
1001
AUSTER_FOLIE
1002
{
1000
S0_W_VERDRAHTUNGSBAUSATZ
1002
}
  0
LINE
  5
22BD
330
720
100
AcDbEntity
  8
11000_Left
  6
SHORT_DASH
 62
     7
370
     9
100
AcDbLine
 39
0.5
 10
429.7256137267388
 20
387.4407791190818
 30
0.0
 11
430.2256137267388
 21
387.4407791190818
 31
0.0
1001
AUSTER_ANSICHT
1002
{
1000
Det03
1002
}
1001
AUSTER_FOLIE
1002
{
1000
S0_W_VERDRAHTUNGSBAUSATZ
1002
}
  0
LINE
  5
22BE
330
720
100
AcDbEntity
  8
11000_Left
  6
SHORT_DASH
 62
     7
370
     9
100
AcDbLine
 39
0.5
 10
433.3256137267386
 20
377.6050791190818
 30
0.0
 11
433.3256137267386
 21
381.8907791190818
 31
0.0
1001
AUSTER_ANSICHT
1002
{
1000
Det03
1002
}
1001
AUSTER_FOLIE
1002
{
1000
S0_W_VERDRAHTUNGSBAUSATZ
1002
}
  0
LINE
  5
22BF
330
720
100
AcDbEntity
  8
11000_Left
  6
SHORT_DASH
 62
     7
370
     9
100
AcDbLine
 39
0.5
 10
434.5256137267386
 20
381.8907791190818
 30
0.0
 11
434.5256137267386
 21
341.3907791190819
 31
0.0
1001
AUSTER_ANSICHT
1002
{
1000
Det03
1002
}
1001
AUSTER_FOLIE
1002
{
1000
S0_W_VERDRAHTUNGSBAUSATZ
1002
}
  0
LINE
  5
22C0
330
720
100
AcDbEntity
  8
11000_Left
  6
SHORT_DASH
 62
     7
370
     9
100
AcDbLine
 39
0.5
 10
432.6576137267387
 20
344.3907791190818
 30
0.0
 11
430.2256137267388
 21
341.3907791190819
 31
0.0
1001
AUSTER_ANSICHT
1002
{
1000
Det03
1002
}
1001
AUSTER_FOLIE
1002
{
1000
S0_W_VERDRAHTUNGSBAUSATZ
1002
}
  0
LINE
  5
22C1
330
720
100
AcDbEntity
  8
11000_Left
  6
SHORT_DASH
 62
     7
370
     9
100
AcDbLine
 39
0.5
 10
431.9256137267386
 20
376.8907791190819
 30
0.0
 11
430.5256137267386
 21
381.8907791190818
 31
0.0
1001
AUSTER_ANSICHT
1002
{
1000
Det03
1002
}
1001
AUSTER_FOLIE
1002
{
1000
S0_W_VERDRAHTUNGSBAUSATZ
1002
}
  0
LINE
  5
22C2
102
{ACAD_REACTORS
330
2567
102
}
330
720
100
AcDbEntity
  8
11000_Left
  6
SHORT_DASH
 62
     7
370
     9
100
AcDbLine
 39
0.5
 10
434.5256137267386
 20
341.3907791190819
 30
0.0
 11
430.2256137267388
 21
341.3907791190819
 31
0.0
1001
AUSTER_ANSICHT
1002
{
1000
Det03
1002
}
1001
AUSTER_FOLIE
1002
{
1000
S0_W_VERDRAHTUNGSBAUSATZ
1002
}
  0
LINE
  5
22C3
330
720
100
AcDbEntity
  8
11000_Left
  6
SHORT_DASH
 62
     7
370
     9
100
AcDbLine
 39
0.5
 10
430.2256137267388
 20
325.7007791190818
 30
0.0
 11
430.2256137267388
 21
341.3907791190819
 31
0.0
1001
AUSTER_ANSICHT
1002
{
1000
Det03
1002
}
1001
AUSTER_FOLIE
1002
{
1000
S0_W_VERDRAHTUNGSBAUSATZ
1002
}
  0
LINE
  5
22C4
330
720
100
AcDbEntity
  8
11000_Left
  6
SHORT_DASH
 62
     7
370
     9
100
AcDbLine
 39
0.5
 10
430.9856137267387
 20
324.9407791190818
 30
0.0
 11
436.5256137267387
 21
324.9407791190818
 31
0.0
1001
AUSTER_ANSICHT
1002
{
1000
Det03
1002
}
1001
AUSTER_FOLIE
1002
{
1000
S0_W_VERDRAHTUNGSBAUSATZ
1002
}
  0
LINE
  5
22C5
330
720
100
AcDbEntity
  8
11000_Left
  6
SHORT_DASH
 62
     7
370
     9
100
AcDbLine
 39
0.5
 10
430.2256137267388
 20
381.8907791190818
 30
0.0
 11
430.2256137267388
 21
395.4407791190818
 31
0.0
1001
AUSTER_ANSICHT
1002
{
1000
Det03
1002
}
1001
AUSTER_FOLIE
1002
{
1000
S0_W_VERDRAHTUNGSBAUSATZ
1002
}
  0
LINE
  5
22C6
330
720
100
AcDbEntity
  8
11000_Left
  6
SHORT_DASH
 62
     7
370
     9
100
AcDbLine
 39
0.5
 10
429.4256137267386
 20
387.7431791190818
 30
0.0
 11
429.4256137267386
 21
394.1405791190818
 31
0.0
1001
AUSTER_ANSICHT
1002
{
1000
Det03
1002
}
1001
AUSTER_FOLIE
1002
{
1000
S0_W_VERDRAHTUNGSBAUSATZ
1002
}
  0
LINE
  5
22C7
330
720
100
AcDbEntity
  8
11000_Left
  6
SHORT_DASH
 62
     7
370
     9
100
AcDbLine
 39
0.5
 10
429.7256137267388
 20
394.4407791190818
 30
0.0
 11
430.2256137267388
 21
394.4407791190818
 31
0.0
1001
AUSTER_ANSICHT
1002
{
1000
Det03
1002
}
1001
AUSTER_FOLIE
1002
{
1000
S0_W_VERDRAHTUNGSBAUSATZ
1002
}
  0
LINE
  5
22C8
330
720
100
AcDbEntity
  8
11000_Left
  6
SHORT_DASH
 62
     7
370
     9
100
AcDbLine
 39
0.5
 10
430.2256137267388
 20
395.4407791190818
 30
0.0
 11
430.2256137267388
 21
396.1807791190818
 31
0.0
1001
AUSTER_ANSICHT
1002
{
1000
Det03
1002
}
1001
AUSTER_FOLIE
1002
{
1000
S0_W_VERDRAHTUNGSBAUSATZ
1002
}
  0
LINE
  5
22C9
330
720
100
AcDbEntity
  8
11000_Left
  6
SHORT_DASH
 62
     7
370
     9
100
AcDbLine
 39
0.5
 10
430.9856137267387
 20
396.9407791190818
 30
0.0
 11
436.5256137267387
 21
396.9407791190818
 31
0.0
1001
AUSTER_ANSICHT
1002
{
1000
Det03
1002
}
1001
AUSTER_FOLIE
1002
{
1000
S0_W_VERDRAHTUNGSBAUSATZ
1002
}
  0
LINE
  5
22CA
330
720
100
AcDbEntity
  8
11000_Left
  6
SHORT_DASH
 62
     7
370
     9
100
AcDbLine
 39
0.5
 10
490.7256137267386
 20
400.9407791190818
 30
0.0
 11
491.1008137267385
 21
400.9407791190818
 31
0.0
1001
AUSTER_ANSICHT
1002
{
1000
Det03
1002
}
1001
AUSTER_FOLIE
1002
{
1000
S0_W_VERDRAHTUNGSBAUSATZ
1002
}
  0
LINE
  5
22CB
330
720
100
AcDbEntity
  8
11000_Left
  6
SHORT_DASH
 62
     7
370
     9
100
AcDbLine
 39
0.5
 10
490.7256137267386
 20
320.9407791190818
 30
0.0
 11
491.1008137267385
 21
320.9407791190818
 31
0.0
1001
AUSTER_ANSICHT
1002
{
1000
Det03
1002
}
1001
AUSTER_FOLIE
1002
{
1000
S0_W_VERDRAHTUNGSBAUSATZ
1002
}
  0
LINE
  5
22CC
330
720
100
AcDbEntity
  8
11000_Left
  6
SHORT_DASH
 62
     7
370
     9
100
AcDbLine
 39
0.5
 10
436.9256137267385
 20
328.4407791190818
 30
0.0
 11
436.9256137267385
 21
325.340779119082
 31
0.0
1001
AUSTER_ANSICHT
1002
{
1000
Det03
1002
}
1001
AUSTER_FOLIE
1002
{
1000
S0_W_VERDRAHTUNGSBAUSATZ
1002
}
  0
ARC
  5
22CF
330
720
100
AcDbEntity
  8
11000_Left
  6
SHORT_DASH
 62
     7
370
     9
100
AcDbCircle
 39
0.5
 10
429.7256137267388
 20
394.1405791190818
 30
0.0
 40
0.3001975999999999
100
AcDbArc
 50
90.0
 51
180.0
1001
AUSTER_ANSICHT
1002
{
1000
Det03
1002
}
1001
AUSTER_FOLIE
1002
{
1000
S0_W_VERDRAHTUNGSBAUSATZ
1002
}
  0
ARC
  5
22D0
330
720
100
AcDbEntity
  8
11000_Left
  6
SHORT_DASH
 62
     7
370
     9
100
AcDbCircle
 39
0.5
 10
429.7256137267388
 20
387.7431791190818
 30
0.0
 40
0.3
100
AcDbArc
 50
180.0
 51
270.0
1001
AUSTER_ANSICHT
1002
{
1000
Det03
1002
}
1001
AUSTER_FOLIE
1002
{
1000
S0_W_VERDRAHTUNGSBAUSATZ
1002
}
  0
ARC
  5
22D1
330
720
100
AcDbEntity
  8
11000_Left
  6
SHORT_DASH
 62
     7
370
     9
100
AcDbCircle
 39
0.5
 10
468.6256137267386
 20
326.4407791190818
 30
0.0
 40
1.5
100
AcDbArc
 50
180.0
 51
270.0
1001
AUSTER_ANSICHT
1002
{
1000
Det03
1002
}
1001
AUSTER_FOLIE
1002
{
1000
S0_W_VERDRAHTUNGSBAUSATZ
1002
}
  0
ARC
  5
22D2
330
720
100
AcDbEntity
  8
11000_Left
  6
SHORT_DASH
 62
     7
370
     9
100
AcDbCircle
 39
0.5
 10
468.6256137267386
 20
395.4407791190818
 30
0.0
 40
1.5
100
AcDbArc
 50
90.0
 51
180.0
1001
AUSTER_ANSICHT
1002
{
1000
Det03
1002
}
1001
AUSTER_FOLIE
1002
{
1000
S0_W_VERDRAHTUNGSBAUSATZ
1002
}
  0
ARC
  5
22D3
330
720
100
AcDbEntity
  8
11000_Left
  6
SHORT_DASH
 62
     7
370
     9
100
AcDbCircle
 39
0.5
 10
474.6256137267388
 20
322.4407791190818
 30
0.0
 40
1.5
100
AcDbArc
 50
180.0
 51
270.0
1001
AUSTER_ANSICHT
1002
{
1000
Det03
1002
}
1001
AUSTER_FOLIE
1002
{
1000
S0_W_VERDRAHTUNGSBAUSATZ
1002
}
  0
ARC
  5
22D4
330
720
100
AcDbEntity
  8
11000_Left
  6
SHORT_DASH
 62
     7
370
     9
100
AcDbCircle
 39
0.5
 10
474.6256137267388
 20
399.4407791190818
 30
0.0
 40
1.5
100
AcDbArc
 50
90.0
 51
180.0
1001
AUSTER_ANSICHT
1002
{
1000
Det03
1002
}
1001
AUSTER_FOLIE
1002
{
1000
S0_W_VERDRAHTUNGSBAUSATZ
1002
}
  0
ARC
  5
22D7
330
720
100
AcDbEntity
  8
11000_Left
  6
SHORT_DASH
 62
     7
370
     9
100
AcDbCircle
 39
0.5
 10
529.0612137267386
 20
328.2521791190819
 30
0.0
 40
0.8115183000000001
100
AcDbArc
 50
271.0253000000008
 51
0.0
1001
AUSTER_ANSICHT
1002
{
1000
Det03
1002
}
1001
AUSTER_FOLIE
1002
{
1000
S0_W_VERDRAHTUNGSBAUSATZ
1002
}
  0
ARC
  5
22D8
330
720
100
AcDbEntity
  8
11000_Left
  6
SHORT_DASH
 62
     7
370
     9
100
AcDbCircle
 39
0.5
 10
523.7256137267386
 20
326.4407791190818
 30
0.0
 40
1.5
100
AcDbArc
 50
270.0
 51
0.0
1001
AUSTER_ANSICHT
1002
{
1000
Det03
1002
}
1001
AUSTER_FOLIE
1002
{
1000
S0_W_VERDRAHTUNGSBAUSATZ
1002
}
  0
ARC
  5
22D9
330
720
100
AcDbEntity
  8
11000_Left
  6
SHORT_DASH
 62
     7
370
     9
100
AcDbCircle
 39
0.5
 10
280.2256137267386
 20
380.4407791190818
 30
0.0
 40
250.0
100
AcDbArc
 50
0.0
 51
2.8751920000003
1001
AUSTER_ANSICHT
1002
{
1000
Det03
1002
}
1001
AUSTER_FOLIE
1002
{
1000
S0_W_VERDRAHTUNGSBAUSATZ
1002
}
  0
ARC
  5
22DA
330
720
100
AcDbEntity
  8
11000_Left
  6
SHORT_DASH
 62
     7
370
     9
100
AcDbCircle
 39
0.5
 10
280.2256137267386
 20
341.4407791190818
 30
0.0
 40
250.0
100
AcDbArc
 50
357.1248000000011
 51
0.0
1001
AUSTER_ANSICHT
1002
{
1000
Det03
1002
}
1001
AUSTER_FOLIE
1002
{
1000
S0_W_VERDRAHTUNGSBAUSATZ
1002
}
  0
ARC
  5
22DC
330
720
100
AcDbEntity
  8
11000_Left
  6
SHORT_DASH
 62
     7
370
     9
100
AcDbCircle
 39
0.5
 10
523.7256137267386
 20
395.4407791190818
 30
0.0
 40
1.5
100
AcDbArc
 50
0.0
 51
90.0
1001
AUSTER_ANSICHT
1002
{
1000
Det03
1002
}
1001
AUSTER_FOLIE
1002
{
1000
S0_W_VERDRAHTUNGSBAUSATZ
1002
}
  0
ARC
  5
22DD
330
720
100
AcDbEntity
  8
11000_Left
  6
SHORT_DASH
 62
     7
370
     9
100
AcDbCircle
 39
0.5
 10
429.7256137267388
 20
327.2407791190818
 30
0.0
 40
0.3
100
AcDbArc
 50
180.0
 51
270.0
1001
AUSTER_ANSICHT
1002
{
1000
Det03
1002
}
1001
AUSTER_FOLIE
1002
{
1000
S0_W_VERDRAHTUNGSBAUSATZ
1002
}
  0
ARC
  5
22DE
330
720
100
AcDbEntity
  8
11000_Left
  6
SHORT_DASH
 62
     7
370
     9
100
AcDbCircle
 39
0.5
 10
436.5256137267387
 20
325.340779119082
 30
0.0
 40
0.4
100
AcDbArc
 50
270.0
 51
0.0
1001
AUSTER_ANSICHT
1002
{
1000
Det03
1002
}
1001
AUSTER_FOLIE
1002
{
1000
S0_W_VERDRAHTUNGSBAUSATZ
1002
}
  0
ARC
  5
22DF
330
720
100
AcDbEntity
  8
11000_Left
  6
SHORT_DASH
 62
     7
370
     9
100
AcDbCircle
 39
0.5
 10
429.7256137267388
 20
334.6407791190818
 30
0.0
 40
0.3
100
AcDbArc
 50
90.0
 51
180.0
1001
AUSTER_ANSICHT
1002
{
1000
Det03
1002
}
1001
AUSTER_FOLIE
1002
{
1000
S0_W_VERDRAHTUNGSBAUSATZ
1002
}
  0
ARC
  5
22E0
330
720
100
AcDbEntity
  8
11000_Left
  6
SHORT_DASH
 62
     7
370
     9
100
AcDbCircle
 39
0.5
 10
430.9856137267387
 20
325.7007791190818
 30
0.0
 40
0.76
100
AcDbArc
 50
180.0
 51
270.0
1001
AUSTER_ANSICHT
1002
{
1000
Det03
1002
}
1001
AUSTER_FOLIE
1002
{
1000
S0_W_VERDRAHTUNGSBAUSATZ
1002
}
  0
ARC
  5
22E1
330
720
100
AcDbEntity
  8
11000_Left
  6
SHORT_DASH
 62
     7
370
     9
100
AcDbCircle
 39
0.5
 10
436.5256137267387
 20
396.5407791190818
 30
0.0
 40
0.4
100
AcDbArc
 50
0.0
 51
90.0
1001
AUSTER_ANSICHT
1002
{
1000
Det03
1002
}
1001
AUSTER_FOLIE
1002
{
1000
S0_W_VERDRAHTUNGSBAUSATZ
1002
}
  0
ARC
  5
22E2
330
720
100
AcDbEntity
  8
11000_Left
  6
SHORT_DASH
 62
     7
370
     9
100
AcDbCircle
 39
0.5
 10
430.9856137267387
 20
396.1807791190818
 30
0.0
 40
0.76
100
AcDbArc
 50
90.0
 51
180.0
1001
AUSTER_ANSICHT
1002
{
1000
Det03
1002
}
1001
AUSTER_FOLIE
1002
{
1000
S0_W_VERDRAHTUNGSBAUSATZ
1002
}
  0
LINE
  5
22E8
330
720
100
AcDbEntity
  8
11000_Left
  6
SHORT_DASH
 62
     7
370
     9
100
AcDbLine
 39
0.5
 10
427.0249137267386
 20
371.5378791190818
 30
0.0
 11
427.0249137267386
 21
350.5378791190818
 31
0.0
1001
AUSTER_ANSICHT
1002
{
1000
Det03
1002
}
1001
AUSTER_FOLIE
1002
{
1000
S0_W_VERDRAHTUNGSBAUSATZ
1002
}
  0
LINE
  5
22EA
330
720
100
AcDbEntity
  8
11000_Left
  6
SHORT_DASH
 62
     7
370
     9
100
AcDbLine
 39
0.5
 10
430.6249137267386
 20
348.5378791190818
 30
0.0
 11
429.0249137267385
 21
348.5378791190818
 31
0.0
1001
AUSTER_ANSICHT
1002
{
1000
Det03
1002
}
1001
AUSTER_FOLIE
1002
{
1000
S0_W_VERDRAHTUNGSBAUSATZ
1002
}
  0
LINE
  5
22EB
330
720
100
AcDbEntity
  8
11000_Left
  6
SHORT_DASH
 62
     7
370
     9
100
AcDbLine
 39
0.5
 10
464.8256137267386
 20
333.840779119082
 30
0.0
 11
473.7256137267386
 21
333.840779119082
 31
0.0
1001
AUSTER_ANSICHT
1002
{
1000
Det03
1002
}
1001
AUSTER_FOLIE
1002
{
1000
S0_W_VERDRAHTUNGSBAUSATZ
1002
}
  0
LINE
  5
22EC
330
720
100
AcDbEntity
  8
11000_Left
  6
SHORT_DASH
 62
     7
370
     9
100
AcDbLine
 39
0.5
 10
464.8256137267386
 20
329.2907791190818
 30
0.0
 11
464.8256137267386
 21
333.840779119082
 31
0.0
1001
AUSTER_ANSICHT
1002
{
1000
Det03
1002
}
1001
AUSTER_FOLIE
1002
{
1000
S0_W_VERDRAHTUNGSBAUSATZ
1002
}
  0
LINE
  5
22ED
330
720
100
AcDbEntity
  8
11000_Left
  6
SHORT_DASH
 62
     7
370
     9
100
AcDbLine
 39
0.5
 10
473.7256137267386
 20
333.840779119082
 30
0.0
 11
473.7256137267386
 21
329.2907791190818
 31
0.0
1001
AUSTER_ANSICHT
1002
{
1000
Det03
1002
}
1001
AUSTER_FOLIE
1002
{
1000
S0_W_VERDRAHTUNGSBAUSATZ
1002
}
  0
LINE
  5
22EE
330
720
100
AcDbEntity
  8
11000_Left
  6
SHORT_DASH
 62
     7
370
     9
100
AcDbLine
 39
0.5
 10
473.7256137267386
 20
329.2907791190818
 30
0.0
 11
464.8256137267386
 21
329.2907791190818
 31
0.0
1001
AUSTER_ANSICHT
1002
{
1000
Det03
1002
}
1001
AUSTER_FOLIE
1002
{
1000
S0_W_VERDRAHTUNGSBAUSATZ
1002
}
  0
LINE
  5
22EF
330
720
100
AcDbEntity
  8
11000_Left
  6
SHORT_DASH
 62
     7
370
     9
100
AcDbLine
 39
0.5
 10
436.9256137267385
 20
334.1407791190818
 30
0.0
 11
461.2256137267386
 21
334.1407791190818
 31
0.0
1001
AUSTER_ANSICHT
1002
{
1000
Det03
1002
}
1001
AUSTER_FOLIE
1002
{
1000
S0_W_VERDRAHTUNGSBAUSATZ
1002
}
  0
LINE
  5
22F0
330
720
100
AcDbEntity
  8
11000_Left
  6
SHORT_DASH
 62
     7
370
     9
100
AcDbLine
 39
0.5
 10
462.2256137267387
 20
329.9407791190818
 30
0.0
 11
462.2256137267387
 21
333.1407791190819
 31
0.0
1001
AUSTER_ANSICHT
1002
{
1000
Det03
1002
}
1001
AUSTER_FOLIE
1002
{
1000
S0_W_VERDRAHTUNGSBAUSATZ
1002
}
  0
LINE
  5
22F1
330
720
100
AcDbEntity
  8
11000_Left
  6
SHORT_DASH
 62
     7
370
     9
100
AcDbLine
 39
0.5
 10
436.9256137267385
 20
334.1407791190818
 30
0.0
 11
436.9256137267385
 21
328.4407791190818
 31
0.0
1001
AUSTER_ANSICHT
1002
{
1000
Det03
1002
}
1001
AUSTER_FOLIE
1002
{
1000
S0_W_VERDRAHTUNGSBAUSATZ
1002
}
  0
LINE
  5
22F2
330
720
100
AcDbEntity
  8
11000_Left
  6
SHORT_DASH
 62
     7
370
     9
100
AcDbLine
 39
0.5
 10
429.4256137267386
 20
333.340779119082
 30
0.0
 11
436.9256137267385
 21
333.340779119082
 31
0.0
1001
AUSTER_ANSICHT
1002
{
1000
Det03
1002
}
1001
AUSTER_FOLIE
1002
{
1000
S0_W_VERDRAHTUNGSBAUSATZ
1002
}
  0
LINE
  5
22F3
330
720
100
AcDbEntity
  8
11000_Left
  6
SHORT_DASH
 62
     7
370
     9
100
AcDbLine
 39
0.5
 10
429.4256137267386
 20
328.5407791190818
 30
0.0
 11
436.9256137267385
 21
328.5407791190818
 31
0.0
1001
AUSTER_ANSICHT
1002
{
1000
Det03
1002
}
1001
AUSTER_FOLIE
1002
{
1000
S0_W_VERDRAHTUNGSBAUSATZ
1002
}
  0
ARC
  5
22F4
330
720
100
AcDbEntity
  8
11000_Left
  6
SHORT_DASH
 62
     7
370
     9
100
AcDbCircle
 39
0.5
 10
429.0249137267385
 20
350.5378791190818
 30
0.0
 40
2.0
100
AcDbArc
 50
180.0
 51
270.0
1001
AUSTER_ANSICHT
1002
{
1000
Det03
1002
}
1001
AUSTER_FOLIE
1002
{
1000
S0_W_VERDRAHTUNGSBAUSATZ
1002
}
  0
ARC
  5
22F5
330
720
100
AcDbEntity
  8
11000_Left
  6
SHORT_DASH
 62
     7
370
     9
100
AcDbCircle
 39
0.5
 10
463.7255137267387
 20
329.9407791190818
 30
0.0
 40
1.499916999999999
100
AcDbArc
 50
180.0
 51
270.0032000000013
1001
AUSTER_ANSICHT
1002
{
1000
Det03
1002
}
1001
AUSTER_FOLIE
1002
{
1000
S0_W_VERDRAHTUNGSBAUSATZ
1002
}
  0
ARC
  5
22F6
330
720
100
AcDbEntity
  8
11000_Left
  6
SHORT_DASH
 62
     7
370
     9
100
AcDbCircle
 39
0.5
 10
461.2256137267386
 20
333.1407791190819
 30
0.0
 40
1.0
100
AcDbArc
 50
0.0
 51
90.0
1001
AUSTER_ANSICHT
1002
{
1000
Det03
1002
}
1001
AUSTER_FOLIE
1002
{
1000
S0_W_VERDRAHTUNGSBAUSATZ
1002
}
  0
LINE
  5
22F9
330
720
100
AcDbEntity
  8
11000_Left
  6
SHORT_DASH
 62
     7
370
     9
100
AcDbLine
 39
0.5
 10
433.3256137267386
 20
377.6050791190818
 30
0.0
 11
433.5256137267386
 21
377.8907791190818
 31
0.0
1001
AUSTER_ANSICHT
1002
{
1000
Det03
1002
}
1001
AUSTER_FOLIE
1002
{
1000
S0_W_VERDRAHTUNGSBAUSATZ
1002
}
  0
LINE
  5
22FA
330
720
100
AcDbEntity
  8
11000_Left
  6
SHORT_DASH
 62
     7
370
     9
100
AcDbLine
 39
0.5
 10
430.6249137267386
 20
373.5378791190818
 30
0.0
 11
429.0249137267385
 21
373.5378791190818
 31
0.0
1001
AUSTER_ANSICHT
1002
{
1000
Det03
1002
}
1001
AUSTER_FOLIE
1002
{
1000
S0_W_VERDRAHTUNGSBAUSATZ
1002
}
  0
LINE
  5
22FB
330
720
100
AcDbEntity
  8
11000_Left
  6
SHORT_DASH
 62
     7
370
     9
100
AcDbLine
 39
0.5
 10
464.8256137267386
 20
392.5907791190818
 30
0.0
 11
464.8256137267386
 21
388.0407791190818
 31
0.0
1001
AUSTER_ANSICHT
1002
{
1000
Det03
1002
}
1001
AUSTER_FOLIE
1002
{
1000
S0_W_VERDRAHTUNGSBAUSATZ
1002
}
  0
LINE
  5
22FC
330
720
100
AcDbEntity
  8
11000_Left
  6
SHORT_DASH
 62
     7
370
     9
100
AcDbLine
 39
0.5
 10
464.8256137267386
 20
388.0407791190818
 30
0.0
 11
473.7256137267386
 21
388.0407791190818
 31
0.0
1001
AUSTER_ANSICHT
1002
{
1000
Det03
1002
}
1001
AUSTER_FOLIE
1002
{
1000
S0_W_VERDRAHTUNGSBAUSATZ
1002
}
  0
LINE
  5
22FD
330
720
100
AcDbEntity
  8
11000_Left
  6
SHORT_DASH
 62
     7
370
     9
100
AcDbLine
 39
0.5
 10
473.7256137267386
 20
388.0407791190818
 30
0.0
 11
473.7256137267386
 21
392.5907791190818
 31
0.0
1001
AUSTER_ANSICHT
1002
{
1000
Det03
1002
}
1001
AUSTER_FOLIE
1002
{
1000
S0_W_VERDRAHTUNGSBAUSATZ
1002
}
  0
LINE
  5
22FE
330
720
100
AcDbEntity
  8
11000_Left
  6
SHORT_DASH
 62
     7
370
     9
100
AcDbLine
 39
0.5
 10
473.7256137267386
 20
392.5907791190818
 30
0.0
 11
464.8256137267386
 21
392.5907791190818
 31
0.0
1001
AUSTER_ANSICHT
1002
{
1000
Det03
1002
}
1001
AUSTER_FOLIE
1002
{
1000
S0_W_VERDRAHTUNGSBAUSATZ
1002
}
  0
LINE
  5
22FF
330
720
100
AcDbEntity
  8
11000_Left
  6
SHORT_DASH
 62
     7
370
     9
100
AcDbLine
 39
0.5
 10
436.9256137267385
 20
387.7407791190817
 30
0.0
 11
436.9256137267385
 21
393.4407791190818
 31
0.0
1001
AUSTER_ANSICHT
1002
{
1000
Det03
1002
}
1001
AUSTER_FOLIE
1002
{
1000
S0_W_VERDRAHTUNGSBAUSATZ
1002
}
  0
LINE
  5
2300
330
720
100
AcDbEntity
  8
11000_Left
  6
SHORT_DASH
 62
     7
370
     9
100
AcDbLine
 39
0.5
 10
436.9256137267385
 20
387.7407791190817
 30
0.0
 11
461.2256137267386
 21
387.7407791190817
 31
0.0
1001
AUSTER_ANSICHT
1002
{
1000
Det03
1002
}
1001
AUSTER_FOLIE
1002
{
1000
S0_W_VERDRAHTUNGSBAUSATZ
1002
}
  0
LINE
  5
2301
330
720
100
AcDbEntity
  8
11000_Left
  6
SHORT_DASH
 62
     7
370
     9
100
AcDbLine
 39
0.5
 10
462.2256137267387
 20
388.7407791190818
 30
0.0
 11
462.2256137267387
 21
391.9407791190818
 31
0.0
1001
AUSTER_ANSICHT
1002
{
1000
Det03
1002
}
1001
AUSTER_FOLIE
1002
{
1000
S0_W_VERDRAHTUNGSBAUSATZ
1002
}
  0
LINE
  5
2302
330
720
100
AcDbEntity
  8
11000_Left
  6
SHORT_DASH
 62
     7
370
     9
100
AcDbLine
 39
0.5
 10
429.4256137267386
 20
388.5407791190819
 30
0.0
 11
436.9256137267385
 21
388.5407791190819
 31
0.0
1001
AUSTER_ANSICHT
1002
{
1000
Det03
1002
}
1001
AUSTER_FOLIE
1002
{
1000
S0_W_VERDRAHTUNGSBAUSATZ
1002
}
  0
LINE
  5
2303
330
720
100
AcDbEntity
  8
11000_Left
  6
SHORT_DASH
 62
     7
370
     9
100
AcDbLine
 39
0.5
 10
429.4256137267386
 20
393.3407791190818
 30
0.0
 11
436.9256137267385
 21
393.4407791190818
 31
0.0
1001
AUSTER_ANSICHT
1002
{
1000
Det03
1002
}
1001
AUSTER_FOLIE
1002
{
1000
S0_W_VERDRAHTUNGSBAUSATZ
1002
}
  0
ARC
  5
2304
330
720
100
AcDbEntity
  8
11000_Left
  6
SHORT_DASH
 62
     7
370
     9
100
AcDbCircle
 39
0.5
 10
429.0249137267385
 20
371.5378791190818
 30
0.0
 40
2.0
100
AcDbArc
 50
90.0
 51
180.0
1001
AUSTER_ANSICHT
1002
{
1000
Det03
1002
}
1001
AUSTER_FOLIE
1002
{
1000
S0_W_VERDRAHTUNGSBAUSATZ
1002
}
  0
ARC
  5
2305
330
720
100
AcDbEntity
  8
11000_Left
  6
SHORT_DASH
 62
     7
370
     9
100
AcDbCircle
 39
0.5
 10
461.2256137267386
 20
388.7407791190818
 30
0.0
 40
1.0
100
AcDbArc
 50
270.0
 51
0.0
1001
AUSTER_ANSICHT
1002
{
1000
Det03
1002
}
1001
AUSTER_FOLIE
1002
{
1000
S0_W_VERDRAHTUNGSBAUSATZ
1002
}
  0
ARC
  5
2306
330
720
100
AcDbEntity
  8
11000_Left
  6
SHORT_DASH
 62
     7
370
     9
100
AcDbCircle
 39
0.5
 10
463.7255137267387
 20
391.9407791190818
 30
0.0
 40
1.499916999999999
100
AcDbArc
 50
89.99685000000058
 51
180.0
1001
AUSTER_ANSICHT
1002
{
1000
Det03
1002
}
1001
AUSTER_FOLIE
1002
{
1000
S0_W_VERDRAHTUNGSBAUSATZ
1002
}
  0
LINE
  5
2308
330
720
100
AcDbEntity
  8
11000_Left
  6
SHORT_DASH
 62
     7
370
     9
100
AcDbLine
 39
0.5
 10
492.2256137267387
 20
327.9407791190818
 30
0.0
 11
492.2256137267387
 21
393.9407791190818
 31
0.0
1001
AUSTER_ANSICHT
1002
{
1000
Det03
1002
}
1001
AUSTER_FOLIE
1002
{
1000
S0_W_VERDRAHTUNGSBAUSATZ
1002
}
  0
LINE
  5
230E
330
720
100
AcDbEntity
  8
11000_Left
  6
SHORT_DASH
 62
     7
370
     9
100
AcDbLine
 39
0.5
 10
494.9256137267387
 20
336.4407791190818
 30
0.0
 11
501.4256137267388
 21
336.4407791190818
 31
0.0
1001
AUSTER_ANSICHT
1002
{
1000
Det03
1002
}
1001
AUSTER_FOLIE
1002
{
1000
S0_W_VERDRAHTUNGSBAUSATZ
1002
}
  0
LINE
  5
230F
330
720
100
AcDbEntity
  8
11000_Left
  6
SHORT_DASH
 62
     7
370
     9
100
AcDbLine
 39
0.5
 10
501.4256137267388
 20
336.4407791190818
 30
0.0
 11
501.4256137267388
 21
342.4407791190818
 31
0.0
1001
AUSTER_ANSICHT
1002
{
1000
Det03
1002
}
1001
AUSTER_FOLIE
1002
{
1000
S0_W_VERDRAHTUNGSBAUSATZ
1002
}
  0
LINE
  5
2310
330
720
100
AcDbEntity
  8
11000_Left
  6
SHORT_DASH
 62
     7
370
     9
100
AcDbLine
 39
0.5
 10
501.4256137267388
 20
342.4407791190818
 30
0.0
 11
494.9256137267387
 21
342.4407791190818
 31
0.0
1001
AUSTER_ANSICHT
1002
{
1000
Det03
1002
}
1001
AUSTER_FOLIE
1002
{
1000
S0_W_VERDRAHTUNGSBAUSATZ
1002
}
  0
LINE
  5
2311
330
720
100
AcDbEntity
  8
11000_Left
  6
SHORT_DASH
 62
     7
370
     9
100
AcDbLine
 39
0.5
 10
494.9256137267387
 20
342.4407791190818
 30
0.0
 11
494.9256137267387
 21
336.4407791190818
 31
0.0
1001
AUSTER_ANSICHT
1002
{
1000
Det03
1002
}
1001
AUSTER_FOLIE
1002
{
1000
S0_W_VERDRAHTUNGSBAUSATZ
1002
}
  0
LINE
  5
2312
330
720
100
AcDbEntity
  8
11000_Left
  6
SHORT_DASH
 62
     7
370
     9
100
AcDbLine
 39
0.5
 10
492.2256137267387
 20
324.942279119082
 30
0.0
 11
492.2256137267387
 21
322.4407791190818
 31
0.0
1001
AUSTER_ANSICHT
1002
{
1000
Det03
1002
}
1001
AUSTER_FOLIE
1002
{
1000
S0_W_VERDRAHTUNGSBAUSATZ
1002
}
  0
LINE
  5
2314
330
720
100
AcDbEntity
  8
11000_Left
  6
SHORT_DASH
 62
     7
370
     9
100
AcDbLine
 39
0.5
 10
490.2256137267386
 20
327.4407791190818
 30
0.0
 11
490.2256137267386
 21
325.7407791190818
 31
0.0
1001
AUSTER_ANSICHT
1002
{
1000
Det03
1002
}
1001
AUSTER_FOLIE
1002
{
1000
S0_W_VERDRAHTUNGSBAUSATZ
1002
}
  0
LINE
  5
2315
330
720
100
AcDbEntity
  8
11000_Left
  6
SHORT_DASH
 62
     7
370
     9
100
AcDbLine
 39
0.5
 10
492.2256137267387
 20
327.9407791190818
 30
0.0
 11
490.7256137267386
 21
327.9407791190818
 31
0.0
1001
AUSTER_ANSICHT
1002
{
1000
Det03
1002
}
1001
AUSTER_FOLIE
1002
{
1000
S0_W_VERDRAHTUNGSBAUSATZ
1002
}
  0
LINE
  5
2316
330
720
100
AcDbEntity
  8
11000_Left
  6
SHORT_DASH
 62
     7
370
     9
100
AcDbLine
 39
0.5
 10
490.7256137267386
 20
327.9407791190818
 30
0.0
 11
490.2256137267386
 21
327.4407791190818
 31
0.0
1001
AUSTER_ANSICHT
1002
{
1000
Det03
1002
}
1001
AUSTER_FOLIE
1002
{
1000
S0_W_VERDRAHTUNGSBAUSATZ
1002
}
  0
ARC
  5
231A
330
720
100
AcDbEntity
  8
11000_Left
  6
SHORT_DASH
 62
     7
370
     9
100
AcDbCircle
 39
0.5
 10
490.7256137267386
 20
322.4407791190818
 30
0.0
 40
1.5
100
AcDbArc
 50
270.0
 51
0.0
1001
AUSTER_ANSICHT
1002
{
1000
Det03
1002
}
1001
AUSTER_FOLIE
1002
{
1000
S0_W_VERDRAHTUNGSBAUSATZ
1002
}
  0
ARC
  5
231B
330
720
100
AcDbEntity
  8
11000_Left
  6
SHORT_DASH
 62
     7
370
     9
100
AcDbCircle
 39
0.5
 10
491.0256137267386
 20
325.7407791190818
 30
0.0
 40
0.8
100
AcDbArc
 50
180.0
 51
270.0
1001
AUSTER_ANSICHT
1002
{
1000
Det03
1002
}
1001
AUSTER_FOLIE
1002
{
1000
S0_W_VERDRAHTUNGSBAUSATZ
1002
}
  0
LINE
  5
231F
330
720
100
AcDbEntity
  8
11000_Left
  6
SHORT_DASH
 62
     7
370
     9
100
AcDbLine
 39
0.5
 10
494.9256137267387
 20
385.4407791190818
 30
0.0
 11
501.4256137267388
 21
385.4407791190818
 31
0.0
1001
AUSTER_ANSICHT
1002
{
1000
Det03
1002
}
1001
AUSTER_FOLIE
1002
{
1000
S0_W_VERDRAHTUNGSBAUSATZ
1002
}
  0
LINE
  5
2320
330
720
100
AcDbEntity
  8
11000_Left
  6
SHORT_DASH
 62
     7
370
     9
100
AcDbLine
 39
0.5
 10
501.4256137267388
 20
385.4407791190818
 30
0.0
 11
501.4256137267388
 21
379.4407791190818
 31
0.0
1001
AUSTER_ANSICHT
1002
{
1000
Det03
1002
}
1001
AUSTER_FOLIE
1002
{
1000
S0_W_VERDRAHTUNGSBAUSATZ
1002
}
  0
LINE
  5
2321
330
720
100
AcDbEntity
  8
11000_Left
  6
SHORT_DASH
 62
     7
370
     9
100
AcDbLine
 39
0.5
 10
501.4256137267388
 20
379.4407791190818
 30
0.0
 11
494.9256137267387
 21
379.4407791190818
 31
0.0
1001
AUSTER_ANSICHT
1002
{
1000
Det03
1002
}
1001
AUSTER_FOLIE
1002
{
1000
S0_W_VERDRAHTUNGSBAUSATZ
1002
}
  0
LINE
  5
2322
330
720
100
AcDbEntity
  8
11000_Left
  6
SHORT_DASH
 62
     7
370
     9
100
AcDbLine
 39
0.5
 10
494.9256137267387
 20
379.4407791190818
 30
0.0
 11
494.9256137267387
 21
385.4407791190818
 31
0.0
1001
AUSTER_ANSICHT
1002
{
1000
Det03
1002
}
1001
AUSTER_FOLIE
1002
{
1000
S0_W_VERDRAHTUNGSBAUSATZ
1002
}
  0
LINE
  5
2323
330
720
100
AcDbEntity
  8
11000_Left
  6
SHORT_DASH
 62
     7
370
     9
100
AcDbLine
 39
0.5
 10
492.2256137267387
 20
396.9392791190818
 30
0.0
 11
492.2256137267387
 21
399.4407791190818
 31
0.0
1001
AUSTER_ANSICHT
1002
{
1000
Det03
1002
}
1001
AUSTER_FOLIE
1002
{
1000
S0_W_VERDRAHTUNGSBAUSATZ
1002
}
  0
LINE
  5
2324
330
720
100
AcDbEntity
  8
11000_Left
  6
SHORT_DASH
 62
     7
370
     9
100
AcDbLine
 39
0.5
 10
490.2256137267386
 20
394.4407791190818
 30
0.0
 11
490.2256137267386
 21
396.1407791190819
 31
0.0
1001
AUSTER_ANSICHT
1002
{
1000
Det03
1002
}
1001
AUSTER_FOLIE
1002
{
1000
S0_W_VERDRAHTUNGSBAUSATZ
1002
}
  0
LINE
  5
2325
330
720
100
AcDbEntity
  8
11000_Left
  6
SHORT_DASH
 62
     7
370
     9
100
AcDbLine
 39
0.5
 10
490.2256137267386
 20
394.4407791190818
 30
0.0
 11
490.7256137267386
 21
393.9407791190818
 31
0.0
1001
AUSTER_ANSICHT
1002
{
1000
Det03
1002
}
1001
AUSTER_FOLIE
1002
{
1000
S0_W_VERDRAHTUNGSBAUSATZ
1002
}
  0
LINE
  5
2326
330
720
100
AcDbEntity
  8
11000_Left
  6
SHORT_DASH
 62
     7
370
     9
100
AcDbLine
 39
0.5
 10
490.7256137267386
 20
393.9407791190818
 30
0.0
 11
492.2256137267387
 21
393.9407791190818
 31
0.0
1001
AUSTER_ANSICHT
1002
{
1000
Det03
1002
}
1001
AUSTER_FOLIE
1002
{
1000
S0_W_VERDRAHTUNGSBAUSATZ
1002
}
  0
ARC
  5
232C
330
720
100
AcDbEntity
  8
11000_Left
  6
SHORT_DASH
 62
     7
370
     9
100
AcDbCircle
 39
0.5
 10
490.7256137267386
 20
399.4407791190818
 30
0.0
 40
1.5
100
AcDbArc
 50
0.0
 51
90.0
1001
AUSTER_ANSICHT
1002
{
1000
Det03
1002
}
1001
AUSTER_FOLIE
1002
{
1000
S0_W_VERDRAHTUNGSBAUSATZ
1002
}
  0
ARC
  5
232D
330
720
100
AcDbEntity
  8
11000_Left
  6
SHORT_DASH
 62
     7
370
     9
100
AcDbCircle
 39
0.5
 10
491.0256137267386
 20
396.1407791190819
 30
0.0
 40
0.8
100
AcDbArc
 50
90.0
 51
180.0
1001
AUSTER_ANSICHT
1002
{
1000
Det03
1002
}
1001
AUSTER_FOLIE
1002
{
1000
S0_W_VERDRAHTUNGSBAUSATZ
1002
}
  0
LINE
  5
2351
330
720
100
AcDbEntity
  8
11000_Left
  6
SHORT_DASH
 62
     7
370
     9
100
AcDbLine
 39
0.5
 10
488.1256137267388
 20
400.9407791190818
 30
0.0
 11
488.1256137267388
 21
402.9407791190816
 31
0.0
  0
LINE
  5
2352
330
720
100
AcDbEntity
  8
11000_Left
  6
SHORT_DASH
 62
     7
370
     9
100
AcDbLine
 39
0.5
 10
479.6256137267388
 20
400.9407791190818
 30
0.0
 11
481.6256137267385
 21
402.9407791190816
 31
0.0
  0
LINE
  5
2353
330
720
100
AcDbEntity
  8
11000_Left
  6
SHORT_DASH
 62
     7
370
     9
100
AcDbLine
 39
0.5
 10
481.6256137267385
 20
402.9407791190816
 30
0.0
 11
481.6256137267385
 21
402.9407791190816
 31
0.0
  0
LINE
  5
2354
330
720
100
AcDbEntity
  8
11000_Left
  6
SHORT_DASH
 62
     7
370
     9
100
AcDbLine
 39
0.5
 10
481.6256137267385
 20
402.9407791190816
 30
0.0
 11
488.1256137267388
 21
402.9407791190816
 31
0.0
  0
LINE
  5
2355
330
720
100
AcDbEntity
  8
11000_Left
  6
SHORT_DASH
 62
     7
370
     9
100
AcDbLine
 39
0.5
 10
481.6256137267385
 20
318.9407791190818
 30
0.0
 11
488.1256137267388
 21
318.9407791190818
 31
0.0
  0
LINE
  5
2356
330
720
100
AcDbEntity
  8
11000_Left
  6
SHORT_DASH
 62
     7
370
     9
100
AcDbLine
 39
0.5
 10
481.6256137267385
 20
318.9407791190818
 30
0.0
 11
481.6256137267385
 21
318.9407791190818
 31
0.0
  0
LINE
  5
2357
330
720
100
AcDbEntity
  8
11000_Left
  6
SHORT_DASH
 62
     7
370
     9
100
AcDbLine
 39
0.5
 10
479.6256137267388
 20
320.9407791190818
 30
0.0
 11
481.6256137267385
 21
318.9407791190818
 31
0.0
  0
LINE
  5
2358
330
720
100
AcDbEntity
  8
11000_Left
  6
SHORT_DASH
 62
     7
370
     9
100
AcDbLine
 39
0.5
 10
488.1256137267388
 20
320.9407791190818
 30
0.0
 11
488.1256137267388
 21
318.9407791190818
 31
0.0
  0
LINE
  5
241A
330
720
100
AcDbEntity
  8
11000_Left
  6
Continuous
 62
     7
370
    20
100
AcDbLine
 39
0.5
 10
537.7731935791506
 20
377.2919062594222
 30
0.0
 11
534.5627060675252
 21
377.2919062594222
 31
0.0
1001
AUSTER_ANSICHT
1002
{
1000
Det03
1002
}
1001
AUSTER_FOLIE
1002
{
1000
EGH_KUNDENKATALOG
1002
}
  0
LINE
  5
245C
330
720
100
AcDbEntity
  8
11000_Left
  6
SHORT_DASH
 62
     7
370
     9
100
AcDbLine
 39
0.5
 10
525.2256137267387
 20
393.6293791190818
 30
0.0
 11
525.2256137267387
 21
327.4407791190818
 31
0.0
1001
AUSTER_ANSICHT
1002
{
1000
Det03
1002
}
1001
AUSTER_FOLIE
1002
{
1000
S0_W_VERDRAHTUNGSBAUSATZ
1002
}
  0
LINE
  5
245D
330
720
100
AcDbEntity
  8
11000_Left
  6
SHORT_DASH
 62
     7
370
     9
100
AcDbLine
 39
0.5
 10
525.2256137267387
 20
327.4407791190818
 30
0.0
 11
525.2256137267387
 21
326.4407791190818
 31
0.0
1001
AUSTER_ANSICHT
1002
{
1000
Det03
1002
}
1001
AUSTER_FOLIE
1002
{
1000
S0_W_VERDRAHTUNGSBAUSATZ
1002
}
  0
LINE
  5
245E
330
720
100
AcDbEntity
  8
11000_Left
  6
SHORT_DASH
 62
     7
370
     9
100
AcDbLine
 39
0.5
 10
497.1256137267386
 20
396.9407791190818
 30
0.0
 11
491.0256137267386
 21
396.9407791190818
 31
0.0
1001
AUSTER_ANSICHT
1002
{
1000
Det03
1002
}
1001
AUSTER_FOLIE
1002
{
1000
S0_W_VERDRAHTUNGSBAUSATZ
1002
}
  0
LINE
  5
245F
330
720
100
AcDbEntity
  8
11000_Left
  6
SHORT_DASH
 62
     7
370
     9
100
AcDbLine
 39
0.5
 10
473.1256137267386
 20
393.4407791190818
 30
0.0
 11
436.9256137267385
 21
393.4407791190818
 31
0.0
1001
AUSTER_ANSICHT
1002
{
1000
Det03
1002
}
1001
AUSTER_FOLIE
1002
{
1000
S0_W_VERDRAHTUNGSBAUSATZ
1002
}
  0
LINE
  5
2460
330
720
100
AcDbEntity
  8
11000_Left
  6
SHORT_DASH
 62
     7
370
     9
100
AcDbLine
 39
0.5
 10
497.1256137267386
 20
324.9407791190818
 30
0.0
 11
523.7256137267386
 21
324.9407791190818
 31
0.0
1001
AUSTER_ANSICHT
1002
{
1000
Det03
1002
}
1001
AUSTER_FOLIE
1002
{
1000
S0_W_VERDRAHTUNGSBAUSATZ
1002
}
  0
DIMENSION
  5
2550
102
{ACAD_XDICTIONARY
360
255D
102
}
102
{ACAD_REACTORS
330
2567
102
}
330
720
100
AcDbEntity
  8
11100_LEFT_DIM
  6
Continuous
 62
     7
370
    13
100
AcDbDimension
  2
*D37
 10
429.4256137267386
 20
310.6795556172055
 30
0.0
 11
421.2589470600719
 21
310.6795556172055
 31
0.0
 70
    32
 71
     5
 42
5.100000000000022
  3
H035
100
AcDbAlignedDimension
 13
434.5256137267386
 23
341.3907791190819
 33
0.0
 14
429.4256137267386
 24
327.2407791190818
 34
0.0
100
AcDbRotatedDimension
1001
ACAD
1000
DSTYLE
1002
{
1070
    40
1040
1.0
1002
}
  0
DIMENSION
  5
2569
330
720
100
AcDbEntity
  8
11100_LEFT_DIM
  6
Continuous
 62
     7
370
    13
100
AcDbDimension
  2
*D38
 10
483.5256137267387
 20
310.6795556172055
 30
0.0
 11
459.0256137267386
 21
310.6795556172055
 31
0.0
 70
    32
 71
     5
 42
49.00000000000017
  3
H035
100
AcDbAlignedDimension
 13
434.5256137267386
 23
324.9407791190818
 33
0.0
 14
483.5256137267387
 24
318.9407791190817
 34
0.0
100
AcDbRotatedDimension
1001
ACAD
1000
DSTYLE
1002
{
1070
    40
1040
1.0
1002
}
  0
DIMENSION
  5
2583
330
720
100
AcDbEntity
  8
11100_LEFT_DIM
  6
Continuous
 62
     7
370
    13
100
AcDbDimension
  2
*D39
 10
505.5256137267385
 20
304.3404967505754
 30
0.0
 11
470.0256137267386
 21
304.3404967505754
 31
0.0
 70
    32
 71
     5
 42
70.99999999999994
  3
H035
100
AcDbAlignedDimension
 13
434.5256137267386
 23
324.8782791190818
 33
0.0
 14
505.5256137267385
 24
322.5519596773507
 34
0.0
100
AcDbRotatedDimension
1001
ACAD
1000
DSTYLE
1002
{
1070
    40
1040
1.0
1002
}
  0
DIMENSION
  5
259D
330
720
100
AcDbEntity
  8
11100_LEFT_DIM
  6
Continuous
 62
     7
370
    13
100
AcDbDimension
  2
*D40
 10
530.3506060675251
 20
298.1206823999894
 30
0.0
 11
482.4381098971318
 21
298.1206823999894
 31
0.0
 70
    32
 71
     5
 42
95.82499234078653
  3
H035
100
AcDbAlignedDimension
 13
434.5256137267386
 23
324.8157791190818
 33
0.0
 14
530.3506060675251
 24
347.204036259422
 34
0.0
100
AcDbRotatedDimension
1001
ACAD
1000
DSTYLE
1002
{
1070
    40
1040
1.0
1002
}
  0
DIMENSION
  5
25B7
330
720
100
AcDbEntity
  8
11100_LEFT_DIM
  6
Continuous
 62
     7
370
    13
100
AcDbDimension
  2
*D41
 10
603.3678095133208
 20
291.1110055728603
 30
0.0
 11
518.9467116200297
 21
291.1110055728603
 31
0.0
 70
    32
 71
     5
 42
168.8421957865822
  3
H035
100
AcDbAlignedDimension
 13
434.5256137267386
 23
324.8782791190818
 33
0.0
 14
603.3678095133208
 24
358.5959993306231
 34
0.0
100
AcDbRotatedDimension
1001
ACAD
1000
DSTYLE
1002
{
1070
    40
1040
1.0
1002
}
  0
DIMENSION
  5
25D1
330
720
100
AcDbEntity
  8
11100_LEFT_DIM
  6
Continuous
 62
     7
370
    13
100
AcDbDimension
  2
*D42
 10
420.7333021358116
 20
390.9418791190818
 30
0.0
 11
420.7333021358115
 21
360.9413291190819
 31
0.0
 70
    32
 71
     5
 42
60.00110000000006
  3
H035
100
AcDbAlignedDimension
 13
429.4256137267386
 23
330.9407791190817
 33
0.0
 14
429.4256137267386
 24
390.9418791190818
 34
0.0
 50
90.0
100
AcDbRotatedDimension
1001
ACAD
1000
DSTYLE
1002
{
1070
    40
1040
1.0
1002
}
  0
LINE
  5
2668
330
720
100
AcDbEntity
  8
11000_Left
  6
SHORT_DASH
 62
     7
370
     9
100
AcDbLine
 39
0.5
 10
436.9256137267385
 20
328.4407791190818
 30
0.0
 11
436.9256137267385
 21
325.340779119082
 31
0.0
1001
AUSTER_ANSICHT
1002
{
1000
Det03
1002
}
1001
AUSTER_FOLIE
1002
{
1000
S0_W_VERDRAHTUNGSBAUSATZ
1002
}
  0
ARC
  5
295F
330
720
100
AcDbEntity
  8
10000_FRONT
  6
Continuous
 62
     7
370
    13
100
AcDbCircle
 39
0.5
 10
382.3407415321934
 20
338.3386791190822
 30
0.0
 40
0.4
100
AcDbArc
 50
270.0
 51
0.0
1001
AUSTER_ANSICHT
1002
{
1000
V
1002
}
1001
AUSTER_FOLIE
1002
{
1000
VERDRAHTUNGSBAUSATZ_S3_S3_S2
1002
}
  0
ARC
  5
2960
330
720
100
AcDbEntity
  8
10000_FRONT
  6
Continuous
 62
     7
370
    40
100
AcDbCircle
 39
0.5
 10
381.7407415321934
 20
341.7386791190818
 30
0.0
 40
1.0
100
AcDbArc
 50
270.0
 51
0.0
1001
AUSTER_ANSICHT
1002
{
1000
V
1002
}
1001
AUSTER_FOLIE
1002
{
1000
VERDRAHTUNGSBAUSATZ_S3_S3_S2
1002
}
  0
ARC
  5
2961
330
720
100
AcDbEntity
  8
10000_FRONT
  6
Continuous
 62
     7
370
    13
100
AcDbCircle
 39
0.5
 10
377.8407415321933
 20
373.4386791190821
 30
0.0
 40
2.850490999999999
100
AcDbArc
 50
167.7603999999987
 51
192.2396000000012
1001
AUSTER_ANSICHT
1002
{
1000
V
1002
}
1001
AUSTER_FOLIE
1002
{
1000
VERDRAHTUNGSBAUSATZ_S3_S3_S2
1002
}
  0
ARC
  5
2962
330
720
100
AcDbEntity
  8
10000_FRONT
  6
Continuous
 62
     7
370
    13
100
AcDbCircle
 39
0.5
 10
377.8407415321933
 20
373.4386791190821
 30
0.0
 40
1.85
100
AcDbArc
 50
253.8366000000001
 51
286.1633999999999
1001
AUSTER_ANSICHT
1002
{
1000
V
1002
}
1001
AUSTER_FOLIE
1002
{
1000
VERDRAHTUNGSBAUSATZ_S3_S3_S2
1002
}
  0
ARC
  5
2963
330
720
100
AcDbEntity
  8
10000_FRONT
  6
Continuous
 62
     7
370
    13
100
AcDbCircle
 39
0.5
 10
377.8407415321933
 20
373.4386791190821
 30
0.0
 40
1.85
100
AcDbArc
 50
73.83654999999714
 51
106.1633999999999
1001
AUSTER_ANSICHT
1002
{
1000
V
1002
}
1001
AUSTER_FOLIE
1002
{
1000
VERDRAHTUNGSBAUSATZ_S3_S3_S2
1002
}
  0
ARC
  5
2964
330
720
100
AcDbEntity
  8
10000_FRONT
  6
Continuous
 62
     7
370
    13
100
AcDbCircle
 39
0.5
 10
377.8407415321933
 20
373.4386791190821
 30
0.0
 40
2.850490999999999
100
AcDbArc
 50
347.7603999999987
 51
12.23960000000125
1001
AUSTER_ANSICHT
1002
{
1000
V
1002
}
1001
AUSTER_FOLIE
1002
{
1000
VERDRAHTUNGSBAUSATZ_S3_S3_S2
1002
}
  0
CIRCLE
  5
2965
102
{ACAD_REACTORS
330
397E
102
}
330
720
100
AcDbEntity
  8
10000_FRONT
  6
Continuous
 62
     7
370
    13
100
AcDbCircle
 39
0.5
 10
377.8407415321933
 20
373.4386791190821
 30
0.0
 40
3.379783
1001
AUSTER_ANSICHT
1002
{
1000
V
1002
}
1001
AUSTER_FOLIE
1002
{
1000
VERDRAHTUNGSBAUSATZ_S3_S3_S2
1002
}
  0
ARC
  5
2966
330
720
100
AcDbEntity
  8
10000_FRONT
  6
Continuous
 62
     7
370
    13
100
AcDbCircle
 39
0.5
 10
382.3407415321934
 20
383.538679119082
 30
0.0
 40
0.4
100
AcDbArc
 50
0.0
 51
90.0
1001
AUSTER_ANSICHT
1002
{
1000
V
1002
}
1001
AUSTER_FOLIE
1002
{
1000
VERDRAHTUNGSBAUSATZ_S3_S3_S2
1002
}
  0
ARC
  5
2967
330
720
100
AcDbEntity
  8
10000_FRONT
  6
Continuous
 62
     7
370
    13
100
AcDbCircle
 39
0.5
 10
350.3407415321934
 20
383.538679119082
 30
0.0
 40
0.4
100
AcDbArc
 50
90.0
 51
180.0
1001
AUSTER_ANSICHT
1002
{
1000
V
1002
}
1001
AUSTER_FOLIE
1002
{
1000
VERDRAHTUNGSBAUSATZ_S3_S3_S2
1002
}
  0
ARC
  5
2968
102
{ACAD_REACTORS
330
39C6
102
}
330
720
100
AcDbEntity
  8
10000_FRONT
  6
Continuous
 62
     7
370
    13
100
AcDbCircle
 39
0.5
 10
350.3407415321934
 20
338.3386791190822
 30
0.0
 40
0.4
100
AcDbArc
 50
180.0
 51
270.0
1001
AUSTER_ANSICHT
1002
{
1000
V
1002
}
1001
AUSTER_FOLIE
1002
{
1000
VERDRAHTUNGSBAUSATZ_S3_S3_S2
1002
}
  0
ARC
  5
2969
330
720
100
AcDbEntity
  8
10000_FRONT
  6
Continuous
 62
     7
370
    40
100
AcDbCircle
 39
0.5
 10
350.9407415321935
 20
380.1386791190819
 30
0.0
 40
1.0
100
AcDbArc
 50
90.0
 51
180.0
1001
AUSTER_ANSICHT
1002
{
1000
V
1002
}
1001
AUSTER_FOLIE
1002
{
1000
VERDRAHTUNGSBAUSATZ_S3_S3_S2
1002
}
  0
ARC
  5
296A
330
720
100
AcDbEntity
  8
10000_FRONT
  6
Continuous
 62
     7
370
    40
100
AcDbCircle
 39
0.5
 10
381.7407415321934
 20
380.1386791190819
 30
0.0
 40
1.0
100
AcDbArc
 50
0.0
 51
90.0
1001
AUSTER_ANSICHT
1002
{
1000
V
1002
}
1001
AUSTER_FOLIE
1002
{
1000
VERDRAHTUNGSBAUSATZ_S3_S3_S2
1002
}
  0
ARC
  5
296B
330
720
100
AcDbEntity
  8
10000_FRONT
  6
Continuous
 62
     7
370
    40
100
AcDbCircle
 39
0.5
 10
350.9407415321935
 20
341.7386791190818
 30
0.0
 40
1.0
100
AcDbArc
 50
180.0
 51
270.0
1001
AUSTER_ANSICHT
1002
{
1000
V
1002
}
1001
AUSTER_FOLIE
1002
{
1000
VERDRAHTUNGSBAUSATZ_S3_S3_S2
1002
}
  0
ARC
  5
296C
330
720
100
AcDbEntity
  8
10000_FRONT
  6
Continuous
 62
     7
370
    13
100
AcDbCircle
 39
0.5
 10
354.8407415321934
 20
348.4386791190821
 30
0.0
 40
2.850490999999999
100
AcDbArc
 50
167.7603999999987
 51
192.2396000000012
1001
AUSTER_ANSICHT
1002
{
1000
V
1002
}
1001
AUSTER_FOLIE
1002
{
1000
VERDRAHTUNGSBAUSATZ_S3_S3_S2
1002
}
  0
ARC
  5
296D
330
720
100
AcDbEntity
  8
10000_FRONT
  6
Continuous
 62
     7
370
    13
100
AcDbCircle
 39
0.5
 10
354.8407415321934
 20
348.4386791190821
 30
0.0
 40
1.85
100
AcDbArc
 50
73.83654999999714
 51
106.1633999999999
1001
AUSTER_ANSICHT
1002
{
1000
V
1002
}
1001
AUSTER_FOLIE
1002
{
1000
VERDRAHTUNGSBAUSATZ_S3_S3_S2
1002
}
  0
ARC
  5
296E
330
720
100
AcDbEntity
  8
10000_FRONT
  6
Continuous
 62
     7
370
    13
100
AcDbCircle
 39
0.5
 10
354.8407415321934
 20
348.4386791190821
 30
0.0
 40
1.85
100
AcDbArc
 50
253.8366000000001
 51
286.1633999999999
1001
AUSTER_ANSICHT
1002
{
1000
V
1002
}
1001
AUSTER_FOLIE
1002
{
1000
VERDRAHTUNGSBAUSATZ_S3_S3_S2
1002
}
  0
ARC
  5
296F
330
720
100
AcDbEntity
  8
10000_FRONT
  6
Continuous
 62
     7
370
    13
100
AcDbCircle
 39
0.5
 10
354.8407415321934
 20
348.4386791190821
 30
0.0
 40
2.850490999999999
100
AcDbArc
 50
347.7603999999987
 51
12.23960000000125
1001
AUSTER_ANSICHT
1002
{
1000
V
1002
}
1001
AUSTER_FOLIE
1002
{
1000
VERDRAHTUNGSBAUSATZ_S3_S3_S2
1002
}
  0
CIRCLE
  5
2970
330
720
100
AcDbEntity
  8
10000_FRONT
  6
Continuous
 62
     7
370
    13
100
AcDbCircle
 39
0.5
 10
354.8407415321934
 20
348.4386791190821
 30
0.0
 40
3.379783
1001
AUSTER_ANSICHT
1002
{
1000
V
1002
}
1001
AUSTER_FOLIE
1002
{
1000
VERDRAHTUNGSBAUSATZ_S3_S3_S2
1002
}
  0
ARC
  5
2971
330
720
100
AcDbEntity
  8
10000_FRONT
  6
Continuous
 62
     7
370
    13
100
AcDbCircle
 39
0.5
 10
366.3407415321934
 20
348.4386791190821
 30
0.0
 40
2.850490999999999
100
AcDbArc
 50
167.7603999999987
 51
192.2396000000012
1001
AUSTER_ANSICHT
1002
{
1000
V
1002
}
1001
AUSTER_FOLIE
1002
{
1000
VERDRAHTUNGSBAUSATZ_S3_S3_S2
1002
}
  0
ARC
  5
2972
330
720
100
AcDbEntity
  8
10000_FRONT
  6
Continuous
 62
     7
370
    13
100
AcDbCircle
 39
0.5
 10
366.3407415321934
 20
348.4386791190821
 30
0.0
 40
1.85
100
AcDbArc
 50
73.83654999999714
 51
106.1633999999999
1001
AUSTER_ANSICHT
1002
{
1000
V
1002
}
1001
AUSTER_FOLIE
1002
{
1000
VERDRAHTUNGSBAUSATZ_S3_S3_S2
1002
}
  0
ARC
  5
2973
330
720
100
AcDbEntity
  8
10000_FRONT
  6
Continuous
 62
     7
370
    13
100
AcDbCircle
 39
0.5
 10
366.3407415321934
 20
348.4386791190821
 30
0.0
 40
1.85
100
AcDbArc
 50
253.8366000000001
 51
286.1633999999999
1001
AUSTER_ANSICHT
1002
{
1000
V
1002
}
1001
AUSTER_FOLIE
1002
{
1000
VERDRAHTUNGSBAUSATZ_S3_S3_S2
1002
}
  0
ARC
  5
2974
330
720
100
AcDbEntity
  8
10000_FRONT
  6
Continuous
 62
     7
370
    13
100
AcDbCircle
 39
0.5
 10
366.3407415321934
 20
348.4386791190821
 30
0.0
 40
2.850490999999999
100
AcDbArc
 50
347.7603999999987
 51
12.23960000000125
1001
AUSTER_ANSICHT
1002
{
1000
V
1002
}
1001
AUSTER_FOLIE
1002
{
1000
VERDRAHTUNGSBAUSATZ_S3_S3_S2
1002
}
  0
CIRCLE
  5
2975
330
720
100
AcDbEntity
  8
10000_FRONT
  6
Continuous
 62
     7
370
    13
100
AcDbCircle
 39
0.5
 10
366.3407415321934
 20
348.4386791190821
 30
0.0
 40
3.379783
1001
AUSTER_ANSICHT
1002
{
1000
V
1002
}
1001
AUSTER_FOLIE
1002
{
1000
VERDRAHTUNGSBAUSATZ_S3_S3_S2
1002
}
  0
ARC
  5
2976
330
720
100
AcDbEntity
  8
10000_FRONT
  6
Continuous
 62
     7
370
    13
100
AcDbCircle
 39
0.5
 10
377.8407415321933
 20
348.4386791190821
 30
0.0
 40
2.850490999999999
100
AcDbArc
 50
167.7603999999987
 51
192.2396000000012
1001
AUSTER_ANSICHT
1002
{
1000
V
1002
}
1001
AUSTER_FOLIE
1002
{
1000
VERDRAHTUNGSBAUSATZ_S3_S3_S2
1002
}
  0
ARC
  5
2977
330
720
100
AcDbEntity
  8
10000_FRONT
  6
Continuous
 62
     7
370
    13
100
AcDbCircle
 39
0.5
 10
377.8407415321933
 20
348.4386791190821
 30
0.0
 40
1.85
100
AcDbArc
 50
73.83654999999714
 51
106.1633999999999
1001
AUSTER_ANSICHT
1002
{
1000
V
1002
}
1001
AUSTER_FOLIE
1002
{
1000
VERDRAHTUNGSBAUSATZ_S3_S3_S2
1002
}
  0
ARC
  5
2978
330
720
100
AcDbEntity
  8
10000_FRONT
  6
Continuous
 62
     7
370
    13
100
AcDbCircle
 39
0.5
 10
377.8407415321933
 20
348.4386791190821
 30
0.0
 40
1.85
100
AcDbArc
 50
253.8366000000001
 51
286.1633999999999
1001
AUSTER_ANSICHT
1002
{
1000
V
1002
}
1001
AUSTER_FOLIE
1002
{
1000
VERDRAHTUNGSBAUSATZ_S3_S3_S2
1002
}
  0
ARC
  5
2979
330
720
100
AcDbEntity
  8
10000_FRONT
  6
Continuous
 62
     7
370
    13
100
AcDbCircle
 39
0.5
 10
377.8407415321933
 20
348.4386791190821
 30
0.0
 40
2.850490999999999
100
AcDbArc
 50
347.7603999999987
 51
12.23960000000125
1001
AUSTER_ANSICHT
1002
{
1000
V
1002
}
1001
AUSTER_FOLIE
1002
{
1000
VERDRAHTUNGSBAUSATZ_S3_S3_S2
1002
}
  0
CIRCLE
  5
297A
102
{ACAD_REACTORS
330
397E
102
}
330
720
100
AcDbEntity
  8
10000_FRONT
  6
Continuous
 62
     7
370
    13
100
AcDbCircle
 39
0.5
 10
377.8407415321933
 20
348.4386791190821
 30
0.0
 40
3.379783
1001
AUSTER_ANSICHT
1002
{
1000
V
1002
}
1001
AUSTER_FOLIE
1002
{
1000
VERDRAHTUNGSBAUSATZ_S3_S3_S2
1002
}
  0
ARC
  5
297B
330
720
100
AcDbEntity
  8
10000_FRONT
  6
Continuous
 62
     7
370
    13
100
AcDbCircle
 39
0.5
 10
354.8407415321934
 20
373.4386791190821
 30
0.0
 40
2.850490999999999
100
AcDbArc
 50
167.7603999999987
 51
192.2396000000012
1001
AUSTER_ANSICHT
1002
{
1000
V
1002
}
1001
AUSTER_FOLIE
1002
{
1000
VERDRAHTUNGSBAUSATZ_S3_S3_S2
1002
}
  0
ARC
  5
297C
330
720
100
AcDbEntity
  8
10000_FRONT
  6
Continuous
 62
     7
370
    13
100
AcDbCircle
 39
0.5
 10
354.8407415321934
 20
373.4386791190821
 30
0.0
 40
1.85
100
AcDbArc
 50
253.8366000000001
 51
286.1633999999999
1001
AUSTER_ANSICHT
1002
{
1000
V
1002
}
1001
AUSTER_FOLIE
1002
{
1000
VERDRAHTUNGSBAUSATZ_S3_S3_S2
1002
}
  0
ARC
  5
297D
330
720
100
AcDbEntity
  8
10000_FRONT
  6
Continuous
 62
     7
370
    13
100
AcDbCircle
 39
0.5
 10
354.8407415321934
 20
373.4386791190821
 30
0.0
 40
1.85
100
AcDbArc
 50
73.83654999999714
 51
106.1633999999999
1001
AUSTER_ANSICHT
1002
{
1000
V
1002
}
1001
AUSTER_FOLIE
1002
{
1000
VERDRAHTUNGSBAUSATZ_S3_S3_S2
1002
}
  0
ARC
  5
297E
330
720
100
AcDbEntity
  8
10000_FRONT
  6
Continuous
 62
     7
370
    13
100
AcDbCircle
 39
0.5
 10
354.8407415321934
 20
373.4386791190821
 30
0.0
 40
2.850490999999999
100
AcDbArc
 50
347.7603999999987
 51
12.23960000000125
1001
AUSTER_ANSICHT
1002
{
1000
V
1002
}
1001
AUSTER_FOLIE
1002
{
1000
VERDRAHTUNGSBAUSATZ_S3_S3_S2
1002
}
  0
CIRCLE
  5
297F
330
720
100
AcDbEntity
  8
10000_FRONT
  6
Continuous
 62
     7
370
    13
100
AcDbCircle
 39
0.5
 10
354.8407415321934
 20
373.4386791190821
 30
0.0
 40
3.379783
1001
AUSTER_ANSICHT
1002
{
1000
V
1002
}
1001
AUSTER_FOLIE
1002
{
1000
VERDRAHTUNGSBAUSATZ_S3_S3_S2
1002
}
  0
ARC
  5
2980
330
720
100
AcDbEntity
  8
10000_FRONT
  6
Continuous
 62
     7
370
    13
100
AcDbCircle
 39
0.5
 10
366.3407415321934
 20
373.4386791190821
 30
0.0
 40
2.850490999999999
100
AcDbArc
 50
167.7603999999987
 51
192.2396000000012
1001
AUSTER_ANSICHT
1002
{
1000
V
1002
}
1001
AUSTER_FOLIE
1002
{
1000
VERDRAHTUNGSBAUSATZ_S3_S3_S2
1002
}
  0
ARC
  5
2981
330
720
100
AcDbEntity
  8
10000_FRONT
  6
Continuous
 62
     7
370
    13
100
AcDbCircle
 39
0.5
 10
366.3407415321934
 20
373.4386791190821
 30
0.0
 40
1.85
100
AcDbArc
 50
253.8366000000001
 51
286.1633999999999
1001
AUSTER_ANSICHT
1002
{
1000
V
1002
}
1001
AUSTER_FOLIE
1002
{
1000
VERDRAHTUNGSBAUSATZ_S3_S3_S2
1002
}
  0
ARC
  5
2982
330
720
100
AcDbEntity
  8
10000_FRONT
  6
Continuous
 62
     7
370
    13
100
AcDbCircle
 39
0.5
 10
366.3407415321934
 20
373.4386791190821
 30
0.0
 40
1.85
100
AcDbArc
 50
73.83654999999714
 51
106.1633999999999
1001
AUSTER_ANSICHT
1002
{
1000
V
1002
}
1001
AUSTER_FOLIE
1002
{
1000
VERDRAHTUNGSBAUSATZ_S3_S3_S2
1002
}
  0
ARC
  5
2983
330
720
100
AcDbEntity
  8
10000_FRONT
  6
Continuous
 62
     7
370
    13
100
AcDbCircle
 39
0.5
 10
366.3407415321934
 20
373.4386791190821
 30
0.0
 40
2.850490999999999
100
AcDbArc
 50
347.7603999999987
 51
12.23960000000125
1001
AUSTER_ANSICHT
1002
{
1000
V
1002
}
1001
AUSTER_FOLIE
1002
{
1000
VERDRAHTUNGSBAUSATZ_S3_S3_S2
1002
}
  0
CIRCLE
  5
2984
330
720
100
AcDbEntity
  8
10000_FRONT
  6
Continuous
 62
     7
370
    13
100
AcDbCircle
 39
0.5
 10
366.3407415321934
 20
373.4386791190821
 30
0.0
 40
3.379783
1001
AUSTER_ANSICHT
1002
{
1000
V
1002
}
1001
AUSTER_FOLIE
1002
{
1000
VERDRAHTUNGSBAUSATZ_S3_S3_S2
1002
}
  0
CIRCLE
  5
2985
330
720
100
AcDbEntity
  8
10000_FRONT
  6
Continuous
 62
     7
370
    13
100
AcDbCircle
 39
0.5
 10
376.5407415321933
 20
359.2386791190818
 30
0.0
 40
1.855609999999999
1001
AUSTER_ANSICHT
1002
{
1000
V
1002
}
1001
AUSTER_FOLIE
1002
{
1000
VERDRAHTUNGSBAUSATZ_S3_S3_S2
1002
}
  0
LINE
  5
2986
330
720
100
AcDbEntity
  8
10000_FRONT
  6
Continuous
 62
     7
370
    40
100
AcDbLine
 39
0.5
 10
382.7407415321934
 20
380.1386791190819
 30
0.0
 11
382.7407415321934
 21
341.7386791190818
 31
0.0
1001
AUSTER_ANSICHT
1002
{
1000
V
1002
}
1001
AUSTER_FOLIE
1002
{
1000
VERDRAHTUNGSBAUSATZ_S3_S3_S2
1002
}
  0
LINE
  5
2987
330
720
100
AcDbEntity
  8
10000_FRONT
  6
Continuous
 62
     7
370
    13
100
AcDbLine
 39
0.5
 10
372.8947415321934
 20
363.6752791190819
 30
0.0
 11
372.8947415321934
 21
357.3020791190818
 31
0.0
1001
AUSTER_ANSICHT
1002
{
1000
V
1002
}
1001
AUSTER_FOLIE
1002
{
1000
VERDRAHTUNGSBAUSATZ_S3_S3_S2
1002
}
  0
LINE
  5
2988
330
720
100
AcDbEntity
  8
10000_FRONT
  6
Continuous
 62
     7
370
    40
100
AcDbLine
 39
0.5
 10
349.9407415321934
 20
380.1386791190819
 30
0.0
 11
349.9407415321934
 21
341.7386791190818
 31
0.0
1001
AUSTER_ANSICHT
1002
{
1000
V
1002
}
1001
AUSTER_FOLIE
1002
{
1000
VERDRAHTUNGSBAUSATZ_S3_S3_S2
1002
}
  0
LINE
  5
2989
330
720
100
AcDbEntity
  8
10000_FRONT
  6
Continuous
 62
     7
370
    13
100
AcDbLine
 39
0.5
 10
350.8541315321934
 20
357.3020791190818
 30
0.0
 11
350.8541315321934
 21
364.5752791190819
 31
0.0
1001
AUSTER_ANSICHT
1002
{
1000
V
1002
}
1001
AUSTER_FOLIE
1002
{
1000
VERDRAHTUNGSBAUSATZ_S3_S3_S2
1002
}
  0
LINE
  5
298B
330
720
100
AcDbEntity
  8
10000_FRONT
  6
Continuous
 62
     7
370
    40
100
AcDbLine
 39
0.5
 10
350.9407415321935
 20
340.7386791190818
 30
0.0
 11
381.7407415321934
 21
340.7386791190818
 31
0.0
1001
AUSTER_ANSICHT
1002
{
1000
V
1002
}
1001
AUSTER_FOLIE
1002
{
1000
VERDRAHTUNGSBAUSATZ_S3_S3_S2
1002
}
  0
LINE
  5
298C
330
720
100
AcDbEntity
  8
10000_FRONT
  6
Continuous
 62
     7
370
    13
100
AcDbLine
 39
0.5
 10
372.8947415321934
 20
357.3020791190818
 30
0.0
 11
350.8541315321934
 21
357.3020791190818
 31
0.0
1001
AUSTER_ANSICHT
1002
{
1000
V
1002
}
1001
AUSTER_FOLIE
1002
{
1000
VERDRAHTUNGSBAUSATZ_S3_S3_S2
1002
}
  0
LINE
  5
298D
330
720
100
AcDbEntity
  8
10000_FRONT
  6
Continuous
 62
     7
370
    13
100
AcDbLine
 39
0.5
 10
350.9407415321935
 20
340.7386791190818
 30
0.0
 11
350.9407415321935
 21
337.9386791190821
 31
0.0
1001
AUSTER_ANSICHT
1002
{
1000
V
1002
}
1001
AUSTER_FOLIE
1002
{
1000
VERDRAHTUNGSBAUSATZ_S3_S3_S2
1002
}
  0
LINE
  5
298E
102
{ACAD_REACTORS
330
39C6
102
}
330
720
100
AcDbEntity
  8
10000_FRONT
  6
Continuous
 62
     7
370
    13
100
AcDbLine
 39
0.5
 10
349.9407415321934
 20
338.3386791190822
 30
0.0
 11
349.9407415321934
 21
341.7386791190818
 31
0.0
1001
AUSTER_ANSICHT
1002
{
1000
V
1002
}
1001
AUSTER_FOLIE
1002
{
1000
VERDRAHTUNGSBAUSATZ_S3_S3_S2
1002
}
  0
LINE
  5
298F
330
720
100
AcDbEntity
  8
10000_FRONT
  6
Continuous
 62
     7
370
    13
100
AcDbLine
 39
0.5
 10
350.9407415321935
 20
337.9386791190821
 30
0.0
 11
350.3407415321934
 21
337.9386791190821
 31
0.0
1001
AUSTER_ANSICHT
1002
{
1000
V
1002
}
1001
AUSTER_FOLIE
1002
{
1000
VERDRAHTUNGSBAUSATZ_S3_S3_S2
1002
}
  0
LINE
  5
2990
330
720
100
AcDbEntity
  8
10000_FRONT
  6
Continuous
 62
     7
370
    13
100
AcDbLine
 39
0.5
 10
352.0550415321934
 20
347.8343791190821
 30
0.0
 11
354.3257415321934
 21
347.8343791190821
 31
0.0
1001
AUSTER_ANSICHT
1002
{
1000
V
1002
}
1001
AUSTER_FOLIE
1002
{
1000
VERDRAHTUNGSBAUSATZ_S3_S3_S2
1002
}
  0
LINE
  5
2991
330
720
100
AcDbEntity
  8
10000_FRONT
  6
Continuous
 62
     7
370
    13
100
AcDbLine
 39
0.5
 10
355.3557415321934
 20
347.8343791190821
 30
0.0
 11
357.6264315321934
 21
347.8343791190821
 31
0.0
1001
AUSTER_ANSICHT
1002
{
1000
V
1002
}
1001
AUSTER_FOLIE
1002
{
1000
VERDRAHTUNGSBAUSATZ_S3_S3_S2
1002
}
  0
LINE
  5
2992
330
720
100
AcDbEntity
  8
10000_FRONT
  6
Continuous
 62
     7
370
    13
100
AcDbLine
 39
0.5
 10
357.6264315321934
 20
349.0429791190821
 30
0.0
 11
355.3557415321934
 21
349.0429791190821
 31
0.0
1001
AUSTER_ANSICHT
1002
{
1000
V
1002
}
1001
AUSTER_FOLIE
1002
{
1000
VERDRAHTUNGSBAUSATZ_S3_S3_S2
1002
}
  0
LINE
  5
2993
330
720
100
AcDbEntity
  8
10000_FRONT
  6
Continuous
 62
     7
370
    13
100
AcDbLine
 39
0.5
 10
354.3257415321934
 20
349.0429791190821
 30
0.0
 11
352.0550415321934
 21
349.0429791190821
 31
0.0
1001
AUSTER_ANSICHT
1002
{
1000
V
1002
}
1001
AUSTER_FOLIE
1002
{
1000
VERDRAHTUNGSBAUSATZ_S3_S3_S2
1002
}
  0
LINE
  5
2994
330
720
100
AcDbEntity
  8
10000_FRONT
  6
Continuous
 62
     7
370
    13
100
AcDbLine
 39
0.5
 10
354.3257415321934
 20
350.215579119082
 30
0.0
 11
354.3257415321934
 21
349.2232791190821
 31
0.0
1001
AUSTER_ANSICHT
1002
{
1000
V
1002
}
1001
AUSTER_FOLIE
1002
{
1000
VERDRAHTUNGSBAUSATZ_S3_S3_S2
1002
}
  0
LINE
  5
2995
330
720
100
AcDbEntity
  8
10000_FRONT
  6
Continuous
 62
     7
370
    13
100
AcDbLine
 39
0.5
 10
355.3557415321934
 20
349.2232791190821
 30
0.0
 11
355.3557415321934
 21
350.215579119082
 31
0.0
1001
AUSTER_ANSICHT
1002
{
1000
V
1002
}
1001
AUSTER_FOLIE
1002
{
1000
VERDRAHTUNGSBAUSATZ_S3_S3_S2
1002
}
  0
LINE
  5
2996
330
720
100
AcDbEntity
  8
10000_FRONT
  6
Continuous
 62
     7
370
    13
100
AcDbLine
 39
0.5
 10
355.3557415321934
 20
346.6617791190818
 30
0.0
 11
355.3557415321934
 21
347.6540791190822
 31
0.0
1001
AUSTER_ANSICHT
1002
{
1000
V
1002
}
1001
AUSTER_FOLIE
1002
{
1000
VERDRAHTUNGSBAUSATZ_S3_S3_S2
1002
}
  0
LINE
  5
2997
330
720
100
AcDbEntity
  8
10000_FRONT
  6
Continuous
 62
     7
370
    13
100
AcDbLine
 39
0.5
 10
354.3257415321934
 20
347.6540791190822
 30
0.0
 11
354.3257415321934
 21
346.6617791190818
 31
0.0
1001
AUSTER_ANSICHT
1002
{
1000
V
1002
}
1001
AUSTER_FOLIE
1002
{
1000
VERDRAHTUNGSBAUSATZ_S3_S3_S2
1002
}
  0
LINE
  5
2998
330
720
100
AcDbEntity
  8
10000_FRONT
  6
Continuous
 62
     7
370
    13
100
AcDbLine
 39
0.5
 10
355.3557315321934
 20
349.2232791190821
 30
0.0
 11
355.3557415321934
 21
349.0429791190821
 31
0.0
1001
AUSTER_ANSICHT
1002
{
1000
V
1002
}
1001
AUSTER_FOLIE
1002
{
1000
VERDRAHTUNGSBAUSATZ_S3_S3_S2
1002
}
  0
LINE
  5
2999
330
720
100
AcDbEntity
  8
10000_FRONT
  6
Continuous
 62
     7
370
    13
100
AcDbLine
 39
0.5
 10
355.3557315321934
 20
347.6540791190822
 30
0.0
 11
355.3557415321934
 21
347.8343791190821
 31
0.0
1001
AUSTER_ANSICHT
1002
{
1000
V
1002
}
1001
AUSTER_FOLIE
1002
{
1000
VERDRAHTUNGSBAUSATZ_S3_S3_S2
1002
}
  0
LINE
  5
299A
330
720
100
AcDbEntity
  8
10000_FRONT
  6
Continuous
 62
     7
370
    13
100
AcDbLine
 39
0.5
 10
354.3257415321934
 20
349.2232791190821
 30
0.0
 11
354.3257415321934
 21
349.0429791190821
 31
0.0
1001
AUSTER_ANSICHT
1002
{
1000
V
1002
}
1001
AUSTER_FOLIE
1002
{
1000
VERDRAHTUNGSBAUSATZ_S3_S3_S2
1002
}
  0
LINE
  5
299B
330
720
100
AcDbEntity
  8
10000_FRONT
  6
Continuous
 62
     7
370
    13
100
AcDbLine
 39
0.5
 10
354.3257415321934
 20
347.6540791190822
 30
0.0
 11
354.3257415321934
 21
347.8343791190821
 31
0.0
1001
AUSTER_ANSICHT
1002
{
1000
V
1002
}
1001
AUSTER_FOLIE
1002
{
1000
VERDRAHTUNGSBAUSATZ_S3_S3_S2
1002
}
  0
LINE
  5
299C
102
{ACAD_REACTORS
330
39C6
102
}
330
720
100
AcDbEntity
  8
10000_FRONT
  6
Continuous
 62
     7
370
    13
100
AcDbLine
 39
0.5
 10
382.7407415321934
 20
341.7386791190818
 30
0.0
 11
382.7407415321934
 21
338.3386791190822
 31
0.0
1001
AUSTER_ANSICHT
1002
{
1000
V
1002
}
1001
AUSTER_FOLIE
1002
{
1000
VERDRAHTUNGSBAUSATZ_S3_S3_S2
1002
}
  0
LINE
  5
299D
330
720
100
AcDbEntity
  8
10000_FRONT
  6
Continuous
 62
     7
370
    13
100
AcDbLine
 39
0.5
 10
381.7407415321934
 20
337.9386791190821
 30
0.0
 11
381.7407415321934
 21
340.7386791190818
 31
0.0
1001
AUSTER_ANSICHT
1002
{
1000
V
1002
}
1001
AUSTER_FOLIE
1002
{
1000
VERDRAHTUNGSBAUSATZ_S3_S3_S2
1002
}
  0
LINE
  5
299F
102
{ACAD_REACTORS
330
3998
102
}
330
720
100
AcDbEntity
  8
10000_FRONT
  6
Continuous
 62
     7
370
    13
100
AcDbLine
 39
0.5
 10
382.3407415321934
 20
337.9386791190821
 30
0.0
 11
381.7407415321934
 21
337.9386791190821
 31
0.0
1001
AUSTER_ANSICHT
1002
{
1000
V
1002
}
1001
AUSTER_FOLIE
1002
{
1000
VERDRAHTUNGSBAUSATZ_S3_S3_S2
1002
}
  0
LINE
  5
29A1
330
720
100
AcDbEntity
  8
10000_FRONT
  6
Continuous
 62
     7
370
    13
100
AcDbLine
 39
0.5
 10
375.0550415321934
 20
347.8343791190821
 30
0.0
 11
377.3257415321934
 21
347.8343791190821
 31
0.0
1001
AUSTER_ANSICHT
1002
{
1000
V
1002
}
1001
AUSTER_FOLIE
1002
{
1000
VERDRAHTUNGSBAUSATZ_S3_S3_S2
1002
}
  0
LINE
  5
29A2
330
720
100
AcDbEntity
  8
10000_FRONT
  6
Continuous
 62
     7
370
    13
100
AcDbLine
 39
0.5
 10
377.3257415321934
 20
349.0429791190821
 30
0.0
 11
375.0550415321934
 21
349.0429791190821
 31
0.0
1001
AUSTER_ANSICHT
1002
{
1000
V
1002
}
1001
AUSTER_FOLIE
1002
{
1000
VERDRAHTUNGSBAUSATZ_S3_S3_S2
1002
}
  0
LINE
  5
29A3
330
720
100
AcDbEntity
  8
10000_FRONT
  6
Continuous
 62
     7
370
    13
100
AcDbLine
 39
0.5
 10
378.3737715321934
 20
358.9886791190818
 30
0.0
 11
374.7077115321933
 21
358.9886791190818
 31
0.0
1001
AUSTER_ANSICHT
1002
{
1000
V
1002
}
1001
AUSTER_FOLIE
1002
{
1000
VERDRAHTUNGSBAUSATZ_S3_S3_S2
1002
}
  0
LINE
  5
29A4
330
720
100
AcDbEntity
  8
10000_FRONT
  6
Continuous
 62
     7
370
    13
100
AcDbLine
 39
0.5
 10
374.7077115321933
 20
359.4886791190818
 30
0.0
 11
378.3737715321934
 21
359.4886791190818
 31
0.0
1001
AUSTER_ANSICHT
1002
{
1000
V
1002
}
1001
AUSTER_FOLIE
1002
{
1000
VERDRAHTUNGSBAUSATZ_S3_S3_S2
1002
}
  0
LINE
  5
29A5
330
720
100
AcDbEntity
  8
10000_FRONT
  6
Continuous
 62
     7
370
    13
100
AcDbLine
 39
0.5
 10
363.5550415321934
 20
347.8343791190821
 30
0.0
 11
365.8257415321934
 21
347.8343791190821
 31
0.0
1001
AUSTER_ANSICHT
1002
{
1000
V
1002
}
1001
AUSTER_FOLIE
1002
{
1000
VERDRAHTUNGSBAUSATZ_S3_S3_S2
1002
}
  0
LINE
  5
29A6
330
720
100
AcDbEntity
  8
10000_FRONT
  6
Continuous
 62
     7
370
    13
100
AcDbLine
 39
0.5
 10
366.8557415321934
 20
347.8343791190821
 30
0.0
 11
369.1264315321934
 21
347.8343791190821
 31
0.0
1001
AUSTER_ANSICHT
1002
{
1000
V
1002
}
1001
AUSTER_FOLIE
1002
{
1000
VERDRAHTUNGSBAUSATZ_S3_S3_S2
1002
}
  0
LINE
  5
29A7
330
720
100
AcDbEntity
  8
10000_FRONT
  6
Continuous
 62
     7
370
    13
100
AcDbLine
 39
0.5
 10
369.1264315321934
 20
349.0429791190821
 30
0.0
 11
366.8557415321934
 21
349.0429791190821
 31
0.0
1001
AUSTER_ANSICHT
1002
{
1000
V
1002
}
1001
AUSTER_FOLIE
1002
{
1000
VERDRAHTUNGSBAUSATZ_S3_S3_S2
1002
}
  0
LINE
  5
29A8
330
720
100
AcDbEntity
  8
10000_FRONT
  6
Continuous
 62
     7
370
    13
100
AcDbLine
 39
0.5
 10
365.8257415321934
 20
349.0429791190821
 30
0.0
 11
363.5550415321934
 21
349.0429791190821
 31
0.0
1001
AUSTER_ANSICHT
1002
{
1000
V
1002
}
1001
AUSTER_FOLIE
1002
{
1000
VERDRAHTUNGSBAUSATZ_S3_S3_S2
1002
}
  0
LINE
  5
29A9
330
720
100
AcDbEntity
  8
10000_FRONT
  6
Continuous
 62
     7
370
    13
100
AcDbLine
 39
0.5
 10
365.8257415321934
 20
350.215579119082
 30
0.0
 11
365.8257415321934
 21
349.2232791190821
 31
0.0
1001
AUSTER_ANSICHT
1002
{
1000
V
1002
}
1001
AUSTER_FOLIE
1002
{
1000
VERDRAHTUNGSBAUSATZ_S3_S3_S2
1002
}
  0
LINE
  5
29AA
330
720
100
AcDbEntity
  8
10000_FRONT
  6
Continuous
 62
     7
370
    13
100
AcDbLine
 39
0.5
 10
366.8557415321934
 20
349.2232791190821
 30
0.0
 11
366.8557415321934
 21
350.215579119082
 31
0.0
1001
AUSTER_ANSICHT
1002
{
1000
V
1002
}
1001
AUSTER_FOLIE
1002
{
1000
VERDRAHTUNGSBAUSATZ_S3_S3_S2
1002
}
  0
LINE
  5
29AB
330
720
100
AcDbEntity
  8
10000_FRONT
  6
Continuous
 62
     7
370
    13
100
AcDbLine
 39
0.5
 10
366.8557415321934
 20
346.6617791190818
 30
0.0
 11
366.8557415321934
 21
347.6540791190822
 31
0.0
1001
AUSTER_ANSICHT
1002
{
1000
V
1002
}
1001
AUSTER_FOLIE
1002
{
1000
VERDRAHTUNGSBAUSATZ_S3_S3_S2
1002
}
  0
LINE
  5
29AC
330
720
100
AcDbEntity
  8
10000_FRONT
  6
Continuous
 62
     7
370
    13
100
AcDbLine
 39
0.5
 10
365.8257415321934
 20
347.6540791190822
 30
0.0
 11
365.8257415321934
 21
346.6617791190818
 31
0.0
1001
AUSTER_ANSICHT
1002
{
1000
V
1002
}
1001
AUSTER_FOLIE
1002
{
1000
VERDRAHTUNGSBAUSATZ_S3_S3_S2
1002
}
  0
LINE
  5
29AD
330
720
100
AcDbEntity
  8
10000_FRONT
  6
Continuous
 62
     7
370
    13
100
AcDbLine
 39
0.5
 10
366.8557315321934
 20
349.2232791190821
 30
0.0
 11
366.8557415321934
 21
349.0429791190821
 31
0.0
1001
AUSTER_ANSICHT
1002
{
1000
V
1002
}
1001
AUSTER_FOLIE
1002
{
1000
VERDRAHTUNGSBAUSATZ_S3_S3_S2
1002
}
  0
LINE
  5
29AE
330
720
100
AcDbEntity
  8
10000_FRONT
  6
Continuous
 62
     7
370
    13
100
AcDbLine
 39
0.5
 10
366.8557315321934
 20
347.6540791190822
 30
0.0
 11
366.8557415321934
 21
347.8343791190821
 31
0.0
1001
AUSTER_ANSICHT
1002
{
1000
V
1002
}
1001
AUSTER_FOLIE
1002
{
1000
VERDRAHTUNGSBAUSATZ_S3_S3_S2
1002
}
  0
LINE
  5
29AF
330
720
100
AcDbEntity
  8
10000_FRONT
  6
Continuous
 62
     7
370
    13
100
AcDbLine
 39
0.5
 10
365.8257415321934
 20
349.2232791190821
 30
0.0
 11
365.8257415321934
 21
349.0429791190821
 31
0.0
1001
AUSTER_ANSICHT
1002
{
1000
V
1002
}
1001
AUSTER_FOLIE
1002
{
1000
VERDRAHTUNGSBAUSATZ_S3_S3_S2
1002
}
  0
LINE
  5
29B0
330
720
100
AcDbEntity
  8
10000_FRONT
  6
Continuous
 62
     7
370
    13
100
AcDbLine
 39
0.5
 10
365.8257415321934
 20
347.6540791190822
 30
0.0
 11
365.8257415321934
 21
347.8343791190821
 31
0.0
1001
AUSTER_ANSICHT
1002
{
1000
V
1002
}
1001
AUSTER_FOLIE
1002
{
1000
VERDRAHTUNGSBAUSATZ_S3_S3_S2
1002
}
  0
LINE
  5
29B2
330
720
100
AcDbEntity
  8
10000_FRONT
  6
Continuous
 62
     7
370
    13
100
AcDbLine
 39
0.5
 10
380.6264315321934
 20
349.0429791190821
 30
0.0
 11
378.3557415321934
 21
349.0429791190821
 31
0.0
1001
AUSTER_ANSICHT
1002
{
1000
V
1002
}
1001
AUSTER_FOLIE
1002
{
1000
VERDRAHTUNGSBAUSATZ_S3_S3_S2
1002
}
  0
LINE
  5
29B3
330
720
100
AcDbEntity
  8
10000_FRONT
  6
Continuous
 62
     7
370
    13
100
AcDbLine
 39
0.5
 10
378.3557415321934
 20
350.220079119082
 30
0.0
 11
378.3557415321934
 21
349.0429791190821
 31
0.0
1001
AUSTER_ANSICHT
1002
{
1000
V
1002
}
1001
AUSTER_FOLIE
1002
{
1000
VERDRAHTUNGSBAUSATZ_S3_S3_S2
1002
}
  0
LINE
  5
29B4
330
720
100
AcDbEntity
  8
10000_FRONT
  6
Continuous
 62
     7
370
    13
100
AcDbLine
 39
0.5
 10
378.3557415321934
 20
347.8343791190821
 30
0.0
 11
380.6264315321934
 21
347.8343791190821
 31
0.0
1001
AUSTER_ANSICHT
1002
{
1000
V
1002
}
1001
AUSTER_FOLIE
1002
{
1000
VERDRAHTUNGSBAUSATZ_S3_S3_S2
1002
}
  0
LINE
  5
29B5
330
720
100
AcDbEntity
  8
10000_FRONT
  6
Continuous
 62
     7
370
    13
100
AcDbLine
 39
0.5
 10
377.3257415321934
 20
350.215579119082
 30
0.0
 11
377.3257415321934
 21
349.2232791190821
 31
0.0
1001
AUSTER_ANSICHT
1002
{
1000
V
1002
}
1001
AUSTER_FOLIE
1002
{
1000
VERDRAHTUNGSBAUSATZ_S3_S3_S2
1002
}
  0
LINE
  5
29B6
330
720
100
AcDbEntity
  8
10000_FRONT
  6
Continuous
 62
     7
370
    13
100
AcDbLine
 39
0.5
 10
378.3557415321934
 20
346.6617791190818
 30
0.0
 11
378.3557415321934
 21
347.6540791190822
 31
0.0
1001
AUSTER_ANSICHT
1002
{
1000
V
1002
}
1001
AUSTER_FOLIE
1002
{
1000
VERDRAHTUNGSBAUSATZ_S3_S3_S2
1002
}
  0
LINE
  5
29B7
330
720
100
AcDbEntity
  8
10000_FRONT
  6
Continuous
 62
     7
370
    13
100
AcDbLine
 39
0.5
 10
377.3257415321934
 20
347.6540791190822
 30
0.0
 11
377.3257415321934
 21
346.6617791190818
 31
0.0
1001
AUSTER_ANSICHT
1002
{
1000
V
1002
}
1001
AUSTER_FOLIE
1002
{
1000
VERDRAHTUNGSBAUSATZ_S3_S3_S2
1002
}
  0
LINE
  5
29B8
330
720
100
AcDbEntity
  8
10000_FRONT
  6
Continuous
 62
     7
370
    13
100
AcDbLine
 39
0.5
 10
378.3557315321934
 20
347.6540791190822
 30
0.0
 11
378.3557415321934
 21
347.8343791190821
 31
0.0
1001
AUSTER_ANSICHT
1002
{
1000
V
1002
}
1001
AUSTER_FOLIE
1002
{
1000
VERDRAHTUNGSBAUSATZ_S3_S3_S2
1002
}
  0
LINE
  5
29B9
330
720
100
AcDbEntity
  8
10000_FRONT
  6
Continuous
 62
     7
370
    13
100
AcDbLine
 39
0.5
 10
377.3257415321934
 20
349.2232791190821
 30
0.0
 11
377.3257415321934
 21
349.0429791190821
 31
0.0
1001
AUSTER_ANSICHT
1002
{
1000
V
1002
}
1001
AUSTER_FOLIE
1002
{
1000
VERDRAHTUNGSBAUSATZ_S3_S3_S2
1002
}
  0
LINE
  5
29BA
330
720
100
AcDbEntity
  8
10000_FRONT
  6
Continuous
 62
     7
370
    13
100
AcDbLine
 39
0.5
 10
377.3257415321934
 20
347.6540791190822
 30
0.0
 11
377.3257415321934
 21
347.8343791190821
 31
0.0
1001
AUSTER_ANSICHT
1002
{
1000
V
1002
}
1001
AUSTER_FOLIE
1002
{
1000
VERDRAHTUNGSBAUSATZ_S3_S3_S2
1002
}
  0
LINE
  5
29BC
330
720
100
AcDbEntity
  8
10000_FRONT
  6
Continuous
 62
     7
370
    40
100
AcDbLine
 39
0.5
 10
350.9407415321935
 20
381.1386791190819
 30
0.0
 11
381.7407415321934
 21
381.1386791190819
 31
0.0
1001
AUSTER_ANSICHT
1002
{
1000
V
1002
}
1001
AUSTER_FOLIE
1002
{
1000
VERDRAHTUNGSBAUSATZ_S3_S3_S2
1002
}
  0
LINE
  5
29BD
330
720
100
AcDbEntity
  8
10000_FRONT
  6
Continuous
 62
     7
370
    13
100
AcDbLine
 39
0.5
 10
350.8541315321934
 20
364.5752791190819
 30
0.0
 11
371.3273415321934
 21
364.5752791190819
 31
0.0
1001
AUSTER_ANSICHT
1002
{
1000
V
1002
}
1001
AUSTER_FOLIE
1002
{
1000
VERDRAHTUNGSBAUSATZ_S3_S3_S2
1002
}
  0
LINE
  5
29BE
330
720
100
AcDbEntity
  8
10000_FRONT
  6
Continuous
 62
     7
370
    13
100
AcDbLine
 39
0.5
 10
352.0550415321934
 20
374.0429791190821
 30
0.0
 11
354.3257415321934
 21
374.0429791190821
 31
0.0
1001
AUSTER_ANSICHT
1002
{
1000
V
1002
}
1001
AUSTER_FOLIE
1002
{
1000
VERDRAHTUNGSBAUSATZ_S3_S3_S2
1002
}
  0
LINE
  5
29BF
330
720
100
AcDbEntity
  8
10000_FRONT
  6
Continuous
 62
     7
370
    13
100
AcDbLine
 39
0.5
 10
355.3557415321934
 20
374.0429791190821
 30
0.0
 11
357.6264315321934
 21
374.0429791190821
 31
0.0
1001
AUSTER_ANSICHT
1002
{
1000
V
1002
}
1001
AUSTER_FOLIE
1002
{
1000
VERDRAHTUNGSBAUSATZ_S3_S3_S2
1002
}
  0
LINE
  5
29C0
330
720
100
AcDbEntity
  8
10000_FRONT
  6
Continuous
 62
     7
370
    13
100
AcDbLine
 39
0.5
 10
357.6264315321934
 20
372.8343791190821
 30
0.0
 11
355.3557415321934
 21
372.8343791190821
 31
0.0
1001
AUSTER_ANSICHT
1002
{
1000
V
1002
}
1001
AUSTER_FOLIE
1002
{
1000
VERDRAHTUNGSBAUSATZ_S3_S3_S2
1002
}
  0
LINE
  5
29C1
330
720
100
AcDbEntity
  8
10000_FRONT
  6
Continuous
 62
     7
370
    13
100
AcDbLine
 39
0.5
 10
354.3257415321934
 20
372.8343791190821
 30
0.0
 11
352.0550415321934
 21
372.8343791190821
 31
0.0
1001
AUSTER_ANSICHT
1002
{
1000
V
1002
}
1001
AUSTER_FOLIE
1002
{
1000
VERDRAHTUNGSBAUSATZ_S3_S3_S2
1002
}
  0
LINE
  5
29C2
330
720
100
AcDbEntity
  8
10000_FRONT
  6
Continuous
 62
     7
370
    13
100
AcDbLine
 39
0.5
 10
354.3257415321934
 20
371.6617791190818
 30
0.0
 11
354.3257415321934
 21
372.6540791190822
 31
0.0
1001
AUSTER_ANSICHT
1002
{
1000
V
1002
}
1001
AUSTER_FOLIE
1002
{
1000
VERDRAHTUNGSBAUSATZ_S3_S3_S2
1002
}
  0
LINE
  5
29C3
330
720
100
AcDbEntity
  8
10000_FRONT
  6
Continuous
 62
     7
370
    13
100
AcDbLine
 39
0.5
 10
355.3557415321934
 20
372.6540791190822
 30
0.0
 11
355.3557415321934
 21
371.6617791190818
 31
0.0
1001
AUSTER_ANSICHT
1002
{
1000
V
1002
}
1001
AUSTER_FOLIE
1002
{
1000
VERDRAHTUNGSBAUSATZ_S3_S3_S2
1002
}
  0
LINE
  5
29C4
330
720
100
AcDbEntity
  8
10000_FRONT
  6
Continuous
 62
     7
370
    13
100
AcDbLine
 39
0.5
 10
355.3557415321934
 20
375.215579119082
 30
0.0
 11
355.3557415321934
 21
374.2232791190821
 31
0.0
1001
AUSTER_ANSICHT
1002
{
1000
V
1002
}
1001
AUSTER_FOLIE
1002
{
1000
VERDRAHTUNGSBAUSATZ_S3_S3_S2
1002
}
  0
LINE
  5
29C5
330
720
100
AcDbEntity
  8
10000_FRONT
  6
Continuous
 62
     7
370
    13
100
AcDbLine
 39
0.5
 10
354.3257415321934
 20
374.2232791190821
 30
0.0
 11
354.3257415321934
 21
375.215579119082
 31
0.0
1001
AUSTER_ANSICHT
1002
{
1000
V
1002
}
1001
AUSTER_FOLIE
1002
{
1000
VERDRAHTUNGSBAUSATZ_S3_S3_S2
1002
}
  0
LINE
  5
29C6
330
720
100
AcDbEntity
  8
10000_FRONT
  6
Continuous
 62
     7
370
    13
100
AcDbLine
 39
0.5
 10
355.3557315321934
 20
372.6540791190822
 30
0.0
 11
355.3557415321934
 21
372.8343791190821
 31
0.0
1001
AUSTER_ANSICHT
1002
{
1000
V
1002
}
1001
AUSTER_FOLIE
1002
{
1000
VERDRAHTUNGSBAUSATZ_S3_S3_S2
1002
}
  0
LINE
  5
29C7
330
720
100
AcDbEntity
  8
10000_FRONT
  6
Continuous
 62
     7
370
    13
100
AcDbLine
 39
0.5
 10
355.3557315321934
 20
374.2232791190821
 30
0.0
 11
355.3557415321934
 21
374.0429791190821
 31
0.0
1001
AUSTER_ANSICHT
1002
{
1000
V
1002
}
1001
AUSTER_FOLIE
1002
{
1000
VERDRAHTUNGSBAUSATZ_S3_S3_S2
1002
}
  0
LINE
  5
29C8
330
720
100
AcDbEntity
  8
10000_FRONT
  6
Continuous
 62
     7
370
    13
100
AcDbLine
 39
0.5
 10
354.3257415321934
 20
372.6540791190822
 30
0.0
 11
354.3257415321934
 21
372.8343791190821
 31
0.0
1001
AUSTER_ANSICHT
1002
{
1000
V
1002
}
1001
AUSTER_FOLIE
1002
{
1000
VERDRAHTUNGSBAUSATZ_S3_S3_S2
1002
}
  0
LINE
  5
29C9
330
720
100
AcDbEntity
  8
10000_FRONT
  6
Continuous
 62
     7
370
    13
100
AcDbLine
 39
0.5
 10
354.3257415321934
 20
374.2232791190821
 30
0.0
 11
354.3257415321934
 21
374.0429791190821
 31
0.0
1001
AUSTER_ANSICHT
1002
{
1000
V
1002
}
1001
AUSTER_FOLIE
1002
{
1000
VERDRAHTUNGSBAUSATZ_S3_S3_S2
1002
}
  0
LINE
  5
29CA
330
720
100
AcDbEntity
  8
10000_FRONT
  6
Continuous
 62
     7
370
    13
100
AcDbLine
 39
0.5
 10
350.9407415321935
 20
383.9386791190821
 30
0.0
 11
350.9407415321935
 21
381.1386791190819
 31
0.0
1001
AUSTER_ANSICHT
1002
{
1000
V
1002
}
1001
AUSTER_FOLIE
1002
{
1000
VERDRAHTUNGSBAUSATZ_S3_S3_S2
1002
}
  0
LINE
  5
29CB
330
720
100
AcDbEntity
  8
10000_FRONT
  6
Continuous
 62
     7
370
    13
100
AcDbLine
 39
0.5
 10
349.9407415321934
 20
380.1386791190819
 30
0.0
 11
349.9407415321934
 21
383.538679119082
 31
0.0
1001
AUSTER_ANSICHT
1002
{
1000
V
1002
}
1001
AUSTER_FOLIE
1002
{
1000
VERDRAHTUNGSBAUSATZ_S3_S3_S2
1002
}
  0
LINE
  5
29CC
330
720
100
AcDbEntity
  8
10000_FRONT
  6
Continuous
 62
     7
370
    13
100
AcDbLine
 39
0.5
 10
350.3407415321934
 20
383.9386791190821
 30
0.0
 11
350.9407415321935
 21
383.9386791190821
 31
0.0
1001
AUSTER_ANSICHT
1002
{
1000
V
1002
}
1001
AUSTER_FOLIE
1002
{
1000
VERDRAHTUNGSBAUSATZ_S3_S3_S2
1002
}
  0
LINE
  5
29CD
330
720
100
AcDbEntity
  8
10000_FRONT
  6
Continuous
 62
     7
370
    13
100
AcDbLine
 39
0.5
 10
375.0550415321934
 20
374.0429791190821
 30
0.0
 11
377.3257415321934
 21
374.0429791190821
 31
0.0
1001
AUSTER_ANSICHT
1002
{
1000
V
1002
}
1001
AUSTER_FOLIE
1002
{
1000
VERDRAHTUNGSBAUSATZ_S3_S3_S2
1002
}
  0
LINE
  5
29CE
330
720
100
AcDbEntity
  8
10000_FRONT
  6
Continuous
 62
     7
370
    13
100
AcDbLine
 39
0.5
 10
377.3257415321934
 20
372.8343791190821
 30
0.0
 11
375.0550415321934
 21
372.8343791190821
 31
0.0
1001
AUSTER_ANSICHT
1002
{
1000
V
1002
}
1001
AUSTER_FOLIE
1002
{
1000
VERDRAHTUNGSBAUSATZ_S3_S3_S2
1002
}
  0
LINE
  5
29CF
330
720
100
AcDbEntity
  8
10000_FRONT
  6
Continuous
 62
     7
370
    13
100
AcDbLine
 39
0.5
 10
362.8407415321934
 20
381.4587791190819
 30
0.0
 11
369.8407415321933
 21
381.4587791190819
 31
0.0
1001
AUSTER_ANSICHT
1002
{
1000
V
1002
}
1001
AUSTER_FOLIE
1002
{
1000
VERDRAHTUNGSBAUSATZ_S3_S3_S2
1002
}
  0
LINE
  5
29D0
330
720
100
AcDbEntity
  8
10000_FRONT
  6
Continuous
 62
     7
370
    13
100
AcDbLine
 39
0.5
 10
363.5550415321934
 20
374.0429791190821
 30
0.0
 11
365.8257415321934
 21
374.0429791190821
 31
0.0
1001
AUSTER_ANSICHT
1002
{
1000
V
1002
}
1001
AUSTER_FOLIE
1002
{
1000
VERDRAHTUNGSBAUSATZ_S3_S3_S2
1002
}
  0
LINE
  5
29D1
330
720
100
AcDbEntity
  8
10000_FRONT
  6
Continuous
 62
     7
370
    13
100
AcDbLine
 39
0.5
 10
366.8557415321934
 20
374.0429791190821
 30
0.0
 11
369.1264315321934
 21
374.0429791190821
 31
0.0
1001
AUSTER_ANSICHT
1002
{
1000
V
1002
}
1001
AUSTER_FOLIE
1002
{
1000
VERDRAHTUNGSBAUSATZ_S3_S3_S2
1002
}
  0
LINE
  5
29D2
330
720
100
AcDbEntity
  8
10000_FRONT
  6
Continuous
 62
     7
370
    13
100
AcDbLine
 39
0.5
 10
369.1264315321934
 20
372.8343791190821
 30
0.0
 11
366.8557415321934
 21
372.8343791190821
 31
0.0
1001
AUSTER_ANSICHT
1002
{
1000
V
1002
}
1001
AUSTER_FOLIE
1002
{
1000
VERDRAHTUNGSBAUSATZ_S3_S3_S2
1002
}
  0
LINE
  5
29D3
330
720
100
AcDbEntity
  8
10000_FRONT
  6
Continuous
 62
     7
370
    13
100
AcDbLine
 39
0.5
 10
365.8257415321934
 20
372.8343791190821
 30
0.0
 11
363.5550415321934
 21
372.8343791190821
 31
0.0
1001
AUSTER_ANSICHT
1002
{
1000
V
1002
}
1001
AUSTER_FOLIE
1002
{
1000
VERDRAHTUNGSBAUSATZ_S3_S3_S2
1002
}
  0
LINE
  5
29D4
330
720
100
AcDbEntity
  8
10000_FRONT
  6
Continuous
 62
     7
370
    13
100
AcDbLine
 39
0.5
 10
365.8257415321934
 20
371.6617791190818
 30
0.0
 11
365.8257415321934
 21
372.6540791190822
 31
0.0
1001
AUSTER_ANSICHT
1002
{
1000
V
1002
}
1001
AUSTER_FOLIE
1002
{
1000
VERDRAHTUNGSBAUSATZ_S3_S3_S2
1002
}
  0
LINE
  5
29D5
330
720
100
AcDbEntity
  8
10000_FRONT
  6
Continuous
 62
     7
370
    13
100
AcDbLine
 39
0.5
 10
366.8557415321934
 20
372.6540791190822
 30
0.0
 11
366.8557415321934
 21
371.6617791190818
 31
0.0
1001
AUSTER_ANSICHT
1002
{
1000
V
1002
}
1001
AUSTER_FOLIE
1002
{
1000
VERDRAHTUNGSBAUSATZ_S3_S3_S2
1002
}
  0
LINE
  5
29D6
330
720
100
AcDbEntity
  8
10000_FRONT
  6
Continuous
 62
     7
370
    13
100
AcDbLine
 39
0.5
 10
366.8557415321934
 20
375.215579119082
 30
0.0
 11
366.8557415321934
 21
374.2232791190821
 31
0.0
1001
AUSTER_ANSICHT
1002
{
1000
V
1002
}
1001
AUSTER_FOLIE
1002
{
1000
VERDRAHTUNGSBAUSATZ_S3_S3_S2
1002
}
  0
LINE
  5
29D7
330
720
100
AcDbEntity
  8
10000_FRONT
  6
Continuous
 62
     7
370
    13
100
AcDbLine
 39
0.5
 10
365.8257415321934
 20
374.2232791190821
 30
0.0
 11
365.8257415321934
 21
375.215579119082
 31
0.0
1001
AUSTER_ANSICHT
1002
{
1000
V
1002
}
1001
AUSTER_FOLIE
1002
{
1000
VERDRAHTUNGSBAUSATZ_S3_S3_S2
1002
}
  0
LINE
  5
29D8
330
720
100
AcDbEntity
  8
10000_FRONT
  6
Continuous
 62
     7
370
    13
100
AcDbLine
 39
0.5
 10
366.8557315321934
 20
372.6540791190822
 30
0.0
 11
366.8557415321934
 21
372.8343791190821
 31
0.0
1001
AUSTER_ANSICHT
1002
{
1000
V
1002
}
1001
AUSTER_FOLIE
1002
{
1000
VERDRAHTUNGSBAUSATZ_S3_S3_S2
1002
}
  0
LINE
  5
29D9
330
720
100
AcDbEntity
  8
10000_FRONT
  6
Continuous
 62
     7
370
    13
100
AcDbLine
 39
0.5
 10
366.8557315321934
 20
374.2232791190821
 30
0.0
 11
366.8557415321934
 21
374.0429791190821
 31
0.0
1001
AUSTER_ANSICHT
1002
{
1000
V
1002
}
1001
AUSTER_FOLIE
1002
{
1000
VERDRAHTUNGSBAUSATZ_S3_S3_S2
1002
}
  0
LINE
  5
29DA
330
720
100
AcDbEntity
  8
10000_FRONT
  6
Continuous
 62
     7
370
    13
100
AcDbLine
 39
0.5
 10
365.8257415321934
 20
372.6540791190822
 30
0.0
 11
365.8257415321934
 21
372.8343791190821
 31
0.0
1001
AUSTER_ANSICHT
1002
{
1000
V
1002
}
1001
AUSTER_FOLIE
1002
{
1000
VERDRAHTUNGSBAUSATZ_S3_S3_S2
1002
}
  0
LINE
  5
29DB
330
720
100
AcDbEntity
  8
10000_FRONT
  6
Continuous
 62
     7
370
    13
100
AcDbLine
 39
0.5
 10
365.8257415321934
 20
374.2232791190821
 30
0.0
 11
365.8257415321934
 21
374.0429791190821
 31
0.0
1001
AUSTER_ANSICHT
1002
{
1000
V
1002
}
1001
AUSTER_FOLIE
1002
{
1000
VERDRAHTUNGSBAUSATZ_S3_S3_S2
1002
}
  0
LINE
  5
29DC
330
720
100
AcDbEntity
  8
10000_FRONT
  6
Continuous
 62
     7
370
    13
100
AcDbLine
 39
0.5
 10
362.8407415321934
 20
381.1381791190823
 30
0.0
 11
362.8407415321934
 21
381.4587791190819
 31
0.0
1001
AUSTER_ANSICHT
1002
{
1000
V
1002
}
1001
AUSTER_FOLIE
1002
{
1000
VERDRAHTUNGSBAUSATZ_S3_S3_S2
1002
}
  0
LINE
  5
29DD
330
720
100
AcDbEntity
  8
10000_FRONT
  6
Continuous
 62
     7
370
    13
100
AcDbLine
 39
0.5
 10
369.8407415321933
 20
381.4587791190819
 30
0.0
 11
369.8407415321933
 21
381.1381791190823
 31
0.0
1001
AUSTER_ANSICHT
1002
{
1000
V
1002
}
1001
AUSTER_FOLIE
1002
{
1000
VERDRAHTUNGSBAUSATZ_S3_S3_S2
1002
}
  0
LINE
  5
29DE
330
720
100
AcDbEntity
  8
10000_FRONT
  6
Continuous
 62
     7
370
    13
100
AcDbLine
 39
0.5
 10
371.3273415321934
 20
364.5752791190819
 30
0.0
 11
371.3273415321934
 21
363.6752791190819
 31
0.0
1001
AUSTER_ANSICHT
1002
{
1000
V
1002
}
1001
AUSTER_FOLIE
1002
{
1000
VERDRAHTUNGSBAUSATZ_S3_S3_S2
1002
}
  0
LINE
  5
29DF
330
720
100
AcDbEntity
  8
10000_FRONT
  6
Continuous
 62
     7
370
    13
100
AcDbLine
 39
0.5
 10
371.3273415321934
 20
363.6752791190819
 30
0.0
 11
372.8947415321934
 21
363.6752791190819
 31
0.0
1001
AUSTER_ANSICHT
1002
{
1000
V
1002
}
1001
AUSTER_FOLIE
1002
{
1000
VERDRAHTUNGSBAUSATZ_S3_S3_S2
1002
}
  0
LINE
  5
29E0
330
720
100
AcDbEntity
  8
10000_FRONT
  6
Continuous
 62
     7
370
    13
100
AcDbLine
 39
0.5
 10
378.3557415321934
 20
374.0429791190821
 30
0.0
 11
380.6264315321934
 21
374.0429791190821
 31
0.0
1001
AUSTER_ANSICHT
1002
{
1000
V
1002
}
1001
AUSTER_FOLIE
1002
{
1000
VERDRAHTUNGSBAUSATZ_S3_S3_S2
1002
}
  0
LINE
  5
29E1
330
720
100
AcDbEntity
  8
10000_FRONT
  6
Continuous
 62
     7
370
    13
100
AcDbLine
 39
0.5
 10
380.6264315321934
 20
372.8343791190821
 30
0.0
 11
378.3557415321934
 21
372.8343791190821
 31
0.0
1001
AUSTER_ANSICHT
1002
{
1000
V
1002
}
1001
AUSTER_FOLIE
1002
{
1000
VERDRAHTUNGSBAUSATZ_S3_S3_S2
1002
}
  0
LINE
  5
29E2
330
720
100
AcDbEntity
  8
10000_FRONT
  6
Continuous
 62
     7
370
    13
100
AcDbLine
 39
0.5
 10
377.3257415321934
 20
371.6617791190818
 30
0.0
 11
377.3257415321934
 21
372.6540791190822
 31
0.0
1001
AUSTER_ANSICHT
1002
{
1000
V
1002
}
1001
AUSTER_FOLIE
1002
{
1000
VERDRAHTUNGSBAUSATZ_S3_S3_S2
1002
}
  0
LINE
  5
29E3
330
720
100
AcDbEntity
  8
10000_FRONT
  6
Continuous
 62
     7
370
    13
100
AcDbLine
 39
0.5
 10
378.3557415321934
 20
372.6540791190822
 30
0.0
 11
378.3557415321934
 21
371.6617791190818
 31
0.0
1001
AUSTER_ANSICHT
1002
{
1000
V
1002
}
1001
AUSTER_FOLIE
1002
{
1000
VERDRAHTUNGSBAUSATZ_S3_S3_S2
1002
}
  0
LINE
  5
29E4
330
720
100
AcDbEntity
  8
10000_FRONT
  6
Continuous
 62
     7
370
    13
100
AcDbLine
 39
0.5
 10
378.3557415321934
 20
375.215579119082
 30
0.0
 11
378.3557415321934
 21
374.2232791190821
 31
0.0
1001
AUSTER_ANSICHT
1002
{
1000
V
1002
}
1001
AUSTER_FOLIE
1002
{
1000
VERDRAHTUNGSBAUSATZ_S3_S3_S2
1002
}
  0
LINE
  5
29E5
330
720
100
AcDbEntity
  8
10000_FRONT
  6
Continuous
 62
     7
370
    13
100
AcDbLine
 39
0.5
 10
377.3257415321934
 20
374.2232791190821
 30
0.0
 11
377.3257415321934
 21
375.215579119082
 31
0.0
1001
AUSTER_ANSICHT
1002
{
1000
V
1002
}
1001
AUSTER_FOLIE
1002
{
1000
VERDRAHTUNGSBAUSATZ_S3_S3_S2
1002
}
  0
LINE
  5
29E6
330
720
100
AcDbEntity
  8
10000_FRONT
  6
Continuous
 62
     7
370
    13
100
AcDbLine
 39
0.5
 10
378.3557315321934
 20
372.6540791190822
 30
0.0
 11
378.3557415321934
 21
372.8343791190821
 31
0.0
1001
AUSTER_ANSICHT
1002
{
1000
V
1002
}
1001
AUSTER_FOLIE
1002
{
1000
VERDRAHTUNGSBAUSATZ_S3_S3_S2
1002
}
  0
LINE
  5
29E7
330
720
100
AcDbEntity
  8
10000_FRONT
  6
Continuous
 62
     7
370
    13
100
AcDbLine
 39
0.5
 10
378.3557315321934
 20
374.2232791190821
 30
0.0
 11
378.3557415321934
 21
374.0429791190821
 31
0.0
1001
AUSTER_ANSICHT
1002
{
1000
V
1002
}
1001
AUSTER_FOLIE
1002
{
1000
VERDRAHTUNGSBAUSATZ_S3_S3_S2
1002
}
  0
LINE
  5
29E8
330
720
100
AcDbEntity
  8
10000_FRONT
  6
Continuous
 62
     7
370
    13
100
AcDbLine
 39
0.5
 10
377.3257415321934
 20
372.6540791190822
 30
0.0
 11
377.3257415321934
 21
372.8343791190821
 31
0.0
1001
AUSTER_ANSICHT
1002
{
1000
V
1002
}
1001
AUSTER_FOLIE
1002
{
1000
VERDRAHTUNGSBAUSATZ_S3_S3_S2
1002
}
  0
LINE
  5
29E9
330
720
100
AcDbEntity
  8
10000_FRONT
  6
Continuous
 62
     7
370
    13
100
AcDbLine
 39
0.5
 10
377.3257415321934
 20
374.2232791190821
 30
0.0
 11
377.3257415321934
 21
374.0429791190821
 31
0.0
1001
AUSTER_ANSICHT
1002
{
1000
V
1002
}
1001
AUSTER_FOLIE
1002
{
1000
VERDRAHTUNGSBAUSATZ_S3_S3_S2
1002
}
  0
LINE
  5
29EA
330
720
100
AcDbEntity
  8
10000_FRONT
  6
Continuous
 62
     7
370
    13
100
AcDbLine
 39
0.5
 10
381.7407415321934
 20
381.1386791190819
 30
0.0
 11
381.7407415321934
 21
383.9386791190821
 31
0.0
1001
AUSTER_ANSICHT
1002
{
1000
V
1002
}
1001
AUSTER_FOLIE
1002
{
1000
VERDRAHTUNGSBAUSATZ_S3_S3_S2
1002
}
  0
LINE
  5
29EB
330
720
100
AcDbEntity
  8
10000_FRONT
  6
Continuous
 62
     7
370
    13
100
AcDbLine
 39
0.5
 10
382.7407415321934
 20
383.538679119082
 30
0.0
 11
382.7407415321934
 21
380.1386791190819
 31
0.0
1001
AUSTER_ANSICHT
1002
{
1000
V
1002
}
1001
AUSTER_FOLIE
1002
{
1000
VERDRAHTUNGSBAUSATZ_S3_S3_S2
1002
}
  0
LINE
  5
29EC
102
{ACAD_REACTORS
330
3998
102
}
330
720
100
AcDbEntity
  8
10000_FRONT
  6
Continuous
 62
     7
370
    13
100
AcDbLine
 39
0.5
 10
381.7407415321934
 20
383.9386791190821
 30
0.0
 11
382.3407415321934
 21
383.9386791190821
 31
0.0
1001
AUSTER_ANSICHT
1002
{
1000
V
1002
}
1001
AUSTER_FOLIE
1002
{
1000
VERDRAHTUNGSBAUSATZ_S3_S3_S2
1002
}
  0
ARC
  5
2FCF
330
720
100
AcDbEntity
  8
10000_FRONT
  6
SHORT_DASH
 62
     7
370
     9
100
AcDbCircle
 39
0.45
 10
367.8949015321934
 20
396.639279119082
 30
0.0
 40
0.3
100
AcDbArc
 50
90.0
 51
175.219899999999
1001
AUSTER_ANSICHT
1002
{
1000
Det03
1002
}
1001
AUSTER_FOLIE
1002
{
1000
NSB00753_S0
1002
}
  0
ARC
  5
2FD0
330
720
100
AcDbEntity
  8
10000_FRONT
  6
SHORT_DASH
 62
     7
370
     9
100
AcDbCircle
 39
0.45
 10
368.3402015321934
 20
396.639279119082
 30
0.0
 40
0.3
100
AcDbArc
 50
4.492580999999939
 51
90.0
1001
AUSTER_ANSICHT
1002
{
1000
Det03
1002
}
1001
AUSTER_FOLIE
1002
{
1000
NSB00753_S0
1002
}
  0
ARC
  5
2FD1
330
720
100
AcDbEntity
  8
10000_FRONT
  6
SHORT_DASH
 62
     7
370
     9
100
AcDbCircle
 39
0.45
 10
382.2863015321934
 20
396.639279119082
 30
0.0
 40
0.3
100
AcDbArc
 50
90.0
 51
173.7226999999973
1001
AUSTER_ANSICHT
1002
{
1000
Det03
1002
}
1001
AUSTER_FOLIE
1002
{
1000
NSB00753_S0
1002
}
  0
ARC
  5
2FD2
330
720
100
AcDbEntity
  8
10000_FRONT
  6
SHORT_DASH
 62
     7
370
     9
100
AcDbCircle
 39
0.45
 10
381.8678015321934
 20
328.9390691190819
 30
0.0
 40
1.499704
100
AcDbArc
 50
269.9886999999978
 51
0.0081000000019111
1001
AUSTER_ANSICHT
1002
{
1000
Det03
1002
}
1001
AUSTER_FOLIE
1002
{
1000
NSB00753_S0
1002
}
  0
ARC
  5
2FD3
330
720
100
AcDbEntity
  8
10000_FRONT
  6
SHORT_DASH
 62
     7
370
     9
100
AcDbCircle
 39
0.45
 10
367.8949015321934
 20
325.2392791190819
 30
0.0
 40
0.3
100
AcDbArc
 50
184.7801000000009
 51
270.0
1001
AUSTER_ANSICHT
1002
{
1000
Det03
1002
}
1001
AUSTER_FOLIE
1002
{
1000
NSB00753_S0
1002
}
  0
ARC
  5
2FD4
330
720
100
AcDbEntity
  8
10000_FRONT
  6
SHORT_DASH
 62
     7
370
     9
100
AcDbCircle
 39
0.45
 10
368.3402015321934
 20
325.2392791190819
 30
0.0
 40
0.3
100
AcDbArc
 50
270.0
 51
355.5073999999978
1001
AUSTER_ANSICHT
1002
{
1000
Det03
1002
}
1001
AUSTER_FOLIE
1002
{
1000
NSB00753_S0
1002
}
  0
ARC
  5
2FD5
330
720
100
AcDbEntity
  8
10000_FRONT
  6
SHORT_DASH
 62
     7
370
     9
100
AcDbCircle
 39
0.45
 10
353.9402015321934
 20
325.2392791190819
 30
0.0
 40
0.3
100
AcDbArc
 50
270.0
 51
355.219899999999
1001
AUSTER_ANSICHT
1002
{
1000
Det03
1002
}
1001
AUSTER_FOLIE
1002
{
1000
NSB00753_S0
1002
}
  0
ARC
  5
2FD6
330
720
100
AcDbEntity
  8
10000_FRONT
  6
SHORT_DASH
 62
     7
370
     9
100
AcDbCircle
 39
0.45
 10
353.4949015321934
 20
325.2392791190819
 30
0.0
 40
0.3
100
AcDbArc
 50
184.4926000000021
 51
270.0
1001
AUSTER_ANSICHT
1002
{
1000
Det03
1002
}
1001
AUSTER_FOLIE
1002
{
1000
NSB00753_S0
1002
}
  0
ARC
  5
2FD7
330
720
100
AcDbEntity
  8
10000_FRONT
  6
SHORT_DASH
 62
     7
370
     9
100
AcDbCircle
 39
0.45
 10
339.9672015321934
 20
328.9390691190819
 30
0.0
 40
1.499704
100
AcDbArc
 50
179.9918999999981
 51
270.0113000000022
1001
AUSTER_ANSICHT
1002
{
1000
Det03
1002
}
1001
AUSTER_FOLIE
1002
{
1000
NSB00753_S0
1002
}
  0
ARC
  5
2FD8
330
720
100
AcDbEntity
  8
10000_FRONT
  6
SHORT_DASH
 62
     7
370
     9
100
AcDbCircle
 39
0.45
 10
353.9402015321934
 20
396.639279119082
 30
0.0
 40
0.3
100
AcDbArc
 50
4.78008799999981
 51
90.0
1001
AUSTER_ANSICHT
1002
{
1000
Det03
1002
}
1001
AUSTER_FOLIE
1002
{
1000
NSB00753_S0
1002
}
  0
ARC
  5
2FD9
330
720
100
AcDbEntity
  8
10000_FRONT
  6
SHORT_DASH
 62
     7
370
     9
100
AcDbCircle
 39
0.45
 10
353.4949015321934
 20
396.639279119082
 30
0.0
 40
0.3
100
AcDbArc
 50
90.0
 51
175.5073999999978
1001
AUSTER_ANSICHT
1002
{
1000
Det03
1002
}
1001
AUSTER_FOLIE
1002
{
1000
NSB00753_S0
1002
}
  0
ARC
  5
2FDA
330
720
100
AcDbEntity
  8
10000_FRONT
  6
SHORT_DASH
 62
     7
370
     9
100
AcDbCircle
 39
0.45
 10
339.9672015321934
 20
392.9394891190819
 30
0.0
 40
1.499704
100
AcDbArc
 50
89.98866999999744
 51
180.0081000000019
1001
AUSTER_ANSICHT
1002
{
1000
Det03
1002
}
1001
AUSTER_FOLIE
1002
{
1000
NSB00753_S0
1002
}
  0
ARC
  5
2FDB
330
720
100
AcDbEntity
  8
10000_FRONT
  6
SHORT_DASH
 62
     7
370
     9
100
AcDbCircle
 39
0.45
 10
339.5487015321934
 20
396.639279119082
 30
0.0
 40
0.3
100
AcDbArc
 50
6.277298000000436
 51
90.0
1001
AUSTER_ANSICHT
1002
{
1000
Det03
1002
}
1001
AUSTER_FOLIE
1002
{
1000
NSB00753_S0
1002
}
  0
ARC
  5
2FDC
330
720
100
AcDbEntity
  8
10000_FRONT
  6
SHORT_DASH
 62
     7
370
     9
100
AcDbCircle
 39
0.45
 10
374.9203015321934
 20
326.6711791190819
 30
0.0
 40
3.1
100
AcDbArc
 50
165.6539000000024
 51
14.34590000000245
1001
AUSTER_ANSICHT
1002
{
1000
Det03
1002
}
1001
AUSTER_FOLIE
1002
{
1000
NSB00753_S0
1002
}
  0
ARC
  5
2FDD
330
720
100
AcDbEntity
  8
10000_FRONT
  6
SHORT_DASH
 62
     7
370
     9
100
AcDbCircle
 39
0.45
 10
374.9203015321934
 20
326.6711791190819
 30
0.0
 40
2.850490999999999
100
AcDbArc
 50
167.7603999999987
 51
192.2396000000012
1001
AUSTER_ANSICHT
1002
{
1000
Det03
1002
}
1001
AUSTER_FOLIE
1002
{
1000
NSB00753_S0
1002
}
  0
ARC
  5
2FDE
330
720
100
AcDbEntity
  8
10000_FRONT
  6
SHORT_DASH
 62
     7
370
     9
100
AcDbCircle
 39
0.45
 10
374.9203015321934
 20
326.6711791190819
 30
0.0
 40
1.85
100
AcDbArc
 50
253.8366000000001
 51
286.1633999999999
1001
AUSTER_ANSICHT
1002
{
1000
Det03
1002
}
1001
AUSTER_FOLIE
1002
{
1000
NSB00753_S0
1002
}
  0
ARC
  5
2FDF
330
720
100
AcDbEntity
  8
10000_FRONT
  6
SHORT_DASH
 62
     7
370
     9
100
AcDbCircle
 39
0.45
 10
374.9203015321934
 20
326.6711791190819
 30
0.0
 40
2.850490999999999
100
AcDbArc
 50
347.7603999999987
 51
12.23960000000125
1001
AUSTER_ANSICHT
1002
{
1000
Det03
1002
}
1001
AUSTER_FOLIE
1002
{
1000
NSB00753_S0
1002
}
  0
ARC
  5
2FE0
330
720
100
AcDbEntity
  8
10000_FRONT
  6
SHORT_DASH
 62
     7
370
     9
100
AcDbCircle
 39
0.45
 10
346.9203015321934
 20
326.6711791190819
 30
0.0
 40
3.1
100
AcDbArc
 50
165.6540999999975
 51
14.34609999999751
1001
AUSTER_ANSICHT
1002
{
1000
Det03
1002
}
1001
AUSTER_FOLIE
1002
{
1000
NSB00753_S0
1002
}
  0
ARC
  5
2FE1
330
720
100
AcDbEntity
  8
10000_FRONT
  6
SHORT_DASH
 62
     7
370
     9
100
AcDbCircle
 39
0.45
 10
346.9203015321934
 20
326.6711791190819
 30
0.0
 40
2.850490999999999
100
AcDbArc
 50
347.7603999999987
 51
12.23960000000125
1001
AUSTER_ANSICHT
1002
{
1000
Det03
1002
}
1001
AUSTER_FOLIE
1002
{
1000
NSB00753_S0
1002
}
  0
ARC
  5
2FE2
330
720
100
AcDbEntity
  8
10000_FRONT
  6
SHORT_DASH
 62
     7
370
     9
100
AcDbCircle
 39
0.45
 10
346.9203015321934
 20
326.6711791190819
 30
0.0
 40
1.85
100
AcDbArc
 50
253.8366000000001
 51
286.1633999999999
1001
AUSTER_ANSICHT
1002
{
1000
Det03
1002
}
1001
AUSTER_FOLIE
1002
{
1000
NSB00753_S0
1002
}
  0
ARC
  5
2FE3
330
720
100
AcDbEntity
  8
10000_FRONT
  6
SHORT_DASH
 62
     7
370
     9
100
AcDbCircle
 39
0.45
 10
346.9203015321934
 20
326.6711791190819
 30
0.0
 40
2.850490999999999
100
AcDbArc
 50
167.7603999999987
 51
192.2396000000012
1001
AUSTER_ANSICHT
1002
{
1000
Det03
1002
}
1001
AUSTER_FOLIE
1002
{
1000
NSB00753_S0
1002
}
  0
ARC
  5
2FE4
330
720
100
AcDbEntity
  8
10000_FRONT
  6
SHORT_DASH
 62
     7
370
     9
100
AcDbCircle
 39
0.45
 10
374.9203015321934
 20
395.207379119082
 30
0.0
 40
3.1
100
AcDbArc
 50
345.6540999999975
 51
194.3460999999975
1001
AUSTER_ANSICHT
1002
{
1000
Det03
1002
}
1001
AUSTER_FOLIE
1002
{
1000
NSB00753_S0
1002
}
  0
ARC
  5
2FE5
330
720
100
AcDbEntity
  8
10000_FRONT
  6
SHORT_DASH
 62
     7
370
     9
100
AcDbCircle
 39
0.45
 10
374.9203015321934
 20
395.207379119082
 30
0.0
 40
2.850490999999999
100
AcDbArc
 50
167.7603999999987
 51
192.2396000000012
1001
AUSTER_ANSICHT
1002
{
1000
Det03
1002
}
1001
AUSTER_FOLIE
1002
{
1000
NSB00753_S0
1002
}
  0
ARC
  5
2FE6
330
720
100
AcDbEntity
  8
10000_FRONT
  6
SHORT_DASH
 62
     7
370
     9
100
AcDbCircle
 39
0.45
 10
374.9203015321934
 20
395.207379119082
 30
0.0
 40
1.85
100
AcDbArc
 50
73.83655000000053
 51
106.1633999999999
1001
AUSTER_ANSICHT
1002
{
1000
Det03
1002
}
1001
AUSTER_FOLIE
1002
{
1000
NSB00753_S0
1002
}
  0
ARC
  5
2FE7
330
720
100
AcDbEntity
  8
10000_FRONT
  6
SHORT_DASH
 62
     7
370
     9
100
AcDbCircle
 39
0.45
 10
374.9203015321934
 20
395.207379119082
 30
0.0
 40
2.850490999999999
100
AcDbArc
 50
347.7603999999987
 51
12.23960000000125
1001
AUSTER_ANSICHT
1002
{
1000
Det03
1002
}
1001
AUSTER_FOLIE
1002
{
1000
NSB00753_S0
1002
}
  0
ARC
  5
2FE8
330
720
100
AcDbEntity
  8
10000_FRONT
  6
SHORT_DASH
 62
     7
370
     9
100
AcDbCircle
 39
0.45
 10
346.9203015321934
 20
395.207379119082
 30
0.0
 40
3.1
100
AcDbArc
 50
345.6539000000024
 51
194.3459000000024
1001
AUSTER_ANSICHT
1002
{
1000
Det03
1002
}
1001
AUSTER_FOLIE
1002
{
1000
NSB00753_S0
1002
}
  0
ARC
  5
2FE9
330
720
100
AcDbEntity
  8
10000_FRONT
  6
SHORT_DASH
 62
     7
370
     9
100
AcDbCircle
 39
0.45
 10
346.9203015321934
 20
395.207379119082
 30
0.0
 40
2.850490999999999
100
AcDbArc
 50
347.7603999999987
 51
12.23960000000125
1001
AUSTER_ANSICHT
1002
{
1000
Det03
1002
}
1001
AUSTER_FOLIE
1002
{
1000
NSB00753_S0
1002
}
  0
ARC
  5
2FEA
330
720
100
AcDbEntity
  8
10000_FRONT
  6
SHORT_DASH
 62
     7
370
     9
100
AcDbCircle
 39
0.45
 10
346.9203015321934
 20
395.207379119082
 30
0.0
 40
1.85
100
AcDbArc
 50
73.83655000000053
 51
106.1633999999999
1001
AUSTER_ANSICHT
1002
{
1000
Det03
1002
}
1001
AUSTER_FOLIE
1002
{
1000
NSB00753_S0
1002
}
  0
ARC
  5
2FEB
330
720
100
AcDbEntity
  8
10000_FRONT
  6
SHORT_DASH
 62
     7
370
     9
100
AcDbCircle
 39
0.45
 10
346.9203015321934
 20
395.207379119082
 30
0.0
 40
2.850490999999999
100
AcDbArc
 50
167.7603999999987
 51
192.2396000000012
1001
AUSTER_ANSICHT
1002
{
1000
Det03
1002
}
1001
AUSTER_FOLIE
1002
{
1000
NSB00753_S0
1002
}
  0
CIRCLE
  5
2FF2
330
720
100
AcDbEntity
  8
10000_FRONT
  6
SHORT_DASH
 62
     7
370
     9
100
AcDbCircle
 39
0.45
 10
360.9175015321934
 20
384.939279119082
 30
0.0
 40
3.1
1001
AUSTER_ANSICHT
1002
{
1000
Det03
1002
}
1001
AUSTER_FOLIE
1002
{
1000
NSB00753_S0
1002
}
  0
ARC
  5
2FF3
330
720
100
AcDbEntity
  8
10000_FRONT
  6
SHORT_DASH
 62
     7
370
     9
100
AcDbCircle
 39
0.45
 10
360.9175015321934
 20
384.939279119082
 30
0.0
 40
2.850490999999999
100
AcDbArc
 50
347.7603999999987
 51
12.23960000000125
1001
AUSTER_ANSICHT
1002
{
1000
Det03
1002
}
1001
AUSTER_FOLIE
1002
{
1000
NSB00753_S0
1002
}
  0
ARC
  5
2FF4
330
720
100
AcDbEntity
  8
10000_FRONT
  6
SHORT_DASH
 62
     7
370
     9
100
AcDbCircle
 39
0.45
 10
360.9175015321934
 20
384.939279119082
 30
0.0
 40
1.85
100
AcDbArc
 50
73.83655000000053
 51
106.1633999999999
1001
AUSTER_ANSICHT
1002
{
1000
Det03
1002
}
1001
AUSTER_FOLIE
1002
{
1000
NSB00753_S0
1002
}
  0
ARC
  5
2FF5
330
720
100
AcDbEntity
  8
10000_FRONT
  6
SHORT_DASH
 62
     7
370
     9
100
AcDbCircle
 39
0.45
 10
360.9175015321934
 20
384.939279119082
 30
0.0
 40
1.85
100
AcDbArc
 50
253.8366000000001
 51
286.1633999999999
1001
AUSTER_ANSICHT
1002
{
1000
Det03
1002
}
1001
AUSTER_FOLIE
1002
{
1000
NSB00753_S0
1002
}
  0
ARC
  5
2FF6
330
720
100
AcDbEntity
  8
10000_FRONT
  6
SHORT_DASH
 62
     7
370
     9
100
AcDbCircle
 39
0.45
 10
360.9175015321934
 20
384.939279119082
 30
0.0
 40
2.850490999999999
100
AcDbArc
 50
167.7603999999987
 51
192.2396000000012
1001
AUSTER_ANSICHT
1002
{
1000
Det03
1002
}
1001
AUSTER_FOLIE
1002
{
1000
NSB00753_S0
1002
}
  0
CIRCLE
  5
2FF7
330
720
100
AcDbEntity
  8
10000_FRONT
  6
SHORT_DASH
 62
     7
370
     9
100
AcDbCircle
 39
0.45
 10
360.9175015321934
 20
384.939279119082
 30
0.0
 40
3.1
1001
AUSTER_ANSICHT
1002
{
1000
Det03
1002
}
1001
AUSTER_FOLIE
1002
{
1000
NSB00753_S0
1002
}
  0
CIRCLE
  5
2FF8
330
720
100
AcDbEntity
  8
10000_FRONT
  6
SHORT_DASH
 62
     7
370
     9
100
AcDbCircle
 39
0.45
 10
346.5175015321934
 20
384.939279119082
 30
0.0
 40
3.1
1001
AUSTER_ANSICHT
1002
{
1000
Det03
1002
}
1001
AUSTER_FOLIE
1002
{
1000
NSB00753_S0
1002
}
  0
ARC
  5
2FF9
330
720
100
AcDbEntity
  8
10000_FRONT
  6
SHORT_DASH
 62
     7
370
     9
100
AcDbCircle
 39
0.45
 10
346.5175015321934
 20
384.939279119082
 30
0.0
 40
2.850490999999999
100
AcDbArc
 50
347.7603999999987
 51
12.23960000000125
1001
AUSTER_ANSICHT
1002
{
1000
Det03
1002
}
1001
AUSTER_FOLIE
1002
{
1000
NSB00753_S0
1002
}
  0
ARC
  5
2FFA
330
720
100
AcDbEntity
  8
10000_FRONT
  6
SHORT_DASH
 62
     7
370
     9
100
AcDbCircle
 39
0.45
 10
346.5175015321934
 20
384.939279119082
 30
0.0
 40
1.85
100
AcDbArc
 50
73.83655000000053
 51
106.1633999999999
1001
AUSTER_ANSICHT
1002
{
1000
Det03
1002
}
1001
AUSTER_FOLIE
1002
{
1000
NSB00753_S0
1002
}
  0
ARC
  5
2FFB
330
720
100
AcDbEntity
  8
10000_FRONT
  6
SHORT_DASH
 62
     7
370
     9
100
AcDbCircle
 39
0.45
 10
346.5175015321934
 20
384.939279119082
 30
0.0
 40
1.85
100
AcDbArc
 50
253.8366000000001
 51
286.1633999999999
1001
AUSTER_ANSICHT
1002
{
1000
Det03
1002
}
1001
AUSTER_FOLIE
1002
{
1000
NSB00753_S0
1002
}
  0
ARC
  5
2FFC
330
720
100
AcDbEntity
  8
10000_FRONT
  6
SHORT_DASH
 62
     7
370
     9
100
AcDbCircle
 39
0.45
 10
346.5175015321934
 20
384.939279119082
 30
0.0
 40
2.850490999999999
100
AcDbArc
 50
167.7603999999987
 51
192.2396000000012
1001
AUSTER_ANSICHT
1002
{
1000
Det03
1002
}
1001
AUSTER_FOLIE
1002
{
1000
NSB00753_S0
1002
}
  0
CIRCLE
  5
2FFD
330
720
100
AcDbEntity
  8
10000_FRONT
  6
SHORT_DASH
 62
     7
370
     9
100
AcDbCircle
 39
0.45
 10
375.3175015321934
 20
336.9392791190819
 30
0.0
 40
3.1
1001
AUSTER_ANSICHT
1002
{
1000
Det03
1002
}
1001
AUSTER_FOLIE
1002
{
1000
NSB00753_S0
1002
}
  0
ARC
  5
2FFE
330
720
100
AcDbEntity
  8
10000_FRONT
  6
SHORT_DASH
 62
     7
370
     9
100
AcDbCircle
 39
0.45
 10
375.3175015321934
 20
336.9392791190819
 30
0.0
 40
2.850490999999999
100
AcDbArc
 50
347.7603999999987
 51
12.23960000000125
1001
AUSTER_ANSICHT
1002
{
1000
Det03
1002
}
1001
AUSTER_FOLIE
1002
{
1000
NSB00753_S0
1002
}
  0
ARC
  5
2FFF
330
720
100
AcDbEntity
  8
10000_FRONT
  6
SHORT_DASH
 62
     7
370
     9
100
AcDbCircle
 39
0.45
 10
375.3175015321934
 20
336.9392791190819
 30
0.0
 40
1.85
100
AcDbArc
 50
253.8366000000001
 51
286.1633999999999
1001
AUSTER_ANSICHT
1002
{
1000
Det03
1002
}
1001
AUSTER_FOLIE
1002
{
1000
NSB00753_S0
1002
}
  0
ARC
  5
3000
330
720
100
AcDbEntity
  8
10000_FRONT
  6
SHORT_DASH
 62
     7
370
     9
100
AcDbCircle
 39
0.45
 10
375.3175015321934
 20
336.9392791190819
 30
0.0
 40
1.85
100
AcDbArc
 50
73.83655000000053
 51
106.1633999999999
1001
AUSTER_ANSICHT
1002
{
1000
Det03
1002
}
1001
AUSTER_FOLIE
1002
{
1000
NSB00753_S0
1002
}
  0
ARC
  5
3001
330
720
100
AcDbEntity
  8
10000_FRONT
  6
SHORT_DASH
 62
     7
370
     9
100
AcDbCircle
 39
0.45
 10
375.3175015321934
 20
336.9392791190819
 30
0.0
 40
2.850490999999999
100
AcDbArc
 50
167.7603999999987
 51
192.2396000000012
1001
AUSTER_ANSICHT
1002
{
1000
Det03
1002
}
1001
AUSTER_FOLIE
1002
{
1000
NSB00753_S0
1002
}
  0
CIRCLE
  5
3002
330
720
100
AcDbEntity
  8
10000_FRONT
  6
SHORT_DASH
 62
     7
370
     9
100
AcDbCircle
 39
0.45
 10
375.3175015321934
 20
336.9392791190819
 30
0.0
 40
3.1
1001
AUSTER_ANSICHT
1002
{
1000
Det03
1002
}
1001
AUSTER_FOLIE
1002
{
1000
NSB00753_S0
1002
}
  0
CIRCLE
  5
3003
330
720
100
AcDbEntity
  8
10000_FRONT
  6
SHORT_DASH
 62
     7
370
     9
100
AcDbCircle
 39
0.45
 10
360.9175015321934
 20
336.9392791190819
 30
0.0
 40
3.1
1001
AUSTER_ANSICHT
1002
{
1000
Det03
1002
}
1001
AUSTER_FOLIE
1002
{
1000
NSB00753_S0
1002
}
  0
ARC
  5
3004
330
720
100
AcDbEntity
  8
10000_FRONT
  6
SHORT_DASH
 62
     7
370
     9
100
AcDbCircle
 39
0.45
 10
360.9175015321934
 20
336.9392791190819
 30
0.0
 40
2.850490999999999
100
AcDbArc
 50
347.7603999999987
 51
12.23960000000125
1001
AUSTER_ANSICHT
1002
{
1000
Det03
1002
}
1001
AUSTER_FOLIE
1002
{
1000
NSB00753_S0
1002
}
  0
ARC
  5
3005
330
720
100
AcDbEntity
  8
10000_FRONT
  6
SHORT_DASH
 62
     7
370
     9
100
AcDbCircle
 39
0.45
 10
360.9175015321934
 20
336.9392791190819
 30
0.0
 40
1.85
100
AcDbArc
 50
253.8366000000001
 51
286.1633999999999
1001
AUSTER_ANSICHT
1002
{
1000
Det03
1002
}
1001
AUSTER_FOLIE
1002
{
1000
NSB00753_S0
1002
}
  0
ARC
  5
3006
330
720
100
AcDbEntity
  8
10000_FRONT
  6
SHORT_DASH
 62
     7
370
     9
100
AcDbCircle
 39
0.45
 10
360.9175015321934
 20
336.9392791190819
 30
0.0
 40
1.85
100
AcDbArc
 50
73.83655000000053
 51
106.1633999999999
1001
AUSTER_ANSICHT
1002
{
1000
Det03
1002
}
1001
AUSTER_FOLIE
1002
{
1000
NSB00753_S0
1002
}
  0
ARC
  5
3007
330
720
100
AcDbEntity
  8
10000_FRONT
  6
SHORT_DASH
 62
     7
370
     9
100
AcDbCircle
 39
0.45
 10
360.9175015321934
 20
336.9392791190819
 30
0.0
 40
2.850490999999999
100
AcDbArc
 50
167.7603999999987
 51
192.2396000000012
1001
AUSTER_ANSICHT
1002
{
1000
Det03
1002
}
1001
AUSTER_FOLIE
1002
{
1000
NSB00753_S0
1002
}
  0
CIRCLE
  5
3008
330
720
100
AcDbEntity
  8
10000_FRONT
  6
SHORT_DASH
 62
     7
370
     9
100
AcDbCircle
 39
0.45
 10
360.9175015321934
 20
336.9392791190819
 30
0.0
 40
3.1
1001
AUSTER_ANSICHT
1002
{
1000
Det03
1002
}
1001
AUSTER_FOLIE
1002
{
1000
NSB00753_S0
1002
}
  0
CIRCLE
  5
3009
330
720
100
AcDbEntity
  8
10000_FRONT
  6
SHORT_DASH
 62
     7
370
     9
100
AcDbCircle
 39
0.45
 10
346.5175015321934
 20
336.9392791190819
 30
0.0
 40
3.1
1001
AUSTER_ANSICHT
1002
{
1000
Det03
1002
}
1001
AUSTER_FOLIE
1002
{
1000
NSB00753_S0
1002
}
  0
ARC
  5
300A
330
720
100
AcDbEntity
  8
10000_FRONT
  6
SHORT_DASH
 62
     7
370
     9
100
AcDbCircle
 39
0.45
 10
346.5175015321934
 20
336.9392791190819
 30
0.0
 40
2.850490999999999
100
AcDbArc
 50
347.7603999999987
 51
12.23960000000125
1001
AUSTER_ANSICHT
1002
{
1000
Det03
1002
}
1001
AUSTER_FOLIE
1002
{
1000
NSB00753_S0
1002
}
  0
ARC
  5
300B
330
720
100
AcDbEntity
  8
10000_FRONT
  6
SHORT_DASH
 62
     7
370
     9
100
AcDbCircle
 39
0.45
 10
346.5175015321934
 20
336.9392791190819
 30
0.0
 40
1.85
100
AcDbArc
 50
253.8366000000001
 51
286.1633999999999
1001
AUSTER_ANSICHT
1002
{
1000
Det03
1002
}
1001
AUSTER_FOLIE
1002
{
1000
NSB00753_S0
1002
}
  0
ARC
  5
300C
330
720
100
AcDbEntity
  8
10000_FRONT
  6
SHORT_DASH
 62
     7
370
     9
100
AcDbCircle
 39
0.45
 10
346.5175015321934
 20
336.9392791190819
 30
0.0
 40
1.85
100
AcDbArc
 50
73.83655000000053
 51
106.1633999999999
1001
AUSTER_ANSICHT
1002
{
1000
Det03
1002
}
1001
AUSTER_FOLIE
1002
{
1000
NSB00753_S0
1002
}
  0
ARC
  5
300D
330
720
100
AcDbEntity
  8
10000_FRONT
  6
SHORT_DASH
 62
     7
370
     9
100
AcDbCircle
 39
0.45
 10
346.5175015321934
 20
336.9392791190819
 30
0.0
 40
2.850490999999999
100
AcDbArc
 50
167.7603999999987
 51
192.2396000000012
1001
AUSTER_ANSICHT
1002
{
1000
Det03
1002
}
1001
AUSTER_FOLIE
1002
{
1000
NSB00753_S0
1002
}
  0
ARC
  5
300E
330
720
100
AcDbEntity
  8
10000_FRONT
  6
SHORT_DASH
 62
     7
370
     9
100
AcDbCircle
 39
0.45
 10
381.8678015321934
 20
392.9394891190819
 30
0.0
 40
1.499704
100
AcDbArc
 50
359.9918999999981
 51
90.01129999999895
1001
AUSTER_ANSICHT
1002
{
1000
Det03
1002
}
1001
AUSTER_FOLIE
1002
{
1000
NSB00753_S0
1002
}
  0
CIRCLE
  5
300F
330
720
100
AcDbEntity
  8
10000_FRONT
  6
SHORT_DASH
 62
     7
370
     9
100
AcDbCircle
 39
0.45
 10
346.5175015321934
 20
384.939279119082
 30
0.0
 40
3.1
1001
AUSTER_ANSICHT
1002
{
1000
Det03
1002
}
1001
AUSTER_FOLIE
1002
{
1000
NSB00753_S0
1002
}
  0
CIRCLE
  5
3010
330
720
100
AcDbEntity
  8
10000_FRONT
  6
SHORT_DASH
 62
     7
370
     9
100
AcDbCircle
 39
0.45
 10
346.5175015321934
 20
336.9392791190819
 30
0.0
 40
3.1
1001
AUSTER_ANSICHT
1002
{
1000
Det03
1002
}
1001
AUSTER_FOLIE
1002
{
1000
NSB00753_S0
1002
}
  0
LINE
  5
305F
330
720
100
AcDbEntity
  8
10000_FRONT
  6
SHORT_DASH
 62
     7
370
     9
100
AcDbLine
 39
0.45
 10
339.9674973071219
 20
327.4393651482486
 30
0.0
 11
381.8675057572649
 21
327.4393651482486
 31
0.0
1001
AUSTER_ANSICHT
1002
{
1000
Det03
1002
}
1001
AUSTER_FOLIE
1002
{
1000
NSB00753_S0
1002
}
  0
LINE
  5
311F
330
720
100
AcDbEntity
  8
10000_FRONT
  6
SHORT_DASH
 62
     7
370
     9
100
AcDbLine
 39
0.45
 10
361.4325015321934
 20
335.1624091190819
 30
0.0
 11
361.4325015321934
 21
336.1547091190819
 31
0.0
1001
AUSTER_ANSICHT
1002
{
1000
Det03
1002
}
1001
AUSTER_FOLIE
1002
{
1000
NSB00753_S0
1002
}
  0
LINE
  5
3195
330
720
100
AcDbEntity
  8
10000_FRONT
  6
SHORT_DASH
 62
     7
370
     9
100
AcDbLine
 39
0.45
 10
339.2996015321934
 20
341.9892791190819
 30
0.0
 11
339.2996015321934
 21
347.9892791190819
 31
0.0
1001
AUSTER_ANSICHT
1002
{
1000
Det03
1002
}
1001
AUSTER_FOLIE
1002
{
1000
NSB00753_S0
1002
}
  0
LINE
  5
3199
330
720
100
AcDbEntity
  8
10000_FRONT
  6
SHORT_DASH
 62
     7
370
     9
100
AcDbLine
 39
0.45
 10
340.7675015321934
 20
347.9892791190819
 30
0.0
 11
340.7675015321934
 21
349.089279119082
 31
0.0
1001
AUSTER_ANSICHT
1002
{
1000
Det03
1002
}
1001
AUSTER_FOLIE
1002
{
1000
NSB00753_S0
1002
}
  0
LINE
  5
319A
330
720
100
AcDbEntity
  8
10000_FRONT
  6
SHORT_DASH
 62
     7
370
     9
100
AcDbLine
 39
0.45
 10
339.2996015321934
 20
347.9892791190819
 30
0.0
 11
340.7675015321934
 21
347.9892791190819
 31
0.0
1001
AUSTER_ANSICHT
1002
{
1000
Det03
1002
}
1001
AUSTER_FOLIE
1002
{
1000
NSB00753_S0
1002
}
  0
LINE
  5
31D2
330
720
100
AcDbEntity
  8
10000_FRONT
  6
SHORT_DASH
 62
     7
370
     9
100
AcDbLine
 39
0.45
 10
339.6675015321934
 20
373.3392791190819
 30
0.0
 11
339.8175015321934
 21
373.3392791190819
 31
0.0
1001
AUSTER_ANSICHT
1002
{
1000
Det03
1002
}
1001
AUSTER_FOLIE
1002
{
1000
NSB00753_S0
1002
}
  0
LINE
  5
31D5
330
720
100
AcDbEntity
  8
10000_FRONT
  6
SHORT_DASH
 62
     7
370
     9
100
AcDbLine
 39
0.45
 10
349.2175015321934
 20
373.3392791190819
 30
0.0
 11
349.2175015321934
 21
350.2392791190819
 31
0.0
1001
AUSTER_ANSICHT
1002
{
1000
Det03
1002
}
1001
AUSTER_FOLIE
1002
{
1000
NSB00753_S0
1002
}
  0
LINE
  5
31D7
330
720
100
AcDbEntity
  8
10000_FRONT
  6
SHORT_DASH
 62
     7
370
     9
100
AcDbLine
 39
0.45
 10
349.0175015321934
 20
373.3392791190819
 30
0.0
 11
349.2175015321934
 21
373.3392791190819
 31
0.0
1001
AUSTER_ANSICHT
1002
{
1000
Det03
1002
}
1001
AUSTER_FOLIE
1002
{
1000
NSB00753_S0
1002
}
  0
LINE
  5
31D9
330
720
100
AcDbEntity
  8
10000_FRONT
  6
SHORT_DASH
 62
     7
370
     9
100
AcDbLine
 39
0.45
 10
349.0175015321934
 20
376.7392791190819
 30
0.0
 11
349.0175015321934
 21
373.3392791190819
 31
0.0
1001
AUSTER_ANSICHT
1002
{
1000
Det03
1002
}
1001
AUSTER_FOLIE
1002
{
1000
NSB00753_S0
1002
}
  0
LINE
  5
31DB
330
720
100
AcDbEntity
  8
10000_FRONT
  6
SHORT_DASH
 62
     7
370
     9
100
AcDbLine
 39
0.45
 10
339.8175015321934
 20
376.7392791190819
 30
0.0
 11
349.0175015321934
 21
376.7392791190819
 31
0.0
1001
AUSTER_ANSICHT
1002
{
1000
Det03
1002
}
1001
AUSTER_FOLIE
1002
{
1000
NSB00753_S0
1002
}
  0
LINE
  5
31DD
330
720
100
AcDbEntity
  8
10000_FRONT
  6
SHORT_DASH
 62
     7
370
     9
100
AcDbLine
 39
0.45
 10
339.8175015321934
 20
373.3392791190819
 30
0.0
 11
339.8175015321934
 21
376.7392791190819
 31
0.0
1001
AUSTER_ANSICHT
1002
{
1000
Det03
1002
}
1001
AUSTER_FOLIE
1002
{
1000
NSB00753_S0
1002
}
  0
LINE
  5
31E0
330
720
100
AcDbEntity
  8
10000_FRONT
  6
SHORT_DASH
 62
     7
370
     9
100
AcDbLine
 39
0.45
 10
346.6175015321934
 20
373.189279119082
 30
0.0
 11
346.6175015321934
 21
368.689279119082
 31
0.0
1001
AUSTER_ANSICHT
1002
{
1000
Det03
1002
}
1001
AUSTER_FOLIE
1002
{
1000
NSB00753_S0
1002
}
  0
LINE
  5
31E2
330
720
100
AcDbEntity
  8
10000_FRONT
  6
SHORT_DASH
 62
     7
370
     9
100
AcDbLine
 39
0.45
 10
349.1175015321934
 20
373.189279119082
 30
0.0
 11
349.1175015321934
 21
373.3395991190819
 31
0.0
1001
AUSTER_ANSICHT
1002
{
1000
Det03
1002
}
1001
AUSTER_FOLIE
1002
{
1000
NSB00753_S0
1002
}
  0
LINE
  5
31E4
330
720
100
AcDbEntity
  8
10000_FRONT
  6
SHORT_DASH
 62
     7
370
     9
100
AcDbLine
 39
0.45
 10
342.2175015321934
 20
373.189279119082
 30
0.0
 11
342.2175015321934
 21
368.689279119082
 31
0.0
1001
AUSTER_ANSICHT
1002
{
1000
Det03
1002
}
1001
AUSTER_FOLIE
1002
{
1000
NSB00753_S0
1002
}
  0
LINE
  5
31E6
330
720
100
AcDbEntity
  8
10000_FRONT
  6
SHORT_DASH
 62
     7
370
     9
100
AcDbLine
 39
0.45
 10
348.3175015321934
 20
354.4892791190819
 30
0.0
 11
347.0175015321934
 21
354.4892791190819
 31
0.0
1001
AUSTER_ANSICHT
1002
{
1000
Det03
1002
}
1001
AUSTER_FOLIE
1002
{
1000
NSB00753_S0
1002
}
  0
LINE
  5
31E8
330
720
100
AcDbEntity
  8
10000_FRONT
  6
SHORT_DASH
 62
     7
370
     9
100
AcDbLine
 39
0.45
 10
348.3175015321934
 20
368.689279119082
 30
0.0
 11
348.3175015321934
 21
354.4892791190819
 31
0.0
1001
AUSTER_ANSICHT
1002
{
1000
Det03
1002
}
1001
AUSTER_FOLIE
1002
{
1000
NSB00753_S0
1002
}
  0
LINE
  5
31EA
330
720
100
AcDbEntity
  8
10000_FRONT
  6
SHORT_DASH
 62
     7
370
     9
100
AcDbLine
 39
0.45
 10
340.5175015321934
 20
354.4892791190819
 30
0.0
 11
340.5175015321934
 21
368.689279119082
 31
0.0
1001
AUSTER_ANSICHT
1002
{
1000
Det03
1002
}
1001
AUSTER_FOLIE
1002
{
1000
NSB00753_S0
1002
}
  0
LINE
  5
31EC
330
720
100
AcDbEntity
  8
10000_FRONT
  6
SHORT_DASH
 62
     7
370
     9
100
AcDbLine
 39
0.45
 10
341.8175015321935
 20
354.4892791190819
 30
0.0
 11
340.5175015321934
 21
354.4892791190819
 31
0.0
1001
AUSTER_ANSICHT
1002
{
1000
Det03
1002
}
1001
AUSTER_FOLIE
1002
{
1000
NSB00753_S0
1002
}
  0
LINE
  5
31EE
330
720
100
AcDbEntity
  8
10000_FRONT
  6
SHORT_DASH
 62
     7
370
     9
100
AcDbLine
 39
0.45
 10
346.6175015321934
 20
373.189279119082
 30
0.0
 11
349.1175015321934
 21
373.189279119082
 31
0.0
1001
AUSTER_ANSICHT
1002
{
1000
Det03
1002
}
1001
AUSTER_FOLIE
1002
{
1000
NSB00753_S0
1002
}
  0
LINE
  5
31F2
330
720
100
AcDbEntity
  8
10000_FRONT
  6
SHORT_DASH
 62
     7
370
     9
100
AcDbLine
 39
0.45
 10
348.3175015321934
 20
368.689279119082
 30
0.0
 11
346.6175015321934
 21
368.689279119082
 31
0.0
1001
AUSTER_ANSICHT
1002
{
1000
Det03
1002
}
1001
AUSTER_FOLIE
1002
{
1000
NSB00753_S0
1002
}
  0
LINE
  5
31FB
330
720
100
AcDbEntity
  8
10000_FRONT
  6
SHORT_DASH
 62
     7
370
     9
100
AcDbLine
 39
0.45
 10
347.0175015321934
 20
350.2392791190819
 30
0.0
 11
347.0175015321934
 21
354.4892791190819
 31
0.0
1001
AUSTER_ANSICHT
1002
{
1000
Det03
1002
}
1001
AUSTER_FOLIE
1002
{
1000
NSB00753_S0
1002
}
  0
LINE
  5
31FC
330
720
100
AcDbEntity
  8
10000_FRONT
  6
SHORT_DASH
 62
     7
370
     9
100
AcDbLine
 39
0.45
 10
341.8175015321935
 20
354.4892791190819
 30
0.0
 11
341.8175015321935
 21
350.2392791190819
 31
0.0
1001
AUSTER_ANSICHT
1002
{
1000
Det03
1002
}
1001
AUSTER_FOLIE
1002
{
1000
NSB00753_S0
1002
}
  0
LINE
  5
31FD
330
720
100
AcDbEntity
  8
10000_FRONT
  6
SHORT_DASH
 62
     7
370
     9
100
AcDbLine
 39
0.45
 10
340.5175015321934
 20
368.689279119082
 30
0.0
 11
342.2175015321934
 21
368.689279119082
 31
0.0
1001
AUSTER_ANSICHT
1002
{
1000
Det03
1002
}
1001
AUSTER_FOLIE
1002
{
1000
NSB00753_S0
1002
}
  0
LINE
  5
31FE
330
720
100
AcDbEntity
  8
10000_FRONT
  6
SHORT_DASH
 62
     7
370
     9
100
AcDbLine
 39
0.45
 10
342.2175015321934
 20
373.189279119082
 30
0.0
 11
339.6675015321934
 21
373.189279119082
 31
0.0
1001
AUSTER_ANSICHT
1002
{
1000
Det03
1002
}
1001
AUSTER_FOLIE
1002
{
1000
NSB00753_S0
1002
}
  0
LINE
  5
31FF
330
720
100
AcDbEntity
  8
10000_FRONT
  6
SHORT_DASH
 62
     7
370
     9
100
AcDbLine
 39
0.45
 10
342.1675015321934
 20
357.589279119082
 30
0.0
 11
342.1675015321934
 21
362.9892791190819
 31
0.0
1001
AUSTER_ANSICHT
1002
{
1000
Det03
1002
}
1001
AUSTER_FOLIE
1002
{
1000
NSB00753_S0
1002
}
  0
LINE
  5
3200
330
720
100
AcDbEntity
  8
10000_FRONT
  6
SHORT_DASH
 62
     7
370
     9
100
AcDbLine
 39
0.45
 10
346.6675015321934
 20
357.589279119082
 30
0.0
 11
342.1675015321934
 21
357.589279119082
 31
0.0
1001
AUSTER_ANSICHT
1002
{
1000
Det03
1002
}
1001
AUSTER_FOLIE
1002
{
1000
NSB00753_S0
1002
}
  0
LINE
  5
3201
330
720
100
AcDbEntity
  8
10000_FRONT
  6
SHORT_DASH
 62
     7
370
     9
100
AcDbLine
 39
0.45
 10
346.6675015321934
 20
362.9892791190819
 30
0.0
 11
346.6675015321934
 21
357.589279119082
 31
0.0
1001
AUSTER_ANSICHT
1002
{
1000
Det03
1002
}
1001
AUSTER_FOLIE
1002
{
1000
NSB00753_S0
1002
}
  0
LINE
  5
3202
330
720
100
AcDbEntity
  8
10000_FRONT
  6
SHORT_DASH
 62
     7
370
     9
100
AcDbLine
 39
0.45
 10
346.3480015321934
 20
363.2892791190819
 30
0.0
 11
346.6675015321934
 21
362.9892791190819
 31
0.0
1001
AUSTER_ANSICHT
1002
{
1000
Det03
1002
}
1001
AUSTER_FOLIE
1002
{
1000
NSB00753_S0
1002
}
  0
LINE
  5
3203
330
720
100
AcDbEntity
  8
10000_FRONT
  6
SHORT_DASH
 62
     7
370
     9
100
AcDbLine
 39
0.45
 10
342.4870015321934
 20
363.2892791190819
 30
0.0
 11
346.3480015321934
 21
363.2892791190819
 31
0.0
1001
AUSTER_ANSICHT
1002
{
1000
Det03
1002
}
1001
AUSTER_FOLIE
1002
{
1000
NSB00753_S0
1002
}
  0
LINE
  5
3204
330
720
100
AcDbEntity
  8
10000_FRONT
  6
SHORT_DASH
 62
     7
370
     9
100
AcDbLine
 39
0.45
 10
342.1675015321934
 20
362.9892791190819
 30
0.0
 11
342.4870015321934
 21
363.2892791190819
 31
0.0
1001
AUSTER_ANSICHT
1002
{
1000
Det03
1002
}
1001
AUSTER_FOLIE
1002
{
1000
NSB00753_S0
1002
}
  0
LINE
  5
3205
330
720
100
AcDbEntity
  8
10000_FRONT
  6
SHORT_DASH
 62
     7
370
     9
100
AcDbLine
 39
0.45
 10
340.7675015321934
 20
349.089279119082
 30
0.0
 11
349.9407415321934
 21
349.0892791190818
 31
0.0
1001
AUSTER_ANSICHT
1002
{
1000
Det03
1002
}
1001
AUSTER_FOLIE
1002
{
1000
NSB00753_S0
1002
}
  0
LINE
  5
3206
330
720
100
AcDbEntity
  8
10000_FRONT
  6
SHORT_DASH
 62
     7
370
     9
100
AcDbLine
 39
0.45
 10
349.9407415321934
 20
341.9892791190819
 30
0.0
 11
339.2996015321934
 21
341.9892791190819
 31
0.0
1001
AUSTER_ANSICHT
1002
{
1000
Det03
1002
}
1001
AUSTER_FOLIE
1002
{
1000
NSB00753_S0
1002
}
  0
LINE
  5
3207
330
720
100
AcDbEntity
  8
10000_FRONT
  6
SHORT_DASH
 62
     7
370
     9
100
AcDbLine
 39
0.45
 10
349.2175015321934
 20
350.2392791190819
 30
0.0
 11
339.6675015321934
 21
350.2392791190819
 31
0.0
1001
AUSTER_ANSICHT
1002
{
1000
Det03
1002
}
1001
AUSTER_FOLIE
1002
{
1000
NSB00753_S0
1002
}
  0
LINE
  5
3208
330
720
100
AcDbEntity
  8
10000_FRONT
  6
SHORT_DASH
 62
     7
370
     9
100
AcDbLine
 39
0.45
 10
339.6675015321934
 20
350.2392791190819
 30
0.0
 11
339.6675015321934
 21
373.3392791190819
 31
0.0
1001
AUSTER_ANSICHT
1002
{
1000
Det03
1002
}
1001
AUSTER_FOLIE
1002
{
1000
NSB00753_S0
1002
}
  0
LINE
  5
3209
330
720
100
AcDbEntity
  8
10000_FRONT
  6
SHORT_DASH
 62
     7
370
     9
100
AcDbLine
 39
0.45
 10
381.8525015321934
 20
395.439279119082
 30
0.0
 11
381.7427015321933
 21
394.4407191190819
 31
0.0
1001
AUSTER_ANSICHT
1002
{
1000
Det03
1002
}
1001
AUSTER_FOLIE
1002
{
1000
NSB00753_S0
1002
}
  0
LINE
  5
320A
330
720
100
AcDbEntity
  8
10000_FRONT
  6
SHORT_DASH
 62
     7
370
     9
100
AcDbLine
 39
0.45
 10
381.9881015321934
 20
396.6720791190819
 30
0.0
 11
381.8525015321934
 21
395.439279119082
 31
0.0
1001
AUSTER_ANSICHT
1002
{
1000
Det03
1002
}
1001
AUSTER_FOLIE
1002
{
1000
NSB00753_S0
1002
}
  0
LINE
  5
320B
330
720
100
AcDbEntity
  8
10000_FRONT
  6
SHORT_DASH
 62
     7
370
     9
100
AcDbLine
 39
0.45
 10
353.9402015321934
 20
324.939279119082
 30
0.0
 11
353.4949015321934
 21
324.939279119082
 31
0.0
1001
AUSTER_ANSICHT
1002
{
1000
Det03
1002
}
1001
AUSTER_FOLIE
1002
{
1000
NSB00753_S0
1002
}
  0
LINE
  5
320C
330
720
100
AcDbEntity
  8
10000_FRONT
  6
SHORT_DASH
 62
     7
370
     9
100
AcDbLine
 39
0.45
 10
353.1927015321934
 20
325.255739119082
 30
0.0
 11
353.0211015321934
 21
327.4393391190819
 31
0.0
1001
AUSTER_ANSICHT
1002
{
1000
Det03
1002
}
1001
AUSTER_FOLIE
1002
{
1000
NSB00753_S0
1002
}
  0
LINE
  5
320D
330
720
100
AcDbEntity
  8
10000_FRONT
  6
SHORT_DASH
 62
     7
370
     9
100
AcDbLine
 39
0.45
 10
354.2391015321934
 20
325.214279119082
 30
0.0
 11
354.4139015321934
 21
327.439179119082
 31
0.0
1001
AUSTER_ANSICHT
1002
{
1000
Det03
1002
}
1001
AUSTER_FOLIE
1002
{
1000
NSB00753_S0
1002
}
  0
LINE
  5
320E
330
720
100
AcDbEntity
  8
10000_FRONT
  6
SHORT_DASH
 62
     7
370
     9
100
AcDbLine
 39
0.45
 10
367.8949015321934
 20
324.939279119082
 30
0.0
 11
368.3402015321934
 21
324.939279119082
 31
0.0
1001
AUSTER_ANSICHT
1002
{
1000
Det03
1002
}
1001
AUSTER_FOLIE
1002
{
1000
NSB00753_S0
1002
}
  0
LINE
  5
320F
330
720
100
AcDbEntity
  8
10000_FRONT
  6
SHORT_DASH
 62
     7
370
     9
100
AcDbLine
 39
0.45
 10
368.6424015321934
 20
325.255739119082
 30
0.0
 11
368.8139015321934
 21
327.4393391190819
 31
0.0
1001
AUSTER_ANSICHT
1002
{
1000
Det03
1002
}
1001
AUSTER_FOLIE
1002
{
1000
NSB00753_S0
1002
}
  0
LINE
  5
3210
330
720
100
AcDbEntity
  8
10000_FRONT
  6
SHORT_DASH
 62
     7
370
     9
100
AcDbLine
 39
0.45
 10
367.5959015321934
 20
325.214279119082
 30
0.0
 11
367.4211015321934
 21
327.439179119082
 31
0.0
1001
AUSTER_ANSICHT
1002
{
1000
Det03
1002
}
1001
AUSTER_FOLIE
1002
{
1000
NSB00753_S0
1002
}
  0
LINE
  5
3211
330
720
100
AcDbEntity
  8
10000_FRONT
  6
SHORT_DASH
 62
     7
370
     9
100
AcDbLine
 39
0.45
 10
353.9402015321934
 20
396.939279119082
 30
0.0
 11
353.4949015321934
 21
396.939279119082
 31
0.0
1001
AUSTER_ANSICHT
1002
{
1000
Det03
1002
}
1001
AUSTER_FOLIE
1002
{
1000
NSB00753_S0
1002
}
  0
LINE
  5
3212
330
720
100
AcDbEntity
  8
10000_FRONT
  6
SHORT_DASH
 62
     7
370
     9
100
AcDbLine
 39
0.45
 10
353.1927015321934
 20
396.622819119082
 30
0.0
 11
353.0211015321934
 21
394.4392191190819
 31
0.0
1001
AUSTER_ANSICHT
1002
{
1000
Det03
1002
}
1001
AUSTER_FOLIE
1002
{
1000
NSB00753_S0
1002
}
  0
LINE
  5
3213
330
720
100
AcDbEntity
  8
10000_FRONT
  6
SHORT_DASH
 62
     7
370
     9
100
AcDbLine
 39
0.45
 10
354.2391015321934
 20
396.6642791190819
 30
0.0
 11
354.4139015321934
 21
394.4393791190819
 31
0.0
1001
AUSTER_ANSICHT
1002
{
1000
Det03
1002
}
1001
AUSTER_FOLIE
1002
{
1000
NSB00753_S0
1002
}
  0
LINE
  5
3214
330
720
100
AcDbEntity
  8
10000_FRONT
  6
SHORT_DASH
 62
     7
370
     9
100
AcDbLine
 39
0.45
 10
339.9825015321934
 20
395.439279119082
 30
0.0
 11
340.0924015321934
 21
394.4407191190819
 31
0.0
1001
AUSTER_ANSICHT
1002
{
1000
Det03
1002
}
1001
AUSTER_FOLIE
1002
{
1000
NSB00753_S0
1002
}
  0
LINE
  5
3215
330
720
100
AcDbEntity
  8
10000_FRONT
  6
SHORT_DASH
 62
     7
370
     9
100
AcDbLine
 39
0.45
 10
339.8469015321934
 20
396.6720791190819
 30
0.0
 11
339.9825015321934
 21
395.439279119082
 31
0.0
1001
AUSTER_ANSICHT
1002
{
1000
Det03
1002
}
1001
AUSTER_FOLIE
1002
{
1000
NSB00753_S0
1002
}
  0
LINE
  5
3216
330
720
100
AcDbEntity
  8
10000_FRONT
  6
SHORT_DASH
 62
     7
370
     9
100
AcDbLine
 39
0.45
 10
367.8949015321934
 20
396.939279119082
 30
0.0
 11
368.3402015321934
 21
396.939279119082
 31
0.0
1001
AUSTER_ANSICHT
1002
{
1000
Det03
1002
}
1001
AUSTER_FOLIE
1002
{
1000
NSB00753_S0
1002
}
  0
LINE
  5
3217
330
720
100
AcDbEntity
  8
10000_FRONT
  6
SHORT_DASH
 62
     7
370
     9
100
AcDbLine
 39
0.45
 10
368.6424015321934
 20
396.622819119082
 30
0.0
 11
368.8139015321934
 21
394.4392191190819
 31
0.0
1001
AUSTER_ANSICHT
1002
{
1000
Det03
1002
}
1001
AUSTER_FOLIE
1002
{
1000
NSB00753_S0
1002
}
  0
LINE
  5
3218
330
720
100
AcDbEntity
  8
10000_FRONT
  6
SHORT_DASH
 62
     7
370
     9
100
AcDbLine
 39
0.45
 10
367.5959015321934
 20
396.6642791190819
 30
0.0
 11
367.4211015321934
 21
394.4393791190819
 31
0.0
1001
AUSTER_ANSICHT
1002
{
1000
Det03
1002
}
1001
AUSTER_FOLIE
1002
{
1000
NSB00753_S0
1002
}
  0
LINE
  5
3219
330
720
100
AcDbEntity
  8
10000_FRONT
  6
SHORT_DASH
 62
     7
370
     9
100
AcDbLine
 39
0.45
 10
375.4353015321934
 20
325.8866091190819
 30
0.0
 11
375.4353015321934
 21
326.066879119082
 31
0.0
1001
AUSTER_ANSICHT
1002
{
1000
Det03
1002
}
1001
AUSTER_FOLIE
1002
{
1000
NSB00753_S0
1002
}
  0
LINE
  5
321A
330
720
100
AcDbEntity
  8
10000_FRONT
  6
SHORT_DASH
 62
     7
370
     9
100
AcDbLine
 39
0.45
 10
375.4353015321934
 20
327.455759119082
 30
0.0
 11
375.4353015321934
 21
327.2754891190819
 31
0.0
1001
AUSTER_ANSICHT
1002
{
1000
Det03
1002
}
1001
AUSTER_FOLIE
1002
{
1000
NSB00753_S0
1002
}
  0
LINE
  5
321B
330
720
100
AcDbEntity
  8
10000_FRONT
  6
SHORT_DASH
 62
     7
370
     9
100
AcDbLine
 39
0.45
 10
374.4053015321934
 20
325.8866091190819
 30
0.0
 11
374.4053015321934
 21
326.066879119082
 31
0.0
1001
AUSTER_ANSICHT
1002
{
1000
Det03
1002
}
1001
AUSTER_FOLIE
1002
{
1000
NSB00753_S0
1002
}
  0
LINE
  5
321C
330
720
100
AcDbEntity
  8
10000_FRONT
  6
SHORT_DASH
 62
     7
370
     9
100
AcDbLine
 39
0.45
 10
374.4053015321934
 20
327.455759119082
 30
0.0
 11
374.4053015321934
 21
327.2754891190819
 31
0.0
1001
AUSTER_ANSICHT
1002
{
1000
Det03
1002
}
1001
AUSTER_FOLIE
1002
{
1000
NSB00753_S0
1002
}
  0
LINE
  5
321D
330
720
100
AcDbEntity
  8
10000_FRONT
  6
SHORT_DASH
 62
     7
370
     9
100
AcDbLine
 39
0.45
 10
375.4353015321934
 20
325.8866091190819
 30
0.0
 11
375.4353015321934
 21
324.8943091190819
 31
0.0
1001
AUSTER_ANSICHT
1002
{
1000
Det03
1002
}
1001
AUSTER_FOLIE
1002
{
1000
NSB00753_S0
1002
}
  0
LINE
  5
321E
330
720
100
AcDbEntity
  8
10000_FRONT
  6
SHORT_DASH
 62
     7
370
     9
100
AcDbLine
 39
0.45
 10
374.4053015321934
 20
324.8943091190819
 30
0.0
 11
374.4053015321934
 21
325.8866091190819
 31
0.0
1001
AUSTER_ANSICHT
1002
{
1000
Det03
1002
}
1001
AUSTER_FOLIE
1002
{
1000
NSB00753_S0
1002
}
  0
LINE
  5
321F
330
720
100
AcDbEntity
  8
10000_FRONT
  6
SHORT_DASH
 62
     7
370
     9
100
AcDbLine
 39
0.45
 10
375.4353015321934
 20
327.2754891190819
 30
0.0
 11
377.7060015321934
 21
327.2754891190819
 31
0.0
1001
AUSTER_ANSICHT
1002
{
1000
Det03
1002
}
1001
AUSTER_FOLIE
1002
{
1000
NSB00753_S0
1002
}
  0
LINE
  5
3220
330
720
100
AcDbEntity
  8
10000_FRONT
  6
SHORT_DASH
 62
     7
370
     9
100
AcDbLine
 39
0.45
 10
372.1346015321934
 20
327.2754891190819
 30
0.0
 11
374.4053015321934
 21
327.2754891190819
 31
0.0
1001
AUSTER_ANSICHT
1002
{
1000
Det03
1002
}
1001
AUSTER_FOLIE
1002
{
1000
NSB00753_S0
1002
}
  0
LINE
  5
3221
330
720
100
AcDbEntity
  8
10000_FRONT
  6
SHORT_DASH
 62
     7
370
     9
100
AcDbLine
 39
0.45
 10
374.4053015321934
 20
326.066879119082
 30
0.0
 11
372.1346015321934
 21
326.066879119082
 31
0.0
1001
AUSTER_ANSICHT
1002
{
1000
Det03
1002
}
1001
AUSTER_FOLIE
1002
{
1000
NSB00753_S0
1002
}
  0
LINE
  5
3222
330
720
100
AcDbEntity
  8
10000_FRONT
  6
SHORT_DASH
 62
     7
370
     9
100
AcDbLine
 39
0.45
 10
377.7060015321934
 20
326.066879119082
 30
0.0
 11
375.4353015321934
 21
326.066879119082
 31
0.0
1001
AUSTER_ANSICHT
1002
{
1000
Det03
1002
}
1001
AUSTER_FOLIE
1002
{
1000
NSB00753_S0
1002
}
  0
LINE
  5
3223
330
720
100
AcDbEntity
  8
10000_FRONT
  6
SHORT_DASH
 62
     7
370
     9
100
AcDbLine
 39
0.45
 10
346.4053015321934
 20
325.8866091190819
 30
0.0
 11
346.4053015321934
 21
326.066879119082
 31
0.0
1001
AUSTER_ANSICHT
1002
{
1000
Det03
1002
}
1001
AUSTER_FOLIE
1002
{
1000
NSB00753_S0
1002
}
  0
LINE
  5
3224
330
720
100
AcDbEntity
  8
10000_FRONT
  6
SHORT_DASH
 62
     7
370
     9
100
AcDbLine
 39
0.45
 10
346.4053015321934
 20
327.455759119082
 30
0.0
 11
346.4053015321934
 21
327.2754891190819
 31
0.0
1001
AUSTER_ANSICHT
1002
{
1000
Det03
1002
}
1001
AUSTER_FOLIE
1002
{
1000
NSB00753_S0
1002
}
  0
LINE
  5
3225
330
720
100
AcDbEntity
  8
10000_FRONT
  6
SHORT_DASH
 62
     7
370
     9
100
AcDbLine
 39
0.45
 10
347.4353015321934
 20
325.8866091190819
 30
0.0
 11
347.4353015321934
 21
326.066879119082
 31
0.0
1001
AUSTER_ANSICHT
1002
{
1000
Det03
1002
}
1001
AUSTER_FOLIE
1002
{
1000
NSB00753_S0
1002
}
  0
LINE
  5
3226
330
720
100
AcDbEntity
  8
10000_FRONT
  6
SHORT_DASH
 62
     7
370
     9
100
AcDbLine
 39
0.45
 10
347.4353015321934
 20
327.455759119082
 30
0.0
 11
347.4353015321934
 21
327.2754891190819
 31
0.0
1001
AUSTER_ANSICHT
1002
{
1000
Det03
1002
}
1001
AUSTER_FOLIE
1002
{
1000
NSB00753_S0
1002
}
  0
LINE
  5
3227
330
720
100
AcDbEntity
  8
10000_FRONT
  6
SHORT_DASH
 62
     7
370
     9
100
AcDbLine
 39
0.45
 10
346.4053015321934
 20
325.8866091190819
 30
0.0
 11
346.4053015321934
 21
324.8943091190819
 31
0.0
1001
AUSTER_ANSICHT
1002
{
1000
Det03
1002
}
1001
AUSTER_FOLIE
1002
{
1000
NSB00753_S0
1002
}
  0
LINE
  5
3228
330
720
100
AcDbEntity
  8
10000_FRONT
  6
SHORT_DASH
 62
     7
370
     9
100
AcDbLine
 39
0.45
 10
347.4353015321934
 20
324.8943091190819
 30
0.0
 11
347.4353015321934
 21
325.8866091190819
 31
0.0
1001
AUSTER_ANSICHT
1002
{
1000
Det03
1002
}
1001
AUSTER_FOLIE
1002
{
1000
NSB00753_S0
1002
}
  0
LINE
  5
3229
330
720
100
AcDbEntity
  8
10000_FRONT
  6
SHORT_DASH
 62
     7
370
     9
100
AcDbLine
 39
0.45
 10
346.4053015321934
 20
327.2754891190819
 30
0.0
 11
344.1346015321934
 21
327.2754891190819
 31
0.0
1001
AUSTER_ANSICHT
1002
{
1000
Det03
1002
}
1001
AUSTER_FOLIE
1002
{
1000
NSB00753_S0
1002
}
  0
LINE
  5
322A
330
720
100
AcDbEntity
  8
10000_FRONT
  6
SHORT_DASH
 62
     7
370
     9
100
AcDbLine
 39
0.45
 10
349.7060015321934
 20
327.2754891190819
 30
0.0
 11
347.4353015321934
 21
327.2754891190819
 31
0.0
1001
AUSTER_ANSICHT
1002
{
1000
Det03
1002
}
1001
AUSTER_FOLIE
1002
{
1000
NSB00753_S0
1002
}
  0
LINE
  5
322B
330
720
100
AcDbEntity
  8
10000_FRONT
  6
SHORT_DASH
 62
     7
370
     9
100
AcDbLine
 39
0.45
 10
347.4353015321934
 20
326.066879119082
 30
0.0
 11
349.7060015321934
 21
326.066879119082
 31
0.0
1001
AUSTER_ANSICHT
1002
{
1000
Det03
1002
}
1001
AUSTER_FOLIE
1002
{
1000
NSB00753_S0
1002
}
  0
LINE
  5
322C
330
720
100
AcDbEntity
  8
10000_FRONT
  6
SHORT_DASH
 62
     7
370
     9
100
AcDbLine
 39
0.45
 10
344.1346015321934
 20
326.066879119082
 30
0.0
 11
346.4053015321934
 21
326.066879119082
 31
0.0
1001
AUSTER_ANSICHT
1002
{
1000
Det03
1002
}
1001
AUSTER_FOLIE
1002
{
1000
NSB00753_S0
1002
}
  0
LINE
  5
322D
330
720
100
AcDbEntity
  8
10000_FRONT
  6
SHORT_DASH
 62
     7
370
     9
100
AcDbLine
 39
0.45
 10
375.4353015321934
 20
395.991949119082
 30
0.0
 11
375.4353015321934
 21
395.8116791190819
 31
0.0
1001
AUSTER_ANSICHT
1002
{
1000
Det03
1002
}
1001
AUSTER_FOLIE
1002
{
1000
NSB00753_S0
1002
}
  0
LINE
  5
322E
330
720
100
AcDbEntity
  8
10000_FRONT
  6
SHORT_DASH
 62
     7
370
     9
100
AcDbLine
 39
0.45
 10
375.4353015321934
 20
394.422799119082
 30
0.0
 11
375.4353015321934
 21
394.6030691190819
 31
0.0
1001
AUSTER_ANSICHT
1002
{
1000
Det03
1002
}
1001
AUSTER_FOLIE
1002
{
1000
NSB00753_S0
1002
}
  0
LINE
  5
322F
330
720
100
AcDbEntity
  8
10000_FRONT
  6
SHORT_DASH
 62
     7
370
     9
100
AcDbLine
 39
0.45
 10
374.4053015321934
 20
395.991949119082
 30
0.0
 11
374.4053015321934
 21
395.8116791190819
 31
0.0
1001
AUSTER_ANSICHT
1002
{
1000
Det03
1002
}
1001
AUSTER_FOLIE
1002
{
1000
NSB00753_S0
1002
}
  0
LINE
  5
3230
330
720
100
AcDbEntity
  8
10000_FRONT
  6
SHORT_DASH
 62
     7
370
     9
100
AcDbLine
 39
0.45
 10
374.4053015321934
 20
394.422799119082
 30
0.0
 11
374.4053015321934
 21
394.6030691190819
 31
0.0
1001
AUSTER_ANSICHT
1002
{
1000
Det03
1002
}
1001
AUSTER_FOLIE
1002
{
1000
NSB00753_S0
1002
}
  0
LINE
  5
3231
330
720
100
AcDbEntity
  8
10000_FRONT
  6
SHORT_DASH
 62
     7
370
     9
100
AcDbLine
 39
0.45
 10
375.4353015321934
 20
395.991949119082
 30
0.0
 11
375.4353015321934
 21
396.9842491190819
 31
0.0
1001
AUSTER_ANSICHT
1002
{
1000
Det03
1002
}
1001
AUSTER_FOLIE
1002
{
1000
NSB00753_S0
1002
}
  0
LINE
  5
3232
330
720
100
AcDbEntity
  8
10000_FRONT
  6
SHORT_DASH
 62
     7
370
     9
100
AcDbLine
 39
0.45
 10
374.4053015321934
 20
396.9842491190819
 30
0.0
 11
374.4053015321934
 21
395.991949119082
 31
0.0
1001
AUSTER_ANSICHT
1002
{
1000
Det03
1002
}
1001
AUSTER_FOLIE
1002
{
1000
NSB00753_S0
1002
}
  0
LINE
  5
3233
330
720
100
AcDbEntity
  8
10000_FRONT
  6
SHORT_DASH
 62
     7
370
     9
100
AcDbLine
 39
0.45
 10
375.4353015321934
 20
394.6030691190819
 30
0.0
 11
377.7060015321934
 21
394.6030691190819
 31
0.0
1001
AUSTER_ANSICHT
1002
{
1000
Det03
1002
}
1001
AUSTER_FOLIE
1002
{
1000
NSB00753_S0
1002
}
  0
LINE
  5
3234
330
720
100
AcDbEntity
  8
10000_FRONT
  6
SHORT_DASH
 62
     7
370
     9
100
AcDbLine
 39
0.45
 10
372.1346015321934
 20
394.6030691190819
 30
0.0
 11
374.4053015321934
 21
394.6030691190819
 31
0.0
1001
AUSTER_ANSICHT
1002
{
1000
Det03
1002
}
1001
AUSTER_FOLIE
1002
{
1000
NSB00753_S0
1002
}
  0
LINE
  5
3235
330
720
100
AcDbEntity
  8
10000_FRONT
  6
SHORT_DASH
 62
     7
370
     9
100
AcDbLine
 39
0.45
 10
374.4053015321934
 20
395.8116791190819
 30
0.0
 11
372.1346015321934
 21
395.8116791190819
 31
0.0
1001
AUSTER_ANSICHT
1002
{
1000
Det03
1002
}
1001
AUSTER_FOLIE
1002
{
1000
NSB00753_S0
1002
}
  0
LINE
  5
3236
330
720
100
AcDbEntity
  8
10000_FRONT
  6
SHORT_DASH
 62
     7
370
     9
100
AcDbLine
 39
0.45
 10
377.7060015321934
 20
395.8116791190819
 30
0.0
 11
375.4353015321934
 21
395.8116791190819
 31
0.0
1001
AUSTER_ANSICHT
1002
{
1000
Det03
1002
}
1001
AUSTER_FOLIE
1002
{
1000
NSB00753_S0
1002
}
  0
LINE
  5
3237
330
720
100
AcDbEntity
  8
10000_FRONT
  6
SHORT_DASH
 62
     7
370
     9
100
AcDbLine
 39
0.45
 10
346.4053015321934
 20
395.991949119082
 30
0.0
 11
346.4053015321934
 21
395.8116791190819
 31
0.0
1001
AUSTER_ANSICHT
1002
{
1000
Det03
1002
}
1001
AUSTER_FOLIE
1002
{
1000
NSB00753_S0
1002
}
  0
LINE
  5
3238
330
720
100
AcDbEntity
  8
10000_FRONT
  6
SHORT_DASH
 62
     7
370
     9
100
AcDbLine
 39
0.45
 10
346.4053015321934
 20
394.422799119082
 30
0.0
 11
346.4053015321934
 21
394.6030691190819
 31
0.0
1001
AUSTER_ANSICHT
1002
{
1000
Det03
1002
}
1001
AUSTER_FOLIE
1002
{
1000
NSB00753_S0
1002
}
  0
LINE
  5
3239
330
720
100
AcDbEntity
  8
10000_FRONT
  6
SHORT_DASH
 62
     7
370
     9
100
AcDbLine
 39
0.45
 10
347.4353015321934
 20
395.991949119082
 30
0.0
 11
347.4353015321934
 21
395.8116791190819
 31
0.0
1001
AUSTER_ANSICHT
1002
{
1000
Det03
1002
}
1001
AUSTER_FOLIE
1002
{
1000
NSB00753_S0
1002
}
  0
LINE
  5
323A
330
720
100
AcDbEntity
  8
10000_FRONT
  6
SHORT_DASH
 62
     7
370
     9
100
AcDbLine
 39
0.45
 10
347.4353015321934
 20
394.422799119082
 30
0.0
 11
347.4353015321934
 21
394.6030691190819
 31
0.0
1001
AUSTER_ANSICHT
1002
{
1000
Det03
1002
}
1001
AUSTER_FOLIE
1002
{
1000
NSB00753_S0
1002
}
  0
LINE
  5
323B
330
720
100
AcDbEntity
  8
10000_FRONT
  6
SHORT_DASH
 62
     7
370
     9
100
AcDbLine
 39
0.45
 10
346.4053015321934
 20
395.991949119082
 30
0.0
 11
346.4053015321934
 21
396.9842491190819
 31
0.0
1001
AUSTER_ANSICHT
1002
{
1000
Det03
1002
}
1001
AUSTER_FOLIE
1002
{
1000
NSB00753_S0
1002
}
  0
LINE
  5
323C
330
720
100
AcDbEntity
  8
10000_FRONT
  6
SHORT_DASH
 62
     7
370
     9
100
AcDbLine
 39
0.45
 10
347.4353015321934
 20
396.9842491190819
 30
0.0
 11
347.4353015321934
 21
395.991949119082
 31
0.0
1001
AUSTER_ANSICHT
1002
{
1000
Det03
1002
}
1001
AUSTER_FOLIE
1002
{
1000
NSB00753_S0
1002
}
  0
LINE
  5
323D
330
720
100
AcDbEntity
  8
10000_FRONT
  6
SHORT_DASH
 62
     7
370
     9
100
AcDbLine
 39
0.45
 10
346.4053015321934
 20
394.6030691190819
 30
0.0
 11
344.1346015321934
 21
394.6030691190819
 31
0.0
1001
AUSTER_ANSICHT
1002
{
1000
Det03
1002
}
1001
AUSTER_FOLIE
1002
{
1000
NSB00753_S0
1002
}
  0
LINE
  5
323E
330
720
100
AcDbEntity
  8
10000_FRONT
  6
SHORT_DASH
 62
     7
370
     9
100
AcDbLine
 39
0.45
 10
349.7060015321934
 20
394.6030691190819
 30
0.0
 11
347.4353015321934
 21
394.6030691190819
 31
0.0
1001
AUSTER_ANSICHT
1002
{
1000
Det03
1002
}
1001
AUSTER_FOLIE
1002
{
1000
NSB00753_S0
1002
}
  0
LINE
  5
323F
330
720
100
AcDbEntity
  8
10000_FRONT
  6
SHORT_DASH
 62
     7
370
     9
100
AcDbLine
 39
0.45
 10
347.4353015321934
 20
395.8116791190819
 30
0.0
 11
349.7060015321934
 21
395.8116791190819
 31
0.0
1001
AUSTER_ANSICHT
1002
{
1000
Det03
1002
}
1001
AUSTER_FOLIE
1002
{
1000
NSB00753_S0
1002
}
  0
LINE
  5
3240
330
720
100
AcDbEntity
  8
10000_FRONT
  6
SHORT_DASH
 62
     7
370
     9
100
AcDbLine
 39
0.45
 10
344.1346015321934
 20
395.8116791190819
 30
0.0
 11
346.4053015321934
 21
395.8116791190819
 31
0.0
1001
AUSTER_ANSICHT
1002
{
1000
Det03
1002
}
1001
AUSTER_FOLIE
1002
{
1000
NSB00753_S0
1002
}
  0
LINE
  5
324D
330
720
100
AcDbEntity
  8
10000_FRONT
  6
SHORT_DASH
 62
     7
370
     9
100
AcDbLine
 39
0.45
 10
360.4025015321933
 20
385.7238591190819
 30
0.0
 11
360.4025015321933
 21
385.5435891190819
 31
0.0
1001
AUSTER_ANSICHT
1002
{
1000
Det03
1002
}
1001
AUSTER_FOLIE
1002
{
1000
NSB00753_S0
1002
}
  0
LINE
  5
324E
330
720
100
AcDbEntity
  8
10000_FRONT
  6
SHORT_DASH
 62
     7
370
     9
100
AcDbLine
 39
0.45
 10
360.4025015321933
 20
384.1547091190819
 30
0.0
 11
360.4025015321933
 21
384.3349691190819
 31
0.0
1001
AUSTER_ANSICHT
1002
{
1000
Det03
1002
}
1001
AUSTER_FOLIE
1002
{
1000
NSB00753_S0
1002
}
  0
LINE
  5
324F
330
720
100
AcDbEntity
  8
10000_FRONT
  6
SHORT_DASH
 62
     7
370
     9
100
AcDbLine
 39
0.45
 10
361.4325015321934
 20
385.7238591190819
 30
0.0
 11
361.4325015321934
 21
385.5435891190819
 31
0.0
1001
AUSTER_ANSICHT
1002
{
1000
Det03
1002
}
1001
AUSTER_FOLIE
1002
{
1000
NSB00753_S0
1002
}
  0
LINE
  5
3250
330
720
100
AcDbEntity
  8
10000_FRONT
  6
SHORT_DASH
 62
     7
370
     9
100
AcDbLine
 39
0.45
 10
361.4325015321934
 20
384.154699119082
 30
0.0
 11
361.4325015321934
 21
384.3349691190819
 31
0.0
1001
AUSTER_ANSICHT
1002
{
1000
Det03
1002
}
1001
AUSTER_FOLIE
1002
{
1000
NSB00753_S0
1002
}
  0
LINE
  5
3251
330
720
100
AcDbEntity
  8
10000_FRONT
  6
SHORT_DASH
 62
     7
370
     9
100
AcDbLine
 39
0.45
 10
360.4025015321933
 20
385.7238591190819
 30
0.0
 11
360.4025015321933
 21
386.7161491190819
 31
0.0
1001
AUSTER_ANSICHT
1002
{
1000
Det03
1002
}
1001
AUSTER_FOLIE
1002
{
1000
NSB00753_S0
1002
}
  0
LINE
  5
3252
330
720
100
AcDbEntity
  8
10000_FRONT
  6
SHORT_DASH
 62
     7
370
     9
100
AcDbLine
 39
0.45
 10
361.4325015321934
 20
386.7161491190819
 30
0.0
 11
361.4325015321934
 21
385.723849119082
 31
0.0
1001
AUSTER_ANSICHT
1002
{
1000
Det03
1002
}
1001
AUSTER_FOLIE
1002
{
1000
NSB00753_S0
1002
}
  0
LINE
  5
3253
330
720
100
AcDbEntity
  8
10000_FRONT
  6
SHORT_DASH
 62
     7
370
     9
100
AcDbLine
 39
0.45
 10
361.4325015321934
 20
384.1547091190819
 30
0.0
 11
361.4325015321934
 21
383.1624091190819
 31
0.0
1001
AUSTER_ANSICHT
1002
{
1000
Det03
1002
}
1001
AUSTER_FOLIE
1002
{
1000
NSB00753_S0
1002
}
  0
LINE
  5
3254
330
720
100
AcDbEntity
  8
10000_FRONT
  6
SHORT_DASH
 62
     7
370
     9
100
AcDbLine
 39
0.45
 10
360.4025015321933
 20
383.1624091190819
 30
0.0
 11
360.4025015321933
 21
384.1547091190819
 31
0.0
1001
AUSTER_ANSICHT
1002
{
1000
Det03
1002
}
1001
AUSTER_FOLIE
1002
{
1000
NSB00753_S0
1002
}
  0
LINE
  5
3255
330
720
100
AcDbEntity
  8
10000_FRONT
  6
SHORT_DASH
 62
     7
370
     9
100
AcDbLine
 39
0.45
 10
360.4025015321933
 20
384.3349691190819
 30
0.0
 11
358.1318015321934
 21
384.3349691190819
 31
0.0
1001
AUSTER_ANSICHT
1002
{
1000
Det03
1002
}
1001
AUSTER_FOLIE
1002
{
1000
NSB00753_S0
1002
}
  0
LINE
  5
3256
330
720
100
AcDbEntity
  8
10000_FRONT
  6
SHORT_DASH
 62
     7
370
     9
100
AcDbLine
 39
0.45
 10
363.7032015321933
 20
384.3349691190819
 30
0.0
 11
361.4325015321934
 21
384.3349691190819
 31
0.0
1001
AUSTER_ANSICHT
1002
{
1000
Det03
1002
}
1001
AUSTER_FOLIE
1002
{
1000
NSB00753_S0
1002
}
  0
LINE
  5
3257
330
720
100
AcDbEntity
  8
10000_FRONT
  6
SHORT_DASH
 62
     7
370
     9
100
AcDbLine
 39
0.45
 10
361.4325015321934
 20
385.5435891190819
 30
0.0
 11
363.7032015321933
 21
385.5435891190819
 31
0.0
1001
AUSTER_ANSICHT
1002
{
1000
Det03
1002
}
1001
AUSTER_FOLIE
1002
{
1000
NSB00753_S0
1002
}
  0
LINE
  5
3258
330
720
100
AcDbEntity
  8
10000_FRONT
  6
SHORT_DASH
 62
     7
370
     9
100
AcDbLine
 39
0.45
 10
358.1318015321934
 20
385.5435891190819
 30
0.0
 11
360.4025015321933
 21
385.5435891190819
 31
0.0
1001
AUSTER_ANSICHT
1002
{
1000
Det03
1002
}
1001
AUSTER_FOLIE
1002
{
1000
NSB00753_S0
1002
}
  0
LINE
  5
3259
330
720
100
AcDbEntity
  8
10000_FRONT
  6
SHORT_DASH
 62
     7
370
     9
100
AcDbLine
 39
0.45
 10
346.0025015321934
 20
385.7238591190819
 30
0.0
 11
346.0025015321934
 21
385.5435891190819
 31
0.0
1001
AUSTER_ANSICHT
1002
{
1000
Det03
1002
}
1001
AUSTER_FOLIE
1002
{
1000
NSB00753_S0
1002
}
  0
LINE
  5
325A
330
720
100
AcDbEntity
  8
10000_FRONT
  6
SHORT_DASH
 62
     7
370
     9
100
AcDbLine
 39
0.45
 10
346.0025015321934
 20
384.1547091190819
 30
0.0
 11
346.0025015321934
 21
384.3349691190819
 31
0.0
1001
AUSTER_ANSICHT
1002
{
1000
Det03
1002
}
1001
AUSTER_FOLIE
1002
{
1000
NSB00753_S0
1002
}
  0
LINE
  5
325B
330
720
100
AcDbEntity
  8
10000_FRONT
  6
SHORT_DASH
 62
     7
370
     9
100
AcDbLine
 39
0.45
 10
347.0325015321933
 20
385.7238591190819
 30
0.0
 11
347.0325015321933
 21
385.5435891190819
 31
0.0
1001
AUSTER_ANSICHT
1002
{
1000
Det03
1002
}
1001
AUSTER_FOLIE
1002
{
1000
NSB00753_S0
1002
}
  0
LINE
  5
325C
330
720
100
AcDbEntity
  8
10000_FRONT
  6
SHORT_DASH
 62
     7
370
     9
100
AcDbLine
 39
0.45
 10
347.0325015321933
 20
384.154699119082
 30
0.0
 11
347.0325015321933
 21
384.3349691190819
 31
0.0
1001
AUSTER_ANSICHT
1002
{
1000
Det03
1002
}
1001
AUSTER_FOLIE
1002
{
1000
NSB00753_S0
1002
}
  0
LINE
  5
325D
330
720
100
AcDbEntity
  8
10000_FRONT
  6
SHORT_DASH
 62
     7
370
     9
100
AcDbLine
 39
0.45
 10
346.0025015321934
 20
385.7238591190819
 30
0.0
 11
346.0025015321934
 21
386.7161491190819
 31
0.0
1001
AUSTER_ANSICHT
1002
{
1000
Det03
1002
}
1001
AUSTER_FOLIE
1002
{
1000
NSB00753_S0
1002
}
  0
LINE
  5
325E
330
720
100
AcDbEntity
  8
10000_FRONT
  6
SHORT_DASH
 62
     7
370
     9
100
AcDbLine
 39
0.45
 10
347.0325015321933
 20
386.7161491190819
 30
0.0
 11
347.0325015321933
 21
385.723849119082
 31
0.0
1001
AUSTER_ANSICHT
1002
{
1000
Det03
1002
}
1001
AUSTER_FOLIE
1002
{
1000
NSB00753_S0
1002
}
  0
LINE
  5
325F
330
720
100
AcDbEntity
  8
10000_FRONT
  6
SHORT_DASH
 62
     7
370
     9
100
AcDbLine
 39
0.45
 10
347.0325015321933
 20
384.1547091190819
 30
0.0
 11
347.0325015321933
 21
383.1624091190819
 31
0.0
1001
AUSTER_ANSICHT
1002
{
1000
Det03
1002
}
1001
AUSTER_FOLIE
1002
{
1000
NSB00753_S0
1002
}
  0
LINE
  5
3260
330
720
100
AcDbEntity
  8
10000_FRONT
  6
SHORT_DASH
 62
     7
370
     9
100
AcDbLine
 39
0.45
 10
346.0025015321934
 20
383.1624091190819
 30
0.0
 11
346.0025015321934
 21
384.1547091190819
 31
0.0
1001
AUSTER_ANSICHT
1002
{
1000
Det03
1002
}
1001
AUSTER_FOLIE
1002
{
1000
NSB00753_S0
1002
}
  0
LINE
  5
3261
330
720
100
AcDbEntity
  8
10000_FRONT
  6
SHORT_DASH
 62
     7
370
     9
100
AcDbLine
 39
0.45
 10
346.0025015321934
 20
384.3349691190819
 30
0.0
 11
343.7318015321934
 21
384.3349691190819
 31
0.0
1001
AUSTER_ANSICHT
1002
{
1000
Det03
1002
}
1001
AUSTER_FOLIE
1002
{
1000
NSB00753_S0
1002
}
  0
LINE
  5
3262
330
720
100
AcDbEntity
  8
10000_FRONT
  6
SHORT_DASH
 62
     7
370
     9
100
AcDbLine
 39
0.45
 10
349.3032015321934
 20
384.3349691190819
 30
0.0
 11
347.0325015321933
 21
384.3349691190819
 31
0.0
1001
AUSTER_ANSICHT
1002
{
1000
Det03
1002
}
1001
AUSTER_FOLIE
1002
{
1000
NSB00753_S0
1002
}
  0
LINE
  5
3263
330
720
100
AcDbEntity
  8
10000_FRONT
  6
SHORT_DASH
 62
     7
370
     9
100
AcDbLine
 39
0.45
 10
347.0325015321933
 20
385.5435891190819
 30
0.0
 11
349.3032015321934
 21
385.5435891190819
 31
0.0
1001
AUSTER_ANSICHT
1002
{
1000
Det03
1002
}
1001
AUSTER_FOLIE
1002
{
1000
NSB00753_S0
1002
}
  0
LINE
  5
3264
330
720
100
AcDbEntity
  8
10000_FRONT
  6
SHORT_DASH
 62
     7
370
     9
100
AcDbLine
 39
0.45
 10
343.7318015321934
 20
385.5435891190819
 30
0.0
 11
346.0025015321934
 21
385.5435891190819
 31
0.0
1001
AUSTER_ANSICHT
1002
{
1000
Det03
1002
}
1001
AUSTER_FOLIE
1002
{
1000
NSB00753_S0
1002
}
  0
LINE
  5
3265
330
720
100
AcDbEntity
  8
10000_FRONT
  6
SHORT_DASH
 62
     7
370
     9
100
AcDbLine
 39
0.45
 10
374.8025015321933
 20
336.154699119082
 30
0.0
 11
374.8025015321933
 21
336.3349691190819
 31
0.0
1001
AUSTER_ANSICHT
1002
{
1000
Det03
1002
}
1001
AUSTER_FOLIE
1002
{
1000
NSB00753_S0
1002
}
  0
LINE
  5
3266
330
720
100
AcDbEntity
  8
10000_FRONT
  6
SHORT_DASH
 62
     7
370
     9
100
AcDbLine
 39
0.45
 10
374.8025015321933
 20
337.723849119082
 30
0.0
 11
374.8025015321933
 21
337.5435891190819
 31
0.0
1001
AUSTER_ANSICHT
1002
{
1000
Det03
1002
}
1001
AUSTER_FOLIE
1002
{
1000
NSB00753_S0
1002
}
  0
LINE
  5
3267
330
720
100
AcDbEntity
  8
10000_FRONT
  6
SHORT_DASH
 62
     7
370
     9
100
AcDbLine
 39
0.45
 10
375.8325015321934
 20
336.154699119082
 30
0.0
 11
375.8325015321934
 21
336.3349691190819
 31
0.0
1001
AUSTER_ANSICHT
1002
{
1000
Det03
1002
}
1001
AUSTER_FOLIE
1002
{
1000
NSB00753_S0
1002
}
  0
LINE
  5
3268
330
720
100
AcDbEntity
  8
10000_FRONT
  6
SHORT_DASH
 62
     7
370
     9
100
AcDbLine
 39
0.45
 10
375.8325015321934
 20
337.723859119082
 30
0.0
 11
375.8325015321934
 21
337.5435891190819
 31
0.0
1001
AUSTER_ANSICHT
1002
{
1000
Det03
1002
}
1001
AUSTER_FOLIE
1002
{
1000
NSB00753_S0
1002
}
  0
LINE
  5
3269
330
720
100
AcDbEntity
  8
10000_FRONT
  6
SHORT_DASH
 62
     7
370
     9
100
AcDbLine
 39
0.45
 10
374.8025015321933
 20
336.154699119082
 30
0.0
 11
374.8025015321933
 21
335.1624091190819
 31
0.0
1001
AUSTER_ANSICHT
1002
{
1000
Det03
1002
}
1001
AUSTER_FOLIE
1002
{
1000
NSB00753_S0
1002
}
  0
LINE
  5
326A
330
720
100
AcDbEntity
  8
10000_FRONT
  6
SHORT_DASH
 62
     7
370
     9
100
AcDbLine
 39
0.45
 10
375.8325015321934
 20
335.1624091190819
 30
0.0
 11
375.8325015321934
 21
336.1547091190819
 31
0.0
1001
AUSTER_ANSICHT
1002
{
1000
Det03
1002
}
1001
AUSTER_FOLIE
1002
{
1000
NSB00753_S0
1002
}
  0
LINE
  5
326B
330
720
100
AcDbEntity
  8
10000_FRONT
  6
SHORT_DASH
 62
     7
370
     9
100
AcDbLine
 39
0.45
 10
375.8325015321934
 20
337.723849119082
 30
0.0
 11
375.8325015321934
 21
338.7161491190819
 31
0.0
1001
AUSTER_ANSICHT
1002
{
1000
Det03
1002
}
1001
AUSTER_FOLIE
1002
{
1000
NSB00753_S0
1002
}
  0
LINE
  5
326C
330
720
100
AcDbEntity
  8
10000_FRONT
  6
SHORT_DASH
 62
     7
370
     9
100
AcDbLine
 39
0.45
 10
374.8025015321933
 20
338.7161491190819
 30
0.0
 11
374.8025015321933
 21
337.723849119082
 31
0.0
1001
AUSTER_ANSICHT
1002
{
1000
Det03
1002
}
1001
AUSTER_FOLIE
1002
{
1000
NSB00753_S0
1002
}
  0
LINE
  5
326D
330
720
100
AcDbEntity
  8
10000_FRONT
  6
SHORT_DASH
 62
     7
370
     9
100
AcDbLine
 39
0.45
 10
374.8025015321933
 20
337.5435891190819
 30
0.0
 11
372.5318015321934
 21
337.5435891190819
 31
0.0
1001
AUSTER_ANSICHT
1002
{
1000
Det03
1002
}
1001
AUSTER_FOLIE
1002
{
1000
NSB00753_S0
1002
}
  0
LINE
  5
326E
330
720
100
AcDbEntity
  8
10000_FRONT
  6
SHORT_DASH
 62
     7
370
     9
100
AcDbLine
 39
0.45
 10
378.1032015321934
 20
337.5435891190819
 30
0.0
 11
375.8325015321934
 21
337.5435891190819
 31
0.0
1001
AUSTER_ANSICHT
1002
{
1000
Det03
1002
}
1001
AUSTER_FOLIE
1002
{
1000
NSB00753_S0
1002
}
  0
LINE
  5
326F
330
720
100
AcDbEntity
  8
10000_FRONT
  6
SHORT_DASH
 62
     7
370
     9
100
AcDbLine
 39
0.45
 10
375.8325015321934
 20
336.3349691190819
 30
0.0
 11
378.1032015321934
 21
336.3349691190819
 31
0.0
1001
AUSTER_ANSICHT
1002
{
1000
Det03
1002
}
1001
AUSTER_FOLIE
1002
{
1000
NSB00753_S0
1002
}
  0
LINE
  5
3270
330
720
100
AcDbEntity
  8
10000_FRONT
  6
SHORT_DASH
 62
     7
370
     9
100
AcDbLine
 39
0.45
 10
372.5318015321934
 20
336.3349691190819
 30
0.0
 11
374.8025015321933
 21
336.3349691190819
 31
0.0
1001
AUSTER_ANSICHT
1002
{
1000
Det03
1002
}
1001
AUSTER_FOLIE
1002
{
1000
NSB00753_S0
1002
}
  0
LINE
  5
3271
330
720
100
AcDbEntity
  8
10000_FRONT
  6
SHORT_DASH
 62
     7
370
     9
100
AcDbLine
 39
0.45
 10
360.4025015321933
 20
336.154699119082
 30
0.0
 11
360.4025015321933
 21
336.3349691190819
 31
0.0
1001
AUSTER_ANSICHT
1002
{
1000
Det03
1002
}
1001
AUSTER_FOLIE
1002
{
1000
NSB00753_S0
1002
}
  0
LINE
  5
3272
330
720
100
AcDbEntity
  8
10000_FRONT
  6
SHORT_DASH
 62
     7
370
     9
100
AcDbLine
 39
0.45
 10
360.4025015321933
 20
337.723849119082
 30
0.0
 11
360.4025015321933
 21
337.5435891190819
 31
0.0
1001
AUSTER_ANSICHT
1002
{
1000
Det03
1002
}
1001
AUSTER_FOLIE
1002
{
1000
NSB00753_S0
1002
}
  0
LINE
  5
3273
330
720
100
AcDbEntity
  8
10000_FRONT
  6
SHORT_DASH
 62
     7
370
     9
100
AcDbLine
 39
0.45
 10
361.4325015321934
 20
336.154699119082
 30
0.0
 11
361.4325015321934
 21
336.3349691190819
 31
0.0
1001
AUSTER_ANSICHT
1002
{
1000
Det03
1002
}
1001
AUSTER_FOLIE
1002
{
1000
NSB00753_S0
1002
}
  0
LINE
  5
3274
330
720
100
AcDbEntity
  8
10000_FRONT
  6
SHORT_DASH
 62
     7
370
     9
100
AcDbLine
 39
0.45
 10
361.4325015321934
 20
337.723859119082
 30
0.0
 11
361.4325015321934
 21
337.5435891190819
 31
0.0
1001
AUSTER_ANSICHT
1002
{
1000
Det03
1002
}
1001
AUSTER_FOLIE
1002
{
1000
NSB00753_S0
1002
}
  0
LINE
  5
3275
330
720
100
AcDbEntity
  8
10000_FRONT
  6
SHORT_DASH
 62
     7
370
     9
100
AcDbLine
 39
0.45
 10
360.4025015321933
 20
336.154699119082
 30
0.0
 11
360.4025015321933
 21
335.1624091190819
 31
0.0
1001
AUSTER_ANSICHT
1002
{
1000
Det03
1002
}
1001
AUSTER_FOLIE
1002
{
1000
NSB00753_S0
1002
}
  0
LINE
  5
3276
330
720
100
AcDbEntity
  8
10000_FRONT
  6
SHORT_DASH
 62
     7
370
     9
100
AcDbLine
 39
0.45
 10
361.4325015321934
 20
337.723849119082
 30
0.0
 11
361.4325015321934
 21
338.7161491190819
 31
0.0
1001
AUSTER_ANSICHT
1002
{
1000
Det03
1002
}
1001
AUSTER_FOLIE
1002
{
1000
NSB00753_S0
1002
}
  0
LINE
  5
3277
330
720
100
AcDbEntity
  8
10000_FRONT
  6
SHORT_DASH
 62
     7
370
     9
100
AcDbLine
 39
0.45
 10
360.4025015321933
 20
338.7161491190819
 30
0.0
 11
360.4025015321933
 21
337.723849119082
 31
0.0
1001
AUSTER_ANSICHT
1002
{
1000
Det03
1002
}
1001
AUSTER_FOLIE
1002
{
1000
NSB00753_S0
1002
}
  0
LINE
  5
3278
330
720
100
AcDbEntity
  8
10000_FRONT
  6
SHORT_DASH
 62
     7
370
     9
100
AcDbLine
 39
0.45
 10
360.4025015321933
 20
337.5435891190819
 30
0.0
 11
358.1318015321934
 21
337.5435891190819
 31
0.0
1001
AUSTER_ANSICHT
1002
{
1000
Det03
1002
}
1001
AUSTER_FOLIE
1002
{
1000
NSB00753_S0
1002
}
  0
LINE
  5
3279
330
720
100
AcDbEntity
  8
10000_FRONT
  6
SHORT_DASH
 62
     7
370
     9
100
AcDbLine
 39
0.45
 10
363.7032015321933
 20
337.5435891190819
 30
0.0
 11
361.4325015321934
 21
337.5435891190819
 31
0.0
1001
AUSTER_ANSICHT
1002
{
1000
Det03
1002
}
1001
AUSTER_FOLIE
1002
{
1000
NSB00753_S0
1002
}
  0
LINE
  5
327A
330
720
100
AcDbEntity
  8
10000_FRONT
  6
SHORT_DASH
 62
     7
370
     9
100
AcDbLine
 39
0.45
 10
361.4325015321934
 20
336.3349691190819
 30
0.0
 11
363.7032015321933
 21
336.3349691190819
 31
0.0
1001
AUSTER_ANSICHT
1002
{
1000
Det03
1002
}
1001
AUSTER_FOLIE
1002
{
1000
NSB00753_S0
1002
}
  0
LINE
  5
327B
330
720
100
AcDbEntity
  8
10000_FRONT
  6
SHORT_DASH
 62
     7
370
     9
100
AcDbLine
 39
0.45
 10
358.1318015321934
 20
336.3349691190819
 30
0.0
 11
360.4025015321933
 21
336.3349691190819
 31
0.0
1001
AUSTER_ANSICHT
1002
{
1000
Det03
1002
}
1001
AUSTER_FOLIE
1002
{
1000
NSB00753_S0
1002
}
  0
LINE
  5
327C
330
720
100
AcDbEntity
  8
10000_FRONT
  6
SHORT_DASH
 62
     7
370
     9
100
AcDbLine
 39
0.45
 10
346.0025015321934
 20
336.154699119082
 30
0.0
 11
346.0025015321934
 21
336.3349691190819
 31
0.0
1001
AUSTER_ANSICHT
1002
{
1000
Det03
1002
}
1001
AUSTER_FOLIE
1002
{
1000
NSB00753_S0
1002
}
  0
LINE
  5
327D
330
720
100
AcDbEntity
  8
10000_FRONT
  6
SHORT_DASH
 62
     7
370
     9
100
AcDbLine
 39
0.45
 10
346.0025015321934
 20
337.723849119082
 30
0.0
 11
346.0025015321934
 21
337.5435891190819
 31
0.0
1001
AUSTER_ANSICHT
1002
{
1000
Det03
1002
}
1001
AUSTER_FOLIE
1002
{
1000
NSB00753_S0
1002
}
  0
LINE
  5
327E
330
720
100
AcDbEntity
  8
10000_FRONT
  6
SHORT_DASH
 62
     7
370
     9
100
AcDbLine
 39
0.45
 10
347.0325015321933
 20
336.154699119082
 30
0.0
 11
347.0325015321933
 21
336.3349691190819
 31
0.0
1001
AUSTER_ANSICHT
1002
{
1000
Det03
1002
}
1001
AUSTER_FOLIE
1002
{
1000
NSB00753_S0
1002
}
  0
LINE
  5
327F
330
720
100
AcDbEntity
  8
10000_FRONT
  6
SHORT_DASH
 62
     7
370
     9
100
AcDbLine
 39
0.45
 10
347.0325015321933
 20
337.723859119082
 30
0.0
 11
347.0325015321933
 21
337.5435891190819
 31
0.0
1001
AUSTER_ANSICHT
1002
{
1000
Det03
1002
}
1001
AUSTER_FOLIE
1002
{
1000
NSB00753_S0
1002
}
  0
LINE
  5
3280
330
720
100
AcDbEntity
  8
10000_FRONT
  6
SHORT_DASH
 62
     7
370
     9
100
AcDbLine
 39
0.45
 10
346.0025015321934
 20
336.154699119082
 30
0.0
 11
346.0025015321934
 21
335.1624091190819
 31
0.0
1001
AUSTER_ANSICHT
1002
{
1000
Det03
1002
}
1001
AUSTER_FOLIE
1002
{
1000
NSB00753_S0
1002
}
  0
LINE
  5
3281
330
720
100
AcDbEntity
  8
10000_FRONT
  6
SHORT_DASH
 62
     7
370
     9
100
AcDbLine
 39
0.45
 10
347.0325015321933
 20
335.1624091190819
 30
0.0
 11
347.0325015321933
 21
336.1547091190819
 31
0.0
1001
AUSTER_ANSICHT
1002
{
1000
Det03
1002
}
1001
AUSTER_FOLIE
1002
{
1000
NSB00753_S0
1002
}
  0
LINE
  5
3282
330
720
100
AcDbEntity
  8
10000_FRONT
  6
SHORT_DASH
 62
     7
370
     9
100
AcDbLine
 39
0.45
 10
347.0325015321933
 20
337.723849119082
 30
0.0
 11
347.0325015321933
 21
338.7161491190819
 31
0.0
1001
AUSTER_ANSICHT
1002
{
1000
Det03
1002
}
1001
AUSTER_FOLIE
1002
{
1000
NSB00753_S0
1002
}
  0
LINE
  5
3283
330
720
100
AcDbEntity
  8
10000_FRONT
  6
SHORT_DASH
 62
     7
370
     9
100
AcDbLine
 39
0.45
 10
346.0025015321934
 20
338.7161491190819
 30
0.0
 11
346.0025015321934
 21
337.723849119082
 31
0.0
1001
AUSTER_ANSICHT
1002
{
1000
Det03
1002
}
1001
AUSTER_FOLIE
1002
{
1000
NSB00753_S0
1002
}
  0
LINE
  5
3284
330
720
100
AcDbEntity
  8
10000_FRONT
  6
SHORT_DASH
 62
     7
370
     9
100
AcDbLine
 39
0.45
 10
346.0025015321934
 20
337.5435891190819
 30
0.0
 11
343.7318015321934
 21
337.5435891190819
 31
0.0
1001
AUSTER_ANSICHT
1002
{
1000
Det03
1002
}
1001
AUSTER_FOLIE
1002
{
1000
NSB00753_S0
1002
}
  0
LINE
  5
3285
330
720
100
AcDbEntity
  8
10000_FRONT
  6
SHORT_DASH
 62
     7
370
     9
100
AcDbLine
 39
0.45
 10
349.3032015321934
 20
337.5435891190819
 30
0.0
 11
347.0325015321933
 21
337.5435891190819
 31
0.0
1001
AUSTER_ANSICHT
1002
{
1000
Det03
1002
}
1001
AUSTER_FOLIE
1002
{
1000
NSB00753_S0
1002
}
  0
LINE
  5
3286
330
720
100
AcDbEntity
  8
10000_FRONT
  6
SHORT_DASH
 62
     7
370
     9
100
AcDbLine
 39
0.45
 10
347.0325015321933
 20
336.3349691190819
 30
0.0
 11
349.3032015321934
 21
336.3349691190819
 31
0.0
1001
AUSTER_ANSICHT
1002
{
1000
Det03
1002
}
1001
AUSTER_FOLIE
1002
{
1000
NSB00753_S0
1002
}
  0
LINE
  5
3287
330
720
100
AcDbEntity
  8
10000_FRONT
  6
SHORT_DASH
 62
     7
370
     9
100
AcDbLine
 39
0.45
 10
343.7318015321934
 20
336.3349691190819
 30
0.0
 11
346.0025015321934
 21
336.3349691190819
 31
0.0
1001
AUSTER_ANSICHT
1002
{
1000
Det03
1002
}
1001
AUSTER_FOLIE
1002
{
1000
NSB00753_S0
1002
}
  0
LINE
  5
3288
330
720
100
AcDbEntity
  8
10000_FRONT
  6
SHORT_DASH
 62
     7
370
     9
100
AcDbLine
 39
0.45
 10
339.9675015321934
 20
394.439279119082
 30
0.0
 11
381.8675015321934
 21
394.4391991190819
 31
0.0
1001
AUSTER_ANSICHT
1002
{
1000
Det03
1002
}
1001
AUSTER_FOLIE
1002
{
1000
NSB00753_S0
1002
}
  0
LINE
  5
32EA
330
720
100
AcDbEntity
  8
10000_FRONT
  6
SHORT_DASH
 62
     7
370
     9
100
AcDbLine
 39
0.45
 10
341.9675015321934
 20
400.9392791190819
 30
0.0
 11
351.9236597214041
 21
400.9392791190819
 31
0.0
1001
AUSTER_ANSICHT
1002
{
1000
Det03
1002
}
1001
AUSTER_FOLIE
1002
{
1000
NSB00753_S0
1002
}
  0
LINE
  5
32EC
330
720
100
AcDbEntity
  8
10000_FRONT
  6
SHORT_DASH
 62
     7
370
     9
100
AcDbLine
 39
0.45
 10
380.9199015321934
 20
396.939279119082
 30
0.0
 11
380.9198967587743
 21
394.4392009283511
 31
0.0
1001
AUSTER_ANSICHT
1002
{
1000
Det03
1002
}
1001
AUSTER_FOLIE
1002
{
1000
NSB00753_S0
1002
}
  0
LINE
  5
32ED
330
720
100
AcDbEntity
  8
10000_FRONT
  6
SHORT_DASH
 62
     7
370
     9
100
AcDbLine
 39
0.45
 10
340.9151015321934
 20
396.939279119082
 30
0.0
 11
340.9150967589203
 21
394.439277309831
 31
0.0
1001
AUSTER_ANSICHT
1002
{
1000
Det03
1002
}
1001
AUSTER_FOLIE
1002
{
1000
NSB00753_S0
1002
}
  0
LINE
  5
32EE
330
720
100
AcDbEntity
  8
10000_FRONT
  6
SHORT_DASH
 62
     7
370
     9
100
AcDbLine
 39
0.45
 10
380.9199015321934
 20
324.939279119082
 30
0.0
 11
380.9198869289718
 21
327.4393506633891
 31
0.0
1001
AUSTER_ANSICHT
1002
{
1000
Det03
1002
}
1001
AUSTER_FOLIE
1002
{
1000
NSB00753_S0
1002
}
  0
LINE
  5
32EF
330
720
100
AcDbEntity
  8
10000_FRONT
  6
SHORT_DASH
 62
     7
370
     9
100
AcDbLine
 39
0.45
 10
340.9175015321934
 20
324.939279119082
 30
0.0
 11
340.9174869303366
 21
327.4391170045106
 31
0.0
1001
AUSTER_ANSICHT
1002
{
1000
Det03
1002
}
1001
AUSTER_FOLIE
1002
{
1000
NSB00753_S0
1002
}
  0
LINE
  5
3346
330
720
100
AcDbEntity
  8
10000_FRONT
  6
SHORT_DASH
 62
     7
370
     9
100
AcDbLine
 39
0.7
 10
340.9151015321934
 20
324.939279119082
 30
0.0
 11
339.2675015321934
 21
324.939279119082
 31
0.0
1001
AUSTER_ANSICHT
1002
{
1000
Det03
1002
}
1001
AUSTER_FOLIE
1002
{
1000
NSB00753_S0
1002
}
  0
ARC
  5
3347
330
720
100
AcDbEntity
  8
10000_FRONT
  6
SHORT_DASH
 62
     7
370
     9
100
AcDbCircle
 39
0.7
 10
339.2675015321934
 20
325.7392791190819
 30
0.0
 40
0.8000000000000078
100
AcDbArc
 50
180.0
 51
270.0
1001
AUSTER_ANSICHT
1002
{
1000
Det03
1002
}
1001
AUSTER_FOLIE
1002
{
1000
NSB00753_S0
1002
}
  0
LINE
  5
3348
330
720
100
AcDbEntity
  8
10000_FRONT
  6
SHORT_DASH
 62
     7
370
     9
100
AcDbLine
 39
0.7
 10
338.4675015321934
 20
325.7392791190819
 30
0.0
 11
338.4675015321934
 21
328.939279119082
 31
0.0
1001
AUSTER_ANSICHT
1002
{
1000
Det03
1002
}
1001
AUSTER_FOLIE
1002
{
1000
NSB00753_S0
1002
}
  0
LINE
  5
3349
330
720
100
AcDbEntity
  8
10000_FRONT
  6
SHORT_DASH
 62
     7
370
     9
100
AcDbLine
 39
0.7
 10
338.4675015321934
 20
328.939279119082
 30
0.0
 11
338.4675015321934
 21
341.439279119082
 31
0.0
1001
AUSTER_ANSICHT
1002
{
1000
Det03
1002
}
1001
AUSTER_FOLIE
1002
{
1000
NSB00753_S0
1002
}
  0
LINE
  5
334A
330
720
100
AcDbEntity
  8
10000_FRONT
  6
SHORT_DASH
 62
     7
370
     9
100
AcDbLine
 39
0.7
 10
338.4675015321934
 20
341.439279119082
 30
0.0
 11
338.4675015321934
 21
380.4392791190819
 31
0.0
1001
AUSTER_ANSICHT
1002
{
1000
Det03
1002
}
1001
AUSTER_FOLIE
1002
{
1000
NSB00753_S0
1002
}
  0
LINE
  5
334B
330
720
100
AcDbEntity
  8
10000_FRONT
  6
SHORT_DASH
 62
     7
370
     9
100
AcDbLine
 39
0.7
 10
338.4675015321934
 20
380.4392791190819
 30
0.0
 11
338.4675015321934
 21
392.9392791190819
 31
0.0
1001
AUSTER_ANSICHT
1002
{
1000
Det03
1002
}
1001
AUSTER_FOLIE
1002
{
1000
NSB00753_S0
1002
}
  0
LINE
  5
334C
330
720
100
AcDbEntity
  8
10000_FRONT
  6
SHORT_DASH
 62
     7
370
     9
100
AcDbLine
 39
0.7
 10
338.4675015321934
 20
392.9392791190819
 30
0.0
 11
338.4675015321934
 21
396.139279119082
 31
0.0
1001
AUSTER_ANSICHT
1002
{
1000
Det03
1002
}
1001
AUSTER_FOLIE
1002
{
1000
NSB00753_S0
1002
}
  0
ARC
  5
334D
330
720
100
AcDbEntity
  8
10000_FRONT
  6
SHORT_DASH
 62
     7
370
     9
100
AcDbCircle
 39
0.7
 10
339.2675015321934
 20
396.139279119082
 30
0.0
 40
0.799999999999983
100
AcDbArc
 50
89.99999999999674
 51
180.0
1001
AUSTER_ANSICHT
1002
{
1000
Det03
1002
}
1001
AUSTER_FOLIE
1002
{
1000
NSB00753_S0
1002
}
  0
LINE
  5
334E
330
720
100
AcDbEntity
  8
10000_FRONT
  6
SHORT_DASH
 62
     7
370
     9
100
AcDbLine
 39
0.7
 10
339.2675015321934
 20
396.939279119082
 30
0.0
 11
340.9151015321934
 21
396.939279119082
 31
0.0
1001
AUSTER_ANSICHT
1002
{
1000
Det03
1002
}
1001
AUSTER_FOLIE
1002
{
1000
NSB00753_S0
1002
}
  0
LINE
  5
334F
330
720
100
AcDbEntity
  8
10000_FRONT
  6
SHORT_DASH
 62
     7
370
     9
100
AcDbLine
 39
0.7
 10
340.9151015321934
 20
396.939279119082
 30
0.0
 11
340.9175015321933
 21
400.639279119082
 31
0.0
1001
AUSTER_ANSICHT
1002
{
1000
Det03
1002
}
1001
AUSTER_FOLIE
1002
{
1000
NSB00753_S0
1002
}
  0
ARC
  5
3350
330
720
100
AcDbEntity
  8
10000_FRONT
  6
SHORT_DASH
 62
     7
370
     9
100
AcDbCircle
 39
0.7
 10
341.2175015321933
 20
400.639279119082
 30
0.0
 40
0.2999999999999829
100
AcDbArc
 50
89.99999999999349
 51
180.0
1001
AUSTER_ANSICHT
1002
{
1000
Det03
1002
}
1001
AUSTER_FOLIE
1002
{
1000
NSB00753_S0
1002
}
  0
LINE
  5
3351
330
720
100
AcDbEntity
  8
10000_FRONT
  6
SHORT_DASH
 62
     7
370
     9
100
AcDbLine
 39
0.7
 10
341.2175015321934
 20
400.9392791190819
 30
0.0
 11
341.9675015321934
 21
400.9392791190819
 31
0.0
1001
AUSTER_ANSICHT
1002
{
1000
Det03
1002
}
1001
AUSTER_FOLIE
1002
{
1000
NSB00753_S0
1002
}
  0
LINE
  5
3355
330
720
100
AcDbEntity
  8
10000_FRONT
  6
SHORT_DASH
 62
     7
370
     9
100
AcDbLine
 39
0.7
 10
379.9236609089198
 20
400.9393133624933
 30
0.0
 11
380.6175015321934
 21
400.9392791190819
 31
0.0
1001
AUSTER_ANSICHT
1002
{
1000
Det03
1002
}
1001
AUSTER_FOLIE
1002
{
1000
NSB00753_S0
1002
}
  0
ARC
  5
3356
330
720
100
AcDbEntity
  8
10000_FRONT
  6
SHORT_DASH
 62
     7
370
     9
100
AcDbCircle
 39
0.7
 10
380.6175015321934
 20
400.6392791190818
 30
0.0
 40
0.3000000000000114
100
AcDbArc
 50
0.0
 51
90.0
1001
AUSTER_ANSICHT
1002
{
1000
Det03
1002
}
1001
AUSTER_FOLIE
1002
{
1000
NSB00753_S0
1002
}
  0
LINE
  5
3357
330
720
100
AcDbEntity
  8
10000_FRONT
  6
SHORT_DASH
 62
     7
370
     9
100
AcDbLine
 39
0.7
 10
380.9175015321934
 20
400.639279119082
 30
0.0
 11
380.9199015321934
 21
396.939279119082
 31
0.0
1001
AUSTER_ANSICHT
1002
{
1000
Det03
1002
}
1001
AUSTER_FOLIE
1002
{
1000
NSB00753_S0
1002
}
  0
LINE
  5
3358
330
720
100
AcDbEntity
  8
10000_FRONT
  6
SHORT_DASH
 62
     7
370
     9
100
AcDbLine
 39
0.7
 10
380.9199015321934
 20
396.939279119082
 30
0.0
 11
382.5675015321934
 21
396.939279119082
 31
0.0
1001
AUSTER_ANSICHT
1002
{
1000
Det03
1002
}
1001
AUSTER_FOLIE
1002
{
1000
NSB00753_S0
1002
}
  0
ARC
  5
3359
330
720
100
AcDbEntity
  8
10000_FRONT
  6
SHORT_DASH
 62
     7
370
     9
100
AcDbCircle
 39
0.7
 10
382.5675015321934
 20
396.139279119082
 30
0.0
 40
0.799999999999983
100
AcDbArc
 50
0.0
 51
89.99999999999674
1001
AUSTER_ANSICHT
1002
{
1000
Det03
1002
}
1001
AUSTER_FOLIE
1002
{
1000
NSB00753_S0
1002
}
  0
LINE
  5
335A
330
720
100
AcDbEntity
  8
10000_FRONT
  6
SHORT_DASH
 62
     7
370
     9
100
AcDbLine
 39
0.7
 10
383.3675015321934
 20
396.139279119082
 30
0.0
 11
383.3675015321934
 21
325.7392791190819
 31
0.0
1001
AUSTER_ANSICHT
1002
{
1000
Det03
1002
}
1001
AUSTER_FOLIE
1002
{
1000
NSB00753_S0
1002
}
  0
ARC
  5
335B
330
720
100
AcDbEntity
  8
10000_FRONT
  6
SHORT_DASH
 62
     7
370
     9
100
AcDbCircle
 39
0.7
 10
382.5675015321934
 20
325.7392791190819
 30
0.0
 40
0.8000000000000113
100
AcDbArc
 50
270.0
 51
0.0
1001
AUSTER_ANSICHT
1002
{
1000
Det03
1002
}
1001
AUSTER_FOLIE
1002
{
1000
NSB00753_S0
1002
}
  0
LINE
  5
335C
330
720
100
AcDbEntity
  8
10000_FRONT
  6
SHORT_DASH
 62
     7
370
     9
100
AcDbLine
 39
0.7
 10
382.5675015321934
 20
324.939279119082
 30
0.0
 11
380.9199015321934
 21
324.939279119082
 31
0.0
1001
AUSTER_ANSICHT
1002
{
1000
Det03
1002
}
1001
AUSTER_FOLIE
1002
{
1000
NSB00753_S0
1002
}
  0
LINE
  5
335D
330
720
100
AcDbEntity
  8
10000_FRONT
  6
SHORT_DASH
 62
     7
370
     9
100
AcDbLine
 39
0.7
 10
380.9199015321934
 20
324.939279119082
 30
0.0
 11
380.9175015321934
 21
321.2392791190819
 31
0.0
1001
AUSTER_ANSICHT
1002
{
1000
Det03
1002
}
1001
AUSTER_FOLIE
1002
{
1000
NSB00753_S0
1002
}
  0
ARC
  5
335E
330
720
100
AcDbEntity
  8
10000_FRONT
  6
SHORT_DASH
 62
     7
370
     9
100
AcDbCircle
 39
0.7
 10
380.6175015321934
 20
321.2392791190819
 30
0.0
 40
0.3000000000000114
100
AcDbArc
 50
270.0
 51
0.0
1001
AUSTER_ANSICHT
1002
{
1000
Det03
1002
}
1001
AUSTER_FOLIE
1002
{
1000
NSB00753_S0
1002
}
  0
LINE
  5
335F
330
720
100
AcDbEntity
  8
10000_FRONT
  6
SHORT_DASH
 62
     7
370
     9
100
AcDbLine
 39
0.7
 10
380.6175015321934
 20
320.939279119082
 30
0.0
 11
341.2175015321934
 21
320.939279119082
 31
0.0
1001
AUSTER_ANSICHT
1002
{
1000
Det03
1002
}
1001
AUSTER_FOLIE
1002
{
1000
NSB00753_S0
1002
}
  0
ARC
  5
3360
330
720
100
AcDbEntity
  8
10000_FRONT
  6
SHORT_DASH
 62
     7
370
     9
100
AcDbCircle
 39
0.7
 10
341.2175015321934
 20
321.2392791190819
 30
0.0
 40
0.3000000000000078
100
AcDbArc
 50
180.0
 51
270.0
1001
AUSTER_ANSICHT
1002
{
1000
Det03
1002
}
1001
AUSTER_FOLIE
1002
{
1000
NSB00753_S0
1002
}
  0
LINE
  5
3361
330
720
100
AcDbEntity
  8
10000_FRONT
  6
SHORT_DASH
 62
     7
370
     9
100
AcDbLine
 39
0.7
 10
340.9175015321933
 20
321.2392791190819
 30
0.0
 11
340.9175015321934
 21
324.939279119082
 31
0.0
1001
AUSTER_ANSICHT
1002
{
1000
Det03
1002
}
1001
AUSTER_FOLIE
1002
{
1000
NSB00753_S0
1002
}
  0
LINE
  5
3362
330
720
100
AcDbEntity
  8
10000_FRONT
  6
SHORT_DASH
 62
     7
370
     9
100
AcDbLine
 39
0.45
 10
369.9169698144036
 20
400.9392791190819
 30
0.0
 11
369.9169698144036
 21
403.4392791190819
 31
0.0
1001
AUSTER_ANSICHT
1002
{
1000
Det03
1002
}
1001
AUSTER_FOLIE
1002
{
1000
NSB00753_S0
1002
}
  0
LINE
  5
3363
330
720
100
AcDbEntity
  8
10000_FRONT
  6
SHORT_DASH
 62
     7
370
     9
100
AcDbLine
 39
0.7
 10
379.9236609101462
 20
400.9392791190819
 30
0.0
 11
379.9235713746197
 21
403.4393288938029
 31
0.0
1001
AUSTER_ANSICHT
1002
{
1000
Det03
1002
}
1001
AUSTER_FOLIE
1002
{
1000
NSB00753_S0
1002
}
  0
LINE
  5
3364
330
720
100
AcDbEntity
  8
10000_FRONT
  6
SHORT_DASH
 62
     7
370
     9
100
AcDbLine
 39
0.45
 10
351.9236609101462
 20
400.9392791190819
 30
0.0
 11
351.9235713746196
 21
403.4393288938029
 31
0.0
1001
AUSTER_ANSICHT
1002
{
1000
Det03
1002
}
1001
AUSTER_FOLIE
1002
{
1000
NSB00753_S0
1002
}
  0
LINE
  5
3365
330
720
100
AcDbEntity
  8
10000_FRONT
  6
SHORT_DASH
 62
     7
370
     9
100
AcDbLine
 39
0.7
 10
341.9169698144036
 20
400.9392791190819
 30
0.0
 11
341.9169698144036
 21
403.4392791190819
 31
0.0
1001
AUSTER_ANSICHT
1002
{
1000
Det03
1002
}
1001
AUSTER_FOLIE
1002
{
1000
NSB00753_S0
1002
}
  0
LINE
  5
3366
330
720
100
AcDbEntity
  8
10000_FRONT
  6
SHORT_DASH
 62
     7
370
     9
100
AcDbLine
 39
0.45
 10
369.9169698144036
 20
403.4392791190819
 30
0.0
 11
378.9675015321934
 21
403.4392791190819
 31
0.0
1001
AUSTER_ANSICHT
1002
{
1000
Det03
1002
}
1001
AUSTER_FOLIE
1002
{
1000
NSB00753_S0
1002
}
  0
LINE
  5
3367
330
720
100
AcDbEntity
  8
10000_FRONT
  6
SHORT_DASH
 62
     7
370
     9
100
AcDbLine
 39
0.45
 10
351.9235713746196
 20
403.4393288938029
 30
0.0
 11
341.9675015321934
 21
403.4392791190819
 31
0.0
1001
AUSTER_ANSICHT
1002
{
1000
Det03
1002
}
1001
AUSTER_FOLIE
1002
{
1000
NSB00753_S0
1002
}
  0
LINE
  5
3368
330
720
100
AcDbEntity
  8
10000_FRONT
  6
SHORT_DASH
 62
     7
370
     9
100
AcDbLine
 39
0.7
 10
341.9169698144037
 20
320.8392791190818
 30
0.0
 11
341.9169698144037
 21
318.3392791190818
 31
0.0
1001
AUSTER_ANSICHT
1002
{
1000
Det03
1002
}
1001
AUSTER_FOLIE
1002
{
1000
NSB00753_S0
1002
}
  0
LINE
  5
3369
330
720
100
AcDbEntity
  8
10000_FRONT
  6
SHORT_DASH
 62
     7
370
     9
100
AcDbLine
 39
0.7
 10
351.9236609101463
 20
320.8392791190818
 30
0.0
 11
351.9235713746198
 21
318.3392293443608
 31
0.0
1001
AUSTER_ANSICHT
1002
{
1000
Det03
1002
}
1001
AUSTER_FOLIE
1002
{
1000
NSB00753_S0
1002
}
  0
LINE
  5
336A
330
720
100
AcDbEntity
  8
10000_FRONT
  6
SHORT_DASH
 62
     7
370
     9
100
AcDbLine
 39
0.7
 10
369.9169698144037
 20
320.8392791190819
 30
0.0
 11
369.9169698144037
 21
318.3392791190819
 31
0.0
1001
AUSTER_ANSICHT
1002
{
1000
Det03
1002
}
1001
AUSTER_FOLIE
1002
{
1000
NSB00753_S0
1002
}
  0
LINE
  5
336B
330
720
100
AcDbEntity
  8
10000_FRONT
  6
SHORT_DASH
 62
     7
370
     9
100
AcDbLine
 39
0.7
 10
379.9236609101463
 20
320.8392791190819
 30
0.0
 11
379.9235713746198
 21
318.3392293443608
 31
0.0
1001
AUSTER_ANSICHT
1002
{
1000
Det03
1002
}
1001
AUSTER_FOLIE
1002
{
1000
NSB00753_S0
1002
}
  0
LINE
  5
336C
330
720
100
AcDbEntity
  8
10000_FRONT
  6
SHORT_DASH
 62
     7
370
     9
100
AcDbLine
 39
0.7
 10
351.9235713746198
 20
318.3392293443608
 30
0.0
 11
341.9675015321935
 21
318.3392791190818
 31
0.0
1001
AUSTER_ANSICHT
1002
{
1000
Det03
1002
}
1001
AUSTER_FOLIE
1002
{
1000
NSB00753_S0
1002
}
  0
LINE
  5
336D
330
720
100
AcDbEntity
  8
10000_FRONT
  6
SHORT_DASH
 62
     7
370
     9
100
AcDbLine
 39
0.7
 10
369.9169698144037
 20
318.3392791190819
 30
0.0
 11
379.9235713746198
 21
318.3392293443608
 31
0.0
1001
AUSTER_ANSICHT
1002
{
1000
Det03
1002
}
1001
AUSTER_FOLIE
1002
{
1000
NSB00753_S0
1002
}
  0
LINE
  5
336E
330
720
100
AcDbEntity
  8
10000_FRONT
  6
SHORT_DASH
 62
     7
370
     9
100
AcDbLine
 39
0.45
 10
379.9236609101462
 20
400.9392791190819
 30
0.0
 11
369.9169698144036
 21
400.9392791190819
 31
0.0
1001
AUSTER_ANSICHT
1002
{
1000
Det03
1002
}
1001
AUSTER_FOLIE
1002
{
1000
NSB00753_S0
1002
}
  0
LINE
  5
336F
330
720
100
AcDbEntity
  8
10000_FRONT
  6
SHORT_DASH
 62
     7
370
     9
100
AcDbLine
 39
0.45
 10
351.9236609165037
 20
400.9391016019047
 30
0.0
 11
369.9169698144036
 21
400.9392791190819
 31
0.0
1001
AUSTER_ANSICHT
1002
{
1000
Det03
1002
}
1001
AUSTER_FOLIE
1002
{
1000
NSB00753_S0
1002
}
  0
LINE
  5
3370
330
720
100
AcDbEntity
  8
10000_FRONT
  6
SHORT_DASH
 62
     7
370
     9
100
AcDbLine
 39
0.7
 10
378.9675015301667
 20
403.4393241381315
 30
0.0
 11
379.9235713746197
 21
403.4393288938029
 31
0.0
1001
AUSTER_ANSICHT
1002
{
1000
Det03
1002
}
1001
AUSTER_FOLIE
1002
{
1000
NSB00753_S0
1002
}
  0
DIMENSION
  5
373E
330
720
100
AcDbEntity
  8
10100_FRONT_DIM
  6
Continuous
 62
     7
370
    13
100
AcDbDimension
  2
*D84
 10
383.3675015321934
 20
305.0901075080799
 30
0.0
 11
360.9175015321934
 21
305.0901075080799
 31
0.0
 70
    32
 71
     5
 42
44.90000000000009
  3
H035
100
AcDbAlignedDimension
 13
338.4675015321934
 23
325.7392791190819
 33
0.0
 14
383.3675015321934
 24
325.7392791190819
 34
0.0
100
AcDbRotatedDimension
1001
ACAD
1000
DSTYLE
1002
{
1070
    40
1040
1.0
1002
}
  0
LINE
  5
3823
330
720
100
AcDbEntity
  8
11000_Left
  6
Continuous
 62
     7
370
    40
100
AcDbLine
 39
0.5
 10
534.5256137267383
 20
377.291896259422
 30
0.0
 11
530.7256137267386
 21
377.291796259422
 31
0.0
1001
AUSTER_ANSICHT
1002
{
1000
SL
1002
}
1001
AUSTER_FOLIE
1002
{
1000
VERDRAHTUNGSBAUSATZ_S0
1002
}
  0
LINE
  5
3824
330
720
100
AcDbEntity
  8
11000_Left
  6
Continuous
 62
     7
370
    13
100
AcDbLine
 39
0.5
 10
530.2256137267386
 20
370.0918962594219
 30
0.0
 11
523.0256137267383
 21
370.0918962594219
 31
0.0
1001
AUSTER_ANSICHT
1002
{
1000
SL
1002
}
1001
AUSTER_FOLIE
1002
{
1000
VERDRAHTUNGSBAUSATZ_S0
1002
}
  0
LINE
  5
3825
330
720
100
AcDbEntity
  8
11000_Left
  6
Continuous
 62
     7
370
    13
100
AcDbLine
 39
0.5
 10
523.0256137267383
 20
370.0918962594219
 30
0.0
 11
523.0256137267383
 21
368.0918962594219
 31
0.0
1001
AUSTER_ANSICHT
1002
{
1000
SL
1002
}
1001
AUSTER_FOLIE
1002
{
1000
VERDRAHTUNGSBAUSATZ_S0
1002
}
  0
LINE
  5
3826
330
720
100
AcDbEntity
  8
11000_Left
  6
Continuous
 62
     7
370
    13
100
AcDbLine
 39
0.5
 10
523.0256137267383
 20
368.0918962594219
 30
0.0
 11
530.2256137267386
 21
368.0918962594219
 31
0.0
1001
AUSTER_ANSICHT
1002
{
1000
SL
1002
}
1001
AUSTER_FOLIE
1002
{
1000
VERDRAHTUNGSBAUSATZ_S0
1002
}
  0
LINE
  5
3827
330
720
100
AcDbEntity
  8
11000_Left
  6
Continuous
 62
     7
370
    13
100
AcDbLine
 39
0.5
 10
530.2256137267386
 20
368.0918962594219
 30
0.0
 11
526.2256137267386
 21
368.0918962594219
 31
0.0
1001
AUSTER_ANSICHT
1002
{
1000
SL
1002
}
1001
AUSTER_FOLIE
1002
{
1000
VERDRAHTUNGSBAUSATZ_S0
1002
}
  0
LINE
  5
3828
330
720
100
AcDbEntity
  8
11000_Left
  6
Continuous
 62
     7
370
    13
100
AcDbLine
 39
0.5
 10
526.2256137267386
 20
368.0918962594219
 30
0.0
 11
526.2256137267386
 21
370.0918962594219
 31
0.0
1001
AUSTER_ANSICHT
1002
{
1000
SL
1002
}
1001
AUSTER_FOLIE
1002
{
1000
VERDRAHTUNGSBAUSATZ_S0
1002
}
  0
LINE
  5
3829
330
720
100
AcDbEntity
  8
11000_Left
  6
Continuous
 62
     7
370
    13
100
AcDbLine
 39
0.5
 10
525.1256137267384
 20
362.541896259422
 30
0.0
 11
530.2244137267384
 21
362.541896259422
 31
0.0
1001
AUSTER_ANSICHT
1002
{
1000
SL
1002
}
1001
AUSTER_FOLIE
1002
{
1000
VERDRAHTUNGSBAUSATZ_S0
1002
}
  0
LINE
  5
382A
330
720
100
AcDbEntity
  8
11000_Left
  6
Continuous
 62
     7
370
    13
100
AcDbLine
 39
0.5
 10
524.7256137267386
 20
358.0418962594219
 30
0.0
 11
530.2245137267384
 21
358.0418962594219
 31
0.0
1001
AUSTER_ANSICHT
1002
{
1000
SL
1002
}
1001
AUSTER_FOLIE
1002
{
1000
VERDRAHTUNGSBAUSATZ_S0
1002
}
  0
LINE
  5
382B
330
720
100
AcDbEntity
  8
11000_Left
  6
Continuous
 62
     7
370
    13
100
AcDbLine
 39
0.5
 10
526.8256137267385
 20
351.7918962594219
 30
0.0
 11
530.2252137267385
 21
351.7918962594219
 31
0.0
1001
AUSTER_ANSICHT
1002
{
1000
SL
1002
}
1001
AUSTER_FOLIE
1002
{
1000
VERDRAHTUNGSBAUSATZ_S0
1002
}
  0
LINE
  5
382C
330
720
100
AcDbEntity
  8
11000_Left
  6
Continuous
 62
     7
370
    13
100
AcDbLine
 39
0.5
 10
530.2256137267386
 20
349.791896259422
 30
0.0
 11
527.3256137267385
 21
349.791896259422
 31
0.0
1001
AUSTER_ANSICHT
1002
{
1000
SL
1002
}
1001
AUSTER_FOLIE
1002
{
1000
VERDRAHTUNGSBAUSATZ_S0
1002
}
  0
LINE
  5
382D
330
720
100
AcDbEntity
  8
11000_Left
  6
Continuous
 62
     7
370
    13
100
AcDbLine
 39
0.5
 10
526.8365137267385
 20
349.1878962594219
 30
0.0
 11
527.3990137267385
 21
346.5418962594219
 31
0.0
1001
AUSTER_ANSICHT
1002
{
1000
SL
1002
}
1001
AUSTER_FOLIE
1002
{
1000
VERDRAHTUNGSBAUSATZ_S0
1002
}
  0
LINE
  5
382E
330
720
100
AcDbEntity
  8
11000_Left
  6
Continuous
 62
     7
370
    13
100
AcDbLine
 39
0.5
 10
538.2256137267386
 20
380.391896259422
 30
0.0
 11
538.2256137267386
 21
377.791796259422
 31
0.0
1001
AUSTER_ANSICHT
1002
{
1000
SL
1002
}
1001
AUSTER_FOLIE
1002
{
1000
VERDRAHTUNGSBAUSATZ_S0
1002
}
  0
LINE
  5
382F
330
720
100
AcDbEntity
  8
11000_Left
  6
Continuous
 62
     7
370
    13
100
AcDbLine
 39
0.5
 10
530.2256137267386
 20
376.791796259422
 30
0.0
 11
530.2256137267386
 21
376.2918962594219
 31
0.0
1001
AUSTER_ANSICHT
1002
{
1000
SL
1002
}
1001
AUSTER_FOLIE
1002
{
1000
VERDRAHTUNGSBAUSATZ_S0
1002
}
  0
LINE
  5
3830
330
720
100
AcDbEntity
  8
11000_Left
  6
Continuous
 62
     7
370
    13
100
AcDbLine
 39
0.5
 10
540.2256137267386
 20
377.321796259422
 30
0.0
 11
540.2256137267386
 21
380.391896259422
 31
0.0
1001
AUSTER_ANSICHT
1002
{
1000
SL
1002
}
1001
AUSTER_FOLIE
1002
{
1000
VERDRAHTUNGSBAUSATZ_S0
1002
}
  0
LINE
  5
3831
330
720
100
AcDbEntity
  8
11000_Left
  6
Continuous
 62
     7
370
    13
100
AcDbLine
 39
0.5
 10
540.2256137267386
 20
380.391896259422
 30
0.0
 11
539.7256137267386
 21
380.891896259422
 31
0.0
1001
AUSTER_ANSICHT
1002
{
1000
SL
1002
}
1001
AUSTER_FOLIE
1002
{
1000
VERDRAHTUNGSBAUSATZ_S0
1002
}
  0
LINE
  5
3832
330
720
100
AcDbEntity
  8
11000_Left
  6
Continuous
 62
     7
370
    13
100
AcDbLine
 39
0.5
 10
539.7256137267386
 20
380.891896259422
 30
0.0
 11
538.7256137267386
 21
380.891896259422
 31
0.0
1001
AUSTER_ANSICHT
1002
{
1000
SL
1002
}
1001
AUSTER_FOLIE
1002
{
1000
VERDRAHTUNGSBAUSATZ_S0
1002
}
  0
LINE
  5
3833
330
720
100
AcDbEntity
  8
11000_Left
  6
Continuous
 62
     7
370
    13
100
AcDbLine
 39
0.5
 10
538.7256137267386
 20
380.891896259422
 30
0.0
 11
538.2256137267386
 21
380.391896259422
 31
0.0
1001
AUSTER_ANSICHT
1002
{
1000
SL
1002
}
1001
AUSTER_FOLIE
1002
{
1000
VERDRAHTUNGSBAUSATZ_S0
1002
}
  0
LINE
  5
3834
330
720
100
AcDbEntity
  8
11000_Left
  6
Continuous
 62
     7
370
    13
100
AcDbLine
 39
0.5
 10
528.2256137267386
 20
373.1918962594221
 30
0.0
 11
528.0588137267384
 21
375.1090962594219
 31
0.0
1001
AUSTER_ANSICHT
1002
{
1000
SL
1002
}
1001
AUSTER_FOLIE
1002
{
1000
VERDRAHTUNGSBAUSATZ_S0
1002
}
  0
LINE
  5
3835
330
720
100
AcDbEntity
  8
11000_Left
  6
Continuous
 62
     7
370
    13
100
AcDbLine
 39
0.5
 10
530.2256137267386
 20
373.1918962594221
 30
0.0
 11
528.2256137267386
 21
373.1918962594221
 31
0.0
1001
AUSTER_ANSICHT
1002
{
1000
SL
1002
}
1001
AUSTER_FOLIE
1002
{
1000
VERDRAHTUNGSBAUSATZ_S0
1002
}
  0
LINE
  5
3836
330
720
100
AcDbEntity
  8
11000_Left
  6
Continuous
 62
     7
370
    13
100
AcDbLine
 39
0.5
 10
528.3859137267386
 20
375.622296259422
 30
0.0
 11
530.2256137267386
 21
376.2918962594219
 31
0.0
1001
AUSTER_ANSICHT
1002
{
1000
SL
1002
}
1001
AUSTER_FOLIE
1002
{
1000
VERDRAHTUNGSBAUSATZ_S0
1002
}
  0
LINE
  5
3837
330
720
100
AcDbEntity
  8
11000_Left
  6
Continuous
 62
     7
370
    13
100
AcDbLine
 39
0.5
 10
525.5432137267384
 20
346.6655962594221
 30
0.0
 11
525.3556137267385
 21
349.791896259422
 31
0.0
1001
AUSTER_ANSICHT
1002
{
1000
SL
1002
}
1001
AUSTER_FOLIE
1002
{
1000
VERDRAHTUNGSBAUSATZ_S0
1002
}
  0
LINE
  5
3838
330
720
100
AcDbEntity
  8
11000_Left
  6
Continuous
 62
     7
370
    13
100
AcDbLine
 39
0.5
 10
525.3556137267385
 20
349.791896259422
 30
0.0
 11
525.3256137267385
 21
350.291896259422
 31
0.0
1001
AUSTER_ANSICHT
1002
{
1000
SL
1002
}
1001
AUSTER_FOLIE
1002
{
1000
VERDRAHTUNGSBAUSATZ_S0
1002
}
  0
LINE
  5
3839
330
720
100
AcDbEntity
  8
11000_Left
  6
Continuous
 62
     7
370
    13
100
AcDbLine
 39
0.5
 10
525.6256137267384
 20
345.2918962594219
 30
0.0
 11
525.5432137267384
 21
346.6655962594221
 31
0.0
1001
AUSTER_ANSICHT
1002
{
1000
SL
1002
}
1001
AUSTER_FOLIE
1002
{
1000
VERDRAHTUNGSBAUSATZ_S0
1002
}
  0
LINE
  5
383A
330
720
100
AcDbEntity
  8
11000_Left
  6
Continuous
 62
     7
370
    13
100
AcDbLine
 39
0.5
 10
527.3429137267385
 20
346.1878962594219
 30
0.0
 11
526.8256137267385
 21
345.2918962594219
 31
0.0
1001
AUSTER_ANSICHT
1002
{
1000
SL
1002
}
1001
AUSTER_FOLIE
1002
{
1000
VERDRAHTUNGSBAUSATZ_S0
1002
}
  0
LINE
  5
383B
330
720
100
AcDbEntity
  8
11000_Left
  6
Continuous
 62
     7
370
    13
100
AcDbLine
 39
0.5
 10
526.8256137267385
 20
345.2918962594219
 30
0.0
 11
525.6256137267384
 21
345.2918962594219
 31
0.0
1001
AUSTER_ANSICHT
1002
{
1000
SL
1002
}
1001
AUSTER_FOLIE
1002
{
1000
VERDRAHTUNGSBAUSATZ_S0
1002
}
  0
LINE
  5
383C
330
720
100
AcDbEntity
  8
11000_Left
  6
Continuous
 62
     7
370
    40
100
AcDbLine
 39
0.5
 10
539.9830137267385
 20
377.291896259422
 30
0.0
 11
534.5256137267383
 21
377.291896259422
 31
0.0
1001
AUSTER_ANSICHT
1002
{
1000
SL
1002
}
1001
AUSTER_FOLIE
1002
{
1000
VERDRAHTUNGSBAUSATZ_S0
1002
}
  0
LINE
  5
383D
330
720
100
AcDbEntity
  8
11000_Left
  6
Continuous
 62
     7
370
    13
100
AcDbLine
 39
0.5
 10
525.1256137267384
 20
362.541896259422
 30
0.0
 11
524.1256137267384
 21
361.5418962594219
 31
0.0
1001
AUSTER_ANSICHT
1002
{
1000
SL
1002
}
1001
AUSTER_FOLIE
1002
{
1000
VERDRAHTUNGSBAUSATZ_S0
1002
}
  0
LINE
  5
383E
330
720
100
AcDbEntity
  8
11000_Left
  6
Continuous
 62
     7
370
    13
100
AcDbLine
 39
0.5
 10
524.1256137267384
 20
358.6418962594219
 30
0.0
 11
524.1256137267384
 21
361.5418962594219
 31
0.0
1001
AUSTER_ANSICHT
1002
{
1000
SL
1002
}
1001
AUSTER_FOLIE
1002
{
1000
VERDRAHTUNGSBAUSATZ_S0
1002
}
  0
LINE
  5
383F
330
720
100
AcDbEntity
  8
11000_Left
  6
Continuous
 62
     7
370
    13
100
AcDbLine
 39
0.5
 10
524.1256137267384
 20
358.6418962594219
 30
0.0
 11
524.7256137267386
 21
358.0418962594219
 31
0.0
1001
AUSTER_ANSICHT
1002
{
1000
SL
1002
}
1001
AUSTER_FOLIE
1002
{
1000
VERDRAHTUNGSBAUSATZ_S0
1002
}
  0
LINE
  5
3840
330
720
100
AcDbEntity
  8
11000_Left
  6
Continuous
 62
     7
370
    40
100
AcDbLine
 39
0.5
 10
530.2256137267384
 20
376.791796259422
 30
0.0
 11
530.2256137267386
 21
347.341096259422
 31
0.0
1001
AUSTER_ANSICHT
1002
{
1000
SL
1002
}
1001
AUSTER_FOLIE
1002
{
1000
VERDRAHTUNGSBAUSATZ_S0
1002
}
  0
ARC
  5
3842
330
720
100
AcDbEntity
  8
11000_Left
  6
Continuous
 62
     7
370
    13
100
AcDbCircle
 39
0.5
 10
527.3256137267385
 20
349.2918962594219
 30
0.0
 40
0.5
100
AcDbArc
 50
90.0
 51
126.8698999999999
1001
AUSTER_ANSICHT
1002
{
1000
SL
1002
}
1001
AUSTER_FOLIE
1002
{
1000
VERDRAHTUNGSBAUSATZ_S0
1002
}
  0
ARC
  5
3843
330
720
100
AcDbEntity
  8
11000_Left
  6
Continuous
 62
     7
370
    13
100
AcDbCircle
 39
0.5
 10
530.7256137267386
 20
376.791796259422
 30
0.0
 40
0.5
100
AcDbArc
 50
90.0
 51
180.0
1001
AUSTER_ANSICHT
1002
{
1000
SL
1002
}
1001
AUSTER_FOLIE
1002
{
1000
VERDRAHTUNGSBAUSATZ_S0
1002
}
  0
ARC
  5
3844
330
720
100
AcDbEntity
  8
11000_Left
  6
Continuous
 62
     7
370
    13
100
AcDbCircle
 39
0.5
 10
537.7256137267386
 20
377.791796259422
 30
0.0
 40
0.5
100
AcDbArc
 50
268.3634000000001
 51
0.0
1001
AUSTER_ANSICHT
1002
{
1000
SL
1002
}
1001
AUSTER_FOLIE
1002
{
1000
VERDRAHTUNGSBAUSATZ_S0
1002
}
  0
ARC
  5
3845
330
720
100
AcDbEntity
  8
11000_Left
  6
Continuous
 62
     7
370
    13
100
AcDbCircle
 39
0.5
 10
528.5569137267384
 20
375.1524962594219
 30
0.0
 40
0.5
100
AcDbArc
 50
109.9999999999985
 51
184.9713000000029
1001
AUSTER_ANSICHT
1002
{
1000
SL
1002
}
1001
AUSTER_FOLIE
1002
{
1000
VERDRAHTUNGSBAUSATZ_S0
1002
}
  0
ARC
  5
3846
330
720
100
AcDbEntity
  8
11000_Left
  6
Continuous
 62
     7
370
    13
100
AcDbCircle
 39
0.5
 10
526.8256137267385
 20
350.291896259422
 30
0.0
 40
1.5
100
AcDbArc
 50
90.0
 51
119.9264000000027
1001
AUSTER_ANSICHT
1002
{
1000
SL
1002
}
1001
AUSTER_FOLIE
1002
{
1000
VERDRAHTUNGSBAUSATZ_S0
1002
}
  0
ARC
  5
3847
330
720
100
AcDbEntity
  8
11000_Left
  6
Continuous
 62
     7
370
    13
100
AcDbCircle
 39
0.5
 10
527.3256137267385
 20
349.2918962594219
 30
0.0
 40
0.5
100
AcDbArc
 50
126.8698999999999
 51
192.0000000000029
1001
AUSTER_ANSICHT
1002
{
1000
SL
1002
}
1001
AUSTER_FOLIE
1002
{
1000
VERDRAHTUNGSBAUSATZ_S0
1002
}
  0
ARC
  5
3848
330
720
100
AcDbEntity
  8
11000_Left
  6
Continuous
 62
     7
370
    13
100
AcDbCircle
 39
0.5
 10
526.8256137267385
 20
350.291896259422
 30
0.0
 40
1.5
100
AcDbArc
 50
119.9264000000027
 51
180.0
1001
AUSTER_ANSICHT
1002
{
1000
SL
1002
}
1001
AUSTER_FOLIE
1002
{
1000
VERDRAHTUNGSBAUSATZ_S0
1002
}
  0
ARC
  5
3849
330
720
100
AcDbEntity
  8
11000_Left
  6
Continuous
 62
     7
370
    13
100
AcDbCircle
 39
0.5
 10
526.9099137267385
 20
346.4378962594219
 30
0.0
 40
0.5
100
AcDbArc
 50
329.9999999999982
 51
12.00000000000293
1001
AUSTER_ANSICHT
1002
{
1000
SL
1002
}
1001
AUSTER_FOLIE
1002
{
1000
VERDRAHTUNGSBAUSATZ_S0
1002
}
  0
ARC
  5
384A
330
720
100
AcDbEntity
  8
11000_Left
  6
Continuous
 62
     7
370
    40
100
AcDbCircle
 39
0.5
 10
392.1762137267384
 20
360.2912962594221
 30
0.0
 40
211.1984
100
AcDbArc
 50
354.7084000000004
 51
5.291599999999566
1001
AUSTER_ANSICHT
1002
{
1000
SL
1002
}
1001
AUSTER_FOLIE
1002
{
1000
VERDRAHTUNGSBAUSATZ_S3_S3_S2
1002
}
  0
ARC
  5
384B
330
720
100
AcDbEntity
  8
11000_Left
  6
Continuous
 62
     7
370
    13
100
AcDbCircle
 39
0.5
 10
582.5839137267386
 20
338.5912962594218
 30
0.0
 40
1.5
100
AcDbArc
 50
45.00000000000003
 51
90.0
1001
AUSTER_ANSICHT
1002
{
1000
SL
1002
}
1001
AUSTER_FOLIE
1002
{
1000
VERDRAHTUNGSBAUSATZ_S3_S3_S2
1002
}
  0
ARC
  5
384C
330
720
100
AcDbEntity
  8
11000_Left
  6
Continuous
 62
     7
370
    13
100
AcDbCircle
 39
0.5
 10
586.6266137267386
 20
338.7912962594221
 30
0.0
 40
1.5
100
AcDbArc
 50
225.0
 51
270.0
1001
AUSTER_ANSICHT
1002
{
1000
SL
1002
}
1001
AUSTER_FOLIE
1002
{
1000
VERDRAHTUNGSBAUSATZ_S3_S3_S2
1002
}
  0
ARC
  5
384D
330
720
100
AcDbEntity
  8
11000_Left
  6
Continuous
 62
     7
370
    13
100
AcDbCircle
 39
0.5
 10
599.4253137267384
 20
338.7912962594221
 30
0.0
 40
1.5
100
AcDbArc
 50
270.0
 51
0.0
1001
AUSTER_ANSICHT
1002
{
1000
SL
1002
}
1001
AUSTER_FOLIE
1002
{
1000
VERDRAHTUNGSBAUSATZ_S3_S3_S2
1002
}
  0
ARC
  5
384E
330
720
100
AcDbEntity
  8
11000_Left
  6
Continuous
 62
     7
370
    13
100
AcDbCircle
 39
0.5
 10
599.4253137267384
 20
381.7912962594221
 30
0.0
 40
1.5
100
AcDbArc
 50
0.0
 51
90.0
1001
AUSTER_ANSICHT
1002
{
1000
SL
1002
}
1001
AUSTER_FOLIE
1002
{
1000
VERDRAHTUNGSBAUSATZ_S3_S3_S2
1002
}
  0
ARC
  5
384F
330
720
100
AcDbEntity
  8
11000_Left
  6
Continuous
 62
     7
370
    13
100
AcDbCircle
 39
0.5
 10
586.6266137267386
 20
381.7912962594221
 30
0.0
 40
1.5
100
AcDbArc
 50
90.0
 51
134.9999999999999
1001
AUSTER_ANSICHT
1002
{
1000
SL
1002
}
1001
AUSTER_FOLIE
1002
{
1000
VERDRAHTUNGSBAUSATZ_S3_S3_S2
1002
}
  0
ARC
  5
3850
330
720
100
AcDbEntity
  8
11000_Left
  6
Continuous
 62
     7
370
    13
100
AcDbCircle
 39
0.5
 10
582.5839137267386
 20
381.9912962594219
 30
0.0
 40
1.5
100
AcDbArc
 50
270.0
 51
314.9999999999999
1001
AUSTER_ANSICHT
1002
{
1000
SL
1002
}
1001
AUSTER_FOLIE
1002
{
1000
VERDRAHTUNGSBAUSATZ_S3_S3_S2
1002
}
  0
ARC
  5
3851
330
720
100
AcDbEntity
  8
11000_Left
  6
Continuous
 62
     7
370
    40
100
AcDbCircle
 39
0.5
 10
601.6783137267386
 20
379.6912962594217
 30
0.0
 40
0.8
100
AcDbArc
 50
5.572382000001754
 51
90.0
1001
AUSTER_ANSICHT
1002
{
1000
SL
1002
}
1001
AUSTER_FOLIE
1002
{
1000
VERDRAHTUNGSBAUSATZ_S3_S3_S2
1002
}
  0
ARC
  5
3852
330
720
100
AcDbEntity
  8
11000_Left
  6
Continuous
 62
     7
370
    40
100
AcDbCircle
 39
0.5
 10
601.6783137267386
 20
340.891296259422
 30
0.0
 40
0.8
100
AcDbArc
 50
270.0
 51
354.4276
1001
AUSTER_ANSICHT
1002
{
1000
SL
1002
}
1001
AUSTER_FOLIE
1002
{
1000
VERDRAHTUNGSBAUSATZ_S3_S3_S2
1002
}
  0
ARC
  5
3853
330
720
100
AcDbEntity
  8
11000_Left
  6
Continuous
 62
     7
370
    40
100
AcDbCircle
 39
0.5
 10
534.7256137267385
 20
344.291896259422
 30
0.0
 40
1.0
100
AcDbArc
 50
180.0
 51
270.0
1001
AUSTER_ANSICHT
1002
{
1000
SL
1002
}
1001
AUSTER_FOLIE
1002
{
1000
VERDRAHTUNGSBAUSATZ_S3_S3_S2
1002
}
  0
ARC
  5
3854
330
720
100
AcDbEntity
  8
11000_Left
  6
Continuous
 62
     7
370
    40
100
AcDbCircle
 39
0.5
 10
539.9830137267384
 20
378.2918962594219
 30
0.0
 40
1.0
100
AcDbArc
 50
270.0
 51
314.9999999999999
1001
AUSTER_ANSICHT
1002
{
1000
SL
1002
}
1001
AUSTER_FOLIE
1002
{
1000
VERDRAHTUNGSBAUSATZ_S3_S3_S2
1002
}
  0
LINE
  5
3855
330
720
100
AcDbEntity
  8
11000_Left
  6
Continuous
 62
     7
370
    40
100
AcDbLine
 39
0.5
 10
582.5839137267386
 20
340.0912962594218
 30
0.0
 11
544.2256137267385
 21
340.0912962594218
 31
0.0
1001
AUSTER_ANSICHT
1002
{
1000
SL
1002
}
1001
AUSTER_FOLIE
1002
{
1000
VERDRAHTUNGSBAUSATZ_S3_S3_S2
1002
}
  0
LINE
  5
3856
330
720
100
AcDbEntity
  8
11000_Left
  6
Continuous
 62
     7
370
    40
100
AcDbLine
 39
0.5
 10
582.5839137267386
 20
380.4912962594219
 30
0.0
 11
544.2256137267385
 21
380.4912962594219
 31
0.0
1001
AUSTER_ANSICHT
1002
{
1000
SL
1002
}
1001
AUSTER_FOLIE
1002
{
1000
VERDRAHTUNGSBAUSATZ_S3_S3_S2
1002
}
  0
LINE
  5
3857
330
720
100
AcDbEntity
  8
11000_Left
  6
Continuous
 62
     7
370
    40
100
AcDbLine
 39
0.5
 10
534.7256137267385
 20
343.2918962594219
 30
0.0
 11
539.9830137267384
 21
343.2918962594219
 31
0.0
1001
AUSTER_ANSICHT
1002
{
1000
SL
1002
}
1001
AUSTER_FOLIE
1002
{
1000
VERDRAHTUNGSBAUSATZ_S3_S3_S2
1002
}
  0
LINE
  5
3858
330
720
100
AcDbEntity
  8
11000_Left
  6
Continuous
 62
     7
370
    40
100
AcDbLine
 39
0.5
 10
531.2256137267385
 20
346.291896259422
 30
0.0
 11
533.7256137267385
 21
346.291896259422
 31
0.0
1001
AUSTER_ANSICHT
1002
{
1000
SL
1002
}
1001
AUSTER_FOLIE
1002
{
1000
VERDRAHTUNGSBAUSATZ_S3_S3_S2
1002
}
  0
LINE
  5
3859
330
720
100
AcDbEntity
  8
11000_Left
  6
Continuous
 62
     7
370
    40
100
AcDbLine
 39
0.5
 10
530.3135137267385
 20
347.2039962594219
 30
0.0
 11
531.2256137267385
 21
346.291896259422
 31
0.0
1001
AUSTER_ANSICHT
1002
{
1000
SL
1002
}
1001
AUSTER_FOLIE
1002
{
1000
VERDRAHTUNGSBAUSATZ_S3_S3_S2
1002
}
  0
LINE
  5
385A
330
720
100
AcDbEntity
  8
11000_Left
  6
Continuous
 62
     7
370
    40
100
AcDbLine
 39
0.5
 10
533.7256137267385
 20
346.291896259422
 30
0.0
 11
533.7256137267385
 21
344.291896259422
 31
0.0
1001
AUSTER_ANSICHT
1002
{
1000
SL
1002
}
1001
AUSTER_FOLIE
1002
{
1000
VERDRAHTUNGSBAUSATZ_S3_S3_S2
1002
}
  0
LINE
  5
385B
330
720
100
AcDbEntity
  8
11000_Left
  6
Continuous
 62
     7
370
    40
100
AcDbLine
 39
0.5
 10
542.6049137267385
 20
340.8753962594222
 30
0.0
 11
544.2256137267385
 21
340.0912962594218
 31
0.0
1001
AUSTER_ANSICHT
1002
{
1000
SL
1002
}
1001
AUSTER_FOLIE
1002
{
1000
VERDRAHTUNGSBAUSATZ_S3_S3_S2
1002
}
  0
LINE
  5
385C
330
720
100
AcDbEntity
  8
11000_Left
  6
Continuous
 62
     7
370
    40
100
AcDbLine
 39
0.5
 10
541.8114137267385
 20
341.8776962594218
 30
0.0
 11
542.6049137267385
 21
340.8753962594222
 31
0.0
1001
AUSTER_ANSICHT
1002
{
1000
SL
1002
}
1001
AUSTER_FOLIE
1002
{
1000
VERDRAHTUNGSBAUSATZ_S3_S3_S2
1002
}
  0
LINE
  5
385D
330
720
100
AcDbEntity
  8
11000_Left
  6
Continuous
 62
     7
370
    40
100
AcDbLine
 39
0.5
 10
539.9830137267384
 20
343.2918962594219
 30
0.0
 11
541.8114137267385
 21
341.8776962594218
 31
0.0
1001
AUSTER_ANSICHT
1002
{
1000
SL
1002
}
1001
AUSTER_FOLIE
1002
{
1000
VERDRAHTUNGSBAUSATZ_S3_S3_S2
1002
}
  0
LINE
  5
385E
330
720
100
AcDbEntity
  8
11000_Left
  6
Continuous
 62
     7
370
    40
100
AcDbLine
 39
0.5
 10
542.6047137267383
 20
379.7074962594217
 30
0.0
 11
544.2256137267385
 21
380.4912962594219
 31
0.0
1001
AUSTER_ANSICHT
1002
{
1000
SL
1002
}
1001
AUSTER_FOLIE
1002
{
1000
VERDRAHTUNGSBAUSATZ_S3_S3_S2
1002
}
  0
LINE
  5
385F
330
720
100
AcDbEntity
  8
11000_Left
  6
Continuous
 62
     7
370
    40
100
AcDbLine
 39
0.5
 10
541.8114137267385
 20
378.7060962594221
 30
0.0
 11
540.6901137267385
 21
377.5847962594219
 31
0.0
1001
AUSTER_ANSICHT
1002
{
1000
SL
1002
}
1001
AUSTER_FOLIE
1002
{
1000
VERDRAHTUNGSBAUSATZ_S3_S3_S2
1002
}
  0
LINE
  5
3860
330
720
100
AcDbEntity
  8
11000_Left
  6
Continuous
 62
     7
370
    40
100
AcDbLine
 39
0.5
 10
541.8114137267385
 20
378.7060962594221
 30
0.0
 11
542.6047137267383
 21
379.7074962594217
 31
0.0
1001
AUSTER_ANSICHT
1002
{
1000
SL
1002
}
1001
AUSTER_FOLIE
1002
{
1000
VERDRAHTUNGSBAUSATZ_S3_S3_S2
1002
}
  0
LINE
  5
3861
330
720
100
AcDbEntity
  8
11000_Left
  6
Continuous
 62
     7
370
    13
100
AcDbLine
 39
0.5
 10
600.9253137267384
 20
381.7912962594221
 30
0.0
 11
600.9253137267384
 21
338.7912962594221
 31
0.0
1001
AUSTER_ANSICHT
1002
{
1000
SL
1002
}
1001
AUSTER_FOLIE
1002
{
1000
VERDRAHTUNGSBAUSATZ_S3_S3_S2
1002
}
  0
LINE
  5
3862
330
720
100
AcDbEntity
  8
11000_Left
  6
Continuous
 62
     7
370
    13
100
AcDbLine
 39
0.5
 10
583.6446137267386
 20
339.6519962594218
 30
0.0
 11
585.5659137267386
 21
337.7306962594218
 31
0.0
1001
AUSTER_ANSICHT
1002
{
1000
SL
1002
}
1001
AUSTER_FOLIE
1002
{
1000
VERDRAHTUNGSBAUSATZ_S3_S3_S2
1002
}
  0
LINE
  5
3863
330
720
100
AcDbEntity
  8
11000_Left
  6
Continuous
 62
     7
370
    13
100
AcDbLine
 39
0.5
 10
599.4253137267384
 20
337.2912962594221
 30
0.0
 11
586.6266137267386
 21
337.2912962594221
 31
0.0
1001
AUSTER_ANSICHT
1002
{
1000
SL
1002
}
1001
AUSTER_FOLIE
1002
{
1000
VERDRAHTUNGSBAUSATZ_S3_S3_S2
1002
}
  0
LINE
  5
3864
330
720
100
AcDbEntity
  8
11000_Left
  6
Continuous
 62
     7
370
    40
100
AcDbLine
 39
0.5
 10
600.9253137267384
 20
340.0912962594218
 30
0.0
 11
582.5839137267386
 21
340.0912962594218
 31
0.0
1001
AUSTER_ANSICHT
1002
{
1000
SL
1002
}
1001
AUSTER_FOLIE
1002
{
1000
VERDRAHTUNGSBAUSATZ_S3_S3_S2
1002
}
  0
LINE
  5
3865
330
720
100
AcDbEntity
  8
11000_Left
  6
SHORT_DASH
 62
     7
370
     9
100
AcDbLine
 39
0.5
 10
590.2253137267385
 20
351.7912962594221
 30
0.0
 11
595.2253137267385
 21
351.7912962594221
 31
0.0
1001
AUSTER_ANSICHT
1002
{
1000
SL
1002
}
1001
AUSTER_FOLIE
1002
{
1000
VERDRAHTUNGSBAUSATZ_S3_S3_S2
1002
}
  0
LINE
  5
3866
330
720
100
AcDbEntity
  8
11000_Left
  6
SHORT_DASH
 62
     7
370
     9
100
AcDbLine
 39
0.5
 10
590.2253137267385
 20
340.0912962594218
 30
0.0
 11
590.2253137267385
 21
351.7912962594221
 31
0.0
1001
AUSTER_ANSICHT
1002
{
1000
SL
1002
}
1001
AUSTER_FOLIE
1002
{
1000
VERDRAHTUNGSBAUSATZ_S3_S3_S2
1002
}
  0
LINE
  5
3867
330
720
100
AcDbEntity
  8
11000_Left
  6
SHORT_DASH
 62
     7
370
     9
100
AcDbLine
 39
0.5
 10
595.2253137267385
 20
351.7912962594221
 30
0.0
 11
595.2253137267385
 21
340.0912962594218
 31
0.0
1001
AUSTER_ANSICHT
1002
{
1000
SL
1002
}
1001
AUSTER_FOLIE
1002
{
1000
VERDRAHTUNGSBAUSATZ_S3_S3_S2
1002
}
  0
LINE
  5
3868
330
720
100
AcDbEntity
  8
11000_Left
  6
Continuous
 62
     7
370
    13
100
AcDbLine
 39
0.5
 10
600.9253137267384
 20
340.0912962594218
 30
0.0
 11
600.9253137267384
 21
338.7912962594221
 31
0.0
1001
AUSTER_ANSICHT
1002
{
1000
SL
1002
}
1001
AUSTER_FOLIE
1002
{
1000
VERDRAHTUNGSBAUSATZ_S3_S3_S2
1002
}
  0
LINE
  5
3869
330
720
100
AcDbEntity
  8
11000_Left
  6
Continuous
 62
     7
370
    40
100
AcDbLine
 39
0.5
 10
601.6783137267386
 20
340.0912962594218
 30
0.0
 11
600.9253137267384
 21
340.0912962594218
 31
0.0
1001
AUSTER_ANSICHT
1002
{
1000
SL
1002
}
1001
AUSTER_FOLIE
1002
{
1000
VERDRAHTUNGSBAUSATZ_S3_S3_S2
1002
}
  0
LINE
  5
386A
330
720
100
AcDbEntity
  8
11000_Left
  6
Continuous
 62
     7
370
    40
100
AcDbLine
 39
0.5
 10
582.5839137267386
 20
380.4912962594219
 30
0.0
 11
600.9253137267384
 21
380.4912962594219
 31
0.0
1001
AUSTER_ANSICHT
1002
{
1000
SL
1002
}
1001
AUSTER_FOLIE
1002
{
1000
VERDRAHTUNGSBAUSATZ_S3_S3_S2
1002
}
  0
LINE
  5
386B
330
720
100
AcDbEntity
  8
11000_Left
  6
SHORT_DASH
 62
     7
370
     9
100
AcDbLine
 39
0.5
 10
590.2253137267385
 20
368.7912962594221
 30
0.0
 11
595.2253137267385
 21
368.7912962594221
 31
0.0
1001
AUSTER_ANSICHT
1002
{
1000
SL
1002
}
1001
AUSTER_FOLIE
1002
{
1000
VERDRAHTUNGSBAUSATZ_S3_S3_S2
1002
}
  0
LINE
  5
386C
330
720
100
AcDbEntity
  8
11000_Left
  6
Continuous
 62
     7
370
    13
100
AcDbLine
 39
0.5
 10
586.6266137267386
 20
383.2912962594221
 30
0.0
 11
599.4253137267384
 21
383.2912962594221
 31
0.0
1001
AUSTER_ANSICHT
1002
{
1000
SL
1002
}
1001
AUSTER_FOLIE
1002
{
1000
VERDRAHTUNGSBAUSATZ_S3_S3_S2
1002
}
  0
LINE
  5
386D
330
720
100
AcDbEntity
  8
11000_Left
  6
SHORT_DASH
 62
     7
370
     9
100
AcDbLine
 39
0.5
 10
590.2253137267385
 20
380.4912962594219
 30
0.0
 11
590.2253137267385
 21
368.7912962594221
 31
0.0
1001
AUSTER_ANSICHT
1002
{
1000
SL
1002
}
1001
AUSTER_FOLIE
1002
{
1000
VERDRAHTUNGSBAUSATZ_S3_S3_S2
1002
}
  0
LINE
  5
386E
330
720
100
AcDbEntity
  8
11000_Left
  6
Continuous
 62
     7
370
    13
100
AcDbLine
 39
0.5
 10
585.5659137267386
 20
382.8519962594221
 30
0.0
 11
583.6446137267386
 21
380.9306962594221
 31
0.0
1001
AUSTER_ANSICHT
1002
{
1000
SL
1002
}
1001
AUSTER_FOLIE
1002
{
1000
VERDRAHTUNGSBAUSATZ_S3_S3_S2
1002
}
  0
LINE
  5
386F
330
720
100
AcDbEntity
  8
11000_Left
  6
SHORT_DASH
 62
     7
370
     9
100
AcDbLine
 39
0.5
 10
595.2253137267385
 20
368.7912962594221
 30
0.0
 11
595.2253137267385
 21
380.4912962594219
 31
0.0
1001
AUSTER_ANSICHT
1002
{
1000
SL
1002
}
1001
AUSTER_FOLIE
1002
{
1000
VERDRAHTUNGSBAUSATZ_S3_S3_S2
1002
}
  0
LINE
  5
3870
330
720
100
AcDbEntity
  8
11000_Left
  6
Continuous
 62
     7
370
    13
100
AcDbLine
 39
0.5
 10
600.9253137267384
 20
381.7912962594221
 30
0.0
 11
600.9253137267384
 21
380.4912962594219
 31
0.0
1001
AUSTER_ANSICHT
1002
{
1000
SL
1002
}
1001
AUSTER_FOLIE
1002
{
1000
VERDRAHTUNGSBAUSATZ_S3_S3_S2
1002
}
  0
LINE
  5
3871
330
720
100
AcDbEntity
  8
11000_Left
  6
Continuous
 62
     7
370
    40
100
AcDbLine
 39
0.5
 10
600.9253137267384
 20
380.4912962594219
 30
0.0
 11
601.6783137267386
 21
380.4912962594219
 31
0.0
1001
AUSTER_ANSICHT
1002
{
1000
SL
1002
}
1001
AUSTER_FOLIE
1002
{
1000
VERDRAHTUNGSBAUSATZ_S3_S3_S2
1002
}
  0
DIMENSION
  5
3965
102
{ACAD_XDICTIONARY
360
3973
102
}
102
{ACAD_REACTORS
330
397E
102
}
330
720
100
AcDbEntity
  8
10100_FRONT_DIM
  6
Continuous
 62
     7
370
    13
100
AcDbDimension
  2
*D88
 10
391.8002763037055
 20
373.4386791190821
 30
0.0
 11
391.8002763037054
 21
360.8822628759973
 31
0.0
 70
    32
 71
     5
 42
25.1128324861698
  3
H035
100
AcDbAlignedDimension
 13
381.2186405770367
 23
348.3258466329123
 33
0.0
 14
381.2205245321933
 24
373.4386791190821
 34
0.0
 50
90.0
100
AcDbRotatedDimension
1001
ACAD
1000
DSTYLE
1002
{
1070
    40
1040
1.0
1002
}
  0
DIMENSION
  5
397F
102
{ACAD_XDICTIONARY
360
398D
102
}
102
{ACAD_REACTORS
330
3998
102
}
330
720
100
AcDbEntity
  8
10100_FRONT_DIM
  6
Continuous
 62
     7
370
    13
100
AcDbDimension
  2
*D89
 10
399.4145914123283
 20
383.938679119082
 30
0.0
 11
399.4145914123282
 21
360.9386791190822
 31
0.0
 70
    32
 71
     5
 42
46.0
  3
H035
100
AcDbAlignedDimension
 13
382.3407415321934
 23
337.9386791190821
 33
0.0
 14
382.3407415321934
 24
383.9386791190821
 34
0.0
 50
90.0
100
AcDbRotatedDimension
1001
ACAD
1000
DSTYLE
1002
{
1070
    40
1040
1.0
1002
}
  0
DIMENSION
  5
39AD
102
{ACAD_XDICTIONARY
360
39BB
102
}
102
{ACAD_REACTORS
330
39C6
102
}
330
720
100
AcDbEntity
  8
10100_FRONT_DIM
  6
Continuous
 62
     7
370
    13
100
AcDbDimension
  2
*D90
 10
382.7407415321935
 20
311.4678015975268
 30
0.0
 11
366.3407415321934
 21
311.4678015975268
 31
0.0
 70
    32
 71
     5
 42
32.80000000000007
  3
H035
100
AcDbAlignedDimension
 13
349.9407415321934
 23
338.3386791190822
 33
0.0
 14
382.7407415321935
 24
338.3386791190822
 34
0.0
100
AcDbRotatedDimension
1001
ACAD
1000
DSTYLE
1002
{
1070
    40
1040
1.0
1002
}
  0
ENDSEC
  0
SECTION
  2
OBJECTS
  0
DICTIONARY
  5
6F6
330
0
100
AcDbDictionary
281
     1
  3
ACAD_COLOR
350
719
  3
ACAD_GROUP
350
6F7
  3
ACAD_LAYOUT
350
718
  3
ACAD_MATERIAL
350
6FA
  3
ACAD_MLINESTYLE
350
715
  3
ACAD_PLOTSETTINGS
350
717
  3
ACAD_PLOTSTYLENAME
350
6F8
  3
ACAD_TABLESTYLE
350
71A
  3
ACAD_VISUALSTYLE
350
6FE
  3
AcDbVariableDictionary
350
80C
  3
DWGPROPS
350
39EA
  0
DICTIONARY
  5
1391
330
6EC
100
AcDbDictionary
280
     1
281
     1
  3
ACAD_LAYERFILTERS
360
39D2
  3
ACLYDICTIONARY
360
39D1
  0
DICTIONARY
  5
13EF
330
720
100
AcDbDictionary
280
     1
281
     1
  3
ACAD_SORTENTS
360
13F0
  0
DICTIONARY
  5
255D
330
2550
100
AcDbDictionary
280
     1
281
     1
  3
ACAD_DIMASSOC
360
2567
  0
DICTIONARY
  5
3973
330
3965
100
AcDbDictionary
280
     1
281
     1
  3
ACAD_DIMASSOC
360
397E
  0
DICTIONARY
  5
398D
330
397F
100
AcDbDictionary
280
     1
281
     1
  3
ACAD_DIMASSOC
360
3998
  0
DICTIONARY
  5
39BB
330
39AD
100
AcDbDictionary
280
     1
281
     1
  3
ACAD_DIMASSOC
360
39C6
  0
DICTIONARY
  5
719
102
{ACAD_REACTORS
330
6F6
102
}
330
6F6
100
AcDbDictionary
281
     1
  0
DICTIONARY
  5
6F7
102
{ACAD_REACTORS
330
6F6
102
}
330
6F6
100
AcDbDictionary
281
     1
  0
DICTIONARY
  5
718
102
{ACAD_REACTORS
330
6F6
102
}
330
6F6
100
AcDbDictionary
281
     1
  3
Layout1
350
71F
  3
Model
350
723
  0
DICTIONARY
  5
6FA
102
{ACAD_REACTORS
330
6F6
102
}
330
6F6
100
AcDbDictionary
281
     1
  3
ByBlock
350
6FC
  3
ByLayer
350
6FB
  3
Global
350
6FD
  0
DICTIONARY
  5
715
102
{ACAD_REACTORS
330
6F6
102
}
330
6F6
100
AcDbDictionary
281
     1
  3
Standard
350
716
  0
DICTIONARY
  5
717
102
{ACAD_REACTORS
330
6F6
102
}
330
6F6
100
AcDbDictionary
281
     1
  0
ACDBDICTIONARYWDFLT
  5
6F8
102
{ACAD_REACTORS
330
6F6
102
}
330
6F6
100
AcDbDictionary
281
     1
  3
Normal
350
6F9
100
AcDbDictionaryWithDefault
340
6F9
  0
DICTIONARY
  5
71A
102
{ACAD_REACTORS
330
6F6
102
}
330
6F6
100
AcDbDictionary
281
     1
  3
Standard
350
71B
  0
DICTIONARY
  5
6FE
102
{ACAD_REACTORS
330
6F6
102
}
330
6F6
100
AcDbDictionary
281
     1
  3
2dWireframe
350
704
  3
3D Hidden
350
706
  3
3dWireframe
350
705
  3
Basic
350
703
  3
Brighten
350
70A
  3
ColorChange
350
70E
  3
Conceptual
350
707
  3
Dim
350
709
  3
Facepattern
350
70D
  3
Flat
350
6FF
  3
FlatWithEdges
350
700
  3
Gouraud
350
701
  3
GouraudWithEdges
350
702
  3
Linepattern
350
70C
  3
Realistic
350
708
  3
Thicken
350
70B
  0
DICTIONARY
  5
80C
102
{ACAD_REACTORS
330
6F6
102
}
330
6F6
100
AcDbDictionary
281
     1
  3
CSHADOW
350
39D3
  3
CTABLESTYLE
350
80D
  3
DIMASSOC
350
1383
  3
HIDETEXT
350
1382
  3
INDEXCTL
350
1381
  3
SORTENTS
350
1380
  0
XRECORD
  5
39EA
102
{ACAD_REACTORS
330
6F6
102
}
330
6F6
100
AcDbXrecord
280
     1
  1
DWGPROPS COOKIE
  2

  3

  4

  6

  7

  8
chpf
  9

300
=
301
=
302
=
303
=
304
=
305
=
306
=
307
=
308
=
309
=
 40
0.2291326851851852
 41
2444975.041666666
 42
2454079.878455937
  1

 90
        0
  0
DICTIONARY
  5
39D2
102
{ACAD_REACTORS
330
1391
102
}
330
1391
100
AcDbDictionary
281
     1
  0
DICTIONARY
  5
39D1
102
{ACAD_REACTORS
330
1391
102
}
330
1391
100
AcDbDictionary
281
     1
1001
ACAD
1000
<All
  0
SORTENTSTABLE
  5
13F0
102
{ACAD_REACTORS
330
13EF
102
}
330
13EF
100
AcDbSortentsTable
330
720
331
2312
  5
234C
331
2275
  5
227D
331
22AC
  5
22B8
331
227D
  5
2285
331
231A
  5
2353
331
2322
  5
235D
331
2285
  5
228D
331
22EB
  5
2304
331
22BC
  5
22C9
331
E0B
  5
E0B
331
E13
  5
E13
331
22F3
  5
2313
331
228D
  5
2298
331
22C4
  5
22D5
331
22CC
  5
22DD
331
22FB
  5
2320
331
21E8
  5
21F0
331
2295
  5
22A0
331
2352
  5
2424
331
229D
  5
22AD
331
2266
  5
226E
331
2303
  5
2328
331
21F0
  5
21F8
331
22D4
  5
22F1
331
241A
  5
2432
331
2276
  5
227E
331
22AD
  5
22B9
331
22DC
  5
22F9
331
231B
  5
2358
331
227E
  5
2286
331
22EC
  5
2305
331
2286
  5
228E
331
2323
  5
235F
331
22BD
  5
22CA
331
245C
  5
2292
331
E0C
  5
E0C
331
E14
  5
E14
331
25B7
  5
25D1
331
228E
  5
2299
331
22C5
  5
22D6
331
E02
  5
E02
331
22F4
  5
2315
331
22FC
  5
2321
331
2353
  5
2425
331
2296
  5
22A1
331
21E9
  5
21F1
331
2304
  5
232C
331
2267
  5
226F
331
229E
  5
22AE
331
21F1
  5
21F9
331
22AE
  5
22BA
331
22DD
  5
22FA
331
2277
  5
227F
331
2314
  5
234E
331
227F
  5
2287
331
2324
  5
240F
331
22ED
  5
2306
331
232C
  5
241A
331
22BE
  5
22CB
331
245D
  5
2293
331
E0D
  5
E0D
331
E15
  5
E15
331
2550
  5
2569
331
22F5
  5
2316
331
228F
  5
229A
331
E03
  5
E03
331
22C6
  5
22D7
331
22FD
  5
2322
331
21EA
  5
21F2
331
2297
  5
22A2
331
2354
  5
2426
331
229F
  5
22AF
331
2305
  5
232D
331
2569
  5
2583
331
2315
  5
2351
331
2278
  5
2280
331
22AF
  5
22BB
331
22DE
  5
22FB
331
2280
  5
2288
331
22B7
  5
22C3
331
22EE
  5
2307
331
2325
  5
2411
331
22BF
  5
22CC
331
232D
  5
241B
331
245E
  5
22C4
331
E0E
  5
E0E
331
E16
  5
E16
331
2288
  5
2291
331
2290
  5
229B
331
22C7
  5
22D8
331
E04
  5
E04
331
25D1
  5
25EB
331
22F6
  5
231A
331
22FE
  5
2323
331
2355
  5
2427
331
2298
  5
22A4
331
21EB
  5
21F3
331
22CF
  5
22E0
331
2306
  5
232E
331
22A0
  5
22B0
331
22D7
  5
22F4
331
230E
  5
2330
331
2271
  5
2279
331
22DF
  5
22FC
331
2279
  5
2281
331
2316
  5
2352
331
2281
  5
2289
331
2326
  5
2417
331
22B8
  5
22C5
331
22EF
  5
2308
331
245F
  5
22B7
331
E0F
  5
E0F
331
E17
  5
E17
331
2289
  5
2294
331
22C0
  5
22D1
331
22C8
  5
22D9
331
2291
  5
229C
331
E05
  5
E05
331
22FF
  5
2324
331
2262
  5
226A
331
21EC
  5
21F4
331
2299
  5
22A7
331
2356
  5
2428
331
22A1
  5
22B1
331
22D0
  5
22E1
331
230F
  5
2331
331
2272
  5
227A
331
2460
  5
228F
331
22D8
  5
22F5
331
227A
  5
2282
331
2583
  5
259D
331
22E0
  5
22FF
331
22E8
  5
2302
331
2282
  5
228A
331
231F
  5
2359
331
22B9
  5
22C6
331
E08
  5
E08
331
E10
  5
E10
331
E18
  5
E18
331
22C1
  5
22D2
331
22F0
  5
230E
331
228A
  5
2295
331
22C9
  5
22DA
331
E06
  5
E06
331
2300
  5
2325
331
2263
  5
226B
331
229A
  5
22A8
331
2357
  5
2429
331
21ED
  5
21F5
331
22D1
  5
22E2
331
2308
  5
232F
331
2668
  5
2310
331
22D9
  5
22F6
331
2273
  5
227B
331
2310
  5
2332
331
22B2
  5
22BF
331
22E1
  5
2300
331
227B
  5
2283
331
2283
  5
228B
331
2320
  5
235A
331
22BA
  5
22C7
331
E09
  5
E09
331
E11
  5
E11
331
E19
  5
E19
331
22F1
  5
230F
331
228B
  5
2296
331
22C2
  5
22D3
331
22CA
  5
22DB
331
22F9
  5
231B
331
E07
  5
E07
331
21E6
  5
21EE
331
2293
  5
229E
331
2358
  5
242A
331
2301
  5
2326
331
2264
  5
226C
331
21EE
  5
21F6
331
229B
  5
22AB
331
22D2
  5
22EE
331
2311
  5
2333
331
2274
  5
227C
331
22AB
  5
22B6
331
22DA
  5
22F7
331
22E2
  5
2301
331
227C
  5
2284
331
22EA
  5
2303
331
2284
  5
228C
331
2321
  5
235B
331
259D
  5
25B7
331
22BB
  5
22C8
331
E0A
  5
E0A
331
E12
  5
E12
331
E1A
  5
E1A
331
228C
  5
2297
331
22C3
  5
22D4
331
22F2
  5
2311
331
2351
  5
2423
331
2294
  5
229F
331
22CB
  5
22DC
331
21E7
  5
21EF
331
22FA
  5
231F
331
2302
  5
2327
331
2265
  5
226D
331
229C
  5
22AC
331
21EF
  5
21F7
331
22D3
  5
22F0
  0
DIMASSOC
  5
2567
102
{ACAD_REACTORS
330
255D
102
}
330
255D
100
AcDbDimAssoc
330
2550
 90
        3
 70
     0
 71
     0
  1
AcDbOsnapPointRef
 72
    13
331
22C2
 73
     2
 91
        0
 40
0.0
 10
0.0
 20
0.0
 30
2.000000000000000E+50
 75
     0
  1
AcDbOsnapPointRef
 72
     1
331
22B8
 73
     2
 91
        0
 40
1.0
 10
0.0
 20
0.0
 30
2.000000000000000E+50
 75
     0
  0
DIMASSOC
  5
397E
102
{ACAD_REACTORS
330
3973
102
}
330
3973
100
AcDbDimAssoc
330
3965
 90
        3
 70
     0
 71
     0
  1
AcDbOsnapPointRef
 72
     8
331
297A
 73
     2
 91
        0
 40
6.249794567053723
 10
0.0
 20
0.0
 30
0.0
 75
     1
  1
AcDbOsnapPointRef
 72
     0
 40
0.0
 10
540.6901137267385
 20
342.998996259422
 30
0.0
 75
     0
  1
AcDbOsnapPointRef
 72
     5
331
2965
 73
     2
 91
        0
 40
0.0
 10
0.0
 20
0.0
 30
0.0
 75
     0
  0
DIMASSOC
  5
3998
102
{ACAD_REACTORS
330
398D
102
}
330
398D
100
AcDbDimAssoc
330
397F
 90
        3
 70
     0
 71
     0
  1
AcDbOsnapPointRef
 72
    13
331
299F
 73
     2
 91
        0
 40
0.0
 10
0.0
 20
0.0
 30
2.000000000000000E+50
 75
     0
  1
AcDbOsnapPointRef
 72
     1
331
29EC
 73
     2
 91
        0
 40
1.0
 10
0.0
 20
0.0
 30
2.000000000000000E+50
 75
     0
  0
DIMASSOC
  5
39C6
102
{ACAD_REACTORS
330
39BB
102
}
330
39BB
100
AcDbDimAssoc
330
39AD
 90
        3
 70
     0
 71
     0
  1
AcDbOsnapPointRef
 72
     6
331
298E
 73
     2
 91
        0
 40
0.0
 10
0.0
 20
0.0
 30
0.0
332
2968
 74
     2
 92
        0
 75
     0
  1
AcDbOsnapPointRef
 72
     8
331
299C
 73
     2
 91
        0
 40
1.0
 10
0.0
 20
0.0
 30
0.0
 75
     1
  1
AcDbOsnapPointRef
 72
     6
331
298E
 73
     2
 91
        0
 40
0.0
 10
0.0
 20
0.0
 30
0.0
332
2968
 74
     2
 92
        0
 75
     0
  0
LAYOUT
  5
71F
102
{ACAD_XDICTIONARY
360
39ED
102
}
102
{ACAD_REACTORS
330
718
102
}
330
718
100
AcDbPlotSettings
  1

  2
\\ambd016a\A_P00390
  4

  6

 40
0.0
 41
0.0
 42
0.0
 43
0.0
 44
0.0
 45
0.0
 46
0.0
 47
0.0
 48
0.0
 49
0.0
140
0.0
141
0.0
142
1.0
143
1.0
 70
   688
 72
     0
 73
     0
 74
     5
  7
monochrome.ctb
 75
    16
147
1.0
148
0.0
149
0.0
100
AcDbLayout
  1
Layout1
 70
     0
 71
     1
 10
0.0
 20
0.0
 11
1189.0
 21
841.0
 12
0.0
 22
0.0
 32
0.0
 14
0.0
 24
0.0
 34
0.0
 15
1189.0
 25
841.0
 35
0.0
146
0.0
 13
0.0
 23
0.0
 33
0.0
 16
1.0
 26
0.0
 36
0.0
 17
0.0
 27
1.0
 37
0.0
 76
     0
330
71C
  0
LAYOUT
  5
723
102
{ACAD_XDICTIONARY
360
39EF
102
}
102
{ACAD_REACTORS
330
718
102
}
330
718
100
AcDbPlotSettings
  1

  2
\\ambd016a\A_P00390
  4
A4
  6

 40
6.011333465576169
 41
4.233341693878172
 42
6.011322021484375
 43
4.23333740234375
 44
209.9733276367186
 45
296.9259948730469
 46
0.0
 47
0.0
 48
0.0
 49
0.0
140
0.0
141
0.0
142
1.0
143
36.11233595267261
 70
 11952
 72
     0
 73
     1
 74
     1
  7
monochrome.ctb
 75
     0
147
0.0276913684373827
148
-6860.756499201662
149
-4983.109845576048
100
AcDbLayout
  1
Model
 70
     1
 71
     0
 10
0.0
 20
0.0
 11
12.0
 21
9.0
 12
0.0
 22
0.0
 32
0.0
 14
0.0
 24
0.0
 34
0.0
 15
0.0
 25
0.0
 35
0.0
146
0.0
 13
0.0
 23
0.0
 33
0.0
 16
1.0
 26
0.0
 36
0.0
 17
0.0
 27
1.0
 37
0.0
 76
     0
330
720
331
737
1001
ACAD_PSEXT
1000
\\ambd016a\A_P00390
1000
HP LaserJet 5000 Series PCL 5e
1000
DE/AMB
1000
DE/AMB//ad000490pr1
1070
     0
  0
MATERIAL
  5
6FC
102
{ACAD_XDICTIONARY
360
1ACA
102
}
102
{ACAD_REACTORS
330
6FA
102
}
330
6FA
100
AcDbMaterial
  1
ByBlock
  0
MATERIAL
  5
6FB
102
{ACAD_XDICTIONARY
360
1AC8
102
}
102
{ACAD_REACTORS
330
6FA
102
}
330
6FA
100
AcDbMaterial
  1
ByLayer
  0
MATERIAL
  5
6FD
102
{ACAD_XDICTIONARY
360
1ACC
102
}
102
{ACAD_REACTORS
330
6FA
102
}
330
6FA
100
AcDbMaterial
  1
Global
  0
MLINESTYLE
  5
716
102
{ACAD_REACTORS
330
715
102
}
330
715
100
AcDbMlineStyle
  2
STANDARD
 70
     0
  3

 62
   256
 51
90.0
 52
90.0
 71
     2
 49
0.5
 62
   256
  6
BYLAYER
 49
-0.5
 62
   256
  6
BYLAYER
  0
ACDBPLACEHOLDER
  5
6F9
102
{ACAD_REACTORS
330
6F8
102
}
330
6F8
  0
TABLESTYLE
  5
71B
102
{ACAD_XDICTIONARY
360
39EB
102
}
102
{ACAD_REACTORS
330
71A
102
}
330
71A
100
AcDbTableStyle
  3
Standard
 70
     0
 71
     0
 40
0.06
 41
0.06
280
     0
281
     0
  7
STANDARD
140
0.18
170
     2
 62
     0
 63
     7
283
     0
274
    -2
284
     1
 64
     0
275
    -2
285
     1
 65
     0
276
    -2
286
     1
 66
     0
277
    -2
287
     1
 67
     0
278
    -2
288
     1
 68
     0
279
    -2
289
     1
 69
     0
  7
STANDARD
140
0.25
170
     5
 62
     0
 63
     7
283
     0
274
    -2
284
     1
 64
     0
275
    -2
285
     1
 65
     0
276
    -2
286
     1
 66
     0
277
    -2
287
     1
 67
     0
278
    -2
288
     1
 68
     0
279
    -2
289
     1
 69
     0
  7
STANDARD
140
0.18
170
     5
 62
     0
 63
     7
283
     0
274
    -2
284
     1
 64
     0
275
    -2
285
     1
 65
     0
276
    -2
286
     1
 66
     0
277
    -2
287
     1
 67
     0
278
    -2
288
     1
 68
     0
279
    -2
289
     1
 69
     0
  0
VISUALSTYLE
  5
704
102
{ACAD_REACTORS
330
6FE
102
}
330
6FE
100
AcDbVisualStyle
  2
2dWireframe
 70
     4
 71
     0
 72
     2
 73
     0
 90
        0
 40
-0.6
 41
-30.0
 62
     5
 63
     7
 74
     1
 91
        4
 64
     7
 65
   257
 75
     1
175
     1
 42
1.0
 92
        0
 66
   257
 43
1.0
 76
     1
 77
     6
 78
     2
 67
     7
 79
     5
170
     0
171
     0
290
     0
174
     0
 93
        1
 44
0.0
173
     0
291
     0
 45
0.0
1001
ACAD
1000
AcDbSavedByObjectVersion
1070
     0
1000
AcDbSavedByObjectVersion
1070
     0
1000
AcDbSavedByObjectVersion
1070
     0
1000
AcDbSavedByObjectVersion
1070
     0
  0
VISUALSTYLE
  5
706
102
{ACAD_REACTORS
330
6FE
102
}
330
6FE
100
AcDbVisualStyle
  2
3D Hidden
 70
     6
 71
     1
 72
     2
 73
     2
 90
        0
 40
-0.6
 41
-30.0
 62
     5
 63
     7
 74
     2
 91
        2
 64
     7
 65
   257
 75
     2
175
     1
 42
40.0
 92
        0
 66
   257
 43
1.0
 76
     1
 77
     6
 78
     2
 67
     7
 79
     3
170
     0
171
     0
290
     0
174
     0
 93
        1
 44
0.0
173
     0
291
     0
 45
0.0
1001
ACAD
1000
AcDbSavedByObjectVersion
1070
     0
1000
AcDbSavedByObjectVersion
1070
     0
1000
AcDbSavedByObjectVersion
1070
     0
1000
AcDbSavedByObjectVersion
1070
     0
  0
VISUALSTYLE
  5
705
102
{ACAD_REACTORS
330
6FE
102
}
330
6FE
100
AcDbVisualStyle
  2
3dWireframe
 70
     5
 71
     0
 72
     2
 73
     0
 90
        0
 40
-0.6
 41
-30.0
 62
     5
 63
     7
 74
     1
 91
        4
 64
     7
 65
   257
 75
     1
175
     1
 42
1.0
 92
        0
 66
   257
 43
1.0
 76
     1
 77
     6
 78
     2
 67
     7
 79
     5
170
     0
171
     0
290
     0
174
     0
 93
        1
 44
0.0
173
     0
291
     0
 45
0.0
1001
ACAD
1000
AcDbSavedByObjectVersion
1070
     0
1000
AcDbSavedByObjectVersion
1070
     0
1000
AcDbSavedByObjectVersion
1070
     0
1000
AcDbSavedByObjectVersion
1070
     0
  0
VISUALSTYLE
  5
703
102
{ACAD_REACTORS
330
6FE
102
}
330
6FE
100
AcDbVisualStyle
  2
Basic
 70
     7
 71
     1
 72
     0
 73
     1
 90
        0
 40
-0.6
 41
-30.0
 62
     5
 63
     7
 74
     0
 91
        4
 64
     7
 65
   257
 75
     1
175
     1
 42
1.0
 92
        8
 66
     7
 43
1.0
 76
     1
 77
     6
 78
     2
 67
     7
 79
     5
170
     0
171
     0
290
     0
174
     0
 93
        1
 44
0.0
173
     0
291
     1
 45
0.0
1001
ACAD
1000
AcDbSavedByObjectVersion
1070
     0
1000
AcDbSavedByObjectVersion
1070
     0
1000
AcDbSavedByObjectVersion
1070
     0
1000
AcDbSavedByObjectVersion
1070
     0
  0
VISUALSTYLE
  5
70A
102
{ACAD_REACTORS
330
6FE
102
}
330
6FE
100
AcDbVisualStyle
  2
Brighten
 70
    12
 71
     2
 72
     2
 73
     0
 90
        0
 40
-0.6
 41
-30.0
 62
     5
 63
     7
 74
     1
 91
        4
 64
     7
 65
   257
 75
     1
175
     1
 42
1.0
 92
        8
 66
     7
 43
1.0
 76
     1
 77
     6
 78
     2
 67
     7
 79
     5
170
     0
171
     0
290
     0
174
     0
 93
        1
 44
50.0
173
     0
291
     1
 45
0.0
1001
ACAD
1000
AcDbSavedByObjectVersion
1070
     0
1000
AcDbSavedByObjectVersion
1070
     0
1000
AcDbSavedByObjectVersion
1070
     0
1000
AcDbSavedByObjectVersion
1070
     0
  0
VISUALSTYLE
  5
70E
102
{ACAD_REACTORS
330
6FE
102
}
330
6FE
100
AcDbVisualStyle
  2
ColorChange
 70
    16
 71
     2
 72
     2
 73
     3
 90
        0
 40
-0.6
 41
-30.0
 62
     5
 63
     8
 74
     1
 91
        4
 64
     7
 65
   257
 75
     1
175
     1
 42
1.0
 92
        8
 66
     8
 43
1.0
 76
     1
 77
     6
 78
     2
 67
     7
 79
     5
170
     0
171
     0
290
     0
174
     0
 93
        1
 44
0.0
173
     0
291
     1
 45
0.0
1001
ACAD
1000
AcDbSavedByObjectVersion
1070
     0
1000
AcDbSavedByObjectVersion
1070
     0
1000
AcDbSavedByObjectVersion
1070
     0
1000
AcDbSavedByObjectVersion
1070
     0
  0
VISUALSTYLE
  5
707
102
{ACAD_REACTORS
330
6FE
102
}
330
6FE
100
AcDbVisualStyle
  2
Conceptual
 70
     9
 71
     3
 72
     2
 73
     0
 90
        0
 40
-0.6
 41
-30.0
 62
     5
 63
     7
 74
     2
 91
        2
 64
     7
 65
   257
 75
     1
175
     1
 42
40.0
 92
        8
 66
     7
 43
1.0
 76
     1
 77
     6
 78
     2
 67
     7
 79
     3
170
     0
171
     0
290
     0
174
     0
 93
        1
 44
0.0
173
     0
291
     0
 45
0.0
1001
ACAD
1000
AcDbSavedByObjectVersion
1070
     0
1000
AcDbSavedByObjectVersion
1070
     0
1000
AcDbSavedByObjectVersion
1070
     0
1000
AcDbSavedByObjectVersion
1070
     0
  0
VISUALSTYLE
  5
709
102
{ACAD_REACTORS
330
6FE
102
}
330
6FE
100
AcDbVisualStyle
  2
Dim
 70
    11
 71
     2
 72
     2
 73
     0
 90
        0
 40
-0.6
 41
-30.0
 62
     5
 63
     7
 74
     1
 91
        4
 64
     7
 65
   257
 75
     1
175
     1
 42
1.0
 92
        8
 66
     7
 43
1.0
 76
     1
 77
     6
 78
     2
 67
     7
 79
     5
170
     0
171
     0
290
     0
174
     0
 93
        1
 44
-50.0
173
     0
291
     1
 45
0.0
1001
ACAD
1000
AcDbSavedByObjectVersion
1070
     0
1000
AcDbSavedByObjectVersion
1070
     0
1000
AcDbSavedByObjectVersion
1070
     0
1000
AcDbSavedByObjectVersion
1070
     0
  0
VISUALSTYLE
  5
70D
102
{ACAD_REACTORS
330
6FE
102
}
330
6FE
100
AcDbVisualStyle
  2
Facepattern
 70
    15
 71
     2
 72
     2
 73
     0
 90
        0
 40
-0.6
 41
-30.0
 62
     5
 63
     7
 74
     1
 91
        4
 64
     7
 65
   257
 75
     1
175
     1
 42
1.0
 92
        8
 66
     7
 43
1.0
 76
     1
 77
     6
 78
     2
 67
     7
 79
     5
170
     0
171
     0
290
     0
174
     0
 93
        1
 44
0.0
173
     0
291
     1
 45
0.0
1001
ACAD
1000
AcDbSavedByObjectVersion
1070
     0
1000
AcDbSavedByObjectVersion
1070
     0
1000
AcDbSavedByObjectVersion
1070
     0
1000
AcDbSavedByObjectVersion
1070
     0
  0
VISUALSTYLE
  5
6FF
102
{ACAD_REACTORS
330
6FE
102
}
330
6FE
100
AcDbVisualStyle
  2
Flat
 70
     0
 71
     2
 72
     1
 73
     1
 90
        2
 40
-0.6
 41
30.0
 62
     5
 63
     7
 74
     0
 91
        4
 64
     7
 65
   257
 75
     1
175
     1
 42
1.0
 92
        8
 66
     7
 43
1.0
 76
     1
 77
     6
 78
     2
 67
     7
 79
     5
170
     0
171
     0
290
     0
174
     0
 93
       13
 44
0.0
173
     0
291
     1
 45
0.0
1001
ACAD
1000
AcDbSavedByObjectVersion
1070
     0
1000
AcDbSavedByObjectVersion
1070
     0
1000
AcDbSavedByObjectVersion
1070
     0
1000
AcDbSavedByObjectVersion
1070
     0
  0
VISUALSTYLE
  5
700
102
{ACAD_REACTORS
330
6FE
102
}
330
6FE
100
AcDbVisualStyle
  2
FlatWithEdges
 70
     1
 71
     2
 72
     1
 73
     1
 90
        2
 40
-0.6
 41
30.0
 62
     5
 63
     7
 74
     1
 91
        4
 64
     7
 65
   257
 75
     1
175
     1
 42
1.0
 92
        0
 66
   257
 43
1.0
 76
     1
 77
     6
 78
     2
 67
     7
 79
     5
170
     0
171
     0
290
     0
174
     0
 93
       13
 44
0.0
173
     0
291
     1
 45
0.0
1001
ACAD
1000
AcDbSavedByObjectVersion
1070
     0
1000
AcDbSavedByObjectVersion
1070
     0
1000
AcDbSavedByObjectVersion
1070
     0
1000
AcDbSavedByObjectVersion
1070
     0
  0
VISUALSTYLE
  5
701
102
{ACAD_REACTORS
330
6FE
102
}
330
6FE
100
AcDbVisualStyle
  2
Gouraud
 70
     2
 71
     2
 72
     2
 73
     1
 90
        2
 40
-0.6
 41
30.0
 62
     5
 63
     7
 74
     0
 91
        4
 64
     7
 65
   257
 75
     1
175
     1
 42
1.0
 92
        0
 66
     7
 43
1.0
 76
     1
 77
     6
 78
     2
 67
     7
 79
     5
170
     0
171
     0
290
     0
174
     0
 93
       13
 44
0.0
173
     0
291
     1
 45
0.0
1001
ACAD
1000
AcDbSavedByObjectVersion
1070
     0
1000
AcDbSavedByObjectVersion
1070
     0
1000
AcDbSavedByObjectVersion
1070
     0
1000
AcDbSavedByObjectVersion
1070
     0
  0
VISUALSTYLE
  5
702
102
{ACAD_REACTORS
330
6FE
102
}
330
6FE
100
AcDbVisualStyle
  2
GouraudWithEdges
 70
     3
 71
     2
 72
     2
 73
     1
 90
        2
 40
-0.6
 41
30.0
 62
     5
 63
     7
 74
     1
 91
        4
 64
     7
 65
   257
 75
     1
175
     1
 42
1.0
 92
        0
 66
   257
 43
1.0
 76
     1
 77
     6
 78
     2
 67
     7
 79
     5
170
     0
171
     0
290
     0
174
     0
 93
       13
 44
0.0
173
     0
291
     1
 45
0.0
1001
ACAD
1000
AcDbSavedByObjectVersion
1070
     0
1000
AcDbSavedByObjectVersion
1070
     0
1000
AcDbSavedByObjectVersion
1070
     0
1000
AcDbSavedByObjectVersion
1070
     0
  0
VISUALSTYLE
  5
70C
102
{ACAD_REACTORS
330
6FE
102
}
330
6FE
100
AcDbVisualStyle
  2
Linepattern
 70
    14
 71
     2
 72
     2
 73
     0
 90
        0
 40
-0.6
 41
-30.0
 62
     5
 63
     7
 74
     1
 91
        4
 64
     7
 65
   257
 75
     7
175
     7
 42
1.0
 92
        8
 66
     7
 43
1.0
 76
     1
 77
     6
 78
     2
 67
     7
 79
     5
170
     0
171
     0
290
     0
174
     0
 93
        1
 44
0.0
173
     0
291
     1
 45
0.0
1001
ACAD
1000
AcDbSavedByObjectVersion
1070
     0
1000
AcDbSavedByObjectVersion
1070
     0
1000
AcDbSavedByObjectVersion
1070
     0
1000
AcDbSavedByObjectVersion
1070
     0
  0
VISUALSTYLE
  5
708
102
{ACAD_REACTORS
330
6FE
102
}
330
6FE
100
AcDbVisualStyle
  2
Realistic
 70
     8
 71
     2
 72
     2
 73
     0
 90
        0
 40
-0.6
 41
-30.0
 62
     5
 63
     7
 74
     1
 91
        0
 64
     7
 65
   257
 75
     1
175
     1
 42
1.0
 92
        8
 66
     8
 43
1.0
 76
     1
 77
     6
 78
     2
 67
     7
 79
     5
170
     0
171
     0
290
     0
174
     0
 93
       13
 44
0.0
173
     0
291
     0
 45
0.0
1001
ACAD
1000
AcDbSavedByObjectVersion
1070
     0
1000
AcDbSavedByObjectVersion
1070
     0
1000
AcDbSavedByObjectVersion
1070
     0
1000
AcDbSavedByObjectVersion
1070
     0
  0
VISUALSTYLE
  5
70B
102
{ACAD_REACTORS
330
6FE
102
}
330
6FE
100
AcDbVisualStyle
  2
Thicken
 70
    13
 71
     2
 72
     2
 73
     0
 90
        0
 40
-0.6
 41
-30.0
 62
     5
 63
     7
 74
     1
 91
        4
 64
     7
 65
   257
 75
     1
175
     1
 42
1.0
 92
       12
 66
     7
 43
1.0
 76
     1
 77
     6
 78
     2
 67
     7
 79
     5
170
     0
171
     0
290
     0
174
     0
 93
        1
 44
0.0
173
     0
291
     1
 45
0.0
1001
ACAD
1000
AcDbSavedByObjectVersion
1070
     0
1000
AcDbSavedByObjectVersion
1070
     0
1000
AcDbSavedByObjectVersion
1070
     0
1000
AcDbSavedByObjectVersion
1070
     0
  0
DICTIONARYVAR
  5
39D3
102
{ACAD_REACTORS
330
80C
102
}
330
80C
100
DictionaryVariables
280
     0
  1
3
  0
DICTIONARYVAR
  5
80D
102
{ACAD_REACTORS
330
80C
102
}
330
80C
100
DictionaryVariables
280
     0
  1
STANDARD
  0
DICTIONARYVAR
  5
1383
102
{ACAD_REACTORS
330
80C
102
}
330
80C
100
DictionaryVariables
280
     0
  1
2
  0
DICTIONARYVAR
  5
1382
102
{ACAD_REACTORS
330
80C
102
}
330
80C
100
DictionaryVariables
280
     0
  1
1
  0
DICTIONARYVAR
  5
1381
102
{ACAD_REACTORS
330
80C
102
}
330
80C
100
DictionaryVariables
280
     0
  1
0
  0
DICTIONARYVAR
  5
1380
102
{ACAD_REACTORS
330
80C
102
}
330
80C
100
DictionaryVariables
280
     0
  1
127
  0
DICTIONARY
  5
39ED
330
71F
100
AcDbDictionary
280
     1
281
     1
  3
ACAD_XREC_ROUNDTRIP
360
39EE
  0
DICTIONARY
  5
39EF
330
723
100
AcDbDictionary
280
     1
281
     1
  3
ACAD_XREC_ROUNDTRIP
360
39F0
  0
DICTIONARY
  5
1ACA
330
6FC
100
AcDbDictionary
280
     1
281
     1
  3
ACAD_XREC_ROUNDTRIP
360
1ACB
  0
DICTIONARY
  5
1AC8
330
6FB
100
AcDbDictionary
280
     1
281
     1
  3
ACAD_XREC_ROUNDTRIP
360
1AC9
  0
DICTIONARY
  5
1ACC
330
6FD
100
AcDbDictionary
280
     1
281
     1
  3
ACAD_XREC_ROUNDTRIP
360
1ACD
  0
DICTIONARY
  5
39EB
330
71B
100
AcDbDictionary
280
     1
281
     1
  3
ACAD_XREC_ROUNDTRIP
360
39EC
  0
XRECORD
  5
39EE
102
{ACAD_REACTORS
330
39ED
102
}
330
39ED
100
AcDbXrecord
280
     1
102
SHADEPLOT
 70
     0
102
SHADEPLOTRESLEVEL
 70
     2
102
SHADEPLOTCUSTOMDPI
 70
   300
  0
XRECORD
  5
39F0
102
{ACAD_REACTORS
330
39EF
102
}
330
39EF
100
AcDbXrecord
280
     1
102
SHADEPLOT
 70
     0
102
SHADEPLOTRESLEVEL
 70
     2
102
SHADEPLOTCUSTOMDPI
 70
   300
  0
XRECORD
  5
1ACB
102
{ACAD_REACTORS
330
1ACA
102
}
330
1ACA
100
AcDbXrecord
280
     1
102
MATERIAL
148
0.0
149
0.0
149
0.0
 93
        0
 94
       63
282
     0
 72
     1
 77
     1
171
     1
175
     1
179
     1
273
     0
  0
XRECORD
  5
1AC9
102
{ACAD_REACTORS
330
1AC8
102
}
330
1AC8
100
AcDbXrecord
280
     1
102
MATERIAL
148
0.0
149
0.0
149
0.0
 93
        0
 94
       63
282
     0
 72
     1
 77
     1
171
     1
175
     1
179
     1
273
     0
  0
XRECORD
  5
1ACD
102
{ACAD_REACTORS
330
1ACC
102
}
330
1ACC
100
AcDbXrecord
280
     1
102
MATERIAL
148
0.0
149
0.0
149
0.0
 93
        0
 94
       63
282
     0
 72
     1
 77
     1
171
     1
175
     1
179
     1
273
     0
  0
XRECORD
  5
39EC
102
{ACAD_REACTORS
330
39EB
102
}
330
39EB
100
AcDbXrecord
280
     1
102
ACAD_ROUNDTRIP_PRE2007_TABLESTYLE
 90
      512
 91
        0
  1

 92
      512
 93
        0
  2

 94
      512
 95
        0
  3

  0
ENDSEC
  0
EOF
