  0
SECTION
  2
HEADER
  9
$ACADVER
  1
AC1015
  9
$ACADMAINTVER
 70
    20
  9
$DWGCODEPAGE
  3
ANSI_1252
  9
$INSBASE
 10
0.0
 20
0.0
 30
0.0
  9
$EXTMIN
 10
-191.1179301394168
 20
570.2733863911044
 30
-1.0
  9
$EXTMAX
 10
218.8820698605832
 20
840.2733863911043
 30
0.7
  9
$LIMMIN
 10
0.0
 20
0.0
  9
$LIMMAX
 10
420.0
 20
297.0
  9
$ORTHOMODE
 70
     1
  9
$REGENMODE
 70
     1
  9
$FILLMODE
 70
     1
  9
$QTEXTMODE
 70
     0
  9
$MIRRTEXT
 70
     0
  9
$LTSCALE
 40
23.1
  9
$ATTMODE
 70
     1
  9
$TEXTSIZE
 40
0.2
  9
$TRACEWID
 40
0.05
  9
$TEXTSTYLE
  7
Standard
  9
$CLAYER
  8
0
  9
$CELTYPE
  6
ByLayer
  9
$CECOLOR
 62
   256
  9
$CELTSCALE
 40
1.0
  9
$DISPSILH
 70
     0
  9
$DIMSCALE
 40
0.0
  9
$DIMASZ
 40
3.5
  9
$DIMEXO
 40
0.0
  9
$DIMDLI
 40
3.75
  9
$DIMRND
 40
0.0
  9
$DIMDLE
 40
0.0
  9
$DIMEXE
 40
2.0
  9
$DIMTP
 40
0.0
  9
$DIMTM
 40
0.0
  9
$DIMTXT
 40
3.5
  9
$DIMCEN
 40
2.5
  9
$DIMTSZ
 40
0.0
  9
$DIMTOL
 70
     0
  9
$DIMLIM
 70
     0
  9
$DIMTIH
 70
     0
  9
$DIMTOH
 70
     0
  9
$DIMSE1
 70
     0
  9
$DIMSE2
 70
     0
  9
$DIMTAD
 70
     1
  9
$DIMZIN
 70
     8
  9
$DIMBLK
  1

  9
$DIMASO
 70
     1
  9
$DIMSHO
 70
     1
  9
$DIMPOST
  1

  9
$DIMAPOST
  1

  9
$DIMALT
 70
     0
  9
$DIMALTD
 70
     4
  9
$DIMALTF
 40
0.039
  9
$DIMLFAC
 40
1.0
  9
$DIMTOFL
 70
     1
  9
$DIMTVP
 40
0.0
  9
$DIMTIX
 70
     0
  9
$DIMSOXD
 70
     0
  9
$DIMSAH
 70
     0
  9
$DIMBLK1
  1

  9
$DIMBLK2
  1

  9
$DIMSTYLE
  2
H035
  9
$DIMCLRD
 70
   256
  9
$DIMCLRE
 70
     7
  9
$DIMCLRT
 70
     7
  9
$DIMTFAC
 40
1.0
  9
$DIMGAP
 40
0.5
  9
$DIMJUST
 70
     0
  9
$DIMSD1
 70
     0
  9
$DIMSD2
 70
     0
  9
$DIMTOLJ
 70
     1
  9
$DIMTZIN
 70
     0
  9
$DIMALTZ
 70
     0
  9
$DIMALTTZ
 70
     0
  9
$DIMUPT
 70
     0
  9
$DIMDEC
 70
     0
  9
$DIMTDEC
 70
     2
  9
$DIMALTU
 70
     8
  9
$DIMALTTD
 70
     4
  9
$DIMTXSTY
  7
Standard
  9
$DIMAUNIT
 70
     0
  9
$DIMADEC
 70
     0
  9
$DIMALTRND
 40
0.0
  9
$DIMAZIN
 70
     0
  9
$DIMDSEP
 70
    46
  9
$DIMATFIT
 70
     3
  9
$DIMFRAC
 70
     0
  9
$DIMLDRBLK
  1

  9
$DIMLUNIT
 70
     2
  9
$DIMLWD
 70
    -2
  9
$DIMLWE
 70
    -2
  9
$DIMTMOVE
 70
     0
  9
$LUNITS
 70
     2
  9
$LUPREC
 70
     4
  9
$SKETCHINC
 40
0.1
  9
$FILLETRAD
 40
0.5
  9
$AUNITS
 70
     0
  9
$AUPREC
 70
     0
  9
$MENU
  1
.
  9
$ELEVATION
 40
0.0
  9
$PELEVATION
 40
0.0
  9
$THICKNESS
 40
0.0
  9
$LIMCHECK
 70
     0
  9
$CHAMFERA
 40
0.0
  9
$CHAMFERB
 40
0.0
  9
$CHAMFERC
 40
0.0
  9
$CHAMFERD
 40
0.0
  9
$SKPOLY
 70
     0
  9
$TDCREATE
 40
2452829.417613079
  9
$TDUCREATE
 40
2452829.375946412
  9
$TDUPDATE
 40
2453424.324051516
  9
$TDUUPDATE
 40
2453424.282384850
  9
$TDINDWG
 40
2.8749101273
  9
$TDUSRTIMER
 40
2.8749032639
  9
$USRTIMER
 70
     1
  9
$ANGBASE
 50
0.0
  9
$ANGDIR
 70
     0
  9
$PDMODE
 70
     0
  9
$PDSIZE
 40
0.0
  9
$PLINEWID
 40
0.0
  9
$SPLFRAME
 70
     0
  9
$SPLINETYPE
 70
     6
  9
$SPLINESEGS
 70
     8
  9
$HANDSEED
  5
1282F
  9
$SURFTAB1
 70
     6
  9
$SURFTAB2
 70
     6
  9
$SURFTYPE
 70
     6
  9
$SURFU
 70
     6
  9
$SURFV
 70
     6
  9
$UCSBASE
  2

  9
$UCSNAME
  2

  9
$UCSORG
 10
0.0
 20
0.0
 30
0.0
  9
$UCSXDIR
 10
1.0
 20
0.0
 30
0.0
  9
$UCSYDIR
 10
0.0
 20
1.0
 30
0.0
  9
$UCSORTHOREF
  2

  9
$UCSORTHOVIEW
 70
     0
  9
$UCSORGTOP
 10
0.0
 20
0.0
 30
0.0
  9
$UCSORGBOTTOM
 10
0.0
 20
0.0
 30
0.0
  9
$UCSORGLEFT
 10
0.0
 20
0.0
 30
0.0
  9
$UCSORGRIGHT
 10
0.0
 20
0.0
 30
0.0
  9
$UCSORGFRONT
 10
0.0
 20
0.0
 30
0.0
  9
$UCSORGBACK
 10
0.0
 20
0.0
 30
0.0
  9
$PUCSBASE
  2

  9
$PUCSNAME
  2

  9
$PUCSORG
 10
0.0
 20
0.0
 30
0.0
  9
$PUCSXDIR
 10
1.0
 20
0.0
 30
0.0
  9
$PUCSYDIR
 10
0.0
 20
1.0
 30
0.0
  9
$PUCSORTHOREF
  2

  9
$PUCSORTHOVIEW
 70
     0
  9
$PUCSORGTOP
 10
0.0
 20
0.0
 30
0.0
  9
$PUCSORGBOTTOM
 10
0.0
 20
0.0
 30
0.0
  9
$PUCSORGLEFT
 10
0.0
 20
0.0
 30
0.0
  9
$PUCSORGRIGHT
 10
0.0
 20
0.0
 30
0.0
  9
$PUCSORGFRONT
 10
0.0
 20
0.0
 30
0.0
  9
$PUCSORGBACK
 10
0.0
 20
0.0
 30
0.0
  9
$USERI1
 70
     0
  9
$USERI2
 70
     0
  9
$USERI3
 70
     0
  9
$USERI4
 70
     0
  9
$USERI5
 70
     0
  9
$USERR1
 40
0.0
  9
$USERR2
 40
0.0
  9
$USERR3
 40
0.0
  9
$USERR4
 40
0.0
  9
$USERR5
 40
0.0
  9
$WORLDVIEW
 70
     1
  9
$SHADEDGE
 70
     3
  9
$SHADEDIF
 70
    70
  9
$TILEMODE
 70
     1
  9
$MAXACTVP
 70
    64
  9
$PINSBASE
 10
0.0
 20
0.0
 30
0.0
  9
$PLIMCHECK
 70
     0
  9
$PEXTMIN
 10
1.000000000000000E+20
 20
1.000000000000000E+20
 30
1.000000000000000E+20
  9
$PEXTMAX
 10
-1.000000000000000E+20
 20
-1.000000000000000E+20
 30
-1.000000000000000E+20
  9
$PLIMMIN
 10
0.0
 20
0.0
  9
$PLIMMAX
 10
12.0
 20
9.0
  9
$UNITMODE
 70
     0
  9
$VISRETAIN
 70
     1
  9
$PLINEGEN
 70
     0
  9
$PSLTSCALE
 70
     1
  9
$TREEDEPTH
 70
  3020
  9
$CMLSTYLE
  2
Standard
  9
$CMLJUST
 70
     0
  9
$CMLSCALE
 40
1.0
  9
$PROXYGRAPHICS
 70
     1
  9
$MEASUREMENT
 70
     0
  9
$CELWEIGHT
370
    -1
  9
$ENDCAPS
280
     0
  9
$JOINSTYLE
280
     0
  9
$LWDISPLAY
290
     0
  9
$INSUNITS
 70
     0
  9
$HYPERLINKBASE
  1

  9
$STYLESHEET
  1
MONOCHROME.CTB
  9
$XEDIT
290
     1
  9
$CEPSNTYPE
380
     0
  9
$PSTYLEMODE
290
     1
  9
$FINGERPRINTGUID
  2
{D88032C4-1185-41D3-97DD-7638FCF99E3F}
  9
$VERSIONGUID
  2
{E84DB5B8-2110-4679-A6CD-E43BBC665E7F}
  9
$EXTNAMES
290
     1
  9
$PSVPSCALE
 40
0.0
  9
$OLESTARTUP
290
     0
  0
ENDSEC
  0
SECTION
  2
CLASSES
  0
CLASS
  1
ACDBDICTIONARYWDFLT
  2
AcDbDictionaryWithDefault
  3
ObjectDBX Classes
 90
        0
280
     0
281
     0
  0
CLASS
  1
DICTIONARYVAR
  2
AcDbDictionaryVar
  3
ObjectDBX Classes
 90
        0
280
     0
281
     0
  0
CLASS
  1
ACDBPLACEHOLDER
  2
AcDbPlaceHolder
  3
ObjectDBX Classes
 90
        0
280
     0
281
     0
  0
CLASS
  1
LAYOUT
  2
AcDbLayout
  3
ObjectDBX Classes
 90
        0
280
     0
281
     0
  0
ENDSEC
  0
SECTION
  2
TABLES
  0
TABLE
  2
VPORT
  5
8
330
0
100
AcDbSymbolTable
 70
     2
  0
VPORT
  5
12826
330
8
100
AcDbSymbolTableRecord
100
AcDbViewportTableRecord
  2
*Active
 70
     0
 10
0.0
 20
0.0
 11
1.0
 21
1.0
 12
13.89265634490084
 22
708.6319206896728
 13
0.0
 23
0.0
 14
1.0
 24
1.0
 15
0.0
 25
0.0
 16
0.0
 26
0.0
 36
1.0
 17
0.0
 27
0.0
 37
0.0
 40
278.931540088138
 41
1.571994715984147
 42
50.0
 43
0.0
 44
0.0
 50
0.0
 51
0.0
 71
     0
 72
   100
 73
     1
 74
     1
 75
     0
 76
     0
 77
     0
 78
     0
281
     0
 65
     1
110
0.0
120
0.0
130
0.0
111
1.0
121
0.0
131
0.0
112
0.0
122
1.0
132
0.0
 79
     0
146
0.0
  0
ENDTAB
  0
TABLE
  2
LTYPE
  5
5
330
0
100
AcDbSymbolTable
 70
     3
  0
LTYPE
  5
13
330
5
100
AcDbSymbolTableRecord
100
AcDbLinetypeTableRecord
  2
ByBlock
 70
     0
  3

 72
    65
 73
     0
 40
0.0
  0
LTYPE
  5
14
330
5
100
AcDbSymbolTableRecord
100
AcDbLinetypeTableRecord
  2
ByLayer
 70
     0
  3

 72
    65
 73
     0
 40
0.0
  0
LTYPE
  5
15
330
5
100
AcDbSymbolTableRecord
100
AcDbLinetypeTableRecord
  2
CONTINUOUS
 70
     0
  3
Solid line
 72
    65
 73
     0
 40
0.0
  0
LTYPE
  5
26
330
5
100
AcDbSymbolTableRecord
100
AcDbLinetypeTableRecord
  2
CENTER
 70
     0
  3
____ _ ____ _ ____ _ ____ _ ____ _ ____ _ ____
 72
    65
 73
     4
 40
0.6
 49
0.375
 74
     0
 49
-0.075
 74
     0
 49
0.075
 74
     0
 49
-0.075
 74
     0
  0
LTYPE
  5
4F7A
330
5
100
AcDbSymbolTableRecord
100
AcDbLinetypeTableRecord
  2
DASHED
 70
     0
  3
_ _ _ _ _ _ _ _ _ _ _ _ _ _ _ _ _ _ _ _ _ _ _ _
 72
    65
 73
     2
 40
0.375
 49
0.25
 74
     0
 49
-0.125
 74
     0
  0
ENDTAB
  0
TABLE
  2
LAYER
  5
2
330
0
100
AcDbSymbolTable
 70
     8
  0
LAYER
  5
10
330
2
100
AcDbSymbolTableRecord
100
AcDbLayerTableRecord
  2
0
 70
     0
 62
     7
  6
CONTINUOUS
370
    -3
390
F
  0
LAYER
  5
1D8
330
2
100
AcDbSymbolTableRecord
100
AcDbLayerTableRecord
  2
Defpoints
 70
     0
 62
     7
  6
CONTINUOUS
290
     0
370
    -3
390
F
  0
LAYER
  5
1D9
330
2
100
AcDbSymbolTableRecord
100
AcDbLayerTableRecord
  2
91000_TIP
 70
     0
 62
     7
  6
CONTINUOUS
370
    -3
390
F
  0
LAYER
  5
1DA
330
2
100
AcDbSymbolTableRecord
100
AcDbLayerTableRecord
  2
11000_Left
 70
     0
 62
     7
  6
CONTINUOUS
370
    -3
390
F
  0
LAYER
  5
1DB
330
2
100
AcDbSymbolTableRecord
100
AcDbLayerTableRecord
  2
10000_FRONT
 70
     0
 62
     7
  6
CONTINUOUS
370
    -3
390
F
  0
LAYER
  5
1DC
330
2
100
AcDbSymbolTableRecord
100
AcDbLayerTableRecord
  2
10100_FRONT_DIM
 70
     0
 62
     7
  6
CONTINUOUS
370
    -3
390
F
  0
LAYER
  5
1DD
330
2
100
AcDbSymbolTableRecord
100
AcDbLayerTableRecord
  2
90000_FRAME
 70
     0
 62
     7
  6
CONTINUOUS
370
    -3
390
F
  0
LAYER
  5
1DE
330
2
100
AcDbSymbolTableRecord
100
AcDbLayerTableRecord
  2
11100_LEFT_DIM
 70
     0
 62
     7
  6
CONTINUOUS
370
    -3
390
F
  0
ENDTAB
  0
TABLE
  2
STYLE
  5
3
330
0
100
AcDbSymbolTable
 70
     1
  0
STYLE
  5
11
330
3
100
AcDbSymbolTableRecord
100
AcDbTextStyleTableRecord
  2
Standard
 70
     0
 40
0.0
 41
1.0
 50
0.0
 71
     0
 42
0.2
  3
txt
  4

  0
ENDTAB
  0
TABLE
  2
VIEW
  5
6
330
0
100
AcDbSymbolTable
 70
     0
  0
ENDTAB
  0
TABLE
  2
UCS
  5
7
330
0
100
AcDbSymbolTable
 70
     0
  0
ENDTAB
  0
TABLE
  2
APPID
  5
9
330
0
100
AcDbSymbolTable
 70
     3
  0
APPID
  5
12
330
9
100
AcDbSymbolTableRecord
100
AcDbRegAppTableRecord
  2
ACAD
 70
     0
  0
APPID
  5
1E8
330
9
100
AcDbSymbolTableRecord
100
AcDbRegAppTableRecord
  2
AUSTER_ANSICHT
 70
     0
  0
APPID
  5
1E9
330
9
100
AcDbSymbolTableRecord
100
AcDbRegAppTableRecord
  2
AUSTER_FOLIE
 70
     0
  0
ENDTAB
  0
TABLE
  2
DIMSTYLE
  5
A
330
0
100
AcDbSymbolTable
 70
     2
100
AcDbDimStyleTable
 71
     2
340
3A1A
340
BA
  0
DIMSTYLE
105
BA
330
A
100
AcDbSymbolTableRecord
100
AcDbDimStyleTableRecord
  2
Standard
 70
     0
340
11
  0
DIMSTYLE
105
3A1A
102
{ACAD_REACTORS
330
124F4
330
124E7
330
124DA
330
1255C
330
12569
330
1252A
330
1251D
330
12510
330
12501
330
1254F
330
12540
102
}
330
A
100
AcDbSymbolTableRecord
100
AcDbDimStyleTableRecord
  2
H035
 70
     0
 40
0.0
 41
3.5
 42
0.0
 43
3.75
 44
2.0
 73
     0
 74
     0
 77
     1
 78
     8
140
3.5
141
2.5
143
0.039
147
0.5
171
     4
172
     1
176
   256
177
     7
178
     7
271
     0
272
     2
273
     8
274
     4
340
11
  0
ENDTAB
  0
TABLE
  2
BLOCK_RECORD
  5
1
330
0
100
AcDbSymbolTable
 70
    12
  0
BLOCK_RECORD
  5
20
330
1
100
AcDbSymbolTableRecord
100
AcDbBlockTableRecord
  2
*Model_Space
340
23
  0
BLOCK_RECORD
  5
1C
330
1
100
AcDbSymbolTableRecord
100
AcDbBlockTableRecord
  2
*Paper_Space
340
1F
  0
BLOCK_RECORD
  5
3A
330
1
100
AcDbSymbolTableRecord
100
AcDbBlockTableRecord
  2
SIEMENS_OUTLINE_BL0
340
0
102
{BLKREFS
331
10171
102
}
  0
BLOCK_RECORD
  5
124DB
330
1
100
AcDbSymbolTableRecord
100
AcDbBlockTableRecord
  2
*D1
340
0
  0
BLOCK_RECORD
  5
124E8
330
1
100
AcDbSymbolTableRecord
100
AcDbBlockTableRecord
  2
*D2
340
0
  0
BLOCK_RECORD
  5
124F5
330
1
100
AcDbSymbolTableRecord
100
AcDbBlockTableRecord
  2
*D3
340
0
  0
BLOCK_RECORD
  5
12502
330
1
100
AcDbSymbolTableRecord
100
AcDbBlockTableRecord
  2
*D4
340
0
  0
BLOCK_RECORD
  5
12511
330
1
100
AcDbSymbolTableRecord
100
AcDbBlockTableRecord
  2
*D5
340
0
  0
BLOCK_RECORD
  5
1251E
330
1
100
AcDbSymbolTableRecord
100
AcDbBlockTableRecord
  2
*D6
340
0
  0
BLOCK_RECORD
  5
1252B
330
1
100
AcDbSymbolTableRecord
100
AcDbBlockTableRecord
  2
*D7
340
0
  0
BLOCK_RECORD
  5
12541
330
1
100
AcDbSymbolTableRecord
100
AcDbBlockTableRecord
  2
*D8
340
0
  0
BLOCK_RECORD
  5
12550
330
1
100
AcDbSymbolTableRecord
100
AcDbBlockTableRecord
  2
*D9
340
0
  0
BLOCK_RECORD
  5
1255D
330
1
100
AcDbSymbolTableRecord
100
AcDbBlockTableRecord
  2
*D10
340
0
  0
BLOCK_RECORD
  5
1256A
330
1
100
AcDbSymbolTableRecord
100
AcDbBlockTableRecord
  2
*D11
340
0
  0
ENDTAB
  0
ENDSEC
  0
SECTION
  2
BLOCKS
  0
BLOCK
  5
21
330
20
100
AcDbEntity
  8
0
100
AcDbBlockBegin
  2
*Model_Space
 70
     0
 10
0.0
 20
0.0
 30
0.0
  3
*Model_Space
  1

  0
ENDBLK
  5
22
330
20
100
AcDbEntity
  8
0
100
AcDbBlockEnd
  0
BLOCK
  5
1D
330
1C
100
AcDbEntity
 67
     1
  8
0
100
AcDbBlockBegin
  2
*Paper_Space
 70
     0
 10
0.0
 20
0.0
 30
0.0
  3
*Paper_Space
  1

  0
ENDBLK
  5
1E
330
1C
100
AcDbEntity
 67
     1
  8
0
100
AcDbBlockEnd
  0
BLOCK
  5
3B
330
3A
100
AcDbEntity
  8
0
  6
Continuous
 62
     7
100
AcDbBlockBegin
  2
SIEMENS_OUTLINE_BL0
 70
     0
 10
0.0
 20
0.0
 30
0.0
  3
SIEMENS_OUTLINE_BL0
  1

  0
LINE
  5
3C
330
3A
100
AcDbEntity
  8
0
  6
Continuous
 62
     7
100
AcDbLine
 10
289.1235341257
 20
21.4969115175
 30
0.0
 11
289.1235341257
 21
16.7436424342
 31
0.0
  0
LINE
  5
3D
330
3A
100
AcDbEntity
  8
0
  6
Continuous
 62
     7
100
AcDbLine
 10
290.5495148507
 20
21.4969115175
 30
0.0
 11
290.5495148507
 21
16.7436424342
 31
0.0
  0
LINE
  5
3E
330
3A
100
AcDbEntity
  8
0
  6
Continuous
 62
     7
100
AcDbLine
 10
289.1235341257
 20
16.7436424342
 30
0.0
 11
290.5495148507
 21
16.7436424342
 31
0.0
  0
LINE
  5
3F
330
3A
100
AcDbEntity
  8
0
  6
Continuous
 62
     7
100
AcDbLine
 10
289.1235341257
 20
21.4969115175
 30
0.0
 11
290.5495148507
 21
21.4969115175
 31
0.0
  0
LINE
  5
40
330
3A
100
AcDbEntity
  8
0
  6
Continuous
 62
     7
100
AcDbLine
 10
291.6427667399
 20
21.4969115175
 30
0.0
 11
291.6427667399
 21
16.7436424342
 31
0.0
  0
LINE
  5
41
330
3A
100
AcDbEntity
  8
0
  6
Continuous
 62
     7
100
AcDbLine
 10
291.6427667399
 20
16.7436424342
 30
0.0
 11
295.2077185523
 21
16.7436424342
 31
0.0
  0
LINE
  5
42
330
3A
100
AcDbEntity
  8
0
  6
Continuous
 62
     7
100
AcDbLine
 10
295.2077185523
 20
17.64676356
 30
0.0
 11
293.021214774
 21
17.64676356
 31
0.0
  0
LINE
  5
43
330
3A
100
AcDbEntity
  8
0
  6
Continuous
 62
     7
100
AcDbLine
 10
295.2077185523
 20
17.64676356
 30
0.0
 11
295.2077185523
 21
16.7436424342
 31
0.0
  0
LINE
  5
44
330
3A
100
AcDbEntity
  8
0
  6
Continuous
 62
     7
100
AcDbLine
 10
295.1601858615
 20
21.4969115175
 30
0.0
 11
291.6427667399
 21
21.4969115175
 31
0.0
  0
LINE
  5
45
330
3A
100
AcDbEntity
  8
0
  6
Continuous
 62
     7
100
AcDbLine
 10
295.1601858615
 20
20.6175567371
 30
0.0
 11
293.021214774
 21
20.6175567371
 31
0.0
  0
LINE
  5
46
330
3A
100
AcDbEntity
  8
0
  6
Continuous
 62
     7
100
AcDbLine
 10
295.1601858615
 20
21.4969115175
 30
0.0
 11
295.1601858615
 21
20.6175567371
 31
0.0
  0
LINE
  5
47
330
3A
100
AcDbEntity
  8
0
  6
Continuous
 62
     7
100
AcDbLine
 10
294.8749897165
 20
18.7637817946
 30
0.0
 11
293.021214774
 21
18.7637817946
 31
0.0
  0
LINE
  5
48
330
3A
100
AcDbEntity
  8
0
  6
Continuous
 62
     7
100
AcDbLine
 10
294.8749897165
 20
19.5480711933
 30
0.0
 11
294.8749897165
 21
18.7637817946
 31
0.0
  0
LINE
  5
49
330
3A
100
AcDbEntity
  8
0
  6
Continuous
 62
     7
100
AcDbLine
 10
294.8749897165
 20
19.5480711933
 30
0.0
 11
293.021214774
 21
19.5480711933
 31
0.0
  0
LINE
  5
4A
330
3A
100
AcDbEntity
  8
0
  6
Continuous
 62
     7
100
AcDbLine
 10
293.021214774
 20
20.6175567371
 30
0.0
 11
293.021214774
 21
19.5480711933
 31
0.0
  0
LINE
  5
4B
330
3A
100
AcDbEntity
  8
0
  6
Continuous
 62
     7
100
AcDbLine
 10
293.021214774
 20
18.7637817946
 30
0.0
 11
293.021214774
 21
17.64676356
 31
0.0
  0
LINE
  5
4C
330
3A
100
AcDbEntity
  8
0
  6
Continuous
 62
     7
100
AcDbLine
 10
296.0157742965
 20
16.7436424342
 30
0.0
 11
296.0157742965
 21
21.4969115175
 31
0.0
  0
LINE
  5
4D
330
3A
100
AcDbEntity
  8
0
  6
Continuous
 62
     7
100
AcDbLine
 10
296.0157742965
 20
16.7436424342
 30
0.0
 11
296.9664281131
 21
16.7436424342
 31
0.0
  0
LINE
  5
4E
330
3A
100
AcDbEntity
  8
0
  6
Continuous
 62
     7
100
AcDbLine
 10
301.8622952689
 20
21.4969115175
 30
0.0
 11
301.8622952689
 21
16.7436424342
 31
0.0
  0
LINE
  5
4F
330
3A
100
AcDbEntity
  8
0
  6
Continuous
 62
     7
100
AcDbLine
 10
301.8622952689
 20
16.7436424342
 30
0.0
 11
300.4838472348
 21
16.7436424342
 31
0.0
  0
LINE
  5
50
330
3A
100
AcDbEntity
  8
0
  6
Continuous
 62
     7
100
AcDbLine
 10
298.2973434565
 20
16.6961097434
 30
0.0
 11
299.1529318914
 21
16.6961097434
 31
0.0
  0
LINE
  5
51
330
3A
100
AcDbEntity
  8
0
  6
Continuous
 62
     7
100
AcDbLine
 10
298.2973434565
 20
16.6961097434
 30
0.0
 11
296.9664281131
 21
19.7857346475
 31
0.0
  0
LINE
  5
52
330
3A
100
AcDbEntity
  8
0
  6
Continuous
 62
     7
100
AcDbLine
 10
296.9664281131
 20
16.7436424342
 30
0.0
 11
296.9664281131
 21
19.7857346475
 31
0.0
  0
LINE
  5
53
330
3A
100
AcDbEntity
  8
0
  6
Continuous
 62
     7
100
AcDbLine
 10
300.4838472348
 20
19.8332673383
 30
0.0
 11
299.1529318914
 21
16.6961097434
 31
0.0
  0
LINE
  5
54
330
3A
100
AcDbEntity
  8
0
  6
Continuous
 62
     7
100
AcDbLine
 10
297.7269511665
 20
21.4969115175
 30
0.0
 11
296.0157742965
 21
21.4969115175
 31
0.0
  0
LINE
  5
55
330
3A
100
AcDbEntity
  8
0
  6
Continuous
 62
     7
100
AcDbLine
 10
301.8622952689
 20
21.4969115175
 30
0.0
 11
300.1511183989
 21
21.4969115175
 31
0.0
  0
LINE
  5
56
330
3A
100
AcDbEntity
  8
0
  6
Continuous
 62
     7
100
AcDbLine
 10
297.7269511665
 20
21.4969115175
 30
0.0
 11
298.9628011281
 21
18.5974173767
 31
0.0
  0
LINE
  5
57
330
3A
100
AcDbEntity
  8
0
  6
Continuous
 62
     7
100
AcDbLine
 10
300.1511183989
 20
21.4969115175
 30
0.0
 11
298.9628011281
 21
18.5974173767
 31
0.0
  0
LINE
  5
58
330
3A
100
AcDbEntity
  8
0
  6
Continuous
 62
     7
100
AcDbLine
 10
300.4838472348
 20
19.8332673383
 30
0.0
 11
300.4838472348
 21
16.7436424342
 31
0.0
  0
LINE
  5
59
330
3A
100
AcDbEntity
  8
0
  6
Continuous
 62
     7
100
AcDbLine
 10
302.9555471581
 20
21.4969115175
 30
0.0
 11
302.9555471581
 21
16.7436424342
 31
0.0
  0
LINE
  5
5A
330
3A
100
AcDbEntity
  8
0
  6
Continuous
 62
     7
100
AcDbLine
 10
302.9555471581
 20
16.7436424342
 30
0.0
 11
306.5204989705
 21
16.7436424342
 31
0.0
  0
LINE
  5
5B
330
3A
100
AcDbEntity
  8
0
  6
Continuous
 62
     7
100
AcDbLine
 10
306.5204989705
 20
17.64676356
 30
0.0
 11
304.3339951922
 21
17.64676356
 31
0.0
  0
LINE
  5
5C
330
3A
100
AcDbEntity
  8
0
  6
Continuous
 62
     7
100
AcDbLine
 10
306.5204989705
 20
17.64676356
 30
0.0
 11
306.5204989705
 21
16.7436424342
 31
0.0
  0
LINE
  5
5D
330
3A
100
AcDbEntity
  8
0
  6
Continuous
 62
     7
100
AcDbLine
 10
306.4729662797
 20
21.4969115175
 30
0.0
 11
302.9555471581
 21
21.4969115175
 31
0.0
  0
LINE
  5
5E
330
3A
100
AcDbEntity
  8
0
  6
Continuous
 62
     7
100
AcDbLine
 10
306.4729662797
 20
20.6175567371
 30
0.0
 11
304.3339951922
 21
20.6175567371
 31
0.0
  0
LINE
  5
5F
330
3A
100
AcDbEntity
  8
0
  6
Continuous
 62
     7
100
AcDbLine
 10
306.4729662797
 20
21.4969115175
 30
0.0
 11
306.4729662797
 21
20.6175567371
 31
0.0
  0
LINE
  5
60
330
3A
100
AcDbEntity
  8
0
  6
Continuous
 62
     7
100
AcDbLine
 10
306.1877701347
 20
18.7637817946
 30
0.0
 11
304.3339951922
 21
18.7637817946
 31
0.0
  0
LINE
  5
61
330
3A
100
AcDbEntity
  8
0
  6
Continuous
 62
     7
100
AcDbLine
 10
306.1877701347
 20
19.5480711933
 30
0.0
 11
306.1877701347
 21
18.7637817946
 31
0.0
  0
LINE
  5
62
330
3A
100
AcDbEntity
  8
0
  6
Continuous
 62
     7
100
AcDbLine
 10
306.1877701347
 20
19.5480711933
 30
0.0
 11
304.3339951922
 21
19.5480711933
 31
0.0
  0
LINE
  5
63
330
3A
100
AcDbEntity
  8
0
  6
Continuous
 62
     7
100
AcDbLine
 10
304.3339951922
 20
20.6175567371
 30
0.0
 11
304.3339951922
 21
19.5480711933
 31
0.0
  0
LINE
  5
64
330
3A
100
AcDbEntity
  8
0
  6
Continuous
 62
     7
100
AcDbLine
 10
304.3339951922
 20
18.7637817946
 30
0.0
 11
304.3339951922
 21
17.64676356
 31
0.0
  0
LINE
  5
65
330
3A
100
AcDbEntity
  8
0
  6
Continuous
 62
     7
100
AcDbLine
 10
307.3047883693
 20
16.7436424342
 30
0.0
 11
307.3047883693
 21
21.4969115175
 31
0.0
  0
LINE
  5
66
330
3A
100
AcDbEntity
  8
0
  6
Continuous
 62
     7
100
AcDbLine
 10
311.4876651625
 20
21.4969115175
 30
0.0
 11
311.4876651625
 21
16.7436424342
 31
0.0
  0
LINE
  5
67
330
3A
100
AcDbEntity
  8
0
  6
Continuous
 62
     7
100
AcDbLine
 10
307.3047883693
 20
16.7436424342
 30
0.0
 11
308.2554421859
 21
16.7436424342
 31
0.0
  0
LINE
  5
68
330
3A
100
AcDbEntity
  8
0
  6
Continuous
 62
     7
100
AcDbLine
 10
311.4876651625
 20
21.4969115175
 30
0.0
 11
310.5370113459
 21
21.4969115175
 31
0.0
  0
LINE
  5
69
330
3A
100
AcDbEntity
  8
0
  6
Continuous
 62
     7
100
AcDbLine
 10
308.8496008213
 20
21.4969115175
 30
0.0
 11
307.3047883693
 21
21.4969115175
 31
0.0
  0
LINE
  5
6A
330
3A
100
AcDbEntity
  8
0
  6
Continuous
 62
     7
100
AcDbLine
 10
311.4876651625
 20
16.7436424342
 30
0.0
 11
309.9666190559
 21
16.7436424342
 31
0.0
  0
LINE
  5
6B
330
3A
100
AcDbEntity
  8
0
  6
Continuous
 62
     7
100
AcDbLine
 10
309.9666190559
 20
16.7436424342
 30
0.0
 11
308.2554421859
 21
19.7857346475
 31
0.0
  0
LINE
  5
6C
330
3A
100
AcDbEntity
  8
0
  6
Continuous
 62
     7
100
AcDbLine
 10
308.8496008213
 20
21.4969115175
 30
0.0
 11
310.5370113459
 21
18.5498846858
 31
0.0
  0
LINE
  5
6D
330
3A
100
AcDbEntity
  8
0
  6
Continuous
 62
     7
100
AcDbLine
 10
310.5370113459
 20
21.4969115175
 30
0.0
 11
310.5370113459
 21
18.5498846858
 31
0.0
  0
LINE
  5
6E
330
3A
100
AcDbEntity
  8
0
  6
Continuous
 62
     7
100
AcDbLine
 10
308.2554421859
 20
16.7436424342
 30
0.0
 11
308.2554421859
 21
19.7857346475
 31
0.0
  0
LINE
  5
6F
330
3A
100
AcDbEntity
  8
0
  6
Continuous
 62
     7
100
AcDbLine
 10
312.2957209067
 20
16.8387078159
 30
0.0
 11
312.2957209067
 21
17.7893616325
 31
0.0
  0
LINE
  5
70
330
3A
100
AcDbEntity
  8
0
  6
Continuous
 62
     7
100
AcDbLine
 10
315.623009265
 20
20.49872501
 30
0.0
 11
315.623009265
 21
21.4493788266
 31
0.0
  0
ARC
  5
71
330
3A
100
AcDbEntity
  8
0
  6
Continuous
 62
     7
100
AcDbCircle
 10
314.0003620317
 20
18.7008009792
 30
0.0
 40
1.111619360599997
100
AcDbArc
 50
277.7099956934
 51
295.6884927746
  0
ARC
  5
72
330
3A
100
AcDbEntity
  8
0
  6
Continuous
 62
     7
100
AcDbCircle
 10
314.2846720145
 20
17.9759752156
 30
0.0
 40
0.3401689265
100
AcDbArc
 50
305.503221255
 51
72.46528985229999
  0
ARC
  5
73
330
3A
100
AcDbEntity
  8
0
  6
Continuous
 62
     7
100
AcDbCircle
 10
313.7186782063
 20
21.3776821252
 30
0.0
 40
4.756794641099999
100
AcDbArc
 50
252.5939200548001
 51
280.9816604256
  0
ARC
  5
74
330
3A
100
AcDbEntity
  8
0
  6
Continuous
 62
     7
100
AcDbCircle
 10
314.1735135694
 20
18.7596683887
 30
0.0
 40
2.100726595299998
100
AcDbArc
 50
282.405835852
 51
311.8644433928
  0
ARC
  5
75
330
3A
100
AcDbEntity
  8
0
  6
Continuous
 62
     7
100
AcDbCircle
 10
313.8999492223
 20
20.3680101102
 30
0.0
 40
0.3029626476
100
AcDbArc
 50
154.4400348282
 51
221.8201698801
  0
ARC
  5
76
330
3A
100
AcDbEntity
  8
0
  6
Continuous
 62
     7
100
AcDbCircle
 10
313.9791703737
 20
20.2887889588
 30
0.0
 40
0.4103089737
100
AcDbArc
 50
102.8287828681
 51
149.2259639003
  0
ARC
  5
77
330
3A
100
AcDbEntity
  8
0
  6
Continuous
 62
     7
100
AcDbCircle
 10
314.3961972093
 20
18.546453629
 30
0.0
 40
2.201836557
100
AcDbArc
 50
84.0400061857
 51
103.3427657870999
  0
ARC
  5
78
330
3A
100
AcDbEntity
  8
0
  6
Continuous
 62
     7
100
AcDbCircle
 10
314.0552333846
 20
16.1290897051
 30
0.0
 40
4.642373736499997
100
AcDbArc
 50
70.2625858546
 51
82.95241863799999
  0
ARC
  5
79
330
3A
100
AcDbEntity
  8
0
  6
Continuous
 62
     7
100
AcDbCircle
 10
313.5412151824001
 20
20.8007125947
 30
0.0
 40
3.258755990899997
100
AcDbArc
 50
247.5300206145
 51
280.7579522143
  0
ARC
  5
7A
330
3A
100
AcDbEntity
  8
0
  6
Continuous
 62
     7
100
AcDbCircle
 10
307.1562487104
 20
2.5491926343
 30
0.0
 40
17.3316084133
100
AcDbArc
 50
65.34146746500001
 51
67.39977707359999
  0
ARC
  5
7B
330
3A
100
AcDbEntity
  8
0
  6
Continuous
 62
     7
100
AcDbCircle
 10
317.9521111158
 20
28.3416189974
 30
0.0
 40
10.6291642039
100
AcDbArc
 50
242.8620101252001
 51
247.1042029186
  0
ARC
  5
7C
330
3A
100
AcDbEntity
  8
0
  6
Continuous
 62
     7
100
AcDbCircle
 10
314.0972098893
 20
20.8076875004
 30
0.0
 40
2.166291629199998
100
AcDbArc
 50
227.3119280794
 51
242.7040315235
  0
ARC
  5
7D
330
3A
100
AcDbEntity
  8
0
  6
Continuous
 62
     7
100
AcDbCircle
 10
313.4931790796
 20
20.1020098596
 30
0.0
 40
1.238521734
100
AcDbArc
 50
194.7952194236
 51
225.7176549047
  0
ARC
  5
7E
330
3A
100
AcDbEntity
  8
0
  6
Continuous
 62
     7
100
AcDbCircle
 10
313.5553372138
 20
20.1422298287
 30
0.0
 40
1.309092072899999
100
AcDbArc
 50
164.1974860461
 51
195.8025139539
  0
ARC
  5
7F
330
3A
100
AcDbEntity
  8
0
  6
Continuous
 62
     7
100
AcDbCircle
 10
314.1123609345001
 20
19.2539626688
 30
0.0
 40
2.366924815299999
100
AcDbArc
 50
86.22180229280001
 51
120.4272602309
  0
ARC
  5
80
330
3A
100
AcDbEntity
  8
0
  6
Continuous
 62
     7
100
AcDbCircle
 10
313.8435041519
 20
12.5577948477
 30
0.0
 40
9.0679051661
100
AcDbArc
 50
78.68270492259998
 51
87.3147599624
  0
ARC
  5
81
330
3A
100
AcDbEntity
  8
0
  6
Continuous
 62
     7
100
AcDbCircle
 10
313.3874349735
 20
20.2497375912
 30
0.0
 40
1.119747444
100
AcDbArc
 50
142.813917903
 51
167.1522951417
  0
ARC
  5
82
330
3A
100
AcDbEntity
  8
0
  6
Continuous
 62
     7
100
AcDbCircle
 10
313.7327443151
 20
19.9431558946
 30
0.0
 40
1.580546684499998
100
AcDbArc
 50
121.2140948535
 51
141.5254768286
  0
ARC
  5
83
330
3A
100
AcDbEntity
  8
0
  6
Continuous
 62
     7
100
AcDbCircle
 10
314.3099186807
 20
20.7542132232
 30
0.0
 40
0.8661276051999998
100
AcDbArc
 50
222.7760387596
 51
239.0362434679
  0
ARC
  5
84
330
3A
100
AcDbEntity
  8
0
  6
Continuous
 62
     7
100
AcDbCircle
 10
311.8032091024
 20
13.4239410246
 30
0.0
 40
6.858773576299999
100
AcDbArc
 50
59.90202725600001
 51
68.2036481279
  0
ARC
  5
85
330
3A
100
AcDbEntity
  8
0
  6
Continuous
 62
     7
100
AcDbCircle
 10
315.2117035963
 20
22.3498275319
 30
0.0
 40
2.698741017099999
100
AcDbArc
 50
240.0481997804
 51
251.3779673736999
  0
ARC
  5
86
330
3A
100
AcDbEntity
  8
0
  6
Continuous
 62
     7
100
AcDbCircle
 10
314.5462464295
 20
18.1929289165
 30
0.0
 40
1.4334474881
100
AcDbArc
 50
315.8904553224
 51
333.5229264373
  0
ARC
  5
87
330
3A
100
AcDbEntity
  8
0
  6
Continuous
 62
     7
100
AcDbCircle
 10
314.5508846732
 20
18.1395217664
 30
0.0
 40
1.406228711899998
100
AcDbArc
 50
335.3867972702
 51
24.3915119402
  0
ARC
  5
88
330
3A
100
AcDbEntity
  8
0
  6
Continuous
 62
     7
100
AcDbCircle
 10
314.4786797697
 20
18.0616650746
 30
0.0
 40
1.504702514799999
100
AcDbArc
 50
25.95629166050001
 51
59.4834829668
  0
LINE
  5
89
330
3A
100
AcDbEntity
  8
0
  6
Continuous
 62
     7
100
AcDbLine
 10
284.7029938783
 20
16.8387078159
 30
0.0
 11
284.7029938783
 21
17.7893616325
 31
0.0
  0
LINE
  5
8A
330
3A
100
AcDbEntity
  8
0
  6
Continuous
 62
     7
100
AcDbLine
 10
288.0302822366
 20
20.49872501
 30
0.0
 11
288.0302822366
 21
21.4493788266
 31
0.0
  0
ARC
  5
8B
330
3A
100
AcDbEntity
  8
0
  6
Continuous
 62
     7
100
AcDbCircle
 10
286.4076350033
 20
18.7008009792
 30
0.0
 40
1.111619360599997
100
AcDbArc
 50
277.7099956934
 51
295.6884927746
  0
ARC
  5
8C
330
3A
100
AcDbEntity
  8
0
  6
Continuous
 62
     7
100
AcDbCircle
 10
286.691944986
 20
17.9759752156
 30
0.0
 40
0.3401689265
100
AcDbArc
 50
305.5032212556
 51
72.4652898515
  0
ARC
  5
8D
330
3A
100
AcDbEntity
  8
0
  6
Continuous
 62
     7
100
AcDbCircle
 10
286.1259511779
 20
21.3776821252
 30
0.0
 40
4.756794641099999
100
AcDbArc
 50
252.5939200545
 51
280.9816604253
  0
ARC
  5
8E
330
3A
100
AcDbEntity
  8
0
  6
Continuous
 62
     7
100
AcDbCircle
 10
286.580786541
 20
18.7596683887
 30
0.0
 40
2.100726595299998
100
AcDbArc
 50
282.4058358513
 51
311.8644433923
  0
ARC
  5
8F
330
3A
100
AcDbEntity
  8
0
  6
Continuous
 62
     7
100
AcDbCircle
 10
286.3072221939
 20
20.3680101102
 30
0.0
 40
0.3029626476
100
AcDbArc
 50
154.4400348282
 51
221.8201698801
  0
ARC
  5
90
330
3A
100
AcDbEntity
  8
0
  6
Continuous
 62
     7
100
AcDbCircle
 10
286.3864433453
 20
20.2887889588
 30
0.0
 40
0.4103089737
100
AcDbArc
 50
102.8287828727
 51
149.2259639027
  0
ARC
  5
91
330
3A
100
AcDbEntity
  8
0
  6
Continuous
 62
     7
100
AcDbCircle
 10
286.8034701809
 20
18.546453629
 30
0.0
 40
2.201836557
100
AcDbArc
 50
84.0400061859
 51
103.3427657872
  0
ARC
  5
92
330
3A
100
AcDbEntity
  8
0
  6
Continuous
 62
     7
100
AcDbCircle
 10
286.4625063562
 20
16.1290897051
 30
0.0
 40
4.642373736499997
100
AcDbArc
 50
70.2625858546
 51
82.9524186379
  0
ARC
  5
93
330
3A
100
AcDbEntity
  8
0
  6
Continuous
 62
     7
100
AcDbCircle
 10
285.948488154
 20
20.8007125947
 30
0.0
 40
3.258755990899997
100
AcDbArc
 50
247.5300206148
 51
280.7579522145
  0
ARC
  5
94
330
3A
100
AcDbEntity
  8
0
  6
Continuous
 62
     7
100
AcDbCircle
 10
279.563521682
 20
2.5491926343
 30
0.0
 40
17.3316084133
100
AcDbArc
 50
65.34146746500001
 51
67.39977707359999
  0
ARC
  5
95
330
3A
100
AcDbEntity
  8
0
  6
Continuous
 62
     7
100
AcDbCircle
 10
290.3593840874
 20
28.3416189974
 30
0.0
 40
10.6291642039
100
AcDbArc
 50
242.8620101252001
 51
247.1042029185
  0
ARC
  5
96
330
3A
100
AcDbEntity
  8
0
  6
Continuous
 62
     7
100
AcDbCircle
 10
286.5044828608
 20
20.8076875004
 30
0.0
 40
2.166291629199998
100
AcDbArc
 50
227.3119280794
 51
242.7040315235
  0
ARC
  5
97
330
3A
100
AcDbEntity
  8
0
  6
Continuous
 62
     7
100
AcDbCircle
 10
285.9004520512
 20
20.1020098596
 30
0.0
 40
1.238521734
100
AcDbArc
 50
194.7952194234
 51
225.7176549042
  0
ARC
  5
98
330
3A
100
AcDbEntity
  8
0
  6
Continuous
 62
     7
100
AcDbCircle
 10
286.519633906
 20
19.2539626688
 30
0.0
 40
2.366924815299999
100
AcDbArc
 50
86.22180229280001
 51
120.4272602309
  0
ARC
  5
99
330
3A
100
AcDbEntity
  8
0
  6
Continuous
 62
     7
100
AcDbCircle
 10
286.2507771235
 20
12.5577948477
 30
0.0
 40
9.0679051661
100
AcDbArc
 50
78.68270492259998
 51
87.3147599624
  0
ARC
  5
9A
330
3A
100
AcDbEntity
  8
0
  6
Continuous
 62
     7
100
AcDbCircle
 10
286.1400172867
 20
19.9431558946
 30
0.0
 40
1.580546684599998
100
AcDbArc
 50
121.2140948541
 51
141.525476829
  0
ARC
  5
9B
330
3A
100
AcDbEntity
  8
0
  6
Continuous
 62
     7
100
AcDbCircle
 10
286.7171916523
 20
20.7542132232
 30
0.0
 40
0.8661276051999998
100
AcDbArc
 50
222.7760387596
 51
239.0362434679
  0
ARC
  5
9C
330
3A
100
AcDbEntity
  8
0
  6
Continuous
 62
     7
100
AcDbCircle
 10
284.210482074
 20
13.4239410246
 30
0.0
 40
6.858773576299999
100
AcDbArc
 50
59.90202725620001
 51
68.20364812820002
  0
ARC
  5
9D
330
3A
100
AcDbEntity
  8
0
  6
Continuous
 62
     7
100
AcDbCircle
 10
287.6189765678
 20
22.3498275319
 30
0.0
 40
2.698741017099999
100
AcDbArc
 50
240.0481997804
 51
251.3779673734
  0
ARC
  5
9E
330
3A
100
AcDbEntity
  8
0
  6
Continuous
 62
     7
100
AcDbCircle
 10
286.953519401
 20
18.1929289165
 30
0.0
 40
1.4334474881
100
AcDbArc
 50
315.8904553226
 51
333.5229264375
  0
ARC
  5
9F
330
3A
100
AcDbEntity
  8
0
  6
Continuous
 62
     7
100
AcDbCircle
 10
286.9581576447
 20
18.1395217664
 30
0.0
 40
1.406228711899998
100
AcDbArc
 50
335.3867972703
 51
24.3915119403
  0
ARC
  5
A0
330
3A
100
AcDbEntity
  8
0
  6
Continuous
 62
     7
100
AcDbCircle
 10
286.8859527412
 20
18.0616650746
 30
0.0
 40
1.504702514699999
100
AcDbArc
 50
25.9562916611
 51
59.4834829676
  0
LINE
  5
A1
330
3A
100
AcDbEntity
  8
0
  6
Continuous
 62
     7
100
AcDbLine
 10
284.8948224676
 20
20.9161059766
 30
0.0
 11
285.1688882922
 21
21.1901790542
 31
0.0
  0
ARC
  5
A2
330
3A
100
AcDbEntity
  8
0
  6
Continuous
 62
     7
100
AcDbCircle
 10
285.9626101853
 20
20.1422298287
 30
0.0
 40
1.309092072899999
100
AcDbArc
 50
164.1974860461
 51
195.8025139539
  0
ARC
  5
A3
330
3A
100
AcDbEntity
  8
0
  6
Continuous
 62
     7
100
AcDbCircle
 10
285.7947079451
 20
20.2497375912
 30
0.0
 40
1.119747444
100
AcDbArc
 50
142.813917903
 51
167.1522951417
  0
ENDBLK
  5
A4
330
3A
100
AcDbEntity
  8
0
100
AcDbBlockEnd
  0
BLOCK
  5
124E5
330
124DB
100
AcDbEntity
  8
0
100
AcDbBlockBegin
  2
*D1
 70
     1
 10
0.0
 20
0.0
 30
0.0
  3
*D1
  1

  0
LINE
  5
1276F
330
124DB
100
AcDbEntity
  8
10100_FRONT_DIM
  6
Continuous
 62
     7
370
    -2
100
AcDbLine
 10
-87.41501907162691
 20
692.3266530542672
 30
0.0
 11
-87.41501907162691
 21
655.0652107825476
 31
0.0
  0
LINE
  5
12770
330
124DB
100
AcDbEntity
  8
10100_FRONT_DIM
  6
Continuous
 62
     7
370
    -2
100
AcDbLine
 10
-77.41501907162692
 20
692.3266530542672
 30
0.0
 11
-77.41501907162692
 21
655.0652107825476
 31
0.0
  0
LINE
  5
12771
330
124DB
100
AcDbEntity
  8
10100_FRONT_DIM
  6
Continuous
370
    -2
100
AcDbLine
 10
-90.91501907162692
 20
657.0652107825476
 30
0.0
 11
-94.41501907162693
 21
657.0652107825476
 31
0.0
  0
LINE
  5
12772
330
124DB
100
AcDbEntity
  8
10100_FRONT_DIM
  6
Continuous
370
    -2
100
AcDbLine
 10
-73.9150190716269
 20
657.0652107825476
 30
0.0
 11
-70.4150190716269
 21
657.0652107825476
 31
0.0
  0
LINE
  5
12773
330
124DB
100
AcDbEntity
  8
10100_FRONT_DIM
  6
Continuous
370
    -2
100
AcDbLine
 10
-87.41501907162691
 20
657.0652107825476
 30
0.0
 11
-85.95668573829359
 21
657.0652107825476
 31
0.0
  0
LINE
  5
12774
330
124DB
100
AcDbEntity
  8
10100_FRONT_DIM
  6
Continuous
370
    -2
100
AcDbLine
 10
-77.41501907162692
 20
657.0652107825476
 30
0.0
 11
-78.87335240496025
 21
657.0652107825476
 31
0.0
  0
SOLID
  5
12775
330
124DB
100
AcDbEntity
  8
10100_FRONT_DIM
  6
Continuous
100
AcDbTrace
 10
-90.91501907162692
 20
657.6485441158808
 30
0.0
 11
-90.91501907162692
 21
656.4818774492143
 31
0.0
 12
-87.41501907162691
 22
657.0652107825476
 32
0.0
 13
-87.41501907162691
 23
657.0652107825476
 33
0.0
  0
SOLID
  5
12776
330
124DB
100
AcDbEntity
  8
10100_FRONT_DIM
  6
Continuous
100
AcDbTrace
 10
-73.9150190716269
 20
657.6485441158808
 30
0.0
 11
-73.9150190716269
 21
656.4818774492143
 31
0.0
 12
-77.41501907162692
 22
657.0652107825476
 32
0.0
 13
-77.41501907162692
 23
657.0652107825476
 33
0.0
  0
MTEXT
  5
12777
330
124DB
100
AcDbEntity
  8
10100_FRONT_DIM
  6
Continuous
 62
     7
370
    13
100
AcDbMText
 10
-82.41501907162691
 20
657.0652107825476
 30
0.0
 40
3.5
 41
0.0
 71
     5
 72
     1
  1
\A1;10
 73
     1
 44
1.0
1001
ACAD
1000
MTEXTBEGIN
1070
    73
1070
     1
1070
    44
1040
1.0
1070
    74
1070
     0
1000
MTEXTEND
  0
POINT
  5
12778
330
124DB
100
AcDbEntity
  8
Defpoints
  6
Continuous
 62
     0
100
AcDbPoint
 10
-87.41501907162691
 20
692.3266530542672
 30
0.0
  0
POINT
  5
12779
330
124DB
100
AcDbEntity
  8
Defpoints
  6
Continuous
 62
     0
100
AcDbPoint
 10
-77.41501907162692
 20
692.3266530542672
 30
0.0
  0
POINT
  5
1277A
330
124DB
100
AcDbEntity
  8
Defpoints
  6
Continuous
 62
     0
100
AcDbPoint
 10
-77.41501907162692
 20
657.0652107825476
 30
0.0
  0
ENDBLK
  5
124E6
330
124DB
100
AcDbEntity
  8
0
100
AcDbBlockEnd
  0
BLOCK
  5
124F2
330
124E8
100
AcDbEntity
  8
0
100
AcDbBlockBegin
  2
*D2
 70
     1
 10
0.0
 20
0.0
 30
0.0
  3
*D2
  1

  0
LINE
  5
12765
330
124E8
100
AcDbEntity
  8
10100_FRONT_DIM
  6
Continuous
 62
     7
370
    -2
100
AcDbLine
 10
-72.4150190716269
 20
686.3266530558872
 30
0.0
 11
-72.4150190716269
 21
655.0652107825476
 31
0.0
  0
LINE
  5
12766
330
124E8
100
AcDbEntity
  8
10100_FRONT_DIM
  6
Continuous
 62
     7
370
    -2
100
AcDbLine
 10
-22.41518877648503
 20
685.8111899296963
 30
0.0
 11
-22.41518877648504
 21
655.0652107825476
 31
0.0
  0
LINE
  5
12767
330
124E8
100
AcDbEntity
  8
10100_FRONT_DIM
  6
Continuous
370
    -2
100
AcDbLine
 10
-68.9150190716269
 20
657.0652107825476
 30
0.0
 11
-51.54010392405597
 21
657.0652107825476
 31
0.0
  0
LINE
  5
12768
330
124E8
100
AcDbEntity
  8
10100_FRONT_DIM
  6
Continuous
370
    -2
100
AcDbLine
 10
-25.91518877648503
 20
657.0652107825476
 30
0.0
 11
-43.29010392405597
 21
657.0652107825476
 31
0.0
  0
SOLID
  5
12769
330
124E8
100
AcDbEntity
  8
10100_FRONT_DIM
  6
Continuous
100
AcDbTrace
 10
-68.9150190716269
 20
657.6485441158808
 30
0.0
 11
-68.9150190716269
 21
656.4818774492143
 31
0.0
 12
-72.4150190716269
 22
657.0652107825476
 32
0.0
 13
-72.4150190716269
 23
657.0652107825476
 33
0.0
  0
SOLID
  5
1276A
330
124E8
100
AcDbEntity
  8
10100_FRONT_DIM
  6
Continuous
100
AcDbTrace
 10
-25.91518877648503
 20
657.6485441158808
 30
0.0
 11
-25.91518877648503
 21
656.4818774492143
 31
0.0
 12
-22.41518877648503
 22
657.0652107825476
 32
0.0
 13
-22.41518877648503
 23
657.0652107825476
 33
0.0
  0
MTEXT
  5
1276B
330
124E8
100
AcDbEntity
  8
10100_FRONT_DIM
  6
Continuous
 62
     7
370
    13
100
AcDbMText
 10
-47.41510392405595
 20
657.0652107825476
 30
0.0
 40
3.5
 41
0.0
 71
     5
 72
     1
  1
\A1;50
 73
     1
 44
1.0
1001
ACAD
1000
MTEXTBEGIN
1070
    73
1070
     1
1070
    44
1040
1.0
1070
    74
1070
     0
1000
MTEXTEND
  0
POINT
  5
1276C
330
124E8
100
AcDbEntity
  8
Defpoints
  6
Continuous
 62
     0
100
AcDbPoint
 10
-72.4150190716269
 20
686.3266530558872
 30
0.0
  0
POINT
  5
1276D
330
124E8
100
AcDbEntity
  8
Defpoints
  6
Continuous
 62
     0
100
AcDbPoint
 10
-22.41518877648503
 20
685.8111899296963
 30
0.0
  0
POINT
  5
1276E
330
124E8
100
AcDbEntity
  8
Defpoints
  6
Continuous
 62
     0
100
AcDbPoint
 10
-22.41518877648503
 20
657.0652107825476
 30
0.0
  0
ENDBLK
  5
124F3
330
124E8
100
AcDbEntity
  8
0
100
AcDbBlockEnd
  0
BLOCK
  5
124FF
330
124F5
100
AcDbEntity
  8
0
100
AcDbBlockBegin
  2
*D3
 70
     1
 10
0.0
 20
0.0
 30
0.0
  3
*D3
  1

  0
LINE
  5
1275B
330
124F5
100
AcDbEntity
  8
10100_FRONT_DIM
  6
Continuous
 62
     7
370
    -2
100
AcDbLine
 10
-142.4151090716269
 20
685.8266530542672
 30
0.0
 11
-142.4151090716269
 21
648.392405595399
 31
0.0
  0
LINE
  5
1275C
330
124F5
100
AcDbEntity
  8
10100_FRONT_DIM
  6
Continuous
 62
     7
370
    -2
100
AcDbLine
 10
-22.41510907162691
 20
685.8266530542672
 30
0.0
 11
-22.41510907162692
 21
648.392405595399
 31
0.0
  0
LINE
  5
1275D
330
124F5
100
AcDbEntity
  8
10100_FRONT_DIM
  6
Continuous
370
    -2
100
AcDbLine
 10
-138.9151090716269
 20
650.392405595399
 30
0.0
 11
-87.70677573829358
 21
650.392405595399
 31
0.0
  0
LINE
  5
1275E
330
124F5
100
AcDbEntity
  8
10100_FRONT_DIM
  6
Continuous
370
    -2
100
AcDbLine
 10
-25.91510907162692
 20
650.392405595399
 30
0.0
 11
-77.12344240496022
 21
650.392405595399
 31
0.0
  0
SOLID
  5
1275F
330
124F5
100
AcDbEntity
  8
10100_FRONT_DIM
  6
Continuous
100
AcDbTrace
 10
-138.9151090716269
 20
650.9757389287324
 30
0.0
 11
-138.9151090716269
 21
649.8090722620657
 31
0.0
 12
-142.4151090716269
 22
650.392405595399
 32
0.0
 13
-142.4151090716269
 23
650.392405595399
 33
0.0
  0
SOLID
  5
12760
330
124F5
100
AcDbEntity
  8
10100_FRONT_DIM
  6
Continuous
100
AcDbTrace
 10
-25.91510907162692
 20
650.9757389287324
 30
0.0
 11
-25.91510907162692
 21
649.8090722620657
 31
0.0
 12
-22.41510907162692
 22
650.392405595399
 32
0.0
 13
-22.41510907162692
 23
650.392405595399
 33
0.0
  0
MTEXT
  5
12761
330
124F5
100
AcDbEntity
  8
10100_FRONT_DIM
  6
Continuous
 62
     7
370
    13
100
AcDbMText
 10
-82.41510907162689
 20
650.392405595399
 30
0.0
 40
3.5
 41
0.0
 71
     5
 72
     1
  1
\A1;120
 73
     1
 44
1.0
1001
ACAD
1000
MTEXTBEGIN
1070
    73
1070
     1
1070
    44
1040
1.0
1070
    74
1070
     0
1000
MTEXTEND
  0
POINT
  5
12762
330
124F5
100
AcDbEntity
  8
Defpoints
  6
Continuous
 62
     0
100
AcDbPoint
 10
-142.4151090716269
 20
685.8266530542672
 30
0.0
  0
POINT
  5
12763
330
124F5
100
AcDbEntity
  8
Defpoints
  6
Continuous
 62
     0
100
AcDbPoint
 10
-22.41510907162691
 20
685.8266530542672
 30
0.0
  0
POINT
  5
12764
330
124F5
100
AcDbEntity
  8
Defpoints
  6
Continuous
 62
     0
100
AcDbPoint
 10
-22.41510907162692
 20
650.392405595399
 30
0.0
  0
ENDBLK
  5
12500
330
124F5
100
AcDbEntity
  8
0
100
AcDbBlockEnd
  0
BLOCK
  5
1250E
330
12502
100
AcDbEntity
  8
0
100
AcDbBlockBegin
  2
*D4
 70
     1
 10
0.0
 20
0.0
 30
0.0
  3
*D4
  1

  0
LINE
  5
127F0
330
12502
100
AcDbEntity
  8
11100_LEFT_DIM
  6
Continuous
 62
     7
370
    -2
100
AcDbLine
 10
33.51480690480258
 20
684.7266530542672
 30
0.0
 11
33.51480690480258
 21
651.2823530542672
 31
0.0
  0
LINE
  5
127F1
330
12502
100
AcDbEntity
  8
11100_LEFT_DIM
  6
Continuous
 62
     7
370
    -2
100
AcDbLine
 10
38.51480690480261
 20
719.0263530542672
 30
0.0
 11
38.5148069048026
 21
651.2823530542672
 31
0.0
  0
LINE
  5
127F2
330
12502
100
AcDbEntity
  8
11100_LEFT_DIM
  6
Continuous
370
    -2
100
AcDbLine
 10
30.01480690480259
 20
653.2823530542672
 30
0.0
 11
26.51480690480259
 21
653.2823530542672
 31
0.0
  0
LINE
  5
127F3
330
12502
100
AcDbEntity
  8
11100_LEFT_DIM
  6
Continuous
370
    -2
100
AcDbLine
 10
42.0148069048026
 20
653.2823530542672
 30
0.0
 11
45.5148069048026
 21
653.2823530542672
 31
0.0
  0
MTEXT
  5
127F4
330
12502
100
AcDbEntity
  8
11100_LEFT_DIM
  6
Continuous
 62
     7
370
    13
100
AcDbMText
 10
25.16200717692238
 20
653.2823530542672
 30
0.0
 40
3.5
 41
0.0
 71
     5
 72
     1
  1
\A1;5
 73
     1
 44
1.0
1001
ACAD
1000
MTEXTBEGIN
1070
    73
1070
     1
1070
    44
1040
1.0
1070
    74
1070
     0
1000
MTEXTEND
  0
LINE
  5
127F5
330
12502
100
AcDbEntity
  8
11100_LEFT_DIM
  6
Continuous
370
    -2
100
AcDbLine
 10
33.51480690480258
 20
653.2823530542672
 30
0.0
 11
38.5148069048026
 21
653.2823530542672
 31
0.0
  0
SOLID
  5
127F6
330
12502
100
AcDbEntity
  8
11100_LEFT_DIM
  6
Continuous
100
AcDbTrace
 10
30.01480690480259
 20
653.8656863876004
 30
0.0
 11
30.01480690480259
 21
652.6990197209337
 31
0.0
 12
33.51480690480258
 22
653.2823530542672
 32
0.0
 13
33.51480690480258
 23
653.2823530542672
 33
0.0
  0
SOLID
  5
127F7
330
12502
100
AcDbEntity
  8
11100_LEFT_DIM
  6
Continuous
100
AcDbTrace
 10
42.0148069048026
 20
653.8656863876004
 30
0.0
 11
42.0148069048026
 21
652.6990197209337
 31
0.0
 12
38.5148069048026
 22
653.2823530542672
 32
0.0
 13
38.5148069048026
 23
653.2823530542672
 33
0.0
  0
POINT
  5
127F8
330
12502
100
AcDbEntity
  8
Defpoints
  6
Continuous
 62
     0
100
AcDbPoint
 10
33.51480690480258
 20
684.7266530542672
 30
0.0
  0
POINT
  5
127F9
330
12502
100
AcDbEntity
  8
Defpoints
  6
Continuous
 62
     0
100
AcDbPoint
 10
38.51480690480261
 20
719.0263530542672
 30
0.0
  0
POINT
  5
127FA
330
12502
100
AcDbEntity
  8
Defpoints
  6
Continuous
 62
     0
100
AcDbPoint
 10
38.5148069048026
 20
653.2823530542672
 30
0.0
  0
ENDBLK
  5
1250F
330
12502
100
AcDbEntity
  8
0
100
AcDbBlockEnd
  0
BLOCK
  5
1251B
330
12511
100
AcDbEntity
  8
0
100
AcDbBlockBegin
  2
*D5
 70
     1
 10
0.0
 20
0.0
 30
0.0
  3
*D5
  1

  0
LINE
  5
12805
330
12511
100
AcDbEntity
  8
11100_LEFT_DIM
  6
Continuous
 62
     7
370
    -2
100
AcDbLine
 10
38.5148069048026
 20
684.3266530542672
 30
0.0
 11
38.5148069048026
 21
651.2823530542672
 31
0.0
  0
LINE
  5
12806
330
12511
100
AcDbEntity
  8
11100_LEFT_DIM
  6
Continuous
 62
     7
370
    -2
100
AcDbLine
 10
89.61480690480261
 20
665.3018530542673
 30
0.0
 11
89.61480690480261
 21
651.2823530542672
 31
0.0
  0
LINE
  5
12807
330
12511
100
AcDbEntity
  8
11100_LEFT_DIM
  6
Continuous
370
    -2
100
AcDbLine
 10
42.0148069048026
 20
653.2823530542672
 30
0.0
 11
60.23147357146926
 21
653.2823530542672
 31
0.0
  0
LINE
  5
12808
330
12511
100
AcDbEntity
  8
11100_LEFT_DIM
  6
Continuous
370
    -2
100
AcDbLine
 10
86.11480690480261
 20
653.2823530542672
 30
0.0
 11
67.89814023813594
 21
653.2823530542672
 31
0.0
  0
SOLID
  5
12809
330
12511
100
AcDbEntity
  8
11100_LEFT_DIM
  6
Continuous
100
AcDbTrace
 10
42.0148069048026
 20
653.8656863876004
 30
0.0
 11
42.0148069048026
 21
652.6990197209337
 31
0.0
 12
38.5148069048026
 22
653.2823530542672
 32
0.0
 13
38.5148069048026
 23
653.2823530542672
 33
0.0
  0
SOLID
  5
1280A
330
12511
100
AcDbEntity
  8
11100_LEFT_DIM
  6
Continuous
100
AcDbTrace
 10
86.11480690480261
 20
653.8656863876004
 30
0.0
 11
86.11480690480261
 21
652.6990197209337
 31
0.0
 12
89.61480690480261
 22
653.2823530542672
 32
0.0
 13
89.61480690480261
 23
653.2823530542672
 33
0.0
  0
MTEXT
  5
1280B
330
12511
100
AcDbEntity
  8
11100_LEFT_DIM
  6
Continuous
 62
     7
370
    13
100
AcDbMText
 10
64.06480690480261
 20
653.2823530542672
 30
0.0
 40
3.5
 41
0.0
 71
     5
 72
     1
  1
\A1;51
 73
     1
 44
1.0
1001
ACAD
1000
MTEXTBEGIN
1070
    73
1070
     1
1070
    44
1040
1.0
1070
    74
1070
     0
1000
MTEXTEND
  0
POINT
  5
1280C
330
12511
100
AcDbEntity
  8
Defpoints
  6
Continuous
 62
     0
100
AcDbPoint
 10
38.5148069048026
 20
684.3266530542672
 30
0.0
  0
POINT
  5
1280D
330
12511
100
AcDbEntity
  8
Defpoints
  6
Continuous
 62
     0
100
AcDbPoint
 10
89.61480690480261
 20
665.3018530542673
 30
0.0
  0
POINT
  5
1280E
330
12511
100
AcDbEntity
  8
Defpoints
  6
Continuous
 62
     0
100
AcDbPoint
 10
89.61480690480261
 20
653.2823530542672
 30
0.0
  0
ENDBLK
  5
1251C
330
12511
100
AcDbEntity
  8
0
100
AcDbBlockEnd
  0
BLOCK
  5
12528
330
1251E
100
AcDbEntity
  8
0
100
AcDbBlockBegin
  2
*D6
 70
     1
 10
0.0
 20
0.0
 30
0.0
  3
*D6
  1

  0
LINE
  5
1280F
330
1251E
100
AcDbEntity
  8
11100_LEFT_DIM
  6
Continuous
 62
     7
370
    -2
100
AcDbLine
 10
38.5148069048026
 20
684.326653054267
 30
0.0
 11
38.5148069048026
 21
643.3833073832318
 31
0.0
  0
LINE
  5
12810
330
1251E
100
AcDbEntity
  8
11100_LEFT_DIM
  6
Continuous
 62
     7
370
    -2
100
AcDbLine
 10
105.8148069048026
 20
694.3263530542672
 30
0.0
 11
105.8148069048026
 21
643.3833073832318
 31
0.0
  0
LINE
  5
12811
330
1251E
100
AcDbEntity
  8
11100_LEFT_DIM
  6
Continuous
370
    -2
100
AcDbLine
 10
42.0148069048026
 20
645.3833073832319
 30
0.0
 11
67.74814023813593
 21
645.3833073832319
 31
0.0
  0
LINE
  5
12812
330
1251E
100
AcDbEntity
  8
11100_LEFT_DIM
  6
Continuous
370
    -2
100
AcDbLine
 10
102.3148069048026
 20
645.3833073832319
 30
0.0
 11
76.58147357146927
 21
645.3833073832319
 31
0.0
  0
SOLID
  5
12813
330
1251E
100
AcDbEntity
  8
11100_LEFT_DIM
  6
Continuous
100
AcDbTrace
 10
42.0148069048026
 20
645.9666407165654
 30
0.0
 11
42.0148069048026
 21
644.7999740498986
 31
0.0
 12
38.5148069048026
 22
645.3833073832319
 32
0.0
 13
38.5148069048026
 23
645.3833073832319
 33
0.0
  0
SOLID
  5
12814
330
1251E
100
AcDbEntity
  8
11100_LEFT_DIM
  6
Continuous
100
AcDbTrace
 10
102.3148069048026
 20
645.9666407165654
 30
0.0
 11
102.3148069048026
 21
644.7999740498986
 31
0.0
 12
105.8148069048026
 22
645.3833073832319
 32
0.0
 13
105.8148069048026
 23
645.3833073832319
 33
0.0
  0
MTEXT
  5
12815
330
1251E
100
AcDbEntity
  8
11100_LEFT_DIM
  6
Continuous
 62
     7
370
    13
100
AcDbMText
 10
72.16480690480259
 20
645.3833073832319
 30
0.0
 40
3.5
 41
0.0
 71
     5
 72
     1
  1
\A1;67
 73
     1
 44
1.0
1001
ACAD
1000
MTEXTBEGIN
1070
    73
1070
     1
1070
    44
1040
1.0
1070
    74
1070
     0
1000
MTEXTEND
  0
POINT
  5
12816
330
1251E
100
AcDbEntity
  8
Defpoints
  6
Continuous
 62
     0
100
AcDbPoint
 10
38.5148069048026
 20
684.326653054267
 30
0.0
  0
POINT
  5
12817
330
1251E
100
AcDbEntity
  8
Defpoints
  6
Continuous
 62
     0
100
AcDbPoint
 10
105.8148069048026
 20
694.3263530542672
 30
0.0
  0
POINT
  5
12818
330
1251E
100
AcDbEntity
  8
Defpoints
  6
Continuous
 62
     0
100
AcDbPoint
 10
105.8148069048026
 20
645.3833073832319
 30
0.0
  0
ENDBLK
  5
12529
330
1251E
100
AcDbEntity
  8
0
100
AcDbBlockEnd
  0
BLOCK
  5
12535
330
1252B
100
AcDbEntity
  8
0
100
AcDbBlockBegin
  2
*D7
 70
     1
 10
0.0
 20
0.0
 30
0.0
  3
*D7
  1

  0
LINE
  5
127FB
330
1252B
100
AcDbEntity
  8
11100_LEFT_DIM
  6
Continuous
 62
     7
370
    -2
100
AcDbLine
 10
38.5148069048026
 20
684.326653054267
 30
0.0
 11
38.5148069048026
 21
635.8068853554536
 31
0.0
  0
LINE
  5
127FC
330
1252B
100
AcDbEntity
  8
11100_LEFT_DIM
  6
Continuous
 62
     7
370
    -2
100
AcDbLine
 10
163.2404769046883
 20
736.8263912548793
 30
0.0
 11
163.2404769046883
 21
635.8068853554536
 31
0.0
  0
LINE
  5
127FD
330
1252B
100
AcDbEntity
  8
11100_LEFT_DIM
  6
Continuous
370
    -2
100
AcDbLine
 10
42.0148069048026
 20
637.8068853554537
 30
0.0
 11
95.29430857141216
 21
637.8068853554537
 31
0.0
  0
LINE
  5
127FE
330
1252B
100
AcDbEntity
  8
11100_LEFT_DIM
  6
Continuous
370
    -2
100
AcDbLine
 10
159.7404769046883
 20
637.8068853554537
 30
0.0
 11
106.4609752380788
 21
637.8068853554537
 31
0.0
  0
SOLID
  5
127FF
330
1252B
100
AcDbEntity
  8
11100_LEFT_DIM
  6
Continuous
100
AcDbTrace
 10
42.0148069048026
 20
638.390218688787
 30
0.0
 11
42.0148069048026
 21
637.2235520221202
 31
0.0
 12
38.5148069048026
 22
637.8068853554537
 32
0.0
 13
38.5148069048026
 23
637.8068853554537
 33
0.0
  0
SOLID
  5
12800
330
1252B
100
AcDbEntity
  8
11100_LEFT_DIM
  6
Continuous
100
AcDbTrace
 10
159.7404769046883
 20
638.390218688787
 30
0.0
 11
159.7404769046883
 21
637.2235520221202
 31
0.0
 12
163.2404769046883
 22
637.8068853554537
 32
0.0
 13
163.2404769046883
 23
637.8068853554537
 33
0.0
  0
MTEXT
  5
12801
330
1252B
100
AcDbEntity
  8
11100_LEFT_DIM
  6
Continuous
 62
     7
370
    13
100
AcDbMText
 10
100.8776419047455
 20
637.8068853554537
 30
0.0
 40
3.5
 41
0.0
 71
     5
 72
     1
  1
\A1;125
 73
     1
 44
1.0
1001
ACAD
1000
MTEXTBEGIN
1070
    73
1070
     1
1070
    44
1040
1.0
1070
    74
1070
     0
1000
MTEXTEND
  0
POINT
  5
12802
330
1252B
100
AcDbEntity
  8
Defpoints
  6
Continuous
 62
     0
100
AcDbPoint
 10
38.5148069048026
 20
684.326653054267
 30
0.0
  0
POINT
  5
12803
330
1252B
100
AcDbEntity
  8
Defpoints
  6
Continuous
 62
     0
100
AcDbPoint
 10
163.2404769046883
 20
736.8263912548793
 30
0.0
  0
POINT
  5
12804
330
1252B
100
AcDbEntity
  8
Defpoints
  6
Continuous
 62
     0
100
AcDbPoint
 10
163.2404769046883
 20
637.8068853554537
 30
0.0
  0
ENDBLK
  5
12536
330
1252B
100
AcDbEntity
  8
0
100
AcDbBlockEnd
  0
BLOCK
  5
1254D
330
12541
100
AcDbEntity
  8
0
100
AcDbBlockBegin
  2
*D8
 70
     1
 10
0.0
 20
0.0
 30
0.0
  3
*D8
  1

  0
LINE
  5
127E5
330
12541
100
AcDbEntity
  8
11100_LEFT_DIM
  6
Continuous
 62
     7
370
    -2
100
AcDbLine
 10
33.97980690480262
 20
786.4793530542672
 30
0.0
 11
24.60717857420497
 21
786.4793530542672
 31
0.0
  0
LINE
  5
127E6
330
12541
100
AcDbEntity
  8
11100_LEFT_DIM
  6
Continuous
 62
     7
370
    -2
100
AcDbLine
 10
33.51480690480258
 20
781.4793530542672
 30
0.0
 11
24.60717857420497
 21
781.4793530542672
 31
0.0
  0
LINE
  5
127E7
330
12541
100
AcDbEntity
  8
11100_LEFT_DIM
  6
Continuous
370
    -2
100
AcDbLine
 10
26.60717857420497
 20
789.9793530542672
 30
0.0
 11
26.60717857420497
 21
793.4793530542672
 31
0.0
  0
LINE
  5
127E8
330
12541
100
AcDbEntity
  8
11100_LEFT_DIM
  6
Continuous
370
    -2
100
AcDbLine
 10
26.60717857420497
 20
777.9793530542672
 30
0.0
 11
26.60717857420496
 21
774.4793530542672
 31
0.0
  0
MTEXT
  5
127E9
330
12541
100
AcDbEntity
  8
11100_LEFT_DIM
  6
Continuous
 62
     7
370
    13
100
AcDbMText
 10
26.73988401598064
 20
771.3270095720927
 30
0.0
 40
3.5
 41
0.0
 71
     5
 72
     1
  1
\A1;%%c5
 11
0.0000000000000001
 21
1.0
 31
0.0
 73
     1
 44
1.0
1001
ACAD
1000
MTEXTBEGIN
1070
    73
1070
     1
1070
    44
1040
1.0
1070
    74
1070
     0
1000
MTEXTEND
  0
LINE
  5
127EA
330
12541
100
AcDbEntity
  8
11100_LEFT_DIM
  6
Continuous
370
    -2
100
AcDbLine
 10
26.60717857420497
 20
786.4793530542672
 30
0.0
 11
26.60717857420497
 21
781.4793530542672
 31
0.0
  0
SOLID
  5
127EB
330
12541
100
AcDbEntity
  8
11100_LEFT_DIM
  6
Continuous
100
AcDbTrace
 10
26.02384524087164
 20
789.9793530542672
 30
0.0
 11
27.1905119075383
 21
789.9793530542672
 31
0.0
 12
26.60717857420497
 22
786.4793530542672
 32
0.0
 13
26.60717857420497
 23
786.4793530542672
 33
0.0
  0
SOLID
  5
127EC
330
12541
100
AcDbEntity
  8
11100_LEFT_DIM
  6
Continuous
100
AcDbTrace
 10
26.02384524087164
 20
777.9793530542672
 30
0.0
 11
27.1905119075383
 21
777.9793530542672
 31
0.0
 12
26.60717857420497
 22
781.4793530542672
 32
0.0
 13
26.60717857420497
 23
781.4793530542672
 33
0.0
  0
POINT
  5
127ED
330
12541
100
AcDbEntity
  8
Defpoints
  6
Continuous
 62
     0
100
AcDbPoint
 10
33.97980690480262
 20
786.4793530542672
 30
0.0
  0
POINT
  5
127EE
330
12541
100
AcDbEntity
  8
Defpoints
  6
Continuous
 62
     0
100
AcDbPoint
 10
33.51480690480258
 20
781.4793530542672
 30
0.0
  0
POINT
  5
127EF
330
12541
100
AcDbEntity
  8
Defpoints
  6
Continuous
 62
     0
100
AcDbPoint
 10
26.60717857420497
 20
781.4793530542672
 30
0.0
  0
ENDBLK
  5
1254E
330
12541
100
AcDbEntity
  8
0
100
AcDbBlockEnd
  0
BLOCK
  5
1255A
330
12550
100
AcDbEntity
  8
0
100
AcDbBlockBegin
  2
*D9
 70
     1
 10
0.0
 20
0.0
 30
0.0
  3
*D9
  1

  0
LINE
  5
127DB
330
12550
100
AcDbEntity
  8
11100_LEFT_DIM
  6
Continuous
 62
     7
370
    -2
100
AcDbLine
 10
33.51480690480258
 20
689.3063530542672
 30
0.0
 11
17.88886622654336
 21
689.3063530542672
 31
0.0
  0
LINE
  5
127DC
330
12550
100
AcDbEntity
  8
11100_LEFT_DIM
  6
Continuous
 62
     7
370
    -2
100
AcDbLine
 10
33.51480690480261
 20
783.9793530542672
 30
0.0
 11
17.88886622654338
 21
783.9793530542672
 31
0.0
  0
LINE
  5
127DD
330
12550
100
AcDbEntity
  8
11100_LEFT_DIM
  6
Continuous
370
    -2
100
AcDbLine
 10
19.88886622654336
 20
692.8063530542672
 30
0.0
 11
19.88886622654337
 21
732.2261863876007
 31
0.0
  0
LINE
  5
127DE
330
12550
100
AcDbEntity
  8
11100_LEFT_DIM
  6
Continuous
370
    -2
100
AcDbLine
 10
19.88886622654337
 20
780.4793530542672
 30
0.0
 11
19.88886622654337
 21
741.0595197209338
 31
0.0
  0
SOLID
  5
127DF
330
12550
100
AcDbEntity
  8
11100_LEFT_DIM
  6
Continuous
100
AcDbTrace
 10
19.30553289321002
 20
692.8063530542672
 30
0.0
 11
20.47219955987669
 21
692.8063530542672
 31
0.0
 12
19.88886622654336
 22
689.3063530542672
 32
0.0
 13
19.88886622654336
 23
689.3063530542672
 33
0.0
  0
SOLID
  5
127E0
330
12550
100
AcDbEntity
  8
11100_LEFT_DIM
  6
Continuous
100
AcDbTrace
 10
19.30553289321004
 20
780.4793530542672
 30
0.0
 11
20.47219955987671
 21
780.4793530542672
 31
0.0
 12
19.88886622654337
 22
783.9793530542672
 32
0.0
 13
19.88886622654337
 23
783.9793530542672
 33
0.0
  0
MTEXT
  5
127E1
330
12550
100
AcDbEntity
  8
11100_LEFT_DIM
  6
Continuous
 62
     7
370
    13
100
AcDbMText
 10
19.88886622654325
 20
736.6428530542671
 30
0.0
 40
3.5
 41
0.0
 71
     5
 72
     1
  1
\A1;95
 11
0.0000000000000001
 21
1.0
 31
0.0
 73
     1
 44
1.0
1001
ACAD
1000
MTEXTBEGIN
1070
    73
1070
     1
1070
    44
1040
1.0
1070
    74
1070
     0
1000
MTEXTEND
  0
POINT
  5
127E2
330
12550
100
AcDbEntity
  8
Defpoints
  6
Continuous
 62
     0
100
AcDbPoint
 10
33.51480690480258
 20
689.3063530542672
 30
0.0
  0
POINT
  5
127E3
330
12550
100
AcDbEntity
  8
Defpoints
  6
Continuous
 62
     0
100
AcDbPoint
 10
33.51480690480261
 20
783.9793530542672
 30
0.0
  0
POINT
  5
127E4
330
12550
100
AcDbEntity
  8
Defpoints
  6
Continuous
 62
     0
100
AcDbPoint
 10
19.88886622654337
 20
783.9793530542672
 30
0.0
  0
ENDBLK
  5
1255B
330
12550
100
AcDbEntity
  8
0
100
AcDbBlockEnd
  0
BLOCK
  5
12567
330
1255D
100
AcDbEntity
  8
0
100
AcDbBlockBegin
  2
*D10
 70
     1
 10
0.0
 20
0.0
 30
0.0
  3
*D10
  1

  0
LINE
  5
12713
330
1255D
100
AcDbEntity
  8
10100_FRONT_DIM
  6
Continuous
 62
     7
370
    -2
100
AcDbLine
 10
-47.4151090716269
 20
678.8266530542672
 30
0.0
 11
-7.673079793115631
 21
678.8266530542672
 31
0.0
  0
LINE
  5
12714
330
1255D
100
AcDbEntity
  8
10100_FRONT_DIM
  6
Continuous
 62
     7
370
    -2
100
AcDbLine
 10
-25.7360195952257
 20
799.3067530542672
 30
0.0
 11
-7.673079793115603
 21
799.3067530542672
 31
0.0
  0
LINE
  5
12715
330
1255D
100
AcDbEntity
  8
10100_FRONT_DIM
  6
Continuous
370
    -2
100
AcDbLine
 10
-9.673079793115633
 20
682.3266530542672
 30
0.0
 11
-9.673079793115617
 21
733.7750363876006
 31
0.0
  0
LINE
  5
12716
330
1255D
100
AcDbEntity
  8
10100_FRONT_DIM
  6
Continuous
370
    -2
100
AcDbLine
 10
-9.673079793115604
 20
795.8067530542672
 30
0.0
 11
-9.673079793115617
 21
744.3583697209336
 31
0.0
  0
SOLID
  5
12717
330
1255D
100
AcDbEntity
  8
10100_FRONT_DIM
  6
Continuous
100
AcDbTrace
 10
-10.25641312644896
 20
682.3266530542672
 30
0.0
 11
-9.089746459782295
 21
682.3266530542672
 31
0.0
 12
-9.673079793115633
 22
678.8266530542672
 32
0.0
 13
-9.673079793115633
 23
678.8266530542672
 33
0.0
  0
SOLID
  5
12718
330
1255D
100
AcDbEntity
  8
10100_FRONT_DIM
  6
Continuous
100
AcDbTrace
 10
-10.25641312644894
 20
795.8067530542672
 30
0.0
 11
-9.089746459782274
 21
795.8067530542672
 31
0.0
 12
-9.673079793115604
 22
799.3067530542672
 32
0.0
 13
-9.673079793115604
 23
799.3067530542672
 33
0.0
  0
MTEXT
  5
12719
330
1255D
100
AcDbEntity
  8
10100_FRONT_DIM
  6
Continuous
 62
     7
370
    13
100
AcDbMText
 10
-9.673079793115736
 20
739.0667030542672
 30
0.0
 40
3.5
 41
0.0
 71
     5
 72
     1
  1
\A1;120
 11
0.0000000000000001
 21
1.0
 31
0.0
 73
     1
 44
1.0
1001
ACAD
1000
MTEXTBEGIN
1070
    73
1070
     1
1070
    44
1040
1.0
1070
    74
1070
     0
1000
MTEXTEND
  0
POINT
  5
1271A
330
1255D
100
AcDbEntity
  8
Defpoints
  6
Continuous
 62
     0
100
AcDbPoint
 10
-47.4151090716269
 20
678.8266530542672
 30
0.0
  0
POINT
  5
1271B
330
1255D
100
AcDbEntity
  8
Defpoints
  6
Continuous
 62
     0
100
AcDbPoint
 10
-25.7360195952257
 20
799.3067530542672
 30
0.0
  0
POINT
  5
1271C
330
1255D
100
AcDbEntity
  8
Defpoints
  6
Continuous
 62
     0
100
AcDbPoint
 10
-9.673079793115604
 20
799.3067530542672
 30
0.0
  0
ENDBLK
  5
12568
330
1255D
100
AcDbEntity
  8
0
100
AcDbBlockEnd
  0
BLOCK
  5
12574
330
1256A
100
AcDbEntity
  8
0
100
AcDbBlockBegin
  2
*D11
 70
     1
 10
0.0
 20
0.0
 30
0.0
  3
*D11
  1

  0
LINE
  5
127D0
330
1256A
100
AcDbEntity
  8
10100_FRONT_DIM
  6
Continuous
 62
     7
370
    -2
100
AcDbLine
 10
-36.18084907162691
 20
665.3266530542672
 30
0.0
 11
-7.690297239244679
 21
665.3266530542672
 31
0.0
  0
LINE
  5
127D1
330
1256A
100
AcDbEntity
  8
10100_FRONT_DIM
  6
Continuous
 62
     7
370
    -2
100
AcDbLine
 10
-9.673079793115633
 20
678.8266530542672
 30
0.0
 11
-11.69029723924467
 21
678.8266530542672
 31
0.0
  0
LINE
  5
127D2
330
1256A
100
AcDbEntity
  8
10100_FRONT_DIM
  6
Continuous
370
    -2
100
AcDbLine
 10
-9.690297239244674
 20
668.8266530542672
 30
0.0
 11
-9.690297239244674
 21
675.3266530542672
 31
0.0
  0
MTEXT
  5
127D3
330
1256A
100
AcDbEntity
  8
10100_FRONT_DIM
  6
Continuous
 62
     7
370
    13
100
AcDbMText
 10
-9.25127919281158
 20
660.7990389670893
 30
0.0
 40
3.5
 41
0.0
 71
     5
 72
     1
  1
\A1;14
 11
0.0000000000000001
 21
1.0
 31
0.0
 73
     1
 44
1.0
1001
ACAD
1000
MTEXTBEGIN
1070
    73
1070
     1
1070
    44
1040
1.0
1070
    74
1070
     0
1000
MTEXTEND
  0
SOLID
  5
127D4
330
1256A
100
AcDbEntity
  8
10100_FRONT_DIM
  6
Continuous
100
AcDbTrace
 10
-10.27363057257801
 20
668.8266530542672
 30
0.0
 11
-9.106963905911342
 21
668.8266530542672
 31
0.0
 12
-9.690297239244678
 22
665.3266530542672
 32
0.0
 13
-9.690297239244678
 23
665.3266530542672
 33
0.0
  0
SOLID
  5
127D5
330
1256A
100
AcDbEntity
  8
10100_FRONT_DIM
  6
Continuous
100
AcDbTrace
 10
-10.27363057257801
 20
675.3266530542672
 30
0.0
 11
-9.106963905911342
 21
675.3266530542672
 31
0.0
 12
-9.690297239244673
 22
678.8266530542672
 32
0.0
 13
-9.690297239244673
 23
678.8266530542672
 33
0.0
  0
POINT
  5
127D6
330
1256A
100
AcDbEntity
  8
Defpoints
  6
Continuous
 62
     0
100
AcDbPoint
 10
-36.18084907162691
 20
665.3266530542672
 30
0.0
  0
POINT
  5
127D7
330
1256A
100
AcDbEntity
  8
Defpoints
  6
Continuous
 62
     0
100
AcDbPoint
 10
-9.673079793115633
 20
678.8266530542672
 30
0.0
  0
POINT
  5
127D8
330
1256A
100
AcDbEntity
  8
Defpoints
  6
Continuous
 62
     0
100
AcDbPoint
 10
-9.690297239244673
 20
678.8266530542672
 30
0.0
  0
ENDBLK
  5
12575
330
1256A
100
AcDbEntity
  8
0
100
AcDbBlockEnd
  0
ENDSEC
  0
SECTION
  2
ENTITIES
  0
LINE
  5
10170
330
20
100
AcDbEntity
  8
90000_FRAME
  6
Continuous
 62
     7
100
AcDbLine
 10
218.8820698605832
 20
570.2733863911044
 30
0.0
 11
218.8820698605832
 21
840.2733863911043
 31
0.0
  0
INSERT
  5
10171
330
20
100
AcDbEntity
  8
90000_FRAME
  6
Continuous
 62
     7
100
AcDbBlockReference
  2
SIEMENS_OUTLINE_BL0
 10
-201.1179301394176
 20
570.2733863911044
 30
0.0
  0
LINE
  5
10172
330
20
100
AcDbEntity
  8
90000_FRAME
  6
Continuous
 62
     7
100
AcDbLine
 10
73.88206986058229
 20
580.2733863911043
 30
0.0
 11
208.8820698605825
 21
580.2733863911043
 31
0.0
  0
LINE
  5
10173
330
20
100
AcDbEntity
  8
90000_FRAME
  6
Continuous
 62
     7
100
AcDbLine
 10
73.88206986058229
 20
580.2733863911043
 30
0.0
 11
73.88206986058229
 21
598.2733863911042
 31
0.0
  0
LINE
  5
10174
330
20
100
AcDbEntity
  8
90000_FRAME
  6
Continuous
 62
     7
100
AcDbLine
 10
123.8820698605824
 20
586.2733863911045
 30
0.0
 11
208.8820698605825
 21
586.2733863911045
 31
0.0
  0
LINE
  5
10175
330
20
100
AcDbEntity
  8
90000_FRAME
  6
Continuous
 62
     7
100
AcDbLine
 10
73.88206986058229
 20
598.2733863911042
 30
0.0
 11
208.8820698605825
 21
598.2733863911042
 31
0.0
  0
LINE
  5
10176
330
20
100
AcDbEntity
  8
90000_FRAME
  6
Continuous
 62
     7
100
AcDbLine
 10
123.8820698605824
 20
580.2733863911043
 30
0.0
 11
123.8820698605824
 21
598.2733863911042
 31
0.0
  0
LINE
  5
10177
330
20
100
AcDbEntity
  8
90000_FRAME
  6
Continuous
 62
     7
100
AcDbLine
 10
166.3820698605825
 20
580.2733863911043
 30
0.0
 11
166.3820698605825
 21
586.2733863911045
 31
0.0
  0
LINE
  5
10178
330
20
100
AcDbEntity
  8
90000_FRAME
  6
Continuous
 62
     7
100
AcDbLine
 10
208.8820698605825
 20
580.2733863911043
 30
0.0
 11
208.8820698605825
 21
598.2733863911042
 31
0.0
  0
TEXT
  5
10179
330
20
100
AcDbEntity
  8
90000_FRAME
  6
Continuous
 62
     7
100
AcDbText
 10
124.5420698605824
 20
582.1733863911044
 30
0.0
 40
2.2
  1
Format / Size: DIN A3
 41
0.7994987468660256
 72
     5
 11
157.9611174795823
 21
582.1733863911044
 31
0.0
100
AcDbText
  0
TEXT
  5
1017A
330
20
100
AcDbEntity
  8
90000_FRAME
  6
Continuous
 62
     7
100
AcDbText
 10
167.0420698605826
 20
582.1733863911044
 30
0.0
 40
2.2
  1
Massstab / Scale: 1:1
 41
0.7732634338148437
 72
     5
 11
197.9468317653825
 21
582.1733863911044
 31
0.0
100
AcDbText
  0
LINE
  5
1017B
330
20
100
AcDbEntity
  8
91000_TIP
  6
Continuous
 62
     7
100
AcDbLine
 10
48.69673996460836
 20
591.597123913475
 30
0.0
 11
58.6967397604085
 21
594.0971238624747
 31
0.0
  0
LINE
  5
1017C
330
20
100
AcDbEntity
  8
91000_TIP
  6
CENTER
 62
     7
100
AcDbLine
 10
47.41722949260736
 20
589.0971239645747
 30
0.0
 11
71.01921875670734
 21
589.0971239645747
 31
0.0
  0
LINE
  5
1017D
330
20
100
AcDbEntity
  8
91000_TIP
  6
Continuous
 62
     7
100
AcDbLine
 10
48.69673996460836
 20
586.5971240156749
 30
0.0
 11
58.6967397604085
 21
584.0971240666747
 31
0.0
  0
LINE
  5
1017E
330
20
100
AcDbEntity
  8
91000_TIP
  6
Continuous
 62
     7
100
AcDbLine
 10
48.69673996460836
 20
591.597123913475
 30
0.0
 11
48.69673996460836
 21
586.5971240156749
 31
0.0
  0
LINE
  5
1017F
330
20
100
AcDbEntity
  8
91000_TIP
  6
Continuous
 62
     7
100
AcDbLine
 10
58.6967397604085
 20
594.0971238624747
 30
0.0
 11
58.6967397604085
 21
584.0971240666747
 31
0.0
  0
LINE
  5
10180
330
20
100
AcDbEntity
  8
91000_TIP
  6
CENTER
 62
     7
100
AcDbLine
 10
65.19673962760839
 20
583.3756427581747
 30
0.0
 11
65.19673962760839
 21
594.6590287581749
 31
0.0
  0
CIRCLE
  5
10181
330
20
100
AcDbEntity
  8
91000_TIP
  6
Continuous
 62
     7
100
AcDbCircle
 10
65.19673962760839
 20
589.0971239645747
 30
0.0
 40
4.9999998979
  0
CIRCLE
  5
10182
330
20
100
AcDbEntity
  8
91000_TIP
  6
Continuous
 62
     7
100
AcDbCircle
 10
65.19673962760839
 20
589.0971239645747
 30
0.0
 40
2.499999948899997
  0
TEXT
  5
10183
330
20
100
AcDbEntity
  8
90000_FRAME
  6
Continuous
 62
     7
370
    20
100
AcDbText
 39
0.7
 10
137.1879943845332
 20
590.5233863911043
 30
0.0
 40
3.5
  1
3RA1335_00000223_000_ALL
 41
0.7261321223270519
 72
     5
 11
193.1001678037162
 21
590.5233863911043
 31
0.0
100
AcDbText
  0
LINE
  5
10184
330
20
100
AcDbEntity
  8
90000_FRAME
  6
Continuous
 62
     7
100
AcDbLine
 10
-191.1179301394168
 20
570.2733863911044
 30
0.0
 11
218.8820698605832
 21
570.2733863911044
 31
0.0
  0
LINE
  5
10185
330
20
100
AcDbEntity
  8
90000_FRAME
  6
Continuous
 62
     7
100
AcDbLine
 10
208.8820698605825
 20
580.2733863911043
 30
0.0
 11
208.8820698605825
 21
598.2733863911042
 31
0.0
  0
TEXT
  5
10186
330
20
100
AcDbEntity
  8
91000_TIP
  6
Continuous
 62
     7
100
AcDbText
 10
-184.1263053069353
 20
573.7556230127811
 30
0.0
 40
2.5
  1
All dimensions are in millimeters (mm).
 41
0.7513350295680246
 72
     5
 11
-124.0195029414933
 21
573.7556230127811
 31
0.0
100
AcDbText
  0
TEXT
  5
10187
330
20
100
AcDbEntity
  8
91000_TIP
  6
Continuous
 62
     7
100
AcDbText
 10
-184.1263053069353
 20
579.0056230127808
 30
0.0
 40
2.5
  1
Alle Bemassungswerte sind in Millimeter (mm) angegeben.
 41
0.6056311217924546
 72
     5
 11
-110.4411854888532
 21
579.0056230127808
 31
0.0
100
AcDbText
  0
LINE
  5
10188
330
20
100
AcDbEntity
  8
90000_FRAME
  6
Continuous
 62
     7
100
AcDbLine
 10
-191.1179301394168
 20
570.2733863911044
 30
0.0
 11
-191.1179301394168
 21
840.2733863911043
 31
0.0
  0
LINE
  5
10189
330
20
100
AcDbEntity
  8
90000_FRAME
  6
Continuous
 62
     7
100
AcDbLine
 10
-191.1179301394168
 20
840.2733863911043
 30
0.0
 11
218.8820698605832
 21
840.2733863911043
 31
0.0
  0
LINE
  5
12196
330
20
100
AcDbEntity
  8
11000_Left
  6
Continuous
 62
     7
370
    20
100
AcDbLine
 39
0.7
 10
155.0148069048026
 20
694.3266530542672
 30
0.0
 11
155.0148069048026
 21
708.4766530542672
 31
0.0
1001
AUSTER_ANSICHT
1002
{
1000
Det03
1002
}
1001
AUSTER_FOLIE
1002
{
1000
NSB00777_S2_WENDE
1002
}
  0
LINE
  5
12197
330
20
100
AcDbEntity
  8
11000_Left
  6
Continuous
 62
     7
370
    20
100
AcDbLine
 39
0.7
 10
155.0148069048026
 20
777.8266530542672
 30
0.0
 11
155.0148069048026
 21
765.1766530542674
 31
0.0
1001
AUSTER_ANSICHT
1002
{
1000
Det03
1002
}
1001
AUSTER_FOLIE
1002
{
1000
NSB00777_S2_WENDE
1002
}
  0
LINE
  5
12198
330
20
100
AcDbEntity
  8
11000_Left
  6
Continuous
 62
     7
370
    20
100
AcDbLine
 39
0.7
 10
155.0148069048026
 20
779.3266530542672
 30
0.0
 11
155.0148069048026
 21
777.8266530542672
 31
0.0
1001
AUSTER_ANSICHT
1002
{
1000
Det03
1002
}
1001
AUSTER_FOLIE
1002
{
1000
NSB00777_S2_WENDE
1002
}
  0
LINE
  5
12199
330
20
100
AcDbEntity
  8
11000_Left
  6
Continuous
 62
     7
370
    20
100
AcDbLine
 39
0.7
 10
155.0148069048026
 20
765.0266530542673
 30
0.0
 11
155.0148069048026
 21
708.6266530542673
 31
0.0
1001
AUSTER_ANSICHT
1002
{
1000
Det03
1002
}
1001
AUSTER_FOLIE
1002
{
1000
NSB00777_S2_WENDE
1002
}
  0
LINE
  5
1219C
330
20
100
AcDbEntity
  8
11000_Left
  6
DASHED
 62
     7
370
    13
100
AcDbLine
 39
0.25
 10
33.9803069048026
 20
786.4797530542672
 30
0.0
 11
41.51480690480258
 21
786.4797530542672
 31
0.0
1001
AUSTER_ANSICHT
1002
{
1000
Det03
1002
}
1001
AUSTER_FOLIE
1002
{
1000
NSB00777_S2_WENDE
1002
}
  0
LINE
  5
1219D
330
20
100
AcDbEntity
  8
11000_Left
  6
DASHED
 62
     7
370
    13
100
AcDbLine
 39
0.25
 10
41.51480690480258
 20
781.4797530542672
 30
0.0
 11
33.51480690480258
 21
781.4797530542672
 31
0.0
1001
AUSTER_ANSICHT
1002
{
1000
Det03
1002
}
1001
AUSTER_FOLIE
1002
{
1000
NSB00777_S2_WENDE
1002
}
  0
LINE
  5
1219E
330
20
100
AcDbEntity
  8
11000_Left
  6
DASHED
 62
     7
370
    13
100
AcDbLine
 39
0.25
 10
33.51480690480258
 20
686.3266530542672
 30
0.0
 11
41.51480690480258
 21
686.3266530542672
 31
0.0
1001
AUSTER_ANSICHT
1002
{
1000
Det03
1002
}
1001
AUSTER_FOLIE
1002
{
1000
NSB00777_S2_WENDE
1002
}
  0
LINE
  5
1219F
330
20
100
AcDbEntity
  8
11000_Left
  6
DASHED
 62
     7
370
    13
100
AcDbLine
 39
0.25
 10
33.51480690480258
 20
692.2867530542673
 30
0.0
 11
41.51480690480258
 21
692.2867530542673
 31
0.0
1001
AUSTER_ANSICHT
1002
{
1000
Det03
1002
}
1001
AUSTER_FOLIE
1002
{
1000
NSB00777_S2_WENDE
1002
}
  0
ARC
  5
121A8
330
20
100
AcDbEntity
  8
11000_Left
  6
Continuous
 62
     7
370
    20
100
AcDbCircle
 39
0.7
 10
41.91480690480261
 20
692.4266530542673
 30
0.0
 40
0.4
100
AcDbArc
 50
90.0
 51
180.0
1001
AUSTER_ANSICHT
1002
{
1000
Det03
1002
}
1001
AUSTER_FOLIE
1002
{
1000
NSB00777_S2_WENDE
1002
}
  0
ARC
  5
121A9
330
20
100
AcDbEntity
  8
11000_Left
  6
Continuous
 62
     7
370
    20
100
AcDbCircle
 39
0.7
 10
42.01480690480258
 20
693.5278530542673
 30
0.0
 40
0.5
100
AcDbArc
 50
90.0
 51
180.0
1001
AUSTER_ANSICHT
1002
{
1000
Det03
1002
}
1001
AUSTER_FOLIE
1002
{
1000
NSB00777_S2_WENDE
1002
}
  0
ARC
  5
121AA
330
20
100
AcDbEntity
  8
11000_Left
  6
Continuous
 62
     7
370
    20
100
AcDbCircle
 39
0.7
 10
119.7004069048026
 20
734.4766530542671
 30
0.0
 40
0.9
100
AcDbArc
 50
270.0
 51
0.0
1001
AUSTER_ANSICHT
1002
{
1000
Det03
1002
}
1001
AUSTER_FOLIE
1002
{
1000
NSB00777_S2_WENDE
1002
}
  0
ARC
  5
121AB
330
20
100
AcDbEntity
  8
11000_Left
  6
Continuous
 62
     7
370
    20
100
AcDbCircle
 39
0.7
 10
119.7004069048026
 20
739.1766530542674
 30
0.0
 40
0.9
100
AcDbArc
 50
0.0
 51
90.0
1001
AUSTER_ANSICHT
1002
{
1000
Det03
1002
}
1001
AUSTER_FOLIE
1002
{
1000
NSB00777_S2_WENDE
1002
}
  0
ARC
  5
121AC
330
20
100
AcDbEntity
  8
11000_Left
  6
Continuous
 62
     7
370
    20
100
AcDbCircle
 39
0.7
 10
104.1148069048026
 20
734.4766530542671
 30
0.0
 40
0.9
100
AcDbArc
 50
180.0
 51
270.0
1001
AUSTER_ANSICHT
1002
{
1000
Det03
1002
}
1001
AUSTER_FOLIE
1002
{
1000
NSB00777_S2_WENDE
1002
}
  0
ARC
  5
121AD
330
20
100
AcDbEntity
  8
11000_Left
  6
Continuous
 62
     7
370
    20
100
AcDbCircle
 39
0.7
 10
104.1148069048026
 20
739.1766530542674
 30
0.0
 40
0.9
100
AcDbArc
 50
90.0
 51
180.0
1001
AUSTER_ANSICHT
1002
{
1000
Det03
1002
}
1001
AUSTER_FOLIE
1002
{
1000
NSB00777_S2_WENDE
1002
}
  0
ARC
  5
121AE
330
20
100
AcDbEntity
  8
11000_Left
  6
DASHED
 62
     7
370
    20
100
AcDbCircle
 39
0.25
 10
33.01440690480263
 20
726.1763530542672
 30
0.0
 40
2.0
100
AcDbArc
 50
180.0
 51
270.0
1001
AUSTER_ANSICHT
1002
{
1000
Det03
1002
}
1001
AUSTER_FOLIE
1002
{
1000
NSB00777_S2_WENDE
1002
}
  0
ARC
  5
121AF
330
20
100
AcDbEntity
  8
11000_Left
  6
DASHED
 62
     7
370
    20
100
AcDbCircle
 39
0.25
 10
33.01440690480263
 20
747.1763530542672
 30
0.0
 40
2.0
100
AcDbArc
 50
90.0
 51
180.0
1001
AUSTER_ANSICHT
1002
{
1000
Det03
1002
}
1001
AUSTER_FOLIE
1002
{
1000
NSB00777_S2_WENDE
1002
}
  0
ARC
  5
121B0
330
20
100
AcDbEntity
  8
11000_Left
  6
Continuous
 62
     7
370
    20
100
AcDbCircle
 39
0.7
 10
42.01480690480258
 20
780.1266530542672
 30
0.0
 40
0.5
100
AcDbArc
 50
180.0
 51
270.0
1001
AUSTER_ANSICHT
1002
{
1000
Det03
1002
}
1001
AUSTER_FOLIE
1002
{
1000
NSB00777_S2_WENDE
1002
}
  0
LINE
  5
121B4
330
20
100
AcDbEntity
  8
11000_Left
  6
DASHED
 62
     7
370
    20
100
AcDbLine
 39
0.25
 10
34.61440690480259
 20
724.1763530542672
 30
0.0
 11
33.01440690480263
 21
724.1763530542672
 31
0.0
1001
AUSTER_ANSICHT
1002
{
1000
Det03
1002
}
1001
AUSTER_FOLIE
1002
{
1000
NSB00777_S2_WENDE
1002
}
  0
LINE
  5
121B5
330
20
100
AcDbEntity
  8
11000_Left
  6
DASHED
 62
     7
370
    20
100
AcDbLine
 39
0.25
 10
31.01440690480263
 20
747.1763530542672
 30
0.0
 11
31.01440690480263
 21
726.1763530542672
 31
0.0
1001
AUSTER_ANSICHT
1002
{
1000
Det03
1002
}
1001
AUSTER_FOLIE
1002
{
1000
NSB00777_S2_WENDE
1002
}
  0
LINE
  5
121B6
330
20
100
AcDbEntity
  8
11000_Left
  6
DASHED
 62
     7
370
    20
100
AcDbLine
 39
0.25
 10
34.61440690480259
 20
749.1763530542672
 30
0.0
 11
33.01440690480263
 21
749.1763530542672
 31
0.0
1001
AUSTER_ANSICHT
1002
{
1000
Det03
1002
}
1001
AUSTER_FOLIE
1002
{
1000
NSB00777_S2_WENDE
1002
}
  0
LINE
  5
121B7
330
20
100
AcDbEntity
  8
11000_Left
  6
Continuous
 62
     7
370
    20
100
AcDbLine
 39
0.7
 10
102.9148069048026
 20
708.4766530542672
 30
0.0
 11
102.9148069048026
 21
695.8266530542672
 31
0.0
1001
AUSTER_ANSICHT
1002
{
1000
Det03
1002
}
1001
AUSTER_FOLIE
1002
{
1000
NSB00777_S2_WENDE
1002
}
  0
LINE
  5
121B8
330
20
100
AcDbEntity
  8
11000_Left
  6
Continuous
 62
     7
370
    20
100
AcDbLine
 39
0.7
 10
102.9148069048026
 20
695.8266530542672
 30
0.0
 11
102.9148069048026
 21
694.3266530542672
 31
0.0
1001
AUSTER_ANSICHT
1002
{
1000
Det03
1002
}
1001
AUSTER_FOLIE
1002
{
1000
NSB00777_S2_WENDE
1002
}
  0
LINE
  5
121B9
330
20
100
AcDbEntity
  8
11000_Left
  6
Continuous
 62
     7
370
    20
100
AcDbLine
 39
0.7
 10
117.3148069048026
 20
779.3266530542672
 30
0.0
 11
117.3148069048026
 21
781.3266530542672
 31
0.0
1001
AUSTER_ANSICHT
1002
{
1000
Det03
1002
}
1001
AUSTER_FOLIE
1002
{
1000
NSB00777_S2_WENDE
1002
}
  0
LINE
  5
121BA
330
20
100
AcDbEntity
  8
11000_Left
  6
Continuous
 62
     7
370
    20
100
AcDbLine
 39
0.7
 10
88.51480690480256
 20
699.3266530542672
 30
0.0
 11
88.51480690480256
 21
704.2266530542672
 31
0.0
1001
AUSTER_ANSICHT
1002
{
1000
Det03
1002
}
1001
AUSTER_FOLIE
1002
{
1000
NSB00777_S2_WENDE
1002
}
  0
LINE
  5
121BB
330
20
100
AcDbEntity
  8
11000_Left
  6
Continuous
 62
     7
370
    20
100
AcDbLine
 39
0.7
 10
88.51480690480256
 20
684.3266530542672
 30
0.0
 11
88.51480690480256
 21
699.3266530542672
 31
0.0
1001
AUSTER_ANSICHT
1002
{
1000
Det03
1002
}
1001
AUSTER_FOLIE
1002
{
1000
NSB00777_S2_WENDE
1002
}
  0
LINE
  5
121BC
330
20
100
AcDbEntity
  8
11000_Left
  6
Continuous
 62
     7
370
    20
100
AcDbLine
 39
0.7
 10
88.51480690480256
 20
787.8266530542672
 30
0.0
 11
88.51480690480256
 21
704.2266530542672
 31
0.0
1001
AUSTER_ANSICHT
1002
{
1000
Det03
1002
}
1001
AUSTER_FOLIE
1002
{
1000
NSB00777_S2_WENDE
1002
}
  0
LINE
  5
121BD
330
20
100
AcDbEntity
  8
11000_Left
  6
Continuous
 62
     7
370
    20
100
AcDbLine
 39
0.7
 10
122.8148069048026
 20
765.0266530542673
 30
0.0
 11
102.5148069048026
 21
765.0266530542673
 31
0.0
1001
AUSTER_ANSICHT
1002
{
1000
Det03
1002
}
1001
AUSTER_FOLIE
1002
{
1000
NSB00777_S2_WENDE
1002
}
  0
LINE
  5
121BE
330
20
100
AcDbEntity
  8
11000_Left
  6
Continuous
 62
     7
370
    20
100
AcDbLine
 39
0.7
 10
102.5148069048026
 20
765.0266530542673
 30
0.0
 11
102.5148069048026
 21
779.3266530542672
 31
0.0
1001
AUSTER_ANSICHT
1002
{
1000
Det03
1002
}
1001
AUSTER_FOLIE
1002
{
1000
NSB00777_S2_WENDE
1002
}
  0
LINE
  5
121BF
330
20
100
AcDbEntity
  8
11000_Left
  6
Continuous
 62
     7
370
    20
100
AcDbLine
 39
0.7
 10
37.01480690480258
 20
719.0266530542673
 30
0.0
 11
33.51480690480258
 21
717.0059530542673
 31
0.0
1001
AUSTER_ANSICHT
1002
{
1000
Det03
1002
}
1001
AUSTER_FOLIE
1002
{
1000
NSB00777_S2_WENDE
1002
}
  0
LINE
  5
121C1
330
20
100
AcDbEntity
  8
11000_Left
  6
Continuous
 62
     7
370
    20
100
AcDbLine
 39
0.7
 10
88.51480690480256
 20
787.8266530542672
 30
0.0
 11
88.51480690480256
 21
789.3266530542672
 31
0.0
1001
AUSTER_ANSICHT
1002
{
1000
Det03
1002
}
1001
AUSTER_FOLIE
1002
{
1000
NSB00777_S2_WENDE
1002
}
  0
LINE
  5
121C3
330
20
100
AcDbEntity
  8
11000_Left
  6
Continuous
 62
     7
370
    20
100
AcDbLine
 39
0.7
 10
102.5164069048026
 20
694.0278530542673
 30
0.0
 11
42.01480690480258
 21
694.0278530542673
 31
0.0
1001
AUSTER_ANSICHT
1002
{
1000
Det03
1002
}
1001
AUSTER_FOLIE
1002
{
1000
NSB00777_S2_WENDE
1002
}
  0
LINE
  5
121C4
330
20
100
AcDbEntity
  8
11000_Left
  6
Continuous
 62
     7
370
    20
100
AcDbLine
 39
0.7
 10
41.51480690480258
 20
684.3278530542672
 30
0.0
 11
41.51480690480258
 21
693.5278530542673
 31
0.0
1001
AUSTER_ANSICHT
1002
{
1000
Det03
1002
}
1001
AUSTER_FOLIE
1002
{
1000
NSB00777_S2_WENDE
1002
}
  0
LINE
  5
121C5
330
20
100
AcDbEntity
  8
11000_Left
  6
Continuous
 62
     7
370
    20
100
AcDbLine
 39
0.7
 10
102.5164069048026
 20
779.6266530542673
 30
0.0
 11
42.01480690480258
 21
779.6266530542673
 31
0.0
1001
AUSTER_ANSICHT
1002
{
1000
Det03
1002
}
1001
AUSTER_FOLIE
1002
{
1000
NSB00777_S2_WENDE
1002
}
  0
LINE
  5
121C6
330
20
100
AcDbEntity
  8
11000_Left
  6
Continuous
 62
     7
370
    20
100
AcDbLine
 39
0.7
 10
125.1115069048026
 20
797.3109530542672
 30
0.0
 11
118.1115069048026
 21
790.3067530542672
 31
0.0
1001
AUSTER_ANSICHT
1002
{
1000
Det03
1002
}
1001
AUSTER_FOLIE
1002
{
1000
NSB00777_S2_WENDE
1002
}
  0
LINE
  5
121C7
330
20
100
AcDbEntity
  8
11000_Left
  6
Continuous
 62
     7
370
    20
100
AcDbLine
 39
0.7
 10
125.1115069048026
 20
799.3109530542673
 30
0.0
 11
125.1115069048026
 21
797.3109530542672
 31
0.0
1001
AUSTER_ANSICHT
1002
{
1000
Det03
1002
}
1001
AUSTER_FOLIE
1002
{
1000
NSB00777_S2_WENDE
1002
}
  0
LINE
  5
121C8
330
20
100
AcDbEntity
  8
11000_Left
  6
Continuous
 62
     7
370
    20
100
AcDbLine
 39
0.7
 10
102.5148069048026
 20
718.3266530542672
 30
0.0
 11
109.0148069048026
 21
718.3266530542672
 31
0.0
1001
AUSTER_ANSICHT
1002
{
1000
Det03
1002
}
1001
AUSTER_FOLIE
1002
{
1000
NSB00777_S2_WENDE
1002
}
  0
LINE
  5
121C9
330
20
100
AcDbEntity
  8
11000_Left
  6
Continuous
 62
     7
370
    20
100
AcDbLine
 39
0.7
 10
102.5148069048026
 20
711.8266530542672
 30
0.0
 11
102.5148069048026
 21
718.3266530542672
 31
0.0
1001
AUSTER_ANSICHT
1002
{
1000
Det03
1002
}
1001
AUSTER_FOLIE
1002
{
1000
NSB00777_S2_WENDE
1002
}
  0
LINE
  5
121CA
330
20
100
AcDbEntity
  8
11000_Left
  6
Continuous
 62
     7
370
    20
100
AcDbLine
 39
0.7
 10
109.0148069048026
 20
711.8266530542672
 30
0.0
 11
102.5148069048026
 21
711.8266530542672
 31
0.0
1001
AUSTER_ANSICHT
1002
{
1000
Det03
1002
}
1001
AUSTER_FOLIE
1002
{
1000
NSB00777_S2_WENDE
1002
}
  0
LINE
  5
121CB
330
20
100
AcDbEntity
  8
11000_Left
  6
Continuous
 62
     7
370
    20
100
AcDbLine
 39
0.7
 10
102.5148069048026
 20
755.3266530542672
 30
0.0
 11
102.5148069048026
 21
761.8266530542672
 31
0.0
1001
AUSTER_ANSICHT
1002
{
1000
Det03
1002
}
1001
AUSTER_FOLIE
1002
{
1000
NSB00777_S2_WENDE
1002
}
  0
LINE
  5
121CC
330
20
100
AcDbEntity
  8
11000_Left
  6
Continuous
 62
     7
370
    20
100
AcDbLine
 39
0.7
 10
109.0148069048026
 20
755.3266530542672
 30
0.0
 11
102.5148069048026
 21
755.3266530542672
 31
0.0
1001
AUSTER_ANSICHT
1002
{
1000
Det03
1002
}
1001
AUSTER_FOLIE
1002
{
1000
NSB00777_S2_WENDE
1002
}
  0
LINE
  5
121CD
330
20
100
AcDbEntity
  8
11000_Left
  6
Continuous
 62
     7
370
    20
100
AcDbLine
 39
0.7
 10
102.5148069048026
 20
761.8266530542672
 30
0.0
 11
109.0148069048026
 21
761.8266530542672
 31
0.0
1001
AUSTER_ANSICHT
1002
{
1000
Det03
1002
}
1001
AUSTER_FOLIE
1002
{
1000
NSB00777_S2_WENDE
1002
}
  0
LINE
  5
121CE
330
20
100
AcDbEntity
  8
11000_Left
  6
Continuous
 62
     7
370
    20
100
AcDbLine
 39
0.7
 10
120.6004069048026
 20
739.2766530542672
 30
0.0
 11
120.6004069048026
 21
734.3766530542673
 31
0.0
1001
AUSTER_ANSICHT
1002
{
1000
Det03
1002
}
1001
AUSTER_FOLIE
1002
{
1000
NSB00777_S2_WENDE
1002
}
  0
LINE
  5
121CF
330
20
100
AcDbEntity
  8
11000_Left
  6
Continuous
 62
     7
370
    20
100
AcDbLine
 39
0.7
 10
109.0148069048026
 20
761.8266530542672
 30
0.0
 11
109.0148069048026
 21
755.3266530542672
 31
0.0
1001
AUSTER_ANSICHT
1002
{
1000
Det03
1002
}
1001
AUSTER_FOLIE
1002
{
1000
NSB00777_S2_WENDE
1002
}
  0
LINE
  5
121D0
330
20
100
AcDbEntity
  8
11000_Left
  6
Continuous
 62
     7
370
    20
100
AcDbLine
 39
0.7
 10
109.0148069048026
 20
718.3266530542672
 30
0.0
 11
109.0148069048026
 21
711.8266530542672
 31
0.0
1001
AUSTER_ANSICHT
1002
{
1000
Det03
1002
}
1001
AUSTER_FOLIE
1002
{
1000
NSB00777_S2_WENDE
1002
}
  0
LINE
  5
121D1
330
20
100
AcDbEntity
  8
11000_Left
  6
Continuous
 62
     7
370
    20
100
AcDbLine
 39
0.7
 10
36.31480690480265
 20
706.3266530542672
 30
0.0
 11
36.31480690480265
 21
703.3266530542672
 31
0.0
1001
AUSTER_ANSICHT
1002
{
1000
Det03
1002
}
1001
AUSTER_FOLIE
1002
{
1000
NSB00777_S2_WENDE
1002
}
  0
LINE
  5
121D2
330
20
100
AcDbEntity
  8
11000_Left
  6
Continuous
 62
     7
370
    20
100
AcDbLine
 39
0.7
 10
54.81480690480264
 20
706.3266530542672
 30
0.0
 11
36.31480690480265
 21
706.3266530542672
 31
0.0
1001
AUSTER_ANSICHT
1002
{
1000
Det03
1002
}
1001
AUSTER_FOLIE
1002
{
1000
NSB00777_S2_WENDE
1002
}
  0
LINE
  5
121D3
330
20
100
AcDbEntity
  8
11000_Left
  6
Continuous
 62
     7
370
    20
100
AcDbLine
 39
0.7
 10
54.81480690480264
 20
708.3266530542672
 30
0.0
 11
54.81480690480264
 21
706.3266530542672
 31
0.0
1001
AUSTER_ANSICHT
1002
{
1000
Det03
1002
}
1001
AUSTER_FOLIE
1002
{
1000
NSB00777_S2_WENDE
1002
}
  0
LINE
  5
121D4
330
20
100
AcDbEntity
  8
11000_Left
  6
Continuous
 62
     7
370
    20
100
AcDbLine
 39
0.7
 10
36.31480690480265
 20
708.3266530542672
 30
0.0
 11
54.81480690480264
 21
708.3266530542672
 31
0.0
1001
AUSTER_ANSICHT
1002
{
1000
Det03
1002
}
1001
AUSTER_FOLIE
1002
{
1000
NSB00777_S2_WENDE
1002
}
  0
LINE
  5
121D5
330
20
100
AcDbEntity
  8
11000_Left
  6
Continuous
 62
     7
370
    20
100
AcDbLine
 39
0.7
 10
36.31480690480265
 20
711.3266530542672
 30
0.0
 11
36.31480690480265
 21
708.3266530542672
 31
0.0
1001
AUSTER_ANSICHT
1002
{
1000
Det03
1002
}
1001
AUSTER_FOLIE
1002
{
1000
NSB00777_S2_WENDE
1002
}
  0
LINE
  5
121D6
330
20
100
AcDbEntity
  8
11000_Left
  6
Continuous
 62
     7
370
    20
100
AcDbLine
 39
0.7
 10
36.31480690480265
 20
765.3266530542672
 30
0.0
 11
36.31480690480265
 21
762.3266530542672
 31
0.0
1001
AUSTER_ANSICHT
1002
{
1000
Det03
1002
}
1001
AUSTER_FOLIE
1002
{
1000
NSB00777_S2_WENDE
1002
}
  0
LINE
  5
121D7
330
20
100
AcDbEntity
  8
11000_Left
  6
Continuous
 62
     7
370
    20
100
AcDbLine
 39
0.7
 10
54.81480690480264
 20
765.3266530542672
 30
0.0
 11
36.31480690480265
 21
765.3266530542672
 31
0.0
1001
AUSTER_ANSICHT
1002
{
1000
Det03
1002
}
1001
AUSTER_FOLIE
1002
{
1000
NSB00777_S2_WENDE
1002
}
  0
LINE
  5
121D8
330
20
100
AcDbEntity
  8
11000_Left
  6
Continuous
 62
     7
370
    20
100
AcDbLine
 39
0.7
 10
54.81480690480264
 20
767.3266530542672
 30
0.0
 11
54.81480690480264
 21
765.3266530542672
 31
0.0
1001
AUSTER_ANSICHT
1002
{
1000
Det03
1002
}
1001
AUSTER_FOLIE
1002
{
1000
NSB00777_S2_WENDE
1002
}
  0
LINE
  5
121D9
330
20
100
AcDbEntity
  8
11000_Left
  6
Continuous
 62
     7
370
    20
100
AcDbLine
 39
0.7
 10
36.31480690480265
 20
767.3266530542672
 30
0.0
 11
54.81480690480264
 21
767.3266530542672
 31
0.0
1001
AUSTER_ANSICHT
1002
{
1000
Det03
1002
}
1001
AUSTER_FOLIE
1002
{
1000
NSB00777_S2_WENDE
1002
}
  0
LINE
  5
121DA
330
20
100
AcDbEntity
  8
11000_Left
  6
Continuous
 62
     7
370
    20
100
AcDbLine
 39
0.7
 10
36.31480690480265
 20
770.3266530542672
 30
0.0
 11
36.31480690480265
 21
767.3266530542672
 31
0.0
1001
AUSTER_ANSICHT
1002
{
1000
Det03
1002
}
1001
AUSTER_FOLIE
1002
{
1000
NSB00777_S2_WENDE
1002
}
  0
LINE
  5
121DB
330
20
100
AcDbEntity
  8
11000_Left
  6
Continuous
 62
     7
370
    20
100
AcDbLine
 39
0.7
 10
72.41480690480263
 20
768.7266530542672
 30
0.0
 11
88.51480690480256
 21
768.7266530542672
 31
0.0
1001
AUSTER_ANSICHT
1002
{
1000
Det03
1002
}
1001
AUSTER_FOLIE
1002
{
1000
NSB00777_S2_WENDE
1002
}
  0
LINE
  5
121DC
330
20
100
AcDbEntity
  8
11000_Left
  6
Continuous
 62
     7
370
    20
100
AcDbLine
 39
0.7
 10
72.41480690480263
 20
763.9266530542673
 30
0.0
 11
72.41480690480263
 21
768.7266530542672
 31
0.0
1001
AUSTER_ANSICHT
1002
{
1000
Det03
1002
}
1001
AUSTER_FOLIE
1002
{
1000
NSB00777_S2_WENDE
1002
}
  0
LINE
  5
121DD
330
20
100
AcDbEntity
  8
11000_Left
  6
Continuous
 62
     7
370
    20
100
AcDbLine
 39
0.7
 10
88.51480690480256
 20
763.9266530542673
 30
0.0
 11
72.41480690480263
 21
763.9266530542673
 31
0.0
1001
AUSTER_ANSICHT
1002
{
1000
Det03
1002
}
1001
AUSTER_FOLIE
1002
{
1000
NSB00777_S2_WENDE
1002
}
  0
LINE
  5
121DE
330
20
100
AcDbEntity
  8
11000_Left
  6
Continuous
 62
     7
370
    20
100
AcDbLine
 39
0.7
 10
72.41480690480263
 20
709.7266530542672
 30
0.0
 11
88.51480690480256
 21
709.7266530542672
 31
0.0
1001
AUSTER_ANSICHT
1002
{
1000
Det03
1002
}
1001
AUSTER_FOLIE
1002
{
1000
NSB00777_S2_WENDE
1002
}
  0
LINE
  5
121DF
330
20
100
AcDbEntity
  8
11000_Left
  6
Continuous
 62
     7
370
    20
100
AcDbLine
 39
0.7
 10
72.41480690480263
 20
704.9266530542673
 30
0.0
 11
72.41480690480263
 21
709.7266530542672
 31
0.0
1001
AUSTER_ANSICHT
1002
{
1000
Det03
1002
}
1001
AUSTER_FOLIE
1002
{
1000
NSB00777_S2_WENDE
1002
}
  0
LINE
  5
121E0
330
20
100
AcDbEntity
  8
11000_Left
  6
Continuous
 62
     7
370
    20
100
AcDbLine
 39
0.7
 10
88.51480690480256
 20
704.9266530542673
 30
0.0
 11
72.41480690480263
 21
704.9266530542673
 31
0.0
1001
AUSTER_ANSICHT
1002
{
1000
Det03
1002
}
1001
AUSTER_FOLIE
1002
{
1000
NSB00777_S2_WENDE
1002
}
  0
LINE
  5
121E1
330
20
100
AcDbEntity
  8
11000_Left
  6
Continuous
 62
     7
370
    20
100
AcDbLine
 39
0.7
 10
119.8004069048026
 20
733.5766530542672
 30
0.0
 11
104.0148069048026
 21
733.5766530542672
 31
0.0
1001
AUSTER_ANSICHT
1002
{
1000
Det03
1002
}
1001
AUSTER_FOLIE
1002
{
1000
NSB00777_S2_WENDE
1002
}
  0
LINE
  5
121E2
330
20
100
AcDbEntity
  8
11000_Left
  6
Continuous
 62
     7
370
    20
100
AcDbLine
 39
0.7
 10
104.0148069048026
 20
740.0766530542672
 30
0.0
 11
119.8004069048026
 21
740.0766530542672
 31
0.0
1001
AUSTER_ANSICHT
1002
{
1000
Det03
1002
}
1001
AUSTER_FOLIE
1002
{
1000
NSB00777_S2_WENDE
1002
}
  0
LINE
  5
121E3
330
20
100
AcDbEntity
  8
11000_Left
  6
Continuous
 62
     7
370
    20
100
AcDbLine
 39
0.7
 10
103.2148069048026
 20
739.1766530542674
 30
0.0
 11
103.2148069048026
 21
734.4766530542671
 31
0.0
1001
AUSTER_ANSICHT
1002
{
1000
Det03
1002
}
1001
AUSTER_FOLIE
1002
{
1000
NSB00777_S2_WENDE
1002
}
  0
LINE
  5
121E4
330
20
100
AcDbEntity
  8
11000_Left
  6
Continuous
 62
     7
370
    20
100
AcDbLine
 39
0.7
 10
36.31480690480265
 20
703.3266530542672
 30
0.0
 11
33.51480690480258
 21
703.3266530542672
 31
0.0
1001
AUSTER_ANSICHT
1002
{
1000
Det03
1002
}
1001
AUSTER_FOLIE
1002
{
1000
NSB00777_S2_WENDE
1002
}
  0
LINE
  5
121E5
330
20
100
AcDbEntity
  8
11000_Left
  6
Continuous
 62
     7
370
    20
100
AcDbLine
 39
0.7
 10
33.51480690480258
 20
711.3266530542672
 30
0.0
 11
36.31480690480265
 21
711.3266530542672
 31
0.0
1001
AUSTER_ANSICHT
1002
{
1000
Det03
1002
}
1001
AUSTER_FOLIE
1002
{
1000
NSB00777_S2_WENDE
1002
}
  0
LINE
  5
121E6
330
20
100
AcDbEntity
  8
11000_Left
  6
Continuous
 62
     7
370
    20
100
AcDbLine
 39
0.7
 10
33.51480690480258
 20
762.3266530542672
 30
0.0
 11
36.31480690480265
 21
762.3266530542672
 31
0.0
1001
AUSTER_ANSICHT
1002
{
1000
Det03
1002
}
1001
AUSTER_FOLIE
1002
{
1000
NSB00777_S2_WENDE
1002
}
  0
LINE
  5
121E7
330
20
100
AcDbEntity
  8
11000_Left
  6
Continuous
 62
     7
370
    20
100
AcDbLine
 39
0.7
 10
33.51480690480258
 20
770.3266530542672
 30
0.0
 11
36.31480690480265
 21
770.3266530542672
 31
0.0
1001
AUSTER_ANSICHT
1002
{
1000
Det03
1002
}
1001
AUSTER_FOLIE
1002
{
1000
NSB00777_S2_WENDE
1002
}
  0
LINE
  5
121E9
330
20
100
AcDbEntity
  8
11000_Left
  6
Continuous
 62
     7
370
    20
100
AcDbLine
 39
0.7
 10
72.51480690480258
 20
692.8266530542672
 30
0.0
 11
72.51480690480258
 21
684.3266530542672
 31
0.0
1001
AUSTER_ANSICHT
1002
{
1000
Det03
1002
}
1001
AUSTER_FOLIE
1002
{
1000
NSB00777_S2_WENDE
1002
}
  0
LINE
  5
121EA
330
20
100
AcDbEntity
  8
11000_Left
  6
Continuous
 62
     7
370
    20
100
AcDbLine
 39
0.7
 10
123.9148069048026
 20
682.8266530542672
 30
0.0
 11
115.4148069048026
 21
682.8266530542672
 31
0.0
1001
AUSTER_ANSICHT
1002
{
1000
Det03
1002
}
1001
AUSTER_FOLIE
1002
{
1000
NSB00777_S2_WENDE
1002
}
  0
LINE
  5
121EB
330
20
100
AcDbEntity
  8
11000_Left
  6
Continuous
 62
     7
370
    20
100
AcDbLine
 39
0.7
 10
118.1115069048026
 20
790.3067530542672
 30
0.0
 11
116.1115069048026
 21
790.3067530542672
 31
0.0
1001
AUSTER_ANSICHT
1002
{
1000
Det03
1002
}
1001
AUSTER_FOLIE
1002
{
1000
NSB00777_S2_WENDE
1002
}
  0
LINE
  5
121EC
330
20
100
AcDbEntity
  8
11000_Left
  6
Continuous
 62
     7
370
    20
100
AcDbLine
 39
0.7
 10
41.51480690480258
 20
789.3266530542672
 30
0.0
 11
41.51480690480258
 21
780.1266530542672
 31
0.0
1001
AUSTER_ANSICHT
1002
{
1000
Det03
1002
}
1001
AUSTER_FOLIE
1002
{
1000
NSB00777_S2_WENDE
1002
}
  0
LINE
  5
121ED
330
20
100
AcDbEntity
  8
11000_Left
  6
Continuous
 62
     7
370
    20
100
AcDbLine
 39
0.7
 10
41.91480690480261
 20
692.8266530542672
 30
0.0
 11
72.54970690480263
 21
692.8270530542672
 31
0.0
1001
AUSTER_ANSICHT
1002
{
1000
Det03
1002
}
1001
AUSTER_FOLIE
1002
{
1000
NSB00777_S2_WENDE
1002
}
  0
LINE
  5
121F0
330
20
100
AcDbEntity
  8
11000_Left
  6
Continuous
 62
     7
370
    20
100
AcDbLine
 39
0.7
 10
155.0148069048026
 20
708.4766530542672
 30
0.0
 11
102.9148069048026
 21
708.4766530542672
 31
0.0
1001
AUSTER_ANSICHT
1002
{
1000
Det03
1002
}
1001
AUSTER_FOLIE
1002
{
1000
NSB00777_S2_WENDE
1002
}
  0
LINE
  5
121F1
330
20
100
AcDbEntity
  8
11000_Left
  6
Continuous
 62
     7
370
    20
100
AcDbLine
 39
0.7
 10
155.0148069048026
 20
765.0266530542673
 30
0.0
 11
122.8148069048026
 21
765.0266530542673
 31
0.0
1001
AUSTER_ANSICHT
1002
{
1000
Det03
1002
}
1001
AUSTER_FOLIE
1002
{
1000
NSB00777_S2_WENDE
1002
}
  0
ARC
  5
121F2
330
20
100
AcDbEntity
  8
11000_Left
  6
Continuous
 62
     7
370
    50
100
AcDbCircle
 39
0.7
 10
37.93200690480262
 20
720.1825530542672
 30
0.0
 40
1.0
100
AcDbArc
 50
189.9999999999986
 51
224.1790999999981
1001
AUSTER_ANSICHT
1002
{
1000
Det03
1002
}
1001
AUSTER_FOLIE
1002
{
1000
NSB00777_S2_WENDE
1002
}
  0
ARC
  5
121F3
330
20
100
AcDbEntity
  8
11000_Left
  6
Continuous
 62
     7
370
    50
100
AcDbCircle
 39
0.7
 10
36.31480690480265
 20
720.9266530542672
 30
0.0
 40
0.4
100
AcDbArc
 50
90.0
 51
139.9999999999974
1001
AUSTER_ANSICHT
1002
{
1000
Det03
1002
}
1001
AUSTER_FOLIE
1002
{
1000
NSB00777_S2_WENDE
1002
}
  0
ARC
  5
121F4
330
20
100
AcDbEntity
  8
11000_Left
  6
Continuous
 62
     7
370
    50
100
AcDbCircle
 39
0.7
 10
129.4148069048026
 20
692.7266530542672
 30
0.0
 40
0.4
100
AcDbArc
 50
270.0
 51
0.0
1001
AUSTER_ANSICHT
1002
{
1000
Det03
1002
}
1001
AUSTER_FOLIE
1002
{
1000
NSB00777_S2_WENDE
1002
}
  0
ARC
  5
121F5
330
20
100
AcDbEntity
  8
11000_Left
  6
Continuous
 62
     7
370
    50
100
AcDbCircle
 39
0.7
 10
129.4148069048026
 20
780.9266530542672
 30
0.0
 40
0.4
100
AcDbArc
 50
0.0
 51
90.0
1001
AUSTER_ANSICHT
1002
{
1000
Det03
1002
}
1001
AUSTER_FOLIE
1002
{
1000
NSB00777_S2_WENDE
1002
}
  0
ARC
  5
121F6
330
20
100
AcDbEntity
  8
11000_Left
  6
Continuous
 62
     7
370
    50
100
AcDbCircle
 39
0.7
 10
159.5203069048026
 20
778.5266530542672
 30
0.0
 40
0.8
100
AcDbArc
 50
8.011488000000477
 51
90.0
1001
AUSTER_ANSICHT
1002
{
1000
Det03
1002
}
1001
AUSTER_FOLIE
1002
{
1000
NSB00777_S2_WENDE
1002
}
  0
ARC
  5
121F7
330
20
100
AcDbEntity
  8
11000_Left
  6
Continuous
 62
     7
370
    50
100
AcDbCircle
 39
0.7
 10
159.5203069048026
 20
695.1266530542673
 30
0.0
 40
0.8
100
AcDbArc
 50
270.0
 51
351.9885000000015
1001
AUSTER_ANSICHT
1002
{
1000
Det03
1002
}
1001
AUSTER_FOLIE
1002
{
1000
NSB00777_S2_WENDE
1002
}
  0
ARC
  5
121F9
330
20
100
AcDbEntity
  8
11000_Left
  6
Continuous
 62
     7
370
    50
100
AcDbCircle
 39
0.7
 10
34.84270690480258
 20
788.9266530542673
 30
0.0
 40
0.4
100
AcDbArc
 50
90.0
 51
168.6900999999991
1001
AUSTER_ANSICHT
1002
{
1000
Det03
1002
}
1001
AUSTER_FOLIE
1002
{
1000
NSB00777_S2_WENDE
1002
}
  0
ARC
  5
121FA
330
20
100
AcDbEntity
  8
11000_Left
  6
Continuous
 62
     7
370
    50
100
AcDbCircle
 39
0.7
 10
102.1148069048026
 20
788.9266530542673
 30
0.0
 40
0.4
100
AcDbArc
 50
0.0
 51
90.0
1001
AUSTER_ANSICHT
1002
{
1000
Det03
1002
}
1001
AUSTER_FOLIE
1002
{
1000
NSB00777_S2_WENDE
1002
}
  0
ARC
  5
121FB
330
20
100
AcDbEntity
  8
11000_Left
  6
Continuous
 62
     7
370
    50
100
AcDbCircle
 39
0.7
 10
33.91480690480263
 20
684.7266530542672
 30
0.0
 40
0.4
100
AcDbArc
 50
180.0
 51
270.0
1001
AUSTER_ANSICHT
1002
{
1000
Det03
1002
}
1001
AUSTER_FOLIE
1002
{
1000
NSB00777_S2_WENDE
1002
}
  0
ARC
  5
121FC
330
20
100
AcDbEntity
  8
11000_Left
  6
Continuous
 62
     7
370
    50
100
AcDbCircle
 39
0.7
 10
-136.7595230951974
 20
736.8266530542672
 30
0.0
 40
300.0
100
AcDbArc
 50
352.1237999999971
 51
7.876100000002927
1001
AUSTER_ANSICHT
1002
{
1000
Det03
1002
}
1001
AUSTER_FOLIE
1002
{
1000
NSB00777_S2_WENDE
1002
}
  0
ARC
  5
121FD
330
20
100
AcDbEntity
  8
11000_Left
  6
Continuous
 62
     7
370
    50
100
AcDbCircle
 39
0.7
 10
102.1148069048026
 20
666.3266530542672
 30
0.0
 40
1.0
100
AcDbArc
 50
270.0
 51
0.0
1001
AUSTER_ANSICHT
1002
{
1000
Det03
1002
}
1001
AUSTER_FOLIE
1002
{
1000
NSB00777_S2_WENDE
1002
}
  0
ARC
  5
121FE
330
20
100
AcDbEntity
  8
11000_Left
  6
Continuous
 62
     7
370
    50
100
AcDbCircle
 39
0.7
 10
85.1148069048026
 20
666.3266530542672
 30
0.0
 40
1.0
100
AcDbArc
 50
180.0
 51
270.0
1001
AUSTER_ANSICHT
1002
{
1000
Det03
1002
}
1001
AUSTER_FOLIE
1002
{
1000
NSB00777_S2_WENDE
1002
}
  0
ARC
  5
121FF
330
20
100
AcDbEntity
  8
11000_Left
  6
Continuous
 62
     7
370
    50
100
AcDbCircle
 39
0.7
 10
128.9148069048026
 20
691.8266530542672
 30
0.0
 40
0.5
100
AcDbArc
 50
0.0
 51
90.0
1001
AUSTER_ANSICHT
1002
{
1000
Det03
1002
}
1001
AUSTER_FOLIE
1002
{
1000
NSB00777_S2_WENDE
1002
}
  0
ARC
  5
12200
330
20
100
AcDbEntity
  8
11000_Left
  6
Continuous
 62
     7
370
    50
100
AcDbCircle
 39
0.7
 10
128.9148069048026
 20
683.3266530542672
 30
0.0
 40
0.5
100
AcDbArc
 50
270.0
 51
0.0
1001
AUSTER_ANSICHT
1002
{
1000
Det03
1002
}
1001
AUSTER_FOLIE
1002
{
1000
NSB00777_S2_WENDE
1002
}
  0
ARC
  5
12201
330
20
100
AcDbEntity
  8
11000_Left
  6
Continuous
 62
     7
370
    50
100
AcDbCircle
 39
0.7
 10
123.9148069048026
 20
682.3266530542672
 30
0.0
 40
0.5
100
AcDbArc
 50
90.0
 51
180.0
1001
AUSTER_ANSICHT
1002
{
1000
Det03
1002
}
1001
AUSTER_FOLIE
1002
{
1000
NSB00777_S2_WENDE
1002
}
  0
ARC
  5
12202
330
20
100
AcDbEntity
  8
11000_Left
  6
Continuous
 62
     7
370
    50
100
AcDbCircle
 39
0.7
 10
122.9148069048026
 20
679.3266530542672
 30
0.0
 40
0.5
100
AcDbArc
 50
270.0
 51
0.0
1001
AUSTER_ANSICHT
1002
{
1000
Det03
1002
}
1001
AUSTER_FOLIE
1002
{
1000
NSB00777_S2_WENDE
1002
}
  0
ARC
  5
12203
330
20
100
AcDbEntity
  8
11000_Left
  6
Continuous
 62
     7
370
    50
100
AcDbCircle
 39
0.7
 10
115.9148069048026
 20
679.3266530542672
 30
0.0
 40
0.5
100
AcDbArc
 50
180.0
 51
270.0
1001
AUSTER_ANSICHT
1002
{
1000
Det03
1002
}
1001
AUSTER_FOLIE
1002
{
1000
NSB00777_S2_WENDE
1002
}
  0
ARC
  5
12204
330
20
100
AcDbEntity
  8
11000_Left
  6
Continuous
 62
     7
370
    50
100
AcDbCircle
 39
0.7
 10
115.9148069048026
 20
691.8266530542672
 30
0.0
 40
0.5
100
AcDbArc
 50
89.99982999999918
 51
180.0
1001
AUSTER_ANSICHT
1002
{
1000
Det03
1002
}
1001
AUSTER_FOLIE
1002
{
1000
NSB00777_S2_WENDE
1002
}
  0
LINE
  5
12205
330
20
100
AcDbEntity
  8
11000_Left
  6
Continuous
 62
     7
370
    50
100
AcDbLine
 39
0.7
 10
103.1148069048026
 20
684.3266530542672
 30
0.0
 11
103.1148069048026
 21
666.3266530542672
 31
0.0
1001
AUSTER_ANSICHT
1002
{
1000
Det03
1002
}
1001
AUSTER_FOLIE
1002
{
1000
NSB00777_S2_WENDE
1002
}
  0
LINE
  5
12206
330
20
100
AcDbEntity
  8
11000_Left
  6
Continuous
 62
     7
370
    50
100
AcDbLine
 39
0.7
 10
85.1148069048026
 20
665.3266530542672
 30
0.0
 11
102.1148069048026
 21
665.3266530542672
 31
0.0
1001
AUSTER_ANSICHT
1002
{
1000
Det03
1002
}
1001
AUSTER_FOLIE
1002
{
1000
NSB00777_S2_WENDE
1002
}
  0
LINE
  5
12207
330
20
100
AcDbEntity
  8
11000_Left
  6
Continuous
 62
     7
370
    50
100
AcDbLine
 39
0.7
 10
84.11480690480258
 20
684.3266530542672
 30
0.0
 11
84.11480690480258
 21
666.3266530542672
 31
0.0
1001
AUSTER_ANSICHT
1002
{
1000
Det03
1002
}
1001
AUSTER_FOLIE
1002
{
1000
NSB00777_S2_WENDE
1002
}
  0
LINE
  5
12209
330
20
100
AcDbEntity
  8
11000_Left
  6
Continuous
 62
     7
370
    50
100
AcDbLine
 39
0.7
 10
38.51480690480258
 20
754.3266530542672
 30
0.0
 11
38.51480690480258
 21
719.0266530542673
 31
0.0
1001
AUSTER_ANSICHT
1002
{
1000
Det03
1002
}
1001
AUSTER_FOLIE
1002
{
1000
NSB00777_S2_WENDE
1002
}
  0
LINE
  5
1220B
330
20
100
AcDbEntity
  8
11000_Left
  6
Continuous
 62
     7
370
    50
100
AcDbLine
 39
0.7
 10
37.26000690480264
 20
753.6266530542673
 30
0.0
 11
37.5148069048026
 21
754.3266530542672
 31
0.0
1001
AUSTER_ANSICHT
1002
{
1000
Det03
1002
}
1001
AUSTER_FOLIE
1002
{
1000
NSB00777_S2_WENDE
1002
}
  0
LINE
  5
1220C
330
20
100
AcDbEntity
  8
11000_Left
  6
Continuous
 62
     7
370
    50
100
AcDbLine
 39
0.7
 10
35.40340690480258
 20
752.3266530542672
 30
0.0
 11
37.26000690480264
 21
753.6266530542673
 31
0.0
1001
AUSTER_ANSICHT
1002
{
1000
Det03
1002
}
1001
AUSTER_FOLIE
1002
{
1000
NSB00777_S2_WENDE
1002
}
  0
LINE
  5
1220D
330
20
100
AcDbEntity
  8
11000_Left
  6
Continuous
 62
     7
370
    50
100
AcDbLine
 39
0.7
 10
36.31480690480265
 20
721.3266530542672
 30
0.0
 11
36.71480690480264
 21
721.3266530542672
 31
0.0
1001
AUSTER_ANSICHT
1002
{
1000
Det03
1002
}
1001
AUSTER_FOLIE
1002
{
1000
NSB00777_S2_WENDE
1002
}
  0
LINE
  5
1220E
330
20
100
AcDbEntity
  8
11000_Left
  6
Continuous
 62
     7
370
    50
100
AcDbLine
 39
0.7
 10
36.71480690480264
 20
721.3266530542672
 30
0.0
 11
36.94720690480262
 21
720.0088530542672
 31
0.0
1001
AUSTER_ANSICHT
1002
{
1000
Det03
1002
}
1001
AUSTER_FOLIE
1002
{
1000
NSB00777_S2_WENDE
1002
}
  0
LINE
  5
1220F
330
20
100
AcDbEntity
  8
11000_Left
  6
Continuous
 62
     7
370
    50
100
AcDbLine
 39
0.7
 10
38.51480690480258
 20
719.0266530542673
 30
0.0
 11
37.01480690480258
 21
719.0266530542673
 31
0.0
1001
AUSTER_ANSICHT
1002
{
1000
Det03
1002
}
1001
AUSTER_FOLIE
1002
{
1000
NSB00777_S2_WENDE
1002
}
  0
LINE
  5
12210
330
20
100
AcDbEntity
  8
11000_Left
  6
Continuous
 62
     7
370
    50
100
AcDbLine
 39
0.7
 10
37.21480690480264
 20
719.4856530542672
 30
0.0
 11
37.21480690480264
 21
719.0266530542673
 31
0.0
1001
AUSTER_ANSICHT
1002
{
1000
Det03
1002
}
1001
AUSTER_FOLIE
1002
{
1000
NSB00777_S2_WENDE
1002
}
  0
LINE
  5
12211
330
20
100
AcDbEntity
  8
11000_Left
  6
Continuous
 62
     7
370
    50
100
AcDbLine
 39
0.7
 10
36.00840690480261
 20
721.1837530542672
 30
0.0
 11
33.51480690480258
 21
718.2120530542672
 31
0.0
1001
AUSTER_ANSICHT
1002
{
1000
Det03
1002
}
1001
AUSTER_FOLIE
1002
{
1000
NSB00777_S2_WENDE
1002
}
  0
LINE
  5
12212
330
20
100
AcDbEntity
  8
11000_Left
  6
Continuous
 62
     7
370
    50
100
AcDbLine
 39
0.7
 10
33.51480690480258
 20
752.3266530542672
 30
0.0
 11
35.40340690480258
 21
752.3266530542672
 31
0.0
1001
AUSTER_ANSICHT
1002
{
1000
Det03
1002
}
1001
AUSTER_FOLIE
1002
{
1000
NSB00777_S2_WENDE
1002
}
  0
LINE
  5
12213
330
20
100
AcDbEntity
  8
11000_Left
  6
Continuous
 62
     7
370
    50
100
AcDbLine
 39
0.7
 10
116.1115069048026
 20
799.3109530542673
 30
0.0
 11
129.7748069048026
 21
799.3109530542673
 31
0.0
1001
AUSTER_ANSICHT
1002
{
1000
Det03
1002
}
1001
AUSTER_FOLIE
1002
{
1000
NSB00777_S2_WENDE
1002
}
  0
LINE
  5
12214
330
20
100
AcDbEntity
  8
11000_Left
  6
Continuous
 62
     7
370
    50
100
AcDbLine
 39
0.7
 10
129.7748069048026
 20
799.3109530542673
 30
0.0
 11
129.7748069048026
 21
790.3067530542672
 31
0.0
1001
AUSTER_ANSICHT
1002
{
1000
Det03
1002
}
1001
AUSTER_FOLIE
1002
{
1000
NSB00777_S2_WENDE
1002
}
  0
LINE
  5
12217
330
20
100
AcDbEntity
  8
11000_Left
  6
Continuous
 62
     7
370
    50
100
AcDbLine
 39
0.7
 10
129.3748069048026
 20
799.3109530542673
 30
0.0
 11
117.6748069048026
 21
799.3109530542673
 31
0.0
1001
AUSTER_ANSICHT
1002
{
1000
Det03
1002
}
1001
AUSTER_FOLIE
1002
{
1000
NSB00777_S2_WENDE
1002
}
  0
LINE
  5
12218
330
20
100
AcDbEntity
  8
11000_Left
  6
Continuous
 62
     7
370
    20
100
AcDbLine
 39
0.7
 10
128.9148069048026
 20
692.3266530542672
 30
0.0
 11
129.4148069048026
 21
692.3266530542672
 31
0.0
1001
AUSTER_ANSICHT
1002
{
1000
Det03
1002
}
1001
AUSTER_FOLIE
1002
{
1000
NSB00777_S2_WENDE
1002
}
  0
LINE
  5
12219
330
20
100
AcDbEntity
  8
11000_Left
  6
Continuous
 62
     7
370
    20
100
AcDbLine
 39
0.7
 10
117.7148069048026
 20
692.3266530542672
 30
0.0
 11
128.9148069048026
 21
692.3266530542672
 31
0.0
1001
AUSTER_ANSICHT
1002
{
1000
Det03
1002
}
1001
AUSTER_FOLIE
1002
{
1000
NSB00777_S2_WENDE
1002
}
  0
LINE
  5
1221A
330
20
100
AcDbEntity
  8
11000_Left
  6
Continuous
 62
     7
370
    50
100
AcDbLine
 39
0.7
 10
117.3148069048026
 20
692.3266530542672
 30
0.0
 11
117.3148069048026
 21
692.7266530542672
 31
0.0
1001
AUSTER_ANSICHT
1002
{
1000
Det03
1002
}
1001
AUSTER_FOLIE
1002
{
1000
NSB00777_S2_WENDE
1002
}
  0
LINE
  5
1221C
330
20
100
AcDbEntity
  8
11000_Left
  6
Continuous
 62
     7
370
    50
100
AcDbLine
 39
0.7
 10
117.3148069048026
 20
692.7266530542672
 30
0.0
 11
117.3148069048026
 21
694.3266530542672
 31
0.0
1001
AUSTER_ANSICHT
1002
{
1000
Det03
1002
}
1001
AUSTER_FOLIE
1002
{
1000
NSB00777_S2_WENDE
1002
}
  0
LINE
  5
1221D
330
20
100
AcDbEntity
  8
11000_Left
  6
Continuous
 62
     7
370
    50
100
AcDbLine
 39
0.7
 10
129.8148069048026
 20
694.3266530542672
 30
0.0
 11
129.8148069048026
 21
692.7266530542672
 31
0.0
1001
AUSTER_ANSICHT
1002
{
1000
Det03
1002
}
1001
AUSTER_FOLIE
1002
{
1000
NSB00777_S2_WENDE
1002
}
  0
LINE
  5
1221F
330
20
100
AcDbEntity
  8
11000_Left
  6
Continuous
 62
     7
370
    50
100
AcDbLine
 39
0.7
 10
155.0148069048026
 20
779.3266530542672
 30
0.0
 11
159.5203069048026
 21
779.3266530542672
 31
0.0
1001
AUSTER_ANSICHT
1002
{
1000
Det03
1002
}
1001
AUSTER_FOLIE
1002
{
1000
NSB00777_S2_WENDE
1002
}
  0
LINE
  5
12220
330
20
100
AcDbEntity
  8
11000_Left
  6
Continuous
 62
     7
370
    50
100
AcDbLine
 39
0.7
 10
159.5203069048026
 20
694.3266530542672
 30
0.0
 11
155.0148069048026
 21
694.3266530542672
 31
0.0
1001
AUSTER_ANSICHT
1002
{
1000
Det03
1002
}
1001
AUSTER_FOLIE
1002
{
1000
NSB00777_S2_WENDE
1002
}
  0
LINE
  5
12221
330
20
100
AcDbEntity
  8
11000_Left
  6
Continuous
 62
     7
370
    50
100
AcDbLine
 39
0.7
 10
103.1148069048026
 20
694.0266530542673
 30
0.0
 11
103.1148069048026
 21
684.3266530542672
 31
0.0
1001
AUSTER_ANSICHT
1002
{
1000
Det03
1002
}
1001
AUSTER_FOLIE
1002
{
1000
NSB00777_S2_WENDE
1002
}
  0
LINE
  5
12222
330
20
100
AcDbEntity
  8
11000_Left
  6
Continuous
 62
     7
370
    50
100
AcDbLine
 39
0.7
 10
88.51480690480256
 20
789.3266530542672
 30
0.0
 11
98.41480690480263
 21
789.3266530542672
 31
0.0
1001
AUSTER_ANSICHT
1002
{
1000
Det03
1002
}
1001
AUSTER_FOLIE
1002
{
1000
NSB00777_S2_WENDE
1002
}
  0
LINE
  5
12223
330
20
100
AcDbEntity
  8
11000_Left
  6
Continuous
 62
     7
370
    50
100
AcDbLine
 39
0.7
 10
102.5148069048026
 20
779.8956530542674
 30
0.0
 11
102.5148069048026
 21
784.8266530542672
 31
0.0
1001
AUSTER_ANSICHT
1002
{
1000
Det03
1002
}
1001
AUSTER_FOLIE
1002
{
1000
NSB00777_S2_WENDE
1002
}
  0
LINE
  5
12224
330
20
100
AcDbEntity
  8
11000_Left
  6
Continuous
 62
     7
370
    50
100
AcDbLine
 39
0.7
 10
160.4104069048026
 20
695.7167530542673
 30
0.0
 11
160.3125069048026
 21
695.0151530542671
 31
0.0
1001
AUSTER_ANSICHT
1002
{
1000
Det03
1002
}
1001
AUSTER_FOLIE
1002
{
1000
NSB00777_S2_WENDE
1002
}
  0
LINE
  5
12225
330
20
100
AcDbEntity
  8
11000_Left
  6
Continuous
 62
     7
370
    50
100
AcDbLine
 39
0.7
 10
129.8148069048026
 20
780.9266530542672
 30
0.0
 11
129.8148069048026
 21
779.3266530542672
 31
0.0
1001
AUSTER_ANSICHT
1002
{
1000
Det03
1002
}
1001
AUSTER_FOLIE
1002
{
1000
NSB00777_S2_WENDE
1002
}
  0
LINE
  5
12226
330
20
100
AcDbEntity
  8
11000_Left
  6
Continuous
 62
     7
370
    50
100
AcDbLine
 39
0.7
 10
98.41480690480263
 20
789.3266530542672
 30
0.0
 11
102.1148069048026
 21
789.3266530542672
 31
0.0
1001
AUSTER_ANSICHT
1002
{
1000
Det03
1002
}
1001
AUSTER_FOLIE
1002
{
1000
NSB00777_S2_WENDE
1002
}
  0
LINE
  5
12227
330
20
100
AcDbEntity
  8
11000_Left
  6
Continuous
 62
     7
370
    50
100
AcDbLine
 39
0.7
 10
102.5148069048026
 20
784.8266530542672
 30
0.0
 11
102.5148069048026
 21
788.9266530542673
 31
0.0
1001
AUSTER_ANSICHT
1002
{
1000
Det03
1002
}
1001
AUSTER_FOLIE
1002
{
1000
NSB00777_S2_WENDE
1002
}
  0
LINE
  5
12228
330
20
100
AcDbEntity
  8
11000_Left
  6
Continuous
 62
     7
370
    50
100
AcDbLine
 39
0.7
 10
160.3125069048026
 20
778.6381530542672
 30
0.0
 11
160.4105069048026
 21
777.9362530542672
 31
0.0
1001
AUSTER_ANSICHT
1002
{
1000
Det03
1002
}
1001
AUSTER_FOLIE
1002
{
1000
NSB00777_S2_WENDE
1002
}
  0
LINE
  5
12229
330
20
100
AcDbEntity
  8
11000_Left
  6
Continuous
 62
     7
370
    50
100
AcDbLine
 39
0.7
 10
117.3148069048026
 20
692.3266530542672
 30
0.0
 11
115.9148069048026
 21
692.3266530542672
 31
0.0
1001
AUSTER_ANSICHT
1002
{
1000
Det03
1002
}
1001
AUSTER_FOLIE
1002
{
1000
NSB00777_S2_WENDE
1002
}
  0
LINE
  5
1222A
330
20
100
AcDbEntity
  8
11000_Left
  6
Continuous
 62
     7
370
    50
100
AcDbLine
 39
0.7
 10
115.9148069048026
 20
678.8266530542672
 30
0.0
 11
122.9148069048026
 21
678.8266530542672
 31
0.0
1001
AUSTER_ANSICHT
1002
{
1000
Det03
1002
}
1001
AUSTER_FOLIE
1002
{
1000
NSB00777_S2_WENDE
1002
}
  0
LINE
  5
1222B
330
20
100
AcDbEntity
  8
11000_Left
  6
Continuous
 62
     7
370
    50
100
AcDbLine
 39
0.7
 10
123.4148069048026
 20
679.3266530542672
 30
0.0
 11
123.4148069048026
 21
682.3266530542672
 31
0.0
1001
AUSTER_ANSICHT
1002
{
1000
Det03
1002
}
1001
AUSTER_FOLIE
1002
{
1000
NSB00777_S2_WENDE
1002
}
  0
LINE
  5
1222C
330
20
100
AcDbEntity
  8
11000_Left
  6
Continuous
 62
     7
370
    50
100
AcDbLine
 39
0.7
 10
123.9148069048026
 20
682.8266530542672
 30
0.0
 11
128.9148069048026
 21
682.8266530542672
 31
0.0
1001
AUSTER_ANSICHT
1002
{
1000
Det03
1002
}
1001
AUSTER_FOLIE
1002
{
1000
NSB00777_S2_WENDE
1002
}
  0
LINE
  5
1222D
330
20
100
AcDbEntity
  8
11000_Left
  6
Continuous
 62
     7
370
    50
100
AcDbLine
 39
0.7
 10
129.4148069048026
 20
683.3266530542672
 30
0.0
 11
129.4148069048026
 21
691.8266530542672
 31
0.0
1001
AUSTER_ANSICHT
1002
{
1000
Det03
1002
}
1001
AUSTER_FOLIE
1002
{
1000
NSB00777_S2_WENDE
1002
}
  0
LINE
  5
1222E
330
20
100
AcDbEntity
  8
11000_Left
  6
Continuous
 62
     7
370
    20
100
AcDbLine
 39
0.7
 10
116.1115069048026
 20
781.3266530542672
 30
0.0
 11
129.4148069048026
 21
781.3266530542672
 31
0.0
1001
AUSTER_ANSICHT
1002
{
1000
Det03
1002
}
1001
AUSTER_FOLIE
1002
{
1000
NSB00777_S2_WENDE
1002
}
  0
LINE
  5
1222F
330
20
100
AcDbEntity
  8
11000_Left
  6
Continuous
 62
     7
370
    50
100
AcDbLine
 39
0.7
 10
129.7748069048026
 20
790.3067530542672
 30
0.0
 11
135.1115069048026
 21
790.3067530542672
 31
0.0
1001
AUSTER_ANSICHT
1002
{
1000
Det03
1002
}
1001
AUSTER_FOLIE
1002
{
1000
NSB00777_S2_WENDE
1002
}
  0
LINE
  5
12230
330
20
100
AcDbEntity
  8
11000_Left
  6
Continuous
 62
     7
370
    50
100
AcDbLine
 39
0.7
 10
135.1115069048026
 20
781.3266530542672
 30
0.0
 11
135.1115069048026
 21
790.3067530542672
 31
0.0
1001
AUSTER_ANSICHT
1002
{
1000
Det03
1002
}
1001
AUSTER_FOLIE
1002
{
1000
NSB00777_S2_WENDE
1002
}
  0
LINE
  5
12231
330
20
100
AcDbEntity
  8
11000_Left
  6
Continuous
 62
     7
370
    50
100
AcDbLine
 39
0.7
 10
102.5148069048026
 20
779.3266530542672
 30
0.0
 11
155.0148069048026
 21
779.3266530542672
 31
0.0
1001
AUSTER_ANSICHT
1002
{
1000
Det03
1002
}
1001
AUSTER_FOLIE
1002
{
1000
NSB00777_S2_WENDE
1002
}
  0
LINE
  5
12232
330
20
100
AcDbEntity
  8
11000_Left
  6
Continuous
 62
     7
370
    50
100
AcDbLine
 39
0.7
 10
155.0148069048026
 20
694.3266530542672
 30
0.0
 11
102.9148069048026
 21
694.3266530542672
 31
0.0
1001
AUSTER_ANSICHT
1002
{
1000
Det03
1002
}
1001
AUSTER_FOLIE
1002
{
1000
NSB00777_S2_WENDE
1002
}
  0
LINE
  5
12233
330
20
100
AcDbEntity
  8
11000_Left
  6
Continuous
 62
     7
370
    50
100
AcDbLine
 39
0.7
 10
33.51480690480258
 20
718.2120530542672
 30
0.0
 11
33.51480690480258
 21
684.7266530542672
 31
0.0
1001
AUSTER_ANSICHT
1002
{
1000
Det03
1002
}
1001
AUSTER_FOLIE
1002
{
1000
NSB00777_S2_WENDE
1002
}
  0
LINE
  5
12234
330
20
100
AcDbEntity
  8
11000_Left
  6
Continuous
 62
     7
370
    50
100
AcDbLine
 39
0.7
 10
34.84270690480258
 20
789.3266530542672
 30
0.0
 11
88.51480690480256
 21
789.3266530542672
 31
0.0
1001
AUSTER_ANSICHT
1002
{
1000
Det03
1002
}
1001
AUSTER_FOLIE
1002
{
1000
NSB00777_S2_WENDE
1002
}
  0
LINE
  5
12235
330
20
100
AcDbEntity
  8
11000_Left
  6
Continuous
 62
     7
370
    50
100
AcDbLine
 39
0.7
 10
33.51480690480258
 20
783.9797530542672
 30
0.0
 11
33.51480690480258
 21
752.3266530542672
 31
0.0
1001
AUSTER_ANSICHT
1002
{
1000
Det03
1002
}
1001
AUSTER_FOLIE
1002
{
1000
NSB00777_S2_WENDE
1002
}
  0
LINE
  5
12236
330
20
100
AcDbEntity
  8
11000_Left
  6
Continuous
 62
     7
370
    50
100
AcDbLine
 39
0.7
 10
34.45050690480258
 20
789.0050530542672
 30
0.0
 11
33.51480690480258
 21
783.9797530542672
 31
0.0
1001
AUSTER_ANSICHT
1002
{
1000
Det03
1002
}
1001
AUSTER_FOLIE
1002
{
1000
NSB00777_S2_WENDE
1002
}
  0
LINE
  5
12237
330
20
100
AcDbEntity
  8
11000_Left
  6
Continuous
 62
     7
370
    50
100
AcDbLine
 39
0.7
 10
115.4148069048026
 20
691.8266530542672
 30
0.0
 11
115.4148069048026
 21
679.3266530542672
 31
0.0
1001
AUSTER_ANSICHT
1002
{
1000
Det03
1002
}
1001
AUSTER_FOLIE
1002
{
1000
NSB00777_S2_WENDE
1002
}
  0
LINE
  5
12238
330
20
100
AcDbEntity
  8
11000_Left
  6
Continuous
 62
     7
370
    50
100
AcDbLine
 39
0.7
 10
116.1115069048026
 20
799.3109530542673
 30
0.0
 11
116.1115069048026
 21
779.3266530542672
 31
0.0
1001
AUSTER_ANSICHT
1002
{
1000
Det03
1002
}
1001
AUSTER_FOLIE
1002
{
1000
NSB00777_S2_WENDE
1002
}
  0
LINE
  5
12239
330
20
100
AcDbEntity
  8
11000_Left
  6
Continuous
 62
     7
370
    50
100
AcDbLine
 39
0.7
 10
33.91480690480263
 20
684.3266530542672
 30
0.0
 11
84.11480690480258
 21
684.3266530542672
 31
0.0
1001
AUSTER_ANSICHT
1002
{
1000
Det03
1002
}
1001
AUSTER_FOLIE
1002
{
1000
NSB00777_S2_WENDE
1002
}
  0
LINE
  5
1223A
330
20
100
AcDbEntity
  8
10000_FRONT
  6
DASHED
 62
     7
370
    13
100
AcDbLine
 39
0.25
 10
-29.91510907162691
 20
784.3266530542672
 30
0.0
 11
-29.91510907162691
 21
783.3266530542672
 31
0.0
1001
AUSTER_ANSICHT
1002
{
1000
Det03
1002
}
1001
AUSTER_FOLIE
1002
{
1000
NSB00777_S2_WENDE
1002
}
  0
LINE
  5
1223B
330
20
100
AcDbEntity
  8
10000_FRONT
  6
DASHED
 62
     7
370
    13
100
AcDbLine
 39
0.25
 10
-89.91511107162692
 20
784.3266530542672
 30
0.0
 11
-89.91511107162692
 21
783.3266530542672
 31
0.0
1001
AUSTER_ANSICHT
1002
{
1000
Det03
1002
}
1001
AUSTER_FOLIE
1002
{
1000
NSB00777_S2_WENDE
1002
}
  0
TEXT
  5
1223C
330
20
100
AcDbEntity
  8
10000_FRONT
  6
Continuous
 62
     7
370
    20
100
AcDbText
 10
-70.41510907162692
 20
759.3266530542672
 30
0.0
 40
3.0
  1
SIEMENS
 41
0.6600000000000002
100
AcDbText
1001
AUSTER_ANSICHT
1002
{
1000
Det03
1002
}
1001
AUSTER_FOLIE
1002
{
1000
NSB00777_S2_WENDE
1002
}
  0
LINE
  5
1223D
330
20
100
AcDbEntity
  8
10000_FRONT
  6
DASHED
 62
     7
370
    13
100
AcDbLine
 39
0.25
 10
-94.91511107162692
 20
784.3266530542672
 30
0.0
 11
-94.91511107162692
 21
783.3266530542672
 31
0.0
1001
AUSTER_ANSICHT
1002
{
1000
Det03
1002
}
1001
AUSTER_FOLIE
1002
{
1000
NSB00777_S2_WENDE
1002
}
  0
TEXT
  5
1223E
330
20
100
AcDbEntity
  8
10000_FRONT
  6
Continuous
 62
     7
370
    20
100
AcDbText
 10
-135.4151090716269
 20
759.3266530542672
 30
0.0
 40
3.0
  1
SIEMENS
 41
0.6600000000000002
100
AcDbText
1001
AUSTER_ANSICHT
1002
{
1000
Det03
1002
}
1001
AUSTER_FOLIE
1002
{
1000
NSB00777_S2_WENDE
1002
}
  0
LINE
  5
1223F
330
20
100
AcDbEntity
  8
10000_FRONT
  6
DASHED
 62
     7
370
    13
100
AcDbLine
 39
0.25
 10
-69.9151090716269
 20
689.8266530542672
 30
0.0
 11
-69.9151090716269
 21
688.8266530542672
 31
0.0
1001
AUSTER_ANSICHT
1002
{
1000
Det03
1002
}
1001
AUSTER_FOLIE
1002
{
1000
NSB00777_S2_WENDE
1002
}
  0
LINE
  5
12240
330
20
100
AcDbEntity
  8
10000_FRONT
  6
DASHED
 62
     7
370
    13
100
AcDbLine
 39
0.25
 10
-134.9151090716269
 20
689.8266530542672
 30
0.0
 11
-134.9151090716269
 21
688.8266530542672
 31
0.0
1001
AUSTER_ANSICHT
1002
{
1000
Det03
1002
}
1001
AUSTER_FOLIE
1002
{
1000
NSB00777_S2_WENDE
1002
}
  0
ARC
  5
12244
330
20
100
AcDbEntity
  8
10000_FRONT
  6
DASHED
 62
     7
370
    13
100
AcDbCircle
 39
0.25
 10
-92.41511107162692
 20
783.3266530542672
 30
0.0
 40
2.5
100
AcDbArc
 50
180.0
 51
0.0
1001
AUSTER_ANSICHT
1002
{
1000
Det03
1002
}
1001
AUSTER_FOLIE
1002
{
1000
NSB00777_S2_WENDE
1002
}
  0
ARC
  5
12245
330
20
100
AcDbEntity
  8
10000_FRONT
  6
DASHED
 62
     7
370
    13
100
AcDbCircle
 39
0.25
 10
-92.41511107162692
 20
784.3266530542672
 30
0.0
 40
2.5
100
AcDbArc
 50
0.0
 51
180.0
1001
AUSTER_ANSICHT
1002
{
1000
Det03
1002
}
1001
AUSTER_FOLIE
1002
{
1000
NSB00777_S2_WENDE
1002
}
  0
ARC
  5
12246
330
20
100
AcDbEntity
  8
10000_FRONT
  6
Continuous
 62
     7
370
    20
100
AcDbCircle
 39
0.25
 10
-89.56511807162691
 20
692.7266530542672
 30
0.0
 40
0.4
100
AcDbArc
 50
270.0
 51
0.0
1001
AUSTER_ANSICHT
1002
{
1000
Det03
1002
}
1001
AUSTER_FOLIE
1002
{
1000
NSB00777_S2_WENDE
1002
}
  0
ARC
  5
12247
330
20
100
AcDbEntity
  8
10000_FRONT
  6
Continuous
 62
     7
370
    20
100
AcDbCircle
 39
0.25
 10
-89.5651040716269
 20
780.9266530542672
 30
0.0
 40
0.4
100
AcDbArc
 50
0.0
 51
90.0
1001
AUSTER_ANSICHT
1002
{
1000
Det03
1002
}
1001
AUSTER_FOLIE
1002
{
1000
NSB00777_S2_WENDE
1002
}
  0
ARC
  5
12248
330
20
100
AcDbEntity
  8
10000_FRONT
  6
Continuous
 62
     7
370
    20
100
AcDbCircle
 39
0.25
 10
-106.1651090716269
 20
758.3266530542672
 30
0.0
 40
2.850490999999998
100
AcDbArc
 50
347.7603999999987
 51
12.23960000000143
1001
AUSTER_ANSICHT
1002
{
1000
Det03
1002
}
1001
AUSTER_FOLIE
1002
{
1000
NSB00777_S2_WENDE
1002
}
  0
ARC
  5
12249
330
20
100
AcDbEntity
  8
10000_FRONT
  6
Continuous
 62
     7
370
    20
100
AcDbCircle
 39
0.25
 10
-106.1651090716269
 20
758.3266530542672
 30
0.0
 40
1.85
100
AcDbArc
 50
253.8365999999997
 51
286.1634000000003
1001
AUSTER_ANSICHT
1002
{
1000
Det03
1002
}
1001
AUSTER_FOLIE
1002
{
1000
NSB00777_S2_WENDE
1002
}
  0
ARC
  5
1224A
330
20
100
AcDbEntity
  8
10000_FRONT
  6
Continuous
 62
     7
370
    20
100
AcDbCircle
 39
0.25
 10
-106.1651090716269
 20
758.3266530542672
 30
0.0
 40
1.85
100
AcDbArc
 50
73.83654999999966
 51
106.1634000000003
1001
AUSTER_ANSICHT
1002
{
1000
Det03
1002
}
1001
AUSTER_FOLIE
1002
{
1000
NSB00777_S2_WENDE
1002
}
  0
ARC
  5
1224B
330
20
100
AcDbEntity
  8
10000_FRONT
  6
Continuous
 62
     7
370
    20
100
AcDbCircle
 39
0.25
 10
-106.1651090716269
 20
758.3266530542672
 30
0.0
 40
2.850490999999998
100
AcDbArc
 50
167.7603999999986
 51
192.2396000000014
1001
AUSTER_ANSICHT
1002
{
1000
Det03
1002
}
1001
AUSTER_FOLIE
1002
{
1000
NSB00777_S2_WENDE
1002
}
  0
CIRCLE
  5
1224C
330
20
100
AcDbEntity
  8
10000_FRONT
  6
Continuous
 62
     7
370
    20
100
AcDbCircle
 39
0.25
 10
-106.1651090716269
 20
758.3266530542672
 30
0.0
 40
3.1
1001
AUSTER_ANSICHT
1002
{
1000
Det03
1002
}
1001
AUSTER_FOLIE
1002
{
1000
NSB00777_S2_WENDE
1002
}
  0
CIRCLE
  5
1224D
330
20
100
AcDbEntity
  8
10000_FRONT
  6
Continuous
 62
     7
370
    20
100
AcDbCircle
 39
0.25
 10
-106.1651090716269
 20
758.3266530542672
 30
0.0
 40
3.1
1001
AUSTER_ANSICHT
1002
{
1000
Det03
1002
}
1001
AUSTER_FOLIE
1002
{
1000
NSB00777_S2_WENDE
1002
}
  0
ARC
  5
1224E
330
20
100
AcDbEntity
  8
10000_FRONT
  6
Continuous
 62
     7
370
    20
100
AcDbCircle
 39
0.25
 10
-108.8651190716269
 20
692.7266530542672
 30
0.0
 40
0.4
100
AcDbArc
 50
270.0
 51
0.0
1001
AUSTER_ANSICHT
1002
{
1000
Det03
1002
}
1001
AUSTER_FOLIE
1002
{
1000
NSB00777_S2_WENDE
1002
}
  0
ARC
  5
1224F
330
20
100
AcDbEntity
  8
10000_FRONT
  6
Continuous
 62
     7
370
    20
100
AcDbCircle
 39
0.25
 10
-120.9651190716269
 20
692.7266530542672
 30
0.0
 40
0.4
100
AcDbArc
 50
180.0
 51
270.0
1001
AUSTER_ANSICHT
1002
{
1000
Det03
1002
}
1001
AUSTER_FOLIE
1002
{
1000
NSB00777_S2_WENDE
1002
}
  0
ARC
  5
12250
330
20
100
AcDbEntity
  8
10000_FRONT
  6
Continuous
 62
     7
370
    20
100
AcDbCircle
 39
0.25
 10
-126.3651190716269
 20
692.7266530542672
 30
0.0
 40
0.4
100
AcDbArc
 50
270.0
 51
0.0
1001
AUSTER_ANSICHT
1002
{
1000
Det03
1002
}
1001
AUSTER_FOLIE
1002
{
1000
NSB00777_S2_WENDE
1002
}
  0
ARC
  5
12251
330
20
100
AcDbEntity
  8
10000_FRONT
  6
Continuous
 62
     7
370
    20
100
AcDbCircle
 39
0.25
 10
-108.8651090716269
 20
780.9266530542672
 30
0.0
 40
0.4
100
AcDbArc
 50
0.0
 51
90.0
1001
AUSTER_ANSICHT
1002
{
1000
Det03
1002
}
1001
AUSTER_FOLIE
1002
{
1000
NSB00777_S2_WENDE
1002
}
  0
ARC
  5
12252
330
20
100
AcDbEntity
  8
10000_FRONT
  6
Continuous
 62
     7
370
    20
100
AcDbCircle
 39
0.25
 10
-120.8651090716269
 20
780.8266530542672
 30
0.0
 40
0.5
100
AcDbArc
 50
90.0
 51
180.0
1001
AUSTER_ANSICHT
1002
{
1000
Det03
1002
}
1001
AUSTER_FOLIE
1002
{
1000
NSB00777_S2_WENDE
1002
}
  0
ARC
  5
12253
330
20
100
AcDbEntity
  8
10000_FRONT
  6
Continuous
 62
     7
370
    20
100
AcDbCircle
 39
0.25
 10
-103.4651090716269
 20
780.9266530542672
 30
0.0
 40
0.4
100
AcDbArc
 50
90.0
 51
180.0
1001
AUSTER_ANSICHT
1002
{
1000
Det03
1002
}
1001
AUSTER_FOLIE
1002
{
1000
NSB00777_S2_WENDE
1002
}
  0
ARC
  5
12254
330
20
100
AcDbEntity
  8
10000_FRONT
  6
Continuous
 62
     7
370
    20
100
AcDbCircle
 39
0.25
 10
-126.4651090716269
 20
780.8266530542672
 30
0.0
 40
0.5
100
AcDbArc
 50
0.0
 51
90.0
1001
AUSTER_ANSICHT
1002
{
1000
Det03
1002
}
1001
AUSTER_FOLIE
1002
{
1000
NSB00777_S2_WENDE
1002
}
  0
ARC
  5
12255
330
20
100
AcDbEntity
  8
10000_FRONT
  6
Continuous
 62
     7
370
    50
100
AcDbCircle
 39
0.25
 10
-24.56510907162692
 20
692.7266530542672
 30
0.0
 40
0.4
100
AcDbArc
 50
270.0
 51
0.0
1001
AUSTER_ANSICHT
1002
{
1000
Det03
1002
}
1001
AUSTER_FOLIE
1002
{
1000
NSB00777_S2_WENDE
1002
}
  0
ARC
  5
12256
330
20
100
AcDbEntity
  8
10000_FRONT
  6
Continuous
 62
     7
370
    20
100
AcDbCircle
 39
0.25
 10
-75.26510907162689
 20
692.7266530542672
 30
0.0
 40
0.4
100
AcDbArc
 50
180.0
 51
270.0
1001
AUSTER_ANSICHT
1002
{
1000
Det03
1002
}
1001
AUSTER_FOLIE
1002
{
1000
NSB00777_S2_WENDE
1002
}
  0
ARC
  5
12257
330
20
100
AcDbEntity
  8
10000_FRONT
  6
Continuous
 62
     7
370
    20
100
AcDbCircle
 39
0.25
 10
-75.2650990716269
 20
780.9266530542672
 30
0.0
 40
0.4
100
AcDbArc
 50
90.0
 51
180.0
1001
AUSTER_ANSICHT
1002
{
1000
Det03
1002
}
1001
AUSTER_FOLIE
1002
{
1000
NSB00777_S2_WENDE
1002
}
  0
ARC
  5
12258
330
20
100
AcDbEntity
  8
10000_FRONT
  6
Continuous
 62
     7
370
    20
100
AcDbCircle
 39
0.25
 10
-24.56509907162692
 20
780.9266530542672
 30
0.0
 40
0.4
100
AcDbArc
 50
0.0
 51
90.0
1001
AUSTER_ANSICHT
1002
{
1000
Det03
1002
}
1001
AUSTER_FOLIE
1002
{
1000
NSB00777_S2_WENDE
1002
}
  0
ARC
  5
12259
330
20
100
AcDbEntity
  8
10000_FRONT
  6
Continuous
 62
     7
370
    20
100
AcDbCircle
 39
0.25
 10
-75.91510907162692
 20
695.8266530542672
 30
0.0
 40
1.5
100
AcDbArc
 50
180.0
 51
270.0
1001
AUSTER_ANSICHT
1002
{
1000
Det03
1002
}
1001
AUSTER_FOLIE
1002
{
1000
NSB00777_S2_WENDE
1002
}
  0
ARC
  5
1225A
330
20
100
AcDbEntity
  8
10000_FRONT
  6
Continuous
 62
     7
370
    20
100
AcDbCircle
 39
0.25
 10
-82.41510907162689
 20
723.8266530542672
 30
0.0
 40
2.850490999999998
100
AcDbArc
 50
347.7603999999987
 51
12.23960000000143
1001
AUSTER_ANSICHT
1002
{
1000
Det03
1002
}
1001
AUSTER_FOLIE
1002
{
1000
NSB00777_S2_WENDE
1002
}
  0
ARC
  5
1225B
330
20
100
AcDbEntity
  8
10000_FRONT
  6
Continuous
 62
     7
370
    20
100
AcDbCircle
 39
0.25
 10
-82.41510907162689
 20
723.8266530542672
 30
0.0
 40
1.85
100
AcDbArc
 50
73.83654999999966
 51
106.1634000000003
1001
AUSTER_ANSICHT
1002
{
1000
Det03
1002
}
1001
AUSTER_FOLIE
1002
{
1000
NSB00777_S2_WENDE
1002
}
  0
ARC
  5
1225C
330
20
100
AcDbEntity
  8
10000_FRONT
  6
Continuous
 62
     7
370
    20
100
AcDbCircle
 39
0.25
 10
-82.41510907162689
 20
723.8266530542672
 30
0.0
 40
1.85
100
AcDbArc
 50
253.8365999999997
 51
286.1634000000003
1001
AUSTER_ANSICHT
1002
{
1000
Det03
1002
}
1001
AUSTER_FOLIE
1002
{
1000
NSB00777_S2_WENDE
1002
}
  0
ARC
  5
1225D
330
20
100
AcDbEntity
  8
10000_FRONT
  6
Continuous
 62
     7
370
    20
100
AcDbCircle
 39
0.25
 10
-82.41510907162689
 20
723.8266530542672
 30
0.0
 40
2.850490999999998
100
AcDbArc
 50
167.7603999999986
 51
192.2396000000014
1001
AUSTER_ANSICHT
1002
{
1000
Det03
1002
}
1001
AUSTER_FOLIE
1002
{
1000
NSB00777_S2_WENDE
1002
}
  0
CIRCLE
  5
1225E
330
20
100
AcDbEntity
  8
10000_FRONT
  6
Continuous
 62
     7
370
    20
100
AcDbCircle
 39
0.25
 10
-82.41510907162689
 20
723.8266530542672
 30
0.0
 40
3.1
1001
AUSTER_ANSICHT
1002
{
1000
Det03
1002
}
1001
AUSTER_FOLIE
1002
{
1000
NSB00777_S2_WENDE
1002
}
  0
CIRCLE
  5
1225F
330
20
100
AcDbEntity
  8
10000_FRONT
  6
Continuous
 62
     7
370
    20
100
AcDbCircle
 39
0.25
 10
-82.41510907162689
 20
723.8266530542672
 30
0.0
 40
3.1
1001
AUSTER_ANSICHT
1002
{
1000
Det03
1002
}
1001
AUSTER_FOLIE
1002
{
1000
NSB00777_S2_WENDE
1002
}
  0
ARC
  5
12260
330
20
100
AcDbEntity
  8
10000_FRONT
  6
Continuous
 62
     7
370
    20
100
AcDbCircle
 39
0.25
 10
-82.41510907162689
 20
749.8266530542672
 30
0.0
 40
2.850490999999998
100
AcDbArc
 50
347.7603999999987
 51
12.23960000000143
1001
AUSTER_ANSICHT
1002
{
1000
Det03
1002
}
1001
AUSTER_FOLIE
1002
{
1000
NSB00777_S2_WENDE
1002
}
  0
ARC
  5
12261
330
20
100
AcDbEntity
  8
10000_FRONT
  6
Continuous
 62
     7
370
    20
100
AcDbCircle
 39
0.25
 10
-82.41510907162689
 20
749.8266530542672
 30
0.0
 40
1.85
100
AcDbArc
 50
253.8365999999997
 51
286.1634000000003
1001
AUSTER_ANSICHT
1002
{
1000
Det03
1002
}
1001
AUSTER_FOLIE
1002
{
1000
NSB00777_S2_WENDE
1002
}
  0
ARC
  5
12262
330
20
100
AcDbEntity
  8
10000_FRONT
  6
Continuous
 62
     7
370
    20
100
AcDbCircle
 39
0.25
 10
-82.41510907162689
 20
749.8266530542672
 30
0.0
 40
1.85
100
AcDbArc
 50
73.83654999999966
 51
106.1634000000003
1001
AUSTER_ANSICHT
1002
{
1000
Det03
1002
}
1001
AUSTER_FOLIE
1002
{
1000
NSB00777_S2_WENDE
1002
}
  0
ARC
  5
12263
330
20
100
AcDbEntity
  8
10000_FRONT
  6
Continuous
 62
     7
370
    20
100
AcDbCircle
 39
0.25
 10
-82.41510907162689
 20
749.8266530542672
 30
0.0
 40
2.850490999999998
100
AcDbArc
 50
167.7603999999986
 51
192.2396000000014
1001
AUSTER_ANSICHT
1002
{
1000
Det03
1002
}
1001
AUSTER_FOLIE
1002
{
1000
NSB00777_S2_WENDE
1002
}
  0
CIRCLE
  5
12264
330
20
100
AcDbEntity
  8
10000_FRONT
  6
Continuous
 62
     7
370
    20
100
AcDbCircle
 39
0.25
 10
-82.41510907162689
 20
749.8266530542672
 30
0.0
 40
3.1
1001
AUSTER_ANSICHT
1002
{
1000
Det03
1002
}
1001
AUSTER_FOLIE
1002
{
1000
NSB00777_S2_WENDE
1002
}
  0
CIRCLE
  5
12265
330
20
100
AcDbEntity
  8
10000_FRONT
  6
Continuous
 62
     7
370
    20
100
AcDbCircle
 39
0.25
 10
-82.41510907162689
 20
749.8266530542672
 30
0.0
 40
3.1
1001
AUSTER_ANSICHT
1002
{
1000
Det03
1002
}
1001
AUSTER_FOLIE
1002
{
1000
NSB00777_S2_WENDE
1002
}
  0
ARC
  5
12266
330
20
100
AcDbEntity
  8
10000_FRONT
  6
Continuous
 62
     7
370
    20
100
AcDbCircle
 39
0.25
 10
-97.44658307162694
 20
704.9386530542673
 30
0.0
 40
2.5
100
AcDbArc
 50
76.11345999999982
 51
103.8865000000001
1001
AUSTER_ANSICHT
1002
{
1000
Det03
1002
}
1001
AUSTER_FOLIE
1002
{
1000
NSB00777_S2_WENDE
1002
}
  0
ARC
  5
12267
330
20
100
AcDbEntity
  8
10000_FRONT
  6
Continuous
 62
     7
370
    20
100
AcDbCircle
 39
0.25
 10
-97.44658307162694
 20
704.9386530542673
 30
0.0
 40
2.5
100
AcDbArc
 50
256.1134999999998
 51
283.8865000000002
1001
AUSTER_ANSICHT
1002
{
1000
Det03
1002
}
1001
AUSTER_FOLIE
1002
{
1000
NSB00777_S2_WENDE
1002
}
  0
ARC
  5
12268
330
20
100
AcDbEntity
  8
10000_FRONT
  6
Continuous
 62
     7
370
    20
100
AcDbCircle
 39
0.25
 10
-97.44658307162694
 20
704.9386530542673
 30
0.0
 40
4.5
100
AcDbArc
 50
350.9954999999985
 51
9.004500000001462
1001
AUSTER_ANSICHT
1002
{
1000
Det03
1002
}
1001
AUSTER_FOLIE
1002
{
1000
NSB00777_S2_WENDE
1002
}
  0
ARC
  5
12269
330
20
100
AcDbEntity
  8
10000_FRONT
  6
Continuous
 62
     7
370
    20
100
AcDbCircle
 39
0.25
 10
-97.44658307162694
 20
704.9386530542673
 30
0.0
 40
4.5
100
AcDbArc
 50
170.9954999999984
 51
189.0045000000015
1001
AUSTER_ANSICHT
1002
{
1000
Det03
1002
}
1001
AUSTER_FOLIE
1002
{
1000
NSB00777_S2_WENDE
1002
}
  0
CIRCLE
  5
1226A
330
20
100
AcDbEntity
  8
10000_FRONT
  6
Continuous
 62
     7
370
    20
100
AcDbCircle
 39
0.25
 10
-97.44658307162694
 20
704.9386530542673
 30
0.0
 40
4.9
1001
AUSTER_ANSICHT
1002
{
1000
Det03
1002
}
1001
AUSTER_FOLIE
1002
{
1000
NSB00777_S2_WENDE
1002
}
  0
ARC
  5
1226B
330
20
100
AcDbEntity
  8
10000_FRONT
  6
Continuous
 62
     7
370
    20
100
AcDbCircle
 39
0.25
 10
-114.9308490716269
 20
704.940953054267
 30
0.0
 40
2.5
100
AcDbArc
 50
76.11345999999982
 51
103.8865000000001
1001
AUSTER_ANSICHT
1002
{
1000
Det03
1002
}
1001
AUSTER_FOLIE
1002
{
1000
NSB00777_S2_WENDE
1002
}
  0
ARC
  5
1226C
330
20
100
AcDbEntity
  8
10000_FRONT
  6
Continuous
 62
     7
370
    20
100
AcDbCircle
 39
0.25
 10
-114.9308490716269
 20
704.940953054267
 30
0.0
 40
2.5
100
AcDbArc
 50
256.1134999999998
 51
283.8865000000002
1001
AUSTER_ANSICHT
1002
{
1000
Det03
1002
}
1001
AUSTER_FOLIE
1002
{
1000
NSB00777_S2_WENDE
1002
}
  0
ARC
  5
1226D
330
20
100
AcDbEntity
  8
10000_FRONT
  6
Continuous
 62
     7
370
    20
100
AcDbCircle
 39
0.25
 10
-114.9308490716269
 20
704.940953054267
 30
0.0
 40
4.5
100
AcDbArc
 50
350.9954999999985
 51
9.004500000001462
1001
AUSTER_ANSICHT
1002
{
1000
Det03
1002
}
1001
AUSTER_FOLIE
1002
{
1000
NSB00777_S2_WENDE
1002
}
  0
ARC
  5
1226E
330
20
100
AcDbEntity
  8
10000_FRONT
  6
Continuous
 62
     7
370
    20
100
AcDbCircle
 39
0.25
 10
-114.9308490716269
 20
704.940953054267
 30
0.0
 40
4.5
100
AcDbArc
 50
170.9954999999984
 51
189.0045000000015
1001
AUSTER_ANSICHT
1002
{
1000
Det03
1002
}
1001
AUSTER_FOLIE
1002
{
1000
NSB00777_S2_WENDE
1002
}
  0
CIRCLE
  5
1226F
330
20
100
AcDbEntity
  8
10000_FRONT
  6
Continuous
 62
     7
370
    20
100
AcDbCircle
 39
0.25
 10
-114.9308490716269
 20
704.940953054267
 30
0.0
 40
4.9
1001
AUSTER_ANSICHT
1002
{
1000
Det03
1002
}
1001
AUSTER_FOLIE
1002
{
1000
NSB00777_S2_WENDE
1002
}
  0
ARC
  5
12270
330
20
100
AcDbEntity
  8
10000_FRONT
  6
Continuous
 62
     7
370
    20
100
AcDbCircle
 39
0.25
 10
-132.4151190716269
 20
704.9432530542673
 30
0.0
 40
2.5
100
AcDbArc
 50
76.11345999999982
 51
103.8865000000001
1001
AUSTER_ANSICHT
1002
{
1000
Det03
1002
}
1001
AUSTER_FOLIE
1002
{
1000
NSB00777_S2_WENDE
1002
}
  0
ARC
  5
12271
330
20
100
AcDbEntity
  8
10000_FRONT
  6
Continuous
 62
     7
370
    20
100
AcDbCircle
 39
0.25
 10
-132.4151190716269
 20
704.9432530542673
 30
0.0
 40
2.5
100
AcDbArc
 50
256.1134999999998
 51
283.8865000000002
1001
AUSTER_ANSICHT
1002
{
1000
Det03
1002
}
1001
AUSTER_FOLIE
1002
{
1000
NSB00777_S2_WENDE
1002
}
  0
ARC
  5
12272
330
20
100
AcDbEntity
  8
10000_FRONT
  6
Continuous
 62
     7
370
    20
100
AcDbCircle
 39
0.25
 10
-132.4151190716269
 20
704.9432530542673
 30
0.0
 40
4.5
100
AcDbArc
 50
350.9954999999985
 51
9.004500000001462
1001
AUSTER_ANSICHT
1002
{
1000
Det03
1002
}
1001
AUSTER_FOLIE
1002
{
1000
NSB00777_S2_WENDE
1002
}
  0
ARC
  5
12273
330
20
100
AcDbEntity
  8
10000_FRONT
  6
Continuous
 62
     7
370
    20
100
AcDbCircle
 39
0.25
 10
-132.4151190716269
 20
704.9432530542673
 30
0.0
 40
4.5
100
AcDbArc
 50
170.9954999999984
 51
189.0045000000015
1001
AUSTER_ANSICHT
1002
{
1000
Det03
1002
}
1001
AUSTER_FOLIE
1002
{
1000
NSB00777_S2_WENDE
1002
}
  0
CIRCLE
  5
12274
330
20
100
AcDbEntity
  8
10000_FRONT
  6
Continuous
 62
     7
370
    20
100
AcDbCircle
 39
0.25
 10
-132.4151190716269
 20
704.9432530542673
 30
0.0
 40
4.9
1001
AUSTER_ANSICHT
1002
{
1000
Det03
1002
}
1001
AUSTER_FOLIE
1002
{
1000
NSB00777_S2_WENDE
1002
}
  0
ARC
  5
12275
330
20
100
AcDbEntity
  8
10000_FRONT
  6
Continuous
 62
     7
370
    20
100
AcDbCircle
 39
0.25
 10
-97.44658307162694
 20
768.7416530542674
 30
0.0
 40
2.5
100
AcDbArc
 50
256.1134999999998
 51
283.8865000000002
1001
AUSTER_ANSICHT
1002
{
1000
Det03
1002
}
1001
AUSTER_FOLIE
1002
{
1000
NSB00777_S2_WENDE
1002
}
  0
ARC
  5
12276
330
20
100
AcDbEntity
  8
10000_FRONT
  6
Continuous
 62
     7
370
    20
100
AcDbCircle
 39
0.25
 10
-97.44658307162694
 20
768.7416530542674
 30
0.0
 40
2.5
100
AcDbArc
 50
76.11345999999982
 51
103.8865000000001
1001
AUSTER_ANSICHT
1002
{
1000
Det03
1002
}
1001
AUSTER_FOLIE
1002
{
1000
NSB00777_S2_WENDE
1002
}
  0
ARC
  5
12277
330
20
100
AcDbEntity
  8
10000_FRONT
  6
Continuous
 62
     7
370
    20
100
AcDbCircle
 39
0.25
 10
-97.44658307162694
 20
768.7416530542674
 30
0.0
 40
4.5
100
AcDbArc
 50
350.9954999999985
 51
9.004500000001462
1001
AUSTER_ANSICHT
1002
{
1000
Det03
1002
}
1001
AUSTER_FOLIE
1002
{
1000
NSB00777_S2_WENDE
1002
}
  0
ARC
  5
12278
330
20
100
AcDbEntity
  8
10000_FRONT
  6
Continuous
 62
     7
370
    20
100
AcDbCircle
 39
0.25
 10
-97.44658307162694
 20
768.7416530542674
 30
0.0
 40
4.5
100
AcDbArc
 50
170.9954999999984
 51
189.0045000000015
1001
AUSTER_ANSICHT
1002
{
1000
Det03
1002
}
1001
AUSTER_FOLIE
1002
{
1000
NSB00777_S2_WENDE
1002
}
  0
CIRCLE
  5
12279
330
20
100
AcDbEntity
  8
10000_FRONT
  6
Continuous
 62
     7
370
    20
100
AcDbCircle
 39
0.25
 10
-97.44658307162694
 20
768.7416530542674
 30
0.0
 40
4.9
1001
AUSTER_ANSICHT
1002
{
1000
Det03
1002
}
1001
AUSTER_FOLIE
1002
{
1000
NSB00777_S2_WENDE
1002
}
  0
ARC
  5
1227A
330
20
100
AcDbEntity
  8
10000_FRONT
  6
Continuous
 62
     7
370
    20
100
AcDbCircle
 39
0.25
 10
-114.9308490716269
 20
768.7393530542673
 30
0.0
 40
2.5
100
AcDbArc
 50
256.1134999999998
 51
283.8865000000002
1001
AUSTER_ANSICHT
1002
{
1000
Det03
1002
}
1001
AUSTER_FOLIE
1002
{
1000
NSB00777_S2_WENDE
1002
}
  0
ARC
  5
1227B
330
20
100
AcDbEntity
  8
10000_FRONT
  6
Continuous
 62
     7
370
    20
100
AcDbCircle
 39
0.25
 10
-114.9308490716269
 20
768.7393530542673
 30
0.0
 40
2.5
100
AcDbArc
 50
76.11345999999982
 51
103.8865000000001
1001
AUSTER_ANSICHT
1002
{
1000
Det03
1002
}
1001
AUSTER_FOLIE
1002
{
1000
NSB00777_S2_WENDE
1002
}
  0
ARC
  5
1227C
330
20
100
AcDbEntity
  8
10000_FRONT
  6
Continuous
 62
     7
370
    20
100
AcDbCircle
 39
0.25
 10
-114.9308490716269
 20
768.7393530542673
 30
0.0
 40
4.5
100
AcDbArc
 50
350.9954999999985
 51
9.004500000001462
1001
AUSTER_ANSICHT
1002
{
1000
Det03
1002
}
1001
AUSTER_FOLIE
1002
{
1000
NSB00777_S2_WENDE
1002
}
  0
ARC
  5
1227D
330
20
100
AcDbEntity
  8
10000_FRONT
  6
Continuous
 62
     7
370
    20
100
AcDbCircle
 39
0.25
 10
-114.9308490716269
 20
768.7393530542673
 30
0.0
 40
4.5
100
AcDbArc
 50
170.9954999999984
 51
189.0045000000015
1001
AUSTER_ANSICHT
1002
{
1000
Det03
1002
}
1001
AUSTER_FOLIE
1002
{
1000
NSB00777_S2_WENDE
1002
}
  0
CIRCLE
  5
1227E
330
20
100
AcDbEntity
  8
10000_FRONT
  6
Continuous
 62
     7
370
    20
100
AcDbCircle
 39
0.25
 10
-114.9308490716269
 20
768.7393530542673
 30
0.0
 40
4.9
1001
AUSTER_ANSICHT
1002
{
1000
Det03
1002
}
1001
AUSTER_FOLIE
1002
{
1000
NSB00777_S2_WENDE
1002
}
  0
ARC
  5
1227F
330
20
100
AcDbEntity
  8
10000_FRONT
  6
Continuous
 62
     7
370
    20
100
AcDbCircle
 39
0.25
 10
-132.4151190716269
 20
768.7371530542674
 30
0.0
 40
2.5
100
AcDbArc
 50
256.1134999999998
 51
283.8865000000002
1001
AUSTER_ANSICHT
1002
{
1000
Det03
1002
}
1001
AUSTER_FOLIE
1002
{
1000
NSB00777_S2_WENDE
1002
}
  0
ARC
  5
12280
330
20
100
AcDbEntity
  8
10000_FRONT
  6
Continuous
 62
     7
370
    20
100
AcDbCircle
 39
0.25
 10
-132.4151190716269
 20
768.7371530542674
 30
0.0
 40
2.5
100
AcDbArc
 50
76.11345999999982
 51
103.8865000000001
1001
AUSTER_ANSICHT
1002
{
1000
Det03
1002
}
1001
AUSTER_FOLIE
1002
{
1000
NSB00777_S2_WENDE
1002
}
  0
ARC
  5
12281
330
20
100
AcDbEntity
  8
10000_FRONT
  6
Continuous
 62
     7
370
    20
100
AcDbCircle
 39
0.25
 10
-132.4151190716269
 20
768.7371530542674
 30
0.0
 40
4.5
100
AcDbArc
 50
350.9954999999985
 51
9.004500000001462
1001
AUSTER_ANSICHT
1002
{
1000
Det03
1002
}
1001
AUSTER_FOLIE
1002
{
1000
NSB00777_S2_WENDE
1002
}
  0
ARC
  5
12282
330
20
100
AcDbEntity
  8
10000_FRONT
  6
Continuous
 62
     7
370
    20
100
AcDbCircle
 39
0.25
 10
-132.4151190716269
 20
768.7371530542674
 30
0.0
 40
4.5
100
AcDbArc
 50
170.9954999999984
 51
189.0045000000015
1001
AUSTER_ANSICHT
1002
{
1000
Det03
1002
}
1001
AUSTER_FOLIE
1002
{
1000
NSB00777_S2_WENDE
1002
}
  0
CIRCLE
  5
12283
330
20
100
AcDbEntity
  8
10000_FRONT
  6
Continuous
 62
     7
370
    20
100
AcDbCircle
 39
0.25
 10
-132.4151190716269
 20
768.7371530542674
 30
0.0
 40
4.9
1001
AUSTER_ANSICHT
1002
{
1000
Det03
1002
}
1001
AUSTER_FOLIE
1002
{
1000
NSB00777_S2_WENDE
1002
}
  0
ARC
  5
12284
330
20
100
AcDbEntity
  8
10000_FRONT
  6
Continuous
 62
     7
370
    20
100
AcDbCircle
 39
0.25
 10
-32.4465790716269
 20
704.9386530542673
 30
0.0
 40
2.5
100
AcDbArc
 50
76.11345999999982
 51
103.8865000000001
1001
AUSTER_ANSICHT
1002
{
1000
Det03
1002
}
1001
AUSTER_FOLIE
1002
{
1000
NSB00777_S2_WENDE
1002
}
  0
ARC
  5
12285
330
20
100
AcDbEntity
  8
10000_FRONT
  6
Continuous
 62
     7
370
    20
100
AcDbCircle
 39
0.25
 10
-32.4465790716269
 20
704.9386530542673
 30
0.0
 40
2.5
100
AcDbArc
 50
256.1134999999998
 51
283.8865000000002
1001
AUSTER_ANSICHT
1002
{
1000
Det03
1002
}
1001
AUSTER_FOLIE
1002
{
1000
NSB00777_S2_WENDE
1002
}
  0
ARC
  5
12286
330
20
100
AcDbEntity
  8
10000_FRONT
  6
Continuous
 62
     7
370
    20
100
AcDbCircle
 39
0.25
 10
-32.4465790716269
 20
704.9386530542673
 30
0.0
 40
4.5
100
AcDbArc
 50
350.9954999999985
 51
9.004500000001462
1001
AUSTER_ANSICHT
1002
{
1000
Det03
1002
}
1001
AUSTER_FOLIE
1002
{
1000
NSB00777_S2_WENDE
1002
}
  0
ARC
  5
12287
330
20
100
AcDbEntity
  8
10000_FRONT
  6
Continuous
 62
     7
370
    20
100
AcDbCircle
 39
0.25
 10
-32.4465790716269
 20
704.9386530542673
 30
0.0
 40
4.5
100
AcDbArc
 50
170.9954999999984
 51
189.0045000000015
1001
AUSTER_ANSICHT
1002
{
1000
Det03
1002
}
1001
AUSTER_FOLIE
1002
{
1000
NSB00777_S2_WENDE
1002
}
  0
CIRCLE
  5
12288
330
20
100
AcDbEntity
  8
10000_FRONT
  6
Continuous
 62
     7
370
    20
100
AcDbCircle
 39
0.25
 10
-32.4465790716269
 20
704.9386530542673
 30
0.0
 40
4.9
1001
AUSTER_ANSICHT
1002
{
1000
Det03
1002
}
1001
AUSTER_FOLIE
1002
{
1000
NSB00777_S2_WENDE
1002
}
  0
ARC
  5
12289
330
20
100
AcDbEntity
  8
10000_FRONT
  6
Continuous
 62
     7
370
    20
100
AcDbCircle
 39
0.25
 10
-49.9308490716269
 20
704.940953054267
 30
0.0
 40
2.5
100
AcDbArc
 50
76.11345999999982
 51
103.8865000000001
1001
AUSTER_ANSICHT
1002
{
1000
Det03
1002
}
1001
AUSTER_FOLIE
1002
{
1000
NSB00777_S2_WENDE
1002
}
  0
ARC
  5
1228A
330
20
100
AcDbEntity
  8
10000_FRONT
  6
Continuous
 62
     7
370
    20
100
AcDbCircle
 39
0.25
 10
-49.9308490716269
 20
704.940953054267
 30
0.0
 40
2.5
100
AcDbArc
 50
256.1134999999998
 51
283.8865000000002
1001
AUSTER_ANSICHT
1002
{
1000
Det03
1002
}
1001
AUSTER_FOLIE
1002
{
1000
NSB00777_S2_WENDE
1002
}
  0
ARC
  5
1228B
330
20
100
AcDbEntity
  8
10000_FRONT
  6
Continuous
 62
     7
370
    20
100
AcDbCircle
 39
0.25
 10
-49.9308490716269
 20
704.940953054267
 30
0.0
 40
4.5
100
AcDbArc
 50
350.9954999999985
 51
9.004500000001462
1001
AUSTER_ANSICHT
1002
{
1000
Det03
1002
}
1001
AUSTER_FOLIE
1002
{
1000
NSB00777_S2_WENDE
1002
}
  0
ARC
  5
1228C
330
20
100
AcDbEntity
  8
10000_FRONT
  6
Continuous
 62
     7
370
    20
100
AcDbCircle
 39
0.25
 10
-49.9308490716269
 20
704.940953054267
 30
0.0
 40
4.5
100
AcDbArc
 50
170.9954999999984
 51
189.0045000000015
1001
AUSTER_ANSICHT
1002
{
1000
Det03
1002
}
1001
AUSTER_FOLIE
1002
{
1000
NSB00777_S2_WENDE
1002
}
  0
ARC
  5
1228D
330
20
100
AcDbEntity
  8
10000_FRONT
  6
Continuous
 62
     7
370
    20
100
AcDbCircle
 39
0.25
 10
-67.4151090716269
 20
704.9432530542673
 30
0.0
 40
2.5
100
AcDbArc
 50
76.11345999999982
 51
103.8865000000001
1001
AUSTER_ANSICHT
1002
{
1000
Det03
1002
}
1001
AUSTER_FOLIE
1002
{
1000
NSB00777_S2_WENDE
1002
}
  0
ARC
  5
1228E
330
20
100
AcDbEntity
  8
10000_FRONT
  6
Continuous
 62
     7
370
    20
100
AcDbCircle
 39
0.25
 10
-67.4151090716269
 20
704.9432530542673
 30
0.0
 40
2.5
100
AcDbArc
 50
256.1134999999998
 51
283.8865000000002
1001
AUSTER_ANSICHT
1002
{
1000
Det03
1002
}
1001
AUSTER_FOLIE
1002
{
1000
NSB00777_S2_WENDE
1002
}
  0
ARC
  5
1228F
330
20
100
AcDbEntity
  8
10000_FRONT
  6
Continuous
 62
     7
370
    20
100
AcDbCircle
 39
0.25
 10
-67.4151090716269
 20
704.9432530542673
 30
0.0
 40
4.5
100
AcDbArc
 50
350.9954999999985
 51
9.004500000001462
1001
AUSTER_ANSICHT
1002
{
1000
Det03
1002
}
1001
AUSTER_FOLIE
1002
{
1000
NSB00777_S2_WENDE
1002
}
  0
ARC
  5
12290
330
20
100
AcDbEntity
  8
10000_FRONT
  6
Continuous
 62
     7
370
    20
100
AcDbCircle
 39
0.25
 10
-67.4151090716269
 20
704.9432530542673
 30
0.0
 40
4.5
100
AcDbArc
 50
170.9954999999984
 51
189.0045000000015
1001
AUSTER_ANSICHT
1002
{
1000
Det03
1002
}
1001
AUSTER_FOLIE
1002
{
1000
NSB00777_S2_WENDE
1002
}
  0
CIRCLE
  5
12291
330
20
100
AcDbEntity
  8
10000_FRONT
  6
Continuous
 62
     7
370
    20
100
AcDbCircle
 39
0.25
 10
-67.4151090716269
 20
704.9432530542673
 30
0.0
 40
4.9
1001
AUSTER_ANSICHT
1002
{
1000
Det03
1002
}
1001
AUSTER_FOLIE
1002
{
1000
NSB00777_S2_WENDE
1002
}
  0
ARC
  5
12292
330
20
100
AcDbEntity
  8
10000_FRONT
  6
Continuous
 62
     7
370
    20
100
AcDbCircle
 39
0.25
 10
-32.4465790716269
 20
768.7416530542674
 30
0.0
 40
2.5
100
AcDbArc
 50
256.1134999999998
 51
283.8865000000002
1001
AUSTER_ANSICHT
1002
{
1000
Det03
1002
}
1001
AUSTER_FOLIE
1002
{
1000
NSB00777_S2_WENDE
1002
}
  0
ARC
  5
12293
330
20
100
AcDbEntity
  8
10000_FRONT
  6
Continuous
 62
     7
370
    20
100
AcDbCircle
 39
0.25
 10
-32.4465790716269
 20
768.7416530542674
 30
0.0
 40
2.5
100
AcDbArc
 50
76.11345999999982
 51
103.8865000000001
1001
AUSTER_ANSICHT
1002
{
1000
Det03
1002
}
1001
AUSTER_FOLIE
1002
{
1000
NSB00777_S2_WENDE
1002
}
  0
ARC
  5
12294
330
20
100
AcDbEntity
  8
10000_FRONT
  6
Continuous
 62
     7
370
    20
100
AcDbCircle
 39
0.25
 10
-32.4465790716269
 20
768.7416530542674
 30
0.0
 40
4.5
100
AcDbArc
 50
350.9954999999985
 51
9.004500000001462
1001
AUSTER_ANSICHT
1002
{
1000
Det03
1002
}
1001
AUSTER_FOLIE
1002
{
1000
NSB00777_S2_WENDE
1002
}
  0
ARC
  5
12295
330
20
100
AcDbEntity
  8
10000_FRONT
  6
Continuous
 62
     7
370
    20
100
AcDbCircle
 39
0.25
 10
-32.4465790716269
 20
768.7416530542674
 30
0.0
 40
4.5
100
AcDbArc
 50
170.9954999999984
 51
189.0045000000015
1001
AUSTER_ANSICHT
1002
{
1000
Det03
1002
}
1001
AUSTER_FOLIE
1002
{
1000
NSB00777_S2_WENDE
1002
}
  0
CIRCLE
  5
12296
330
20
100
AcDbEntity
  8
10000_FRONT
  6
Continuous
 62
     7
370
    20
100
AcDbCircle
 39
0.25
 10
-32.4465790716269
 20
768.7416530542674
 30
0.0
 40
4.9
1001
AUSTER_ANSICHT
1002
{
1000
Det03
1002
}
1001
AUSTER_FOLIE
1002
{
1000
NSB00777_S2_WENDE
1002
}
  0
ARC
  5
12297
330
20
100
AcDbEntity
  8
10000_FRONT
  6
Continuous
 62
     7
370
    20
100
AcDbCircle
 39
0.25
 10
-49.9308490716269
 20
768.7393530542673
 30
0.0
 40
2.5
100
AcDbArc
 50
256.1134999999998
 51
283.8865000000002
1001
AUSTER_ANSICHT
1002
{
1000
Det03
1002
}
1001
AUSTER_FOLIE
1002
{
1000
NSB00777_S2_WENDE
1002
}
  0
ARC
  5
12298
330
20
100
AcDbEntity
  8
10000_FRONT
  6
Continuous
 62
     7
370
    20
100
AcDbCircle
 39
0.25
 10
-49.9308490716269
 20
768.7393530542673
 30
0.0
 40
2.5
100
AcDbArc
 50
76.11345999999982
 51
103.8865000000001
1001
AUSTER_ANSICHT
1002
{
1000
Det03
1002
}
1001
AUSTER_FOLIE
1002
{
1000
NSB00777_S2_WENDE
1002
}
  0
ARC
  5
12299
330
20
100
AcDbEntity
  8
10000_FRONT
  6
Continuous
 62
     7
370
    20
100
AcDbCircle
 39
0.25
 10
-49.9308490716269
 20
768.7393530542673
 30
0.0
 40
4.5
100
AcDbArc
 50
350.9954999999985
 51
9.004500000001462
1001
AUSTER_ANSICHT
1002
{
1000
Det03
1002
}
1001
AUSTER_FOLIE
1002
{
1000
NSB00777_S2_WENDE
1002
}
  0
ARC
  5
1229A
330
20
100
AcDbEntity
  8
10000_FRONT
  6
Continuous
 62
     7
370
    20
100
AcDbCircle
 39
0.25
 10
-49.9308490716269
 20
768.7393530542673
 30
0.0
 40
4.5
100
AcDbArc
 50
170.9954999999984
 51
189.0045000000015
1001
AUSTER_ANSICHT
1002
{
1000
Det03
1002
}
1001
AUSTER_FOLIE
1002
{
1000
NSB00777_S2_WENDE
1002
}
  0
ARC
  5
1229B
330
20
100
AcDbEntity
  8
10000_FRONT
  6
Continuous
 62
     7
370
    20
100
AcDbCircle
 39
0.25
 10
-67.4151090716269
 20
768.7370530542672
 30
0.0
 40
2.5
100
AcDbArc
 50
256.1134999999998
 51
283.8865000000002
1001
AUSTER_ANSICHT
1002
{
1000
Det03
1002
}
1001
AUSTER_FOLIE
1002
{
1000
NSB00777_S2_WENDE
1002
}
  0
ARC
  5
1229C
330
20
100
AcDbEntity
  8
10000_FRONT
  6
Continuous
 62
     7
370
    20
100
AcDbCircle
 39
0.25
 10
-67.4151090716269
 20
768.7370530542672
 30
0.0
 40
2.5
100
AcDbArc
 50
76.11345999999982
 51
103.8865000000001
1001
AUSTER_ANSICHT
1002
{
1000
Det03
1002
}
1001
AUSTER_FOLIE
1002
{
1000
NSB00777_S2_WENDE
1002
}
  0
ARC
  5
1229D
330
20
100
AcDbEntity
  8
10000_FRONT
  6
Continuous
 62
     7
370
    20
100
AcDbCircle
 39
0.25
 10
-67.4151090716269
 20
768.7370530542672
 30
0.0
 40
4.5
100
AcDbArc
 50
350.9954999999985
 51
9.004500000001462
1001
AUSTER_ANSICHT
1002
{
1000
Det03
1002
}
1001
AUSTER_FOLIE
1002
{
1000
NSB00777_S2_WENDE
1002
}
  0
ARC
  5
1229E
330
20
100
AcDbEntity
  8
10000_FRONT
  6
Continuous
 62
     7
370
    20
100
AcDbCircle
 39
0.25
 10
-67.4151090716269
 20
768.7370530542672
 30
0.0
 40
4.5
100
AcDbArc
 50
170.9954999999984
 51
189.0045000000015
1001
AUSTER_ANSICHT
1002
{
1000
Det03
1002
}
1001
AUSTER_FOLIE
1002
{
1000
NSB00777_S2_WENDE
1002
}
  0
ARC
  5
1229F
330
20
100
AcDbEntity
  8
10000_FRONT
  6
Continuous
 62
     7
370
    20
100
AcDbCircle
 39
0.25
 10
-103.4651190716269
 20
692.7266530542672
 30
0.0
 40
0.4
100
AcDbArc
 50
180.0
 51
270.0
1001
AUSTER_ANSICHT
1002
{
1000
Det03
1002
}
1001
AUSTER_FOLIE
1002
{
1000
NSB00777_S2_WENDE
1002
}
  0
ARC
  5
122A0
330
20
100
AcDbEntity
  8
10000_FRONT
  6
Continuous
 62
     7
370
    20
100
AcDbCircle
 39
0.25
 10
-41.18084907162691
 20
670.5766530542672
 30
0.0
 40
2.850490999999998
100
AcDbArc
 50
347.7603999999987
 51
12.23960000000143
1001
AUSTER_ANSICHT
1002
{
1000
Det03
1002
}
1001
AUSTER_FOLIE
1002
{
1000
NSB00777_S2_WENDE
1002
}
  0
ARC
  5
122A1
330
20
100
AcDbEntity
  8
10000_FRONT
  6
Continuous
 62
     7
370
    20
100
AcDbCircle
 39
0.25
 10
-82.41510907162689
 20
709.3266530542672
 30
0.0
 40
2.850490999999998
100
AcDbArc
 50
347.7603999999987
 51
12.23960000000143
1001
AUSTER_ANSICHT
1002
{
1000
Det03
1002
}
1001
AUSTER_FOLIE
1002
{
1000
NSB00777_S2_WENDE
1002
}
  0
ARC
  5
122A2
330
20
100
AcDbEntity
  8
10000_FRONT
  6
Continuous
 62
     7
370
    20
100
AcDbCircle
 39
0.25
 10
-82.41510907162689
 20
764.3266530542672
 30
0.0
 40
2.850490999999998
100
AcDbArc
 50
347.7603999999987
 51
12.23960000000143
1001
AUSTER_ANSICHT
1002
{
1000
Det03
1002
}
1001
AUSTER_FOLIE
1002
{
1000
NSB00777_S2_WENDE
1002
}
  0
ARC
  5
122A3
330
20
100
AcDbEntity
  8
10000_FRONT
  6
Continuous
 62
     7
370
    20
100
AcDbCircle
 39
0.25
 10
-41.1651090716269
 20
758.3266530542672
 30
0.0
 40
2.850490999999998
100
AcDbArc
 50
347.7603999999987
 51
12.23960000000143
1001
AUSTER_ANSICHT
1002
{
1000
Det03
1002
}
1001
AUSTER_FOLIE
1002
{
1000
NSB00777_S2_WENDE
1002
}
  0
ARC
  5
122A4
330
20
100
AcDbEntity
  8
10000_FRONT
  6
Continuous
 62
     7
370
    20
100
AcDbCircle
 39
0.25
 10
-41.18084907162691
 20
670.5766530542672
 30
0.0
 40
1.85
100
AcDbArc
 50
73.83654999999966
 51
106.1634000000003
1001
AUSTER_ANSICHT
1002
{
1000
Det03
1002
}
1001
AUSTER_FOLIE
1002
{
1000
NSB00777_S2_WENDE
1002
}
  0
ARC
  5
122A5
330
20
100
AcDbEntity
  8
10000_FRONT
  6
Continuous
 62
     7
370
    20
100
AcDbCircle
 39
0.25
 10
-82.41510907162689
 20
709.3266530542672
 30
0.0
 40
1.85
100
AcDbArc
 50
73.83654999999966
 51
106.1634000000003
1001
AUSTER_ANSICHT
1002
{
1000
Det03
1002
}
1001
AUSTER_FOLIE
1002
{
1000
NSB00777_S2_WENDE
1002
}
  0
ARC
  5
122A6
330
20
100
AcDbEntity
  8
10000_FRONT
  6
Continuous
 62
     7
370
    20
100
AcDbCircle
 39
0.25
 10
-82.41510907162689
 20
764.3266530542672
 30
0.0
 40
1.85
100
AcDbArc
 50
253.8365999999997
 51
286.1634000000003
1001
AUSTER_ANSICHT
1002
{
1000
Det03
1002
}
1001
AUSTER_FOLIE
1002
{
1000
NSB00777_S2_WENDE
1002
}
  0
ARC
  5
122A7
330
20
100
AcDbEntity
  8
10000_FRONT
  6
Continuous
 62
     7
370
    20
100
AcDbCircle
 39
0.25
 10
-41.1651090716269
 20
758.3266530542672
 30
0.0
 40
1.85
100
AcDbArc
 50
253.8365999999997
 51
286.1634000000003
1001
AUSTER_ANSICHT
1002
{
1000
Det03
1002
}
1001
AUSTER_FOLIE
1002
{
1000
NSB00777_S2_WENDE
1002
}
  0
ARC
  5
122A8
330
20
100
AcDbEntity
  8
10000_FRONT
  6
Continuous
 62
     7
370
    20
100
AcDbCircle
 39
0.25
 10
-41.18084907162691
 20
670.5766530542672
 30
0.0
 40
1.85
100
AcDbArc
 50
253.8365999999997
 51
286.1634000000003
1001
AUSTER_ANSICHT
1002
{
1000
Det03
1002
}
1001
AUSTER_FOLIE
1002
{
1000
NSB00777_S2_WENDE
1002
}
  0
ARC
  5
122A9
330
20
100
AcDbEntity
  8
10000_FRONT
  6
Continuous
 62
     7
370
    20
100
AcDbCircle
 39
0.25
 10
-82.41510907162689
 20
709.3266530542672
 30
0.0
 40
1.85
100
AcDbArc
 50
253.8365999999997
 51
286.1634000000003
1001
AUSTER_ANSICHT
1002
{
1000
Det03
1002
}
1001
AUSTER_FOLIE
1002
{
1000
NSB00777_S2_WENDE
1002
}
  0
ARC
  5
122AA
330
20
100
AcDbEntity
  8
10000_FRONT
  6
Continuous
 62
     7
370
    20
100
AcDbCircle
 39
0.25
 10
-82.41510907162689
 20
764.3266530542672
 30
0.0
 40
1.85
100
AcDbArc
 50
73.83654999999966
 51
106.1634000000003
1001
AUSTER_ANSICHT
1002
{
1000
Det03
1002
}
1001
AUSTER_FOLIE
1002
{
1000
NSB00777_S2_WENDE
1002
}
  0
ARC
  5
122AB
330
20
100
AcDbEntity
  8
10000_FRONT
  6
Continuous
 62
     7
370
    20
100
AcDbCircle
 39
0.25
 10
-41.1651090716269
 20
758.3266530542672
 30
0.0
 40
1.85
100
AcDbArc
 50
73.83654999999966
 51
106.1634000000003
1001
AUSTER_ANSICHT
1002
{
1000
Det03
1002
}
1001
AUSTER_FOLIE
1002
{
1000
NSB00777_S2_WENDE
1002
}
  0
ARC
  5
122AC
330
20
100
AcDbEntity
  8
10000_FRONT
  6
Continuous
 62
     7
370
    20
100
AcDbCircle
 39
0.25
 10
-41.18084907162691
 20
670.5766530542672
 30
0.0
 40
2.850490999999998
100
AcDbArc
 50
167.7603999999986
 51
192.2396000000014
1001
AUSTER_ANSICHT
1002
{
1000
Det03
1002
}
1001
AUSTER_FOLIE
1002
{
1000
NSB00777_S2_WENDE
1002
}
  0
ARC
  5
122AD
330
20
100
AcDbEntity
  8
10000_FRONT
  6
Continuous
 62
     7
370
    20
100
AcDbCircle
 39
0.25
 10
-82.41510907162689
 20
709.3266530542672
 30
0.0
 40
2.850490999999998
100
AcDbArc
 50
167.7603999999986
 51
192.2396000000014
1001
AUSTER_ANSICHT
1002
{
1000
Det03
1002
}
1001
AUSTER_FOLIE
1002
{
1000
NSB00777_S2_WENDE
1002
}
  0
ARC
  5
122AE
330
20
100
AcDbEntity
  8
10000_FRONT
  6
Continuous
 62
     7
370
    20
100
AcDbCircle
 39
0.25
 10
-82.41510907162689
 20
764.3266530542672
 30
0.0
 40
2.850490999999998
100
AcDbArc
 50
167.7603999999986
 51
192.2396000000014
1001
AUSTER_ANSICHT
1002
{
1000
Det03
1002
}
1001
AUSTER_FOLIE
1002
{
1000
NSB00777_S2_WENDE
1002
}
  0
ARC
  5
122AF
330
20
100
AcDbEntity
  8
10000_FRONT
  6
Continuous
 62
     7
370
    20
100
AcDbCircle
 39
0.25
 10
-41.1651090716269
 20
758.3266530542672
 30
0.0
 40
2.850490999999998
100
AcDbArc
 50
167.7603999999986
 51
192.2396000000014
1001
AUSTER_ANSICHT
1002
{
1000
Det03
1002
}
1001
AUSTER_FOLIE
1002
{
1000
NSB00777_S2_WENDE
1002
}
  0
CIRCLE
  5
122B0
330
20
100
AcDbEntity
  8
10000_FRONT
  6
Continuous
 62
     7
370
    20
100
AcDbCircle
 39
0.25
 10
-41.18084907162691
 20
670.5766530542672
 30
0.0
 40
3.1
1001
AUSTER_ANSICHT
1002
{
1000
Det03
1002
}
1001
AUSTER_FOLIE
1002
{
1000
NSB00777_S2_WENDE
1002
}
  0
CIRCLE
  5
122B1
330
20
100
AcDbEntity
  8
10000_FRONT
  6
Continuous
 62
     7
370
    20
100
AcDbCircle
 39
0.25
 10
-82.41510907162689
 20
709.3266530542672
 30
0.0
 40
3.1
1001
AUSTER_ANSICHT
1002
{
1000
Det03
1002
}
1001
AUSTER_FOLIE
1002
{
1000
NSB00777_S2_WENDE
1002
}
  0
CIRCLE
  5
122B2
330
20
100
AcDbEntity
  8
10000_FRONT
  6
Continuous
 62
     7
370
    20
100
AcDbCircle
 39
0.25
 10
-82.41510907162689
 20
764.3266530542672
 30
0.0
 40
3.1
1001
AUSTER_ANSICHT
1002
{
1000
Det03
1002
}
1001
AUSTER_FOLIE
1002
{
1000
NSB00777_S2_WENDE
1002
}
  0
CIRCLE
  5
122B3
330
20
100
AcDbEntity
  8
10000_FRONT
  6
Continuous
 62
     7
370
    20
100
AcDbCircle
 39
0.25
 10
-41.1651090716269
 20
758.3266530542672
 30
0.0
 40
3.1
1001
AUSTER_ANSICHT
1002
{
1000
Det03
1002
}
1001
AUSTER_FOLIE
1002
{
1000
NSB00777_S2_WENDE
1002
}
  0
CIRCLE
  5
122B4
330
20
100
AcDbEntity
  8
10000_FRONT
  6
Continuous
 62
     7
370
    20
100
AcDbCircle
 39
0.25
 10
-41.18084907162691
 20
670.5766530542672
 30
0.0
 40
3.1
1001
AUSTER_ANSICHT
1002
{
1000
Det03
1002
}
1001
AUSTER_FOLIE
1002
{
1000
NSB00777_S2_WENDE
1002
}
  0
CIRCLE
  5
122B5
330
20
100
AcDbEntity
  8
10000_FRONT
  6
Continuous
 62
     7
370
    20
100
AcDbCircle
 39
0.25
 10
-82.41510907162689
 20
709.3266530542672
 30
0.0
 40
3.1
1001
AUSTER_ANSICHT
1002
{
1000
Det03
1002
}
1001
AUSTER_FOLIE
1002
{
1000
NSB00777_S2_WENDE
1002
}
  0
CIRCLE
  5
122B6
330
20
100
AcDbEntity
  8
10000_FRONT
  6
Continuous
 62
     7
370
    20
100
AcDbCircle
 39
0.25
 10
-82.41510907162689
 20
764.3266530542672
 30
0.0
 40
3.1
1001
AUSTER_ANSICHT
1002
{
1000
Det03
1002
}
1001
AUSTER_FOLIE
1002
{
1000
NSB00777_S2_WENDE
1002
}
  0
CIRCLE
  5
122B7
330
20
100
AcDbEntity
  8
10000_FRONT
  6
Continuous
 62
     7
370
    20
100
AcDbCircle
 39
0.25
 10
-41.1651090716269
 20
758.3266530542672
 30
0.0
 40
3.1
1001
AUSTER_ANSICHT
1002
{
1000
Det03
1002
}
1001
AUSTER_FOLIE
1002
{
1000
NSB00777_S2_WENDE
1002
}
  0
ARC
  5
122B8
330
20
100
AcDbEntity
  8
10000_FRONT
  6
Continuous
 62
     7
370
    20
100
AcDbCircle
 39
0.25
 10
-88.9495680716269
 20
777.8266530542672
 30
0.0
 40
1.534459999999999
100
AcDbArc
 50
0.0
 51
98.17692000000059
1001
AUSTER_ANSICHT
1002
{
1000
Det03
1002
}
1001
AUSTER_FOLIE
1002
{
1000
NSB00777_S2_WENDE
1002
}
  0
ARC
  5
122B9
330
20
100
AcDbEntity
  8
10000_FRONT
  6
Continuous
 62
     7
370
    20
100
AcDbCircle
 39
0.25
 10
-88.91511807162691
 20
695.8263530542673
 30
0.0
 40
1.499743
100
AcDbArc
 50
270.0
 51
0.0
1001
AUSTER_ANSICHT
1002
{
1000
Det03
1002
}
1001
AUSTER_FOLIE
1002
{
1000
NSB00777_S2_WENDE
1002
}
  0
ARC
  5
122BA
330
20
100
AcDbEntity
  8
10000_FRONT
  6
Continuous
 62
     7
370
    50
100
AcDbCircle
 39
0.25
 10
-23.91510907162691
 20
695.8263530542673
 30
0.0
 40
1.499743
100
AcDbArc
 50
270.0
 51
0.0
1001
AUSTER_ANSICHT
1002
{
1000
Det03
1002
}
1001
AUSTER_FOLIE
1002
{
1000
NSB00777_S2_WENDE
1002
}
  0
ARC
  5
122BB
330
20
100
AcDbEntity
  8
10000_FRONT
  6
Continuous
 62
     7
370
    20
100
AcDbCircle
 39
0.25
 10
-66.38601907162692
 20
798.3067530542672
 30
0.0
 40
1.0
100
AcDbArc
 50
0.0
 51
90.0
1001
AUSTER_ANSICHT
1002
{
1000
Det03
1002
}
1001
AUSTER_FOLIE
1002
{
1000
NSB00777_S2_WENDE
1002
}
  0
ARC
  5
122BC
330
20
100
AcDbEntity
  8
10000_FRONT
  6
Continuous
 62
     7
370
    20
100
AcDbCircle
 39
0.25
 10
-38.4651090716269
 20
692.7266530542672
 30
0.0
 40
0.4
100
AcDbArc
 50
180.0
 51
270.0
1001
AUSTER_ANSICHT
1002
{
1000
Det03
1002
}
1001
AUSTER_FOLIE
1002
{
1000
NSB00777_S2_WENDE
1002
}
  0
ARC
  5
122BD
330
20
100
AcDbEntity
  8
10000_FRONT
  6
Continuous
 62
     7
370
    20
100
AcDbCircle
 39
0.25
 10
-43.86510907162693
 20
692.7266530542672
 30
0.0
 40
0.4
100
AcDbArc
 50
270.0
 51
0.0
1001
AUSTER_ANSICHT
1002
{
1000
Det03
1002
}
1001
AUSTER_FOLIE
1002
{
1000
NSB00777_S2_WENDE
1002
}
  0
ARC
  5
122BE
330
20
100
AcDbEntity
  8
10000_FRONT
  6
Continuous
 62
     7
370
    20
100
AcDbCircle
 39
0.25
 10
-55.9651090716269
 20
692.7266530542672
 30
0.0
 40
0.4
100
AcDbArc
 50
180.0
 51
270.0
1001
AUSTER_ANSICHT
1002
{
1000
Det03
1002
}
1001
AUSTER_FOLIE
1002
{
1000
NSB00777_S2_WENDE
1002
}
  0
ARC
  5
122BF
330
20
100
AcDbEntity
  8
10000_FRONT
  6
Continuous
 62
     7
370
    20
100
AcDbCircle
 39
0.25
 10
-43.8650990716269
 20
780.9266530542672
 30
0.0
 40
0.4
100
AcDbArc
 50
0.0
 51
90.0
1001
AUSTER_ANSICHT
1002
{
1000
Det03
1002
}
1001
AUSTER_FOLIE
1002
{
1000
NSB00777_S2_WENDE
1002
}
  0
ARC
  5
122C0
330
20
100
AcDbEntity
  8
10000_FRONT
  6
Continuous
 62
     7
370
    20
100
AcDbCircle
 39
0.25
 10
-55.86509907162692
 20
780.8266530542672
 30
0.0
 40
0.5
100
AcDbArc
 50
90.0
 51
180.0
1001
AUSTER_ANSICHT
1002
{
1000
Det03
1002
}
1001
AUSTER_FOLIE
1002
{
1000
NSB00777_S2_WENDE
1002
}
  0
ARC
  5
122C1
330
20
100
AcDbEntity
  8
10000_FRONT
  6
Continuous
 62
     7
370
    20
100
AcDbCircle
 39
0.25
 10
-23.92217907162692
 20
777.8266530542672
 30
0.0
 40
1.507072999999999
100
AcDbArc
 50
0.0
 51
99.19911000000093
1001
AUSTER_ANSICHT
1002
{
1000
Det03
1002
}
1001
AUSTER_FOLIE
1002
{
1000
NSB00777_S2_WENDE
1002
}
  0
ARC
  5
122C2
330
20
100
AcDbEntity
  8
10000_FRONT
  6
Continuous
 62
     7
370
    20
100
AcDbCircle
 39
0.25
 10
-38.46509907162693
 20
780.9266530542672
 30
0.0
 40
0.4
100
AcDbArc
 50
90.0
 51
180.0
1001
AUSTER_ANSICHT
1002
{
1000
Det03
1002
}
1001
AUSTER_FOLIE
1002
{
1000
NSB00777_S2_WENDE
1002
}
  0
ARC
  5
122C3
330
20
100
AcDbEntity
  8
10000_FRONT
  6
Continuous
 62
     7
370
    20
100
AcDbCircle
 39
0.25
 10
-61.4650990716269
 20
780.8266530542672
 30
0.0
 40
0.5
100
AcDbArc
 50
0.0
 51
90.0
1001
AUSTER_ANSICHT
1002
{
1000
Det03
1002
}
1001
AUSTER_FOLIE
1002
{
1000
NSB00777_S2_WENDE
1002
}
  0
ARC
  5
122C4
330
20
100
AcDbEntity
  8
10000_FRONT
  6
DASHED
 62
     7
370
    13
100
AcDbCircle
 39
0.25
 10
-27.41510907162691
 20
784.3266530542672
 30
0.0
 40
2.5
100
AcDbArc
 50
0.0
 51
180.0
1001
AUSTER_ANSICHT
1002
{
1000
Det03
1002
}
1001
AUSTER_FOLIE
1002
{
1000
NSB00777_S2_WENDE
1002
}
  0
ARC
  5
122C5
330
20
100
AcDbEntity
  8
10000_FRONT
  6
DASHED
 62
     7
370
    13
100
AcDbCircle
 39
0.25
 10
-72.4151090716269
 20
689.8266530542672
 30
0.0
 40
2.5
100
AcDbArc
 50
0.0
 51
180.0
1001
AUSTER_ANSICHT
1002
{
1000
Det03
1002
}
1001
AUSTER_FOLIE
1002
{
1000
NSB00777_S2_WENDE
1002
}
  0
ARC
  5
122C6
330
20
100
AcDbEntity
  8
10000_FRONT
  6
DASHED
 62
     7
370
    13
100
AcDbCircle
 39
0.25
 10
-27.41510907162691
 20
783.3266530542672
 30
0.0
 40
2.5
100
AcDbArc
 50
180.0
 51
0.0
1001
AUSTER_ANSICHT
1002
{
1000
Det03
1002
}
1001
AUSTER_FOLIE
1002
{
1000
NSB00777_S2_WENDE
1002
}
  0
ARC
  5
122C7
330
20
100
AcDbEntity
  8
10000_FRONT
  6
DASHED
 62
     7
370
    13
100
AcDbCircle
 39
0.25
 10
-72.4151090716269
 20
688.8266530542672
 30
0.0
 40
2.5
100
AcDbArc
 50
180.0
 51
0.0
1001
AUSTER_ANSICHT
1002
{
1000
Det03
1002
}
1001
AUSTER_FOLIE
1002
{
1000
NSB00777_S2_WENDE
1002
}
  0
CIRCLE
  5
122C8
330
20
100
AcDbEntity
  8
10000_FRONT
  6
Continuous
 62
     7
370
    20
100
AcDbCircle
 39
0.25
 10
-49.9308490716269
 20
704.940953054267
 30
0.0
 40
4.9
1001
AUSTER_ANSICHT
1002
{
1000
Det03
1002
}
1001
AUSTER_FOLIE
1002
{
1000
NSB00777_S2_WENDE
1002
}
  0
CIRCLE
  5
122C9
330
20
100
AcDbEntity
  8
10000_FRONT
  6
Continuous
 62
     7
370
    20
100
AcDbCircle
 39
0.25
 10
-49.9308490716269
 20
768.7393530542673
 30
0.0
 40
4.9
1001
AUSTER_ANSICHT
1002
{
1000
Det03
1002
}
1001
AUSTER_FOLIE
1002
{
1000
NSB00777_S2_WENDE
1002
}
  0
CIRCLE
  5
122CA
330
20
100
AcDbEntity
  8
10000_FRONT
  6
Continuous
 62
     7
370
    20
100
AcDbCircle
 39
0.25
 10
-67.4151090716269
 20
768.7370530542672
 30
0.0
 40
4.9
1001
AUSTER_ANSICHT
1002
{
1000
Det03
1002
}
1001
AUSTER_FOLIE
1002
{
1000
NSB00777_S2_WENDE
1002
}
  0
ARC
  5
122CB
330
20
100
AcDbEntity
  8
10000_FRONT
  6
Continuous
 62
     7
370
    20
100
AcDbCircle
 39
0.25
 10
-61.36510907162691
 20
692.7266530542672
 30
0.0
 40
0.4
100
AcDbArc
 50
270.0
 51
0.0
1001
AUSTER_ANSICHT
1002
{
1000
Det03
1002
}
1001
AUSTER_FOLIE
1002
{
1000
NSB00777_S2_WENDE
1002
}
  0
ARC
  5
122CC
330
20
100
AcDbEntity
  8
10000_FRONT
  6
Continuous
 62
     7
370
    20
100
AcDbCircle
 39
0.25
 10
-75.91510907162692
 20
777.8266530542672
 30
0.0
 40
1.5
100
AcDbArc
 50
89.99998999999899
 51
180.0
1001
AUSTER_ANSICHT
1002
{
1000
Det03
1002
}
1001
AUSTER_FOLIE
1002
{
1000
NSB00777_S2_WENDE
1002
}
  0
LINE
  5
122CD
330
20
100
AcDbEntity
  8
10000_FRONT
  6
DASHED
 62
     7
370
    13
100
AcDbLine
 39
0.25
 10
-24.91510907162691
 20
784.3266530542672
 30
0.0
 11
-24.91510907162691
 21
783.3266530542672
 31
0.0
1001
AUSTER_ANSICHT
1002
{
1000
Det03
1002
}
1001
AUSTER_FOLIE
1002
{
1000
NSB00777_S2_WENDE
1002
}
  0
LINE
  5
122CE
330
20
100
AcDbEntity
  8
10000_FRONT
  6
DASHED
 62
     7
370
    13
100
AcDbLine
 39
0.25
 10
-74.9151090716269
 20
689.8266530542672
 30
0.0
 11
-74.9151090716269
 21
688.8266530542672
 31
0.0
1001
AUSTER_ANSICHT
1002
{
1000
Det03
1002
}
1001
AUSTER_FOLIE
1002
{
1000
NSB00777_S2_WENDE
1002
}
  0
LINE
  5
122CF
330
20
100
AcDbEntity
  8
10000_FRONT
  6
Continuous
 62
     7
370
    20
100
AcDbLine
 39
0.25
 10
-65.38601907162692
 20
790.3067530542672
 30
0.0
 11
-65.38601907162692
 21
798.3067530542672
 31
0.0
1001
AUSTER_ANSICHT
1002
{
1000
Det03
1002
}
1001
AUSTER_FOLIE
1002
{
1000
NSB00777_S2_WENDE
1002
}
  0
LINE
  5
122D0
330
20
100
AcDbEntity
  8
10000_FRONT
  6
Continuous
 62
     7
370
    50
100
AcDbLine
 39
0.7
 10
-23.91510907162691
 20
692.3266530542672
 30
0.0
 11
-23.91510907162691
 21
683.8266530542672
 31
0.0
1001
AUSTER_ANSICHT
1002
{
1000
Det03
1002
}
1001
AUSTER_FOLIE
1002
{
1000
NSB00777_S2_WENDE
1002
}
  0
LINE
  5
122D1
330
20
100
AcDbEntity
  8
10000_FRONT
  6
Continuous
 62
     7
370
    20
100
AcDbLine
 39
0.25
 10
-90.73602307162692
 20
779.3067530542672
 30
0.0
 11
-108.6350190716269
 21
779.3067530542672
 31
0.0
1001
AUSTER_ANSICHT
1002
{
1000
Det03
1002
}
1001
AUSTER_FOLIE
1002
{
1000
NSB00777_S2_WENDE
1002
}
  0
LINE
  5
122D2
330
20
100
AcDbEntity
  8
10000_FRONT
  6
Continuous
 62
     7
370
    20
100
AcDbLine
 39
0.25
 10
-89.16511807162693
 20
694.3266530542672
 30
0.0
 11
-89.16511807162693
 21
692.7266530542672
 31
0.0
1001
AUSTER_ANSICHT
1002
{
1000
Det03
1002
}
1001
AUSTER_FOLIE
1002
{
1000
NSB00777_S2_WENDE
1002
}
  0
LINE
  5
122D3
330
20
100
AcDbEntity
  8
10000_FRONT
  6
Continuous
 62
     7
370
    20
100
AcDbLine
 39
0.25
 10
-89.16510407162691
 20
780.9266530542672
 30
0.0
 11
-89.16510407162691
 21
779.3266530542672
 31
0.0
1001
AUSTER_ANSICHT
1002
{
1000
Det03
1002
}
1001
AUSTER_FOLIE
1002
{
1000
NSB00777_S2_WENDE
1002
}
  0
LINE
  5
122D4
330
20
100
AcDbEntity
  8
10000_FRONT
  6
Continuous
 62
     7
370
    20
100
AcDbLine
 39
0.25
 10
-92.41511507162693
 20
721.2266530542672
 30
0.0
 11
-137.4151190716269
 21
721.2266530542672
 31
0.0
1001
AUSTER_ANSICHT
1002
{
1000
Det03
1002
}
1001
AUSTER_FOLIE
1002
{
1000
NSB00777_S2_WENDE
1002
}
  0
LINE
  5
122D5
330
20
100
AcDbEntity
  8
10000_FRONT
  6
Continuous
 62
     7
370
    20
100
AcDbLine
 39
0.25
 10
-92.41511107162692
 20
753.8266530542672
 30
0.0
 11
-92.41511507162693
 21
721.2266530542672
 31
0.0
1001
AUSTER_ANSICHT
1002
{
1000
Det03
1002
}
1001
AUSTER_FOLIE
1002
{
1000
NSB00777_S2_WENDE
1002
}
  0
LINE
  5
122D6
330
20
100
AcDbEntity
  8
10000_FRONT
  6
Continuous
 62
     7
370
    20
100
AcDbLine
 39
0.25
 10
-137.4151090716269
 20
753.8266530542672
 30
0.0
 11
-92.41511107162692
 21
753.8266530542672
 31
0.0
1001
AUSTER_ANSICHT
1002
{
1000
Det03
1002
}
1001
AUSTER_FOLIE
1002
{
1000
NSB00777_S2_WENDE
1002
}
  0
LINE
  5
122D7
330
20
100
AcDbEntity
  8
10000_FRONT
  6
Continuous
 62
     7
370
    20
100
AcDbLine
 39
0.25
 10
-137.4151190716269
 20
721.2266530542672
 30
0.0
 11
-137.4151090716269
 21
753.8266530542672
 31
0.0
1001
AUSTER_ANSICHT
1002
{
1000
Det03
1002
}
1001
AUSTER_FOLIE
1002
{
1000
NSB00777_S2_WENDE
1002
}
  0
LINE
  5
122D8
330
20
100
AcDbEntity
  8
10000_FRONT
  6
Continuous
 62
     7
370
    20
100
AcDbLine
 39
0.25
 10
-114.9151290716269
 20
720.4311530542672
 30
0.0
 11
-114.9151290716269
 21
712.9774530542674
 31
0.0
1001
AUSTER_ANSICHT
1002
{
1000
Det03
1002
}
1001
AUSTER_FOLIE
1002
{
1000
NSB00777_S2_WENDE
1002
}
  0
LINE
  5
122D9
330
20
100
AcDbEntity
  8
10000_FRONT
  6
Continuous
 62
     7
370
    20
100
AcDbLine
 39
0.25
 10
-136.5882590716269
 20
712.9774530542674
 30
0.0
 11
-136.5958690716269
 21
719.1061530542672
 31
0.0
1001
AUSTER_ANSICHT
1002
{
1000
Det03
1002
}
1001
AUSTER_FOLIE
1002
{
1000
NSB00777_S2_WENDE
1002
}
  0
LINE
  5
122DA
330
20
100
AcDbEntity
  8
10000_FRONT
  6
Continuous
 62
     7
370
    20
100
AcDbLine
 39
0.25
 10
-93.24199407162693
 20
712.9774530542674
 30
0.0
 11
-136.5882590716269
 21
712.9774530542674
 31
0.0
1001
AUSTER_ANSICHT
1002
{
1000
Det03
1002
}
1001
AUSTER_FOLIE
1002
{
1000
NSB00777_S2_WENDE
1002
}
  0
LINE
  5
122DB
330
20
100
AcDbEntity
  8
10000_FRONT
  6
Continuous
 62
     7
370
    20
100
AcDbLine
 39
0.25
 10
-93.23436407162693
 20
719.1061530542672
 30
0.0
 11
-93.24199407162693
 21
712.9774530542674
 31
0.0
1001
AUSTER_ANSICHT
1002
{
1000
Det03
1002
}
1001
AUSTER_FOLIE
1002
{
1000
NSB00777_S2_WENDE
1002
}
  0
LINE
  5
122DC
330
20
100
AcDbEntity
  8
10000_FRONT
  6
Continuous
 62
     7
370
    20
100
AcDbLine
 39
0.25
 10
-94.81511507162693
 20
719.1061530542672
 30
0.0
 11
-93.23436407162693
 21
719.1061530542672
 31
0.0
1001
AUSTER_ANSICHT
1002
{
1000
Det03
1002
}
1001
AUSTER_FOLIE
1002
{
1000
NSB00777_S2_WENDE
1002
}
  0
LINE
  5
122DD
330
20
100
AcDbEntity
  8
10000_FRONT
  6
Continuous
 62
     7
370
    20
100
AcDbLine
 39
0.25
 10
-94.81511507162693
 20
720.4311530542672
 30
0.0
 11
-94.81511507162693
 21
719.1061530542672
 31
0.0
1001
AUSTER_ANSICHT
1002
{
1000
Det03
1002
}
1001
AUSTER_FOLIE
1002
{
1000
NSB00777_S2_WENDE
1002
}
  0
LINE
  5
122DE
330
20
100
AcDbEntity
  8
10000_FRONT
  6
Continuous
 62
     7
370
    20
100
AcDbLine
 39
0.25
 10
-135.0151190716269
 20
719.1061530542672
 30
0.0
 11
-135.0151190716269
 21
720.4311530542672
 31
0.0
1001
AUSTER_ANSICHT
1002
{
1000
Det03
1002
}
1001
AUSTER_FOLIE
1002
{
1000
NSB00777_S2_WENDE
1002
}
  0
LINE
  5
122DF
330
20
100
AcDbEntity
  8
10000_FRONT
  6
Continuous
 62
     7
370
    20
100
AcDbLine
 39
0.25
 10
-136.5958690716269
 20
719.1061530542672
 30
0.0
 11
-135.0151190716269
 21
719.1061530542672
 31
0.0
1001
AUSTER_ANSICHT
1002
{
1000
Det03
1002
}
1001
AUSTER_FOLIE
1002
{
1000
NSB00777_S2_WENDE
1002
}
  0
LINE
  5
122E0
330
20
100
AcDbEntity
  8
10000_FRONT
  6
Continuous
 62
     7
370
    20
100
AcDbLine
 39
0.25
 10
-89.56511807162691
 20
692.3266530542672
 30
0.0
 11
-103.4651190716269
 21
692.3266530542672
 31
0.0
1001
AUSTER_ANSICHT
1002
{
1000
Det03
1002
}
1001
AUSTER_FOLIE
1002
{
1000
NSB00777_S2_WENDE
1002
}
  0
LINE
  5
122E1
330
20
100
AcDbEntity
  8
10000_FRONT
  6
Continuous
 62
     7
370
    20
100
AcDbLine
 39
0.25
 10
-103.8651190716269
 20
694.3266530542672
 30
0.0
 11
-103.8651190716269
 21
692.7266530542672
 31
0.0
1001
AUSTER_ANSICHT
1002
{
1000
Det03
1002
}
1001
AUSTER_FOLIE
1002
{
1000
NSB00777_S2_WENDE
1002
}
  0
LINE
  5
122E2
330
20
100
AcDbEntity
  8
10000_FRONT
  6
Continuous
 62
     7
370
    20
100
AcDbLine
 39
0.25
 10
-108.4651190716269
 20
694.3266530542672
 30
0.0
 11
-108.4651190716269
 21
692.7266530542672
 31
0.0
1001
AUSTER_ANSICHT
1002
{
1000
Det03
1002
}
1001
AUSTER_FOLIE
1002
{
1000
NSB00777_S2_WENDE
1002
}
  0
LINE
  5
122E3
330
20
100
AcDbEntity
  8
10000_FRONT
  6
Continuous
 62
     7
370
    20
100
AcDbLine
 39
0.25
 10
-120.9651190716269
 20
692.3266530542672
 30
0.0
 11
-108.8651190716269
 21
692.3266530542672
 31
0.0
1001
AUSTER_ANSICHT
1002
{
1000
Det03
1002
}
1001
AUSTER_FOLIE
1002
{
1000
NSB00777_S2_WENDE
1002
}
  0
LINE
  5
122E4
330
20
100
AcDbEntity
  8
10000_FRONT
  6
Continuous
 62
     7
370
    20
100
AcDbLine
 39
0.25
 10
-121.3651190716269
 20
694.3266530542672
 30
0.0
 11
-121.3651190716269
 21
692.7266530542672
 31
0.0
1001
AUSTER_ANSICHT
1002
{
1000
Det03
1002
}
1001
AUSTER_FOLIE
1002
{
1000
NSB00777_S2_WENDE
1002
}
  0
LINE
  5
122E5
330
20
100
AcDbEntity
  8
10000_FRONT
  6
Continuous
 62
     7
370
    20
100
AcDbLine
 39
0.25
 10
-125.9651190716269
 20
694.3266530542672
 30
0.0
 11
-125.9651190716269
 21
692.7266530542672
 31
0.0
1001
AUSTER_ANSICHT
1002
{
1000
Det03
1002
}
1001
AUSTER_FOLIE
1002
{
1000
NSB00777_S2_WENDE
1002
}
  0
LINE
  5
122E6
330
20
100
AcDbEntity
  8
10000_FRONT
  6
Continuous
 62
     7
370
    20
100
AcDbLine
 39
0.25
 10
-103.8651090716269
 20
779.3266530542672
 30
0.0
 11
-103.8651090716269
 21
780.9266530542672
 31
0.0
1001
AUSTER_ANSICHT
1002
{
1000
Det03
1002
}
1001
AUSTER_FOLIE
1002
{
1000
NSB00777_S2_WENDE
1002
}
  0
LINE
  5
122E7
330
20
100
AcDbEntity
  8
10000_FRONT
  6
Continuous
 62
     7
370
    20
100
AcDbLine
 39
0.25
 10
-120.8651090716269
 20
781.3266530542672
 30
0.0
 11
-108.8651090716269
 21
781.3266530542672
 31
0.0
1001
AUSTER_ANSICHT
1002
{
1000
Det03
1002
}
1001
AUSTER_FOLIE
1002
{
1000
NSB00777_S2_WENDE
1002
}
  0
LINE
  5
122E8
330
20
100
AcDbEntity
  8
10000_FRONT
  6
Continuous
 62
     7
370
    20
100
AcDbLine
 39
0.25
 10
-108.4651090716269
 20
779.3266530542672
 30
0.0
 11
-108.4651090716269
 21
780.9266530542672
 31
0.0
1001
AUSTER_ANSICHT
1002
{
1000
Det03
1002
}
1001
AUSTER_FOLIE
1002
{
1000
NSB00777_S2_WENDE
1002
}
  0
LINE
  5
122E9
330
20
100
AcDbEntity
  8
10000_FRONT
  6
Continuous
 62
     7
370
    20
100
AcDbLine
 39
0.25
 10
-121.3651090716269
 20
779.3564530542672
 30
0.0
 11
-121.3651090716269
 21
780.8266530542672
 31
0.0
1001
AUSTER_ANSICHT
1002
{
1000
Det03
1002
}
1001
AUSTER_FOLIE
1002
{
1000
NSB00777_S2_WENDE
1002
}
  0
LINE
  5
122EA
330
20
100
AcDbEntity
  8
10000_FRONT
  6
Continuous
 62
     7
370
    20
100
AcDbLine
 39
0.25
 10
-125.9651090716269
 20
779.3266530542672
 30
0.0
 11
-125.9651090716269
 21
780.8266530542672
 31
0.0
1001
AUSTER_ANSICHT
1002
{
1000
Det03
1002
}
1001
AUSTER_FOLIE
1002
{
1000
NSB00777_S2_WENDE
1002
}
  0
LINE
  5
122EB
330
20
100
AcDbEntity
  8
10000_FRONT
  6
Continuous
 62
     7
370
    20
100
AcDbLine
 39
0.25
 10
-122.7651090716269
 20
725.9406530542673
 30
0.0
 11
-117.5651090716269
 21
725.9406530542673
 31
0.0
1001
AUSTER_ANSICHT
1002
{
1000
Det03
1002
}
1001
AUSTER_FOLIE
1002
{
1000
NSB00777_S2_WENDE
1002
}
  0
LINE
  5
122EC
330
20
100
AcDbEntity
  8
10000_FRONT
  6
Continuous
 62
     7
370
    20
100
AcDbLine
 39
0.25
 10
-113.0651090716269
 20
732.9406530542672
 30
0.0
 11
-113.0651090716269
 21
740.3406530542671
 31
0.0
1001
AUSTER_ANSICHT
1002
{
1000
Det03
1002
}
1001
AUSTER_FOLIE
1002
{
1000
NSB00777_S2_WENDE
1002
}
  0
LINE
  5
122ED
330
20
100
AcDbEntity
  8
10000_FRONT
  6
Continuous
 62
     7
370
    20
100
AcDbLine
 39
0.25
 10
-116.2651090716269
 20
740.3406530542671
 30
0.0
 11
-116.2651090716269
 21
732.9406530542672
 31
0.0
1001
AUSTER_ANSICHT
1002
{
1000
Det03
1002
}
1001
AUSTER_FOLIE
1002
{
1000
NSB00777_S2_WENDE
1002
}
  0
LINE
  5
122EE
330
20
100
AcDbEntity
  8
10000_FRONT
  6
Continuous
 62
     7
370
    20
100
AcDbLine
 39
0.25
 10
-100.7651090716269
 20
725.9406530542673
 30
0.0
 11
-95.56510907162694
 21
725.9406530542673
 31
0.0
1001
AUSTER_ANSICHT
1002
{
1000
Det03
1002
}
1001
AUSTER_FOLIE
1002
{
1000
NSB00777_S2_WENDE
1002
}
  0
LINE
  5
122EF
330
20
100
AcDbEntity
  8
10000_FRONT
  6
Continuous
 62
     7
370
    20
100
AcDbLine
 39
0.25
 10
-111.7651090716269
 20
725.9406530542673
 30
0.0
 11
-106.5651090716269
 21
725.9406530542673
 31
0.0
1001
AUSTER_ANSICHT
1002
{
1000
Det03
1002
}
1001
AUSTER_FOLIE
1002
{
1000
NSB00777_S2_WENDE
1002
}
  0
LINE
  5
122F0
330
20
100
AcDbEntity
  8
10000_FRONT
  6
Continuous
 62
     7
370
    20
100
AcDbLine
 39
0.25
 10
-133.7651090716269
 20
725.9406530542673
 30
0.0
 11
-128.5651090716269
 21
725.9406530542673
 31
0.0
1001
AUSTER_ANSICHT
1002
{
1000
Det03
1002
}
1001
AUSTER_FOLIE
1002
{
1000
NSB00777_S2_WENDE
1002
}
  0
LINE
  5
122F1
330
20
100
AcDbEntity
  8
10000_FRONT
  6
Continuous
 62
     7
370
    20
100
AcDbLine
 39
0.25
 10
-116.2651090716269
 20
732.9406530542672
 30
0.0
 11
-116.2651090716269
 21
730.1906530542672
 31
0.0
1001
AUSTER_ANSICHT
1002
{
1000
Det03
1002
}
1001
AUSTER_FOLIE
1002
{
1000
NSB00777_S2_WENDE
1002
}
  0
LINE
  5
122F2
330
20
100
AcDbEntity
  8
10000_FRONT
  6
Continuous
 62
     7
370
    20
100
AcDbLine
 39
0.25
 10
-113.0651090716269
 20
732.9406530542672
 30
0.0
 11
-113.0651090716269
 21
730.1906530542672
 31
0.0
1001
AUSTER_ANSICHT
1002
{
1000
Det03
1002
}
1001
AUSTER_FOLIE
1002
{
1000
NSB00777_S2_WENDE
1002
}
  0
LINE
  5
122F3
330
20
100
AcDbEntity
  8
10000_FRONT
  6
Continuous
 62
     7
370
    20
100
AcDbLine
 39
0.25
 10
-113.0651090716269
 20
744.3906530542673
 30
0.0
 11
-113.0651090716269
 21
740.3406530542671
 31
0.0
1001
AUSTER_ANSICHT
1002
{
1000
Det03
1002
}
1001
AUSTER_FOLIE
1002
{
1000
NSB00777_S2_WENDE
1002
}
  0
LINE
  5
122F4
330
20
100
AcDbEntity
  8
10000_FRONT
  6
Continuous
 62
     7
370
    20
100
AcDbLine
 39
0.25
 10
-116.2651090716269
 20
744.3906530542673
 30
0.0
 11
-116.2651090716269
 21
740.3406530542671
 31
0.0
1001
AUSTER_ANSICHT
1002
{
1000
Det03
1002
}
1001
AUSTER_FOLIE
1002
{
1000
NSB00777_S2_WENDE
1002
}
  0
LINE
  5
122F5
330
20
100
AcDbEntity
  8
10000_FRONT
  6
Continuous
 62
     7
370
    20
100
AcDbLine
 39
0.25
 10
-135.7651090716269
 20
752.4406530542672
 30
0.0
 11
-126.5651090716269
 21
752.4406530542672
 31
0.0
1001
AUSTER_ANSICHT
1002
{
1000
Det03
1002
}
1001
AUSTER_FOLIE
1002
{
1000
NSB00777_S2_WENDE
1002
}
  0
LINE
  5
122F6
330
20
100
AcDbEntity
  8
10000_FRONT
  6
Continuous
 62
     7
370
    20
100
AcDbLine
 39
0.25
 10
-128.9651090716269
 20
748.8906530542672
 30
0.0
 11
-128.9651090716269
 21
744.3906530542673
 31
0.0
1001
AUSTER_ANSICHT
1002
{
1000
Det03
1002
}
1001
AUSTER_FOLIE
1002
{
1000
NSB00777_S2_WENDE
1002
}
  0
LINE
  5
122F7
330
20
100
AcDbEntity
  8
10000_FRONT
  6
Continuous
 62
     7
370
    20
100
AcDbLine
 39
0.25
 10
-133.3651090716269
 20
748.8906530542672
 30
0.0
 11
-133.3651090716269
 21
744.3906530542673
 31
0.0
1001
AUSTER_ANSICHT
1002
{
1000
Det03
1002
}
1001
AUSTER_FOLIE
1002
{
1000
NSB00777_S2_WENDE
1002
}
  0
LINE
  5
122F8
330
20
100
AcDbEntity
  8
10000_FRONT
  6
Continuous
 62
     7
370
    20
100
AcDbLine
 39
0.25
 10
-127.2651090716269
 20
730.1906530542672
 30
0.0
 11
-128.5651090716269
 21
730.1906530542672
 31
0.0
1001
AUSTER_ANSICHT
1002
{
1000
Det03
1002
}
1001
AUSTER_FOLIE
1002
{
1000
NSB00777_S2_WENDE
1002
}
  0
LINE
  5
122F9
330
20
100
AcDbEntity
  8
10000_FRONT
  6
Continuous
 62
     7
370
    20
100
AcDbLine
 39
0.25
 10
-127.2651090716269
 20
744.3906530542673
 30
0.0
 11
-127.2651090716269
 21
730.1906530542672
 31
0.0
1001
AUSTER_ANSICHT
1002
{
1000
Det03
1002
}
1001
AUSTER_FOLIE
1002
{
1000
NSB00777_S2_WENDE
1002
}
  0
LINE
  5
122FA
330
20
100
AcDbEntity
  8
10000_FRONT
  6
Continuous
 62
     7
370
    20
100
AcDbLine
 39
0.25
 10
-135.0651090716269
 20
730.1906530542672
 30
0.0
 11
-135.0651090716269
 21
744.3906530542673
 31
0.0
1001
AUSTER_ANSICHT
1002
{
1000
Det03
1002
}
1001
AUSTER_FOLIE
1002
{
1000
NSB00777_S2_WENDE
1002
}
  0
LINE
  5
122FB
330
20
100
AcDbEntity
  8
10000_FRONT
  6
Continuous
 62
     7
370
    20
100
AcDbLine
 39
0.25
 10
-133.7651090716269
 20
730.1906530542672
 30
0.0
 11
-135.0651090716269
 21
730.1906530542672
 31
0.0
1001
AUSTER_ANSICHT
1002
{
1000
Det03
1002
}
1001
AUSTER_FOLIE
1002
{
1000
NSB00777_S2_WENDE
1002
}
  0
LINE
  5
122FC
330
20
100
AcDbEntity
  8
10000_FRONT
  6
Continuous
 62
     7
370
    20
100
AcDbLine
 39
0.25
 10
-102.7651090716269
 20
752.4406530542672
 30
0.0
 11
-93.56510907162693
 21
752.4406530542672
 31
0.0
1001
AUSTER_ANSICHT
1002
{
1000
Det03
1002
}
1001
AUSTER_FOLIE
1002
{
1000
NSB00777_S2_WENDE
1002
}
  0
LINE
  5
122FD
330
20
100
AcDbEntity
  8
10000_FRONT
  6
Continuous
 62
     7
370
    20
100
AcDbLine
 39
0.25
 10
-95.96510907162691
 20
748.8906530542672
 30
0.0
 11
-95.96510907162691
 21
744.3906530542673
 31
0.0
1001
AUSTER_ANSICHT
1002
{
1000
Det03
1002
}
1001
AUSTER_FOLIE
1002
{
1000
NSB00777_S2_WENDE
1002
}
  0
LINE
  5
122FE
330
20
100
AcDbEntity
  8
10000_FRONT
  6
Continuous
 62
     7
370
    20
100
AcDbLine
 39
0.25
 10
-100.3651090716269
 20
748.8906530542672
 30
0.0
 11
-100.3651090716269
 21
744.3906530542673
 31
0.0
1001
AUSTER_ANSICHT
1002
{
1000
Det03
1002
}
1001
AUSTER_FOLIE
1002
{
1000
NSB00777_S2_WENDE
1002
}
  0
LINE
  5
122FF
330
20
100
AcDbEntity
  8
10000_FRONT
  6
Continuous
 62
     7
370
    20
100
AcDbLine
 39
0.25
 10
-94.26510907162692
 20
730.1906530542672
 30
0.0
 11
-95.56510907162694
 21
730.1906530542672
 31
0.0
1001
AUSTER_ANSICHT
1002
{
1000
Det03
1002
}
1001
AUSTER_FOLIE
1002
{
1000
NSB00777_S2_WENDE
1002
}
  0
LINE
  5
12300
330
20
100
AcDbEntity
  8
10000_FRONT
  6
Continuous
 62
     7
370
    20
100
AcDbLine
 39
0.25
 10
-94.26510907162692
 20
744.3906530542673
 30
0.0
 11
-94.26510907162692
 21
730.1906530542672
 31
0.0
1001
AUSTER_ANSICHT
1002
{
1000
Det03
1002
}
1001
AUSTER_FOLIE
1002
{
1000
NSB00777_S2_WENDE
1002
}
  0
LINE
  5
12301
330
20
100
AcDbEntity
  8
10000_FRONT
  6
Continuous
 62
     7
370
    20
100
AcDbLine
 39
0.25
 10
-102.0651090716269
 20
730.1906530542672
 30
0.0
 11
-102.0651090716269
 21
744.3906530542673
 31
0.0
1001
AUSTER_ANSICHT
1002
{
1000
Det03
1002
}
1001
AUSTER_FOLIE
1002
{
1000
NSB00777_S2_WENDE
1002
}
  0
LINE
  5
12302
330
20
100
AcDbEntity
  8
10000_FRONT
  6
Continuous
 62
     7
370
    20
100
AcDbLine
 39
0.25
 10
-100.7651090716269
 20
730.1906530542672
 30
0.0
 11
-102.0651090716269
 21
730.1906530542672
 31
0.0
1001
AUSTER_ANSICHT
1002
{
1000
Det03
1002
}
1001
AUSTER_FOLIE
1002
{
1000
NSB00777_S2_WENDE
1002
}
  0
LINE
  5
12303
330
20
100
AcDbEntity
  8
10000_FRONT
  6
Continuous
 62
     7
370
    20
100
AcDbLine
 39
0.25
 10
-95.56510907162694
 20
725.9406530542673
 30
0.0
 11
-95.56510907162694
 21
730.1906530542672
 31
0.0
1001
AUSTER_ANSICHT
1002
{
1000
Det03
1002
}
1001
AUSTER_FOLIE
1002
{
1000
NSB00777_S2_WENDE
1002
}
  0
LINE
  5
12304
330
20
100
AcDbEntity
  8
10000_FRONT
  6
Continuous
 62
     7
370
    20
100
AcDbLine
 39
0.25
 10
-100.7651090716269
 20
730.1906530542672
 30
0.0
 11
-100.7651090716269
 21
725.9406530542673
 31
0.0
1001
AUSTER_ANSICHT
1002
{
1000
Det03
1002
}
1001
AUSTER_FOLIE
1002
{
1000
NSB00777_S2_WENDE
1002
}
  0
LINE
  5
12305
330
20
100
AcDbEntity
  8
10000_FRONT
  6
Continuous
 62
     7
370
    20
100
AcDbLine
 39
0.25
 10
-94.26510907162692
 20
744.3906530542673
 30
0.0
 11
-95.96510907162691
 21
744.3906530542673
 31
0.0
1001
AUSTER_ANSICHT
1002
{
1000
Det03
1002
}
1001
AUSTER_FOLIE
1002
{
1000
NSB00777_S2_WENDE
1002
}
  0
LINE
  5
12306
330
20
100
AcDbEntity
  8
10000_FRONT
  6
Continuous
 62
     7
370
    20
100
AcDbLine
 39
0.25
 10
-102.0651090716269
 20
744.3906530542673
 30
0.0
 11
-100.3651090716269
 21
744.3906530542673
 31
0.0
1001
AUSTER_ANSICHT
1002
{
1000
Det03
1002
}
1001
AUSTER_FOLIE
1002
{
1000
NSB00777_S2_WENDE
1002
}
  0
LINE
  5
12307
330
20
100
AcDbEntity
  8
10000_FRONT
  6
Continuous
 62
     7
370
    20
100
AcDbLine
 39
0.25
 10
-100.4151090716269
 20
733.2906530542673
 30
0.0
 11
-100.4151090716269
 21
738.6906530542672
 31
0.0
1001
AUSTER_ANSICHT
1002
{
1000
Det03
1002
}
1001
AUSTER_FOLIE
1002
{
1000
NSB00777_S2_WENDE
1002
}
  0
LINE
  5
12308
330
20
100
AcDbEntity
  8
10000_FRONT
  6
Continuous
 62
     7
370
    20
100
AcDbLine
 39
0.25
 10
-95.91510907162692
 20
733.2906530542673
 30
0.0
 11
-100.4151090716269
 21
733.2906530542673
 31
0.0
1001
AUSTER_ANSICHT
1002
{
1000
Det03
1002
}
1001
AUSTER_FOLIE
1002
{
1000
NSB00777_S2_WENDE
1002
}
  0
LINE
  5
12309
330
20
100
AcDbEntity
  8
10000_FRONT
  6
Continuous
 62
     7
370
    20
100
AcDbLine
 39
0.25
 10
-95.91510907162692
 20
738.6906530542672
 30
0.0
 11
-95.91510907162692
 21
733.2906530542673
 31
0.0
1001
AUSTER_ANSICHT
1002
{
1000
Det03
1002
}
1001
AUSTER_FOLIE
1002
{
1000
NSB00777_S2_WENDE
1002
}
  0
LINE
  5
1230A
330
20
100
AcDbEntity
  8
10000_FRONT
  6
Continuous
 62
     7
370
    20
100
AcDbLine
 39
0.25
 10
-96.23464007162693
 20
738.9906530542672
 30
0.0
 11
-95.91510907162692
 21
738.6906530542672
 31
0.0
1001
AUSTER_ANSICHT
1002
{
1000
Det03
1002
}
1001
AUSTER_FOLIE
1002
{
1000
NSB00777_S2_WENDE
1002
}
  0
LINE
  5
1230B
330
20
100
AcDbEntity
  8
10000_FRONT
  6
Continuous
 62
     7
370
    20
100
AcDbLine
 39
0.25
 10
-100.0955790716269
 20
738.9906530542672
 30
0.0
 11
-96.23464007162693
 21
738.9906530542672
 31
0.0
1001
AUSTER_ANSICHT
1002
{
1000
Det03
1002
}
1001
AUSTER_FOLIE
1002
{
1000
NSB00777_S2_WENDE
1002
}
  0
LINE
  5
1230C
330
20
100
AcDbEntity
  8
10000_FRONT
  6
Continuous
 62
     7
370
    20
100
AcDbLine
 39
0.25
 10
-100.4151090716269
 20
738.6906530542672
 30
0.0
 11
-100.0955790716269
 21
738.9906530542672
 31
0.0
1001
AUSTER_ANSICHT
1002
{
1000
Det03
1002
}
1001
AUSTER_FOLIE
1002
{
1000
NSB00777_S2_WENDE
1002
}
  0
LINE
  5
1230D
330
20
100
AcDbEntity
  8
10000_FRONT
  6
Continuous
 62
     7
370
    20
100
AcDbLine
 39
0.25
 10
-113.7651090716269
 20
752.4406530542672
 30
0.0
 11
-104.5651090716269
 21
752.4406530542672
 31
0.0
1001
AUSTER_ANSICHT
1002
{
1000
Det03
1002
}
1001
AUSTER_FOLIE
1002
{
1000
NSB00777_S2_WENDE
1002
}
  0
LINE
  5
1230E
330
20
100
AcDbEntity
  8
10000_FRONT
  6
Continuous
 62
     7
370
    20
100
AcDbLine
 39
0.25
 10
-106.9651090716269
 20
748.8906530542672
 30
0.0
 11
-106.9651090716269
 21
744.3906530542673
 31
0.0
1001
AUSTER_ANSICHT
1002
{
1000
Det03
1002
}
1001
AUSTER_FOLIE
1002
{
1000
NSB00777_S2_WENDE
1002
}
  0
LINE
  5
1230F
330
20
100
AcDbEntity
  8
10000_FRONT
  6
Continuous
 62
     7
370
    20
100
AcDbLine
 39
0.25
 10
-111.3651090716269
 20
748.8906530542672
 30
0.0
 11
-111.3651090716269
 21
744.3906530542673
 31
0.0
1001
AUSTER_ANSICHT
1002
{
1000
Det03
1002
}
1001
AUSTER_FOLIE
1002
{
1000
NSB00777_S2_WENDE
1002
}
  0
LINE
  5
12310
330
20
100
AcDbEntity
  8
10000_FRONT
  6
Continuous
 62
     7
370
    20
100
AcDbLine
 39
0.25
 10
-105.2651090716269
 20
730.1906530542672
 30
0.0
 11
-106.5651090716269
 21
730.1906530542672
 31
0.0
1001
AUSTER_ANSICHT
1002
{
1000
Det03
1002
}
1001
AUSTER_FOLIE
1002
{
1000
NSB00777_S2_WENDE
1002
}
  0
LINE
  5
12311
330
20
100
AcDbEntity
  8
10000_FRONT
  6
Continuous
 62
     7
370
    20
100
AcDbLine
 39
0.25
 10
-105.2651090716269
 20
744.3906530542673
 30
0.0
 11
-105.2651090716269
 21
730.1906530542672
 31
0.0
1001
AUSTER_ANSICHT
1002
{
1000
Det03
1002
}
1001
AUSTER_FOLIE
1002
{
1000
NSB00777_S2_WENDE
1002
}
  0
LINE
  5
12312
330
20
100
AcDbEntity
  8
10000_FRONT
  6
Continuous
 62
     7
370
    20
100
AcDbLine
 39
0.25
 10
-111.7651090716269
 20
730.1906530542672
 30
0.0
 11
-113.0651090716269
 21
730.1906530542672
 31
0.0
1001
AUSTER_ANSICHT
1002
{
1000
Det03
1002
}
1001
AUSTER_FOLIE
1002
{
1000
NSB00777_S2_WENDE
1002
}
  0
LINE
  5
12313
330
20
100
AcDbEntity
  8
10000_FRONT
  6
Continuous
 62
     7
370
    20
100
AcDbLine
 39
0.25
 10
-106.5651090716269
 20
725.9406530542673
 30
0.0
 11
-106.5651090716269
 21
730.1906530542672
 31
0.0
1001
AUSTER_ANSICHT
1002
{
1000
Det03
1002
}
1001
AUSTER_FOLIE
1002
{
1000
NSB00777_S2_WENDE
1002
}
  0
LINE
  5
12314
330
20
100
AcDbEntity
  8
10000_FRONT
  6
Continuous
 62
     7
370
    20
100
AcDbLine
 39
0.25
 10
-111.7651090716269
 20
730.1906530542672
 30
0.0
 11
-111.7651090716269
 21
725.9406530542673
 31
0.0
1001
AUSTER_ANSICHT
1002
{
1000
Det03
1002
}
1001
AUSTER_FOLIE
1002
{
1000
NSB00777_S2_WENDE
1002
}
  0
LINE
  5
12315
330
20
100
AcDbEntity
  8
10000_FRONT
  6
Continuous
 62
     7
370
    20
100
AcDbLine
 39
0.25
 10
-105.2651090716269
 20
744.3906530542673
 30
0.0
 11
-106.9651090716269
 21
744.3906530542673
 31
0.0
1001
AUSTER_ANSICHT
1002
{
1000
Det03
1002
}
1001
AUSTER_FOLIE
1002
{
1000
NSB00777_S2_WENDE
1002
}
  0
LINE
  5
12316
330
20
100
AcDbEntity
  8
10000_FRONT
  6
Continuous
 62
     7
370
    20
100
AcDbLine
 39
0.25
 10
-113.0651090716269
 20
744.3906530542673
 30
0.0
 11
-111.3651090716269
 21
744.3906530542673
 31
0.0
1001
AUSTER_ANSICHT
1002
{
1000
Det03
1002
}
1001
AUSTER_FOLIE
1002
{
1000
NSB00777_S2_WENDE
1002
}
  0
LINE
  5
12317
330
20
100
AcDbEntity
  8
10000_FRONT
  6
Continuous
 62
     7
370
    20
100
AcDbLine
 39
0.25
 10
-111.4151090716269
 20
733.2906530542673
 30
0.0
 11
-111.4151090716269
 21
738.6906530542672
 31
0.0
1001
AUSTER_ANSICHT
1002
{
1000
Det03
1002
}
1001
AUSTER_FOLIE
1002
{
1000
NSB00777_S2_WENDE
1002
}
  0
LINE
  5
12318
330
20
100
AcDbEntity
  8
10000_FRONT
  6
Continuous
 62
     7
370
    20
100
AcDbLine
 39
0.25
 10
-106.9151090716269
 20
733.2906530542673
 30
0.0
 11
-111.4151090716269
 21
733.2906530542673
 31
0.0
1001
AUSTER_ANSICHT
1002
{
1000
Det03
1002
}
1001
AUSTER_FOLIE
1002
{
1000
NSB00777_S2_WENDE
1002
}
  0
LINE
  5
12319
330
20
100
AcDbEntity
  8
10000_FRONT
  6
Continuous
 62
     7
370
    20
100
AcDbLine
 39
0.25
 10
-106.9151090716269
 20
738.6906530542672
 30
0.0
 11
-106.9151090716269
 21
733.2906530542673
 31
0.0
1001
AUSTER_ANSICHT
1002
{
1000
Det03
1002
}
1001
AUSTER_FOLIE
1002
{
1000
NSB00777_S2_WENDE
1002
}
  0
LINE
  5
1231A
330
20
100
AcDbEntity
  8
10000_FRONT
  6
Continuous
 62
     7
370
    20
100
AcDbLine
 39
0.25
 10
-107.2346390716269
 20
738.9906530542672
 30
0.0
 11
-106.9151090716269
 21
738.6906530542672
 31
0.0
1001
AUSTER_ANSICHT
1002
{
1000
Det03
1002
}
1001
AUSTER_FOLIE
1002
{
1000
NSB00777_S2_WENDE
1002
}
  0
LINE
  5
1231B
330
20
100
AcDbEntity
  8
10000_FRONT
  6
Continuous
 62
     7
370
    20
100
AcDbLine
 39
0.25
 10
-111.0955790716269
 20
738.9906530542672
 30
0.0
 11
-107.2346390716269
 21
738.9906530542672
 31
0.0
1001
AUSTER_ANSICHT
1002
{
1000
Det03
1002
}
1001
AUSTER_FOLIE
1002
{
1000
NSB00777_S2_WENDE
1002
}
  0
LINE
  5
1231C
330
20
100
AcDbEntity
  8
10000_FRONT
  6
Continuous
 62
     7
370
    20
100
AcDbLine
 39
0.25
 10
-111.4151090716269
 20
738.6906530542672
 30
0.0
 11
-111.0955790716269
 21
738.9906530542672
 31
0.0
1001
AUSTER_ANSICHT
1002
{
1000
Det03
1002
}
1001
AUSTER_FOLIE
1002
{
1000
NSB00777_S2_WENDE
1002
}
  0
LINE
  5
1231D
330
20
100
AcDbEntity
  8
10000_FRONT
  6
Continuous
 62
     7
370
    20
100
AcDbLine
 39
0.25
 10
-124.7651090716269
 20
752.4406530542672
 30
0.0
 11
-115.5651090716269
 21
752.4406530542672
 31
0.0
1001
AUSTER_ANSICHT
1002
{
1000
Det03
1002
}
1001
AUSTER_FOLIE
1002
{
1000
NSB00777_S2_WENDE
1002
}
  0
LINE
  5
1231E
330
20
100
AcDbEntity
  8
10000_FRONT
  6
Continuous
 62
     7
370
    20
100
AcDbLine
 39
0.25
 10
-117.9651090716269
 20
748.8906530542672
 30
0.0
 11
-117.9651090716269
 21
744.3906530542673
 31
0.0
1001
AUSTER_ANSICHT
1002
{
1000
Det03
1002
}
1001
AUSTER_FOLIE
1002
{
1000
NSB00777_S2_WENDE
1002
}
  0
LINE
  5
1231F
330
20
100
AcDbEntity
  8
10000_FRONT
  6
Continuous
 62
     7
370
    20
100
AcDbLine
 39
0.25
 10
-122.3651090716269
 20
748.8906530542672
 30
0.0
 11
-122.3651090716269
 21
744.3906530542673
 31
0.0
1001
AUSTER_ANSICHT
1002
{
1000
Det03
1002
}
1001
AUSTER_FOLIE
1002
{
1000
NSB00777_S2_WENDE
1002
}
  0
LINE
  5
12320
330
20
100
AcDbEntity
  8
10000_FRONT
  6
Continuous
 62
     7
370
    20
100
AcDbLine
 39
0.25
 10
-116.2651090716269
 20
730.1906530542672
 30
0.0
 11
-117.5651090716269
 21
730.1906530542672
 31
0.0
1001
AUSTER_ANSICHT
1002
{
1000
Det03
1002
}
1001
AUSTER_FOLIE
1002
{
1000
NSB00777_S2_WENDE
1002
}
  0
LINE
  5
12321
330
20
100
AcDbEntity
  8
10000_FRONT
  6
Continuous
 62
     7
370
    20
100
AcDbLine
 39
0.25
 10
-124.0651090716269
 20
730.1906530542672
 30
0.0
 11
-124.0651090716269
 21
744.3906530542673
 31
0.0
1001
AUSTER_ANSICHT
1002
{
1000
Det03
1002
}
1001
AUSTER_FOLIE
1002
{
1000
NSB00777_S2_WENDE
1002
}
  0
LINE
  5
12322
330
20
100
AcDbEntity
  8
10000_FRONT
  6
Continuous
 62
     7
370
    20
100
AcDbLine
 39
0.25
 10
-122.7651090716269
 20
730.1906530542672
 30
0.0
 11
-124.0651090716269
 21
730.1906530542672
 31
0.0
1001
AUSTER_ANSICHT
1002
{
1000
Det03
1002
}
1001
AUSTER_FOLIE
1002
{
1000
NSB00777_S2_WENDE
1002
}
  0
LINE
  5
12323
330
20
100
AcDbEntity
  8
10000_FRONT
  6
Continuous
 62
     7
370
    20
100
AcDbLine
 39
0.25
 10
-117.5651090716269
 20
725.9406530542673
 30
0.0
 11
-117.5651090716269
 21
730.1906530542672
 31
0.0
1001
AUSTER_ANSICHT
1002
{
1000
Det03
1002
}
1001
AUSTER_FOLIE
1002
{
1000
NSB00777_S2_WENDE
1002
}
  0
LINE
  5
12324
330
20
100
AcDbEntity
  8
10000_FRONT
  6
Continuous
 62
     7
370
    20
100
AcDbLine
 39
0.25
 10
-122.7651090716269
 20
730.1906530542672
 30
0.0
 11
-122.7651090716269
 21
725.9406530542673
 31
0.0
1001
AUSTER_ANSICHT
1002
{
1000
Det03
1002
}
1001
AUSTER_FOLIE
1002
{
1000
NSB00777_S2_WENDE
1002
}
  0
LINE
  5
12325
330
20
100
AcDbEntity
  8
10000_FRONT
  6
Continuous
 62
     7
370
    20
100
AcDbLine
 39
0.25
 10
-116.2651090716269
 20
744.3906530542673
 30
0.0
 11
-117.9651090716269
 21
744.3906530542673
 31
0.0
1001
AUSTER_ANSICHT
1002
{
1000
Det03
1002
}
1001
AUSTER_FOLIE
1002
{
1000
NSB00777_S2_WENDE
1002
}
  0
LINE
  5
12326
330
20
100
AcDbEntity
  8
10000_FRONT
  6
Continuous
 62
     7
370
    20
100
AcDbLine
 39
0.25
 10
-127.2651090716269
 20
744.3906530542673
 30
0.0
 11
-128.9651090716269
 21
744.3906530542673
 31
0.0
1001
AUSTER_ANSICHT
1002
{
1000
Det03
1002
}
1001
AUSTER_FOLIE
1002
{
1000
NSB00777_S2_WENDE
1002
}
  0
LINE
  5
12327
330
20
100
AcDbEntity
  8
10000_FRONT
  6
Continuous
 62
     7
370
    20
100
AcDbLine
 39
0.25
 10
-124.0651090716269
 20
744.3906530542673
 30
0.0
 11
-122.3651090716269
 21
744.3906530542673
 31
0.0
1001
AUSTER_ANSICHT
1002
{
1000
Det03
1002
}
1001
AUSTER_FOLIE
1002
{
1000
NSB00777_S2_WENDE
1002
}
  0
LINE
  5
12328
330
20
100
AcDbEntity
  8
10000_FRONT
  6
Continuous
 62
     7
370
    20
100
AcDbLine
 39
0.25
 10
-122.4151090716269
 20
733.2906530542673
 30
0.0
 11
-122.4151090716269
 21
738.6906530542672
 31
0.0
1001
AUSTER_ANSICHT
1002
{
1000
Det03
1002
}
1001
AUSTER_FOLIE
1002
{
1000
NSB00777_S2_WENDE
1002
}
  0
LINE
  5
12329
330
20
100
AcDbEntity
  8
10000_FRONT
  6
Continuous
 62
     7
370
    20
100
AcDbLine
 39
0.25
 10
-117.9151090716269
 20
733.2906530542673
 30
0.0
 11
-122.4151090716269
 21
733.2906530542673
 31
0.0
1001
AUSTER_ANSICHT
1002
{
1000
Det03
1002
}
1001
AUSTER_FOLIE
1002
{
1000
NSB00777_S2_WENDE
1002
}
  0
LINE
  5
1232A
330
20
100
AcDbEntity
  8
10000_FRONT
  6
Continuous
 62
     7
370
    20
100
AcDbLine
 39
0.25
 10
-117.9151090716269
 20
738.6906530542672
 30
0.0
 11
-117.9151090716269
 21
733.2906530542673
 31
0.0
1001
AUSTER_ANSICHT
1002
{
1000
Det03
1002
}
1001
AUSTER_FOLIE
1002
{
1000
NSB00777_S2_WENDE
1002
}
  0
LINE
  5
1232B
330
20
100
AcDbEntity
  8
10000_FRONT
  6
Continuous
 62
     7
370
    20
100
AcDbLine
 39
0.25
 10
-118.2346390716269
 20
738.9906530542672
 30
0.0
 11
-117.9151090716269
 21
738.6906530542672
 31
0.0
1001
AUSTER_ANSICHT
1002
{
1000
Det03
1002
}
1001
AUSTER_FOLIE
1002
{
1000
NSB00777_S2_WENDE
1002
}
  0
LINE
  5
1232C
330
20
100
AcDbEntity
  8
10000_FRONT
  6
Continuous
 62
     7
370
    20
100
AcDbLine
 39
0.25
 10
-122.0955790716269
 20
738.9906530542672
 30
0.0
 11
-118.2346390716269
 21
738.9906530542672
 31
0.0
1001
AUSTER_ANSICHT
1002
{
1000
Det03
1002
}
1001
AUSTER_FOLIE
1002
{
1000
NSB00777_S2_WENDE
1002
}
  0
LINE
  5
1232D
330
20
100
AcDbEntity
  8
10000_FRONT
  6
Continuous
 62
     7
370
    20
100
AcDbLine
 39
0.25
 10
-122.4151090716269
 20
738.6906530542672
 30
0.0
 11
-122.0955790716269
 21
738.9906530542672
 31
0.0
1001
AUSTER_ANSICHT
1002
{
1000
Det03
1002
}
1001
AUSTER_FOLIE
1002
{
1000
NSB00777_S2_WENDE
1002
}
  0
LINE
  5
1232E
330
20
100
AcDbEntity
  8
10000_FRONT
  6
Continuous
 62
     7
370
    20
100
AcDbLine
 39
0.25
 10
-128.5651090716269
 20
725.9406530542673
 30
0.0
 11
-128.5651090716269
 21
730.1906530542672
 31
0.0
1001
AUSTER_ANSICHT
1002
{
1000
Det03
1002
}
1001
AUSTER_FOLIE
1002
{
1000
NSB00777_S2_WENDE
1002
}
  0
LINE
  5
1232F
330
20
100
AcDbEntity
  8
10000_FRONT
  6
Continuous
 62
     7
370
    20
100
AcDbLine
 39
0.25
 10
-133.7651090716269
 20
730.1906530542672
 30
0.0
 11
-133.7651090716269
 21
725.9406530542673
 31
0.0
1001
AUSTER_ANSICHT
1002
{
1000
Det03
1002
}
1001
AUSTER_FOLIE
1002
{
1000
NSB00777_S2_WENDE
1002
}
  0
LINE
  5
12330
330
20
100
AcDbEntity
  8
10000_FRONT
  6
Continuous
 62
     7
370
    20
100
AcDbLine
 39
0.25
 10
-135.0651090716269
 20
744.3906530542673
 30
0.0
 11
-133.3651090716269
 21
744.3906530542673
 31
0.0
1001
AUSTER_ANSICHT
1002
{
1000
Det03
1002
}
1001
AUSTER_FOLIE
1002
{
1000
NSB00777_S2_WENDE
1002
}
  0
LINE
  5
12331
330
20
100
AcDbEntity
  8
10000_FRONT
  6
Continuous
 62
     7
370
    20
100
AcDbLine
 39
0.25
 10
-133.4151090716269
 20
733.2906530542673
 30
0.0
 11
-133.4151090716269
 21
738.6906530542672
 31
0.0
1001
AUSTER_ANSICHT
1002
{
1000
Det03
1002
}
1001
AUSTER_FOLIE
1002
{
1000
NSB00777_S2_WENDE
1002
}
  0
LINE
  5
12332
330
20
100
AcDbEntity
  8
10000_FRONT
  6
Continuous
 62
     7
370
    20
100
AcDbLine
 39
0.25
 10
-128.9151090716269
 20
733.2906530542673
 30
0.0
 11
-133.4151090716269
 21
733.2906530542673
 31
0.0
1001
AUSTER_ANSICHT
1002
{
1000
Det03
1002
}
1001
AUSTER_FOLIE
1002
{
1000
NSB00777_S2_WENDE
1002
}
  0
LINE
  5
12333
330
20
100
AcDbEntity
  8
10000_FRONT
  6
Continuous
 62
     7
370
    20
100
AcDbLine
 39
0.25
 10
-128.9151090716269
 20
738.6906530542672
 30
0.0
 11
-128.9151090716269
 21
733.2906530542673
 31
0.0
1001
AUSTER_ANSICHT
1002
{
1000
Det03
1002
}
1001
AUSTER_FOLIE
1002
{
1000
NSB00777_S2_WENDE
1002
}
  0
LINE
  5
12334
330
20
100
AcDbEntity
  8
10000_FRONT
  6
Continuous
 62
     7
370
    20
100
AcDbLine
 39
0.25
 10
-129.2346390716269
 20
738.9906530542672
 30
0.0
 11
-128.9151090716269
 21
738.6906530542672
 31
0.0
1001
AUSTER_ANSICHT
1002
{
1000
Det03
1002
}
1001
AUSTER_FOLIE
1002
{
1000
NSB00777_S2_WENDE
1002
}
  0
LINE
  5
12335
330
20
100
AcDbEntity
  8
10000_FRONT
  6
Continuous
 62
     7
370
    20
100
AcDbLine
 39
0.25
 10
-133.0955790716269
 20
738.9906530542672
 30
0.0
 11
-129.2346390716269
 21
738.9906530542672
 31
0.0
1001
AUSTER_ANSICHT
1002
{
1000
Det03
1002
}
1001
AUSTER_FOLIE
1002
{
1000
NSB00777_S2_WENDE
1002
}
  0
LINE
  5
12336
330
20
100
AcDbEntity
  8
10000_FRONT
  6
Continuous
 62
     7
370
    20
100
AcDbLine
 39
0.25
 10
-133.4151090716269
 20
738.6906530542672
 30
0.0
 11
-133.0955790716269
 21
738.9906530542672
 31
0.0
1001
AUSTER_ANSICHT
1002
{
1000
Det03
1002
}
1001
AUSTER_FOLIE
1002
{
1000
NSB00777_S2_WENDE
1002
}
  0
LINE
  5
12337
330
20
100
AcDbEntity
  8
10000_FRONT
  6
Continuous
 62
     7
370
    20
100
AcDbLine
 39
0.25
 10
-93.56510907162693
 20
748.8906530542672
 30
0.0
 11
-93.56510907162693
 21
752.4406530542672
 31
0.0
1001
AUSTER_ANSICHT
1002
{
1000
Det03
1002
}
1001
AUSTER_FOLIE
1002
{
1000
NSB00777_S2_WENDE
1002
}
  0
LINE
  5
12338
330
20
100
AcDbEntity
  8
10000_FRONT
  6
Continuous
 62
     7
370
    20
100
AcDbLine
 39
0.25
 10
-95.96510907162691
 20
748.8906530542672
 30
0.0
 11
-93.56510907162693
 21
748.8906530542672
 31
0.0
1001
AUSTER_ANSICHT
1002
{
1000
Det03
1002
}
1001
AUSTER_FOLIE
1002
{
1000
NSB00777_S2_WENDE
1002
}
  0
LINE
  5
12339
330
20
100
AcDbEntity
  8
10000_FRONT
  6
Continuous
 62
     7
370
    20
100
AcDbLine
 39
0.25
 10
-102.7651090716269
 20
748.8906530542672
 30
0.0
 11
-100.3651090716269
 21
748.8906530542672
 31
0.0
1001
AUSTER_ANSICHT
1002
{
1000
Det03
1002
}
1001
AUSTER_FOLIE
1002
{
1000
NSB00777_S2_WENDE
1002
}
  0
LINE
  5
1233A
330
20
100
AcDbEntity
  8
10000_FRONT
  6
Continuous
 62
     7
370
    20
100
AcDbLine
 39
0.25
 10
-102.7651090716269
 20
752.4406530542672
 30
0.0
 11
-102.7651090716269
 21
748.8906530542672
 31
0.0
1001
AUSTER_ANSICHT
1002
{
1000
Det03
1002
}
1001
AUSTER_FOLIE
1002
{
1000
NSB00777_S2_WENDE
1002
}
  0
LINE
  5
1233B
330
20
100
AcDbEntity
  8
10000_FRONT
  6
Continuous
 62
     7
370
    20
100
AcDbLine
 39
0.25
 10
-104.5651090716269
 20
748.8906530542672
 30
0.0
 11
-104.5651090716269
 21
752.4406530542672
 31
0.0
1001
AUSTER_ANSICHT
1002
{
1000
Det03
1002
}
1001
AUSTER_FOLIE
1002
{
1000
NSB00777_S2_WENDE
1002
}
  0
LINE
  5
1233C
330
20
100
AcDbEntity
  8
10000_FRONT
  6
Continuous
 62
     7
370
    20
100
AcDbLine
 39
0.25
 10
-106.9651090716269
 20
748.8906530542672
 30
0.0
 11
-104.5651090716269
 21
748.8906530542672
 31
0.0
1001
AUSTER_ANSICHT
1002
{
1000
Det03
1002
}
1001
AUSTER_FOLIE
1002
{
1000
NSB00777_S2_WENDE
1002
}
  0
LINE
  5
1233D
330
20
100
AcDbEntity
  8
10000_FRONT
  6
Continuous
 62
     7
370
    20
100
AcDbLine
 39
0.25
 10
-113.7651090716269
 20
748.8906530542672
 30
0.0
 11
-111.3651090716269
 21
748.8906530542672
 31
0.0
1001
AUSTER_ANSICHT
1002
{
1000
Det03
1002
}
1001
AUSTER_FOLIE
1002
{
1000
NSB00777_S2_WENDE
1002
}
  0
LINE
  5
1233E
330
20
100
AcDbEntity
  8
10000_FRONT
  6
Continuous
 62
     7
370
    20
100
AcDbLine
 39
0.25
 10
-113.7651090716269
 20
752.4406530542672
 30
0.0
 11
-113.7651090716269
 21
748.8906530542672
 31
0.0
1001
AUSTER_ANSICHT
1002
{
1000
Det03
1002
}
1001
AUSTER_FOLIE
1002
{
1000
NSB00777_S2_WENDE
1002
}
  0
LINE
  5
1233F
330
20
100
AcDbEntity
  8
10000_FRONT
  6
Continuous
 62
     7
370
    20
100
AcDbLine
 39
0.25
 10
-115.5651090716269
 20
748.8906530542672
 30
0.0
 11
-115.5651090716269
 21
752.4406530542672
 31
0.0
1001
AUSTER_ANSICHT
1002
{
1000
Det03
1002
}
1001
AUSTER_FOLIE
1002
{
1000
NSB00777_S2_WENDE
1002
}
  0
LINE
  5
12340
330
20
100
AcDbEntity
  8
10000_FRONT
  6
Continuous
 62
     7
370
    20
100
AcDbLine
 39
0.25
 10
-117.9651090716269
 20
748.8906530542672
 30
0.0
 11
-115.5651090716269
 21
748.8906530542672
 31
0.0
1001
AUSTER_ANSICHT
1002
{
1000
Det03
1002
}
1001
AUSTER_FOLIE
1002
{
1000
NSB00777_S2_WENDE
1002
}
  0
LINE
  5
12341
330
20
100
AcDbEntity
  8
10000_FRONT
  6
Continuous
 62
     7
370
    20
100
AcDbLine
 39
0.25
 10
-124.7651090716269
 20
748.8906530542672
 30
0.0
 11
-122.3651090716269
 21
748.8906530542672
 31
0.0
1001
AUSTER_ANSICHT
1002
{
1000
Det03
1002
}
1001
AUSTER_FOLIE
1002
{
1000
NSB00777_S2_WENDE
1002
}
  0
LINE
  5
12342
330
20
100
AcDbEntity
  8
10000_FRONT
  6
Continuous
 62
     7
370
    20
100
AcDbLine
 39
0.25
 10
-124.7651090716269
 20
752.4406530542672
 30
0.0
 11
-124.7651090716269
 21
748.8906530542672
 31
0.0
1001
AUSTER_ANSICHT
1002
{
1000
Det03
1002
}
1001
AUSTER_FOLIE
1002
{
1000
NSB00777_S2_WENDE
1002
}
  0
LINE
  5
12343
330
20
100
AcDbEntity
  8
10000_FRONT
  6
Continuous
 62
     7
370
    20
100
AcDbLine
 39
0.25
 10
-126.5651090716269
 20
748.8906530542672
 30
0.0
 11
-126.5651090716269
 21
752.4406530542672
 31
0.0
1001
AUSTER_ANSICHT
1002
{
1000
Det03
1002
}
1001
AUSTER_FOLIE
1002
{
1000
NSB00777_S2_WENDE
1002
}
  0
LINE
  5
12344
330
20
100
AcDbEntity
  8
10000_FRONT
  6
Continuous
 62
     7
370
    20
100
AcDbLine
 39
0.25
 10
-128.9651090716269
 20
748.8906530542672
 30
0.0
 11
-126.5651090716269
 21
748.8906530542672
 31
0.0
1001
AUSTER_ANSICHT
1002
{
1000
Det03
1002
}
1001
AUSTER_FOLIE
1002
{
1000
NSB00777_S2_WENDE
1002
}
  0
LINE
  5
12345
330
20
100
AcDbEntity
  8
10000_FRONT
  6
Continuous
 62
     7
370
    20
100
AcDbLine
 39
0.25
 10
-135.7651090716269
 20
748.8906530542672
 30
0.0
 11
-133.3651090716269
 21
748.8906530542672
 31
0.0
1001
AUSTER_ANSICHT
1002
{
1000
Det03
1002
}
1001
AUSTER_FOLIE
1002
{
1000
NSB00777_S2_WENDE
1002
}
  0
LINE
  5
12346
330
20
100
AcDbEntity
  8
10000_FRONT
  6
Continuous
 62
     7
370
    20
100
AcDbLine
 39
0.25
 10
-135.7651090716269
 20
752.4406530542672
 30
0.0
 11
-135.7651090716269
 21
748.8906530542672
 31
0.0
1001
AUSTER_ANSICHT
1002
{
1000
Det03
1002
}
1001
AUSTER_FOLIE
1002
{
1000
NSB00777_S2_WENDE
1002
}
  0
LINE
  5
12347
330
20
100
AcDbEntity
  8
10000_FRONT
  6
Continuous
 62
     7
370
    20
100
AcDbLine
 39
0.25
 10
-106.6801090716269
 20
757.5420530542673
 30
0.0
 11
-106.6801090716269
 21
757.7223530542672
 31
0.0
1001
AUSTER_ANSICHT
1002
{
1000
Det03
1002
}
1001
AUSTER_FOLIE
1002
{
1000
NSB00777_S2_WENDE
1002
}
  0
LINE
  5
12348
330
20
100
AcDbEntity
  8
10000_FRONT
  6
Continuous
 62
     7
370
    20
100
AcDbLine
 39
0.25
 10
-106.6801090716269
 20
759.1112530542674
 30
0.0
 11
-106.6801090716269
 21
758.9309530542672
 31
0.0
1001
AUSTER_ANSICHT
1002
{
1000
Det03
1002
}
1001
AUSTER_FOLIE
1002
{
1000
NSB00777_S2_WENDE
1002
}
  0
LINE
  5
12349
330
20
100
AcDbEntity
  8
10000_FRONT
  6
Continuous
 62
     7
370
    20
100
AcDbLine
 39
0.25
 10
-105.6501090716269
 20
757.5420530542673
 30
0.0
 11
-105.6501090716269
 21
757.7223530542672
 31
0.0
1001
AUSTER_ANSICHT
1002
{
1000
Det03
1002
}
1001
AUSTER_FOLIE
1002
{
1000
NSB00777_S2_WENDE
1002
}
  0
LINE
  5
1234A
330
20
100
AcDbEntity
  8
10000_FRONT
  6
Continuous
 62
     7
370
    20
100
AcDbLine
 39
0.25
 10
-105.6501090716269
 20
759.1112530542674
 30
0.0
 11
-105.6501090716269
 21
758.9309530542672
 31
0.0
1001
AUSTER_ANSICHT
1002
{
1000
Det03
1002
}
1001
AUSTER_FOLIE
1002
{
1000
NSB00777_S2_WENDE
1002
}
  0
LINE
  5
1234B
330
20
100
AcDbEntity
  8
10000_FRONT
  6
Continuous
 62
     7
370
    20
100
AcDbLine
 39
0.25
 10
-106.6801090716269
 20
757.5420530542673
 30
0.0
 11
-106.6801090716269
 21
756.5497530542671
 31
0.0
1001
AUSTER_ANSICHT
1002
{
1000
Det03
1002
}
1001
AUSTER_FOLIE
1002
{
1000
NSB00777_S2_WENDE
1002
}
  0
LINE
  5
1234C
330
20
100
AcDbEntity
  8
10000_FRONT
  6
Continuous
 62
     7
370
    20
100
AcDbLine
 39
0.25
 10
-105.6501090716269
 20
756.5497530542671
 30
0.0
 11
-105.6501090716269
 21
757.5420530542673
 31
0.0
1001
AUSTER_ANSICHT
1002
{
1000
Det03
1002
}
1001
AUSTER_FOLIE
1002
{
1000
NSB00777_S2_WENDE
1002
}
  0
LINE
  5
1234D
330
20
100
AcDbEntity
  8
10000_FRONT
  6
Continuous
 62
     7
370
    20
100
AcDbLine
 39
0.25
 10
-105.6501090716269
 20
759.1112530542674
 30
0.0
 11
-105.6501090716269
 21
760.1035530542673
 31
0.0
1001
AUSTER_ANSICHT
1002
{
1000
Det03
1002
}
1001
AUSTER_FOLIE
1002
{
1000
NSB00777_S2_WENDE
1002
}
  0
LINE
  5
1234E
330
20
100
AcDbEntity
  8
10000_FRONT
  6
Continuous
 62
     7
370
    20
100
AcDbLine
 39
0.25
 10
-103.3794090716269
 20
758.9309530542672
 30
0.0
 11
-105.6501090716269
 21
758.9309530542672
 31
0.0
1001
AUSTER_ANSICHT
1002
{
1000
Det03
1002
}
1001
AUSTER_FOLIE
1002
{
1000
NSB00777_S2_WENDE
1002
}
  0
LINE
  5
1234F
330
20
100
AcDbEntity
  8
10000_FRONT
  6
Continuous
 62
     7
370
    20
100
AcDbLine
 39
0.25
 10
-105.6501090716269
 20
757.7223530542672
 30
0.0
 11
-103.3794090716269
 21
757.7223530542672
 31
0.0
1001
AUSTER_ANSICHT
1002
{
1000
Det03
1002
}
1001
AUSTER_FOLIE
1002
{
1000
NSB00777_S2_WENDE
1002
}
  0
LINE
  5
12350
330
20
100
AcDbEntity
  8
10000_FRONT
  6
Continuous
 62
     7
370
    20
100
AcDbLine
 39
0.25
 10
-108.9508090716269
 20
757.7223530542672
 30
0.0
 11
-106.6801090716269
 21
757.7223530542672
 31
0.0
1001
AUSTER_ANSICHT
1002
{
1000
Det03
1002
}
1001
AUSTER_FOLIE
1002
{
1000
NSB00777_S2_WENDE
1002
}
  0
LINE
  5
12351
330
20
100
AcDbEntity
  8
10000_FRONT
  6
Continuous
 62
     7
370
    20
100
AcDbLine
 39
0.25
 10
-89.5651040716269
 20
781.3266530542672
 30
0.0
 11
-103.4651090716269
 21
781.3266530542672
 31
0.0
1001
AUSTER_ANSICHT
1002
{
1000
Det03
1002
}
1001
AUSTER_FOLIE
1002
{
1000
NSB00777_S2_WENDE
1002
}
  0
LINE
  5
12352
330
20
100
AcDbEntity
  8
10000_FRONT
  6
Continuous
 62
     7
370
    20
100
AcDbLine
 39
0.25
 10
-135.0151190716269
 20
720.4311530542672
 30
0.0
 11
-94.81511507162693
 21
720.4311530542672
 31
0.0
1001
AUSTER_ANSICHT
1002
{
1000
Det03
1002
}
1001
AUSTER_FOLIE
1002
{
1000
NSB00777_S2_WENDE
1002
}
  0
LINE
  5
12353
330
20
100
AcDbEntity
  8
10000_FRONT
  6
Continuous
 62
     7
370
    20
100
AcDbLine
 39
0.25
 10
-106.6801090716269
 20
758.9309530542672
 30
0.0
 11
-108.9508090716269
 21
758.9309530542672
 31
0.0
1001
AUSTER_ANSICHT
1002
{
1000
Det03
1002
}
1001
AUSTER_FOLIE
1002
{
1000
NSB00777_S2_WENDE
1002
}
  0
LINE
  5
12354
330
20
100
AcDbEntity
  8
10000_FRONT
  6
Continuous
 62
     7
370
    20
100
AcDbLine
 39
0.25
 10
-106.6801090716269
 20
760.1035530542673
 30
0.0
 11
-106.6801090716269
 21
759.1112530542674
 31
0.0
1001
AUSTER_ANSICHT
1002
{
1000
Det03
1002
}
1001
AUSTER_FOLIE
1002
{
1000
NSB00777_S2_WENDE
1002
}
  0
LINE
  5
12355
330
20
100
AcDbEntity
  8
10000_FRONT
  6
Continuous
 62
     7
370
    20
100
AcDbLine
 39
0.25
 10
-78.41510907162692
 20
714.8266530542672
 30
0.0
 11
-78.41510907162692
 21
700.8266530542672
 31
0.0
1001
AUSTER_ANSICHT
1002
{
1000
Det03
1002
}
1001
AUSTER_FOLIE
1002
{
1000
NSB00777_S2_WENDE
1002
}
  0
LINE
  5
12356
330
20
100
AcDbEntity
  8
10000_FRONT
  6
Continuous
 62
     7
370
    20
100
AcDbLine
 39
0.25
 10
-86.41510907162691
 20
714.8266530542672
 30
0.0
 11
-78.41510907162692
 21
714.8266530542672
 31
0.0
1001
AUSTER_ANSICHT
1002
{
1000
Det03
1002
}
1001
AUSTER_FOLIE
1002
{
1000
NSB00777_S2_WENDE
1002
}
  0
LINE
  5
12357
330
20
100
AcDbEntity
  8
10000_FRONT
  6
Continuous
 62
     7
370
    20
100
AcDbLine
 39
0.25
 10
-86.41510907162691
 20
700.8266530542672
 30
0.0
 11
-86.41510907162691
 21
714.8266530542672
 31
0.0
1001
AUSTER_ANSICHT
1002
{
1000
Det03
1002
}
1001
AUSTER_FOLIE
1002
{
1000
NSB00777_S2_WENDE
1002
}
  0
LINE
  5
12358
330
20
100
AcDbEntity
  8
10000_FRONT
  6
Continuous
 62
     7
370
    20
100
AcDbLine
 39
0.25
 10
-78.41510907162692
 20
758.8266530542672
 30
0.0
 11
-78.41510907162692
 21
772.8266530542672
 31
0.0
1001
AUSTER_ANSICHT
1002
{
1000
Det03
1002
}
1001
AUSTER_FOLIE
1002
{
1000
NSB00777_S2_WENDE
1002
}
  0
LINE
  5
12359
330
20
100
AcDbEntity
  8
10000_FRONT
  6
Continuous
 62
     7
370
    20
100
AcDbLine
 39
0.25
 10
-86.41510907162691
 20
758.8266530542672
 30
0.0
 11
-78.41510907162692
 21
758.8266530542672
 31
0.0
1001
AUSTER_ANSICHT
1002
{
1000
Det03
1002
}
1001
AUSTER_FOLIE
1002
{
1000
NSB00777_S2_WENDE
1002
}
  0
LINE
  5
1235A
330
20
100
AcDbEntity
  8
10000_FRONT
  6
Continuous
 62
     7
370
    20
100
AcDbLine
 39
0.25
 10
-86.41510907162691
 20
772.8266530542672
 30
0.0
 11
-86.41510907162691
 21
758.8266530542672
 31
0.0
1001
AUSTER_ANSICHT
1002
{
1000
Det03
1002
}
1001
AUSTER_FOLIE
1002
{
1000
NSB00777_S2_WENDE
1002
}
  0
LINE
  5
1235B
330
20
100
AcDbEntity
  8
10000_FRONT
  6
Continuous
 62
     7
370
    20
100
AcDbLine
 39
0.25
 10
-56.2350190716269
 20
779.3067530542672
 30
0.0
 11
-74.2360190716269
 21
779.3067530542672
 31
0.0
1001
AUSTER_ANSICHT
1002
{
1000
Det03
1002
}
1001
AUSTER_FOLIE
1002
{
1000
NSB00777_S2_WENDE
1002
}
  0
LINE
  5
1235C
330
20
100
AcDbEntity
  8
10000_FRONT
  6
Continuous
 62
     7
370
    20
100
AcDbLine
 39
0.25
 10
-25.73601907162692
 20
779.3067530542672
 30
0.0
 11
-43.6350190716269
 21
779.3067530542672
 31
0.0
1001
AUSTER_ANSICHT
1002
{
1000
Det03
1002
}
1001
AUSTER_FOLIE
1002
{
1000
NSB00777_S2_WENDE
1002
}
  0
LINE
  5
1235D
330
20
100
AcDbEntity
  8
10000_FRONT
  6
Continuous
 62
     7
370
    50
100
AcDbLine
 39
0.25
 10
-24.16510907162692
 20
694.3266530542672
 30
0.0
 11
-24.16510907162692
 21
692.7266530542672
 31
0.0
1001
AUSTER_ANSICHT
1002
{
1000
Det03
1002
}
1001
AUSTER_FOLIE
1002
{
1000
NSB00777_S2_WENDE
1002
}
  0
LINE
  5
1235E
330
20
100
AcDbEntity
  8
10000_FRONT
  6
Continuous
 62
     7
370
    20
100
AcDbLine
 39
0.25
 10
-75.6651090716269
 20
692.7266530542672
 30
0.0
 11
-75.6651090716269
 21
694.3266530542672
 31
0.0
1001
AUSTER_ANSICHT
1002
{
1000
Det03
1002
}
1001
AUSTER_FOLIE
1002
{
1000
NSB00777_S2_WENDE
1002
}
  0
LINE
  5
1235F
330
20
100
AcDbEntity
  8
10000_FRONT
  6
Continuous
 62
     7
370
    20
100
AcDbLine
 39
0.25
 10
-75.66509907162689
 20
779.3266530542672
 30
0.0
 11
-75.66509907162689
 21
780.9266530542672
 31
0.0
1001
AUSTER_ANSICHT
1002
{
1000
Det03
1002
}
1001
AUSTER_FOLIE
1002
{
1000
NSB00777_S2_WENDE
1002
}
  0
LINE
  5
12360
330
20
100
AcDbEntity
  8
10000_FRONT
  6
Continuous
 62
     7
370
    20
100
AcDbLine
 39
0.25
 10
-24.16509907162691
 20
780.9266530542672
 30
0.0
 11
-24.16509907162691
 21
779.3266530542672
 31
0.0
1001
AUSTER_ANSICHT
1002
{
1000
Det03
1002
}
1001
AUSTER_FOLIE
1002
{
1000
NSB00777_S2_WENDE
1002
}
  0
LINE
  5
12361
330
20
100
AcDbEntity
  8
10000_FRONT
  6
Continuous
 62
     7
370
    20
100
AcDbLine
 39
0.25
 10
-23.91510907162691
 20
694.3266530542672
 30
0.0
 11
-75.91510907162692
 21
694.3266530542672
 31
0.0
1001
AUSTER_ANSICHT
1002
{
1000
Det03
1002
}
1001
AUSTER_FOLIE
1002
{
1000
NSB00777_S2_WENDE
1002
}
  0
LINE
  5
12362
330
20
100
AcDbEntity
  8
10000_FRONT
  6
Continuous
 62
     7
370
    20
100
AcDbLine
 39
0.25
 10
-27.41510907162691
 20
721.2266530542672
 30
0.0
 11
-72.4151090716269
 21
721.2266530542672
 31
0.0
1001
AUSTER_ANSICHT
1002
{
1000
Det03
1002
}
1001
AUSTER_FOLIE
1002
{
1000
NSB00777_S2_WENDE
1002
}
  0
LINE
  5
12363
330
20
100
AcDbEntity
  8
10000_FRONT
  6
Continuous
 62
     7
370
    20
100
AcDbLine
 39
0.25
 10
-27.41510907162691
 20
753.8266530542672
 30
0.0
 11
-27.41510907162691
 21
721.2266530542672
 31
0.0
1001
AUSTER_ANSICHT
1002
{
1000
Det03
1002
}
1001
AUSTER_FOLIE
1002
{
1000
NSB00777_S2_WENDE
1002
}
  0
LINE
  5
12364
330
20
100
AcDbEntity
  8
10000_FRONT
  6
Continuous
 62
     7
370
    20
100
AcDbLine
 39
0.25
 10
-72.4151090716269
 20
753.8266530542672
 30
0.0
 11
-27.41510907162691
 21
753.8266530542672
 31
0.0
1001
AUSTER_ANSICHT
1002
{
1000
Det03
1002
}
1001
AUSTER_FOLIE
1002
{
1000
NSB00777_S2_WENDE
1002
}
  0
LINE
  5
12365
330
20
100
AcDbEntity
  8
10000_FRONT
  6
Continuous
 62
     7
370
    20
100
AcDbLine
 39
0.25
 10
-72.4151090716269
 20
721.2266530542672
 30
0.0
 11
-72.4151090716269
 21
753.8266530542672
 31
0.0
1001
AUSTER_ANSICHT
1002
{
1000
Det03
1002
}
1001
AUSTER_FOLIE
1002
{
1000
NSB00777_S2_WENDE
1002
}
  0
LINE
  5
12366
330
20
100
AcDbEntity
  8
10000_FRONT
  6
Continuous
 62
     7
370
    20
100
AcDbLine
 39
0.25
 10
-49.91511907162692
 20
720.4311530542672
 30
0.0
 11
-49.91511907162692
 21
712.9774530542674
 31
0.0
1001
AUSTER_ANSICHT
1002
{
1000
Det03
1002
}
1001
AUSTER_FOLIE
1002
{
1000
NSB00777_S2_WENDE
1002
}
  0
LINE
  5
12367
330
20
100
AcDbEntity
  8
10000_FRONT
  6
Continuous
 62
     7
370
    20
100
AcDbLine
 39
0.25
 10
-71.5882490716269
 20
712.9774530542674
 30
0.0
 11
-71.59585907162692
 21
719.1061530542672
 31
0.0
1001
AUSTER_ANSICHT
1002
{
1000
Det03
1002
}
1001
AUSTER_FOLIE
1002
{
1000
NSB00777_S2_WENDE
1002
}
  0
LINE
  5
12368
330
20
100
AcDbEntity
  8
10000_FRONT
  6
Continuous
 62
     7
370
    20
100
AcDbLine
 39
0.25
 10
-28.24198907162691
 20
712.9773530542673
 30
0.0
 11
-71.5882490716269
 21
712.9774530542674
 31
0.0
1001
AUSTER_ANSICHT
1002
{
1000
Det03
1002
}
1001
AUSTER_FOLIE
1002
{
1000
NSB00777_S2_WENDE
1002
}
  0
LINE
  5
12369
330
20
100
AcDbEntity
  8
10000_FRONT
  6
Continuous
 62
     7
370
    20
100
AcDbLine
 39
0.25
 10
-28.2343590716269
 20
719.1061530542672
 30
0.0
 11
-28.24198907162691
 21
712.9773530542673
 31
0.0
1001
AUSTER_ANSICHT
1002
{
1000
Det03
1002
}
1001
AUSTER_FOLIE
1002
{
1000
NSB00777_S2_WENDE
1002
}
  0
LINE
  5
1236A
330
20
100
AcDbEntity
  8
10000_FRONT
  6
Continuous
 62
     7
370
    20
100
AcDbLine
 39
0.25
 10
-29.81510907162692
 20
719.1061530542672
 30
0.0
 11
-28.2343590716269
 21
719.1061530542672
 31
0.0
1001
AUSTER_ANSICHT
1002
{
1000
Det03
1002
}
1001
AUSTER_FOLIE
1002
{
1000
NSB00777_S2_WENDE
1002
}
  0
LINE
  5
1236B
330
20
100
AcDbEntity
  8
10000_FRONT
  6
Continuous
 62
     7
370
    20
100
AcDbLine
 39
0.25
 10
-29.81510907162692
 20
720.4311530542672
 30
0.0
 11
-29.81510907162692
 21
719.1061530542672
 31
0.0
1001
AUSTER_ANSICHT
1002
{
1000
Det03
1002
}
1001
AUSTER_FOLIE
1002
{
1000
NSB00777_S2_WENDE
1002
}
  0
LINE
  5
1236C
330
20
100
AcDbEntity
  8
10000_FRONT
  6
Continuous
 62
     7
370
    20
100
AcDbLine
 39
0.25
 10
-70.01510907162689
 20
719.1061530542672
 30
0.0
 11
-70.01510907162689
 21
720.4311530542672
 31
0.0
1001
AUSTER_ANSICHT
1002
{
1000
Det03
1002
}
1001
AUSTER_FOLIE
1002
{
1000
NSB00777_S2_WENDE
1002
}
  0
LINE
  5
1236D
330
20
100
AcDbEntity
  8
10000_FRONT
  6
Continuous
 62
     7
370
    20
100
AcDbLine
 39
0.25
 10
-71.59585907162692
 20
719.1061530542672
 30
0.0
 11
-70.01510907162689
 21
719.1061530542672
 31
0.0
1001
AUSTER_ANSICHT
1002
{
1000
Det03
1002
}
1001
AUSTER_FOLIE
1002
{
1000
NSB00777_S2_WENDE
1002
}
  0
LINE
  5
1236E
330
20
100
AcDbEntity
  8
10000_FRONT
  6
Continuous
 62
     7
370
    20
100
AcDbLine
 39
0.25
 10
-24.56510907162692
 20
692.3266530542672
 30
0.0
 11
-38.4651090716269
 21
692.3266530542672
 31
0.0
1001
AUSTER_ANSICHT
1002
{
1000
Det03
1002
}
1001
AUSTER_FOLIE
1002
{
1000
NSB00777_S2_WENDE
1002
}
  0
LINE
  5
1236F
330
20
100
AcDbEntity
  8
10000_FRONT
  6
Continuous
 62
     7
370
    20
100
AcDbLine
 39
0.25
 10
-38.86510907162693
 20
694.3266530542672
 30
0.0
 11
-38.86510907162693
 21
692.7266530542672
 31
0.0
1001
AUSTER_ANSICHT
1002
{
1000
Det03
1002
}
1001
AUSTER_FOLIE
1002
{
1000
NSB00777_S2_WENDE
1002
}
  0
LINE
  5
12370
330
20
100
AcDbEntity
  8
10000_FRONT
  6
Continuous
 62
     7
370
    20
100
AcDbLine
 39
0.25
 10
-43.4651090716269
 20
694.3266530542672
 30
0.0
 11
-43.4651090716269
 21
692.7266530542672
 31
0.0
1001
AUSTER_ANSICHT
1002
{
1000
Det03
1002
}
1001
AUSTER_FOLIE
1002
{
1000
NSB00777_S2_WENDE
1002
}
  0
LINE
  5
12371
330
20
100
AcDbEntity
  8
10000_FRONT
  6
Continuous
 62
     7
370
    20
100
AcDbLine
 39
0.25
 10
-55.9651090716269
 20
692.3266530542672
 30
0.0
 11
-43.86510907162693
 21
692.3266530542672
 31
0.0
1001
AUSTER_ANSICHT
1002
{
1000
Det03
1002
}
1001
AUSTER_FOLIE
1002
{
1000
NSB00777_S2_WENDE
1002
}
  0
LINE
  5
12372
330
20
100
AcDbEntity
  8
10000_FRONT
  6
Continuous
 62
     7
370
    20
100
AcDbLine
 39
0.25
 10
-56.36510907162691
 20
694.3266530542672
 30
0.0
 11
-56.36510907162691
 21
692.7266530542672
 31
0.0
1001
AUSTER_ANSICHT
1002
{
1000
Det03
1002
}
1001
AUSTER_FOLIE
1002
{
1000
NSB00777_S2_WENDE
1002
}
  0
LINE
  5
12373
330
20
100
AcDbEntity
  8
10000_FRONT
  6
Continuous
 62
     7
370
    20
100
AcDbLine
 39
0.25
 10
-60.9651090716269
 20
694.3266530542672
 30
0.0
 11
-60.9651090716269
 21
692.7266530542672
 31
0.0
1001
AUSTER_ANSICHT
1002
{
1000
Det03
1002
}
1001
AUSTER_FOLIE
1002
{
1000
NSB00777_S2_WENDE
1002
}
  0
LINE
  5
12374
330
20
100
AcDbEntity
  8
10000_FRONT
  6
Continuous
 62
     7
370
    20
100
AcDbLine
 39
0.25
 10
-75.26510907162689
 20
692.3266530542672
 30
0.0
 11
-61.36510907162691
 21
692.3266530542672
 31
0.0
1001
AUSTER_ANSICHT
1002
{
1000
Det03
1002
}
1001
AUSTER_FOLIE
1002
{
1000
NSB00777_S2_WENDE
1002
}
  0
LINE
  5
12375
330
20
100
AcDbEntity
  8
10000_FRONT
  6
Continuous
 62
     7
370
    20
100
AcDbLine
 39
0.25
 10
-38.8650990716269
 20
779.3266530542672
 30
0.0
 11
-38.8650990716269
 21
780.9266530542672
 31
0.0
1001
AUSTER_ANSICHT
1002
{
1000
Det03
1002
}
1001
AUSTER_FOLIE
1002
{
1000
NSB00777_S2_WENDE
1002
}
  0
LINE
  5
12376
330
20
100
AcDbEntity
  8
10000_FRONT
  6
Continuous
 62
     7
370
    20
100
AcDbLine
 39
0.25
 10
-55.86509907162692
 20
781.3266530542672
 30
0.0
 11
-43.8650990716269
 21
781.3266530542672
 31
0.0
1001
AUSTER_ANSICHT
1002
{
1000
Det03
1002
}
1001
AUSTER_FOLIE
1002
{
1000
NSB00777_S2_WENDE
1002
}
  0
LINE
  5
12377
330
20
100
AcDbEntity
  8
10000_FRONT
  6
Continuous
 62
     7
370
    20
100
AcDbLine
 39
0.25
 10
-43.46509907162692
 20
779.3266530542672
 30
0.0
 11
-43.46509907162692
 21
780.9266530542672
 31
0.0
1001
AUSTER_ANSICHT
1002
{
1000
Det03
1002
}
1001
AUSTER_FOLIE
1002
{
1000
NSB00777_S2_WENDE
1002
}
  0
LINE
  5
12378
330
20
100
AcDbEntity
  8
10000_FRONT
  6
Continuous
 62
     7
370
    20
100
AcDbLine
 39
0.25
 10
-56.3650990716269
 20
779.3564530542672
 30
0.0
 11
-56.3650990716269
 21
780.8266530542672
 31
0.0
1001
AUSTER_ANSICHT
1002
{
1000
Det03
1002
}
1001
AUSTER_FOLIE
1002
{
1000
NSB00777_S2_WENDE
1002
}
  0
LINE
  5
12379
330
20
100
AcDbEntity
  8
10000_FRONT
  6
Continuous
 62
     7
370
    20
100
AcDbLine
 39
0.25
 10
-60.9650990716269
 20
779.3266530542672
 30
0.0
 11
-60.9650990716269
 21
780.8266530542672
 31
0.0
1001
AUSTER_ANSICHT
1002
{
1000
Det03
1002
}
1001
AUSTER_FOLIE
1002
{
1000
NSB00777_S2_WENDE
1002
}
  0
LINE
  5
1237A
330
20
100
AcDbEntity
  8
10000_FRONT
  6
Continuous
 62
     7
370
    20
100
AcDbLine
 39
0.25
 10
-24.16310907162691
 20
779.3143530542671
 30
0.0
 11
-75.91510907162692
 21
779.3266530542672
 31
0.0
1001
AUSTER_ANSICHT
1002
{
1000
Det03
1002
}
1001
AUSTER_FOLIE
1002
{
1000
NSB00777_S2_WENDE
1002
}
  0
LINE
  5
1237B
330
20
100
AcDbEntity
  8
10000_FRONT
  6
Continuous
 62
     7
370
    20
100
AcDbLine
 39
0.25
 10
-57.7651090716269
 20
725.9406530542673
 30
0.0
 11
-52.56510907162692
 21
725.9406530542673
 31
0.0
1001
AUSTER_ANSICHT
1002
{
1000
Det03
1002
}
1001
AUSTER_FOLIE
1002
{
1000
NSB00777_S2_WENDE
1002
}
  0
LINE
  5
1237C
330
20
100
AcDbEntity
  8
10000_FRONT
  6
Continuous
 62
     7
370
    20
100
AcDbLine
 39
0.25
 10
-48.06510907162692
 20
732.9406530542672
 30
0.0
 11
-48.06510907162692
 21
740.3406530542671
 31
0.0
1001
AUSTER_ANSICHT
1002
{
1000
Det03
1002
}
1001
AUSTER_FOLIE
1002
{
1000
NSB00777_S2_WENDE
1002
}
  0
LINE
  5
1237D
330
20
100
AcDbEntity
  8
10000_FRONT
  6
Continuous
 62
     7
370
    20
100
AcDbLine
 39
0.25
 10
-51.2651090716269
 20
740.3406530542671
 30
0.0
 11
-51.2651090716269
 21
732.9406530542672
 31
0.0
1001
AUSTER_ANSICHT
1002
{
1000
Det03
1002
}
1001
AUSTER_FOLIE
1002
{
1000
NSB00777_S2_WENDE
1002
}
  0
LINE
  5
1237E
330
20
100
AcDbEntity
  8
10000_FRONT
  6
Continuous
 62
     7
370
    20
100
AcDbLine
 39
0.25
 10
-35.76510907162691
 20
725.9406530542673
 30
0.0
 11
-30.56510907162692
 21
725.9406530542673
 31
0.0
1001
AUSTER_ANSICHT
1002
{
1000
Det03
1002
}
1001
AUSTER_FOLIE
1002
{
1000
NSB00777_S2_WENDE
1002
}
  0
LINE
  5
1237F
330
20
100
AcDbEntity
  8
10000_FRONT
  6
Continuous
 62
     7
370
    20
100
AcDbLine
 39
0.25
 10
-46.7651090716269
 20
725.9406530542673
 30
0.0
 11
-41.56510907162692
 21
725.9406530542673
 31
0.0
1001
AUSTER_ANSICHT
1002
{
1000
Det03
1002
}
1001
AUSTER_FOLIE
1002
{
1000
NSB00777_S2_WENDE
1002
}
  0
LINE
  5
12380
330
20
100
AcDbEntity
  8
10000_FRONT
  6
Continuous
 62
     7
370
    20
100
AcDbLine
 39
0.25
 10
-68.76510907162689
 20
725.9406530542673
 30
0.0
 11
-63.56510907162692
 21
725.9406530542673
 31
0.0
1001
AUSTER_ANSICHT
1002
{
1000
Det03
1002
}
1001
AUSTER_FOLIE
1002
{
1000
NSB00777_S2_WENDE
1002
}
  0
LINE
  5
12381
330
20
100
AcDbEntity
  8
10000_FRONT
  6
Continuous
 62
     7
370
    20
100
AcDbLine
 39
0.25
 10
-51.2651090716269
 20
732.9406530542672
 30
0.0
 11
-51.2651090716269
 21
730.1906530542672
 31
0.0
1001
AUSTER_ANSICHT
1002
{
1000
Det03
1002
}
1001
AUSTER_FOLIE
1002
{
1000
NSB00777_S2_WENDE
1002
}
  0
LINE
  5
12382
330
20
100
AcDbEntity
  8
10000_FRONT
  6
Continuous
 62
     7
370
    20
100
AcDbLine
 39
0.25
 10
-48.06510907162692
 20
732.9406530542672
 30
0.0
 11
-48.06510907162692
 21
730.1906530542672
 31
0.0
1001
AUSTER_ANSICHT
1002
{
1000
Det03
1002
}
1001
AUSTER_FOLIE
1002
{
1000
NSB00777_S2_WENDE
1002
}
  0
LINE
  5
12383
330
20
100
AcDbEntity
  8
10000_FRONT
  6
Continuous
 62
     7
370
    20
100
AcDbLine
 39
0.25
 10
-48.06510907162692
 20
744.3906530542673
 30
0.0
 11
-48.06510907162692
 21
740.3406530542671
 31
0.0
1001
AUSTER_ANSICHT
1002
{
1000
Det03
1002
}
1001
AUSTER_FOLIE
1002
{
1000
NSB00777_S2_WENDE
1002
}
  0
LINE
  5
12384
330
20
100
AcDbEntity
  8
10000_FRONT
  6
Continuous
 62
     7
370
    20
100
AcDbLine
 39
0.25
 10
-51.2651090716269
 20
744.3906530542673
 30
0.0
 11
-51.2651090716269
 21
740.3406530542671
 31
0.0
1001
AUSTER_ANSICHT
1002
{
1000
Det03
1002
}
1001
AUSTER_FOLIE
1002
{
1000
NSB00777_S2_WENDE
1002
}
  0
LINE
  5
12385
330
20
100
AcDbEntity
  8
10000_FRONT
  6
Continuous
 62
     7
370
    20
100
AcDbLine
 39
0.25
 10
-70.76510907162689
 20
752.4406530542672
 30
0.0
 11
-61.56510907162692
 21
752.4406530542672
 31
0.0
1001
AUSTER_ANSICHT
1002
{
1000
Det03
1002
}
1001
AUSTER_FOLIE
1002
{
1000
NSB00777_S2_WENDE
1002
}
  0
LINE
  5
12386
330
20
100
AcDbEntity
  8
10000_FRONT
  6
Continuous
 62
     7
370
    20
100
AcDbLine
 39
0.25
 10
-63.96510907162689
 20
748.8906530542672
 30
0.0
 11
-63.96510907162689
 21
744.3906530542673
 31
0.0
1001
AUSTER_ANSICHT
1002
{
1000
Det03
1002
}
1001
AUSTER_FOLIE
1002
{
1000
NSB00777_S2_WENDE
1002
}
  0
LINE
  5
12387
330
20
100
AcDbEntity
  8
10000_FRONT
  6
Continuous
 62
     7
370
    20
100
AcDbLine
 39
0.25
 10
-68.3651090716269
 20
748.8906530542672
 30
0.0
 11
-68.3651090716269
 21
744.3906530542673
 31
0.0
1001
AUSTER_ANSICHT
1002
{
1000
Det03
1002
}
1001
AUSTER_FOLIE
1002
{
1000
NSB00777_S2_WENDE
1002
}
  0
LINE
  5
12388
330
20
100
AcDbEntity
  8
10000_FRONT
  6
Continuous
 62
     7
370
    20
100
AcDbLine
 39
0.25
 10
-62.2651090716269
 20
730.1906530542672
 30
0.0
 11
-63.56510907162692
 21
730.1906530542672
 31
0.0
1001
AUSTER_ANSICHT
1002
{
1000
Det03
1002
}
1001
AUSTER_FOLIE
1002
{
1000
NSB00777_S2_WENDE
1002
}
  0
LINE
  5
12389
330
20
100
AcDbEntity
  8
10000_FRONT
  6
Continuous
 62
     7
370
    20
100
AcDbLine
 39
0.25
 10
-62.2651090716269
 20
744.3906530542673
 30
0.0
 11
-62.2651090716269
 21
730.1906530542672
 31
0.0
1001
AUSTER_ANSICHT
1002
{
1000
Det03
1002
}
1001
AUSTER_FOLIE
1002
{
1000
NSB00777_S2_WENDE
1002
}
  0
LINE
  5
1238A
330
20
100
AcDbEntity
  8
10000_FRONT
  6
Continuous
 62
     7
370
    20
100
AcDbLine
 39
0.25
 10
-70.06510907162692
 20
730.1906530542672
 30
0.0
 11
-70.06510907162692
 21
744.3906530542673
 31
0.0
1001
AUSTER_ANSICHT
1002
{
1000
Det03
1002
}
1001
AUSTER_FOLIE
1002
{
1000
NSB00777_S2_WENDE
1002
}
  0
LINE
  5
1238B
330
20
100
AcDbEntity
  8
10000_FRONT
  6
Continuous
 62
     7
370
    20
100
AcDbLine
 39
0.25
 10
-68.76510907162689
 20
730.1906530542672
 30
0.0
 11
-70.06510907162692
 21
730.1906530542672
 31
0.0
1001
AUSTER_ANSICHT
1002
{
1000
Det03
1002
}
1001
AUSTER_FOLIE
1002
{
1000
NSB00777_S2_WENDE
1002
}
  0
LINE
  5
1238C
330
20
100
AcDbEntity
  8
10000_FRONT
  6
Continuous
 62
     7
370
    20
100
AcDbLine
 39
0.25
 10
-37.76510907162691
 20
752.4406530542672
 30
0.0
 11
-28.56510907162692
 21
752.4406530542672
 31
0.0
1001
AUSTER_ANSICHT
1002
{
1000
Det03
1002
}
1001
AUSTER_FOLIE
1002
{
1000
NSB00777_S2_WENDE
1002
}
  0
LINE
  5
1238D
330
20
100
AcDbEntity
  8
10000_FRONT
  6
Continuous
 62
     7
370
    20
100
AcDbLine
 39
0.25
 10
-30.9651090716269
 20
748.8906530542672
 30
0.0
 11
-30.9651090716269
 21
744.3906530542673
 31
0.0
1001
AUSTER_ANSICHT
1002
{
1000
Det03
1002
}
1001
AUSTER_FOLIE
1002
{
1000
NSB00777_S2_WENDE
1002
}
  0
LINE
  5
1238E
330
20
100
AcDbEntity
  8
10000_FRONT
  6
Continuous
 62
     7
370
    20
100
AcDbLine
 39
0.25
 10
-35.36510907162693
 20
748.8906530542672
 30
0.0
 11
-35.36510907162693
 21
744.3906530542673
 31
0.0
1001
AUSTER_ANSICHT
1002
{
1000
Det03
1002
}
1001
AUSTER_FOLIE
1002
{
1000
NSB00777_S2_WENDE
1002
}
  0
LINE
  5
1238F
330
20
100
AcDbEntity
  8
10000_FRONT
  6
Continuous
 62
     7
370
    20
100
AcDbLine
 39
0.25
 10
-29.26510907162691
 20
730.1906530542672
 30
0.0
 11
-30.56510907162692
 21
730.1906530542672
 31
0.0
1001
AUSTER_ANSICHT
1002
{
1000
Det03
1002
}
1001
AUSTER_FOLIE
1002
{
1000
NSB00777_S2_WENDE
1002
}
  0
LINE
  5
12390
330
20
100
AcDbEntity
  8
10000_FRONT
  6
Continuous
 62
     7
370
    20
100
AcDbLine
 39
0.25
 10
-29.26510907162691
 20
744.3906530542673
 30
0.0
 11
-29.26510907162691
 21
730.1906530542672
 31
0.0
1001
AUSTER_ANSICHT
1002
{
1000
Det03
1002
}
1001
AUSTER_FOLIE
1002
{
1000
NSB00777_S2_WENDE
1002
}
  0
LINE
  5
12391
330
20
100
AcDbEntity
  8
10000_FRONT
  6
Continuous
 62
     7
370
    20
100
AcDbLine
 39
0.25
 10
-37.06510907162692
 20
730.1906530542672
 30
0.0
 11
-37.06510907162692
 21
744.3906530542673
 31
0.0
1001
AUSTER_ANSICHT
1002
{
1000
Det03
1002
}
1001
AUSTER_FOLIE
1002
{
1000
NSB00777_S2_WENDE
1002
}
  0
LINE
  5
12392
330
20
100
AcDbEntity
  8
10000_FRONT
  6
Continuous
 62
     7
370
    20
100
AcDbLine
 39
0.25
 10
-35.76510907162691
 20
730.1906530542672
 30
0.0
 11
-37.06510907162692
 21
730.1906530542672
 31
0.0
1001
AUSTER_ANSICHT
1002
{
1000
Det03
1002
}
1001
AUSTER_FOLIE
1002
{
1000
NSB00777_S2_WENDE
1002
}
  0
LINE
  5
12393
330
20
100
AcDbEntity
  8
10000_FRONT
  6
Continuous
 62
     7
370
    20
100
AcDbLine
 39
0.25
 10
-30.56510907162692
 20
725.9406530542673
 30
0.0
 11
-30.56510907162692
 21
730.1906530542672
 31
0.0
1001
AUSTER_ANSICHT
1002
{
1000
Det03
1002
}
1001
AUSTER_FOLIE
1002
{
1000
NSB00777_S2_WENDE
1002
}
  0
LINE
  5
12394
330
20
100
AcDbEntity
  8
10000_FRONT
  6
Continuous
 62
     7
370
    20
100
AcDbLine
 39
0.25
 10
-35.76510907162691
 20
730.1906530542672
 30
0.0
 11
-35.76510907162691
 21
725.9406530542673
 31
0.0
1001
AUSTER_ANSICHT
1002
{
1000
Det03
1002
}
1001
AUSTER_FOLIE
1002
{
1000
NSB00777_S2_WENDE
1002
}
  0
LINE
  5
12395
330
20
100
AcDbEntity
  8
10000_FRONT
  6
Continuous
 62
     7
370
    20
100
AcDbLine
 39
0.25
 10
-29.26510907162691
 20
744.3906530542673
 30
0.0
 11
-30.9651090716269
 21
744.3906530542673
 31
0.0
1001
AUSTER_ANSICHT
1002
{
1000
Det03
1002
}
1001
AUSTER_FOLIE
1002
{
1000
NSB00777_S2_WENDE
1002
}
  0
LINE
  5
12396
330
20
100
AcDbEntity
  8
10000_FRONT
  6
Continuous
 62
     7
370
    20
100
AcDbLine
 39
0.25
 10
-37.06510907162692
 20
744.3906530542673
 30
0.0
 11
-35.36510907162693
 21
744.3906530542673
 31
0.0
1001
AUSTER_ANSICHT
1002
{
1000
Det03
1002
}
1001
AUSTER_FOLIE
1002
{
1000
NSB00777_S2_WENDE
1002
}
  0
LINE
  5
12397
330
20
100
AcDbEntity
  8
10000_FRONT
  6
Continuous
 62
     7
370
    20
100
AcDbLine
 39
0.25
 10
-35.41510907162692
 20
733.2906530542673
 30
0.0
 11
-35.41510907162692
 21
738.6906530542672
 31
0.0
1001
AUSTER_ANSICHT
1002
{
1000
Det03
1002
}
1001
AUSTER_FOLIE
1002
{
1000
NSB00777_S2_WENDE
1002
}
  0
LINE
  5
12398
330
20
100
AcDbEntity
  8
10000_FRONT
  6
Continuous
 62
     7
370
    20
100
AcDbLine
 39
0.25
 10
-30.91510907162692
 20
733.2906530542673
 30
0.0
 11
-35.41510907162692
 21
733.2906530542673
 31
0.0
1001
AUSTER_ANSICHT
1002
{
1000
Det03
1002
}
1001
AUSTER_FOLIE
1002
{
1000
NSB00777_S2_WENDE
1002
}
  0
LINE
  5
12399
330
20
100
AcDbEntity
  8
10000_FRONT
  6
Continuous
 62
     7
370
    20
100
AcDbLine
 39
0.25
 10
-30.91510907162692
 20
738.6906530542672
 30
0.0
 11
-30.91510907162692
 21
733.2906530542673
 31
0.0
1001
AUSTER_ANSICHT
1002
{
1000
Det03
1002
}
1001
AUSTER_FOLIE
1002
{
1000
NSB00777_S2_WENDE
1002
}
  0
LINE
  5
1239A
330
20
100
AcDbEntity
  8
10000_FRONT
  6
Continuous
 62
     7
370
    20
100
AcDbLine
 39
0.25
 10
-31.2346390716269
 20
738.9906530542672
 30
0.0
 11
-30.91510907162692
 21
738.6906530542672
 31
0.0
1001
AUSTER_ANSICHT
1002
{
1000
Det03
1002
}
1001
AUSTER_FOLIE
1002
{
1000
NSB00777_S2_WENDE
1002
}
  0
LINE
  5
1239B
330
20
100
AcDbEntity
  8
10000_FRONT
  6
Continuous
 62
     7
370
    20
100
AcDbLine
 39
0.25
 10
-35.09556907162693
 20
738.9906530542672
 30
0.0
 11
-31.2346390716269
 21
738.9906530542672
 31
0.0
1001
AUSTER_ANSICHT
1002
{
1000
Det03
1002
}
1001
AUSTER_FOLIE
1002
{
1000
NSB00777_S2_WENDE
1002
}
  0
LINE
  5
1239C
330
20
100
AcDbEntity
  8
10000_FRONT
  6
Continuous
 62
     7
370
    20
100
AcDbLine
 39
0.25
 10
-35.41510907162692
 20
738.6906530542672
 30
0.0
 11
-35.09556907162693
 21
738.9906530542672
 31
0.0
1001
AUSTER_ANSICHT
1002
{
1000
Det03
1002
}
1001
AUSTER_FOLIE
1002
{
1000
NSB00777_S2_WENDE
1002
}
  0
LINE
  5
1239D
330
20
100
AcDbEntity
  8
10000_FRONT
  6
Continuous
 62
     7
370
    20
100
AcDbLine
 39
0.25
 10
-48.7651090716269
 20
752.4406530542672
 30
0.0
 11
-39.56510907162692
 21
752.4406530542672
 31
0.0
1001
AUSTER_ANSICHT
1002
{
1000
Det03
1002
}
1001
AUSTER_FOLIE
1002
{
1000
NSB00777_S2_WENDE
1002
}
  0
LINE
  5
1239E
330
20
100
AcDbEntity
  8
10000_FRONT
  6
Continuous
 62
     7
370
    20
100
AcDbLine
 39
0.25
 10
-41.96510907162688
 20
748.8906530542672
 30
0.0
 11
-41.96510907162688
 21
744.3906530542673
 31
0.0
1001
AUSTER_ANSICHT
1002
{
1000
Det03
1002
}
1001
AUSTER_FOLIE
1002
{
1000
NSB00777_S2_WENDE
1002
}
  0
LINE
  5
1239F
330
20
100
AcDbEntity
  8
10000_FRONT
  6
Continuous
 62
     7
370
    20
100
AcDbLine
 39
0.25
 10
-46.36510907162693
 20
748.8906530542672
 30
0.0
 11
-46.36510907162693
 21
744.3906530542673
 31
0.0
1001
AUSTER_ANSICHT
1002
{
1000
Det03
1002
}
1001
AUSTER_FOLIE
1002
{
1000
NSB00777_S2_WENDE
1002
}
  0
LINE
  5
123A0
330
20
100
AcDbEntity
  8
10000_FRONT
  6
Continuous
 62
     7
370
    20
100
AcDbLine
 39
0.25
 10
-40.26510907162689
 20
730.1906530542672
 30
0.0
 11
-41.56510907162692
 21
730.1906530542672
 31
0.0
1001
AUSTER_ANSICHT
1002
{
1000
Det03
1002
}
1001
AUSTER_FOLIE
1002
{
1000
NSB00777_S2_WENDE
1002
}
  0
LINE
  5
123A1
330
20
100
AcDbEntity
  8
10000_FRONT
  6
Continuous
 62
     7
370
    20
100
AcDbLine
 39
0.25
 10
-40.26510907162689
 20
744.3906530542673
 30
0.0
 11
-40.26510907162689
 21
730.1906530542672
 31
0.0
1001
AUSTER_ANSICHT
1002
{
1000
Det03
1002
}
1001
AUSTER_FOLIE
1002
{
1000
NSB00777_S2_WENDE
1002
}
  0
LINE
  5
123A2
330
20
100
AcDbEntity
  8
10000_FRONT
  6
Continuous
 62
     7
370
    20
100
AcDbLine
 39
0.25
 10
-46.7651090716269
 20
730.1906530542672
 30
0.0
 11
-48.06510907162692
 21
730.1906530542672
 31
0.0
1001
AUSTER_ANSICHT
1002
{
1000
Det03
1002
}
1001
AUSTER_FOLIE
1002
{
1000
NSB00777_S2_WENDE
1002
}
  0
LINE
  5
123A3
330
20
100
AcDbEntity
  8
10000_FRONT
  6
Continuous
 62
     7
370
    20
100
AcDbLine
 39
0.25
 10
-41.56510907162692
 20
725.9406530542673
 30
0.0
 11
-41.56510907162692
 21
730.1906530542672
 31
0.0
1001
AUSTER_ANSICHT
1002
{
1000
Det03
1002
}
1001
AUSTER_FOLIE
1002
{
1000
NSB00777_S2_WENDE
1002
}
  0
LINE
  5
123A4
330
20
100
AcDbEntity
  8
10000_FRONT
  6
Continuous
 62
     7
370
    20
100
AcDbLine
 39
0.25
 10
-46.7651090716269
 20
730.1906530542672
 30
0.0
 11
-46.7651090716269
 21
725.9406530542673
 31
0.0
1001
AUSTER_ANSICHT
1002
{
1000
Det03
1002
}
1001
AUSTER_FOLIE
1002
{
1000
NSB00777_S2_WENDE
1002
}
  0
LINE
  5
123A5
330
20
100
AcDbEntity
  8
10000_FRONT
  6
Continuous
 62
     7
370
    20
100
AcDbLine
 39
0.25
 10
-40.26510907162689
 20
744.3906530542673
 30
0.0
 11
-41.96510907162688
 21
744.3906530542673
 31
0.0
1001
AUSTER_ANSICHT
1002
{
1000
Det03
1002
}
1001
AUSTER_FOLIE
1002
{
1000
NSB00777_S2_WENDE
1002
}
  0
LINE
  5
123A6
330
20
100
AcDbEntity
  8
10000_FRONT
  6
Continuous
 62
     7
370
    20
100
AcDbLine
 39
0.25
 10
-48.06510907162692
 20
744.3906530542673
 30
0.0
 11
-46.36510907162693
 21
744.3906530542673
 31
0.0
1001
AUSTER_ANSICHT
1002
{
1000
Det03
1002
}
1001
AUSTER_FOLIE
1002
{
1000
NSB00777_S2_WENDE
1002
}
  0
LINE
  5
123A7
330
20
100
AcDbEntity
  8
10000_FRONT
  6
Continuous
 62
     7
370
    20
100
AcDbLine
 39
0.25
 10
-46.4151090716269
 20
733.2906530542673
 30
0.0
 11
-46.4151090716269
 21
738.6906530542672
 31
0.0
1001
AUSTER_ANSICHT
1002
{
1000
Det03
1002
}
1001
AUSTER_FOLIE
1002
{
1000
NSB00777_S2_WENDE
1002
}
  0
LINE
  5
123A8
330
20
100
AcDbEntity
  8
10000_FRONT
  6
Continuous
 62
     7
370
    20
100
AcDbLine
 39
0.25
 10
-41.9151090716269
 20
733.2906530542673
 30
0.0
 11
-46.4151090716269
 21
733.2906530542673
 31
0.0
1001
AUSTER_ANSICHT
1002
{
1000
Det03
1002
}
1001
AUSTER_FOLIE
1002
{
1000
NSB00777_S2_WENDE
1002
}
  0
LINE
  5
123A9
330
20
100
AcDbEntity
  8
10000_FRONT
  6
Continuous
 62
     7
370
    20
100
AcDbLine
 39
0.25
 10
-41.9151090716269
 20
738.6906530542672
 30
0.0
 11
-41.9151090716269
 21
733.2906530542673
 31
0.0
1001
AUSTER_ANSICHT
1002
{
1000
Det03
1002
}
1001
AUSTER_FOLIE
1002
{
1000
NSB00777_S2_WENDE
1002
}
  0
LINE
  5
123AA
330
20
100
AcDbEntity
  8
10000_FRONT
  6
Continuous
 62
     7
370
    20
100
AcDbLine
 39
0.25
 10
-42.23463907162693
 20
738.9906530542672
 30
0.0
 11
-41.9151090716269
 21
738.6906530542672
 31
0.0
1001
AUSTER_ANSICHT
1002
{
1000
Det03
1002
}
1001
AUSTER_FOLIE
1002
{
1000
NSB00777_S2_WENDE
1002
}
  0
LINE
  5
123AB
330
20
100
AcDbEntity
  8
10000_FRONT
  6
Continuous
 62
     7
370
    20
100
AcDbLine
 39
0.25
 10
-46.09556907162692
 20
738.9906530542672
 30
0.0
 11
-42.23463907162693
 21
738.9906530542672
 31
0.0
1001
AUSTER_ANSICHT
1002
{
1000
Det03
1002
}
1001
AUSTER_FOLIE
1002
{
1000
NSB00777_S2_WENDE
1002
}
  0
LINE
  5
123AC
330
20
100
AcDbEntity
  8
10000_FRONT
  6
Continuous
 62
     7
370
    20
100
AcDbLine
 39
0.25
 10
-46.4151090716269
 20
738.6906530542672
 30
0.0
 11
-46.09556907162692
 21
738.9906530542672
 31
0.0
1001
AUSTER_ANSICHT
1002
{
1000
Det03
1002
}
1001
AUSTER_FOLIE
1002
{
1000
NSB00777_S2_WENDE
1002
}
  0
LINE
  5
123AD
330
20
100
AcDbEntity
  8
10000_FRONT
  6
Continuous
 62
     7
370
    20
100
AcDbLine
 39
0.25
 10
-59.7651090716269
 20
752.4406530542672
 30
0.0
 11
-50.56510907162692
 21
752.4406530542672
 31
0.0
1001
AUSTER_ANSICHT
1002
{
1000
Det03
1002
}
1001
AUSTER_FOLIE
1002
{
1000
NSB00777_S2_WENDE
1002
}
  0
LINE
  5
123AE
330
20
100
AcDbEntity
  8
10000_FRONT
  6
Continuous
 62
     7
370
    20
100
AcDbLine
 39
0.25
 10
-52.9651090716269
 20
748.8906530542672
 30
0.0
 11
-52.9651090716269
 21
744.3906530542673
 31
0.0
1001
AUSTER_ANSICHT
1002
{
1000
Det03
1002
}
1001
AUSTER_FOLIE
1002
{
1000
NSB00777_S2_WENDE
1002
}
  0
LINE
  5
123AF
330
20
100
AcDbEntity
  8
10000_FRONT
  6
Continuous
 62
     7
370
    20
100
AcDbLine
 39
0.25
 10
-57.36510907162692
 20
748.8906530542672
 30
0.0
 11
-57.36510907162692
 21
744.3906530542673
 31
0.0
1001
AUSTER_ANSICHT
1002
{
1000
Det03
1002
}
1001
AUSTER_FOLIE
1002
{
1000
NSB00777_S2_WENDE
1002
}
  0
LINE
  5
123B0
330
20
100
AcDbEntity
  8
10000_FRONT
  6
Continuous
 62
     7
370
    20
100
AcDbLine
 39
0.25
 10
-51.2651090716269
 20
730.1906530542672
 30
0.0
 11
-52.56510907162692
 21
730.1906530542672
 31
0.0
1001
AUSTER_ANSICHT
1002
{
1000
Det03
1002
}
1001
AUSTER_FOLIE
1002
{
1000
NSB00777_S2_WENDE
1002
}
  0
LINE
  5
123B1
330
20
100
AcDbEntity
  8
10000_FRONT
  6
Continuous
 62
     7
370
    20
100
AcDbLine
 39
0.25
 10
-59.06510907162692
 20
730.1906530542672
 30
0.0
 11
-59.06510907162692
 21
744.3906530542673
 31
0.0
1001
AUSTER_ANSICHT
1002
{
1000
Det03
1002
}
1001
AUSTER_FOLIE
1002
{
1000
NSB00777_S2_WENDE
1002
}
  0
LINE
  5
123B2
330
20
100
AcDbEntity
  8
10000_FRONT
  6
Continuous
 62
     7
370
    20
100
AcDbLine
 39
0.25
 10
-57.7651090716269
 20
730.1906530542672
 30
0.0
 11
-59.06510907162692
 21
730.1906530542672
 31
0.0
1001
AUSTER_ANSICHT
1002
{
1000
Det03
1002
}
1001
AUSTER_FOLIE
1002
{
1000
NSB00777_S2_WENDE
1002
}
  0
LINE
  5
123B3
330
20
100
AcDbEntity
  8
10000_FRONT
  6
Continuous
 62
     7
370
    20
100
AcDbLine
 39
0.25
 10
-52.56510907162692
 20
725.9406530542673
 30
0.0
 11
-52.56510907162692
 21
730.1906530542672
 31
0.0
1001
AUSTER_ANSICHT
1002
{
1000
Det03
1002
}
1001
AUSTER_FOLIE
1002
{
1000
NSB00777_S2_WENDE
1002
}
  0
LINE
  5
123B4
330
20
100
AcDbEntity
  8
10000_FRONT
  6
Continuous
 62
     7
370
    20
100
AcDbLine
 39
0.25
 10
-57.7651090716269
 20
730.1906530542672
 30
0.0
 11
-57.7651090716269
 21
725.9406530542673
 31
0.0
1001
AUSTER_ANSICHT
1002
{
1000
Det03
1002
}
1001
AUSTER_FOLIE
1002
{
1000
NSB00777_S2_WENDE
1002
}
  0
LINE
  5
123B5
330
20
100
AcDbEntity
  8
10000_FRONT
  6
Continuous
 62
     7
370
    20
100
AcDbLine
 39
0.25
 10
-51.2651090716269
 20
744.3906530542673
 30
0.0
 11
-52.9651090716269
 21
744.3906530542673
 31
0.0
1001
AUSTER_ANSICHT
1002
{
1000
Det03
1002
}
1001
AUSTER_FOLIE
1002
{
1000
NSB00777_S2_WENDE
1002
}
  0
LINE
  5
123B6
330
20
100
AcDbEntity
  8
10000_FRONT
  6
Continuous
 62
     7
370
    20
100
AcDbLine
 39
0.25
 10
-62.2651090716269
 20
744.3906530542673
 30
0.0
 11
-63.96510907162689
 21
744.3906530542673
 31
0.0
1001
AUSTER_ANSICHT
1002
{
1000
Det03
1002
}
1001
AUSTER_FOLIE
1002
{
1000
NSB00777_S2_WENDE
1002
}
  0
LINE
  5
123B7
330
20
100
AcDbEntity
  8
10000_FRONT
  6
Continuous
 62
     7
370
    20
100
AcDbLine
 39
0.25
 10
-59.06510907162692
 20
744.3906530542673
 30
0.0
 11
-57.36510907162692
 21
744.3906530542673
 31
0.0
1001
AUSTER_ANSICHT
1002
{
1000
Det03
1002
}
1001
AUSTER_FOLIE
1002
{
1000
NSB00777_S2_WENDE
1002
}
  0
LINE
  5
123B8
330
20
100
AcDbEntity
  8
10000_FRONT
  6
Continuous
 62
     7
370
    20
100
AcDbLine
 39
0.25
 10
-57.4151090716269
 20
733.2906530542673
 30
0.0
 11
-57.4151090716269
 21
738.6906530542672
 31
0.0
1001
AUSTER_ANSICHT
1002
{
1000
Det03
1002
}
1001
AUSTER_FOLIE
1002
{
1000
NSB00777_S2_WENDE
1002
}
  0
LINE
  5
123B9
330
20
100
AcDbEntity
  8
10000_FRONT
  6
Continuous
 62
     7
370
    20
100
AcDbLine
 39
0.25
 10
-52.91510907162692
 20
733.2906530542673
 30
0.0
 11
-57.4151090716269
 21
733.2906530542673
 31
0.0
1001
AUSTER_ANSICHT
1002
{
1000
Det03
1002
}
1001
AUSTER_FOLIE
1002
{
1000
NSB00777_S2_WENDE
1002
}
  0
LINE
  5
123BA
330
20
100
AcDbEntity
  8
10000_FRONT
  6
Continuous
 62
     7
370
    20
100
AcDbLine
 39
0.25
 10
-52.91510907162692
 20
738.6906530542672
 30
0.0
 11
-52.91510907162692
 21
733.2906530542673
 31
0.0
1001
AUSTER_ANSICHT
1002
{
1000
Det03
1002
}
1001
AUSTER_FOLIE
1002
{
1000
NSB00777_S2_WENDE
1002
}
  0
LINE
  5
123BB
330
20
100
AcDbEntity
  8
10000_FRONT
  6
Continuous
 62
     7
370
    20
100
AcDbLine
 39
0.25
 10
-53.23463907162693
 20
738.9906530542672
 30
0.0
 11
-52.91510907162692
 21
738.6906530542672
 31
0.0
1001
AUSTER_ANSICHT
1002
{
1000
Det03
1002
}
1001
AUSTER_FOLIE
1002
{
1000
NSB00777_S2_WENDE
1002
}
  0
LINE
  5
123BC
330
20
100
AcDbEntity
  8
10000_FRONT
  6
Continuous
 62
     7
370
    20
100
AcDbLine
 39
0.25
 10
-57.0955690716269
 20
738.9906530542672
 30
0.0
 11
-53.23463907162693
 21
738.9906530542672
 31
0.0
1001
AUSTER_ANSICHT
1002
{
1000
Det03
1002
}
1001
AUSTER_FOLIE
1002
{
1000
NSB00777_S2_WENDE
1002
}
  0
LINE
  5
123BD
330
20
100
AcDbEntity
  8
10000_FRONT
  6
Continuous
 62
     7
370
    20
100
AcDbLine
 39
0.25
 10
-57.4151090716269
 20
738.6906530542672
 30
0.0
 11
-57.0955690716269
 21
738.9906530542672
 31
0.0
1001
AUSTER_ANSICHT
1002
{
1000
Det03
1002
}
1001
AUSTER_FOLIE
1002
{
1000
NSB00777_S2_WENDE
1002
}
  0
LINE
  5
123BE
330
20
100
AcDbEntity
  8
10000_FRONT
  6
Continuous
 62
     7
370
    20
100
AcDbLine
 39
0.25
 10
-63.56510907162692
 20
725.9406530542673
 30
0.0
 11
-63.56510907162692
 21
730.1906530542672
 31
0.0
1001
AUSTER_ANSICHT
1002
{
1000
Det03
1002
}
1001
AUSTER_FOLIE
1002
{
1000
NSB00777_S2_WENDE
1002
}
  0
LINE
  5
123BF
330
20
100
AcDbEntity
  8
10000_FRONT
  6
Continuous
 62
     7
370
    20
100
AcDbLine
 39
0.25
 10
-68.76510907162689
 20
730.1906530542672
 30
0.0
 11
-68.76510907162689
 21
725.9406530542673
 31
0.0
1001
AUSTER_ANSICHT
1002
{
1000
Det03
1002
}
1001
AUSTER_FOLIE
1002
{
1000
NSB00777_S2_WENDE
1002
}
  0
LINE
  5
123C0
330
20
100
AcDbEntity
  8
10000_FRONT
  6
Continuous
 62
     7
370
    20
100
AcDbLine
 39
0.25
 10
-70.06510907162692
 20
744.3906530542673
 30
0.0
 11
-68.3651090716269
 21
744.3906530542673
 31
0.0
1001
AUSTER_ANSICHT
1002
{
1000
Det03
1002
}
1001
AUSTER_FOLIE
1002
{
1000
NSB00777_S2_WENDE
1002
}
  0
LINE
  5
123C1
330
20
100
AcDbEntity
  8
10000_FRONT
  6
Continuous
 62
     7
370
    20
100
AcDbLine
 39
0.25
 10
-68.41510907162692
 20
733.2906530542673
 30
0.0
 11
-68.41510907162692
 21
738.6906530542672
 31
0.0
1001
AUSTER_ANSICHT
1002
{
1000
Det03
1002
}
1001
AUSTER_FOLIE
1002
{
1000
NSB00777_S2_WENDE
1002
}
  0
LINE
  5
123C2
330
20
100
AcDbEntity
  8
10000_FRONT
  6
Continuous
 62
     7
370
    20
100
AcDbLine
 39
0.25
 10
-63.9151090716269
 20
733.2906530542673
 30
0.0
 11
-68.41510907162692
 21
733.2906530542673
 31
0.0
1001
AUSTER_ANSICHT
1002
{
1000
Det03
1002
}
1001
AUSTER_FOLIE
1002
{
1000
NSB00777_S2_WENDE
1002
}
  0
LINE
  5
123C3
330
20
100
AcDbEntity
  8
10000_FRONT
  6
Continuous
 62
     7
370
    20
100
AcDbLine
 39
0.25
 10
-63.9151090716269
 20
738.6906530542672
 30
0.0
 11
-63.9151090716269
 21
733.2906530542673
 31
0.0
1001
AUSTER_ANSICHT
1002
{
1000
Det03
1002
}
1001
AUSTER_FOLIE
1002
{
1000
NSB00777_S2_WENDE
1002
}
  0
LINE
  5
123C4
330
20
100
AcDbEntity
  8
10000_FRONT
  6
Continuous
 62
     7
370
    20
100
AcDbLine
 39
0.25
 10
-64.2346390716269
 20
738.9906530542672
 30
0.0
 11
-63.9151090716269
 21
738.6906530542672
 31
0.0
1001
AUSTER_ANSICHT
1002
{
1000
Det03
1002
}
1001
AUSTER_FOLIE
1002
{
1000
NSB00777_S2_WENDE
1002
}
  0
LINE
  5
123C5
330
20
100
AcDbEntity
  8
10000_FRONT
  6
Continuous
 62
     7
370
    20
100
AcDbLine
 39
0.25
 10
-68.0955690716269
 20
738.9906530542672
 30
0.0
 11
-64.2346390716269
 21
738.9906530542672
 31
0.0
1001
AUSTER_ANSICHT
1002
{
1000
Det03
1002
}
1001
AUSTER_FOLIE
1002
{
1000
NSB00777_S2_WENDE
1002
}
  0
LINE
  5
123C6
330
20
100
AcDbEntity
  8
10000_FRONT
  6
Continuous
 62
     7
370
    20
100
AcDbLine
 39
0.25
 10
-68.41510907162692
 20
738.6906530542672
 30
0.0
 11
-68.0955690716269
 21
738.9906530542672
 31
0.0
1001
AUSTER_ANSICHT
1002
{
1000
Det03
1002
}
1001
AUSTER_FOLIE
1002
{
1000
NSB00777_S2_WENDE
1002
}
  0
LINE
  5
123C7
330
20
100
AcDbEntity
  8
10000_FRONT
  6
Continuous
 62
     7
370
    20
100
AcDbLine
 39
0.25
 10
-28.56510907162692
 20
748.8906530542672
 30
0.0
 11
-28.56510907162692
 21
752.4406530542672
 31
0.0
1001
AUSTER_ANSICHT
1002
{
1000
Det03
1002
}
1001
AUSTER_FOLIE
1002
{
1000
NSB00777_S2_WENDE
1002
}
  0
LINE
  5
123C8
330
20
100
AcDbEntity
  8
10000_FRONT
  6
Continuous
 62
     7
370
    20
100
AcDbLine
 39
0.25
 10
-30.9651090716269
 20
748.8906530542672
 30
0.0
 11
-28.56510907162692
 21
748.8906530542672
 31
0.0
1001
AUSTER_ANSICHT
1002
{
1000
Det03
1002
}
1001
AUSTER_FOLIE
1002
{
1000
NSB00777_S2_WENDE
1002
}
  0
LINE
  5
123C9
330
20
100
AcDbEntity
  8
10000_FRONT
  6
Continuous
 62
     7
370
    20
100
AcDbLine
 39
0.25
 10
-37.76510907162691
 20
748.8906530542672
 30
0.0
 11
-35.36510907162693
 21
748.8906530542672
 31
0.0
1001
AUSTER_ANSICHT
1002
{
1000
Det03
1002
}
1001
AUSTER_FOLIE
1002
{
1000
NSB00777_S2_WENDE
1002
}
  0
LINE
  5
123CA
330
20
100
AcDbEntity
  8
10000_FRONT
  6
Continuous
 62
     7
370
    20
100
AcDbLine
 39
0.25
 10
-37.76510907162691
 20
752.4406530542672
 30
0.0
 11
-37.76510907162691
 21
748.8906530542672
 31
0.0
1001
AUSTER_ANSICHT
1002
{
1000
Det03
1002
}
1001
AUSTER_FOLIE
1002
{
1000
NSB00777_S2_WENDE
1002
}
  0
LINE
  5
123CB
330
20
100
AcDbEntity
  8
10000_FRONT
  6
Continuous
 62
     7
370
    20
100
AcDbLine
 39
0.25
 10
-39.56510907162692
 20
748.8906530542672
 30
0.0
 11
-39.56510907162692
 21
752.4406530542672
 31
0.0
1001
AUSTER_ANSICHT
1002
{
1000
Det03
1002
}
1001
AUSTER_FOLIE
1002
{
1000
NSB00777_S2_WENDE
1002
}
  0
LINE
  5
123CC
330
20
100
AcDbEntity
  8
10000_FRONT
  6
Continuous
 62
     7
370
    20
100
AcDbLine
 39
0.25
 10
-41.96510907162688
 20
748.8906530542672
 30
0.0
 11
-39.56510907162692
 21
748.8906530542672
 31
0.0
1001
AUSTER_ANSICHT
1002
{
1000
Det03
1002
}
1001
AUSTER_FOLIE
1002
{
1000
NSB00777_S2_WENDE
1002
}
  0
LINE
  5
123CD
330
20
100
AcDbEntity
  8
10000_FRONT
  6
Continuous
 62
     7
370
    20
100
AcDbLine
 39
0.25
 10
-48.7651090716269
 20
748.8906530542672
 30
0.0
 11
-46.36510907162693
 21
748.8906530542672
 31
0.0
1001
AUSTER_ANSICHT
1002
{
1000
Det03
1002
}
1001
AUSTER_FOLIE
1002
{
1000
NSB00777_S2_WENDE
1002
}
  0
LINE
  5
123CE
330
20
100
AcDbEntity
  8
10000_FRONT
  6
Continuous
 62
     7
370
    20
100
AcDbLine
 39
0.25
 10
-48.7651090716269
 20
752.4406530542672
 30
0.0
 11
-48.7651090716269
 21
748.8906530542672
 31
0.0
1001
AUSTER_ANSICHT
1002
{
1000
Det03
1002
}
1001
AUSTER_FOLIE
1002
{
1000
NSB00777_S2_WENDE
1002
}
  0
LINE
  5
123CF
330
20
100
AcDbEntity
  8
10000_FRONT
  6
Continuous
 62
     7
370
    20
100
AcDbLine
 39
0.25
 10
-50.56510907162692
 20
748.8906530542672
 30
0.0
 11
-50.56510907162692
 21
752.4406530542672
 31
0.0
1001
AUSTER_ANSICHT
1002
{
1000
Det03
1002
}
1001
AUSTER_FOLIE
1002
{
1000
NSB00777_S2_WENDE
1002
}
  0
LINE
  5
123D0
330
20
100
AcDbEntity
  8
10000_FRONT
  6
Continuous
 62
     7
370
    20
100
AcDbLine
 39
0.25
 10
-52.9651090716269
 20
748.8906530542672
 30
0.0
 11
-50.56510907162692
 21
748.8906530542672
 31
0.0
1001
AUSTER_ANSICHT
1002
{
1000
Det03
1002
}
1001
AUSTER_FOLIE
1002
{
1000
NSB00777_S2_WENDE
1002
}
  0
LINE
  5
123D1
330
20
100
AcDbEntity
  8
10000_FRONT
  6
Continuous
 62
     7
370
    20
100
AcDbLine
 39
0.25
 10
-59.7651090716269
 20
748.8906530542672
 30
0.0
 11
-57.36510907162692
 21
748.8906530542672
 31
0.0
1001
AUSTER_ANSICHT
1002
{
1000
Det03
1002
}
1001
AUSTER_FOLIE
1002
{
1000
NSB00777_S2_WENDE
1002
}
  0
LINE
  5
123D2
330
20
100
AcDbEntity
  8
10000_FRONT
  6
Continuous
 62
     7
370
    20
100
AcDbLine
 39
0.25
 10
-59.7651090716269
 20
752.4406530542672
 30
0.0
 11
-59.7651090716269
 21
748.8906530542672
 31
0.0
1001
AUSTER_ANSICHT
1002
{
1000
Det03
1002
}
1001
AUSTER_FOLIE
1002
{
1000
NSB00777_S2_WENDE
1002
}
  0
LINE
  5
123D3
330
20
100
AcDbEntity
  8
10000_FRONT
  6
Continuous
 62
     7
370
    20
100
AcDbLine
 39
0.25
 10
-61.56510907162692
 20
748.8906530542672
 30
0.0
 11
-61.56510907162692
 21
752.4406530542672
 31
0.0
1001
AUSTER_ANSICHT
1002
{
1000
Det03
1002
}
1001
AUSTER_FOLIE
1002
{
1000
NSB00777_S2_WENDE
1002
}
  0
LINE
  5
123D4
330
20
100
AcDbEntity
  8
10000_FRONT
  6
Continuous
 62
     7
370
    20
100
AcDbLine
 39
0.25
 10
-63.96510907162689
 20
748.8906530542672
 30
0.0
 11
-61.56510907162692
 21
748.8906530542672
 31
0.0
1001
AUSTER_ANSICHT
1002
{
1000
Det03
1002
}
1001
AUSTER_FOLIE
1002
{
1000
NSB00777_S2_WENDE
1002
}
  0
LINE
  5
123D5
330
20
100
AcDbEntity
  8
10000_FRONT
  6
Continuous
 62
     7
370
    20
100
AcDbLine
 39
0.25
 10
-70.76510907162689
 20
748.8906530542672
 30
0.0
 11
-68.3651090716269
 21
748.8906530542672
 31
0.0
1001
AUSTER_ANSICHT
1002
{
1000
Det03
1002
}
1001
AUSTER_FOLIE
1002
{
1000
NSB00777_S2_WENDE
1002
}
  0
LINE
  5
123D6
330
20
100
AcDbEntity
  8
10000_FRONT
  6
Continuous
 62
     7
370
    20
100
AcDbLine
 39
0.25
 10
-70.76510907162689
 20
752.4406530542672
 30
0.0
 11
-70.76510907162689
 21
748.8906530542672
 31
0.0
1001
AUSTER_ANSICHT
1002
{
1000
Det03
1002
}
1001
AUSTER_FOLIE
1002
{
1000
NSB00777_S2_WENDE
1002
}
  0
LINE
  5
123D7
330
20
100
AcDbEntity
  8
10000_FRONT
  6
Continuous
 62
     7
370
    20
100
AcDbLine
 39
0.25
 10
-24.56509907162692
 20
781.3266530542672
 30
0.0
 11
-38.46509907162693
 21
781.3266530542672
 31
0.0
1001
AUSTER_ANSICHT
1002
{
1000
Det03
1002
}
1001
AUSTER_FOLIE
1002
{
1000
NSB00777_S2_WENDE
1002
}
  0
LINE
  5
123D8
330
20
100
AcDbEntity
  8
10000_FRONT
  6
Continuous
 62
     7
370
    20
100
AcDbLine
 39
0.25
 10
-75.2650990716269
 20
781.3266530542672
 30
0.0
 11
-61.4650990716269
 21
781.3266530542672
 31
0.0
1001
AUSTER_ANSICHT
1002
{
1000
Det03
1002
}
1001
AUSTER_FOLIE
1002
{
1000
NSB00777_S2_WENDE
1002
}
  0
LINE
  5
123D9
330
20
100
AcDbEntity
  8
10000_FRONT
  6
Continuous
 62
     7
370
    20
100
AcDbLine
 39
0.25
 10
-82.93010707162691
 20
724.6112530542673
 30
0.0
 11
-82.93010907162692
 21
724.4309530542673
 31
0.0
1001
AUSTER_ANSICHT
1002
{
1000
Det03
1002
}
1001
AUSTER_FOLIE
1002
{
1000
NSB00777_S2_WENDE
1002
}
  0
LINE
  5
123DA
330
20
100
AcDbEntity
  8
10000_FRONT
  6
Continuous
 62
     7
370
    20
100
AcDbLine
 39
0.25
 10
-82.93010907162692
 20
723.0420530542673
 30
0.0
 11
-82.93010907162692
 21
723.2223530542673
 31
0.0
1001
AUSTER_ANSICHT
1002
{
1000
Det03
1002
}
1001
AUSTER_FOLIE
1002
{
1000
NSB00777_S2_WENDE
1002
}
  0
LINE
  5
123DB
330
20
100
AcDbEntity
  8
10000_FRONT
  6
Continuous
 62
     7
370
    20
100
AcDbLine
 39
0.25
 10
-81.9001100716269
 20
724.6112530542673
 30
0.0
 11
-81.90010907162692
 21
724.4309530542673
 31
0.0
1001
AUSTER_ANSICHT
1002
{
1000
Det03
1002
}
1001
AUSTER_FOLIE
1002
{
1000
NSB00777_S2_WENDE
1002
}
  0
LINE
  5
123DC
330
20
100
AcDbEntity
  8
10000_FRONT
  6
Continuous
 62
     7
370
    20
100
AcDbLine
 39
0.25
 10
-81.9001100716269
 20
723.0420530542673
 30
0.0
 11
-81.90010907162692
 21
723.2223530542673
 31
0.0
1001
AUSTER_ANSICHT
1002
{
1000
Det03
1002
}
1001
AUSTER_FOLIE
1002
{
1000
NSB00777_S2_WENDE
1002
}
  0
LINE
  5
123DD
330
20
100
AcDbEntity
  8
10000_FRONT
  6
Continuous
 62
     7
370
    20
100
AcDbLine
 39
0.25
 10
-82.93010707162691
 20
724.6112530542673
 30
0.0
 11
-82.93010907162692
 21
725.6035530542673
 31
0.0
1001
AUSTER_ANSICHT
1002
{
1000
Det03
1002
}
1001
AUSTER_FOLIE
1002
{
1000
NSB00777_S2_WENDE
1002
}
  0
LINE
  5
123DE
330
20
100
AcDbEntity
  8
10000_FRONT
  6
Continuous
 62
     7
370
    20
100
AcDbLine
 39
0.25
 10
-81.90010907162692
 20
725.6035530542673
 30
0.0
 11
-81.90010907162692
 21
724.6112530542673
 31
0.0
1001
AUSTER_ANSICHT
1002
{
1000
Det03
1002
}
1001
AUSTER_FOLIE
1002
{
1000
NSB00777_S2_WENDE
1002
}
  0
LINE
  5
123DF
330
20
100
AcDbEntity
  8
10000_FRONT
  6
Continuous
 62
     7
370
    20
100
AcDbLine
 39
0.25
 10
-81.90010907162692
 20
723.0420530542673
 30
0.0
 11
-81.90010907162692
 21
722.0497530542672
 31
0.0
1001
AUSTER_ANSICHT
1002
{
1000
Det03
1002
}
1001
AUSTER_FOLIE
1002
{
1000
NSB00777_S2_WENDE
1002
}
  0
LINE
  5
123E0
330
20
100
AcDbEntity
  8
10000_FRONT
  6
Continuous
 62
     7
370
    20
100
AcDbLine
 39
0.25
 10
-79.6294110716269
 20
723.2223530542673
 30
0.0
 11
-81.90010907162692
 21
723.2223530542673
 31
0.0
1001
AUSTER_ANSICHT
1002
{
1000
Det03
1002
}
1001
AUSTER_FOLIE
1002
{
1000
NSB00777_S2_WENDE
1002
}
  0
LINE
  5
123E1
330
20
100
AcDbEntity
  8
10000_FRONT
  6
Continuous
 62
     7
370
    20
100
AcDbLine
 39
0.25
 10
-81.90010907162692
 20
724.4309530542673
 30
0.0
 11
-79.6294110716269
 21
724.4309530542673
 31
0.0
1001
AUSTER_ANSICHT
1002
{
1000
Det03
1002
}
1001
AUSTER_FOLIE
1002
{
1000
NSB00777_S2_WENDE
1002
}
  0
LINE
  5
123E2
330
20
100
AcDbEntity
  8
10000_FRONT
  6
Continuous
 62
     7
370
    20
100
AcDbLine
 39
0.25
 10
-85.20080707162689
 20
724.4309530542673
 30
0.0
 11
-82.93010907162692
 21
724.4309530542673
 31
0.0
1001
AUSTER_ANSICHT
1002
{
1000
Det03
1002
}
1001
AUSTER_FOLIE
1002
{
1000
NSB00777_S2_WENDE
1002
}
  0
LINE
  5
123E3
330
20
100
AcDbEntity
  8
10000_FRONT
  6
Continuous
 62
     7
370
    20
100
AcDbLine
 39
0.25
 10
-82.93010907162692
 20
723.2223530542673
 30
0.0
 11
-85.20080707162689
 21
723.2223530542673
 31
0.0
1001
AUSTER_ANSICHT
1002
{
1000
Det03
1002
}
1001
AUSTER_FOLIE
1002
{
1000
NSB00777_S2_WENDE
1002
}
  0
LINE
  5
123E4
330
20
100
AcDbEntity
  8
10000_FRONT
  6
Continuous
 62
     7
370
    20
100
AcDbLine
 39
0.25
 10
-82.93010907162692
 20
722.0497530542672
 30
0.0
 11
-82.93010907162692
 21
723.0420530542673
 31
0.0
1001
AUSTER_ANSICHT
1002
{
1000
Det03
1002
}
1001
AUSTER_FOLIE
1002
{
1000
NSB00777_S2_WENDE
1002
}
  0
LINE
  5
123E5
330
20
100
AcDbEntity
  8
10000_FRONT
  6
Continuous
 62
     7
370
    20
100
AcDbLine
 39
0.25
 10
-82.93010707162691
 20
749.0420530542673
 30
0.0
 11
-82.93010907162692
 21
749.2223530542672
 31
0.0
1001
AUSTER_ANSICHT
1002
{
1000
Det03
1002
}
1001
AUSTER_FOLIE
1002
{
1000
NSB00777_S2_WENDE
1002
}
  0
LINE
  5
123E6
330
20
100
AcDbEntity
  8
10000_FRONT
  6
Continuous
 62
     7
370
    20
100
AcDbLine
 39
0.25
 10
-82.93010907162692
 20
750.6112530542674
 30
0.0
 11
-82.93010907162692
 21
750.4309530542673
 31
0.0
1001
AUSTER_ANSICHT
1002
{
1000
Det03
1002
}
1001
AUSTER_FOLIE
1002
{
1000
NSB00777_S2_WENDE
1002
}
  0
LINE
  5
123E7
330
20
100
AcDbEntity
  8
10000_FRONT
  6
Continuous
 62
     7
370
    20
100
AcDbLine
 39
0.25
 10
-81.9001100716269
 20
749.0420530542673
 30
0.0
 11
-81.90010907162692
 21
749.2223530542672
 31
0.0
1001
AUSTER_ANSICHT
1002
{
1000
Det03
1002
}
1001
AUSTER_FOLIE
1002
{
1000
NSB00777_S2_WENDE
1002
}
  0
LINE
  5
123E8
330
20
100
AcDbEntity
  8
10000_FRONT
  6
Continuous
 62
     7
370
    20
100
AcDbLine
 39
0.25
 10
-81.9001100716269
 20
750.6112530542674
 30
0.0
 11
-81.90010907162692
 21
750.4309530542673
 31
0.0
1001
AUSTER_ANSICHT
1002
{
1000
Det03
1002
}
1001
AUSTER_FOLIE
1002
{
1000
NSB00777_S2_WENDE
1002
}
  0
LINE
  5
123E9
330
20
100
AcDbEntity
  8
10000_FRONT
  6
Continuous
 62
     7
370
    20
100
AcDbLine
 39
0.25
 10
-82.93010707162691
 20
749.0420530542673
 30
0.0
 11
-82.93010907162692
 21
748.0497530542671
 31
0.0
1001
AUSTER_ANSICHT
1002
{
1000
Det03
1002
}
1001
AUSTER_FOLIE
1002
{
1000
NSB00777_S2_WENDE
1002
}
  0
LINE
  5
123EA
330
20
100
AcDbEntity
  8
10000_FRONT
  6
Continuous
 62
     7
370
    20
100
AcDbLine
 39
0.25
 10
-81.90010907162692
 20
748.0497530542671
 30
0.0
 11
-81.90010907162692
 21
749.0420530542673
 31
0.0
1001
AUSTER_ANSICHT
1002
{
1000
Det03
1002
}
1001
AUSTER_FOLIE
1002
{
1000
NSB00777_S2_WENDE
1002
}
  0
LINE
  5
123EB
330
20
100
AcDbEntity
  8
10000_FRONT
  6
Continuous
 62
     7
370
    20
100
AcDbLine
 39
0.25
 10
-81.90010907162692
 20
750.6112530542674
 30
0.0
 11
-81.90010907162692
 21
751.6035530542673
 31
0.0
1001
AUSTER_ANSICHT
1002
{
1000
Det03
1002
}
1001
AUSTER_FOLIE
1002
{
1000
NSB00777_S2_WENDE
1002
}
  0
LINE
  5
123EC
330
20
100
AcDbEntity
  8
10000_FRONT
  6
Continuous
 62
     7
370
    20
100
AcDbLine
 39
0.25
 10
-79.6294110716269
 20
750.4309530542673
 30
0.0
 11
-81.90010907162692
 21
750.4309530542673
 31
0.0
1001
AUSTER_ANSICHT
1002
{
1000
Det03
1002
}
1001
AUSTER_FOLIE
1002
{
1000
NSB00777_S2_WENDE
1002
}
  0
LINE
  5
123ED
330
20
100
AcDbEntity
  8
10000_FRONT
  6
Continuous
 62
     7
370
    20
100
AcDbLine
 39
0.25
 10
-81.90010907162692
 20
749.2223530542672
 30
0.0
 11
-79.6294110716269
 21
749.2223530542672
 31
0.0
1001
AUSTER_ANSICHT
1002
{
1000
Det03
1002
}
1001
AUSTER_FOLIE
1002
{
1000
NSB00777_S2_WENDE
1002
}
  0
LINE
  5
123EE
330
20
100
AcDbEntity
  8
10000_FRONT
  6
Continuous
 62
     7
370
    20
100
AcDbLine
 39
0.25
 10
-85.20080707162689
 20
749.2223530542672
 30
0.0
 11
-82.93010907162692
 21
749.2223530542672
 31
0.0
1001
AUSTER_ANSICHT
1002
{
1000
Det03
1002
}
1001
AUSTER_FOLIE
1002
{
1000
NSB00777_S2_WENDE
1002
}
  0
LINE
  5
123EF
330
20
100
AcDbEntity
  8
10000_FRONT
  6
Continuous
 62
     7
370
    20
100
AcDbLine
 39
0.25
 10
-82.93010907162692
 20
750.4309530542673
 30
0.0
 11
-85.20080707162689
 21
750.4309530542673
 31
0.0
1001
AUSTER_ANSICHT
1002
{
1000
Det03
1002
}
1001
AUSTER_FOLIE
1002
{
1000
NSB00777_S2_WENDE
1002
}
  0
LINE
  5
123F0
330
20
100
AcDbEntity
  8
10000_FRONT
  6
Continuous
 62
     7
370
    20
100
AcDbLine
 39
0.25
 10
-82.93010907162692
 20
751.6035530542673
 30
0.0
 11
-82.93010907162692
 21
750.6112530542674
 31
0.0
1001
AUSTER_ANSICHT
1002
{
1000
Det03
1002
}
1001
AUSTER_FOLIE
1002
{
1000
NSB00777_S2_WENDE
1002
}
  0
LINE
  5
123F1
330
20
100
AcDbEntity
  8
10000_FRONT
  6
Continuous
 62
     7
370
    20
100
AcDbLine
 39
0.25
 10
-98.04657907162694
 20
705.6429530542673
 30
0.0
 11
-101.8911290716269
 21
705.6429530542673
 31
0.0
1001
AUSTER_ANSICHT
1002
{
1000
Det03
1002
}
1001
AUSTER_FOLIE
1002
{
1000
NSB00777_S2_WENDE
1002
}
  0
LINE
  5
123F2
330
20
100
AcDbEntity
  8
10000_FRONT
  6
Continuous
 62
     7
370
    20
100
AcDbLine
 39
0.25
 10
-98.04657907162694
 20
707.3656530542672
 30
0.0
 11
-98.04657907162694
 21
705.6429530542673
 31
0.0
1001
AUSTER_ANSICHT
1002
{
1000
Det03
1002
}
1001
AUSTER_FOLIE
1002
{
1000
NSB00777_S2_WENDE
1002
}
  0
LINE
  5
123F3
330
20
100
AcDbEntity
  8
10000_FRONT
  6
Continuous
 62
     7
370
    20
100
AcDbLine
 39
0.25
 10
-96.84658307162692
 20
705.6429530542673
 30
0.0
 11
-96.84658307162692
 21
707.3656530542672
 31
0.0
1001
AUSTER_ANSICHT
1002
{
1000
Det03
1002
}
1001
AUSTER_FOLIE
1002
{
1000
NSB00777_S2_WENDE
1002
}
  0
LINE
  5
123F4
330
20
100
AcDbEntity
  8
10000_FRONT
  6
Continuous
 62
     7
370
    20
100
AcDbLine
 39
0.25
 10
-93.0020410716269
 20
705.6429530542673
 30
0.0
 11
-96.84658307162692
 21
705.6429530542673
 31
0.0
1001
AUSTER_ANSICHT
1002
{
1000
Det03
1002
}
1001
AUSTER_FOLIE
1002
{
1000
NSB00777_S2_WENDE
1002
}
  0
LINE
  5
123F5
330
20
100
AcDbEntity
  8
10000_FRONT
  6
Continuous
 62
     7
370
    20
100
AcDbLine
 39
0.25
 10
-96.84658307162692
 20
704.2343530542672
 30
0.0
 11
-93.0020410716269
 21
704.2343530542672
 31
0.0
1001
AUSTER_ANSICHT
1002
{
1000
Det03
1002
}
1001
AUSTER_FOLIE
1002
{
1000
NSB00777_S2_WENDE
1002
}
  0
LINE
  5
123F6
330
20
100
AcDbEntity
  8
10000_FRONT
  6
Continuous
 62
     7
370
    20
100
AcDbLine
 39
0.25
 10
-96.84658307162692
 20
702.5117530542672
 30
0.0
 11
-96.84658307162692
 21
704.2343530542672
 31
0.0
1001
AUSTER_ANSICHT
1002
{
1000
Det03
1002
}
1001
AUSTER_FOLIE
1002
{
1000
NSB00777_S2_WENDE
1002
}
  0
LINE
  5
123F7
330
20
100
AcDbEntity
  8
10000_FRONT
  6
Continuous
 62
     7
370
    20
100
AcDbLine
 39
0.25
 10
-98.04657907162694
 20
704.2343530542672
 30
0.0
 11
-98.04657907162694
 21
702.5117530542672
 31
0.0
1001
AUSTER_ANSICHT
1002
{
1000
Det03
1002
}
1001
AUSTER_FOLIE
1002
{
1000
NSB00777_S2_WENDE
1002
}
  0
LINE
  5
123F8
330
20
100
AcDbEntity
  8
10000_FRONT
  6
Continuous
 62
     7
370
    20
100
AcDbLine
 39
0.25
 10
-101.8911290716269
 20
704.2343530542672
 30
0.0
 11
-98.04657907162694
 21
704.2343530542672
 31
0.0
1001
AUSTER_ANSICHT
1002
{
1000
Det03
1002
}
1001
AUSTER_FOLIE
1002
{
1000
NSB00777_S2_WENDE
1002
}
  0
LINE
  5
123F9
330
20
100
AcDbEntity
  8
10000_FRONT
  6
Continuous
 62
     7
370
    20
100
AcDbLine
 39
0.25
 10
-115.5308490716269
 20
705.6452530542673
 30
0.0
 11
-119.3753890716269
 21
705.6452530542673
 31
0.0
1001
AUSTER_ANSICHT
1002
{
1000
Det03
1002
}
1001
AUSTER_FOLIE
1002
{
1000
NSB00777_S2_WENDE
1002
}
  0
LINE
  5
123FA
330
20
100
AcDbEntity
  8
10000_FRONT
  6
Continuous
 62
     7
370
    20
100
AcDbLine
 39
0.25
 10
-115.5308490716269
 20
707.3678530542672
 30
0.0
 11
-115.5308490716269
 21
705.6452530542673
 31
0.0
1001
AUSTER_ANSICHT
1002
{
1000
Det03
1002
}
1001
AUSTER_FOLIE
1002
{
1000
NSB00777_S2_WENDE
1002
}
  0
LINE
  5
123FB
330
20
100
AcDbEntity
  8
10000_FRONT
  6
Continuous
 62
     7
370
    20
100
AcDbLine
 39
0.25
 10
-114.3308490716269
 20
705.6452530542673
 30
0.0
 11
-114.3308490716269
 21
707.3678530542672
 31
0.0
1001
AUSTER_ANSICHT
1002
{
1000
Det03
1002
}
1001
AUSTER_FOLIE
1002
{
1000
NSB00777_S2_WENDE
1002
}
  0
LINE
  5
123FC
330
20
100
AcDbEntity
  8
10000_FRONT
  6
Continuous
 62
     7
370
    20
100
AcDbLine
 39
0.25
 10
-110.4863090716269
 20
705.6452530542673
 30
0.0
 11
-114.3308490716269
 21
705.6452530542673
 31
0.0
1001
AUSTER_ANSICHT
1002
{
1000
Det03
1002
}
1001
AUSTER_FOLIE
1002
{
1000
NSB00777_S2_WENDE
1002
}
  0
LINE
  5
123FD
330
20
100
AcDbEntity
  8
10000_FRONT
  6
Continuous
 62
     7
370
    20
100
AcDbLine
 39
0.25
 10
-114.3308490716269
 20
704.2366530542673
 30
0.0
 11
-110.4863090716269
 21
704.2366530542673
 31
0.0
1001
AUSTER_ANSICHT
1002
{
1000
Det03
1002
}
1001
AUSTER_FOLIE
1002
{
1000
NSB00777_S2_WENDE
1002
}
  0
LINE
  5
123FE
330
20
100
AcDbEntity
  8
10000_FRONT
  6
Continuous
 62
     7
370
    20
100
AcDbLine
 39
0.25
 10
-114.3308490716269
 20
702.5140530542672
 30
0.0
 11
-114.3308490716269
 21
704.2366530542673
 31
0.0
1001
AUSTER_ANSICHT
1002
{
1000
Det03
1002
}
1001
AUSTER_FOLIE
1002
{
1000
NSB00777_S2_WENDE
1002
}
  0
LINE
  5
123FF
330
20
100
AcDbEntity
  8
10000_FRONT
  6
Continuous
 62
     7
370
    20
100
AcDbLine
 39
0.25
 10
-115.5308490716269
 20
704.2366530542673
 30
0.0
 11
-115.5308490716269
 21
702.5140530542672
 31
0.0
1001
AUSTER_ANSICHT
1002
{
1000
Det03
1002
}
1001
AUSTER_FOLIE
1002
{
1000
NSB00777_S2_WENDE
1002
}
  0
LINE
  5
12400
330
20
100
AcDbEntity
  8
10000_FRONT
  6
Continuous
 62
     7
370
    20
100
AcDbLine
 39
0.25
 10
-119.3753890716269
 20
704.2366530542673
 30
0.0
 11
-115.5308490716269
 21
704.2366530542673
 31
0.0
1001
AUSTER_ANSICHT
1002
{
1000
Det03
1002
}
1001
AUSTER_FOLIE
1002
{
1000
NSB00777_S2_WENDE
1002
}
  0
LINE
  5
12401
330
20
100
AcDbEntity
  8
10000_FRONT
  6
Continuous
 62
     7
370
    20
100
AcDbLine
 39
0.25
 10
-133.0151190716269
 20
705.6475530542672
 30
0.0
 11
-136.8596590716269
 21
705.6475530542672
 31
0.0
1001
AUSTER_ANSICHT
1002
{
1000
Det03
1002
}
1001
AUSTER_FOLIE
1002
{
1000
NSB00777_S2_WENDE
1002
}
  0
LINE
  5
12402
330
20
100
AcDbEntity
  8
10000_FRONT
  6
Continuous
 62
     7
370
    20
100
AcDbLine
 39
0.25
 10
-133.0151190716269
 20
707.3701530542672
 30
0.0
 11
-133.0151190716269
 21
705.6475530542672
 31
0.0
1001
AUSTER_ANSICHT
1002
{
1000
Det03
1002
}
1001
AUSTER_FOLIE
1002
{
1000
NSB00777_S2_WENDE
1002
}
  0
LINE
  5
12403
330
20
100
AcDbEntity
  8
10000_FRONT
  6
Continuous
 62
     7
370
    20
100
AcDbLine
 39
0.25
 10
-131.8151190716269
 20
705.6475530542672
 30
0.0
 11
-131.8151190716269
 21
707.3701530542672
 31
0.0
1001
AUSTER_ANSICHT
1002
{
1000
Det03
1002
}
1001
AUSTER_FOLIE
1002
{
1000
NSB00777_S2_WENDE
1002
}
  0
LINE
  5
12404
330
20
100
AcDbEntity
  8
10000_FRONT
  6
Continuous
 62
     7
370
    20
100
AcDbLine
 39
0.25
 10
-127.9705690716269
 20
705.6475530542672
 30
0.0
 11
-131.8151190716269
 21
705.6475530542672
 31
0.0
1001
AUSTER_ANSICHT
1002
{
1000
Det03
1002
}
1001
AUSTER_FOLIE
1002
{
1000
NSB00777_S2_WENDE
1002
}
  0
LINE
  5
12405
330
20
100
AcDbEntity
  8
10000_FRONT
  6
Continuous
 62
     7
370
    20
100
AcDbLine
 39
0.25
 10
-131.8151190716269
 20
704.2389530542672
 30
0.0
 11
-127.9705690716269
 21
704.2389530542672
 31
0.0
1001
AUSTER_ANSICHT
1002
{
1000
Det03
1002
}
1001
AUSTER_FOLIE
1002
{
1000
NSB00777_S2_WENDE
1002
}
  0
LINE
  5
12406
330
20
100
AcDbEntity
  8
10000_FRONT
  6
Continuous
 62
     7
370
    20
100
AcDbLine
 39
0.25
 10
-131.8151190716269
 20
702.5163530542672
 30
0.0
 11
-131.8151190716269
 21
704.2389530542672
 31
0.0
1001
AUSTER_ANSICHT
1002
{
1000
Det03
1002
}
1001
AUSTER_FOLIE
1002
{
1000
NSB00777_S2_WENDE
1002
}
  0
LINE
  5
12407
330
20
100
AcDbEntity
  8
10000_FRONT
  6
Continuous
 62
     7
370
    20
100
AcDbLine
 39
0.25
 10
-133.0151190716269
 20
704.2389530542672
 30
0.0
 11
-133.0151190716269
 21
702.5163530542672
 31
0.0
1001
AUSTER_ANSICHT
1002
{
1000
Det03
1002
}
1001
AUSTER_FOLIE
1002
{
1000
NSB00777_S2_WENDE
1002
}
  0
LINE
  5
12408
330
20
100
AcDbEntity
  8
10000_FRONT
  6
Continuous
 62
     7
370
    20
100
AcDbLine
 39
0.25
 10
-136.8596590716269
 20
704.2389530542672
 30
0.0
 11
-133.0151190716269
 21
704.2389530542672
 31
0.0
1001
AUSTER_ANSICHT
1002
{
1000
Det03
1002
}
1001
AUSTER_FOLIE
1002
{
1000
NSB00777_S2_WENDE
1002
}
  0
LINE
  5
12409
330
20
100
AcDbEntity
  8
10000_FRONT
  6
Continuous
 62
     7
370
    20
100
AcDbLine
 39
0.25
 10
-98.04657907162694
 20
768.0373530542673
 30
0.0
 11
-101.8911290716269
 21
768.0373530542673
 31
0.0
1001
AUSTER_ANSICHT
1002
{
1000
Det03
1002
}
1001
AUSTER_FOLIE
1002
{
1000
NSB00777_S2_WENDE
1002
}
  0
LINE
  5
1240A
330
20
100
AcDbEntity
  8
10000_FRONT
  6
Continuous
 62
     7
370
    20
100
AcDbLine
 39
0.25
 10
-98.04657907162694
 20
766.3147530542673
 30
0.0
 11
-98.04657907162694
 21
768.0373530542673
 31
0.0
1001
AUSTER_ANSICHT
1002
{
1000
Det03
1002
}
1001
AUSTER_FOLIE
1002
{
1000
NSB00777_S2_WENDE
1002
}
  0
LINE
  5
1240B
330
20
100
AcDbEntity
  8
10000_FRONT
  6
Continuous
 62
     7
370
    20
100
AcDbLine
 39
0.25
 10
-96.84658307162692
 20
768.0373530542673
 30
0.0
 11
-96.84658307162692
 21
766.3147530542673
 31
0.0
1001
AUSTER_ANSICHT
1002
{
1000
Det03
1002
}
1001
AUSTER_FOLIE
1002
{
1000
NSB00777_S2_WENDE
1002
}
  0
LINE
  5
1240C
330
20
100
AcDbEntity
  8
10000_FRONT
  6
Continuous
 62
     7
370
    20
100
AcDbLine
 39
0.25
 10
-93.0020410716269
 20
768.0373530542673
 30
0.0
 11
-96.84658307162692
 21
768.0373530542673
 31
0.0
1001
AUSTER_ANSICHT
1002
{
1000
Det03
1002
}
1001
AUSTER_FOLIE
1002
{
1000
NSB00777_S2_WENDE
1002
}
  0
LINE
  5
1240D
330
20
100
AcDbEntity
  8
10000_FRONT
  6
Continuous
 62
     7
370
    20
100
AcDbLine
 39
0.25
 10
-96.84658307162692
 20
769.4459530542673
 30
0.0
 11
-93.0020410716269
 21
769.4459530542673
 31
0.0
1001
AUSTER_ANSICHT
1002
{
1000
Det03
1002
}
1001
AUSTER_FOLIE
1002
{
1000
NSB00777_S2_WENDE
1002
}
  0
LINE
  5
1240E
330
20
100
AcDbEntity
  8
10000_FRONT
  6
Continuous
 62
     7
370
    20
100
AcDbLine
 39
0.25
 10
-96.84658307162692
 20
771.1686530542672
 30
0.0
 11
-96.84658307162692
 21
769.4459530542673
 31
0.0
1001
AUSTER_ANSICHT
1002
{
1000
Det03
1002
}
1001
AUSTER_FOLIE
1002
{
1000
NSB00777_S2_WENDE
1002
}
  0
LINE
  5
1240F
330
20
100
AcDbEntity
  8
10000_FRONT
  6
Continuous
 62
     7
370
    20
100
AcDbLine
 39
0.25
 10
-98.04657907162694
 20
769.4459530542673
 30
0.0
 11
-98.04657907162694
 21
771.1686530542672
 31
0.0
1001
AUSTER_ANSICHT
1002
{
1000
Det03
1002
}
1001
AUSTER_FOLIE
1002
{
1000
NSB00777_S2_WENDE
1002
}
  0
LINE
  5
12410
330
20
100
AcDbEntity
  8
10000_FRONT
  6
Continuous
 62
     7
370
    20
100
AcDbLine
 39
0.25
 10
-101.8911290716269
 20
769.4459530542673
 30
0.0
 11
-98.04657907162694
 21
769.4459530542673
 31
0.0
1001
AUSTER_ANSICHT
1002
{
1000
Det03
1002
}
1001
AUSTER_FOLIE
1002
{
1000
NSB00777_S2_WENDE
1002
}
  0
LINE
  5
12411
330
20
100
AcDbEntity
  8
10000_FRONT
  6
Continuous
 62
     7
370
    20
100
AcDbLine
 39
0.25
 10
-115.5308490716269
 20
768.0350530542672
 30
0.0
 11
-119.3753890716269
 21
768.0350530542672
 31
0.0
1001
AUSTER_ANSICHT
1002
{
1000
Det03
1002
}
1001
AUSTER_FOLIE
1002
{
1000
NSB00777_S2_WENDE
1002
}
  0
LINE
  5
12412
330
20
100
AcDbEntity
  8
10000_FRONT
  6
Continuous
 62
     7
370
    20
100
AcDbLine
 39
0.25
 10
-115.5308490716269
 20
766.3124530542674
 30
0.0
 11
-115.5308490716269
 21
768.0350530542672
 31
0.0
1001
AUSTER_ANSICHT
1002
{
1000
Det03
1002
}
1001
AUSTER_FOLIE
1002
{
1000
NSB00777_S2_WENDE
1002
}
  0
LINE
  5
12413
330
20
100
AcDbEntity
  8
10000_FRONT
  6
Continuous
 62
     7
370
    20
100
AcDbLine
 39
0.25
 10
-114.3308490716269
 20
768.0350530542672
 30
0.0
 11
-114.3308490716269
 21
766.3124530542674
 31
0.0
1001
AUSTER_ANSICHT
1002
{
1000
Det03
1002
}
1001
AUSTER_FOLIE
1002
{
1000
NSB00777_S2_WENDE
1002
}
  0
LINE
  5
12414
330
20
100
AcDbEntity
  8
10000_FRONT
  6
Continuous
 62
     7
370
    20
100
AcDbLine
 39
0.25
 10
-110.4863090716269
 20
768.0350530542672
 30
0.0
 11
-114.3308490716269
 21
768.0350530542672
 31
0.0
1001
AUSTER_ANSICHT
1002
{
1000
Det03
1002
}
1001
AUSTER_FOLIE
1002
{
1000
NSB00777_S2_WENDE
1002
}
  0
LINE
  5
12415
330
20
100
AcDbEntity
  8
10000_FRONT
  6
Continuous
 62
     7
370
    20
100
AcDbLine
 39
0.25
 10
-114.3308490716269
 20
769.4436530542673
 30
0.0
 11
-110.4863090716269
 21
769.4436530542673
 31
0.0
1001
AUSTER_ANSICHT
1002
{
1000
Det03
1002
}
1001
AUSTER_FOLIE
1002
{
1000
NSB00777_S2_WENDE
1002
}
  0
LINE
  5
12416
330
20
100
AcDbEntity
  8
10000_FRONT
  6
Continuous
 62
     7
370
    20
100
AcDbLine
 39
0.25
 10
-114.3308490716269
 20
771.1663530542672
 30
0.0
 11
-114.3308490716269
 21
769.4436530542673
 31
0.0
1001
AUSTER_ANSICHT
1002
{
1000
Det03
1002
}
1001
AUSTER_FOLIE
1002
{
1000
NSB00777_S2_WENDE
1002
}
  0
LINE
  5
12417
330
20
100
AcDbEntity
  8
10000_FRONT
  6
Continuous
 62
     7
370
    20
100
AcDbLine
 39
0.25
 10
-115.5308490716269
 20
769.4436530542673
 30
0.0
 11
-115.5308490716269
 21
771.1663530542672
 31
0.0
1001
AUSTER_ANSICHT
1002
{
1000
Det03
1002
}
1001
AUSTER_FOLIE
1002
{
1000
NSB00777_S2_WENDE
1002
}
  0
LINE
  5
12418
330
20
100
AcDbEntity
  8
10000_FRONT
  6
Continuous
 62
     7
370
    20
100
AcDbLine
 39
0.25
 10
-119.3753890716269
 20
769.4436530542673
 30
0.0
 11
-115.5308490716269
 21
769.4436530542673
 31
0.0
1001
AUSTER_ANSICHT
1002
{
1000
Det03
1002
}
1001
AUSTER_FOLIE
1002
{
1000
NSB00777_S2_WENDE
1002
}
  0
LINE
  5
12419
330
20
100
AcDbEntity
  8
10000_FRONT
  6
Continuous
 62
     7
370
    20
100
AcDbLine
 39
0.25
 10
-133.0151190716269
 20
768.0327530542672
 30
0.0
 11
-136.8596590716269
 21
768.0327530542672
 31
0.0
1001
AUSTER_ANSICHT
1002
{
1000
Det03
1002
}
1001
AUSTER_FOLIE
1002
{
1000
NSB00777_S2_WENDE
1002
}
  0
LINE
  5
1241A
330
20
100
AcDbEntity
  8
10000_FRONT
  6
Continuous
 62
     7
370
    20
100
AcDbLine
 39
0.25
 10
-133.0151190716269
 20
766.3101530542673
 30
0.0
 11
-133.0151190716269
 21
768.0327530542672
 31
0.0
1001
AUSTER_ANSICHT
1002
{
1000
Det03
1002
}
1001
AUSTER_FOLIE
1002
{
1000
NSB00777_S2_WENDE
1002
}
  0
LINE
  5
1241B
330
20
100
AcDbEntity
  8
10000_FRONT
  6
Continuous
 62
     7
370
    20
100
AcDbLine
 39
0.25
 10
-131.8151190716269
 20
768.0327530542672
 30
0.0
 11
-131.8151190716269
 21
766.3101530542673
 31
0.0
1001
AUSTER_ANSICHT
1002
{
1000
Det03
1002
}
1001
AUSTER_FOLIE
1002
{
1000
NSB00777_S2_WENDE
1002
}
  0
LINE
  5
1241C
330
20
100
AcDbEntity
  8
10000_FRONT
  6
Continuous
 62
     7
370
    20
100
AcDbLine
 39
0.25
 10
-127.9705690716269
 20
768.0327530542672
 30
0.0
 11
-131.8151190716269
 21
768.0327530542672
 31
0.0
1001
AUSTER_ANSICHT
1002
{
1000
Det03
1002
}
1001
AUSTER_FOLIE
1002
{
1000
NSB00777_S2_WENDE
1002
}
  0
LINE
  5
1241D
330
20
100
AcDbEntity
  8
10000_FRONT
  6
Continuous
 62
     7
370
    20
100
AcDbLine
 39
0.25
 10
-131.8151190716269
 20
769.4414530542672
 30
0.0
 11
-127.9705690716269
 21
769.4414530542672
 31
0.0
1001
AUSTER_ANSICHT
1002
{
1000
Det03
1002
}
1001
AUSTER_FOLIE
1002
{
1000
NSB00777_S2_WENDE
1002
}
  0
LINE
  5
1241E
330
20
100
AcDbEntity
  8
10000_FRONT
  6
Continuous
 62
     7
370
    20
100
AcDbLine
 39
0.25
 10
-131.8151190716269
 20
771.1640530542672
 30
0.0
 11
-131.8151190716269
 21
769.4414530542672
 31
0.0
1001
AUSTER_ANSICHT
1002
{
1000
Det03
1002
}
1001
AUSTER_FOLIE
1002
{
1000
NSB00777_S2_WENDE
1002
}
  0
LINE
  5
1241F
330
20
100
AcDbEntity
  8
10000_FRONT
  6
Continuous
 62
     7
370
    20
100
AcDbLine
 39
0.25
 10
-133.0151190716269
 20
769.4414530542672
 30
0.0
 11
-133.0151190716269
 21
771.1640530542672
 31
0.0
1001
AUSTER_ANSICHT
1002
{
1000
Det03
1002
}
1001
AUSTER_FOLIE
1002
{
1000
NSB00777_S2_WENDE
1002
}
  0
LINE
  5
12420
330
20
100
AcDbEntity
  8
10000_FRONT
  6
Continuous
 62
     7
370
    20
100
AcDbLine
 39
0.25
 10
-136.8596590716269
 20
769.4414530542672
 30
0.0
 11
-133.0151190716269
 21
769.4414530542672
 31
0.0
1001
AUSTER_ANSICHT
1002
{
1000
Det03
1002
}
1001
AUSTER_FOLIE
1002
{
1000
NSB00777_S2_WENDE
1002
}
  0
LINE
  5
12421
330
20
100
AcDbEntity
  8
10000_FRONT
  6
Continuous
 62
     7
370
    20
100
AcDbLine
 39
0.25
 10
-33.04657907162692
 20
705.6429530542673
 30
0.0
 11
-36.89111907162692
 21
705.6429530542673
 31
0.0
1001
AUSTER_ANSICHT
1002
{
1000
Det03
1002
}
1001
AUSTER_FOLIE
1002
{
1000
NSB00777_S2_WENDE
1002
}
  0
LINE
  5
12422
330
20
100
AcDbEntity
  8
10000_FRONT
  6
Continuous
 62
     7
370
    20
100
AcDbLine
 39
0.25
 10
-33.04657907162692
 20
707.3655530542672
 30
0.0
 11
-33.04657907162692
 21
705.6429530542673
 31
0.0
1001
AUSTER_ANSICHT
1002
{
1000
Det03
1002
}
1001
AUSTER_FOLIE
1002
{
1000
NSB00777_S2_WENDE
1002
}
  0
LINE
  5
12423
330
20
100
AcDbEntity
  8
10000_FRONT
  6
Continuous
 62
     7
370
    20
100
AcDbLine
 39
0.25
 10
-31.84657907162691
 20
705.6429530542673
 30
0.0
 11
-31.84657907162691
 21
707.3655530542672
 31
0.0
1001
AUSTER_ANSICHT
1002
{
1000
Det03
1002
}
1001
AUSTER_FOLIE
1002
{
1000
NSB00777_S2_WENDE
1002
}
  0
LINE
  5
12424
330
20
100
AcDbEntity
  8
10000_FRONT
  6
Continuous
 62
     7
370
    20
100
AcDbLine
 39
0.25
 10
-28.00203907162691
 20
705.6429530542673
 30
0.0
 11
-31.84657907162691
 21
705.6429530542673
 31
0.0
1001
AUSTER_ANSICHT
1002
{
1000
Det03
1002
}
1001
AUSTER_FOLIE
1002
{
1000
NSB00777_S2_WENDE
1002
}
  0
LINE
  5
12425
330
20
100
AcDbEntity
  8
10000_FRONT
  6
Continuous
 62
     7
370
    20
100
AcDbLine
 39
0.25
 10
-31.84657907162691
 20
704.2343530542672
 30
0.0
 11
-28.00203907162691
 21
704.2343530542672
 31
0.0
1001
AUSTER_ANSICHT
1002
{
1000
Det03
1002
}
1001
AUSTER_FOLIE
1002
{
1000
NSB00777_S2_WENDE
1002
}
  0
LINE
  5
12426
330
20
100
AcDbEntity
  8
10000_FRONT
  6
Continuous
 62
     7
370
    20
100
AcDbLine
 39
0.25
 10
-31.84657907162691
 20
702.5117530542672
 30
0.0
 11
-31.84657907162691
 21
704.2343530542672
 31
0.0
1001
AUSTER_ANSICHT
1002
{
1000
Det03
1002
}
1001
AUSTER_FOLIE
1002
{
1000
NSB00777_S2_WENDE
1002
}
  0
LINE
  5
12427
330
20
100
AcDbEntity
  8
10000_FRONT
  6
Continuous
 62
     7
370
    20
100
AcDbLine
 39
0.25
 10
-33.04657907162692
 20
704.2343530542672
 30
0.0
 11
-33.04657907162692
 21
702.5117530542672
 31
0.0
1001
AUSTER_ANSICHT
1002
{
1000
Det03
1002
}
1001
AUSTER_FOLIE
1002
{
1000
NSB00777_S2_WENDE
1002
}
  0
LINE
  5
12428
330
20
100
AcDbEntity
  8
10000_FRONT
  6
Continuous
 62
     7
370
    20
100
AcDbLine
 39
0.25
 10
-36.89111907162692
 20
704.2343530542672
 30
0.0
 11
-33.04657907162692
 21
704.2343530542672
 31
0.0
1001
AUSTER_ANSICHT
1002
{
1000
Det03
1002
}
1001
AUSTER_FOLIE
1002
{
1000
NSB00777_S2_WENDE
1002
}
  0
LINE
  5
12429
330
20
100
AcDbEntity
  8
10000_FRONT
  6
Continuous
 62
     7
370
    20
100
AcDbLine
 39
0.25
 10
-50.5308490716269
 20
705.6452530542673
 30
0.0
 11
-54.37538907162689
 21
705.6452530542673
 31
0.0
1001
AUSTER_ANSICHT
1002
{
1000
Det03
1002
}
1001
AUSTER_FOLIE
1002
{
1000
NSB00777_S2_WENDE
1002
}
  0
LINE
  5
1242A
330
20
100
AcDbEntity
  8
10000_FRONT
  6
Continuous
 62
     7
370
    20
100
AcDbLine
 39
0.25
 10
-50.5308490716269
 20
707.3678530542672
 30
0.0
 11
-50.5308490716269
 21
705.6452530542673
 31
0.0
1001
AUSTER_ANSICHT
1002
{
1000
Det03
1002
}
1001
AUSTER_FOLIE
1002
{
1000
NSB00777_S2_WENDE
1002
}
  0
LINE
  5
1242B
330
20
100
AcDbEntity
  8
10000_FRONT
  6
Continuous
 62
     7
370
    20
100
AcDbLine
 39
0.25
 10
-49.3308490716269
 20
705.6452530542673
 30
0.0
 11
-49.3308490716269
 21
707.3678530542672
 31
0.0
1001
AUSTER_ANSICHT
1002
{
1000
Det03
1002
}
1001
AUSTER_FOLIE
1002
{
1000
NSB00777_S2_WENDE
1002
}
  0
LINE
  5
1242C
330
20
100
AcDbEntity
  8
10000_FRONT
  6
Continuous
 62
     7
370
    20
100
AcDbLine
 39
0.25
 10
-45.4862990716269
 20
705.6452530542673
 30
0.0
 11
-49.3308490716269
 21
705.6452530542673
 31
0.0
1001
AUSTER_ANSICHT
1002
{
1000
Det03
1002
}
1001
AUSTER_FOLIE
1002
{
1000
NSB00777_S2_WENDE
1002
}
  0
LINE
  5
1242D
330
20
100
AcDbEntity
  8
10000_FRONT
  6
Continuous
 62
     7
370
    20
100
AcDbLine
 39
0.25
 10
-49.3308490716269
 20
704.2366530542673
 30
0.0
 11
-45.4862990716269
 21
704.2366530542673
 31
0.0
1001
AUSTER_ANSICHT
1002
{
1000
Det03
1002
}
1001
AUSTER_FOLIE
1002
{
1000
NSB00777_S2_WENDE
1002
}
  0
LINE
  5
1242E
330
20
100
AcDbEntity
  8
10000_FRONT
  6
Continuous
 62
     7
370
    20
100
AcDbLine
 39
0.25
 10
-49.3308490716269
 20
702.5140530542672
 30
0.0
 11
-49.3308490716269
 21
704.2366530542673
 31
0.0
1001
AUSTER_ANSICHT
1002
{
1000
Det03
1002
}
1001
AUSTER_FOLIE
1002
{
1000
NSB00777_S2_WENDE
1002
}
  0
LINE
  5
1242F
330
20
100
AcDbEntity
  8
10000_FRONT
  6
Continuous
 62
     7
370
    20
100
AcDbLine
 39
0.25
 10
-50.5308490716269
 20
704.2366530542673
 30
0.0
 11
-50.5308490716269
 21
702.5140530542672
 31
0.0
1001
AUSTER_ANSICHT
1002
{
1000
Det03
1002
}
1001
AUSTER_FOLIE
1002
{
1000
NSB00777_S2_WENDE
1002
}
  0
LINE
  5
12430
330
20
100
AcDbEntity
  8
10000_FRONT
  6
Continuous
 62
     7
370
    20
100
AcDbLine
 39
0.25
 10
-54.37538907162689
 20
704.2366530542673
 30
0.0
 11
-50.5308490716269
 21
704.2366530542673
 31
0.0
1001
AUSTER_ANSICHT
1002
{
1000
Det03
1002
}
1001
AUSTER_FOLIE
1002
{
1000
NSB00777_S2_WENDE
1002
}
  0
LINE
  5
12431
330
20
100
AcDbEntity
  8
10000_FRONT
  6
Continuous
 62
     7
370
    20
100
AcDbLine
 39
0.25
 10
-68.0151090716269
 20
705.6475530542672
 30
0.0
 11
-71.8596490716269
 21
705.6475530542672
 31
0.0
1001
AUSTER_ANSICHT
1002
{
1000
Det03
1002
}
1001
AUSTER_FOLIE
1002
{
1000
NSB00777_S2_WENDE
1002
}
  0
LINE
  5
12432
330
20
100
AcDbEntity
  8
10000_FRONT
  6
Continuous
 62
     7
370
    20
100
AcDbLine
 39
0.25
 10
-68.0151090716269
 20
707.3701530542672
 30
0.0
 11
-68.0151090716269
 21
705.6475530542672
 31
0.0
1001
AUSTER_ANSICHT
1002
{
1000
Det03
1002
}
1001
AUSTER_FOLIE
1002
{
1000
NSB00777_S2_WENDE
1002
}
  0
LINE
  5
12433
330
20
100
AcDbEntity
  8
10000_FRONT
  6
Continuous
 62
     7
370
    20
100
AcDbLine
 39
0.25
 10
-66.81510907162692
 20
705.6475530542672
 30
0.0
 11
-66.81510907162692
 21
707.3701530542672
 31
0.0
1001
AUSTER_ANSICHT
1002
{
1000
Det03
1002
}
1001
AUSTER_FOLIE
1002
{
1000
NSB00777_S2_WENDE
1002
}
  0
LINE
  5
12434
330
20
100
AcDbEntity
  8
10000_FRONT
  6
Continuous
 62
     7
370
    20
100
AcDbLine
 39
0.25
 10
-62.97056907162691
 20
705.6475530542672
 30
0.0
 11
-66.81510907162692
 21
705.6475530542672
 31
0.0
1001
AUSTER_ANSICHT
1002
{
1000
Det03
1002
}
1001
AUSTER_FOLIE
1002
{
1000
NSB00777_S2_WENDE
1002
}
  0
LINE
  5
12435
330
20
100
AcDbEntity
  8
10000_FRONT
  6
Continuous
 62
     7
370
    20
100
AcDbLine
 39
0.25
 10
-66.81510907162692
 20
704.2389530542672
 30
0.0
 11
-62.97056907162691
 21
704.2389530542672
 31
0.0
1001
AUSTER_ANSICHT
1002
{
1000
Det03
1002
}
1001
AUSTER_FOLIE
1002
{
1000
NSB00777_S2_WENDE
1002
}
  0
LINE
  5
12436
330
20
100
AcDbEntity
  8
10000_FRONT
  6
Continuous
 62
     7
370
    20
100
AcDbLine
 39
0.25
 10
-66.81510907162692
 20
702.5162530542672
 30
0.0
 11
-66.81510907162692
 21
704.2389530542672
 31
0.0
1001
AUSTER_ANSICHT
1002
{
1000
Det03
1002
}
1001
AUSTER_FOLIE
1002
{
1000
NSB00777_S2_WENDE
1002
}
  0
LINE
  5
12437
330
20
100
AcDbEntity
  8
10000_FRONT
  6
Continuous
 62
     7
370
    20
100
AcDbLine
 39
0.25
 10
-68.0151090716269
 20
704.2389530542672
 30
0.0
 11
-68.0151090716269
 21
702.5162530542672
 31
0.0
1001
AUSTER_ANSICHT
1002
{
1000
Det03
1002
}
1001
AUSTER_FOLIE
1002
{
1000
NSB00777_S2_WENDE
1002
}
  0
LINE
  5
12438
330
20
100
AcDbEntity
  8
10000_FRONT
  6
Continuous
 62
     7
370
    20
100
AcDbLine
 39
0.25
 10
-71.8596490716269
 20
704.2389530542672
 30
0.0
 11
-68.0151090716269
 21
704.2389530542672
 31
0.0
1001
AUSTER_ANSICHT
1002
{
1000
Det03
1002
}
1001
AUSTER_FOLIE
1002
{
1000
NSB00777_S2_WENDE
1002
}
  0
LINE
  5
12439
330
20
100
AcDbEntity
  8
10000_FRONT
  6
Continuous
 62
     7
370
    20
100
AcDbLine
 39
0.25
 10
-33.04657907162692
 20
768.0373530542673
 30
0.0
 11
-36.89111907162692
 21
768.0373530542673
 31
0.0
1001
AUSTER_ANSICHT
1002
{
1000
Det03
1002
}
1001
AUSTER_FOLIE
1002
{
1000
NSB00777_S2_WENDE
1002
}
  0
LINE
  5
1243A
330
20
100
AcDbEntity
  8
10000_FRONT
  6
Continuous
 62
     7
370
    20
100
AcDbLine
 39
0.25
 10
-33.04657907162692
 20
766.3147530542673
 30
0.0
 11
-33.04657907162692
 21
768.0373530542673
 31
0.0
1001
AUSTER_ANSICHT
1002
{
1000
Det03
1002
}
1001
AUSTER_FOLIE
1002
{
1000
NSB00777_S2_WENDE
1002
}
  0
LINE
  5
1243B
330
20
100
AcDbEntity
  8
10000_FRONT
  6
Continuous
 62
     7
370
    20
100
AcDbLine
 39
0.25
 10
-31.84657907162691
 20
768.0373530542673
 30
0.0
 11
-31.84657907162691
 21
766.3147530542673
 31
0.0
1001
AUSTER_ANSICHT
1002
{
1000
Det03
1002
}
1001
AUSTER_FOLIE
1002
{
1000
NSB00777_S2_WENDE
1002
}
  0
LINE
  5
1243C
330
20
100
AcDbEntity
  8
10000_FRONT
  6
Continuous
 62
     7
370
    20
100
AcDbLine
 39
0.25
 10
-28.00203907162691
 20
768.0373530542673
 30
0.0
 11
-31.84657907162691
 21
768.0373530542673
 31
0.0
1001
AUSTER_ANSICHT
1002
{
1000
Det03
1002
}
1001
AUSTER_FOLIE
1002
{
1000
NSB00777_S2_WENDE
1002
}
  0
LINE
  5
1243D
330
20
100
AcDbEntity
  8
10000_FRONT
  6
Continuous
 62
     7
370
    20
100
AcDbLine
 39
0.25
 10
-31.84657907162691
 20
769.4459530542673
 30
0.0
 11
-28.00203907162691
 21
769.4459530542673
 31
0.0
1001
AUSTER_ANSICHT
1002
{
1000
Det03
1002
}
1001
AUSTER_FOLIE
1002
{
1000
NSB00777_S2_WENDE
1002
}
  0
LINE
  5
1243E
330
20
100
AcDbEntity
  8
10000_FRONT
  6
Continuous
 62
     7
370
    20
100
AcDbLine
 39
0.25
 10
-31.84657907162691
 20
771.1685530542673
 30
0.0
 11
-31.84657907162691
 21
769.4459530542673
 31
0.0
1001
AUSTER_ANSICHT
1002
{
1000
Det03
1002
}
1001
AUSTER_FOLIE
1002
{
1000
NSB00777_S2_WENDE
1002
}
  0
LINE
  5
1243F
330
20
100
AcDbEntity
  8
10000_FRONT
  6
Continuous
 62
     7
370
    20
100
AcDbLine
 39
0.25
 10
-33.04657907162692
 20
769.4459530542673
 30
0.0
 11
-33.04657907162692
 21
771.1685530542673
 31
0.0
1001
AUSTER_ANSICHT
1002
{
1000
Det03
1002
}
1001
AUSTER_FOLIE
1002
{
1000
NSB00777_S2_WENDE
1002
}
  0
LINE
  5
12440
330
20
100
AcDbEntity
  8
10000_FRONT
  6
Continuous
 62
     7
370
    20
100
AcDbLine
 39
0.25
 10
-36.89111907162692
 20
769.4459530542673
 30
0.0
 11
-33.04657907162692
 21
769.4459530542673
 31
0.0
1001
AUSTER_ANSICHT
1002
{
1000
Det03
1002
}
1001
AUSTER_FOLIE
1002
{
1000
NSB00777_S2_WENDE
1002
}
  0
LINE
  5
12441
330
20
100
AcDbEntity
  8
10000_FRONT
  6
Continuous
 62
     7
370
    20
100
AcDbLine
 39
0.25
 10
-50.5308490716269
 20
768.0350530542672
 30
0.0
 11
-54.37538907162689
 21
768.0350530542672
 31
0.0
1001
AUSTER_ANSICHT
1002
{
1000
Det03
1002
}
1001
AUSTER_FOLIE
1002
{
1000
NSB00777_S2_WENDE
1002
}
  0
LINE
  5
12442
330
20
100
AcDbEntity
  8
10000_FRONT
  6
Continuous
 62
     7
370
    20
100
AcDbLine
 39
0.25
 10
-50.5308490716269
 20
766.3124530542674
 30
0.0
 11
-50.5308490716269
 21
768.0350530542672
 31
0.0
1001
AUSTER_ANSICHT
1002
{
1000
Det03
1002
}
1001
AUSTER_FOLIE
1002
{
1000
NSB00777_S2_WENDE
1002
}
  0
LINE
  5
12443
330
20
100
AcDbEntity
  8
10000_FRONT
  6
Continuous
 62
     7
370
    20
100
AcDbLine
 39
0.25
 10
-49.3308490716269
 20
768.0350530542672
 30
0.0
 11
-49.3308490716269
 21
766.3124530542674
 31
0.0
1001
AUSTER_ANSICHT
1002
{
1000
Det03
1002
}
1001
AUSTER_FOLIE
1002
{
1000
NSB00777_S2_WENDE
1002
}
  0
LINE
  5
12444
330
20
100
AcDbEntity
  8
10000_FRONT
  6
Continuous
 62
     7
370
    20
100
AcDbLine
 39
0.25
 10
-45.4862990716269
 20
768.0350530542672
 30
0.0
 11
-49.3308490716269
 21
768.0350530542672
 31
0.0
1001
AUSTER_ANSICHT
1002
{
1000
Det03
1002
}
1001
AUSTER_FOLIE
1002
{
1000
NSB00777_S2_WENDE
1002
}
  0
LINE
  5
12445
330
20
100
AcDbEntity
  8
10000_FRONT
  6
Continuous
 62
     7
370
    20
100
AcDbLine
 39
0.25
 10
-49.3308490716269
 20
769.4436530542673
 30
0.0
 11
-45.4862990716269
 21
769.4436530542673
 31
0.0
1001
AUSTER_ANSICHT
1002
{
1000
Det03
1002
}
1001
AUSTER_FOLIE
1002
{
1000
NSB00777_S2_WENDE
1002
}
  0
LINE
  5
12446
330
20
100
AcDbEntity
  8
10000_FRONT
  6
Continuous
 62
     7
370
    20
100
AcDbLine
 39
0.25
 10
-49.3308490716269
 20
771.1663530542672
 30
0.0
 11
-49.3308490716269
 21
769.4436530542673
 31
0.0
1001
AUSTER_ANSICHT
1002
{
1000
Det03
1002
}
1001
AUSTER_FOLIE
1002
{
1000
NSB00777_S2_WENDE
1002
}
  0
LINE
  5
12447
330
20
100
AcDbEntity
  8
10000_FRONT
  6
Continuous
 62
     7
370
    20
100
AcDbLine
 39
0.25
 10
-50.5308490716269
 20
769.4436530542673
 30
0.0
 11
-50.5308490716269
 21
771.1663530542672
 31
0.0
1001
AUSTER_ANSICHT
1002
{
1000
Det03
1002
}
1001
AUSTER_FOLIE
1002
{
1000
NSB00777_S2_WENDE
1002
}
  0
LINE
  5
12448
330
20
100
AcDbEntity
  8
10000_FRONT
  6
Continuous
 62
     7
370
    20
100
AcDbLine
 39
0.25
 10
-54.37538907162689
 20
769.4436530542673
 30
0.0
 11
-50.5308490716269
 21
769.4436530542673
 31
0.0
1001
AUSTER_ANSICHT
1002
{
1000
Det03
1002
}
1001
AUSTER_FOLIE
1002
{
1000
NSB00777_S2_WENDE
1002
}
  0
LINE
  5
12449
330
20
100
AcDbEntity
  8
10000_FRONT
  6
Continuous
 62
     7
370
    20
100
AcDbLine
 39
0.25
 10
-68.0151090716269
 20
768.0327530542672
 30
0.0
 11
-71.8596490716269
 21
768.0327530542672
 31
0.0
1001
AUSTER_ANSICHT
1002
{
1000
Det03
1002
}
1001
AUSTER_FOLIE
1002
{
1000
NSB00777_S2_WENDE
1002
}
  0
LINE
  5
1244A
330
20
100
AcDbEntity
  8
10000_FRONT
  6
Continuous
 62
     7
370
    20
100
AcDbLine
 39
0.25
 10
-68.0151090716269
 20
766.3101530542673
 30
0.0
 11
-68.0151090716269
 21
768.0327530542672
 31
0.0
1001
AUSTER_ANSICHT
1002
{
1000
Det03
1002
}
1001
AUSTER_FOLIE
1002
{
1000
NSB00777_S2_WENDE
1002
}
  0
LINE
  5
1244B
330
20
100
AcDbEntity
  8
10000_FRONT
  6
Continuous
 62
     7
370
    20
100
AcDbLine
 39
0.25
 10
-66.81510907162692
 20
768.0327530542672
 30
0.0
 11
-66.81510907162692
 21
766.3101530542673
 31
0.0
1001
AUSTER_ANSICHT
1002
{
1000
Det03
1002
}
1001
AUSTER_FOLIE
1002
{
1000
NSB00777_S2_WENDE
1002
}
  0
LINE
  5
1244C
330
20
100
AcDbEntity
  8
10000_FRONT
  6
Continuous
 62
     7
370
    20
100
AcDbLine
 39
0.25
 10
-62.97056907162691
 20
768.0327530542672
 30
0.0
 11
-66.81510907162692
 21
768.0327530542672
 31
0.0
1001
AUSTER_ANSICHT
1002
{
1000
Det03
1002
}
1001
AUSTER_FOLIE
1002
{
1000
NSB00777_S2_WENDE
1002
}
  0
LINE
  5
1244D
330
20
100
AcDbEntity
  8
10000_FRONT
  6
Continuous
 62
     7
370
    20
100
AcDbLine
 39
0.25
 10
-66.81510907162692
 20
769.4414530542672
 30
0.0
 11
-62.97056907162691
 21
769.4414530542672
 31
0.0
1001
AUSTER_ANSICHT
1002
{
1000
Det03
1002
}
1001
AUSTER_FOLIE
1002
{
1000
NSB00777_S2_WENDE
1002
}
  0
LINE
  5
1244E
330
20
100
AcDbEntity
  8
10000_FRONT
  6
Continuous
 62
     7
370
    20
100
AcDbLine
 39
0.25
 10
-66.81510907162692
 20
771.1640530542672
 30
0.0
 11
-66.81510907162692
 21
769.4414530542672
 31
0.0
1001
AUSTER_ANSICHT
1002
{
1000
Det03
1002
}
1001
AUSTER_FOLIE
1002
{
1000
NSB00777_S2_WENDE
1002
}
  0
LINE
  5
1244F
330
20
100
AcDbEntity
  8
10000_FRONT
  6
Continuous
 62
     7
370
    20
100
AcDbLine
 39
0.25
 10
-68.0151090716269
 20
769.4414530542672
 30
0.0
 11
-68.0151090716269
 21
771.1640530542672
 31
0.0
1001
AUSTER_ANSICHT
1002
{
1000
Det03
1002
}
1001
AUSTER_FOLIE
1002
{
1000
NSB00777_S2_WENDE
1002
}
  0
LINE
  5
12450
330
20
100
AcDbEntity
  8
10000_FRONT
  6
Continuous
 62
     7
370
    20
100
AcDbLine
 39
0.25
 10
-71.8596490716269
 20
769.4414530542672
 30
0.0
 11
-68.0151090716269
 21
769.4414530542672
 31
0.0
1001
AUSTER_ANSICHT
1002
{
1000
Det03
1002
}
1001
AUSTER_FOLIE
1002
{
1000
NSB00777_S2_WENDE
1002
}
  0
LINE
  5
12451
330
20
100
AcDbEntity
  8
10000_FRONT
  6
Continuous
 62
     7
370
    20
100
AcDbLine
 39
0.25
 10
-41.69583907162691
 20
671.3612530542673
 30
0.0
 11
-41.69584907162692
 21
671.1809530542673
 31
0.0
1001
AUSTER_ANSICHT
1002
{
1000
Det03
1002
}
1001
AUSTER_FOLIE
1002
{
1000
NSB00777_S2_WENDE
1002
}
  0
LINE
  5
12452
330
20
100
AcDbEntity
  8
10000_FRONT
  6
Continuous
 62
     7
370
    20
100
AcDbLine
 39
0.25
 10
-82.93010707162691
 20
710.111253054267
 30
0.0
 11
-82.93010907162692
 21
709.930953054267
 31
0.0
1001
AUSTER_ANSICHT
1002
{
1000
Det03
1002
}
1001
AUSTER_FOLIE
1002
{
1000
NSB00777_S2_WENDE
1002
}
  0
LINE
  5
12453
330
20
100
AcDbEntity
  8
10000_FRONT
  6
Continuous
 62
     7
370
    20
100
AcDbLine
 39
0.25
 10
-82.93010707162691
 20
763.5420530542672
 30
0.0
 11
-82.93010907162692
 21
763.7223530542672
 31
0.0
1001
AUSTER_ANSICHT
1002
{
1000
Det03
1002
}
1001
AUSTER_FOLIE
1002
{
1000
NSB00777_S2_WENDE
1002
}
  0
LINE
  5
12454
330
20
100
AcDbEntity
  8
10000_FRONT
  6
Continuous
 62
     7
370
    20
100
AcDbLine
 39
0.25
 10
-41.68010907162693
 20
757.5420530542673
 30
0.0
 11
-41.68010907162693
 21
757.7223530542672
 31
0.0
1001
AUSTER_ANSICHT
1002
{
1000
Det03
1002
}
1001
AUSTER_FOLIE
1002
{
1000
NSB00777_S2_WENDE
1002
}
  0
LINE
  5
12455
330
20
100
AcDbEntity
  8
10000_FRONT
  6
Continuous
 62
     7
370
    20
100
AcDbLine
 39
0.25
 10
-41.69584907162692
 20
669.7920530542672
 30
0.0
 11
-41.69584907162692
 21
669.9723530542672
 31
0.0
1001
AUSTER_ANSICHT
1002
{
1000
Det03
1002
}
1001
AUSTER_FOLIE
1002
{
1000
NSB00777_S2_WENDE
1002
}
  0
LINE
  5
12456
330
20
100
AcDbEntity
  8
10000_FRONT
  6
Continuous
 62
     7
370
    20
100
AcDbLine
 39
0.25
 10
-82.93010907162692
 20
708.5420530542672
 30
0.0
 11
-82.93010907162692
 21
708.7223530542672
 31
0.0
1001
AUSTER_ANSICHT
1002
{
1000
Det03
1002
}
1001
AUSTER_FOLIE
1002
{
1000
NSB00777_S2_WENDE
1002
}
  0
LINE
  5
12457
330
20
100
AcDbEntity
  8
10000_FRONT
  6
Continuous
 62
     7
370
    20
100
AcDbLine
 39
0.25
 10
-82.93010907162692
 20
765.1112530542674
 30
0.0
 11
-82.93010907162692
 21
764.9309530542673
 31
0.0
1001
AUSTER_ANSICHT
1002
{
1000
Det03
1002
}
1001
AUSTER_FOLIE
1002
{
1000
NSB00777_S2_WENDE
1002
}
  0
LINE
  5
12458
330
20
100
AcDbEntity
  8
10000_FRONT
  6
Continuous
 62
     7
370
    20
100
AcDbLine
 39
0.25
 10
-41.68010907162693
 20
759.1112530542674
 30
0.0
 11
-41.68010907162693
 21
758.9309530542672
 31
0.0
1001
AUSTER_ANSICHT
1002
{
1000
Det03
1002
}
1001
AUSTER_FOLIE
1002
{
1000
NSB00777_S2_WENDE
1002
}
  0
LINE
  5
12459
330
20
100
AcDbEntity
  8
10000_FRONT
  6
Continuous
 62
     7
370
    20
100
AcDbLine
 39
0.25
 10
-40.66584907162689
 20
671.3612530542673
 30
0.0
 11
-40.66584907162689
 21
671.1809530542673
 31
0.0
1001
AUSTER_ANSICHT
1002
{
1000
Det03
1002
}
1001
AUSTER_FOLIE
1002
{
1000
NSB00777_S2_WENDE
1002
}
  0
LINE
  5
1245A
330
20
100
AcDbEntity
  8
10000_FRONT
  6
Continuous
 62
     7
370
    20
100
AcDbLine
 39
0.25
 10
-81.9001100716269
 20
710.111253054267
 30
0.0
 11
-81.90010907162692
 21
709.930953054267
 31
0.0
1001
AUSTER_ANSICHT
1002
{
1000
Det03
1002
}
1001
AUSTER_FOLIE
1002
{
1000
NSB00777_S2_WENDE
1002
}
  0
LINE
  5
1245B
330
20
100
AcDbEntity
  8
10000_FRONT
  6
Continuous
 62
     7
370
    20
100
AcDbLine
 39
0.25
 10
-81.9001100716269
 20
763.5420530542672
 30
0.0
 11
-81.90010907162692
 21
763.7223530542672
 31
0.0
1001
AUSTER_ANSICHT
1002
{
1000
Det03
1002
}
1001
AUSTER_FOLIE
1002
{
1000
NSB00777_S2_WENDE
1002
}
  0
LINE
  5
1245C
330
20
100
AcDbEntity
  8
10000_FRONT
  6
Continuous
 62
     7
370
    20
100
AcDbLine
 39
0.25
 10
-40.65010907162689
 20
757.5420530542673
 30
0.0
 11
-40.65010907162689
 21
757.7223530542672
 31
0.0
1001
AUSTER_ANSICHT
1002
{
1000
Det03
1002
}
1001
AUSTER_FOLIE
1002
{
1000
NSB00777_S2_WENDE
1002
}
  0
LINE
  5
1245D
330
20
100
AcDbEntity
  8
10000_FRONT
  6
Continuous
 62
     7
370
    20
100
AcDbLine
 39
0.25
 10
-40.66584907162689
 20
669.7920530542672
 30
0.0
 11
-40.66584907162689
 21
669.9723530542672
 31
0.0
1001
AUSTER_ANSICHT
1002
{
1000
Det03
1002
}
1001
AUSTER_FOLIE
1002
{
1000
NSB00777_S2_WENDE
1002
}
  0
LINE
  5
1245E
330
20
100
AcDbEntity
  8
10000_FRONT
  6
Continuous
 62
     7
370
    20
100
AcDbLine
 39
0.25
 10
-81.9001100716269
 20
708.5420530542672
 30
0.0
 11
-81.90010907162692
 21
708.7223530542672
 31
0.0
1001
AUSTER_ANSICHT
1002
{
1000
Det03
1002
}
1001
AUSTER_FOLIE
1002
{
1000
NSB00777_S2_WENDE
1002
}
  0
LINE
  5
1245F
330
20
100
AcDbEntity
  8
10000_FRONT
  6
Continuous
 62
     7
370
    20
100
AcDbLine
 39
0.25
 10
-81.9001100716269
 20
765.1112530542674
 30
0.0
 11
-81.90010907162692
 21
764.9309530542673
 31
0.0
1001
AUSTER_ANSICHT
1002
{
1000
Det03
1002
}
1001
AUSTER_FOLIE
1002
{
1000
NSB00777_S2_WENDE
1002
}
  0
LINE
  5
12460
330
20
100
AcDbEntity
  8
10000_FRONT
  6
Continuous
 62
     7
370
    20
100
AcDbLine
 39
0.25
 10
-40.65010907162689
 20
759.1112530542674
 30
0.0
 11
-40.65010907162689
 21
758.9309530542672
 31
0.0
1001
AUSTER_ANSICHT
1002
{
1000
Det03
1002
}
1001
AUSTER_FOLIE
1002
{
1000
NSB00777_S2_WENDE
1002
}
  0
LINE
  5
12461
330
20
100
AcDbEntity
  8
10000_FRONT
  6
Continuous
 62
     7
370
    20
100
AcDbLine
 39
0.25
 10
-41.69583907162691
 20
671.3612530542673
 30
0.0
 11
-41.69584907162692
 21
672.3535530542672
 31
0.0
1001
AUSTER_ANSICHT
1002
{
1000
Det03
1002
}
1001
AUSTER_FOLIE
1002
{
1000
NSB00777_S2_WENDE
1002
}
  0
LINE
  5
12462
330
20
100
AcDbEntity
  8
10000_FRONT
  6
Continuous
 62
     7
370
    20
100
AcDbLine
 39
0.25
 10
-82.93010707162691
 20
710.111253054267
 30
0.0
 11
-82.93010907162692
 21
711.1035530542673
 31
0.0
1001
AUSTER_ANSICHT
1002
{
1000
Det03
1002
}
1001
AUSTER_FOLIE
1002
{
1000
NSB00777_S2_WENDE
1002
}
  0
LINE
  5
12463
330
20
100
AcDbEntity
  8
10000_FRONT
  6
Continuous
 62
     7
370
    20
100
AcDbLine
 39
0.25
 10
-82.93010707162691
 20
763.5420530542672
 30
0.0
 11
-82.93010907162692
 21
762.5497530542673
 31
0.0
1001
AUSTER_ANSICHT
1002
{
1000
Det03
1002
}
1001
AUSTER_FOLIE
1002
{
1000
NSB00777_S2_WENDE
1002
}
  0
LINE
  5
12464
330
20
100
AcDbEntity
  8
10000_FRONT
  6
Continuous
 62
     7
370
    20
100
AcDbLine
 39
0.25
 10
-41.68010907162693
 20
757.5420530542673
 30
0.0
 11
-41.68010907162693
 21
756.5497530542671
 31
0.0
1001
AUSTER_ANSICHT
1002
{
1000
Det03
1002
}
1001
AUSTER_FOLIE
1002
{
1000
NSB00777_S2_WENDE
1002
}
  0
LINE
  5
12465
330
20
100
AcDbEntity
  8
10000_FRONT
  6
Continuous
 62
     7
370
    20
100
AcDbLine
 39
0.25
 10
-40.66584907162689
 20
672.3535530542672
 30
0.0
 11
-40.66584907162689
 21
671.3612530542673
 31
0.0
1001
AUSTER_ANSICHT
1002
{
1000
Det03
1002
}
1001
AUSTER_FOLIE
1002
{
1000
NSB00777_S2_WENDE
1002
}
  0
LINE
  5
12466
330
20
100
AcDbEntity
  8
10000_FRONT
  6
Continuous
 62
     7
370
    20
100
AcDbLine
 39
0.25
 10
-81.90010907162692
 20
711.1035530542673
 30
0.0
 11
-81.90010907162692
 21
710.111253054267
 31
0.0
1001
AUSTER_ANSICHT
1002
{
1000
Det03
1002
}
1001
AUSTER_FOLIE
1002
{
1000
NSB00777_S2_WENDE
1002
}
  0
LINE
  5
12467
330
20
100
AcDbEntity
  8
10000_FRONT
  6
Continuous
 62
     7
370
    20
100
AcDbLine
 39
0.25
 10
-81.90010907162692
 20
762.5497530542673
 30
0.0
 11
-81.90010907162692
 21
763.5420530542672
 31
0.0
1001
AUSTER_ANSICHT
1002
{
1000
Det03
1002
}
1001
AUSTER_FOLIE
1002
{
1000
NSB00777_S2_WENDE
1002
}
  0
LINE
  5
12468
330
20
100
AcDbEntity
  8
10000_FRONT
  6
Continuous
 62
     7
370
    20
100
AcDbLine
 39
0.25
 10
-40.65010907162689
 20
756.5497530542671
 30
0.0
 11
-40.65010907162689
 21
757.5420530542673
 31
0.0
1001
AUSTER_ANSICHT
1002
{
1000
Det03
1002
}
1001
AUSTER_FOLIE
1002
{
1000
NSB00777_S2_WENDE
1002
}
  0
LINE
  5
12469
330
20
100
AcDbEntity
  8
10000_FRONT
  6
Continuous
 62
     7
370
    20
100
AcDbLine
 39
0.25
 10
-40.66584907162689
 20
669.7920530542672
 30
0.0
 11
-40.66584907162689
 21
668.7997530542673
 31
0.0
1001
AUSTER_ANSICHT
1002
{
1000
Det03
1002
}
1001
AUSTER_FOLIE
1002
{
1000
NSB00777_S2_WENDE
1002
}
  0
LINE
  5
1246A
330
20
100
AcDbEntity
  8
10000_FRONT
  6
Continuous
 62
     7
370
    20
100
AcDbLine
 39
0.25
 10
-81.90010907162692
 20
708.5420530542672
 30
0.0
 11
-81.90010907162692
 21
707.5497530542673
 31
0.0
1001
AUSTER_ANSICHT
1002
{
1000
Det03
1002
}
1001
AUSTER_FOLIE
1002
{
1000
NSB00777_S2_WENDE
1002
}
  0
LINE
  5
1246B
330
20
100
AcDbEntity
  8
10000_FRONT
  6
Continuous
 62
     7
370
    20
100
AcDbLine
 39
0.25
 10
-81.90010907162692
 20
765.1112530542674
 30
0.0
 11
-81.90010907162692
 21
766.1035530542672
 31
0.0
1001
AUSTER_ANSICHT
1002
{
1000
Det03
1002
}
1001
AUSTER_FOLIE
1002
{
1000
NSB00777_S2_WENDE
1002
}
  0
LINE
  5
1246C
330
20
100
AcDbEntity
  8
10000_FRONT
  6
Continuous
 62
     7
370
    20
100
AcDbLine
 39
0.25
 10
-40.65010907162689
 20
759.1112530542674
 30
0.0
 11
-40.65010907162689
 21
760.1035530542673
 31
0.0
1001
AUSTER_ANSICHT
1002
{
1000
Det03
1002
}
1001
AUSTER_FOLIE
1002
{
1000
NSB00777_S2_WENDE
1002
}
  0
LINE
  5
1246D
330
20
100
AcDbEntity
  8
10000_FRONT
  6
Continuous
 62
     7
370
    20
100
AcDbLine
 39
0.25
 10
-38.39514907162692
 20
669.9723530542672
 30
0.0
 11
-40.66584907162689
 21
669.9723530542672
 31
0.0
1001
AUSTER_ANSICHT
1002
{
1000
Det03
1002
}
1001
AUSTER_FOLIE
1002
{
1000
NSB00777_S2_WENDE
1002
}
  0
LINE
  5
1246E
330
20
100
AcDbEntity
  8
10000_FRONT
  6
Continuous
 62
     7
370
    20
100
AcDbLine
 39
0.25
 10
-79.6294110716269
 20
708.7223530542672
 30
0.0
 11
-81.90010907162692
 21
708.7223530542672
 31
0.0
1001
AUSTER_ANSICHT
1002
{
1000
Det03
1002
}
1001
AUSTER_FOLIE
1002
{
1000
NSB00777_S2_WENDE
1002
}
  0
LINE
  5
1246F
330
20
100
AcDbEntity
  8
10000_FRONT
  6
Continuous
 62
     7
370
    20
100
AcDbLine
 39
0.25
 10
-79.6294110716269
 20
764.9309530542673
 30
0.0
 11
-81.90010907162692
 21
764.9309530542673
 31
0.0
1001
AUSTER_ANSICHT
1002
{
1000
Det03
1002
}
1001
AUSTER_FOLIE
1002
{
1000
NSB00777_S2_WENDE
1002
}
  0
LINE
  5
12470
330
20
100
AcDbEntity
  8
10000_FRONT
  6
Continuous
 62
     7
370
    20
100
AcDbLine
 39
0.25
 10
-38.37940907162693
 20
758.9309530542672
 30
0.0
 11
-40.65010907162689
 21
758.9309530542672
 31
0.0
1001
AUSTER_ANSICHT
1002
{
1000
Det03
1002
}
1001
AUSTER_FOLIE
1002
{
1000
NSB00777_S2_WENDE
1002
}
  0
LINE
  5
12471
330
20
100
AcDbEntity
  8
10000_FRONT
  6
Continuous
 62
     7
370
    20
100
AcDbLine
 39
0.25
 10
-40.66584907162689
 20
671.1809530542673
 30
0.0
 11
-38.39514907162692
 21
671.1809530542673
 31
0.0
1001
AUSTER_ANSICHT
1002
{
1000
Det03
1002
}
1001
AUSTER_FOLIE
1002
{
1000
NSB00777_S2_WENDE
1002
}
  0
LINE
  5
12472
330
20
100
AcDbEntity
  8
10000_FRONT
  6
Continuous
 62
     7
370
    20
100
AcDbLine
 39
0.25
 10
-81.90010907162692
 20
709.930953054267
 30
0.0
 11
-79.6294110716269
 21
709.930953054267
 31
0.0
1001
AUSTER_ANSICHT
1002
{
1000
Det03
1002
}
1001
AUSTER_FOLIE
1002
{
1000
NSB00777_S2_WENDE
1002
}
  0
LINE
  5
12473
330
20
100
AcDbEntity
  8
10000_FRONT
  6
Continuous
 62
     7
370
    20
100
AcDbLine
 39
0.25
 10
-81.90010907162692
 20
763.7223530542672
 30
0.0
 11
-79.6294110716269
 21
763.7223530542672
 31
0.0
1001
AUSTER_ANSICHT
1002
{
1000
Det03
1002
}
1001
AUSTER_FOLIE
1002
{
1000
NSB00777_S2_WENDE
1002
}
  0
LINE
  5
12474
330
20
100
AcDbEntity
  8
10000_FRONT
  6
Continuous
 62
     7
370
    20
100
AcDbLine
 39
0.25
 10
-40.65010907162689
 20
757.7223530542672
 30
0.0
 11
-38.37940907162693
 21
757.7223530542672
 31
0.0
1001
AUSTER_ANSICHT
1002
{
1000
Det03
1002
}
1001
AUSTER_FOLIE
1002
{
1000
NSB00777_S2_WENDE
1002
}
  0
LINE
  5
12475
330
20
100
AcDbEntity
  8
10000_FRONT
  6
Continuous
 62
     7
370
    20
100
AcDbLine
 39
0.25
 10
-43.96653907162693
 20
671.1809530542673
 30
0.0
 11
-41.69584907162692
 21
671.1809530542673
 31
0.0
1001
AUSTER_ANSICHT
1002
{
1000
Det03
1002
}
1001
AUSTER_FOLIE
1002
{
1000
NSB00777_S2_WENDE
1002
}
  0
LINE
  5
12476
330
20
100
AcDbEntity
  8
10000_FRONT
  6
Continuous
 62
     7
370
    20
100
AcDbLine
 39
0.25
 10
-85.20080707162689
 20
709.930953054267
 30
0.0
 11
-82.93010907162692
 21
709.930953054267
 31
0.0
1001
AUSTER_ANSICHT
1002
{
1000
Det03
1002
}
1001
AUSTER_FOLIE
1002
{
1000
NSB00777_S2_WENDE
1002
}
  0
LINE
  5
12477
330
20
100
AcDbEntity
  8
10000_FRONT
  6
Continuous
 62
     7
370
    20
100
AcDbLine
 39
0.25
 10
-85.20080707162689
 20
763.7223530542672
 30
0.0
 11
-82.93010907162692
 21
763.7223530542672
 31
0.0
1001
AUSTER_ANSICHT
1002
{
1000
Det03
1002
}
1001
AUSTER_FOLIE
1002
{
1000
NSB00777_S2_WENDE
1002
}
  0
LINE
  5
12478
330
20
100
AcDbEntity
  8
10000_FRONT
  6
Continuous
 62
     7
370
    20
100
AcDbLine
 39
0.25
 10
-43.95080907162689
 20
757.7223530542672
 30
0.0
 11
-41.68010907162693
 21
757.7223530542672
 31
0.0
1001
AUSTER_ANSICHT
1002
{
1000
Det03
1002
}
1001
AUSTER_FOLIE
1002
{
1000
NSB00777_S2_WENDE
1002
}
  0
LINE
  5
12479
330
20
100
AcDbEntity
  8
10000_FRONT
  6
Continuous
 62
     7
370
    20
100
AcDbLine
 39
0.25
 10
-41.69584907162692
 20
669.9723530542672
 30
0.0
 11
-43.96653907162693
 21
669.9723530542672
 31
0.0
1001
AUSTER_ANSICHT
1002
{
1000
Det03
1002
}
1001
AUSTER_FOLIE
1002
{
1000
NSB00777_S2_WENDE
1002
}
  0
LINE
  5
1247A
330
20
100
AcDbEntity
  8
10000_FRONT
  6
Continuous
 62
     7
370
    20
100
AcDbLine
 39
0.25
 10
-82.93010907162692
 20
708.7223530542672
 30
0.0
 11
-85.20080707162689
 21
708.7223530542672
 31
0.0
1001
AUSTER_ANSICHT
1002
{
1000
Det03
1002
}
1001
AUSTER_FOLIE
1002
{
1000
NSB00777_S2_WENDE
1002
}
  0
LINE
  5
1247B
330
20
100
AcDbEntity
  8
10000_FRONT
  6
Continuous
 62
     7
370
    20
100
AcDbLine
 39
0.25
 10
-82.93010907162692
 20
764.9309530542673
 30
0.0
 11
-85.20080707162689
 21
764.9309530542673
 31
0.0
1001
AUSTER_ANSICHT
1002
{
1000
Det03
1002
}
1001
AUSTER_FOLIE
1002
{
1000
NSB00777_S2_WENDE
1002
}
  0
LINE
  5
1247C
330
20
100
AcDbEntity
  8
10000_FRONT
  6
Continuous
 62
     7
370
    20
100
AcDbLine
 39
0.25
 10
-41.69584907162692
 20
668.7997530542673
 30
0.0
 11
-41.69584907162692
 21
669.7920530542672
 31
0.0
1001
AUSTER_ANSICHT
1002
{
1000
Det03
1002
}
1001
AUSTER_FOLIE
1002
{
1000
NSB00777_S2_WENDE
1002
}
  0
LINE
  5
1247D
330
20
100
AcDbEntity
  8
10000_FRONT
  6
Continuous
 62
     7
370
    20
100
AcDbLine
 39
0.25
 10
-82.93010907162692
 20
707.5497530542673
 30
0.0
 11
-82.93010907162692
 21
708.5420530542672
 31
0.0
1001
AUSTER_ANSICHT
1002
{
1000
Det03
1002
}
1001
AUSTER_FOLIE
1002
{
1000
NSB00777_S2_WENDE
1002
}
  0
LINE
  5
1247E
330
20
100
AcDbEntity
  8
10000_FRONT
  6
Continuous
 62
     7
370
    20
100
AcDbLine
 39
0.25
 10
-82.93010907162692
 20
766.1035530542672
 30
0.0
 11
-82.93010907162692
 21
765.1112530542674
 31
0.0
1001
AUSTER_ANSICHT
1002
{
1000
Det03
1002
}
1001
AUSTER_FOLIE
1002
{
1000
NSB00777_S2_WENDE
1002
}
  0
LINE
  5
1247F
330
20
100
AcDbEntity
  8
10000_FRONT
  6
Continuous
 62
     7
370
    20
100
AcDbLine
 39
0.25
 10
-70.01510907162689
 20
720.4311530542672
 30
0.0
 11
-29.81510907162692
 21
720.4311530542672
 31
0.0
1001
AUSTER_ANSICHT
1002
{
1000
Det03
1002
}
1001
AUSTER_FOLIE
1002
{
1000
NSB00777_S2_WENDE
1002
}
  0
LINE
  5
12480
330
20
100
AcDbEntity
  8
10000_FRONT
  6
Continuous
 62
     7
370
    20
100
AcDbLine
 39
0.25
 10
-41.68010907162693
 20
758.9309530542672
 30
0.0
 11
-43.95080907162689
 21
758.9309530542672
 31
0.0
1001
AUSTER_ANSICHT
1002
{
1000
Det03
1002
}
1001
AUSTER_FOLIE
1002
{
1000
NSB00777_S2_WENDE
1002
}
  0
LINE
  5
12481
330
20
100
AcDbEntity
  8
10000_FRONT
  6
Continuous
 62
     7
370
    20
100
AcDbLine
 39
0.25
 10
-41.68010907162693
 20
760.1035530542673
 30
0.0
 11
-41.68010907162693
 21
759.1112530542674
 31
0.0
1001
AUSTER_ANSICHT
1002
{
1000
Det03
1002
}
1001
AUSTER_FOLIE
1002
{
1000
NSB00777_S2_WENDE
1002
}
  0
LINE
  5
12482
330
20
100
AcDbEntity
  8
10000_FRONT
  6
Continuous
 62
     7
370
    20
100
AcDbLine
 39
0.25
 10
-24.23601907162691
 20
797.8067530542672
 30
0.0
 11
-24.23601907162691
 21
780.8067530542672
 31
0.0
1001
AUSTER_ANSICHT
1002
{
1000
Det03
1002
}
1001
AUSTER_FOLIE
1002
{
1000
NSB00777_S2_WENDE
1002
}
  0
ARC
  5
12483
330
20
100
AcDbEntity
  8
10000_FRONT
  6
Continuous
 62
     7
370
    50
100
AcDbCircle
 39
0.25
 10
-140.2651190716269
 20
692.7266530542672
 30
0.0
 40
0.4
100
AcDbArc
 50
180.0
 51
270.0
1001
AUSTER_ANSICHT
1002
{
1000
Det03
1002
}
1001
AUSTER_FOLIE
1002
{
1000
NSB00777_S2_WENDE
1002
}
  0
ARC
  5
12484
330
20
100
AcDbEntity
  8
10000_FRONT
  6
Continuous
 62
     7
370
    20
100
AcDbCircle
 39
0.25
 10
-140.2651090716269
 20
780.9266530542672
 30
0.0
 40
0.4
100
AcDbArc
 50
90.0
 51
180.0
1001
AUSTER_ANSICHT
1002
{
1000
Det03
1002
}
1001
AUSTER_FOLIE
1002
{
1000
NSB00777_S2_WENDE
1002
}
  0
ARC
  5
12485
330
20
100
AcDbEntity
  8
10000_FRONT
  6
Continuous
 62
     7
370
    20
100
AcDbCircle
 39
0.25
 10
-140.9151090716269
 20
777.8266530542672
 30
0.0
 40
1.5
100
AcDbArc
 50
89.99998999999899
 51
180.0
1001
AUSTER_ANSICHT
1002
{
1000
Det03
1002
}
1001
AUSTER_FOLIE
1002
{
1000
NSB00777_S2_WENDE
1002
}
  0
ARC
  5
12486
330
20
100
AcDbEntity
  8
10000_FRONT
  6
Continuous
 62
     7
370
    50
100
AcDbCircle
 39
0.25
 10
-140.9151190716269
 20
695.8266530542672
 30
0.0
 40
1.5
100
AcDbArc
 50
180.0
 51
270.0
1001
AUSTER_ANSICHT
1002
{
1000
Det03
1002
}
1001
AUSTER_FOLIE
1002
{
1000
NSB00777_S2_WENDE
1002
}
  0
LINE
  5
12487
330
20
100
AcDbEntity
  8
10000_FRONT
  6
DASHED
 62
     7
370
    13
100
AcDbLine
 39
0.25
 10
-139.9151090716269
 20
689.8266530542672
 30
0.0
 11
-139.9151090716269
 21
688.8266530542672
 31
0.0
1001
AUSTER_ANSICHT
1002
{
1000
Det03
1002
}
1001
AUSTER_FOLIE
1002
{
1000
NSB00777_S2_WENDE
1002
}
  0
LINE
  5
12488
330
20
100
AcDbEntity
  8
10000_FRONT
  6
Continuous
 62
     7
370
    50
100
AcDbLine
 39
0.7
 10
-140.9151090716269
 20
692.3266530542672
 30
0.0
 11
-140.9151090716269
 21
683.8266530542672
 31
0.0
1001
AUSTER_ANSICHT
1002
{
1000
Det03
1002
}
1001
AUSTER_FOLIE
1002
{
1000
NSB00777_S2_WENDE
1002
}
  0
LINE
  5
12489
330
20
100
AcDbEntity
  8
10000_FRONT
  6
Continuous
 62
     7
370
    50
100
AcDbLine
 39
0.25
 10
-140.6651190716269
 20
692.7266530542672
 30
0.0
 11
-140.6651190716269
 21
694.3266530542672
 31
0.0
1001
AUSTER_ANSICHT
1002
{
1000
Det03
1002
}
1001
AUSTER_FOLIE
1002
{
1000
NSB00777_S2_WENDE
1002
}
  0
LINE
  5
1248A
330
20
100
AcDbEntity
  8
10000_FRONT
  6
Continuous
 62
     7
370
    20
100
AcDbLine
 39
0.25
 10
-140.6651090716269
 20
779.3266530542672
 30
0.0
 11
-140.6651090716269
 21
780.9266530542672
 31
0.0
1001
AUSTER_ANSICHT
1002
{
1000
Det03
1002
}
1001
AUSTER_FOLIE
1002
{
1000
NSB00777_S2_WENDE
1002
}
  0
LINE
  5
1248B
330
20
100
AcDbEntity
  8
10000_FRONT
  6
Continuous
 62
     7
370
    20
100
AcDbLine
 39
0.25
 10
-142.4151190716269
 20
695.8266530542672
 30
0.0
 11
-142.4151090716269
 21
695.2977530542672
 31
0.0
1001
AUSTER_ANSICHT
1002
{
1000
Det03
1002
}
1001
AUSTER_FOLIE
1002
{
1000
NSB00777_S2_WENDE
1002
}
  0
LINE
  5
1248C
330
20
100
AcDbEntity
  8
10000_FRONT
  6
Continuous
 62
     7
370
    20
100
AcDbLine
 39
0.25
 10
-140.5941990716269
 20
797.8067530542672
 30
0.0
 11
-140.5941990716269
 21
780.8067530542672
 31
0.0
1001
AUSTER_ANSICHT
1002
{
1000
Det03
1002
}
1001
AUSTER_FOLIE
1002
{
1000
NSB00777_S2_WENDE
1002
}
  0
ARC
  5
12490
330
20
100
AcDbEntity
  8
10000_FRONT
  6
DASHED
 62
     7
370
    13
100
AcDbCircle
 39
0.25
 10
-137.4151090716269
 20
688.8266530542672
 30
0.0
 40
2.5
100
AcDbArc
 50
180.0
 51
0.0
1001
AUSTER_ANSICHT
1002
{
1000
Det03
1002
}
1001
AUSTER_FOLIE
1002
{
1000
NSB00777_S2_WENDE
1002
}
  0
ARC
  5
12491
330
20
100
AcDbEntity
  8
10000_FRONT
  6
DASHED
 62
     7
370
    13
100
AcDbCircle
 39
0.25
 10
-137.4151090716269
 20
689.8266530542672
 30
0.0
 40
2.5
100
AcDbArc
 50
0.0
 51
180.0
1001
AUSTER_ANSICHT
1002
{
1000
Det03
1002
}
1001
AUSTER_FOLIE
1002
{
1000
NSB00777_S2_WENDE
1002
}
  0
LINE
  5
12492
330
20
100
AcDbEntity
  8
10000_FRONT
  6
Continuous
 62
     7
370
    20
100
AcDbLine
 39
0.25
 10
-121.2350190716269
 20
779.3067530542672
 30
0.0
 11
-139.2360190716269
 21
779.3067530542672
 31
0.0
1001
AUSTER_ANSICHT
1002
{
1000
Det03
1002
}
1001
AUSTER_FOLIE
1002
{
1000
NSB00777_S2_WENDE
1002
}
  0
LINE
  5
12493
330
20
100
AcDbEntity
  8
10000_FRONT
  6
Continuous
 62
     7
370
    20
100
AcDbLine
 39
0.25
 10
-88.91511807162691
 20
694.3266530542672
 30
0.0
 11
-140.9151190716269
 21
694.3266530542672
 31
0.0
1001
AUSTER_ANSICHT
1002
{
1000
Det03
1002
}
1001
AUSTER_FOLIE
1002
{
1000
NSB00777_S2_WENDE
1002
}
  0
LINE
  5
12494
330
20
100
AcDbEntity
  8
10000_FRONT
  6
Continuous
 62
     7
370
    20
100
AcDbLine
 39
0.25
 10
-140.2651190716269
 20
692.3266530542672
 30
0.0
 11
-126.3651190716269
 21
692.3266530542672
 31
0.0
1001
AUSTER_ANSICHT
1002
{
1000
Det03
1002
}
1001
AUSTER_FOLIE
1002
{
1000
NSB00777_S2_WENDE
1002
}
  0
LINE
  5
12495
330
20
100
AcDbEntity
  8
10000_FRONT
  6
Continuous
 62
     7
370
    20
100
AcDbLine
 39
0.25
 10
-89.16311107162691
 20
779.3143530542671
 30
0.0
 11
-140.9151090716269
 21
779.3266530542672
 31
0.0
1001
AUSTER_ANSICHT
1002
{
1000
Det03
1002
}
1001
AUSTER_FOLIE
1002
{
1000
NSB00777_S2_WENDE
1002
}
  0
LINE
  5
12496
330
20
100
AcDbEntity
  8
10000_FRONT
  6
Continuous
 62
     7
370
    20
100
AcDbLine
 39
0.25
 10
-140.2651090716269
 20
781.3266530542672
 30
0.0
 11
-126.4651090716269
 21
781.3266530542672
 31
0.0
1001
AUSTER_ANSICHT
1002
{
1000
Det03
1002
}
1001
AUSTER_FOLIE
1002
{
1000
NSB00777_S2_WENDE
1002
}
  0
LINE
  5
12497
330
20
100
AcDbEntity
  8
10000_FRONT
  6
Continuous
 62
     7
370
    20
100
AcDbLine
 39
0.25
 10
-140.9151090716269
 20
692.3266530542672
 30
0.0
 11
-23.91510907162691
 21
692.3266530542672
 31
0.0
1001
AUSTER_ANSICHT
1002
{
1000
Det03
1002
}
1001
AUSTER_FOLIE
1002
{
1000
NSB00777_S2_WENDE
1002
}
  0
LINE
  5
12498
330
20
100
AcDbEntity
  8
10000_FRONT
  6
Continuous
 62
     7
370
    50
100
AcDbLine
 39
0.25
 10
-140.5941990716269
 20
790.3067530542672
 30
0.0
 11
-24.23601907162691
 21
790.3067530542672
 31
0.0
1001
AUSTER_ANSICHT
1002
{
1000
Det03
1002
}
1001
AUSTER_FOLIE
1002
{
1000
NSB00777_S2_WENDE
1002
}
  0
LINE
  5
12499
330
20
100
AcDbEntity
  8
10000_FRONT
  6
Continuous
 62
     7
370
    20
100
AcDbLine
 39
0.25
 10
-140.2651090716269
 20
781.3266530542672
 30
0.0
 11
-24.2151090716269
 21
781.3266530542672
 31
0.0
1001
AUSTER_ANSICHT
1002
{
1000
Det03
1002
}
1001
AUSTER_FOLIE
1002
{
1000
NSB00777_S2_WENDE
1002
}
  0
ARC
  5
1249A
330
20
100
AcDbEntity
  8
10000_FRONT
  6
Continuous
 62
     7
370
    50
100
AcDbCircle
 39
0.7
 10
-139.0941990716269
 20
797.8067530542672
 30
0.0
 40
1.5
100
AcDbArc
 50
89.9999799999996
 51
180.0
1001
AUSTER_ANSICHT
1002
{
1000
Det03
1002
}
1001
AUSTER_FOLIE
1002
{
1000
NSB00777_S2_WENDE
1002
}
  0
ARC
  5
1249B
330
20
100
AcDbEntity
  8
10000_FRONT
  6
Continuous
 62
     7
370
    50
100
AcDbCircle
 39
0.7
 10
-140.9151090716269
 20
787.8266530542672
 30
0.0
 40
1.5
100
AcDbArc
 50
90.0
 51
180.0
1001
AUSTER_ANSICHT
1002
{
1000
Det03
1002
}
1001
AUSTER_FOLIE
1002
{
1000
NSB00777_S2_WENDE
1002
}
  0
ARC
  5
1249C
330
20
100
AcDbEntity
  8
10000_FRONT
  6
Continuous
 62
     7
370
    50
100
AcDbCircle
 39
0.7
 10
-140.9151090716269
 20
685.8266530542672
 30
0.0
 40
1.5
100
AcDbArc
 50
180.0
 51
270.0
1001
AUSTER_ANSICHT
1002
{
1000
Det03
1002
}
1001
AUSTER_FOLIE
1002
{
1000
NSB00777_S2_WENDE
1002
}
  0
ARC
  5
1249D
330
20
100
AcDbEntity
  8
10000_FRONT
  6
Continuous
 62
     7
370
    50
100
AcDbCircle
 39
0.7
 10
-25.73601907162692
 20
797.8067530542672
 30
0.0
 40
1.5
100
AcDbArc
 50
0.0
 51
90.00002000000037
1001
AUSTER_ANSICHT
1002
{
1000
Det03
1002
}
1001
AUSTER_FOLIE
1002
{
1000
NSB00777_S2_WENDE
1002
}
  0
ARC
  5
1249E
330
20
100
AcDbEntity
  8
10000_FRONT
  6
Continuous
 62
     7
370
    50
100
AcDbCircle
 39
0.7
 10
-23.91510907162691
 20
685.8266530542672
 30
0.0
 40
1.5
100
AcDbArc
 50
270.0
 51
0.0
1001
AUSTER_ANSICHT
1002
{
1000
Det03
1002
}
1001
AUSTER_FOLIE
1002
{
1000
NSB00777_S2_WENDE
1002
}
  0
ARC
  5
1249F
330
20
100
AcDbEntity
  8
10000_FRONT
  6
Continuous
 62
     7
370
    50
100
AcDbCircle
 39
0.7
 10
-23.91510907162691
 20
787.8266530542672
 30
0.0
 40
1.5
100
AcDbArc
 50
0.0
 51
90.0
1001
AUSTER_ANSICHT
1002
{
1000
Det03
1002
}
1001
AUSTER_FOLIE
1002
{
1000
NSB00777_S2_WENDE
1002
}
  0
ARC
  5
124A0
330
20
100
AcDbEntity
  8
10000_FRONT
  6
Continuous
 62
     7
370
    50
100
AcDbCircle
 39
0.7
 10
-46.1808490716269
 20
666.3266530542672
 30
0.0
 40
1.0
100
AcDbArc
 50
180.0
 51
270.0
1001
AUSTER_ANSICHT
1002
{
1000
Det03
1002
}
1001
AUSTER_FOLIE
1002
{
1000
NSB00777_S2_WENDE
1002
}
  0
ARC
  5
124A1
330
20
100
AcDbEntity
  8
10000_FRONT
  6
Continuous
 62
     7
370
    50
100
AcDbCircle
 39
0.7
 10
-36.18084907162691
 20
666.3266530542672
 30
0.0
 40
1.0
100
AcDbArc
 50
270.0
 51
0.0
1001
AUSTER_ANSICHT
1002
{
1000
Det03
1002
}
1001
AUSTER_FOLIE
1002
{
1000
NSB00777_S2_WENDE
1002
}
  0
ARC
  5
124A2
330
20
100
AcDbEntity
  8
10000_FRONT
  6
Continuous
 62
     7
370
    20
100
AcDbCircle
 39
0.5
 10
-47.4151090716269
 20
679.8266530542672
 30
0.0
 40
1.0
100
AcDbArc
 50
270.0
 51
0.0
1001
AUSTER_ANSICHT
1002
{
1000
Det03
1002
}
1001
AUSTER_FOLIE
1002
{
1000
NSB00777_S2_WENDE
1002
}
  0
ARC
  5
124A3
330
20
100
AcDbEntity
  8
10000_FRONT
  6
Continuous
 62
     7
370
    50
100
AcDbCircle
 39
0.7
 10
-117.4151090716269
 20
679.8266530542672
 30
0.0
 40
1.0
100
AcDbArc
 50
180.0
 51
270.0
1001
AUSTER_ANSICHT
1002
{
1000
Det03
1002
}
1001
AUSTER_FOLIE
1002
{
1000
NSB00777_S2_WENDE
1002
}
  0
ARC
  5
124A4
330
20
100
AcDbEntity
  8
10000_FRONT
  6
Continuous
 62
     7
370
    50
100
AcDbCircle
 39
0.7
 10
-139.9151090716269
 20
683.8266530542672
 30
0.0
 40
1.0
100
AcDbArc
 50
180.0
 51
270.0
1001
AUSTER_ANSICHT
1002
{
1000
Det03
1002
}
1001
AUSTER_FOLIE
1002
{
1000
NSB00777_S2_WENDE
1002
}
  0
ARC
  5
124A5
330
20
100
AcDbEntity
  8
10000_FRONT
  6
Continuous
 62
     7
370
    50
100
AcDbCircle
 39
0.7
 10
-24.91510907162691
 20
683.8266530542672
 30
0.0
 40
1.0
100
AcDbArc
 50
270.0
 51
0.0
1001
AUSTER_ANSICHT
1002
{
1000
Det03
1002
}
1001
AUSTER_FOLIE
1002
{
1000
NSB00777_S2_WENDE
1002
}
  0
LINE
  5
124A6
330
20
100
AcDbEntity
  8
10000_FRONT
  6
Continuous
 62
     7
370
    50
100
AcDbLine
 39
0.7
 10
-24.23601907162691
 20
789.3266530542672
 30
0.0
 11
-23.91510907162691
 21
789.3266530542672
 31
0.0
1001
AUSTER_ANSICHT
1002
{
1000
Det03
1002
}
1001
AUSTER_FOLIE
1002
{
1000
NSB00777_S2_WENDE
1002
}
  0
LINE
  5
124A7
330
20
100
AcDbEntity
  8
10000_FRONT
  6
Continuous
 62
     7
370
    50
100
AcDbLine
 39
0.7
 10
-24.23601907162691
 20
797.8067530542672
 30
0.0
 11
-24.23601907162691
 21
789.3266530542672
 31
0.0
1001
AUSTER_ANSICHT
1002
{
1000
Det03
1002
}
1001
AUSTER_FOLIE
1002
{
1000
NSB00777_S2_WENDE
1002
}
  0
LINE
  5
124A8
330
20
100
AcDbEntity
  8
10000_FRONT
  6
Continuous
 62
     7
370
    50
100
AcDbLine
 39
0.7
 10
-140.5941990716269
 20
797.8067530542672
 30
0.0
 11
-140.5941990716269
 21
789.3266530542672
 31
0.0
1001
AUSTER_ANSICHT
1002
{
1000
Det03
1002
}
1001
AUSTER_FOLIE
1002
{
1000
NSB00777_S2_WENDE
1002
}
  0
LINE
  5
124A9
330
20
100
AcDbEntity
  8
10000_FRONT
  6
Continuous
 62
     7
370
    50
100
AcDbLine
 39
0.7
 10
-47.1808490716269
 20
678.8544530542672
 30
0.0
 11
-47.1808490716269
 21
666.3266530542672
 31
0.0
1001
AUSTER_ANSICHT
1002
{
1000
Det03
1002
}
1001
AUSTER_FOLIE
1002
{
1000
NSB00777_S2_WENDE
1002
}
  0
LINE
  5
124AA
330
20
100
AcDbEntity
  8
10000_FRONT
  6
Continuous
 62
     7
370
    50
100
AcDbLine
 39
0.7
 10
-35.18084907162691
 20
682.8266530542672
 30
0.0
 11
-35.18084907162691
 21
666.3266530542672
 31
0.0
1001
AUSTER_ANSICHT
1002
{
1000
Det03
1002
}
1001
AUSTER_FOLIE
1002
{
1000
NSB00777_S2_WENDE
1002
}
  0
LINE
  5
124AC
330
20
100
AcDbEntity
  8
10000_FRONT
  6
Continuous
 62
     7
370
    50
100
AcDbLine
 39
0.7
 10
-139.0941990716269
 20
799.3067530542672
 30
0.0
 11
-25.73601907162692
 21
799.3067530542672
 31
0.0
1001
AUSTER_ANSICHT
1002
{
1000
Det03
1002
}
1001
AUSTER_FOLIE
1002
{
1000
NSB00777_S2_WENDE
1002
}
  0
LINE
  5
124AD
330
20
100
AcDbEntity
  8
10000_FRONT
  6
Continuous
 62
     7
370
    50
100
AcDbLine
 39
0.7
 10
-140.9151090716269
 20
789.3266530542672
 30
0.0
 11
-140.5941990716269
 21
789.3266530542672
 31
0.0
1001
AUSTER_ANSICHT
1002
{
1000
Det03
1002
}
1001
AUSTER_FOLIE
1002
{
1000
NSB00777_S2_WENDE
1002
}
  0
LINE
  5
124AF
330
20
100
AcDbEntity
  8
10000_FRONT
  6
Continuous
 62
     7
370
    20
100
AcDbLine
 39
0.5
 10
-46.4151090716269
 20
682.8266530542672
 30
0.0
 11
-46.4151090716269
 21
679.8266530542672
 31
0.0
1001
AUSTER_ANSICHT
1002
{
1000
Det03
1002
}
1001
AUSTER_FOLIE
1002
{
1000
NSB00777_S2_WENDE
1002
}
  0
LINE
  5
124B0
330
20
100
AcDbEntity
  8
10000_FRONT
  6
Continuous
 62
     7
370
    50
100
AcDbLine
 39
0.7
 10
-118.4151090716269
 20
682.8266530542672
 30
0.0
 11
-118.4151090716269
 21
679.8266530542672
 31
0.0
1001
AUSTER_ANSICHT
1002
{
1000
Det03
1002
}
1001
AUSTER_FOLIE
1002
{
1000
NSB00777_S2_WENDE
1002
}
  0
LINE
  5
124B1
330
20
100
AcDbEntity
  8
10000_FRONT
  6
Continuous
 62
     7
370
    20
100
AcDbLine
 39
0.5
 10
-77.4151090716269
 20
695.8266530542672
 30
0.0
 11
-77.4151090716269
 21
692.3266530542672
 31
0.0
1001
AUSTER_ANSICHT
1002
{
1000
Det03
1002
}
1001
AUSTER_FOLIE
1002
{
1000
NSB00777_S2_WENDE
1002
}
  0
LINE
  5
124B2
330
20
100
AcDbEntity
  8
10000_FRONT
  6
Continuous
 62
     7
370
    20
100
AcDbLine
 39
0.5
 10
-87.41511060162691
 20
693.7576530542672
 30
0.0
 11
-87.4151179816269
 21
692.3266530542672
 31
0.0
1001
AUSTER_ANSICHT
1002
{
1000
Det03
1002
}
1001
AUSTER_FOLIE
1002
{
1000
NSB00777_S2_WENDE
1002
}
  0
LINE
  5
124B3
330
20
100
AcDbEntity
  8
10000_FRONT
  6
Continuous
 62
     7
370
    20
100
AcDbLine
 39
0.5
 10
-77.4151090716269
 20
777.8268530542674
 30
0.0
 11
-77.4151090716269
 21
781.3266530542672
 31
0.0
1001
AUSTER_ANSICHT
1002
{
1000
Det03
1002
}
1001
AUSTER_FOLIE
1002
{
1000
NSB00777_S2_WENDE
1002
}
  0
LINE
  5
124B4
330
20
100
AcDbEntity
  8
10000_FRONT
  6
Continuous
 62
     7
370
    20
100
AcDbLine
 39
0.5
 10
-87.41510843162691
 20
777.8266530542672
 30
0.0
 11
-87.4151091916269
 21
781.3266530542672
 31
0.0
1001
AUSTER_ANSICHT
1002
{
1000
Det03
1002
}
1001
AUSTER_FOLIE
1002
{
1000
NSB00777_S2_WENDE
1002
}
  0
LINE
  5
124B5
330
20
100
AcDbEntity
  8
10000_FRONT
  6
Continuous
 62
     7
370
    20
100
AcDbLine
 39
0.5
 10
-87.41511763162691
 20
695.8263530542673
 30
0.0
 11
-87.41511060162691
 21
693.7576530542672
 31
0.0
1001
AUSTER_ANSICHT
1002
{
1000
Det03
1002
}
1001
AUSTER_FOLIE
1002
{
1000
NSB00777_S2_WENDE
1002
}
  0
LINE
  5
124B6
330
20
100
AcDbEntity
  8
10000_FRONT
  6
Continuous
 62
     7
370
    50
100
AcDbLine
 39
0.7
 10
-142.4151090716269
 20
685.8266530542672
 30
0.0
 11
-142.4151090716269
 21
695.2977530542672
 31
0.0
1001
AUSTER_ANSICHT
1002
{
1000
Det03
1002
}
1001
AUSTER_FOLIE
1002
{
1000
NSB00777_S2_WENDE
1002
}
  0
LINE
  5
124B7
330
20
100
AcDbEntity
  8
10000_FRONT
  6
Continuous
 62
     7
370
    50
100
AcDbLine
 39
0.7
 10
-142.4151090716269
 20
787.8266530542672
 30
0.0
 11
-142.4151090716269
 21
777.8269530542671
 31
0.0
1001
AUSTER_ANSICHT
1002
{
1000
Det03
1002
}
1001
AUSTER_FOLIE
1002
{
1000
NSB00777_S2_WENDE
1002
}
  0
LINE
  5
124B8
330
20
100
AcDbEntity
  8
10000_FRONT
  6
Continuous
 62
     7
370
    20
100
AcDbLine
 39
0.5
 10
-87.41510843162691
 20
777.8266530542672
 30
0.0
 11
-87.41511763162691
 21
695.8263530542673
 31
0.0
1001
AUSTER_ANSICHT
1002
{
1000
Det03
1002
}
1001
AUSTER_FOLIE
1002
{
1000
NSB00777_S2_WENDE
1002
}
  0
LINE
  5
124B9
330
20
100
AcDbEntity
  8
10000_FRONT
  6
Continuous
 62
     7
370
    50
100
AcDbLine
 39
0.7
 10
-142.4151190716269
 20
695.8266530542672
 30
0.0
 11
-142.4151090716269
 21
777.8266530542672
 31
0.0
1001
AUSTER_ANSICHT
1002
{
1000
Det03
1002
}
1001
AUSTER_FOLIE
1002
{
1000
NSB00777_S2_WENDE
1002
}
  0
LINE
  5
124BA
330
20
100
AcDbEntity
  8
10000_FRONT
  6
Continuous
 62
     7
370
    20
100
AcDbLine
 39
0.5
 10
-87.4151089916269
 20
700.8266530542672
 30
0.0
 11
-77.4151090716269
 21
700.8266530542672
 31
0.0
1001
AUSTER_ANSICHT
1002
{
1000
Det03
1002
}
1001
AUSTER_FOLIE
1002
{
1000
NSB00777_S2_WENDE
1002
}
  0
LINE
  5
124BB
330
20
100
AcDbEntity
  8
10000_FRONT
  6
Continuous
 62
     7
370
    20
100
AcDbLine
 39
0.5
 10
-87.4151089916269
 20
772.8266530542672
 30
0.0
 11
-87.4151089916269
 21
700.8266530542672
 31
0.0
1001
AUSTER_ANSICHT
1002
{
1000
Det03
1002
}
1001
AUSTER_FOLIE
1002
{
1000
NSB00777_S2_WENDE
1002
}
  0
LINE
  5
124BC
330
20
100
AcDbEntity
  8
10000_FRONT
  6
Continuous
 62
     7
370
    20
100
AcDbLine
 39
0.5
 10
-77.4151090716269
 20
772.8266530542672
 30
0.0
 11
-87.4151089916269
 21
772.8266530542672
 31
0.0
1001
AUSTER_ANSICHT
1002
{
1000
Det03
1002
}
1001
AUSTER_FOLIE
1002
{
1000
NSB00777_S2_WENDE
1002
}
  0
LINE
  5
124BD
330
20
100
AcDbEntity
  8
10000_FRONT
  6
Continuous
 62
     7
370
    50
100
AcDbLine
 39
0.7
 10
-22.41510907162691
 20
695.8263530542673
 30
0.0
 11
-22.41510907162691
 21
693.7576530542672
 31
0.0
1001
AUSTER_ANSICHT
1002
{
1000
Det03
1002
}
1001
AUSTER_FOLIE
1002
{
1000
NSB00777_S2_WENDE
1002
}
  0
LINE
  5
124BE
330
20
100
AcDbEntity
  8
10000_FRONT
  6
Continuous
 62
     7
370
    50
100
AcDbLine
 39
0.7
 10
-22.41510907162691
 20
693.7576530542672
 30
0.0
 11
-22.41510907162691
 21
685.8266530542672
 31
0.0
1001
AUSTER_ANSICHT
1002
{
1000
Det03
1002
}
1001
AUSTER_FOLIE
1002
{
1000
NSB00777_S2_WENDE
1002
}
  0
LINE
  5
124BF
330
20
100
AcDbEntity
  8
10000_FRONT
  6
Continuous
 62
     7
370
    50
100
AcDbLine
 39
0.7
 10
-117.4151090716269
 20
678.8266530542672
 30
0.0
 11
-47.4151090716269
 21
678.8266530542672
 31
0.0
1001
AUSTER_ANSICHT
1002
{
1000
Det03
1002
}
1001
AUSTER_FOLIE
1002
{
1000
NSB00777_S2_WENDE
1002
}
  0
LINE
  5
124C0
330
20
100
AcDbEntity
  8
10000_FRONT
  6
Continuous
 62
     7
370
    50
100
AcDbLine
 39
0.7
 10
-22.41510907162691
 20
787.8266530542672
 30
0.0
 11
-22.41510907162691
 21
777.8266530542672
 31
0.0
1001
AUSTER_ANSICHT
1002
{
1000
Det03
1002
}
1001
AUSTER_FOLIE
1002
{
1000
NSB00777_S2_WENDE
1002
}
  0
LINE
  5
124C1
330
20
100
AcDbEntity
  8
10000_FRONT
  6
Continuous
 62
     7
370
    50
100
AcDbLine
 39
0.7
 10
-36.18084907162691
 20
665.3266530542672
 30
0.0
 11
-46.1808490716269
 21
665.3266530542672
 31
0.0
1001
AUSTER_ANSICHT
1002
{
1000
Det03
1002
}
1001
AUSTER_FOLIE
1002
{
1000
NSB00777_S2_WENDE
1002
}
  0
LINE
  5
124C2
330
20
100
AcDbEntity
  8
10000_FRONT
  6
Continuous
 62
     7
370
    50
100
AcDbLine
 39
0.7
 10
-24.91510907162691
 20
682.8266530542672
 30
0.0
 11
-139.9151090716269
 21
682.8266530542672
 31
0.0
1001
AUSTER_ANSICHT
1002
{
1000
Det03
1002
}
1001
AUSTER_FOLIE
1002
{
1000
NSB00777_S2_WENDE
1002
}
  0
LINE
  5
124C3
330
20
100
AcDbEntity
  8
10000_FRONT
  6
Continuous
 62
     7
370
    50
100
AcDbLine
 39
0.7
 10
-22.41510907162691
 20
777.8266530542672
 30
0.0
 11
-22.41510907162691
 21
695.8263530542673
 31
0.0
1001
AUSTER_ANSICHT
1002
{
1000
Det03
1002
}
1001
AUSTER_FOLIE
1002
{
1000
NSB00777_S2_WENDE
1002
}
  0
LINE
  5
124C4
330
20
100
AcDbEntity
  8
10000_FRONT
  6
Continuous
 62
     7
370
    20
100
AcDbLine
 39
0.5
 10
-77.4151090716269
 20
695.8266530542672
 30
0.0
 11
-77.4151090716269
 21
777.8266530542672
 31
0.0
1001
AUSTER_ANSICHT
1002
{
1000
Det03
1002
}
1001
AUSTER_FOLIE
1002
{
1000
NSB00777_S2_WENDE
1002
}
  0
ARC
  5
124C5
330
20
100
AcDbEntity
  8
11000_Left
  6
DASHED
 62
     7
370
    20
100
AcDbCircle
 39
0.25
 10
34.51440690480263
 20
746.1763530542672
 30
-1.0
 40
1.0
100
AcDbArc
 50
90.0
 51
180.0
1001
AUSTER_ANSICHT
1002
{
1000
Det03
1002
}
1001
AUSTER_FOLIE
1002
{
1000
NSB00777_S2_WENDE
1002
}
  0
ARC
  5
124C6
330
20
100
AcDbEntity
  8
11000_Left
  6
DASHED
 62
     7
370
    20
100
AcDbCircle
 39
0.25
 10
34.51440690480263
 20
727.1763530542671
 30
-1.0
 40
1.0
100
AcDbArc
 50
180.0
 51
270.0
1001
AUSTER_ANSICHT
1002
{
1000
Det03
1002
}
1001
AUSTER_FOLIE
1002
{
1000
NSB00777_S2_WENDE
1002
}
  0
ARC
  5
124C7
330
20
100
AcDbEntity
  8
11000_Left
  6
DASHED
 62
     7
370
    20
100
AcDbCircle
 39
0.25
 10
34.61440690480259
 20
751.0763530542673
 30
-1.0
 40
1.9
100
AcDbArc
 50
270.0
 51
0.0
1001
AUSTER_ANSICHT
1002
{
1000
Det03
1002
}
1001
AUSTER_FOLIE
1002
{
1000
NSB00777_S2_WENDE
1002
}
  0
ARC
  5
124C8
330
20
100
AcDbEntity
  8
11000_Left
  6
DASHED
 62
     7
370
    20
100
AcDbCircle
 39
0.25
 10
37.01440690480263
 20
751.8263530542673
 30
-1.0
 40
0.5
100
AcDbArc
 50
270.0
 51
0.0
1001
AUSTER_ANSICHT
1002
{
1000
Det03
1002
}
1001
AUSTER_FOLIE
1002
{
1000
NSB00777_S2_WENDE
1002
}
  0
ARC
  5
124C9
330
20
100
AcDbEntity
  8
11000_Left
  6
DASHED
 62
     7
370
    20
100
AcDbCircle
 39
0.25
 10
34.61440690480259
 20
722.2763530542672
 30
-1.0
 40
1.9
100
AcDbArc
 50
0.0000000107542442
 51
90.0
1001
AUSTER_ANSICHT
1002
{
1000
Det03
1002
}
1001
AUSTER_FOLIE
1002
{
1000
NSB00777_S2_WENDE
1002
}
  0
LINE
  5
124CA
330
20
100
AcDbEntity
  8
11000_Left
  6
DASHED
 62
     7
370
    20
100
AcDbLine
 39
0.25
 10
38.51440690480263
 20
719.0263530542672
 30
-1.0
 11
38.51440690480263
 21
724.1763530542672
 31
-1.0
1001
AUSTER_ANSICHT
1002
{
1000
Det03
1002
}
1001
AUSTER_FOLIE
1002
{
1000
NSB00777_S2_WENDE
1002
}
  0
LINE
  5
124CC
330
20
100
AcDbEntity
  8
11000_Left
  6
Continuous
 62
     7
370
    50
100
AcDbLine
 39
0.7
 10
37.51440690480264
 20
754.3263530542673
 30
-1.0
 11
38.51440690480263
 21
754.3263530542673
 31
-1.0
1001
AUSTER_ANSICHT
1002
{
1000
Det03
1002
}
1001
AUSTER_FOLIE
1002
{
1000
NSB00777_S2_WENDE
1002
}
  0
LINE
  5
124CE
330
20
100
AcDbEntity
  8
11000_Left
  6
DASHED
 62
     7
370
    20
100
AcDbLine
 39
0.25
 10
37.51440690480264
 20
721.5263530542672
 30
-1.0
 11
37.51440690480264
 21
719.0263530542672
 31
-1.0
1001
AUSTER_ANSICHT
1002
{
1000
Det03
1002
}
1001
AUSTER_FOLIE
1002
{
1000
NSB00777_S2_WENDE
1002
}
  0
LINE
  5
124CF
330
20
100
AcDbEntity
  8
11000_Left
  6
DASHED
 62
     7
370
    20
100
AcDbLine
 39
0.25
 10
37.51440690480264
 20
751.8263530542673
 30
-1.0
 11
37.51440690480264
 21
754.3263530542673
 31
-1.0
1001
AUSTER_ANSICHT
1002
{
1000
Det03
1002
}
1001
AUSTER_FOLIE
1002
{
1000
NSB00777_S2_WENDE
1002
}
  0
LINE
  5
124D0
330
20
100
AcDbEntity
  8
11000_Left
  6
DASHED
 62
     7
370
    20
100
AcDbLine
 39
0.25
 10
33.51440690480263
 20
746.1763530542672
 30
-1.0
 11
33.51440690480263
 21
736.6763530542672
 31
-1.0
1001
AUSTER_ANSICHT
1002
{
1000
Det03
1002
}
1001
AUSTER_FOLIE
1002
{
1000
NSB00777_S2_WENDE
1002
}
  0
LINE
  5
124D1
330
20
100
AcDbEntity
  8
11000_Left
  6
DASHED
 62
     7
370
    20
100
AcDbLine
 39
0.25
 10
33.51440690480263
 20
727.1763530542671
 30
-1.0
 11
33.51440690480263
 21
736.6763530542672
 31
-1.0
1001
AUSTER_ANSICHT
1002
{
1000
Det03
1002
}
1001
AUSTER_FOLIE
1002
{
1000
NSB00777_S2_WENDE
1002
}
  0
LINE
  5
124D2
330
20
100
AcDbEntity
  8
11000_Left
  6
DASHED
 62
     7
370
    20
100
AcDbLine
 39
0.25
 10
36.51440690480264
 20
751.0763530542673
 30
-1.0
 11
36.51440690480264
 21
751.3263530542673
 31
-1.0
1001
AUSTER_ANSICHT
1002
{
1000
Det03
1002
}
1001
AUSTER_FOLIE
1002
{
1000
NSB00777_S2_WENDE
1002
}
  0
LINE
  5
124D3
330
20
100
AcDbEntity
  8
11000_Left
  6
DASHED
 62
     7
370
    20
100
AcDbLine
 39
0.25
 10
37.01440690480263
 20
751.3263530542673
 30
-1.0
 11
36.51440690480264
 21
751.3263530542673
 31
-1.0
1001
AUSTER_ANSICHT
1002
{
1000
Det03
1002
}
1001
AUSTER_FOLIE
1002
{
1000
NSB00777_S2_WENDE
1002
}
  0
LINE
  5
124D4
330
20
100
AcDbEntity
  8
11000_Left
  6
DASHED
 62
     7
370
    20
100
AcDbLine
 39
0.25
 10
38.51440690480263
 20
749.1763530542672
 30
-1.0
 11
36.51440690480264
 21
747.1763530542672
 31
-1.0
1001
AUSTER_ANSICHT
1002
{
1000
Det03
1002
}
1001
AUSTER_FOLIE
1002
{
1000
NSB00777_S2_WENDE
1002
}
  0
LINE
  5
124D5
330
20
100
AcDbEntity
  8
11000_Left
  6
DASHED
 62
     7
370
    20
100
AcDbLine
 39
0.25
 10
36.51440690480264
 20
722.2763530542672
 30
-1.0
 11
36.51440690480264
 21
722.0263530542673
 31
-1.0
1001
AUSTER_ANSICHT
1002
{
1000
Det03
1002
}
1001
AUSTER_FOLIE
1002
{
1000
NSB00777_S2_WENDE
1002
}
  0
LINE
  5
124D6
330
20
100
AcDbEntity
  8
11000_Left
  6
DASHED
 62
     7
370
    20
100
AcDbLine
 39
0.25
 10
37.01440690480263
 20
722.0263530542673
 30
-1.0
 11
36.51440690480264
 21
722.0263530542673
 31
-1.0
1001
AUSTER_ANSICHT
1002
{
1000
Det03
1002
}
1001
AUSTER_FOLIE
1002
{
1000
NSB00777_S2_WENDE
1002
}
  0
LINE
  5
124D7
330
20
100
AcDbEntity
  8
11000_Left
  6
DASHED
 62
     7
370
    20
100
AcDbLine
 39
0.25
 10
38.51440690480263
 20
724.1763530542672
 30
-1.0
 11
36.51440690480264
 21
726.1763530542672
 31
-1.0
1001
AUSTER_ANSICHT
1002
{
1000
Det03
1002
}
1001
AUSTER_FOLIE
1002
{
1000
NSB00777_S2_WENDE
1002
}
  0
LINE
  5
124D8
330
20
100
AcDbEntity
  8
11000_Left
  6
DASHED
 62
     7
370
    20
100
AcDbLine
 39
0.25
 10
34.51440690480263
 20
747.1763530542672
 30
-1.0
 11
36.51440690480264
 21
747.1763530542672
 31
-1.0
1001
AUSTER_ANSICHT
1002
{
1000
Det03
1002
}
1001
AUSTER_FOLIE
1002
{
1000
NSB00777_S2_WENDE
1002
}
  0
LINE
  5
124D9
330
20
100
AcDbEntity
  8
11000_Left
  6
DASHED
 62
     7
370
    20
100
AcDbLine
 39
0.25
 10
34.51440690480263
 20
726.1763530542672
 30
-1.0
 11
36.51440690480264
 21
726.1763530542672
 31
-1.0
1001
AUSTER_ANSICHT
1002
{
1000
Det03
1002
}
1001
AUSTER_FOLIE
1002
{
1000
NSB00777_S2_WENDE
1002
}
  0
DIMENSION
  5
124DA
330
20
100
AcDbEntity
  8
10100_FRONT_DIM
  6
Continuous
 62
     7
370
    13
100
AcDbDimension
  2
*D1
 10
-77.41501907162692
 20
657.0652107825476
 30
0.0
 11
-82.41501907162691
 21
657.0652107825476
 31
0.0
 70
    32
 71
     5
 42
10.0
  3
H035
100
AcDbAlignedDimension
 13
-87.41501907162691
 23
692.3266530542672
 33
0.0
 14
-77.41501907162692
 24
692.3266530542672
 34
0.0
100
AcDbRotatedDimension
1001
ACAD
1000
DSTYLE
1002
{
1070
    40
1040
1.0
1070
    77
1070
     0
1070
   147
1040
1.5
1070
   272
1070
     0
1070
   279
1070
     1
1070
   288
1070
     1
1002
}
  0
DIMENSION
  5
124E7
330
20
100
AcDbEntity
  8
10100_FRONT_DIM
  6
Continuous
 62
     7
370
    13
100
AcDbDimension
  2
*D2
 10
-22.41518877648503
 20
657.0652107825476
 30
0.0
 11
-47.41510392405595
 21
657.0652107825476
 31
0.0
 70
    32
 71
     5
 42
49.99983029514186
  3
H035
100
AcDbAlignedDimension
 13
-72.4150190716269
 23
686.3266530558872
 33
0.0
 14
-22.41518877648503
 24
685.8111899296963
 34
0.0
100
AcDbRotatedDimension
1001
ACAD
1000
DSTYLE
1002
{
1070
    40
1040
1.0
1070
    77
1070
     0
1070
   147
1040
1.5
1070
   272
1070
     0
1070
   279
1070
     1
1070
   288
1070
     1
1002
}
  0
DIMENSION
  5
124F4
330
20
100
AcDbEntity
  8
10100_FRONT_DIM
  6
Continuous
 62
     7
370
    13
100
AcDbDimension
  2
*D3
 10
-22.41510907162692
 20
650.392405595399
 30
0.0
 11
-82.41510907162689
 21
650.392405595399
 31
0.0
 70
    32
 71
     5
 42
120.0
  3
H035
100
AcDbAlignedDimension
 13
-142.4151090716269
 23
685.8266530542672
 33
0.0
 14
-22.41510907162691
 24
685.8266530542672
 34
0.0
100
AcDbRotatedDimension
1001
ACAD
1000
DSTYLE
1002
{
1070
    40
1040
1.0
1070
    77
1070
     0
1070
   147
1040
1.5
1070
   272
1070
     0
1070
   279
1070
     1
1070
   288
1070
     1
1002
}
  0
DIMENSION
  5
12501
330
20
100
AcDbEntity
  8
11100_LEFT_DIM
  6
Continuous
 62
     7
370
    13
100
AcDbDimension
  2
*D4
 10
38.5148069048026
 20
653.2823530542672
 30
0.0
 11
25.16200717692238
 21
653.2823530542672
 31
0.0
 70
   160
 71
     5
 42
5.000000000000028
  3
H035
100
AcDbAlignedDimension
 13
33.51480690480258
 23
684.7266530542672
 33
0.0
 14
38.51480690480261
 24
719.0263530542672
 34
0.0
100
AcDbRotatedDimension
1001
ACAD
1000
DSTYLE
1002
{
1070
    40
1040
1.0
1070
    77
1070
     0
1070
   147
1040
1.5
1070
   272
1070
     0
1070
   279
1070
     1
1070
   288
1070
     1
1002
}
  0
DIMENSION
  5
12510
330
20
100
AcDbEntity
  8
11100_LEFT_DIM
  6
Continuous
 62
     7
370
    13
100
AcDbDimension
  2
*D5
 10
89.61480690480261
 20
653.2823530542672
 30
0.0
 11
64.06480690480261
 21
653.2823530542672
 31
0.0
 70
    32
 71
     5
 42
51.1
  3
H035
100
AcDbAlignedDimension
 13
38.5148069048026
 23
684.3266530542672
 33
0.0
 14
89.61480690480261
 24
665.3018530542673
 34
0.0
100
AcDbRotatedDimension
1001
ACAD
1000
DSTYLE
1002
{
1070
    40
1040
1.0
1070
    77
1070
     0
1070
   147
1040
1.5
1070
   272
1070
     0
1070
   279
1070
     1
1070
   288
1070
     1
1002
}
  0
DIMENSION
  5
1251D
330
20
100
AcDbEntity
  8
11100_LEFT_DIM
  6
Continuous
 62
     7
370
    13
100
AcDbDimension
  2
*D6
 10
105.8148069048026
 20
645.3833073832319
 30
0.0
 11
72.16480690480259
 21
645.3833073832319
 31
0.0
 70
    32
 71
     5
 42
67.29999999999998
  3
H035
100
AcDbAlignedDimension
 13
38.5148069048026
 23
684.326653054267
 33
0.0
 14
105.8148069048026
 24
694.3263530542672
 34
0.0
100
AcDbRotatedDimension
1001
ACAD
1000
DSTYLE
1002
{
1070
    40
1040
1.0
1070
    77
1070
     0
1070
   147
1040
1.5
1070
   272
1070
     0
1070
   279
1070
     1
1070
   288
1070
     1
1002
}
  0
DIMENSION
  5
1252A
330
20
100
AcDbEntity
  8
11100_LEFT_DIM
  6
Continuous
 62
     7
370
    13
100
AcDbDimension
  2
*D7
 10
163.2404769046883
 20
637.8068853554537
 30
0.0
 11
100.8776419047455
 21
637.8068853554537
 31
0.0
 70
    32
 71
     5
 42
124.7256699998857
  3
H035
100
AcDbAlignedDimension
 13
38.5148069048026
 23
684.326653054267
 33
0.0
 14
163.2404769046883
 24
736.8263912548793
 34
0.0
100
AcDbRotatedDimension
1001
ACAD
1000
DSTYLE
1002
{
1070
    40
1040
1.0
1070
    77
1070
     0
1070
   147
1040
1.5
1070
   272
1070
     0
1070
   279
1070
     1
1070
   288
1070
     1
1002
}
  0
DIMENSION
  5
12540
330
20
100
AcDbEntity
  8
11100_LEFT_DIM
  6
Continuous
 62
     7
370
    13
100
AcDbDimension
  2
*D8
 10
26.60717857420497
 20
781.4793530542672
 30
0.0
 11
26.73988401598064
 21
771.3270095720927
 31
0.0
 70
   160
  1
%%c<>
 71
     5
 42
5.0
  3
H035
100
AcDbAlignedDimension
 13
33.97980690480262
 23
786.4793530542672
 33
0.0
 14
33.51480690480258
 24
781.4793530542672
 34
0.0
 50
90.0
100
AcDbRotatedDimension
1001
ACAD
1000
DSTYLE
1002
{
1070
    40
1040
1.0
1070
    77
1070
     0
1070
   147
1040
1.5
1070
   272
1070
     0
1070
   279
1070
     1
1070
   288
1070
     1
1002
}
  0
DIMENSION
  5
1254F
330
20
100
AcDbEntity
  8
11100_LEFT_DIM
  6
Continuous
 62
     7
370
    13
100
AcDbDimension
  2
*D9
 10
19.88886622654337
 20
783.9793530542672
 30
0.0
 11
19.88886622654325
 21
736.6428530542671
 31
0.0
 70
    32
 71
     5
 42
94.67299999999999
  3
H035
100
AcDbAlignedDimension
 13
33.51480690480258
 23
689.3063530542672
 33
0.0
 14
33.51480690480261
 24
783.9793530542672
 34
0.0
 50
90.0
100
AcDbRotatedDimension
1001
ACAD
1000
DSTYLE
1002
{
1070
    40
1040
1.0
1070
    77
1070
     0
1070
   147
1040
1.5
1070
   272
1070
     0
1070
   279
1070
     1
1070
   288
1070
     1
1002
}
  0
DIMENSION
  5
1255C
330
20
100
AcDbEntity
  8
10100_FRONT_DIM
  6
Continuous
 62
     7
370
    13
100
AcDbDimension
  2
*D10
 10
-9.673079793115604
 20
799.3067530542672
 30
0.0
 11
-9.673079793115736
 21
739.0667030542672
 31
0.0
 70
    32
 71
     5
 42
120.4801
  3
H035
100
AcDbAlignedDimension
 13
-47.4151090716269
 23
678.8266530542672
 33
0.0
 14
-25.7360195952257
 24
799.3067530542672
 34
0.0
 50
90.0
100
AcDbRotatedDimension
1001
ACAD
1000
DSTYLE
1002
{
1070
    40
1040
1.0
1070
    77
1070
     0
1070
   147
1040
1.5
1070
   272
1070
     0
1070
   279
1070
     1
1070
   288
1070
     1
1002
}
  0
DIMENSION
  5
12569
330
20
100
AcDbEntity
  8
10100_FRONT_DIM
  6
Continuous
 62
     7
370
    13
100
AcDbDimension
  2
*D11
 10
-9.690297239244673
 20
678.8266530542672
 30
0.0
 11
-9.25127919281158
 21
660.7990389670893
 31
0.0
 70
   160
 71
     5
 42
13.5
  3
H035
100
AcDbAlignedDimension
 13
-36.18084907162691
 23
665.3266530542672
 33
0.0
 14
-9.673079793115633
 24
678.8266530542672
 34
0.0
 50
90.0
100
AcDbRotatedDimension
1001
ACAD
1000
DSTYLE
1002
{
1070
    40
1040
1.0
1070
    77
1070
     0
1070
   147
1040
1.5
1070
   272
1070
     0
1070
   279
1070
     1
1070
   288
1070
     1
1002
}
  0
LINE
  5
1277B
330
20
100
AcDbEntity
  8
11000_Left
  6
Continuous
 62
     7
370
    50
100
AcDbLine
 39
0.7
 10
102.5148069048026
 20
779.3266530542672
 30
0.0
 11
102.5148069048026
 21
779.8956530542674
 31
0.0
1001
AUSTER_ANSICHT
1002
{
1000
Det03
1002
}
1001
AUSTER_FOLIE
1002
{
1000
NSB00777_S2_WENDE
1002
}
  0
LINE
  5
1277E
330
20
100
AcDbEntity
  8
11000_Left
  6
Continuous
 62
     7
370
    50
100
AcDbLine
 39
0.7
 10
129.4148069048026
 20
781.3266530542672
 30
0.0
 11
135.1115069048026
 21
781.3266530542672
 31
0.0
1001
AUSTER_ANSICHT
1002
{
1000
Det03
1002
}
1001
AUSTER_FOLIE
1002
{
1000
NSB00777_S2_WENDE
1002
}
  0
LINE
  5
1277F
330
20
100
AcDbEntity
  8
11000_Left
  6
Continuous
 62
     7
370
    50
100
AcDbLine
 39
0.7
 10
84.11480690480258
 20
684.3266530542672
 30
0.0
 11
103.1148069048026
 21
684.3266530542672
 31
0.0
1001
AUSTER_ANSICHT
1002
{
1000
Det03
1002
}
1001
AUSTER_FOLIE
1002
{
1000
NSB00777_S2_WENDE
1002
}
  0
ENDSEC
  0
SECTION
  2
OBJECTS
  0
DICTIONARY
  5
C
330
0
100
AcDbDictionary
281
     1
  3
ACAD_COLOR
350
1B
  3
ACAD_GROUP
350
D
  3
ACAD_LAYOUT
350
19
  3
ACAD_MATERIAL
350
1A
  3
ACAD_MLINESTYLE
350
16
  3
ACAD_PLOTSETTINGS
350
18
  3
ACAD_PLOTSTYLENAME
350
E
  3
ACDBHEADERROUNDTRIPXREC
350
12828
  3
AcDbVariableDictionary
350
687E
  3
DWGPROPS
350
12827
  0
DICTIONARY
  5
1B
102
{ACAD_REACTORS
330
C
102
}
330
C
100
AcDbDictionary
281
     1
  0
DICTIONARY
  5
D
102
{ACAD_REACTORS
330
C
102
}
330
C
100
AcDbDictionary
281
     1
  0
DICTIONARY
  5
19
102
{ACAD_REACTORS
330
C
102
}
330
C
100
AcDbDictionary
281
     1
  3
Layout1
350
1F
  3
Model
350
23
  0
DICTIONARY
  5
1A
102
{ACAD_REACTORS
330
C
102
}
330
C
100
AcDbDictionary
281
     1
  0
DICTIONARY
  5
16
102
{ACAD_REACTORS
330
C
102
}
330
C
100
AcDbDictionary
281
     1
  3
Standard
350
17
  0
DICTIONARY
  5
18
102
{ACAD_REACTORS
330
C
102
}
330
C
100
AcDbDictionary
281
     1
  0
ACDBDICTIONARYWDFLT
  5
E
102
{ACAD_REACTORS
330
C
102
}
330
C
100
AcDbDictionary
281
     1
  3
Normal
350
F
100
AcDbDictionaryWithDefault
340
F
  0
DICTIONARY
  5
12828
102
{ACAD_REACTORS
330
C
102
}
330
C
100
AcDbDictionary
281
     1
  3
COLORDICT
350
1282A
  3
MATERIALDICT
350
12829
  0
DICTIONARY
  5
687E
102
{ACAD_REACTORS
330
C
102
}
330
C
100
AcDbDictionary
281
     1
  3
DIMASSOC
350
687F
  3
PROJECTNAME
350
6880
  0
XRECORD
  5
12827
102
{ACAD_REACTORS
330
C
102
}
330
C
100
AcDbXrecord
280
     1
  1
DWGPROPS COOKIE
  2

  3

  4

  6

  7

  8

  9

300
=
301
=
302
=
303
=
304
=
305
=
306
=
307
=
308
=
309
=
 40
2.874909942129629
 41
2452829.417613079
 42
2453424.324051516
  1

 90
        0
  0
LAYOUT
  5
1F
102
{ACAD_XDICTIONARY
360
1282B
102
}
102
{ACAD_REACTORS
330
19
102
}
330
19
100
AcDbPlotSettings
  1

  2
HP LaserJet 5000 Series PS
  4

  6

 40
0.0
 41
0.0
 42
0.0
 43
0.0
 44
0.0
 45
0.0
 46
0.0
 47
0.0
 48
0.0
 49
0.0
140
0.0
141
0.0
142
1.0
143
1.0
 70
   688
 72
     0
 73
     0
 74
     5
  7
monochrome.ctb
 75
    16
147
1.0
148
0.0
149
0.0
100
AcDbLayout
  1
Layout1
 70
     1
 71
     1
 10
0.0
 20
0.0
 11
12.0
 21
9.0
 12
0.0
 22
0.0
 32
0.0
 14
1.000000000000000E+20
 24
1.000000000000000E+20
 34
1.000000000000000E+20
 15
-1.000000000000000E+20
 25
-1.000000000000000E+20
 35
-1.000000000000000E+20
146
0.0
 13
0.0
 23
0.0
 33
0.0
 16
1.0
 26
0.0
 36
0.0
 17
0.0
 27
1.0
 37
0.0
 76
     0
330
1C
  0
LAYOUT
  5
23
102
{ACAD_XDICTIONARY
360
1282D
102
}
102
{ACAD_REACTORS
330
19
102
}
330
19
100
AcDbPlotSettings
  1

  2
\\AMBW779A\A_P00873 (Canon iR2200-3300 PCL6)
  4
A3
  6

 40
4.815416812896728
 41
4.815412044525146
 42
4.815399169921875
 43
4.8154296875
 44
296.9259948730469
 45
419.9466552734373
 46
0.0
 47
0.0
 48
0.0
 49
0.0
140
0.0
141
0.0
142
1.0
143
1.0
 70
 11952
 72
     1
 73
     1
 74
     1
  7
monochrome.ctb
 75
    16
147
1.0
148
191.1286988004631
149
-570.2336363503844
100
AcDbLayout
  1
Model
 70
     1
 71
     0
 10
0.0
 20
0.0
 11
12.0
 21
9.0
 12
0.0
 22
0.0
 32
0.0
 14
0.0
 24
0.0
 34
0.0
 15
0.0
 25
0.0
 35
0.0
146
0.0
 13
0.0
 23
0.0
 33
0.0
 16
1.0
 26
0.0
 36
0.0
 17
0.0
 27
1.0
 37
0.0
 76
     0
330
20
  0
MLINESTYLE
  5
17
102
{ACAD_REACTORS
330
16
102
}
330
16
100
AcDbMlineStyle
  2
STANDARD
 70
     0
  3

 62
   256
 51
90.0
 52
90.0
 71
     2
 49
0.5
 62
   256
  6
BYLAYER
 49
-0.5
 62
   256
  6
BYLAYER
  0
ACDBPLACEHOLDER
  5
F
102
{ACAD_REACTORS
330
E
102
}
330
E
  0
XRECORD
  5
1282A
102
{ACAD_REACTORS
330
12828
102
}
330
12828
100
AcDbXrecord
280
     1
340
1B
  0
XRECORD
  5
12829
102
{ACAD_REACTORS
330
12828
102
}
330
12828
100
AcDbXrecord
280
     1
340
1A
  0
DICTIONARYVAR
  5
687F
102
{ACAD_REACTORS
330
687E
102
}
330
687E
100
DictionaryVariables
280
     0
  1
1
  0
DICTIONARYVAR
  5
6880
102
{ACAD_REACTORS
330
687E
102
}
330
687E
100
DictionaryVariables
280
     0
  1

  0
DICTIONARY
  5
1282B
330
1F
100
AcDbDictionary
280
     1
281
     1
  3
ACAD_XREC_ROUNDTRIP
360
1282C
  0
DICTIONARY
  5
1282D
330
23
100
AcDbDictionary
280
     1
281
     1
  3
ACAD_XREC_ROUNDTRIP
360
1282E
  0
XRECORD
  5
1282C
102
{ACAD_REACTORS
330
1282B
102
}
330
1282B
100
AcDbXrecord
280
     1
102
SHADEPLOT
 70
     0
102
SHADEPLOTRESLEVEL
 70
     2
102
SHADEPLOTCUSTOMDPI
 70
   300
  0
XRECORD
  5
1282E
102
{ACAD_REACTORS
330
1282D
102
}
330
1282D
100
AcDbXrecord
280
     1
102
SHADEPLOT
 70
     1
102
SHADEPLOTRESLEVEL
 70
     2
102
SHADEPLOTCUSTOMDPI
 70
   300
  0
ENDSEC
  0
EOF
