  0
SECTION
  2
HEADER
  9
$ACADVER
  1
AC1006
  9
$DWGCODEPAGE
  3
ansi_1252
  9
$INSBASE
 10
0.0
 20
0.0
 30
0.0
  9
$EXTMIN
 10
1.000E+20
 20
1.000E+20
  9
$EXTMAX
 10
-1.000E+20
 20
-1.000E+20
  9
$LIMMIN
 10
0.0
 20
0.0
  9
$LIMMAX
 10
420.0
 20
297.0
  9
$ORTHOMODE
 70
     0
  9
$REGENMODE
 70
     1
  9
$FILLMODE
 70
     1
  9
$QTEXTMODE
 70
     0
  9
$MIRRTEXT
 70
     1
  9
$DRAGMODE
 70
     2
  9
$LTSCALE
 40
1.0
  9
$OSMODE
 70
    37
  9
$ATTMODE
 70
     1
  9
$TEXTSIZE
 40
2.5
  9
$TRACEWID
 40
1.0
  9
$TEXTSTYLE
  7
STANDARD
  9
$CLAYER
  8
0
  9
$CELTYPE
  6
BYLAYER
  9
$CECOLOR
 62
   256
  9
$DIMSCALE
 40
1.0
  9
$DIMASZ
 40
2.5
  9
$DIMEXO
 40
0.625
  9
$DIMDLI
 40
3.75
  9
$DIMRND
 40
0.0
  9
$DIMDLE
 40
0.0
  9
$DIMEXE
 40
1.25
  9
$DIMTP
 40
0.0
  9
$DIMTM
 40
0.0
  9
$DIMTXT
 40
2.5
  9
$DIMCEN
 40
2.5
  9
$DIMTSZ
 40
0.0
  9
$DIMTOL
 70
     0
  9
$DIMLIM
 70
     0
  9
$DIMTIH
 70
     0
  9
$DIMTOH
 70
     0
  9
$DIMSE1
 70
     0
  9
$DIMSE2
 70
     0
  9
$DIMTAD
 70
     1
  9
$DIMZIN
 70
     8
  9
$DIMBLK
  1

  9
$DIMASO
 70
     1
  9
$DIMSHO
 70
     1
  9
$DIMPOST
  1

  9
$DIMAPOST
  1

  9
$DIMALT
 70
     0
  9
$DIMALTD
 70
     3
  9
$DIMALTF
 40
0.039
  9
$DIMLFAC
 40
1.0
  9
$DIMTOFL
 70
     1
  9
$DIMTVP
 40
0.0
  9
$DIMTIX
 70
     0
  9
$DIMSOXD
 70
     0
  9
$DIMSAH
 70
     0
  9
$DIMBLK1
  1

  9
$DIMBLK2
  1

  9
$LUNITS
 70
     2
  9
$LUPREC
 70
     4
  9
$SKETCHINC
 40
1.0
  9
$FILLETRAD
 40
10.0
  9
$AUNITS
 70
     0
  9
$AUPREC
 70
     0
  9
$MENU
  1
.
  9
$ELEVATION
 40
0.0
  9
$THICKNESS
 40
0.0
  9
$LIMCHECK
 70
     0
  9
$CHAMFERA
 40
10.0
  9
$CHAMFERB
 40
10.0
  9
$SKPOLY
 70
     0
  9
$TDCREATE
 40
2454669.608612373
  9
$TDUPDATE
 40
2454669.608612384
  9
$TDINDWG
 40
0.0000000116
  9
$TDUSRTIMER
 40
0.0000000116
  9
$USRTIMER
 70
     1
  9
$ANGBASE
 50
0.0
  9
$ANGDIR
 70
     0
  9
$PDMODE
 70
     0
  9
$PDSIZE
 40
0.0
  9
$PLINEWID
 40
0.0
  9
$COORDS
 70
     1
  9
$SPLFRAME
 70
     0
  9
$SPLINETYPE
 70
     6
  9
$SPLINESEGS
 70
     8
  9
$ATTDIA
 70
     0
  9
$ATTREQ
 70
     1
  9
$HANDLING
 70
     1
  9
$HANDSEED
  5
A4E
  9
$SURFTAB1
 70
     6
  9
$SURFTAB2
 70
     6
  9
$SURFTYPE
 70
     6
  9
$SURFU
 70
     6
  9
$SURFV
 70
     6
  9
$UCSNAME
  2

  9
$UCSORG
 10
0.0
 20
0.0
 30
0.0
  9
$UCSXDIR
 10
1.0
 20
0.0
 30
0.0
  9
$UCSYDIR
 10
0.0
 20
1.0
 30
0.0
  9
$USERI1
 70
     0
  9
$USERI2
 70
     0
  9
$USERI3
 70
     0
  9
$USERI4
 70
     0
  9
$USERI5
 70
     0
  9
$USERR1
 40
0.0
  9
$USERR2
 40
0.0
  9
$USERR3
 40
0.0
  9
$USERR4
 40
0.0
  9
$USERR5
 40
0.0
  9
$WORLDVIEW
 70
     1
  0
ENDSEC
  0
SECTION
  2
TABLES
  0
TABLE
  2
VPORT
 70
     1
  0
VPORT
  2
*ACTIVE
 70
     0
 10
0.0
 20
0.0
 11
1.0
 21
1.0
 12
344.187
 22
148.5
 13
0.0
 23
0.0
 14
10.0
 24
10.0
 15
10.0
 25
10.0
 16
0.0
 26
0.0
 36
1.0
 17
0.0
 27
0.0
 37
0.0
 40
297.0
 41
1.973
 42
50.0
 43
0.0
 44
0.0
 50
0.0
 51
0.0
 71
     0
 72
   100
 73
     1
 74
     3
 75
     0
 76
     0
 77
     0
 78
     0
  0
ENDTAB
  0
TABLE
  2
LTYPE
 70
     1
  0
LTYPE
  2
CONTINUOUS
 70
     0
  3
Solid line
 72
    65
 73
     0
 40
0.0
  0
ENDTAB
  0
TABLE
  2
LAYER
 70
     6
  0
LAYER
  2
0
 70
     0
 62
     7
  6
CONTINUOUS
  0
LAYER
  2
DIM
 70
     0
 62
     7
  6
CONTINUOUS
  0
LAYER
  2
DRAW
 70
     0
 62
     7
  6
CONTINUOUS
  0
LAYER
  2
CARTOUCHE
 70
     0
 62
     7
  6
CONTINUOUS
  0
LAYER
  2
DRAW-TEXT
 70
     0
 62
     7
  6
CONTINUOUS
  0
LAYER
  2
DEFPOINTS
 70
     0
 62
     7
  6
CONTINUOUS
  0
ENDTAB
  0
TABLE
  2
STYLE
 70
    18
  0
STYLE
  2
STANDARD
 70
     0
 40
0.0
 41
1.0
 50
0.0
 71
     0
 42
2.5
  3
txt
  4

  0
STYLE
  2
DEFAULT
 70
     0
 40
0.0
 41
1.0
 50
0.0
 71
     0
 42
0.2
  3

  4

  0
STYLE
  2
FINDER
 70
     0
 40
0.0
 41
1.0
 50
0.0
 71
     0
 42
0.2
  3
ARIAL.TTF
  4

  0
STYLE
  2
ISO_FINDER
 70
     0
 40
0.0
 41
1.0
 50
0.0
 71
     0
 42
0.2
  3

  4

  0
STYLE
  2
TSTYLE1
 70
     0
 40
0.0
 41
1.0
 50
0.0
 71
     0
 42
0.2
  3

  4

  0
STYLE
  2
TSTYLE2
 70
     0
 40
0.0
 41
1.0
 50
0.0
 71
     0
 42
0.2
  3

  4

  0
STYLE
  2
TSTYLE3
 70
     0
 40
0.0
 41
1.0
 50
0.0
 71
     0
 42
0.2
  3

  4

  0
STYLE
  2
TSTYLE4
 70
     0
 40
0.0
 41
1.0
 50
0.0
 71
     0
 42
0.2
  3

  4

  0
STYLE
  2
TSTYLE5
 70
     0
 40
0.0
 41
1.0
 50
0.0
 71
     0
 42
0.2
  3

  4

  0
STYLE
  2
TSTYLE11
 70
     0
 40
0.0
 41
1.0
 50
0.0
 71
     0
 42
0.2
  3

  4

  0
STYLE
  2
TSTYLE23
 70
     0
 40
0.0
 41
1.0
 50
0.0
 71
     0
 42
0.2
  3

  4

  0
STYLE
  2
TSTYLE22
 70
     0
 40
0.0
 41
1.0
 50
0.0
 71
     0
 42
0.2
  3

  4

  0
STYLE
  2
ISO
 70
     0
 40
0.0
 41
1.0
 50
0.0
 71
     0
 42
0.2
  3
isocp___.ttf
  4

  0
STYLE
  2
HELVETICAR
 70
     0
 40
0.0
 41
1.0
 50
0.0
 71
     0
 42
0.2
  3

  4

  0
STYLE
  2
ROMANS
 70
     0
 40
0.0
 41
1.0
 50
0.0
 71
     0
 42
0.2
  3

  4

  0
STYLE
  2
STD
 70
     0
 40
0.0
 41
1.0
 50
0.0
 71
     0
 42
0.2
  3

  4

  0
STYLE
  2
STYLE1
 70
     0
 40
0.0
 41
1.0
 50
0.0
 71
     0
 42
0.2
  3
ariblk.TTF
  4

  0
STYLE
  2
EXPLODED0
 70
     0
 40
0.2
 41
1.0
 50
0.0
 71
     0
 42
0.2
  3

  4

  0
ENDTAB
  0
TABLE
  2
VIEW
 70
     0
  0
ENDTAB
  0
TABLE
  2
UCS
 70
     0
  0
ENDTAB
  0
ENDSEC
  0
SECTION
  2
BLOCKS
  0
BLOCK
  8
0
  2
_CLOSED
 70
     0
 10
0.0
 20
0.0
 30
0.0
  0
LINE
  5
54
  8
0
  6
BYBLOCK
 62
     0
 10
-1.0
 20
0.167
 30
0.0
 11
0.0
 21
0.0
 31
0.0
  0
LINE
  5
55
  8
0
  6
BYBLOCK
 62
     0
 10
0.0
 20
0.0
 30
0.0
 11
-1.0
 21
-0.167
 31
0.0
  0
LINE
  5
56
  8
0
  6
BYBLOCK
 62
     0
 10
-1.0
 20
0.167
 30
0.0
 11
-1.0
 21
-0.167
 31
0.0
  0
LINE
  5
57
  8
0
  6
BYBLOCK
 62
     0
 10
0.0
 20
0.0
 30
0.0
 11
-1.0
 21
0.0
 31
0.0
  0
ENDBLK
  8
0
  0
BLOCK
  8
0
  2
_DOT
 70
     0
 10
0.0
 20
0.0
 30
0.0
  0
POLYLINE
  5
65
  8
0
  6
BYBLOCK
 62
     0
 66
     1
 10
0.0
 20
0.0
 30
0.0
 70
     1
 40
0.5
 41
0.5
  0
VERTEX
  5
68
  8
0
  6
BYBLOCK
 62
     0
 10
-0.25
 20
0.0
 30
0.0
 42
1.0
  0
VERTEX
  5
69
  8
0
  6
BYBLOCK
 62
     0
 10
0.25
 20
0.0
 30
0.0
 42
1.0
  0
SEQEND
  5
67
  8
0
  6
BYBLOCK
 62
     0
  0
LINE
  5
66
  8
0
  6
BYBLOCK
 62
     0
 10
-0.5
 20
0.0
 30
0.0
 11
-1.0
 21
0.0
 31
0.0
  0
ENDBLK
  8
0
  0
BLOCK
  8
0
  2
*D3
 70
     1
 10
0.0
 20
0.0
 30
0.0
  0
LINE
  5
2A2
  8
DIM
  6
CONTINUOUS
 62
     3
 10
384.084
 20
401.76
 30
0.0
 11
384.084
 21
409.908
 31
0.0
  0
LINE
  5
2A3
  8
DIM
  6
CONTINUOUS
 62
     3
 10
401.584
 20
401.76
 30
0.0
 11
401.584
 21
409.908
 31
0.0
  0
LINE
  5
2A4
  8
DIM
  6
CONTINUOUS
 62
     3
 10
385.284
 20
407.477
 30
0.0
 11
400.384
 21
407.477
 31
0.0
  0
INSERT
  5
2A5
  8
DIM
 62
     3
  2
_CLOSED
 10
384.084
 20
407.477
 30
0.0
 41
1.2
 42
1.2
 43
1.2
 50
180.0
  0
INSERT
  5
2A6
  8
DIM
 62
     3
  2
_CLOSED
 10
401.584
 20
407.477
 30
0.0
 41
1.2
 42
1.2
 43
1.2
  0
TEXT
  5
2A7
  8
DIM
 62
     2
 10
388.707
 20
410.714
 30
0.0
 40
3.5
  1
17.5
  7
EXPLODED0
  0
POINT
  5
2A8
  8
DEFPOINTS
 62
     0
 10
384.084
 20
400.649
 30
0.0
  0
POINT
  5
2A9
  8
DEFPOINTS
 62
     0
 10
401.584
 20
400.649
 30
0.0
  0
POINT
  5
2AA
  8
DEFPOINTS
 62
     0
 10
401.584
 20
407.477
 30
0.0
  0
ENDBLK
  8
0
  0
BLOCK
  8
0
  2
*D4
 70
     1
 10
0.0
 20
0.0
 30
0.0
  0
LINE
  5
2AF
  8
DIM
  6
CONTINUOUS
 62
     3
 10
423.61
 20
391.76
 30
0.0
 11
423.61
 21
409.908
 31
0.0
  0
LINE
  5
2B0
  8
DIM
  6
CONTINUOUS
 62
     3
 10
484.41
 20
383.26
 30
0.0
 11
484.41
 21
409.908
 31
0.0
  0
LINE
  5
2B1
  8
DIM
  6
CONTINUOUS
 62
     3
 10
424.81
 20
407.477
 30
0.0
 11
483.21
 21
407.477
 31
0.0
  0
INSERT
  5
2B2
  8
DIM
 62
     3
  2
_CLOSED
 10
423.61
 20
407.477
 30
0.0
 41
1.2
 42
1.2
 43
1.2
 50
180.0
  0
INSERT
  5
2B3
  8
DIM
 62
     3
  2
_CLOSED
 10
484.41
 20
407.477
 30
0.0
 41
1.2
 42
1.2
 43
1.2
  0
TEXT
  5
2B4
  8
DIM
 62
     2
 10
452.433
 20
410.714
 30
0.0
 40
3.5
  1
60.8
  7
EXPLODED0
  0
POINT
  5
2B5
  8
DEFPOINTS
 62
     0
 10
423.61
 20
390.649
 30
0.0
  0
POINT
  5
2B6
  8
DEFPOINTS
 62
     0
 10
484.41
 20
382.149
 30
0.0
  0
POINT
  5
2B7
  8
DEFPOINTS
 62
     0
 10
484.41
 20
407.477
 30
0.0
  0
ENDBLK
  8
0
  0
BLOCK
  8
0
  2
*D5
 70
     1
 10
0.0
 20
0.0
 30
0.0
  0
LINE
  5
2BC
  8
DIM
  6
CONTINUOUS
 62
     3
 10
452.522
 20
402.649
 30
0.0
 11
504.819
 21
402.649
 31
0.0
  0
LINE
  5
2BD
  8
DIM
  6
CONTINUOUS
 62
     3
 10
452.522
 20
318.649
 30
0.0
 11
504.819
 21
318.649
 31
0.0
  0
LINE
  5
2BE
  8
DIM
  6
CONTINUOUS
 62
     3
 10
502.389
 20
401.449
 30
0.0
 11
502.389
 21
319.849
 31
0.0
  0
INSERT
  5
2BF
  8
DIM
 62
     3
  2
_CLOSED
 10
502.389
 20
402.649
 30
0.0
 41
1.2
 42
1.2
 43
1.2
 50
90.0
  0
INSERT
  5
2C0
  8
DIM
 62
     3
  2
_CLOSED
 10
502.389
 20
318.649
 30
0.0
 41
1.2
 42
1.2
 43
1.2
 50
270.0
  0
TEXT
  5
2C1
  8
DIM
 62
     2
 10
499.153
 20
358.105
 30
0.0
 40
3.5
  1
84
 50
90.0
  7
EXPLODED0
  0
POINT
  5
2C2
  8
DEFPOINTS
 62
     0
 10
451.41
 20
402.649
 30
0.0
  0
POINT
  5
2C3
  8
DEFPOINTS
 62
     0
 10
451.41
 20
318.649
 30
0.0
  0
POINT
  5
2C4
  8
DEFPOINTS
 62
     0
 10
502.389
 20
318.649
 30
0.0
  0
ENDBLK
  8
0
  0
BLOCK
  8
0
  2
*D6
 70
     1
 10
0.0
 20
0.0
 30
0.0
  0
LINE
  5
2C9
  8
DIM
  6
CONTINUOUS
 62
     3
 10
483.522
 20
383.149
 30
0.0
 11
495.191
 21
383.149
 31
0.0
  0
LINE
  5
2CA
  8
DIM
  6
CONTINUOUS
 62
     3
 10
483.522
 20
338.149
 30
0.0
 11
495.191
 21
338.149
 31
0.0
  0
LINE
  5
2CB
  8
DIM
  6
CONTINUOUS
 62
     3
 10
492.761
 20
381.949
 30
0.0
 11
492.761
 21
339.349
 31
0.0
  0
INSERT
  5
2CC
  8
DIM
 62
     3
  2
_CLOSED
 10
492.761
 20
383.149
 30
0.0
 41
1.2
 42
1.2
 43
1.2
 50
90.0
  0
INSERT
  5
2CD
  8
DIM
 62
     3
  2
_CLOSED
 10
492.761
 20
338.149
 30
0.0
 41
1.2
 42
1.2
 43
1.2
 50
270.0
  0
TEXT
  5
2CE
  8
DIM
 62
     2
 10
489.524
 20
358.105
 30
0.0
 40
3.5
  1
45
 50
90.0
  7
EXPLODED0
  0
POINT
  5
2CF
  8
DEFPOINTS
 62
     0
 10
482.41
 20
383.149
 30
0.0
  0
POINT
  5
2D0
  8
DEFPOINTS
 62
     0
 10
482.41
 20
338.149
 30
0.0
  0
POINT
  5
2D1
  8
DEFPOINTS
 62
     0
 10
492.761
 20
338.149
 30
0.0
  0
ENDBLK
  8
0
  0
BLOCK
  8
0
  2
*D7
 70
     1
 10
0.0
 20
0.0
 30
0.0
  0
LINE
  5
2D8
  8
DIM
  6
CONTINUOUS
 62
     3
 10
425.465
 20
378.149
 30
0.0
 11
416.723
 21
378.149
 31
0.0
  0
LINE
  5
2D9
  8
DIM
  6
CONTINUOUS
 62
     3
 10
425.599
 20
344.349
 30
0.0
 11
416.723
 21
344.349
 31
0.0
  0
LINE
  5
2DA
  8
DIM
  6
CONTINUOUS
 62
     3
 10
419.154
 20
376.949
 30
0.0
 11
419.154
 21
345.549
 31
0.0
  0
INSERT
  5
2DB
  8
DIM
 62
     3
  2
_CLOSED
 10
419.154
 20
378.149
 30
0.0
 41
1.2
 42
1.2
 43
1.2
 50
90.0
  0
INSERT
  5
2DC
  8
DIM
 62
     3
  2
_CLOSED
 10
419.154
 20
344.349
 30
0.0
 41
1.2
 42
1.2
 43
1.2
 50
270.0
  0
TEXT
  5
2DD
  8
DIM
 62
     2
 10
415.917
 20
357.122
 30
0.0
 40
3.5
  1
33.8
 50
90.0
  7
EXPLODED0
  0
POINT
  5
2DE
  8
DEFPOINTS
 62
     0
 10
426.576
 20
378.149
 30
0.0
  0
POINT
  5
2DF
  8
DEFPOINTS
 62
     0
 10
426.71
 20
344.349
 30
0.0
  0
POINT
  5
2E0
  8
DEFPOINTS
 62
     0
 10
419.154
 20
344.349
 30
0.0
  0
ENDBLK
  8
0
  0
BLOCK
  8
0
  2
*D8
 70
     1
 10
0.0
 20
0.0
 30
0.0
  0
LINE
  5
2E5
  8
DIM
  6
CONTINUOUS
 62
     3
 10
425.599
 20
344.349
 30
0.0
 11
416.723
 21
344.349
 31
0.0
  0
LINE
  5
2E6
  8
DIM
  6
CONTINUOUS
 62
     3
 10
422.999
 20
313.799
 30
0.0
 11
416.723
 21
313.799
 31
0.0
  0
LINE
  5
2E7
  8
DIM
  6
CONTINUOUS
 62
     3
 10
419.154
 20
343.149
 30
0.0
 11
419.154
 21
314.999
 31
0.0
  0
INSERT
  5
2E8
  8
DIM
 62
     3
  2
_CLOSED
 10
419.154
 20
344.349
 30
0.0
 41
1.2
 42
1.2
 43
1.2
 50
90.0
  0
INSERT
  5
2E9
  8
DIM
 62
     3
  2
_CLOSED
 10
419.154
 20
313.799
 30
0.0
 41
1.2
 42
1.2
 43
1.2
 50
270.0
  0
TEXT
  5
2EA
  8
DIM
 62
     2
 10
415.917
 20
324.947
 30
0.0
 40
3.5
  1
30.6
 50
90.0
  7
EXPLODED0
  0
POINT
  5
2EB
  8
DEFPOINTS
 62
     0
 10
426.71
 20
344.349
 30
0.0
  0
POINT
  5
2EC
  8
DEFPOINTS
 62
     0
 10
424.11
 20
313.799
 30
0.0
  0
POINT
  5
2ED
  8
DEFPOINTS
 62
     0
 10
419.154
 20
313.799
 30
0.0
  0
ENDBLK
  8
0
  0
BLOCK
  8
0
  2
*D9
 70
     1
 10
0.0
 20
0.0
 30
0.0
  0
LINE
  5
3A3
  8
DIM
  6
CONTINUOUS
 62
     3
 10
383.373
 20
402.649
 30
0.0
 11
374.288
 21
402.649
 31
0.0
  0
LINE
  5
3A4
  8
DIM
  6
CONTINUOUS
 62
     3
 10
391.713
 20
313.799
 30
0.0
 11
374.288
 21
313.799
 31
0.0
  0
LINE
  5
3A5
  8
DIM
  6
CONTINUOUS
 62
     3
 10
376.719
 20
401.449
 30
0.0
 11
376.719
 21
314.999
 31
0.0
  0
INSERT
  5
3A6
  8
DIM
 62
     3
  2
_CLOSED
 10
376.719
 20
402.649
 30
0.0
 41
1.2
 42
1.2
 43
1.2
 50
90.0
  0
INSERT
  5
3A7
  8
DIM
 62
     3
  2
_CLOSED
 10
376.719
 20
313.799
 30
0.0
 41
1.2
 42
1.2
 43
1.2
 50
270.0
  0
TEXT
  5
3A8
  8
DIM
 62
     2
 10
373.483
 20
354.097
 30
0.0
 40
3.5
  1
88.8
 50
90.0
  7
EXPLODED0
  0
POINT
  5
3A9
  8
DEFPOINTS
 62
     0
 10
384.484
 20
402.649
 30
0.0
  0
POINT
  5
3AA
  8
DEFPOINTS
 62
     0
 10
392.824
 20
313.799
 30
0.0
  0
POINT
  5
3AB
  8
DEFPOINTS
 62
     0
 10
376.719
 20
313.799
 30
0.0
  0
ENDBLK
  8
0
  0
ENDSEC
  0
SECTION
  2
ENTITIES
  0
LINE
  5
6A
  8
0
  6
CONTINUOUS
 62
     6
 10
427.91
 20
322.649
 30
0.0
 11
427.91
 21
327.649
 31
0.0
  0
LINE
  5
6B
  8
0
  6
CONTINUOUS
 62
     6
 10
427.91
 20
398.649
 30
0.0
 11
427.91
 21
393.649
 31
0.0
  0
LINE
  5
6C
  8
0
  6
CONTINUOUS
 62
     6
 10
429.91
 20
358.149
 30
0.0
 11
429.91
 21
363.149
 31
0.0
  0
LINE
  5
6D
  8
0
  6
CONTINUOUS
 62
     4
 10
427.91
 20
377.649
 30
0.0
 11
427.46
 21
375.649
 31
0.0
  0
LINE
  5
6E
  8
0
  6
CONTINUOUS
 62
     4
 10
427.91
 20
373.649
 30
0.0
 11
427.46
 21
375.649
 31
0.0
  0
LINE
  5
6F
  8
0
  6
CONTINUOUS
 62
     5
 10
428.41
 20
322.737
 30
0.0
 11
430.41
 21
323.09
 31
0.0
  0
LINE
  5
70
  8
0
  6
CONTINUOUS
 62
     5
 10
428.41
 20
322.737
 30
0.0
 11
427.91
 21
322.649
 31
0.0
  0
LINE
  5
71
  8
0
  6
CONTINUOUS
 62
     5
 10
428.41
 20
327.561
 30
0.0
 11
430.41
 21
327.208
 31
0.0
  0
LINE
  5
72
  8
0
  6
CONTINUOUS
 62
     5
 10
428.41
 20
327.561
 30
0.0
 11
428.41
 21
322.737
 31
0.0
  0
LINE
  5
73
  8
0
  6
CONTINUOUS
 62
     5
 10
427.91
 20
327.649
 30
0.0
 11
428.41
 21
327.561
 31
0.0
  0
LINE
  5
74
  8
0
  6
CONTINUOUS
 62
     5
 10
428.41
 20
398.561
 30
0.0
 11
430.41
 21
398.208
 31
0.0
  0
LINE
  5
75
  8
0
  6
CONTINUOUS
 62
     5
 10
428.41
 20
398.561
 30
0.0
 11
427.91
 21
398.649
 31
0.0
  0
LINE
  5
76
  8
0
  6
CONTINUOUS
 62
     5
 10
428.41
 20
393.737
 30
0.0
 11
430.41
 21
394.09
 31
0.0
  0
LINE
  5
77
  8
0
  6
CONTINUOUS
 62
     5
 10
428.41
 20
393.737
 30
0.0
 11
428.41
 21
398.561
 31
0.0
  0
LINE
  5
78
  8
0
  6
CONTINUOUS
 62
     5
 10
427.91
 20
393.649
 30
0.0
 11
428.41
 21
393.737
 31
0.0
  0
LINE
  5
79
  8
0
  6
CONTINUOUS
 62
     5
 10
430.41
 20
358.237
 30
0.0
 11
431.41
 21
358.413
 31
0.0
  0
LINE
  5
7A
  8
0
  6
CONTINUOUS
 62
     5
 10
430.41
 20
358.237
 30
0.0
 11
429.91
 21
358.149
 31
0.0
  0
LINE
  5
7B
  8
0
  6
CONTINUOUS
 62
     5
 10
430.41
 20
363.061
 30
0.0
 11
431.41
 21
362.884
 31
0.0
  0
LINE
  5
7C
  8
0
  6
CONTINUOUS
 62
     5
 10
430.41
 20
363.061
 30
0.0
 11
430.41
 21
358.237
 31
0.0
  0
LINE
  5
7D
  8
0
  6
CONTINUOUS
 62
     5
 10
429.91
 20
363.149
 30
0.0
 11
430.41
 21
363.061
 31
0.0
  0
LINE
  5
7E
  8
0
  6
CONTINUOUS
 62
     4
 10
426.576
 20
378.149
 30
0.0
 11
427.91
 21
378.149
 31
0.0
  0
LINE
  5
7F
  8
0
  6
CONTINUOUS
 62
     4
 10
482.41
 20
383.149
 30
0.0
 11
483.41
 21
383.149
 31
0.0
  0
ARC
  5
80
  8
0
  6
CONTINUOUS
 62
     4
 10
-483.41
 20
382.149
 30
0.0
 40
1.0
 50
90.0
 51
180.0
210
0.0
220
0.0
230
-1.0
  0
LINE
  5
81
  8
0
  6
CONTINUOUS
 62
     4
 10
484.41
 20
339.149
 30
0.0
 11
484.41
 21
382.149
 31
0.0
  0
ARC
  5
82
  8
0
  6
CONTINUOUS
 62
     4
 10
483.41
 20
339.149
 30
0.0
 40
1.0
 50
270.0
 51
360.0
  0
LINE
  5
83
  8
0
  6
CONTINUOUS
 62
     4
 10
482.41
 20
338.149
 30
0.0
 11
483.41
 21
338.149
 31
0.0
  0
LINE
  5
84
  8
0
  6
CONTINUOUS
 62
     6
 10
482.41
 20
381.149
 30
0.0
 11
482.41
 21
382.949
 31
0.0
  0
LINE
  5
85
  8
0
  6
CONTINUOUS
 62
     6
 10
482.41
 20
338.349
 30
0.0
 11
482.41
 21
340.149
 31
0.0
  0
LINE
  5
86
  8
0
  6
CONTINUOUS
 62
     4
 10
425.81
 20
342.649
 30
0.0
 11
425.81
 21
343.424
 31
0.0
  0
LINE
  5
87
  8
0
  6
CONTINUOUS
 62
     4
 10
427.91
 20
343.424
 30
0.0
 11
425.81
 21
343.424
 31
0.0
  0
LINE
  5
88
  8
0
  6
CONTINUOUS
 62
     4
 10
427.91
 20
313.799
 30
0.0
 11
427.91
 21
314.224
 31
0.0
  0
LINE
  5
89
  8
0
  6
CONTINUOUS
 62
     4
 10
427.91
 20
314.224
 30
0.0
 11
427.91
 21
315.299
 31
0.0
  0
LINE
  5
8A
  8
0
  6
CONTINUOUS
 62
     4
 10
427.91
 20
315.299
 30
0.0
 11
427.91
 21
316.099
 31
0.0
  0
LINE
  5
8B
  8
0
  6
CONTINUOUS
 62
     4
 10
424.11
 20
313.799
 30
0.0
 11
424.11
 21
314.224
 31
0.0
  0
LINE
  5
8C
  8
0
  6
CONTINUOUS
 62
     4
 10
424.11
 20
314.224
 30
0.0
 11
424.11
 21
315.299
 31
0.0
  0
LINE
  5
8D
  8
0
  6
CONTINUOUS
 62
     5
 10
427.91
 20
315.299
 30
0.0
 11
424.11
 21
315.299
 31
0.0
  0
LINE
  5
8E
  8
0
  6
CONTINUOUS
 62
     4
 10
424.11
 20
315.299
 30
0.0
 11
424.11
 21
316.099
 31
0.0
  0
LINE
  5
8F
  8
0
  6
CONTINUOUS
 62
     4
 10
424.11
 20
316.099
 30
0.0
 11
424.11
 21
318.649
 31
0.0
  0
LINE
  5
90
  8
0
  6
CONTINUOUS
 62
     4
 10
427.91
 20
318.649
 30
0.0
 11
427.91
 21
316.099
 31
0.0
  0
LINE
  5
91
  8
0
  6
CONTINUOUS
 62
     4
 10
426.309
 20
345.849
 30
0.0
 11
426.71
 21
344.349
 31
0.0
  0
LINE
  5
92
  8
0
  6
CONTINUOUS
 62
     4
 10
427.91
 20
344.349
 30
0.0
 11
426.71
 21
344.349
 31
0.0
  0
LINE
  5
93
  8
0
  6
CONTINUOUS
 62
     4
 10
424.11
 20
342.649
 30
0.0
 11
426.309
 21
345.849
 31
0.0
  0
LINE
  5
94
  8
0
  6
CONTINUOUS
 62
     4
 10
427.91
 20
313.799
 30
0.0
 11
424.11
 21
313.799
 31
0.0
  0
LINE
  5
95
  8
0
  6
CONTINUOUS
 62
     6
 10
430.41
 20
393.649
 30
0.0
 11
430.41
 21
398.649
 31
0.0
  0
LINE
  5
96
  8
0
  6
CONTINUOUS
 62
     6
 10
430.41
 20
398.649
 30
0.0
 11
427.91
 21
398.649
 31
0.0
  0
LINE
  5
97
  8
0
  6
CONTINUOUS
 62
     6
 10
427.91
 20
393.649
 30
0.0
 11
430.41
 21
393.649
 31
0.0
  0
LINE
  5
98
  8
0
  6
CONTINUOUS
 62
     6
 10
429.91
 20
358.149
 30
0.0
 11
431.41
 21
358.149
 31
0.0
  0
LINE
  5
99
  8
0
  6
CONTINUOUS
 62
     6
 10
431.41
 20
358.149
 30
0.0
 11
431.41
 21
363.149
 31
0.0
  0
LINE
  5
9A
  8
0
  6
CONTINUOUS
 62
     6
 10
431.41
 20
363.149
 30
0.0
 11
429.91
 21
363.149
 31
0.0
  0
LINE
  5
9B
  8
0
  6
CONTINUOUS
 62
     6
 10
430.41
 20
322.649
 30
0.0
 11
430.41
 21
327.649
 31
0.0
  0
LINE
  5
9C
  8
0
  6
CONTINUOUS
 62
     6
 10
430.41
 20
327.649
 30
0.0
 11
427.91
 21
327.649
 31
0.0
  0
LINE
  5
9D
  8
0
  6
CONTINUOUS
 62
     6
 10
427.91
 20
322.649
 30
0.0
 11
430.41
 21
322.649
 31
0.0
  0
CIRCLE
  5
9E
  8
0
  6
CONTINUOUS
 62
     5
 10
434.07
 20
396.231
 30
0.0
 40
2.283226896594907
  0
ARC
  5
9F
  8
0
  6
CONTINUOUS
 62
     5
 10
-434.07
 20
396.231
 30
0.0
 40
1.804188967952863
 50
7.696
 51
67.559
210
0.0
220
0.0
230
-1.0
  0
LINE
  5
A0
  8
0
  6
CONTINUOUS
 62
     5
 10
433.382
 20
397.898
 30
0.0
 11
433.382
 21
396.472
 31
0.0
  0
LINE
  5
A1
  8
0
  6
CONTINUOUS
 62
     5
 10
433.382
 20
396.472
 30
0.0
 11
432.282
 21
396.472
 31
0.0
  0
LINE
  5
A2
  8
0
  6
CONTINUOUS
 62
     5
 10
434.293
 20
395.216
 30
0.0
 11
433.585
 21
395.984
 31
0.0
  0
LINE
  5
A3
  8
0
  6
CONTINUOUS
 62
     5
 10
433.585
 20
395.984
 30
0.0
 11
433.694
 21
395.984
 31
0.0
  0
ARC
  5
A4
  8
0
  6
CONTINUOUS
 62
     5
 10
433.615
 20
396.195
 30
0.0
 40
0.2258343473792617
 50
290.573
 51
349.615
  0
LINE
  5
A5
  8
0
  6
CONTINUOUS
 62
     5
 10
433.837
 20
396.155
 30
0.0
 11
433.837
 21
398.02
 31
0.0
  0
ARC
  5
A6
  8
0
  6
CONTINUOUS
 62
     5
 10
-434.07
 20
396.231
 30
0.0
 40
1.804188967950671
 50
82.574
 51
97.08
210
0.0
220
0.0
230
-1.0
  0
LINE
  5
A7
  8
0
  6
CONTINUOUS
 62
     5
 10
434.293
 20
398.021
 30
0.0
 11
434.293
 21
395.216
 31
0.0
  0
LINE
  5
A8
  8
0
  6
CONTINUOUS
 62
     5
 10
434.754
 20
396.988
 30
0.0
 11
434.754
 21
397.901
 31
0.0
  0
ARC
  5
A9
  8
0
  6
CONTINUOUS
 62
     5
 10
-434.07
 20
396.231
 30
0.0
 40
1.804188967953129
 50
112.256
 51
352.131
210
0.0
220
0.0
230
-1.0
  0
LINE
  5
AA
  8
0
  6
CONTINUOUS
 62
     5
 10
432.283
 20
395.984
 30
0.0
 11
432.86
 21
395.984
 31
0.0
  0
LINE
  5
AB
  8
0
  6
CONTINUOUS
 62
     5
 10
432.86
 20
395.984
 30
0.0
 11
434.202
 21
394.667
 31
0.0
  0
POLYLINE
  5
AC
  8
0
  6
CONTINUOUS
 62
     5
 66
     1
 10
0.0
 20
0.0
 30
0.0
  0
VERTEX
  5
491
  8
0
  6
CONTINUOUS
 62
     5
 10
434.202
 20
394.667
 30
0.0
  0
VERTEX
  5
492
  8
0
  6
CONTINUOUS
 62
     5
 10
434.213
 20
394.66
 30
0.0
  0
VERTEX
  5
493
  8
0
  6
CONTINUOUS
 62
     5
 10
434.224
 20
394.653
 30
0.0
  0
VERTEX
  5
494
  8
0
  6
CONTINUOUS
 62
     5
 10
434.235
 20
394.647
 30
0.0
  0
VERTEX
  5
495
  8
0
  6
CONTINUOUS
 62
     5
 10
434.246
 20
394.64
 30
0.0
  0
VERTEX
  5
496
  8
0
  6
CONTINUOUS
 62
     5
 10
434.258
 20
394.634
 30
0.0
  0
VERTEX
  5
497
  8
0
  6
CONTINUOUS
 62
     5
 10
434.27
 20
394.629
 30
0.0
  0
VERTEX
  5
498
  8
0
  6
CONTINUOUS
 62
     5
 10
434.282
 20
394.623
 30
0.0
  0
VERTEX
  5
499
  8
0
  6
CONTINUOUS
 62
     5
 10
434.294
 20
394.618
 30
0.0
  0
VERTEX
  5
49A
  8
0
  6
CONTINUOUS
 62
     5
 10
434.306
 20
394.614
 30
0.0
  0
VERTEX
  5
49B
  8
0
  6
CONTINUOUS
 62
     5
 10
434.319
 20
394.61
 30
0.0
  0
VERTEX
  5
49C
  8
0
  6
CONTINUOUS
 62
     5
 10
434.331
 20
394.606
 30
0.0
  0
VERTEX
  5
49D
  8
0
  6
CONTINUOUS
 62
     5
 10
434.344
 20
394.603
 30
0.0
  0
VERTEX
  5
49E
  8
0
  6
CONTINUOUS
 62
     5
 10
434.357
 20
394.6
 30
0.0
  0
VERTEX
  5
49F
  8
0
  6
CONTINUOUS
 62
     5
 10
434.37
 20
394.598
 30
0.0
  0
VERTEX
  5
4A0
  8
0
  6
CONTINUOUS
 62
     5
 10
434.382
 20
394.596
 30
0.0
  0
VERTEX
  5
4A1
  8
0
  6
CONTINUOUS
 62
     5
 10
434.395
 20
394.595
 30
0.0
  0
VERTEX
  5
4A2
  8
0
  6
CONTINUOUS
 62
     5
 10
434.408
 20
394.595
 30
0.0
  0
VERTEX
  5
4A3
  8
0
  6
CONTINUOUS
 62
     5
 10
434.421
 20
394.595
 30
0.0
  0
VERTEX
  5
4A4
  8
0
  6
CONTINUOUS
 62
     5
 10
434.434
 20
394.596
 30
0.0
  0
VERTEX
  5
4A5
  8
0
  6
CONTINUOUS
 62
     5
 10
434.447
 20
394.597
 30
0.0
  0
VERTEX
  5
4A6
  8
0
  6
CONTINUOUS
 62
     5
 10
434.46
 20
394.599
 30
0.0
  0
VERTEX
  5
4A7
  8
0
  6
CONTINUOUS
 62
     5
 10
434.473
 20
394.602
 30
0.0
  0
VERTEX
  5
4A8
  8
0
  6
CONTINUOUS
 62
     5
 10
434.486
 20
394.605
 30
0.0
  0
VERTEX
  5
4A9
  8
0
  6
CONTINUOUS
 62
     5
 10
434.498
 20
394.608
 30
0.0
  0
VERTEX
  5
4AA
  8
0
  6
CONTINUOUS
 62
     5
 10
434.511
 20
394.612
 30
0.0
  0
VERTEX
  5
4AB
  8
0
  6
CONTINUOUS
 62
     5
 10
434.523
 20
394.616
 30
0.0
  0
VERTEX
  5
4AC
  8
0
  6
CONTINUOUS
 62
     5
 10
434.536
 20
394.621
 30
0.0
  0
VERTEX
  5
4AD
  8
0
  6
CONTINUOUS
 62
     5
 10
434.548
 20
394.626
 30
0.0
  0
VERTEX
  5
4AE
  8
0
  6
CONTINUOUS
 62
     5
 10
434.56
 20
394.632
 30
0.0
  0
VERTEX
  5
4AF
  8
0
  6
CONTINUOUS
 62
     5
 10
434.572
 20
394.638
 30
0.0
  0
VERTEX
  5
4B0
  8
0
  6
CONTINUOUS
 62
     5
 10
434.583
 20
394.644
 30
0.0
  0
VERTEX
  5
4B1
  8
0
  6
CONTINUOUS
 62
     5
 10
434.595
 20
394.65
 30
0.0
  0
VERTEX
  5
4B2
  8
0
  6
CONTINUOUS
 62
     5
 10
434.606
 20
394.657
 30
0.0
  0
VERTEX
  5
4B3
  8
0
  6
CONTINUOUS
 62
     5
 10
434.617
 20
394.665
 30
0.0
  0
VERTEX
  5
4B4
  8
0
  6
CONTINUOUS
 62
     5
 10
434.627
 20
394.673
 30
0.0
  0
VERTEX
  5
4B5
  8
0
  6
CONTINUOUS
 62
     5
 10
434.637
 20
394.681
 30
0.0
  0
VERTEX
  5
4B6
  8
0
  6
CONTINUOUS
 62
     5
 10
434.647
 20
394.689
 30
0.0
  0
VERTEX
  5
4B7
  8
0
  6
CONTINUOUS
 62
     5
 10
434.657
 20
394.698
 30
0.0
  0
VERTEX
  5
4B8
  8
0
  6
CONTINUOUS
 62
     5
 10
434.666
 20
394.707
 30
0.0
  0
VERTEX
  5
4B9
  8
0
  6
CONTINUOUS
 62
     5
 10
434.675
 20
394.717
 30
0.0
  0
VERTEX
  5
4BA
  8
0
  6
CONTINUOUS
 62
     5
 10
434.683
 20
394.727
 30
0.0
  0
VERTEX
  5
4BB
  8
0
  6
CONTINUOUS
 62
     5
 10
434.691
 20
394.737
 30
0.0
  0
VERTEX
  5
4BC
  8
0
  6
CONTINUOUS
 62
     5
 10
434.699
 20
394.748
 30
0.0
  0
VERTEX
  5
4BD
  8
0
  6
CONTINUOUS
 62
     5
 10
434.706
 20
394.759
 30
0.0
  0
VERTEX
  5
4BE
  8
0
  6
CONTINUOUS
 62
     5
 10
434.713
 20
394.771
 30
0.0
  0
VERTEX
  5
4BF
  8
0
  6
CONTINUOUS
 62
     5
 10
434.719
 20
394.782
 30
0.0
  0
VERTEX
  5
4C0
  8
0
  6
CONTINUOUS
 62
     5
 10
434.725
 20
394.794
 30
0.0
  0
VERTEX
  5
4C1
  8
0
  6
CONTINUOUS
 62
     5
 10
434.73
 20
394.806
 30
0.0
  0
VERTEX
  5
4C2
  8
0
  6
CONTINUOUS
 62
     5
 10
434.735
 20
394.819
 30
0.0
  0
VERTEX
  5
4C3
  8
0
  6
CONTINUOUS
 62
     5
 10
434.739
 20
394.831
 30
0.0
  0
VERTEX
  5
4C4
  8
0
  6
CONTINUOUS
 62
     5
 10
434.743
 20
394.844
 30
0.0
  0
VERTEX
  5
4C5
  8
0
  6
CONTINUOUS
 62
     5
 10
434.746
 20
394.857
 30
0.0
  0
VERTEX
  5
4C6
  8
0
  6
CONTINUOUS
 62
     5
 10
434.748
 20
394.869
 30
0.0
  0
VERTEX
  5
4C7
  8
0
  6
CONTINUOUS
 62
     5
 10
434.751
 20
394.882
 30
0.0
  0
VERTEX
  5
4C8
  8
0
  6
CONTINUOUS
 62
     5
 10
434.752
 20
394.895
 30
0.0
  0
VERTEX
  5
4C9
  8
0
  6
CONTINUOUS
 62
     5
 10
434.754
 20
394.908
 30
0.0
  0
SEQEND
  5
4CA
  8
0
  6
CONTINUOUS
 62
     5
  0
LINE
  5
AD
  8
0
  6
CONTINUOUS
 62
     5
 10
434.754
 20
394.908
 30
0.0
 11
434.754
 21
396.511
 31
0.0
  0
LINE
  5
AE
  8
0
  6
CONTINUOUS
 62
     5
 10
434.754
 20
396.511
 30
0.0
 11
435.297
 21
396.511
 31
0.0
  0
ARC
  5
AF
  8
0
  6
CONTINUOUS
 62
     5
 10
435.273
 20
396.749
 30
0.0
 40
0.2400338493353857
 50
275.84
 51
95.84
  0
LINE
  5
B0
  8
0
  6
CONTINUOUS
 62
     5
 10
435.248
 20
396.988
 30
0.0
 11
434.754
 21
396.988
 31
0.0
  0
POLYLINE
  5
B1
  8
0
  6
CONTINUOUS
 62
     5
 66
     1
 10
0.0
 20
0.0
 30
0.0
  0
VERTEX
  5
4CB
  8
0
  6
CONTINUOUS
 62
     5
 10
444.77
 20
396.42
 30
0.0
  0
VERTEX
  5
4CC
  8
0
  6
CONTINUOUS
 62
     5
 10
444.753
 20
396.435
 30
0.0
  0
VERTEX
  5
4CD
  8
0
  6
CONTINUOUS
 62
     5
 10
444.734
 20
396.449
 30
0.0
  0
VERTEX
  5
4CE
  8
0
  6
CONTINUOUS
 62
     5
 10
444.715
 20
396.462
 30
0.0
  0
VERTEX
  5
4CF
  8
0
  6
CONTINUOUS
 62
     5
 10
444.696
 20
396.474
 30
0.0
  0
VERTEX
  5
4D0
  8
0
  6
CONTINUOUS
 62
     5
 10
444.675
 20
396.485
 30
0.0
  0
VERTEX
  5
4D1
  8
0
  6
CONTINUOUS
 62
     5
 10
444.655
 20
396.494
 30
0.0
  0
VERTEX
  5
4D2
  8
0
  6
CONTINUOUS
 62
     5
 10
444.633
 20
396.502
 30
0.0
  0
VERTEX
  5
4D3
  8
0
  6
CONTINUOUS
 62
     5
 10
444.611
 20
396.509
 30
0.0
  0
VERTEX
  5
4D4
  8
0
  6
CONTINUOUS
 62
     5
 10
444.589
 20
396.516
 30
0.0
  0
VERTEX
  5
4D5
  8
0
  6
CONTINUOUS
 62
     5
 10
444.567
 20
396.522
 30
0.0
  0
VERTEX
  5
4D6
  8
0
  6
CONTINUOUS
 62
     5
 10
444.544
 20
396.527
 30
0.0
  0
VERTEX
  5
4D7
  8
0
  6
CONTINUOUS
 62
     5
 10
444.521
 20
396.531
 30
0.0
  0
VERTEX
  5
4D8
  8
0
  6
CONTINUOUS
 62
     5
 10
444.498
 20
396.536
 30
0.0
  0
VERTEX
  5
4D9
  8
0
  6
CONTINUOUS
 62
     5
 10
444.475
 20
396.54
 30
0.0
  0
VERTEX
  5
4DA
  8
0
  6
CONTINUOUS
 62
     5
 10
444.452
 20
396.544
 30
0.0
  0
VERTEX
  5
4DB
  8
0
  6
CONTINUOUS
 62
     5
 10
444.43
 20
396.548
 30
0.0
  0
VERTEX
  5
4DC
  8
0
  6
CONTINUOUS
 62
     5
 10
444.407
 20
396.552
 30
0.0
  0
VERTEX
  5
4DD
  8
0
  6
CONTINUOUS
 62
     5
 10
444.384
 20
396.556
 30
0.0
  0
VERTEX
  5
4DE
  8
0
  6
CONTINUOUS
 62
     5
 10
444.361
 20
396.56
 30
0.0
  0
VERTEX
  5
4DF
  8
0
  6
CONTINUOUS
 62
     5
 10
444.339
 20
396.563
 30
0.0
  0
VERTEX
  5
4E0
  8
0
  6
CONTINUOUS
 62
     5
 10
444.316
 20
396.566
 30
0.0
  0
VERTEX
  5
4E1
  8
0
  6
CONTINUOUS
 62
     5
 10
444.293
 20
396.569
 30
0.0
  0
VERTEX
  5
4E2
  8
0
  6
CONTINUOUS
 62
     5
 10
444.27
 20
396.572
 30
0.0
  0
VERTEX
  5
4E3
  8
0
  6
CONTINUOUS
 62
     5
 10
444.248
 20
396.574
 30
0.0
  0
VERTEX
  5
4E4
  8
0
  6
CONTINUOUS
 62
     5
 10
444.225
 20
396.576
 30
0.0
  0
VERTEX
  5
4E5
  8
0
  6
CONTINUOUS
 62
     5
 10
444.202
 20
396.578
 30
0.0
  0
VERTEX
  5
4E6
  8
0
  6
CONTINUOUS
 62
     5
 10
444.179
 20
396.579
 30
0.0
  0
VERTEX
  5
4E7
  8
0
  6
CONTINUOUS
 62
     5
 10
444.156
 20
396.58
 30
0.0
  0
VERTEX
  5
4E8
  8
0
  6
CONTINUOUS
 62
     5
 10
444.133
 20
396.58
 30
0.0
  0
VERTEX
  5
4E9
  8
0
  6
CONTINUOUS
 62
     5
 10
444.11
 20
396.58
 30
0.0
  0
VERTEX
  5
4EA
  8
0
  6
CONTINUOUS
 62
     5
 10
444.087
 20
396.58
 30
0.0
  0
VERTEX
  5
4EB
  8
0
  6
CONTINUOUS
 62
     5
 10
444.064
 20
396.58
 30
0.0
  0
VERTEX
  5
4EC
  8
0
  6
CONTINUOUS
 62
     5
 10
444.041
 20
396.58
 30
0.0
  0
VERTEX
  5
4ED
  8
0
  6
CONTINUOUS
 62
     5
 10
444.018
 20
396.579
 30
0.0
  0
VERTEX
  5
4EE
  8
0
  6
CONTINUOUS
 62
     5
 10
443.995
 20
396.578
 30
0.0
  0
VERTEX
  5
4EF
  8
0
  6
CONTINUOUS
 62
     5
 10
443.972
 20
396.577
 30
0.0
  0
VERTEX
  5
4F0
  8
0
  6
CONTINUOUS
 62
     5
 10
443.949
 20
396.575
 30
0.0
  0
VERTEX
  5
4F1
  8
0
  6
CONTINUOUS
 62
     5
 10
443.926
 20
396.574
 30
0.0
  0
VERTEX
  5
4F2
  8
0
  6
CONTINUOUS
 62
     5
 10
443.903
 20
396.572
 30
0.0
  0
VERTEX
  5
4F3
  8
0
  6
CONTINUOUS
 62
     5
 10
443.88
 20
396.57
 30
0.0
  0
VERTEX
  5
4F4
  8
0
  6
CONTINUOUS
 62
     5
 10
443.857
 20
396.568
 30
0.0
  0
VERTEX
  5
4F5
  8
0
  6
CONTINUOUS
 62
     5
 10
443.834
 20
396.565
 30
0.0
  0
VERTEX
  5
4F6
  8
0
  6
CONTINUOUS
 62
     5
 10
443.811
 20
396.562
 30
0.0
  0
VERTEX
  5
4F7
  8
0
  6
CONTINUOUS
 62
     5
 10
443.789
 20
396.558
 30
0.0
  0
VERTEX
  5
4F8
  8
0
  6
CONTINUOUS
 62
     5
 10
443.766
 20
396.554
 30
0.0
  0
VERTEX
  5
4F9
  8
0
  6
CONTINUOUS
 62
     5
 10
443.744
 20
396.549
 30
0.0
  0
VERTEX
  5
4FA
  8
0
  6
CONTINUOUS
 62
     5
 10
443.721
 20
396.544
 30
0.0
  0
VERTEX
  5
4FB
  8
0
  6
CONTINUOUS
 62
     5
 10
443.699
 20
396.538
 30
0.0
  0
VERTEX
  5
4FC
  8
0
  6
CONTINUOUS
 62
     5
 10
443.677
 20
396.532
 30
0.0
  0
VERTEX
  5
4FD
  8
0
  6
CONTINUOUS
 62
     5
 10
443.655
 20
396.525
 30
0.0
  0
VERTEX
  5
4FE
  8
0
  6
CONTINUOUS
 62
     5
 10
443.633
 20
396.518
 30
0.0
  0
VERTEX
  5
4FF
  8
0
  6
CONTINUOUS
 62
     5
 10
443.611
 20
396.51
 30
0.0
  0
VERTEX
  5
500
  8
0
  6
CONTINUOUS
 62
     5
 10
443.589
 20
396.502
 30
0.0
  0
VERTEX
  5
501
  8
0
  6
CONTINUOUS
 62
     5
 10
443.568
 20
396.493
 30
0.0
  0
VERTEX
  5
502
  8
0
  6
CONTINUOUS
 62
     5
 10
443.547
 20
396.484
 30
0.0
  0
VERTEX
  5
503
  8
0
  6
CONTINUOUS
 62
     5
 10
443.526
 20
396.474
 30
0.0
  0
VERTEX
  5
504
  8
0
  6
CONTINUOUS
 62
     5
 10
443.505
 20
396.464
 30
0.0
  0
VERTEX
  5
505
  8
0
  6
CONTINUOUS
 62
     5
 10
443.485
 20
396.454
 30
0.0
  0
VERTEX
  5
506
  8
0
  6
CONTINUOUS
 62
     5
 10
443.465
 20
396.443
 30
0.0
  0
VERTEX
  5
507
  8
0
  6
CONTINUOUS
 62
     5
 10
443.445
 20
396.431
 30
0.0
  0
VERTEX
  5
508
  8
0
  6
CONTINUOUS
 62
     5
 10
443.425
 20
396.419
 30
0.0
  0
VERTEX
  5
509
  8
0
  6
CONTINUOUS
 62
     5
 10
443.406
 20
396.406
 30
0.0
  0
VERTEX
  5
50A
  8
0
  6
CONTINUOUS
 62
     5
 10
443.387
 20
396.393
 30
0.0
  0
VERTEX
  5
50B
  8
0
  6
CONTINUOUS
 62
     5
 10
443.368
 20
396.379
 30
0.0
  0
VERTEX
  5
50C
  8
0
  6
CONTINUOUS
 62
     5
 10
443.35
 20
396.365
 30
0.0
  0
VERTEX
  5
50D
  8
0
  6
CONTINUOUS
 62
     5
 10
443.332
 20
396.351
 30
0.0
  0
VERTEX
  5
50E
  8
0
  6
CONTINUOUS
 62
     5
 10
443.315
 20
396.336
 30
0.0
  0
VERTEX
  5
50F
  8
0
  6
CONTINUOUS
 62
     5
 10
443.298
 20
396.321
 30
0.0
  0
VERTEX
  5
510
  8
0
  6
CONTINUOUS
 62
     5
 10
443.281
 20
396.305
 30
0.0
  0
VERTEX
  5
511
  8
0
  6
CONTINUOUS
 62
     5
 10
443.264
 20
396.289
 30
0.0
  0
VERTEX
  5
512
  8
0
  6
CONTINUOUS
 62
     5
 10
443.248
 20
396.273
 30
0.0
  0
VERTEX
  5
513
  8
0
  6
CONTINUOUS
 62
     5
 10
443.232
 20
396.256
 30
0.0
  0
VERTEX
  5
514
  8
0
  6
CONTINUOUS
 62
     5
 10
443.216
 20
396.239
 30
0.0
  0
VERTEX
  5
515
  8
0
  6
CONTINUOUS
 62
     5
 10
443.201
 20
396.222
 30
0.0
  0
VERTEX
  5
516
  8
0
  6
CONTINUOUS
 62
     5
 10
443.186
 20
396.204
 30
0.0
  0
VERTEX
  5
517
  8
0
  6
CONTINUOUS
 62
     5
 10
443.171
 20
396.186
 30
0.0
  0
VERTEX
  5
518
  8
0
  6
CONTINUOUS
 62
     5
 10
443.157
 20
396.168
 30
0.0
  0
VERTEX
  5
519
  8
0
  6
CONTINUOUS
 62
     5
 10
443.143
 20
396.15
 30
0.0
  0
VERTEX
  5
51A
  8
0
  6
CONTINUOUS
 62
     5
 10
443.13
 20
396.131
 30
0.0
  0
VERTEX
  5
51B
  8
0
  6
CONTINUOUS
 62
     5
 10
443.117
 20
396.112
 30
0.0
  0
VERTEX
  5
51C
  8
0
  6
CONTINUOUS
 62
     5
 10
443.105
 20
396.092
 30
0.0
  0
VERTEX
  5
51D
  8
0
  6
CONTINUOUS
 62
     5
 10
443.093
 20
396.073
 30
0.0
  0
VERTEX
  5
51E
  8
0
  6
CONTINUOUS
 62
     5
 10
443.081
 20
396.053
 30
0.0
  0
VERTEX
  5
51F
  8
0
  6
CONTINUOUS
 62
     5
 10
443.07
 20
396.033
 30
0.0
  0
VERTEX
  5
520
  8
0
  6
CONTINUOUS
 62
     5
 10
443.06
 20
396.012
 30
0.0
  0
VERTEX
  5
521
  8
0
  6
CONTINUOUS
 62
     5
 10
443.05
 20
395.991
 30
0.0
  0
VERTEX
  5
522
  8
0
  6
CONTINUOUS
 62
     5
 10
443.04
 20
395.97
 30
0.0
  0
VERTEX
  5
523
  8
0
  6
CONTINUOUS
 62
     5
 10
443.031
 20
395.949
 30
0.0
  0
VERTEX
  5
524
  8
0
  6
CONTINUOUS
 62
     5
 10
443.023
 20
395.928
 30
0.0
  0
VERTEX
  5
525
  8
0
  6
CONTINUOUS
 62
     5
 10
443.015
 20
395.906
 30
0.0
  0
VERTEX
  5
526
  8
0
  6
CONTINUOUS
 62
     5
 10
443.008
 20
395.884
 30
0.0
  0
VERTEX
  5
527
  8
0
  6
CONTINUOUS
 62
     5
 10
443.001
 20
395.862
 30
0.0
  0
VERTEX
  5
528
  8
0
  6
CONTINUOUS
 62
     5
 10
442.994
 20
395.84
 30
0.0
  0
VERTEX
  5
529
  8
0
  6
CONTINUOUS
 62
     5
 10
442.988
 20
395.818
 30
0.0
  0
VERTEX
  5
52A
  8
0
  6
CONTINUOUS
 62
     5
 10
442.983
 20
395.795
 30
0.0
  0
VERTEX
  5
52B
  8
0
  6
CONTINUOUS
 62
     5
 10
442.978
 20
395.773
 30
0.0
  0
VERTEX
  5
52C
  8
0
  6
CONTINUOUS
 62
     5
 10
442.974
 20
395.75
 30
0.0
  0
VERTEX
  5
52D
  8
0
  6
CONTINUOUS
 62
     5
 10
442.97
 20
395.727
 30
0.0
  0
VERTEX
  5
52E
  8
0
  6
CONTINUOUS
 62
     5
 10
442.967
 20
395.705
 30
0.0
  0
VERTEX
  5
52F
  8
0
  6
CONTINUOUS
 62
     5
 10
442.964
 20
395.682
 30
0.0
  0
VERTEX
  5
530
  8
0
  6
CONTINUOUS
 62
     5
 10
442.962
 20
395.659
 30
0.0
  0
VERTEX
  5
531
  8
0
  6
CONTINUOUS
 62
     5
 10
442.96
 20
395.636
 30
0.0
  0
VERTEX
  5
532
  8
0
  6
CONTINUOUS
 62
     5
 10
442.959
 20
395.613
 30
0.0
  0
VERTEX
  5
533
  8
0
  6
CONTINUOUS
 62
     5
 10
442.959
 20
395.59
 30
0.0
  0
VERTEX
  5
534
  8
0
  6
CONTINUOUS
 62
     5
 10
442.959
 20
395.567
 30
0.0
  0
VERTEX
  5
535
  8
0
  6
CONTINUOUS
 62
     5
 10
442.96
 20
395.544
 30
0.0
  0
VERTEX
  5
536
  8
0
  6
CONTINUOUS
 62
     5
 10
442.962
 20
395.521
 30
0.0
  0
VERTEX
  5
537
  8
0
  6
CONTINUOUS
 62
     5
 10
442.964
 20
395.498
 30
0.0
  0
VERTEX
  5
538
  8
0
  6
CONTINUOUS
 62
     5
 10
442.967
 20
395.475
 30
0.0
  0
VERTEX
  5
539
  8
0
  6
CONTINUOUS
 62
     5
 10
442.97
 20
395.452
 30
0.0
  0
VERTEX
  5
53A
  8
0
  6
CONTINUOUS
 62
     5
 10
442.974
 20
395.429
 30
0.0
  0
VERTEX
  5
53B
  8
0
  6
CONTINUOUS
 62
     5
 10
442.978
 20
395.407
 30
0.0
  0
VERTEX
  5
53C
  8
0
  6
CONTINUOUS
 62
     5
 10
442.982
 20
395.384
 30
0.0
  0
VERTEX
  5
53D
  8
0
  6
CONTINUOUS
 62
     5
 10
442.988
 20
395.362
 30
0.0
  0
VERTEX
  5
53E
  8
0
  6
CONTINUOUS
 62
     5
 10
442.993
 20
395.339
 30
0.0
  0
VERTEX
  5
53F
  8
0
  6
CONTINUOUS
 62
     5
 10
442.999
 20
395.317
 30
0.0
  0
VERTEX
  5
540
  8
0
  6
CONTINUOUS
 62
     5
 10
443.006
 20
395.295
 30
0.0
  0
VERTEX
  5
541
  8
0
  6
CONTINUOUS
 62
     5
 10
443.013
 20
395.273
 30
0.0
  0
VERTEX
  5
542
  8
0
  6
CONTINUOUS
 62
     5
 10
443.02
 20
395.251
 30
0.0
  0
VERTEX
  5
543
  8
0
  6
CONTINUOUS
 62
     5
 10
443.028
 20
395.23
 30
0.0
  0
VERTEX
  5
544
  8
0
  6
CONTINUOUS
 62
     5
 10
443.037
 20
395.208
 30
0.0
  0
VERTEX
  5
545
  8
0
  6
CONTINUOUS
 62
     5
 10
443.046
 20
395.187
 30
0.0
  0
VERTEX
  5
546
  8
0
  6
CONTINUOUS
 62
     5
 10
443.055
 20
395.166
 30
0.0
  0
VERTEX
  5
547
  8
0
  6
CONTINUOUS
 62
     5
 10
443.065
 20
395.145
 30
0.0
  0
VERTEX
  5
548
  8
0
  6
CONTINUOUS
 62
     5
 10
443.076
 20
395.125
 30
0.0
  0
VERTEX
  5
549
  8
0
  6
CONTINUOUS
 62
     5
 10
443.087
 20
395.105
 30
0.0
  0
VERTEX
  5
54A
  8
0
  6
CONTINUOUS
 62
     5
 10
443.099
 20
395.085
 30
0.0
  0
VERTEX
  5
54B
  8
0
  6
CONTINUOUS
 62
     5
 10
443.111
 20
395.065
 30
0.0
  0
VERTEX
  5
54C
  8
0
  6
CONTINUOUS
 62
     5
 10
443.123
 20
395.046
 30
0.0
  0
VERTEX
  5
54D
  8
0
  6
CONTINUOUS
 62
     5
 10
443.137
 20
395.027
 30
0.0
  0
VERTEX
  5
54E
  8
0
  6
CONTINUOUS
 62
     5
 10
443.15
 20
395.008
 30
0.0
  0
VERTEX
  5
54F
  8
0
  6
CONTINUOUS
 62
     5
 10
443.164
 20
394.99
 30
0.0
  0
VERTEX
  5
550
  8
0
  6
CONTINUOUS
 62
     5
 10
443.179
 20
394.972
 30
0.0
  0
VERTEX
  5
551
  8
0
  6
CONTINUOUS
 62
     5
 10
443.194
 20
394.955
 30
0.0
  0
VERTEX
  5
552
  8
0
  6
CONTINUOUS
 62
     5
 10
443.21
 20
394.938
 30
0.0
  0
VERTEX
  5
553
  8
0
  6
CONTINUOUS
 62
     5
 10
443.226
 20
394.921
 30
0.0
  0
VERTEX
  5
554
  8
0
  6
CONTINUOUS
 62
     5
 10
443.242
 20
394.905
 30
0.0
  0
VERTEX
  5
555
  8
0
  6
CONTINUOUS
 62
     5
 10
443.259
 20
394.889
 30
0.0
  0
VERTEX
  5
556
  8
0
  6
CONTINUOUS
 62
     5
 10
443.276
 20
394.874
 30
0.0
  0
VERTEX
  5
557
  8
0
  6
CONTINUOUS
 62
     5
 10
443.294
 20
394.859
 30
0.0
  0
VERTEX
  5
558
  8
0
  6
CONTINUOUS
 62
     5
 10
443.312
 20
394.845
 30
0.0
  0
VERTEX
  5
559
  8
0
  6
CONTINUOUS
 62
     5
 10
443.33
 20
394.831
 30
0.0
  0
VERTEX
  5
55A
  8
0
  6
CONTINUOUS
 62
     5
 10
443.349
 20
394.817
 30
0.0
  0
VERTEX
  5
55B
  8
0
  6
CONTINUOUS
 62
     5
 10
443.368
 20
394.804
 30
0.0
  0
VERTEX
  5
55C
  8
0
  6
CONTINUOUS
 62
     5
 10
443.387
 20
394.791
 30
0.0
  0
VERTEX
  5
55D
  8
0
  6
CONTINUOUS
 62
     5
 10
443.406
 20
394.779
 30
0.0
  0
VERTEX
  5
55E
  8
0
  6
CONTINUOUS
 62
     5
 10
443.426
 20
394.767
 30
0.0
  0
VERTEX
  5
55F
  8
0
  6
CONTINUOUS
 62
     5
 10
443.446
 20
394.755
 30
0.0
  0
VERTEX
  5
560
  8
0
  6
CONTINUOUS
 62
     5
 10
443.466
 20
394.744
 30
0.0
  0
VERTEX
  5
561
  8
0
  6
CONTINUOUS
 62
     5
 10
443.486
 20
394.733
 30
0.0
  0
VERTEX
  5
562
  8
0
  6
CONTINUOUS
 62
     5
 10
443.507
 20
394.723
 30
0.0
  0
VERTEX
  5
563
  8
0
  6
CONTINUOUS
 62
     5
 10
443.527
 20
394.713
 30
0.0
  0
VERTEX
  5
564
  8
0
  6
CONTINUOUS
 62
     5
 10
443.548
 20
394.703
 30
0.0
  0
VERTEX
  5
565
  8
0
  6
CONTINUOUS
 62
     5
 10
443.57
 20
394.694
 30
0.0
  0
VERTEX
  5
566
  8
0
  6
CONTINUOUS
 62
     5
 10
443.591
 20
394.686
 30
0.0
  0
VERTEX
  5
567
  8
0
  6
CONTINUOUS
 62
     5
 10
443.613
 20
394.678
 30
0.0
  0
VERTEX
  5
568
  8
0
  6
CONTINUOUS
 62
     5
 10
443.635
 20
394.671
 30
0.0
  0
VERTEX
  5
569
  8
0
  6
CONTINUOUS
 62
     5
 10
443.657
 20
394.665
 30
0.0
  0
VERTEX
  5
56A
  8
0
  6
CONTINUOUS
 62
     5
 10
443.679
 20
394.658
 30
0.0
  0
VERTEX
  5
56B
  8
0
  6
CONTINUOUS
 62
     5
 10
443.701
 20
394.653
 30
0.0
  0
VERTEX
  5
56C
  8
0
  6
CONTINUOUS
 62
     5
 10
443.724
 20
394.648
 30
0.0
  0
VERTEX
  5
56D
  8
0
  6
CONTINUOUS
 62
     5
 10
443.746
 20
394.643
 30
0.0
  0
VERTEX
  5
56E
  8
0
  6
CONTINUOUS
 62
     5
 10
443.769
 20
394.639
 30
0.0
  0
VERTEX
  5
56F
  8
0
  6
CONTINUOUS
 62
     5
 10
443.792
 20
394.636
 30
0.0
  0
VERTEX
  5
570
  8
0
  6
CONTINUOUS
 62
     5
 10
443.815
 20
394.633
 30
0.0
  0
VERTEX
  5
571
  8
0
  6
CONTINUOUS
 62
     5
 10
443.837
 20
394.63
 30
0.0
  0
VERTEX
  5
572
  8
0
  6
CONTINUOUS
 62
     5
 10
443.86
 20
394.628
 30
0.0
  0
VERTEX
  5
573
  8
0
  6
CONTINUOUS
 62
     5
 10
443.883
 20
394.626
 30
0.0
  0
VERTEX
  5
574
  8
0
  6
CONTINUOUS
 62
     5
 10
443.906
 20
394.624
 30
0.0
  0
VERTEX
  5
575
  8
0
  6
CONTINUOUS
 62
     5
 10
443.929
 20
394.623
 30
0.0
  0
VERTEX
  5
576
  8
0
  6
CONTINUOUS
 62
     5
 10
443.952
 20
394.622
 30
0.0
  0
VERTEX
  5
577
  8
0
  6
CONTINUOUS
 62
     5
 10
443.975
 20
394.621
 30
0.0
  0
VERTEX
  5
578
  8
0
  6
CONTINUOUS
 62
     5
 10
443.998
 20
394.621
 30
0.0
  0
VERTEX
  5
579
  8
0
  6
CONTINUOUS
 62
     5
 10
444.021
 20
394.62
 30
0.0
  0
VERTEX
  5
57A
  8
0
  6
CONTINUOUS
 62
     5
 10
444.044
 20
394.62
 30
0.0
  0
VERTEX
  5
57B
  8
0
  6
CONTINUOUS
 62
     5
 10
444.067
 20
394.62
 30
0.0
  0
VERTEX
  5
57C
  8
0
  6
CONTINUOUS
 62
     5
 10
444.09
 20
394.62
 30
0.0
  0
VERTEX
  5
57D
  8
0
  6
CONTINUOUS
 62
     5
 10
444.113
 20
394.621
 30
0.0
  0
VERTEX
  5
57E
  8
0
  6
CONTINUOUS
 62
     5
 10
444.136
 20
394.621
 30
0.0
  0
VERTEX
  5
57F
  8
0
  6
CONTINUOUS
 62
     5
 10
444.159
 20
394.622
 30
0.0
  0
VERTEX
  5
580
  8
0
  6
CONTINUOUS
 62
     5
 10
444.182
 20
394.622
 30
0.0
  0
VERTEX
  5
581
  8
0
  6
CONTINUOUS
 62
     5
 10
444.205
 20
394.623
 30
0.0
  0
VERTEX
  5
582
  8
0
  6
CONTINUOUS
 62
     5
 10
444.228
 20
394.624
 30
0.0
  0
VERTEX
  5
583
  8
0
  6
CONTINUOUS
 62
     5
 10
444.252
 20
394.625
 30
0.0
  0
VERTEX
  5
584
  8
0
  6
CONTINUOUS
 62
     5
 10
444.275
 20
394.627
 30
0.0
  0
VERTEX
  5
585
  8
0
  6
CONTINUOUS
 62
     5
 10
444.298
 20
394.629
 30
0.0
  0
VERTEX
  5
586
  8
0
  6
CONTINUOUS
 62
     5
 10
444.32
 20
394.63
 30
0.0
  0
VERTEX
  5
587
  8
0
  6
CONTINUOUS
 62
     5
 10
444.343
 20
394.633
 30
0.0
  0
VERTEX
  5
588
  8
0
  6
CONTINUOUS
 62
     5
 10
444.366
 20
394.636
 30
0.0
  0
VERTEX
  5
589
  8
0
  6
CONTINUOUS
 62
     5
 10
444.389
 20
394.639
 30
0.0
  0
VERTEX
  5
58A
  8
0
  6
CONTINUOUS
 62
     5
 10
444.412
 20
394.642
 30
0.0
  0
VERTEX
  5
58B
  8
0
  6
CONTINUOUS
 62
     5
 10
444.434
 20
394.646
 30
0.0
  0
VERTEX
  5
58C
  8
0
  6
CONTINUOUS
 62
     5
 10
444.457
 20
394.651
 30
0.0
  0
VERTEX
  5
58D
  8
0
  6
CONTINUOUS
 62
     5
 10
444.479
 20
394.656
 30
0.0
  0
VERTEX
  5
58E
  8
0
  6
CONTINUOUS
 62
     5
 10
444.502
 20
394.662
 30
0.0
  0
VERTEX
  5
58F
  8
0
  6
CONTINUOUS
 62
     5
 10
444.524
 20
394.669
 30
0.0
  0
VERTEX
  5
590
  8
0
  6
CONTINUOUS
 62
     5
 10
444.546
 20
394.676
 30
0.0
  0
VERTEX
  5
591
  8
0
  6
CONTINUOUS
 62
     5
 10
444.567
 20
394.684
 30
0.0
  0
VERTEX
  5
592
  8
0
  6
CONTINUOUS
 62
     5
 10
444.589
 20
394.692
 30
0.0
  0
VERTEX
  5
593
  8
0
  6
CONTINUOUS
 62
     5
 10
444.61
 20
394.701
 30
0.0
  0
VERTEX
  5
594
  8
0
  6
CONTINUOUS
 62
     5
 10
444.631
 20
394.71
 30
0.0
  0
VERTEX
  5
595
  8
0
  6
CONTINUOUS
 62
     5
 10
444.652
 20
394.72
 30
0.0
  0
VERTEX
  5
596
  8
0
  6
CONTINUOUS
 62
     5
 10
444.673
 20
394.731
 30
0.0
  0
VERTEX
  5
597
  8
0
  6
CONTINUOUS
 62
     5
 10
444.693
 20
394.742
 30
0.0
  0
VERTEX
  5
598
  8
0
  6
CONTINUOUS
 62
     5
 10
444.713
 20
394.753
 30
0.0
  0
VERTEX
  5
599
  8
0
  6
CONTINUOUS
 62
     5
 10
444.732
 20
394.766
 30
0.0
  0
VERTEX
  5
59A
  8
0
  6
CONTINUOUS
 62
     5
 10
444.751
 20
394.778
 30
0.0
  0
VERTEX
  5
59B
  8
0
  6
CONTINUOUS
 62
     5
 10
444.77
 20
394.792
 30
0.0
  0
SEQEND
  5
59C
  8
0
  6
CONTINUOUS
 62
     5
  0
LINE
  5
B2
  8
0
  6
CONTINUOUS
 62
     5
 10
444.77
 20
394.792
 30
0.0
 11
444.77
 21
394.645
 31
0.0
  0
LINE
  5
B3
  8
0
  6
CONTINUOUS
 62
     5
 10
444.77
 20
394.645
 30
0.0
 11
445.632
 21
394.645
 31
0.0
  0
LINE
  5
B4
  8
0
  6
CONTINUOUS
 62
     5
 10
445.632
 20
394.645
 30
0.0
 11
445.632
 21
397.142
 31
0.0
  0
LINE
  5
B5
  8
0
  6
CONTINUOUS
 62
     5
 10
445.632
 20
397.142
 30
0.0
 11
444.77
 21
397.142
 31
0.0
  0
LINE
  5
B6
  8
0
  6
CONTINUOUS
 62
     5
 10
444.77
 20
397.142
 30
0.0
 11
444.77
 21
396.42
 31
0.0
  0
LINE
  5
B7
  8
0
  6
CONTINUOUS
 62
     5
 10
444.77
 20
395.671
 30
0.0
 11
444.77
 21
395.6
 31
0.0
  0
POLYLINE
  5
B8
  8
0
  6
CONTINUOUS
 62
     5
 66
     1
 10
0.0
 20
0.0
 30
0.0
  0
VERTEX
  5
59D
  8
0
  6
CONTINUOUS
 62
     5
 10
444.77
 20
395.6
 30
0.0
  0
VERTEX
  5
59E
  8
0
  6
CONTINUOUS
 62
     5
 10
444.768
 20
395.582
 30
0.0
  0
VERTEX
  5
59F
  8
0
  6
CONTINUOUS
 62
     5
 10
444.765
 20
395.564
 30
0.0
  0
VERTEX
  5
5A0
  8
0
  6
CONTINUOUS
 62
     5
 10
444.761
 20
395.546
 30
0.0
  0
VERTEX
  5
5A1
  8
0
  6
CONTINUOUS
 62
     5
 10
444.756
 20
395.529
 30
0.0
  0
VERTEX
  5
5A2
  8
0
  6
CONTINUOUS
 62
     5
 10
444.75
 20
395.512
 30
0.0
  0
VERTEX
  5
5A3
  8
0
  6
CONTINUOUS
 62
     5
 10
444.743
 20
395.495
 30
0.0
  0
VERTEX
  5
5A4
  8
0
  6
CONTINUOUS
 62
     5
 10
444.735
 20
395.479
 30
0.0
  0
VERTEX
  5
5A5
  8
0
  6
CONTINUOUS
 62
     5
 10
444.726
 20
395.463
 30
0.0
  0
VERTEX
  5
5A6
  8
0
  6
CONTINUOUS
 62
     5
 10
444.717
 20
395.448
 30
0.0
  0
VERTEX
  5
5A7
  8
0
  6
CONTINUOUS
 62
     5
 10
444.706
 20
395.433
 30
0.0
  0
VERTEX
  5
5A8
  8
0
  6
CONTINUOUS
 62
     5
 10
444.695
 20
395.419
 30
0.0
  0
VERTEX
  5
5A9
  8
0
  6
CONTINUOUS
 62
     5
 10
444.683
 20
395.406
 30
0.0
  0
VERTEX
  5
5AA
  8
0
  6
CONTINUOUS
 62
     5
 10
444.67
 20
395.393
 30
0.0
  0
VERTEX
  5
5AB
  8
0
  6
CONTINUOUS
 62
     5
 10
444.657
 20
395.38
 30
0.0
  0
VERTEX
  5
5AC
  8
0
  6
CONTINUOUS
 62
     5
 10
444.643
 20
395.369
 30
0.0
  0
VERTEX
  5
5AD
  8
0
  6
CONTINUOUS
 62
     5
 10
444.629
 20
395.358
 30
0.0
  0
VERTEX
  5
5AE
  8
0
  6
CONTINUOUS
 62
     5
 10
444.614
 20
395.347
 30
0.0
  0
VERTEX
  5
5AF
  8
0
  6
CONTINUOUS
 62
     5
 10
444.599
 20
395.337
 30
0.0
  0
VERTEX
  5
5B0
  8
0
  6
CONTINUOUS
 62
     5
 10
444.584
 20
395.327
 30
0.0
  0
VERTEX
  5
5B1
  8
0
  6
CONTINUOUS
 62
     5
 10
444.568
 20
395.318
 30
0.0
  0
VERTEX
  5
5B2
  8
0
  6
CONTINUOUS
 62
     5
 10
444.552
 20
395.309
 30
0.0
  0
VERTEX
  5
5B3
  8
0
  6
CONTINUOUS
 62
     5
 10
444.536
 20
395.301
 30
0.0
  0
VERTEX
  5
5B4
  8
0
  6
CONTINUOUS
 62
     5
 10
444.52
 20
395.294
 30
0.0
  0
VERTEX
  5
5B5
  8
0
  6
CONTINUOUS
 62
     5
 10
444.503
 20
395.287
 30
0.0
  0
VERTEX
  5
5B6
  8
0
  6
CONTINUOUS
 62
     5
 10
444.486
 20
395.28
 30
0.0
  0
VERTEX
  5
5B7
  8
0
  6
CONTINUOUS
 62
     5
 10
444.469
 20
395.274
 30
0.0
  0
VERTEX
  5
5B8
  8
0
  6
CONTINUOUS
 62
     5
 10
444.452
 20
395.269
 30
0.0
  0
VERTEX
  5
5B9
  8
0
  6
CONTINUOUS
 62
     5
 10
444.435
 20
395.264
 30
0.0
  0
VERTEX
  5
5BA
  8
0
  6
CONTINUOUS
 62
     5
 10
444.417
 20
395.26
 30
0.0
  0
VERTEX
  5
5BB
  8
0
  6
CONTINUOUS
 62
     5
 10
444.399
 20
395.257
 30
0.0
  0
VERTEX
  5
5BC
  8
0
  6
CONTINUOUS
 62
     5
 10
444.382
 20
395.254
 30
0.0
  0
VERTEX
  5
5BD
  8
0
  6
CONTINUOUS
 62
     5
 10
444.364
 20
395.252
 30
0.0
  0
VERTEX
  5
5BE
  8
0
  6
CONTINUOUS
 62
     5
 10
444.346
 20
395.25
 30
0.0
  0
VERTEX
  5
5BF
  8
0
  6
CONTINUOUS
 62
     5
 10
444.328
 20
395.249
 30
0.0
  0
VERTEX
  5
5C0
  8
0
  6
CONTINUOUS
 62
     5
 10
444.31
 20
395.248
 30
0.0
  0
VERTEX
  5
5C1
  8
0
  6
CONTINUOUS
 62
     5
 10
444.292
 20
395.248
 30
0.0
  0
VERTEX
  5
5C2
  8
0
  6
CONTINUOUS
 62
     5
 10
444.274
 20
395.249
 30
0.0
  0
VERTEX
  5
5C3
  8
0
  6
CONTINUOUS
 62
     5
 10
444.256
 20
395.25
 30
0.0
  0
VERTEX
  5
5C4
  8
0
  6
CONTINUOUS
 62
     5
 10
444.238
 20
395.252
 30
0.0
  0
VERTEX
  5
5C5
  8
0
  6
CONTINUOUS
 62
     5
 10
444.22
 20
395.255
 30
0.0
  0
VERTEX
  5
5C6
  8
0
  6
CONTINUOUS
 62
     5
 10
444.202
 20
395.258
 30
0.0
  0
VERTEX
  5
5C7
  8
0
  6
CONTINUOUS
 62
     5
 10
444.185
 20
395.261
 30
0.0
  0
VERTEX
  5
5C8
  8
0
  6
CONTINUOUS
 62
     5
 10
444.167
 20
395.265
 30
0.0
  0
VERTEX
  5
5C9
  8
0
  6
CONTINUOUS
 62
     5
 10
444.149
 20
395.27
 30
0.0
  0
VERTEX
  5
5CA
  8
0
  6
CONTINUOUS
 62
     5
 10
444.132
 20
395.275
 30
0.0
  0
VERTEX
  5
5CB
  8
0
  6
CONTINUOUS
 62
     5
 10
444.115
 20
395.28
 30
0.0
  0
VERTEX
  5
5CC
  8
0
  6
CONTINUOUS
 62
     5
 10
444.098
 20
395.286
 30
0.0
  0
VERTEX
  5
5CD
  8
0
  6
CONTINUOUS
 62
     5
 10
444.081
 20
395.293
 30
0.0
  0
VERTEX
  5
5CE
  8
0
  6
CONTINUOUS
 62
     5
 10
444.064
 20
395.299
 30
0.0
  0
VERTEX
  5
5CF
  8
0
  6
CONTINUOUS
 62
     5
 10
444.047
 20
395.307
 30
0.0
  0
VERTEX
  5
5D0
  8
0
  6
CONTINUOUS
 62
     5
 10
444.031
 20
395.315
 30
0.0
  0
VERTEX
  5
5D1
  8
0
  6
CONTINUOUS
 62
     5
 10
444.015
 20
395.323
 30
0.0
  0
VERTEX
  5
5D2
  8
0
  6
CONTINUOUS
 62
     5
 10
444.0
 20
395.333
 30
0.0
  0
VERTEX
  5
5D3
  8
0
  6
CONTINUOUS
 62
     5
 10
443.985
 20
395.342
 30
0.0
  0
VERTEX
  5
5D4
  8
0
  6
CONTINUOUS
 62
     5
 10
443.97
 20
395.353
 30
0.0
  0
VERTEX
  5
5D5
  8
0
  6
CONTINUOUS
 62
     5
 10
443.956
 20
395.364
 30
0.0
  0
VERTEX
  5
5D6
  8
0
  6
CONTINUOUS
 62
     5
 10
443.943
 20
395.376
 30
0.0
  0
VERTEX
  5
5D7
  8
0
  6
CONTINUOUS
 62
     5
 10
443.93
 20
395.389
 30
0.0
  0
VERTEX
  5
5D8
  8
0
  6
CONTINUOUS
 62
     5
 10
443.917
 20
395.402
 30
0.0
  0
VERTEX
  5
5D9
  8
0
  6
CONTINUOUS
 62
     5
 10
443.906
 20
395.416
 30
0.0
  0
VERTEX
  5
5DA
  8
0
  6
CONTINUOUS
 62
     5
 10
443.895
 20
395.43
 30
0.0
  0
VERTEX
  5
5DB
  8
0
  6
CONTINUOUS
 62
     5
 10
443.885
 20
395.445
 30
0.0
  0
VERTEX
  5
5DC
  8
0
  6
CONTINUOUS
 62
     5
 10
443.875
 20
395.46
 30
0.0
  0
VERTEX
  5
5DD
  8
0
  6
CONTINUOUS
 62
     5
 10
443.866
 20
395.476
 30
0.0
  0
VERTEX
  5
5DE
  8
0
  6
CONTINUOUS
 62
     5
 10
443.858
 20
395.493
 30
0.0
  0
VERTEX
  5
5DF
  8
0
  6
CONTINUOUS
 62
     5
 10
443.85
 20
395.509
 30
0.0
  0
VERTEX
  5
5E0
  8
0
  6
CONTINUOUS
 62
     5
 10
443.844
 20
395.526
 30
0.0
  0
VERTEX
  5
5E1
  8
0
  6
CONTINUOUS
 62
     5
 10
443.838
 20
395.544
 30
0.0
  0
VERTEX
  5
5E2
  8
0
  6
CONTINUOUS
 62
     5
 10
443.834
 20
395.561
 30
0.0
  0
VERTEX
  5
5E3
  8
0
  6
CONTINUOUS
 62
     5
 10
443.83
 20
395.579
 30
0.0
  0
VERTEX
  5
5E4
  8
0
  6
CONTINUOUS
 62
     5
 10
443.828
 20
395.597
 30
0.0
  0
VERTEX
  5
5E5
  8
0
  6
CONTINUOUS
 62
     5
 10
443.826
 20
395.615
 30
0.0
  0
VERTEX
  5
5E6
  8
0
  6
CONTINUOUS
 62
     5
 10
443.826
 20
395.633
 30
0.0
  0
VERTEX
  5
5E7
  8
0
  6
CONTINUOUS
 62
     5
 10
443.827
 20
395.651
 30
0.0
  0
VERTEX
  5
5E8
  8
0
  6
CONTINUOUS
 62
     5
 10
443.83
 20
395.668
 30
0.0
  0
VERTEX
  5
5E9
  8
0
  6
CONTINUOUS
 62
     5
 10
443.833
 20
395.686
 30
0.0
  0
VERTEX
  5
5EA
  8
0
  6
CONTINUOUS
 62
     5
 10
443.838
 20
395.704
 30
0.0
  0
VERTEX
  5
5EB
  8
0
  6
CONTINUOUS
 62
     5
 10
443.843
 20
395.721
 30
0.0
  0
VERTEX
  5
5EC
  8
0
  6
CONTINUOUS
 62
     5
 10
443.85
 20
395.738
 30
0.0
  0
VERTEX
  5
5ED
  8
0
  6
CONTINUOUS
 62
     5
 10
443.857
 20
395.755
 30
0.0
  0
VERTEX
  5
5EE
  8
0
  6
CONTINUOUS
 62
     5
 10
443.865
 20
395.771
 30
0.0
  0
VERTEX
  5
5EF
  8
0
  6
CONTINUOUS
 62
     5
 10
443.874
 20
395.787
 30
0.0
  0
VERTEX
  5
5F0
  8
0
  6
CONTINUOUS
 62
     5
 10
443.884
 20
395.802
 30
0.0
  0
VERTEX
  5
5F1
  8
0
  6
CONTINUOUS
 62
     5
 10
443.894
 20
395.817
 30
0.0
  0
VERTEX
  5
5F2
  8
0
  6
CONTINUOUS
 62
     5
 10
443.905
 20
395.832
 30
0.0
  0
VERTEX
  5
5F3
  8
0
  6
CONTINUOUS
 62
     5
 10
443.917
 20
395.845
 30
0.0
  0
VERTEX
  5
5F4
  8
0
  6
CONTINUOUS
 62
     5
 10
443.929
 20
395.859
 30
0.0
  0
VERTEX
  5
5F5
  8
0
  6
CONTINUOUS
 62
     5
 10
443.942
 20
395.871
 30
0.0
  0
VERTEX
  5
5F6
  8
0
  6
CONTINUOUS
 62
     5
 10
443.955
 20
395.884
 30
0.0
  0
VERTEX
  5
5F7
  8
0
  6
CONTINUOUS
 62
     5
 10
443.969
 20
395.895
 30
0.0
  0
VERTEX
  5
5F8
  8
0
  6
CONTINUOUS
 62
     5
 10
443.983
 20
395.906
 30
0.0
  0
VERTEX
  5
5F9
  8
0
  6
CONTINUOUS
 62
     5
 10
443.998
 20
395.917
 30
0.0
  0
VERTEX
  5
5FA
  8
0
  6
CONTINUOUS
 62
     5
 10
444.013
 20
395.926
 30
0.0
  0
VERTEX
  5
5FB
  8
0
  6
CONTINUOUS
 62
     5
 10
444.029
 20
395.935
 30
0.0
  0
VERTEX
  5
5FC
  8
0
  6
CONTINUOUS
 62
     5
 10
444.044
 20
395.944
 30
0.0
  0
VERTEX
  5
5FD
  8
0
  6
CONTINUOUS
 62
     5
 10
444.061
 20
395.952
 30
0.0
  0
VERTEX
  5
5FE
  8
0
  6
CONTINUOUS
 62
     5
 10
444.077
 20
395.96
 30
0.0
  0
VERTEX
  5
5FF
  8
0
  6
CONTINUOUS
 62
     5
 10
444.094
 20
395.966
 30
0.0
  0
VERTEX
  5
600
  8
0
  6
CONTINUOUS
 62
     5
 10
444.111
 20
395.973
 30
0.0
  0
VERTEX
  5
601
  8
0
  6
CONTINUOUS
 62
     5
 10
444.128
 20
395.978
 30
0.0
  0
VERTEX
  5
602
  8
0
  6
CONTINUOUS
 62
     5
 10
444.146
 20
395.983
 30
0.0
  0
VERTEX
  5
603
  8
0
  6
CONTINUOUS
 62
     5
 10
444.163
 20
395.988
 30
0.0
  0
VERTEX
  5
604
  8
0
  6
CONTINUOUS
 62
     5
 10
444.181
 20
395.992
 30
0.0
  0
VERTEX
  5
605
  8
0
  6
CONTINUOUS
 62
     5
 10
444.199
 20
395.995
 30
0.0
  0
VERTEX
  5
606
  8
0
  6
CONTINUOUS
 62
     5
 10
444.217
 20
395.997
 30
0.0
  0
VERTEX
  5
607
  8
0
  6
CONTINUOUS
 62
     5
 10
444.235
 20
395.999
 30
0.0
  0
VERTEX
  5
608
  8
0
  6
CONTINUOUS
 62
     5
 10
444.253
 20
396.0
 30
0.0
  0
VERTEX
  5
609
  8
0
  6
CONTINUOUS
 62
     5
 10
444.271
 20
396.001
 30
0.0
  0
VERTEX
  5
60A
  8
0
  6
CONTINUOUS
 62
     5
 10
444.289
 20
396.0
 30
0.0
  0
VERTEX
  5
60B
  8
0
  6
CONTINUOUS
 62
     5
 10
444.306
 20
395.999
 30
0.0
  0
VERTEX
  5
60C
  8
0
  6
CONTINUOUS
 62
     5
 10
444.324
 20
395.998
 30
0.0
  0
VERTEX
  5
60D
  8
0
  6
CONTINUOUS
 62
     5
 10
444.342
 20
395.995
 30
0.0
  0
VERTEX
  5
60E
  8
0
  6
CONTINUOUS
 62
     5
 10
444.36
 20
395.992
 30
0.0
  0
VERTEX
  5
60F
  8
0
  6
CONTINUOUS
 62
     5
 10
444.377
 20
395.988
 30
0.0
  0
VERTEX
  5
610
  8
0
  6
CONTINUOUS
 62
     5
 10
444.395
 20
395.984
 30
0.0
  0
VERTEX
  5
611
  8
0
  6
CONTINUOUS
 62
     5
 10
444.412
 20
395.98
 30
0.0
  0
VERTEX
  5
612
  8
0
  6
CONTINUOUS
 62
     5
 10
444.43
 20
395.975
 30
0.0
  0
VERTEX
  5
613
  8
0
  6
CONTINUOUS
 62
     5
 10
444.447
 20
395.971
 30
0.0
  0
VERTEX
  5
614
  8
0
  6
CONTINUOUS
 62
     5
 10
444.465
 20
395.966
 30
0.0
  0
VERTEX
  5
615
  8
0
  6
CONTINUOUS
 62
     5
 10
444.482
 20
395.96
 30
0.0
  0
VERTEX
  5
616
  8
0
  6
CONTINUOUS
 62
     5
 10
444.499
 20
395.955
 30
0.0
  0
VERTEX
  5
617
  8
0
  6
CONTINUOUS
 62
     5
 10
444.516
 20
395.949
 30
0.0
  0
VERTEX
  5
618
  8
0
  6
CONTINUOUS
 62
     5
 10
444.533
 20
395.942
 30
0.0
  0
VERTEX
  5
619
  8
0
  6
CONTINUOUS
 62
     5
 10
444.55
 20
395.936
 30
0.0
  0
VERTEX
  5
61A
  8
0
  6
CONTINUOUS
 62
     5
 10
444.566
 20
395.928
 30
0.0
  0
VERTEX
  5
61B
  8
0
  6
CONTINUOUS
 62
     5
 10
444.583
 20
395.921
 30
0.0
  0
VERTEX
  5
61C
  8
0
  6
CONTINUOUS
 62
     5
 10
444.598
 20
395.912
 30
0.0
  0
VERTEX
  5
61D
  8
0
  6
CONTINUOUS
 62
     5
 10
444.614
 20
395.903
 30
0.0
  0
VERTEX
  5
61E
  8
0
  6
CONTINUOUS
 62
     5
 10
444.629
 20
395.893
 30
0.0
  0
VERTEX
  5
61F
  8
0
  6
CONTINUOUS
 62
     5
 10
444.644
 20
395.883
 30
0.0
  0
VERTEX
  5
620
  8
0
  6
CONTINUOUS
 62
     5
 10
444.658
 20
395.872
 30
0.0
  0
VERTEX
  5
621
  8
0
  6
CONTINUOUS
 62
     5
 10
444.672
 20
395.86
 30
0.0
  0
VERTEX
  5
622
  8
0
  6
CONTINUOUS
 62
     5
 10
444.685
 20
395.847
 30
0.0
  0
VERTEX
  5
623
  8
0
  6
CONTINUOUS
 62
     5
 10
444.697
 20
395.834
 30
0.0
  0
VERTEX
  5
624
  8
0
  6
CONTINUOUS
 62
     5
 10
444.708
 20
395.82
 30
0.0
  0
VERTEX
  5
625
  8
0
  6
CONTINUOUS
 62
     5
 10
444.719
 20
395.805
 30
0.0
  0
VERTEX
  5
626
  8
0
  6
CONTINUOUS
 62
     5
 10
444.729
 20
395.79
 30
0.0
  0
VERTEX
  5
627
  8
0
  6
CONTINUOUS
 62
     5
 10
444.738
 20
395.774
 30
0.0
  0
VERTEX
  5
628
  8
0
  6
CONTINUOUS
 62
     5
 10
444.746
 20
395.758
 30
0.0
  0
VERTEX
  5
629
  8
0
  6
CONTINUOUS
 62
     5
 10
444.753
 20
395.741
 30
0.0
  0
VERTEX
  5
62A
  8
0
  6
CONTINUOUS
 62
     5
 10
444.759
 20
395.724
 30
0.0
  0
VERTEX
  5
62B
  8
0
  6
CONTINUOUS
 62
     5
 10
444.763
 20
395.707
 30
0.0
  0
VERTEX
  5
62C
  8
0
  6
CONTINUOUS
 62
     5
 10
444.767
 20
395.689
 30
0.0
  0
VERTEX
  5
62D
  8
0
  6
CONTINUOUS
 62
     5
 10
444.77
 20
395.671
 30
0.0
  0
SEQEND
  5
62E
  8
0
  6
CONTINUOUS
 62
     5
  0
ARC
  5
B9
  8
0
  6
CONTINUOUS
 62
     5
 10
441.831
 20
394.848
 30
0.0
 40
1.685708095061552
 50
71.872
 51
120.406
  0
LINE
  5
BA
  8
0
  6
CONTINUOUS
 62
     5
 10
440.978
 20
396.302
 30
0.0
 11
440.978
 21
396.511
 31
0.0
  0
LINE
  5
BB
  8
0
  6
CONTINUOUS
 62
     5
 10
440.978
 20
396.511
 30
0.0
 11
440.116
 21
396.511
 31
0.0
  0
LINE
  5
BC
  8
0
  6
CONTINUOUS
 62
     5
 10
440.116
 20
396.511
 30
0.0
 11
440.116
 21
394.65
 31
0.0
  0
LINE
  5
BD
  8
0
  6
CONTINUOUS
 62
     5
 10
440.116
 20
394.65
 30
0.0
 11
440.978
 21
394.65
 31
0.0
  0
LINE
  5
BE
  8
0
  6
CONTINUOUS
 62
     5
 10
440.978
 20
394.65
 30
0.0
 11
440.978
 21
395.515
 31
0.0
  0
ARC
  5
BF
  8
0
  6
CONTINUOUS
 62
     5
 10
-441.531
 20
395.22
 30
0.0
 40
0.6272451125255151
 50
27.997
 51
87.037
210
0.0
220
0.0
230
-1.0
  0
ARC
  5
C0
  8
0
  6
CONTINUOUS
 62
     5
 10
-441.538
 20
395.537
 30
0.0
 40
0.3125393542347363
 50
82.849
 51
180.0
210
0.0
220
0.0
230
-1.0
  0
LINE
  5
C1
  8
0
  6
CONTINUOUS
 62
     5
 10
441.85
 20
395.537
 30
0.0
 11
441.85
 21
394.65
 31
0.0
  0
LINE
  5
C2
  8
0
  6
CONTINUOUS
 62
     5
 10
441.85
 20
394.65
 30
0.0
 11
442.707
 21
394.65
 31
0.0
  0
LINE
  5
C3
  8
0
  6
CONTINUOUS
 62
     5
 10
442.707
 20
394.65
 30
0.0
 11
442.707
 21
395.942
 31
0.0
  0
ARC
  5
C4
  8
0
  6
CONTINUOUS
 62
     5
 10
442.122
 20
395.914
 30
0.0
 40
0.5849556750934475
 50
2.807
 51
66.546
  0
LINE
  5
C5
  8
0
  6
CONTINUOUS
 62
     5
 10
439.699
 20
394.65
 30
0.0
 11
439.699
 21
396.511
 31
0.0
  0
LINE
  5
C6
  8
0
  6
CONTINUOUS
 62
     5
 10
439.699
 20
396.511
 30
0.0
 11
438.826
 21
396.511
 31
0.0
  0
LINE
  5
C7
  8
0
  6
CONTINUOUS
 62
     5
 10
438.826
 20
396.511
 30
0.0
 11
438.826
 21
394.65
 31
0.0
  0
LINE
  5
C8
  8
0
  6
CONTINUOUS
 62
     5
 10
438.826
 20
394.65
 30
0.0
 11
439.699
 21
394.65
 31
0.0
  0
LINE
  5
C9
  8
0
  6
CONTINUOUS
 62
     5
 10
438.826
 20
397.147
 30
0.0
 11
438.826
 21
396.719
 31
0.0
  0
LINE
  5
CA
  8
0
  6
CONTINUOUS
 62
     5
 10
438.826
 20
396.719
 30
0.0
 11
439.699
 21
396.719
 31
0.0
  0
LINE
  5
CB
  8
0
  6
CONTINUOUS
 62
     5
 10
439.699
 20
396.719
 30
0.0
 11
439.699
 21
397.147
 31
0.0
  0
LINE
  5
CC
  8
0
  6
CONTINUOUS
 62
     5
 10
439.699
 20
397.147
 30
0.0
 11
438.826
 21
397.147
 31
0.0
  0
LINE
  5
CD
  8
0
  6
CONTINUOUS
 62
     5
 10
438.48
 20
396.714
 30
0.0
 11
438.48
 21
397.147
 31
0.0
  0
LINE
  5
CE
  8
0
  6
CONTINUOUS
 62
     5
 10
438.48
 20
397.147
 30
0.0
 11
437.761
 21
397.147
 31
0.0
  0
ARC
  5
CF
  8
0
  6
CONTINUOUS
 62
     5
 10
437.757
 20
396.713
 30
0.0
 40
0.4347067697202704
 50
89.417
 51
180.0
  0
LINE
  5
D0
  8
0
  6
CONTINUOUS
 62
     5
 10
437.322
 20
396.713
 30
0.0
 11
437.322
 21
396.511
 31
0.0
  0
LINE
  5
D1
  8
0
  6
CONTINUOUS
 62
     5
 10
437.322
 20
396.511
 30
0.0
 11
437.064
 21
396.511
 31
0.0
  0
LINE
  5
D2
  8
0
  6
CONTINUOUS
 62
     5
 10
437.064
 20
396.511
 30
0.0
 11
437.064
 21
395.984
 31
0.0
  0
LINE
  5
D3
  8
0
  6
CONTINUOUS
 62
     5
 10
437.064
 20
395.984
 30
0.0
 11
437.322
 21
395.984
 31
0.0
  0
LINE
  5
D4
  8
0
  6
CONTINUOUS
 62
     5
 10
437.322
 20
395.984
 30
0.0
 11
437.322
 21
394.65
 31
0.0
  0
LINE
  5
D5
  8
0
  6
CONTINUOUS
 62
     5
 10
437.322
 20
394.65
 30
0.0
 11
438.184
 21
394.65
 31
0.0
  0
LINE
  5
D6
  8
0
  6
CONTINUOUS
 62
     5
 10
438.184
 20
394.65
 30
0.0
 11
438.184
 21
395.984
 31
0.0
  0
LINE
  5
D7
  8
0
  6
CONTINUOUS
 62
     5
 10
438.184
 20
395.984
 30
0.0
 11
438.48
 21
395.984
 31
0.0
  0
LINE
  5
D8
  8
0
  6
CONTINUOUS
 62
     5
 10
438.48
 20
395.984
 30
0.0
 11
438.48
 21
396.511
 31
0.0
  0
LINE
  5
D9
  8
0
  6
CONTINUOUS
 62
     5
 10
438.48
 20
396.511
 30
0.0
 11
438.157
 21
396.511
 31
0.0
  0
LINE
  5
DA
  8
0
  6
CONTINUOUS
 62
     5
 10
438.157
 20
396.511
 30
0.0
 11
438.18
 21
396.636
 31
0.0
  0
ARC
  5
DB
  8
0
  6
CONTINUOUS
 62
     5
 10
-438.297
 20
396.588
 30
0.0
 40
0.1269612610562549
 50
22.192
 51
84.155
210
0.0
220
0.0
230
-1.0
  0
LINE
  5
DC
  8
0
  6
CONTINUOUS
 62
     5
 10
438.284
 20
396.714
 30
0.0
 11
438.48
 21
396.714
 31
0.0
  0
POLYLINE
  5
DD
  8
0
  6
CONTINUOUS
 62
     5
 66
     1
 10
0.0
 20
0.0
 30
0.0
  0
VERTEX
  5
62F
  8
0
  6
CONTINUOUS
 62
     5
 10
449.699
 20
395.682
 30
0.0
  0
VERTEX
  5
630
  8
0
  6
CONTINUOUS
 62
     5
 10
449.7
 20
395.692
 30
0.0
  0
VERTEX
  5
631
  8
0
  6
CONTINUOUS
 62
     5
 10
449.701
 20
395.702
 30
0.0
  0
VERTEX
  5
632
  8
0
  6
CONTINUOUS
 62
     5
 10
449.702
 20
395.712
 30
0.0
  0
VERTEX
  5
633
  8
0
  6
CONTINUOUS
 62
     5
 10
449.704
 20
395.722
 30
0.0
  0
VERTEX
  5
634
  8
0
  6
CONTINUOUS
 62
     5
 10
449.706
 20
395.732
 30
0.0
  0
VERTEX
  5
635
  8
0
  6
CONTINUOUS
 62
     5
 10
449.709
 20
395.742
 30
0.0
  0
VERTEX
  5
636
  8
0
  6
CONTINUOUS
 62
     5
 10
449.712
 20
395.752
 30
0.0
  0
VERTEX
  5
637
  8
0
  6
CONTINUOUS
 62
     5
 10
449.716
 20
395.762
 30
0.0
  0
VERTEX
  5
638
  8
0
  6
CONTINUOUS
 62
     5
 10
449.72
 20
395.771
 30
0.0
  0
VERTEX
  5
639
  8
0
  6
CONTINUOUS
 62
     5
 10
449.724
 20
395.781
 30
0.0
  0
VERTEX
  5
63A
  8
0
  6
CONTINUOUS
 62
     5
 10
449.728
 20
395.79
 30
0.0
  0
VERTEX
  5
63B
  8
0
  6
CONTINUOUS
 62
     5
 10
449.733
 20
395.799
 30
0.0
  0
VERTEX
  5
63C
  8
0
  6
CONTINUOUS
 62
     5
 10
449.738
 20
395.808
 30
0.0
  0
VERTEX
  5
63D
  8
0
  6
CONTINUOUS
 62
     5
 10
449.744
 20
395.816
 30
0.0
  0
VERTEX
  5
63E
  8
0
  6
CONTINUOUS
 62
     5
 10
449.75
 20
395.825
 30
0.0
  0
VERTEX
  5
63F
  8
0
  6
CONTINUOUS
 62
     5
 10
449.756
 20
395.833
 30
0.0
  0
VERTEX
  5
640
  8
0
  6
CONTINUOUS
 62
     5
 10
449.763
 20
395.841
 30
0.0
  0
VERTEX
  5
641
  8
0
  6
CONTINUOUS
 62
     5
 10
449.77
 20
395.848
 30
0.0
  0
VERTEX
  5
642
  8
0
  6
CONTINUOUS
 62
     5
 10
449.777
 20
395.855
 30
0.0
  0
VERTEX
  5
643
  8
0
  6
CONTINUOUS
 62
     5
 10
449.784
 20
395.862
 30
0.0
  0
VERTEX
  5
644
  8
0
  6
CONTINUOUS
 62
     5
 10
449.792
 20
395.869
 30
0.0
  0
VERTEX
  5
645
  8
0
  6
CONTINUOUS
 62
     5
 10
449.8
 20
395.875
 30
0.0
  0
VERTEX
  5
646
  8
0
  6
CONTINUOUS
 62
     5
 10
449.809
 20
395.88
 30
0.0
  0
VERTEX
  5
647
  8
0
  6
CONTINUOUS
 62
     5
 10
449.818
 20
395.886
 30
0.0
  0
VERTEX
  5
648
  8
0
  6
CONTINUOUS
 62
     5
 10
449.827
 20
395.89
 30
0.0
  0
VERTEX
  5
649
  8
0
  6
CONTINUOUS
 62
     5
 10
449.836
 20
395.895
 30
0.0
  0
VERTEX
  5
64A
  8
0
  6
CONTINUOUS
 62
     5
 10
449.845
 20
395.899
 30
0.0
  0
VERTEX
  5
64B
  8
0
  6
CONTINUOUS
 62
     5
 10
449.855
 20
395.903
 30
0.0
  0
VERTEX
  5
64C
  8
0
  6
CONTINUOUS
 62
     5
 10
449.864
 20
395.906
 30
0.0
  0
VERTEX
  5
64D
  8
0
  6
CONTINUOUS
 62
     5
 10
449.874
 20
395.909
 30
0.0
  0
VERTEX
  5
64E
  8
0
  6
CONTINUOUS
 62
     5
 10
449.884
 20
395.912
 30
0.0
  0
VERTEX
  5
64F
  8
0
  6
CONTINUOUS
 62
     5
 10
449.894
 20
395.915
 30
0.0
  0
VERTEX
  5
650
  8
0
  6
CONTINUOUS
 62
     5
 10
449.904
 20
395.917
 30
0.0
  0
VERTEX
  5
651
  8
0
  6
CONTINUOUS
 62
     5
 10
449.915
 20
395.918
 30
0.0
  0
VERTEX
  5
652
  8
0
  6
CONTINUOUS
 62
     5
 10
449.925
 20
395.92
 30
0.0
  0
VERTEX
  5
653
  8
0
  6
CONTINUOUS
 62
     5
 10
449.935
 20
395.92
 30
0.0
  0
VERTEX
  5
654
  8
0
  6
CONTINUOUS
 62
     5
 10
449.945
 20
395.921
 30
0.0
  0
VERTEX
  5
655
  8
0
  6
CONTINUOUS
 62
     5
 10
449.956
 20
395.921
 30
0.0
  0
VERTEX
  5
656
  8
0
  6
CONTINUOUS
 62
     5
 10
449.966
 20
395.921
 30
0.0
  0
VERTEX
  5
657
  8
0
  6
CONTINUOUS
 62
     5
 10
449.976
 20
395.921
 30
0.0
  0
VERTEX
  5
658
  8
0
  6
CONTINUOUS
 62
     5
 10
449.986
 20
395.92
 30
0.0
  0
VERTEX
  5
659
  8
0
  6
CONTINUOUS
 62
     5
 10
449.997
 20
395.918
 30
0.0
  0
VERTEX
  5
65A
  8
0
  6
CONTINUOUS
 62
     5
 10
450.007
 20
395.916
 30
0.0
  0
VERTEX
  5
65B
  8
0
  6
CONTINUOUS
 62
     5
 10
450.016
 20
395.914
 30
0.0
  0
VERTEX
  5
65C
  8
0
  6
CONTINUOUS
 62
     5
 10
450.026
 20
395.911
 30
0.0
  0
VERTEX
  5
65D
  8
0
  6
CONTINUOUS
 62
     5
 10
450.036
 20
395.908
 30
0.0
  0
VERTEX
  5
65E
  8
0
  6
CONTINUOUS
 62
     5
 10
450.045
 20
395.905
 30
0.0
  0
VERTEX
  5
65F
  8
0
  6
CONTINUOUS
 62
     5
 10
450.055
 20
395.9
 30
0.0
  0
VERTEX
  5
660
  8
0
  6
CONTINUOUS
 62
     5
 10
450.064
 20
395.896
 30
0.0
  0
VERTEX
  5
661
  8
0
  6
CONTINUOUS
 62
     5
 10
450.073
 20
395.891
 30
0.0
  0
VERTEX
  5
662
  8
0
  6
CONTINUOUS
 62
     5
 10
450.082
 20
395.885
 30
0.0
  0
VERTEX
  5
663
  8
0
  6
CONTINUOUS
 62
     5
 10
450.09
 20
395.88
 30
0.0
  0
VERTEX
  5
664
  8
0
  6
CONTINUOUS
 62
     5
 10
450.098
 20
395.874
 30
0.0
  0
VERTEX
  5
665
  8
0
  6
CONTINUOUS
 62
     5
 10
450.106
 20
395.867
 30
0.0
  0
VERTEX
  5
666
  8
0
  6
CONTINUOUS
 62
     5
 10
450.114
 20
395.86
 30
0.0
  0
VERTEX
  5
667
  8
0
  6
CONTINUOUS
 62
     5
 10
450.121
 20
395.853
 30
0.0
  0
VERTEX
  5
668
  8
0
  6
CONTINUOUS
 62
     5
 10
450.128
 20
395.845
 30
0.0
  0
VERTEX
  5
669
  8
0
  6
CONTINUOUS
 62
     5
 10
450.134
 20
395.837
 30
0.0
  0
VERTEX
  5
66A
  8
0
  6
CONTINUOUS
 62
     5
 10
450.14
 20
395.829
 30
0.0
  0
VERTEX
  5
66B
  8
0
  6
CONTINUOUS
 62
     5
 10
450.146
 20
395.821
 30
0.0
  0
VERTEX
  5
66C
  8
0
  6
CONTINUOUS
 62
     5
 10
450.151
 20
395.812
 30
0.0
  0
VERTEX
  5
66D
  8
0
  6
CONTINUOUS
 62
     5
 10
450.156
 20
395.803
 30
0.0
  0
VERTEX
  5
66E
  8
0
  6
CONTINUOUS
 62
     5
 10
450.161
 20
395.794
 30
0.0
  0
VERTEX
  5
66F
  8
0
  6
CONTINUOUS
 62
     5
 10
450.164
 20
395.784
 30
0.0
  0
VERTEX
  5
670
  8
0
  6
CONTINUOUS
 62
     5
 10
450.168
 20
395.774
 30
0.0
  0
VERTEX
  5
671
  8
0
  6
CONTINUOUS
 62
     5
 10
450.171
 20
395.765
 30
0.0
  0
VERTEX
  5
672
  8
0
  6
CONTINUOUS
 62
     5
 10
450.173
 20
395.755
 30
0.0
  0
VERTEX
  5
673
  8
0
  6
CONTINUOUS
 62
     5
 10
450.175
 20
395.745
 30
0.0
  0
VERTEX
  5
674
  8
0
  6
CONTINUOUS
 62
     5
 10
450.176
 20
395.734
 30
0.0
  0
VERTEX
  5
675
  8
0
  6
CONTINUOUS
 62
     5
 10
450.177
 20
395.724
 30
0.0
  0
VERTEX
  5
676
  8
0
  6
CONTINUOUS
 62
     5
 10
450.177
 20
395.714
 30
0.0
  0
VERTEX
  5
677
  8
0
  6
CONTINUOUS
 62
     5
 10
450.177
 20
395.704
 30
0.0
  0
SEQEND
  5
678
  8
0
  6
CONTINUOUS
 62
     5
  0
LINE
  5
DE
  8
0
  6
CONTINUOUS
 62
     5
 10
450.177
 20
395.704
 30
0.0
 11
450.177
 21
395.589
 31
0.0
  0
LINE
  5
DF
  8
0
  6
CONTINUOUS
 62
     5
 10
450.177
 20
395.589
 30
0.0
 11
451.055
 21
395.589
 31
0.0
  0
POLYLINE
  5
E0
  8
0
  6
CONTINUOUS
 62
     5
 66
     1
 10
0.0
 20
0.0
 30
0.0
  0
VERTEX
  5
679
  8
0
  6
CONTINUOUS
 62
     5
 10
451.055
 20
395.589
 30
0.0
  0
VERTEX
  5
67A
  8
0
  6
CONTINUOUS
 62
     5
 10
451.057
 20
395.609
 30
0.0
  0
VERTEX
  5
67B
  8
0
  6
CONTINUOUS
 62
     5
 10
451.059
 20
395.629
 30
0.0
  0
VERTEX
  5
67C
  8
0
  6
CONTINUOUS
 62
     5
 10
451.061
 20
395.649
 30
0.0
  0
VERTEX
  5
67D
  8
0
  6
CONTINUOUS
 62
     5
 10
451.063
 20
395.668
 30
0.0
  0
VERTEX
  5
67E
  8
0
  6
CONTINUOUS
 62
     5
 10
451.064
 20
395.688
 30
0.0
  0
VERTEX
  5
67F
  8
0
  6
CONTINUOUS
 62
     5
 10
451.065
 20
395.709
 30
0.0
  0
VERTEX
  5
680
  8
0
  6
CONTINUOUS
 62
     5
 10
451.066
 20
395.729
 30
0.0
  0
VERTEX
  5
681
  8
0
  6
CONTINUOUS
 62
     5
 10
451.066
 20
395.749
 30
0.0
  0
VERTEX
  5
682
  8
0
  6
CONTINUOUS
 62
     5
 10
451.066
 20
395.769
 30
0.0
  0
VERTEX
  5
683
  8
0
  6
CONTINUOUS
 62
     5
 10
451.066
 20
395.789
 30
0.0
  0
VERTEX
  5
684
  8
0
  6
CONTINUOUS
 62
     5
 10
451.066
 20
395.809
 30
0.0
  0
VERTEX
  5
685
  8
0
  6
CONTINUOUS
 62
     5
 10
451.065
 20
395.829
 30
0.0
  0
VERTEX
  5
686
  8
0
  6
CONTINUOUS
 62
     5
 10
451.063
 20
395.849
 30
0.0
  0
VERTEX
  5
687
  8
0
  6
CONTINUOUS
 62
     5
 10
451.062
 20
395.869
 30
0.0
  0
VERTEX
  5
688
  8
0
  6
CONTINUOUS
 62
     5
 10
451.06
 20
395.889
 30
0.0
  0
VERTEX
  5
689
  8
0
  6
CONTINUOUS
 62
     5
 10
451.058
 20
395.909
 30
0.0
  0
VERTEX
  5
68A
  8
0
  6
CONTINUOUS
 62
     5
 10
451.056
 20
395.929
 30
0.0
  0
VERTEX
  5
68B
  8
0
  6
CONTINUOUS
 62
     5
 10
451.053
 20
395.949
 30
0.0
  0
VERTEX
  5
68C
  8
0
  6
CONTINUOUS
 62
     5
 10
451.05
 20
395.968
 30
0.0
  0
VERTEX
  5
68D
  8
0
  6
CONTINUOUS
 62
     5
 10
451.047
 20
395.988
 30
0.0
  0
VERTEX
  5
68E
  8
0
  6
CONTINUOUS
 62
     5
 10
451.043
 20
396.008
 30
0.0
  0
VERTEX
  5
68F
  8
0
  6
CONTINUOUS
 62
     5
 10
451.039
 20
396.028
 30
0.0
  0
VERTEX
  5
690
  8
0
  6
CONTINUOUS
 62
     5
 10
451.035
 20
396.047
 30
0.0
  0
VERTEX
  5
691
  8
0
  6
CONTINUOUS
 62
     5
 10
451.031
 20
396.067
 30
0.0
  0
VERTEX
  5
692
  8
0
  6
CONTINUOUS
 62
     5
 10
451.026
 20
396.087
 30
0.0
  0
VERTEX
  5
693
  8
0
  6
CONTINUOUS
 62
     5
 10
451.021
 20
396.106
 30
0.0
  0
VERTEX
  5
694
  8
0
  6
CONTINUOUS
 62
     5
 10
451.015
 20
396.125
 30
0.0
  0
VERTEX
  5
695
  8
0
  6
CONTINUOUS
 62
     5
 10
451.009
 20
396.144
 30
0.0
  0
VERTEX
  5
696
  8
0
  6
CONTINUOUS
 62
     5
 10
451.003
 20
396.163
 30
0.0
  0
VERTEX
  5
697
  8
0
  6
CONTINUOUS
 62
     5
 10
450.995
 20
396.182
 30
0.0
  0
VERTEX
  5
698
  8
0
  6
CONTINUOUS
 62
     5
 10
450.987
 20
396.2
 30
0.0
  0
VERTEX
  5
699
  8
0
  6
CONTINUOUS
 62
     5
 10
450.979
 20
396.218
 30
0.0
  0
VERTEX
  5
69A
  8
0
  6
CONTINUOUS
 62
     5
 10
450.97
 20
396.236
 30
0.0
  0
VERTEX
  5
69B
  8
0
  6
CONTINUOUS
 62
     5
 10
450.96
 20
396.254
 30
0.0
  0
VERTEX
  5
69C
  8
0
  6
CONTINUOUS
 62
     5
 10
450.95
 20
396.271
 30
0.0
  0
VERTEX
  5
69D
  8
0
  6
CONTINUOUS
 62
     5
 10
450.939
 20
396.288
 30
0.0
  0
VERTEX
  5
69E
  8
0
  6
CONTINUOUS
 62
     5
 10
450.928
 20
396.305
 30
0.0
  0
VERTEX
  5
69F
  8
0
  6
CONTINUOUS
 62
     5
 10
450.916
 20
396.321
 30
0.0
  0
VERTEX
  5
6A0
  8
0
  6
CONTINUOUS
 62
     5
 10
450.903
 20
396.337
 30
0.0
  0
VERTEX
  5
6A1
  8
0
  6
CONTINUOUS
 62
     5
 10
450.89
 20
396.352
 30
0.0
  0
VERTEX
  5
6A2
  8
0
  6
CONTINUOUS
 62
     5
 10
450.876
 20
396.367
 30
0.0
  0
VERTEX
  5
6A3
  8
0
  6
CONTINUOUS
 62
     5
 10
450.862
 20
396.381
 30
0.0
  0
VERTEX
  5
6A4
  8
0
  6
CONTINUOUS
 62
     5
 10
450.847
 20
396.394
 30
0.0
  0
VERTEX
  5
6A5
  8
0
  6
CONTINUOUS
 62
     5
 10
450.831
 20
396.407
 30
0.0
  0
VERTEX
  5
6A6
  8
0
  6
CONTINUOUS
 62
     5
 10
450.815
 20
396.419
 30
0.0
  0
VERTEX
  5
6A7
  8
0
  6
CONTINUOUS
 62
     5
 10
450.799
 20
396.431
 30
0.0
  0
VERTEX
  5
6A8
  8
0
  6
CONTINUOUS
 62
     5
 10
450.782
 20
396.442
 30
0.0
  0
VERTEX
  5
6A9
  8
0
  6
CONTINUOUS
 62
     5
 10
450.765
 20
396.452
 30
0.0
  0
VERTEX
  5
6AA
  8
0
  6
CONTINUOUS
 62
     5
 10
450.747
 20
396.461
 30
0.0
  0
VERTEX
  5
6AB
  8
0
  6
CONTINUOUS
 62
     5
 10
450.729
 20
396.47
 30
0.0
  0
VERTEX
  5
6AC
  8
0
  6
CONTINUOUS
 62
     5
 10
450.711
 20
396.478
 30
0.0
  0
VERTEX
  5
6AD
  8
0
  6
CONTINUOUS
 62
     5
 10
450.692
 20
396.485
 30
0.0
  0
VERTEX
  5
6AE
  8
0
  6
CONTINUOUS
 62
     5
 10
450.673
 20
396.492
 30
0.0
  0
VERTEX
  5
6AF
  8
0
  6
CONTINUOUS
 62
     5
 10
450.654
 20
396.499
 30
0.0
  0
VERTEX
  5
6B0
  8
0
  6
CONTINUOUS
 62
     5
 10
450.635
 20
396.505
 30
0.0
  0
VERTEX
  5
6B1
  8
0
  6
CONTINUOUS
 62
     5
 10
450.615
 20
396.51
 30
0.0
  0
VERTEX
  5
6B2
  8
0
  6
CONTINUOUS
 62
     5
 10
450.596
 20
396.516
 30
0.0
  0
VERTEX
  5
6B3
  8
0
  6
CONTINUOUS
 62
     5
 10
450.576
 20
396.521
 30
0.0
  0
VERTEX
  5
6B4
  8
0
  6
CONTINUOUS
 62
     5
 10
450.557
 20
396.525
 30
0.0
  0
VERTEX
  5
6B5
  8
0
  6
CONTINUOUS
 62
     5
 10
450.537
 20
396.53
 30
0.0
  0
VERTEX
  5
6B6
  8
0
  6
CONTINUOUS
 62
     5
 10
450.517
 20
396.534
 30
0.0
  0
VERTEX
  5
6B7
  8
0
  6
CONTINUOUS
 62
     5
 10
450.498
 20
396.537
 30
0.0
  0
VERTEX
  5
6B8
  8
0
  6
CONTINUOUS
 62
     5
 10
450.478
 20
396.54
 30
0.0
  0
VERTEX
  5
6B9
  8
0
  6
CONTINUOUS
 62
     5
 10
450.458
 20
396.543
 30
0.0
  0
VERTEX
  5
6BA
  8
0
  6
CONTINUOUS
 62
     5
 10
450.438
 20
396.546
 30
0.0
  0
VERTEX
  5
6BB
  8
0
  6
CONTINUOUS
 62
     5
 10
450.418
 20
396.548
 30
0.0
  0
VERTEX
  5
6BC
  8
0
  6
CONTINUOUS
 62
     5
 10
450.398
 20
396.549
 30
0.0
  0
VERTEX
  5
6BD
  8
0
  6
CONTINUOUS
 62
     5
 10
450.378
 20
396.55
 30
0.0
  0
VERTEX
  5
6BE
  8
0
  6
CONTINUOUS
 62
     5
 10
450.358
 20
396.551
 30
0.0
  0
VERTEX
  5
6BF
  8
0
  6
CONTINUOUS
 62
     5
 10
450.338
 20
396.551
 30
0.0
  0
VERTEX
  5
6C0
  8
0
  6
CONTINUOUS
 62
     5
 10
450.318
 20
396.55
 30
0.0
  0
VERTEX
  5
6C1
  8
0
  6
CONTINUOUS
 62
     5
 10
450.298
 20
396.55
 30
0.0
  0
VERTEX
  5
6C2
  8
0
  6
CONTINUOUS
 62
     5
 10
450.278
 20
396.549
 30
0.0
  0
VERTEX
  5
6C3
  8
0
  6
CONTINUOUS
 62
     5
 10
450.258
 20
396.547
 30
0.0
  0
VERTEX
  5
6C4
  8
0
  6
CONTINUOUS
 62
     5
 10
450.238
 20
396.546
 30
0.0
  0
VERTEX
  5
6C5
  8
0
  6
CONTINUOUS
 62
     5
 10
450.218
 20
396.543
 30
0.0
  0
VERTEX
  5
6C6
  8
0
  6
CONTINUOUS
 62
     5
 10
450.198
 20
396.541
 30
0.0
  0
VERTEX
  5
6C7
  8
0
  6
CONTINUOUS
 62
     5
 10
450.178
 20
396.538
 30
0.0
  0
VERTEX
  5
6C8
  8
0
  6
CONTINUOUS
 62
     5
 10
450.158
 20
396.535
 30
0.0
  0
VERTEX
  5
6C9
  8
0
  6
CONTINUOUS
 62
     5
 10
450.138
 20
396.532
 30
0.0
  0
VERTEX
  5
6CA
  8
0
  6
CONTINUOUS
 62
     5
 10
450.119
 20
396.528
 30
0.0
  0
VERTEX
  5
6CB
  8
0
  6
CONTINUOUS
 62
     5
 10
450.099
 20
396.524
 30
0.0
  0
VERTEX
  5
6CC
  8
0
  6
CONTINUOUS
 62
     5
 10
450.079
 20
396.52
 30
0.0
  0
VERTEX
  5
6CD
  8
0
  6
CONTINUOUS
 62
     5
 10
450.06
 20
396.515
 30
0.0
  0
VERTEX
  5
6CE
  8
0
  6
CONTINUOUS
 62
     5
 10
450.04
 20
396.51
 30
0.0
  0
VERTEX
  5
6CF
  8
0
  6
CONTINUOUS
 62
     5
 10
450.021
 20
396.505
 30
0.0
  0
VERTEX
  5
6D0
  8
0
  6
CONTINUOUS
 62
     5
 10
450.002
 20
396.499
 30
0.0
  0
VERTEX
  5
6D1
  8
0
  6
CONTINUOUS
 62
     5
 10
449.983
 20
396.493
 30
0.0
  0
VERTEX
  5
6D2
  8
0
  6
CONTINUOUS
 62
     5
 10
449.964
 20
396.487
 30
0.0
  0
VERTEX
  5
6D3
  8
0
  6
CONTINUOUS
 62
     5
 10
449.945
 20
396.48
 30
0.0
  0
VERTEX
  5
6D4
  8
0
  6
CONTINUOUS
 62
     5
 10
449.926
 20
396.472
 30
0.0
  0
VERTEX
  5
6D5
  8
0
  6
CONTINUOUS
 62
     5
 10
449.908
 20
396.465
 30
0.0
  0
VERTEX
  5
6D6
  8
0
  6
CONTINUOUS
 62
     5
 10
449.89
 20
396.457
 30
0.0
  0
VERTEX
  5
6D7
  8
0
  6
CONTINUOUS
 62
     5
 10
449.871
 20
396.448
 30
0.0
  0
VERTEX
  5
6D8
  8
0
  6
CONTINUOUS
 62
     5
 10
449.853
 20
396.439
 30
0.0
  0
VERTEX
  5
6D9
  8
0
  6
CONTINUOUS
 62
     5
 10
449.835
 20
396.43
 30
0.0
  0
VERTEX
  5
6DA
  8
0
  6
CONTINUOUS
 62
     5
 10
449.818
 20
396.421
 30
0.0
  0
VERTEX
  5
6DB
  8
0
  6
CONTINUOUS
 62
     5
 10
449.8
 20
396.411
 30
0.0
  0
VERTEX
  5
6DC
  8
0
  6
CONTINUOUS
 62
     5
 10
449.783
 20
396.401
 30
0.0
  0
VERTEX
  5
6DD
  8
0
  6
CONTINUOUS
 62
     5
 10
449.766
 20
396.39
 30
0.0
  0
VERTEX
  5
6DE
  8
0
  6
CONTINUOUS
 62
     5
 10
449.749
 20
396.38
 30
0.0
  0
VERTEX
  5
6DF
  8
0
  6
CONTINUOUS
 62
     5
 10
449.732
 20
396.369
 30
0.0
  0
VERTEX
  5
6E0
  8
0
  6
CONTINUOUS
 62
     5
 10
449.715
 20
396.358
 30
0.0
  0
VERTEX
  5
6E1
  8
0
  6
CONTINUOUS
 62
     5
 10
449.699
 20
396.346
 30
0.0
  0
SEQEND
  5
6E2
  8
0
  6
CONTINUOUS
 62
     5
  0
LINE
  5
E1
  8
0
  6
CONTINUOUS
 62
     5
 10
449.699
 20
396.346
 30
0.0
 11
449.699
 21
396.511
 31
0.0
  0
LINE
  5
E2
  8
0
  6
CONTINUOUS
 62
     5
 10
449.699
 20
396.511
 30
0.0
 11
448.87
 21
396.511
 31
0.0
  0
LINE
  5
E3
  8
0
  6
CONTINUOUS
 62
     5
 10
448.87
 20
396.511
 30
0.0
 11
448.87
 21
394.65
 31
0.0
  0
LINE
  5
E4
  8
0
  6
CONTINUOUS
 62
     5
 10
448.87
 20
394.65
 30
0.0
 11
449.699
 21
394.65
 31
0.0
  0
LINE
  5
E5
  8
0
  6
CONTINUOUS
 62
     5
 10
449.699
 20
394.65
 30
0.0
 11
449.699
 21
395.682
 31
0.0
  0
POLYLINE
  5
E6
  8
0
  6
CONTINUOUS
 62
     5
 66
     1
 10
0.0
 20
0.0
 30
0.0
  0
VERTEX
  5
6E3
  8
0
  6
CONTINUOUS
 62
     5
 10
447.723
 20
395.237
 30
0.0
  0
VERTEX
  5
6E4
  8
0
  6
CONTINUOUS
 62
     5
 10
447.711
 20
395.228
 30
0.0
  0
VERTEX
  5
6E5
  8
0
  6
CONTINUOUS
 62
     5
 10
447.698
 20
395.218
 30
0.0
  0
VERTEX
  5
6E6
  8
0
  6
CONTINUOUS
 62
     5
 10
447.685
 20
395.209
 30
0.0
  0
VERTEX
  5
6E7
  8
0
  6
CONTINUOUS
 62
     5
 10
447.673
 20
395.2
 30
0.0
  0
VERTEX
  5
6E8
  8
0
  6
CONTINUOUS
 62
     5
 10
447.659
 20
395.191
 30
0.0
  0
VERTEX
  5
6E9
  8
0
  6
CONTINUOUS
 62
     5
 10
447.646
 20
395.183
 30
0.0
  0
VERTEX
  5
6EA
  8
0
  6
CONTINUOUS
 62
     5
 10
447.633
 20
395.174
 30
0.0
  0
VERTEX
  5
6EB
  8
0
  6
CONTINUOUS
 62
     5
 10
447.619
 20
395.166
 30
0.0
  0
VERTEX
  5
6EC
  8
0
  6
CONTINUOUS
 62
     5
 10
447.605
 20
395.159
 30
0.0
  0
VERTEX
  5
6ED
  8
0
  6
CONTINUOUS
 62
     5
 10
447.592
 20
395.151
 30
0.0
  0
VERTEX
  5
6EE
  8
0
  6
CONTINUOUS
 62
     5
 10
447.578
 20
395.144
 30
0.0
  0
VERTEX
  5
6EF
  8
0
  6
CONTINUOUS
 62
     5
 10
447.563
 20
395.137
 30
0.0
  0
VERTEX
  5
6F0
  8
0
  6
CONTINUOUS
 62
     5
 10
447.549
 20
395.13
 30
0.0
  0
VERTEX
  5
6F1
  8
0
  6
CONTINUOUS
 62
     5
 10
447.535
 20
395.124
 30
0.0
  0
VERTEX
  5
6F2
  8
0
  6
CONTINUOUS
 62
     5
 10
447.52
 20
395.119
 30
0.0
  0
VERTEX
  5
6F3
  8
0
  6
CONTINUOUS
 62
     5
 10
447.505
 20
395.113
 30
0.0
  0
VERTEX
  5
6F4
  8
0
  6
CONTINUOUS
 62
     5
 10
447.49
 20
395.109
 30
0.0
  0
VERTEX
  5
6F5
  8
0
  6
CONTINUOUS
 62
     5
 10
447.475
 20
395.104
 30
0.0
  0
VERTEX
  5
6F6
  8
0
  6
CONTINUOUS
 62
     5
 10
447.46
 20
395.1
 30
0.0
  0
VERTEX
  5
6F7
  8
0
  6
CONTINUOUS
 62
     5
 10
447.444
 20
395.097
 30
0.0
  0
VERTEX
  5
6F8
  8
0
  6
CONTINUOUS
 62
     5
 10
447.429
 20
395.094
 30
0.0
  0
VERTEX
  5
6F9
  8
0
  6
CONTINUOUS
 62
     5
 10
447.413
 20
395.091
 30
0.0
  0
VERTEX
  5
6FA
  8
0
  6
CONTINUOUS
 62
     5
 10
447.397
 20
395.089
 30
0.0
  0
VERTEX
  5
6FB
  8
0
  6
CONTINUOUS
 62
     5
 10
447.382
 20
395.087
 30
0.0
  0
VERTEX
  5
6FC
  8
0
  6
CONTINUOUS
 62
     5
 10
447.366
 20
395.086
 30
0.0
  0
VERTEX
  5
6FD
  8
0
  6
CONTINUOUS
 62
     5
 10
447.35
 20
395.085
 30
0.0
  0
VERTEX
  5
6FE
  8
0
  6
CONTINUOUS
 62
     5
 10
447.334
 20
395.084
 30
0.0
  0
VERTEX
  5
6FF
  8
0
  6
CONTINUOUS
 62
     5
 10
447.318
 20
395.084
 30
0.0
  0
VERTEX
  5
700
  8
0
  6
CONTINUOUS
 62
     5
 10
447.303
 20
395.084
 30
0.0
  0
VERTEX
  5
701
  8
0
  6
CONTINUOUS
 62
     5
 10
447.287
 20
395.084
 30
0.0
  0
VERTEX
  5
702
  8
0
  6
CONTINUOUS
 62
     5
 10
447.271
 20
395.085
 30
0.0
  0
VERTEX
  5
703
  8
0
  6
CONTINUOUS
 62
     5
 10
447.255
 20
395.086
 30
0.0
  0
VERTEX
  5
704
  8
0
  6
CONTINUOUS
 62
     5
 10
447.239
 20
395.088
 30
0.0
  0
VERTEX
  5
705
  8
0
  6
CONTINUOUS
 62
     5
 10
447.224
 20
395.089
 30
0.0
  0
VERTEX
  5
706
  8
0
  6
CONTINUOUS
 62
     5
 10
447.208
 20
395.091
 30
0.0
  0
VERTEX
  5
707
  8
0
  6
CONTINUOUS
 62
     5
 10
447.193
 20
395.094
 30
0.0
  0
VERTEX
  5
708
  8
0
  6
CONTINUOUS
 62
     5
 10
447.177
 20
395.097
 30
0.0
  0
VERTEX
  5
709
  8
0
  6
CONTINUOUS
 62
     5
 10
447.162
 20
395.1
 30
0.0
  0
VERTEX
  5
70A
  8
0
  6
CONTINUOUS
 62
     5
 10
447.146
 20
395.103
 30
0.0
  0
VERTEX
  5
70B
  8
0
  6
CONTINUOUS
 62
     5
 10
447.131
 20
395.107
 30
0.0
  0
VERTEX
  5
70C
  8
0
  6
CONTINUOUS
 62
     5
 10
447.116
 20
395.111
 30
0.0
  0
VERTEX
  5
70D
  8
0
  6
CONTINUOUS
 62
     5
 10
447.101
 20
395.115
 30
0.0
  0
VERTEX
  5
70E
  8
0
  6
CONTINUOUS
 62
     5
 10
447.086
 20
395.12
 30
0.0
  0
VERTEX
  5
70F
  8
0
  6
CONTINUOUS
 62
     5
 10
447.071
 20
395.125
 30
0.0
  0
VERTEX
  5
710
  8
0
  6
CONTINUOUS
 62
     5
 10
447.056
 20
395.13
 30
0.0
  0
VERTEX
  5
711
  8
0
  6
CONTINUOUS
 62
     5
 10
447.041
 20
395.136
 30
0.0
  0
VERTEX
  5
712
  8
0
  6
CONTINUOUS
 62
     5
 10
447.026
 20
395.142
 30
0.0
  0
VERTEX
  5
713
  8
0
  6
CONTINUOUS
 62
     5
 10
447.012
 20
395.148
 30
0.0
  0
VERTEX
  5
714
  8
0
  6
CONTINUOUS
 62
     5
 10
446.998
 20
395.155
 30
0.0
  0
VERTEX
  5
715
  8
0
  6
CONTINUOUS
 62
     5
 10
446.984
 20
395.162
 30
0.0
  0
VERTEX
  5
716
  8
0
  6
CONTINUOUS
 62
     5
 10
446.97
 20
395.169
 30
0.0
  0
VERTEX
  5
717
  8
0
  6
CONTINUOUS
 62
     5
 10
446.956
 20
395.177
 30
0.0
  0
VERTEX
  5
718
  8
0
  6
CONTINUOUS
 62
     5
 10
446.942
 20
395.185
 30
0.0
  0
VERTEX
  5
719
  8
0
  6
CONTINUOUS
 62
     5
 10
446.929
 20
395.194
 30
0.0
  0
VERTEX
  5
71A
  8
0
  6
CONTINUOUS
 62
     5
 10
446.916
 20
395.203
 30
0.0
  0
VERTEX
  5
71B
  8
0
  6
CONTINUOUS
 62
     5
 10
446.903
 20
395.213
 30
0.0
  0
VERTEX
  5
71C
  8
0
  6
CONTINUOUS
 62
     5
 10
446.891
 20
395.223
 30
0.0
  0
VERTEX
  5
71D
  8
0
  6
CONTINUOUS
 62
     5
 10
446.879
 20
395.233
 30
0.0
  0
VERTEX
  5
71E
  8
0
  6
CONTINUOUS
 62
     5
 10
446.868
 20
395.244
 30
0.0
  0
VERTEX
  5
71F
  8
0
  6
CONTINUOUS
 62
     5
 10
446.857
 20
395.255
 30
0.0
  0
VERTEX
  5
720
  8
0
  6
CONTINUOUS
 62
     5
 10
446.846
 20
395.267
 30
0.0
  0
VERTEX
  5
721
  8
0
  6
CONTINUOUS
 62
     5
 10
446.836
 20
395.28
 30
0.0
  0
VERTEX
  5
722
  8
0
  6
CONTINUOUS
 62
     5
 10
446.827
 20
395.293
 30
0.0
  0
VERTEX
  5
723
  8
0
  6
CONTINUOUS
 62
     5
 10
446.819
 20
395.306
 30
0.0
  0
VERTEX
  5
724
  8
0
  6
CONTINUOUS
 62
     5
 10
446.811
 20
395.32
 30
0.0
  0
VERTEX
  5
725
  8
0
  6
CONTINUOUS
 62
     5
 10
446.803
 20
395.334
 30
0.0
  0
VERTEX
  5
726
  8
0
  6
CONTINUOUS
 62
     5
 10
446.797
 20
395.348
 30
0.0
  0
VERTEX
  5
727
  8
0
  6
CONTINUOUS
 62
     5
 10
446.791
 20
395.363
 30
0.0
  0
VERTEX
  5
728
  8
0
  6
CONTINUOUS
 62
     5
 10
446.785
 20
395.378
 30
0.0
  0
VERTEX
  5
729
  8
0
  6
CONTINUOUS
 62
     5
 10
446.781
 20
395.393
 30
0.0
  0
VERTEX
  5
72A
  8
0
  6
CONTINUOUS
 62
     5
 10
446.777
 20
395.409
 30
0.0
  0
VERTEX
  5
72B
  8
0
  6
CONTINUOUS
 62
     5
 10
446.774
 20
395.424
 30
0.0
  0
SEQEND
  5
72C
  8
0
  6
CONTINUOUS
 62
     5
  0
LINE
  5
E7
  8
0
  6
CONTINUOUS
 62
     5
 10
446.774
 20
395.424
 30
0.0
 11
447.103
 21
395.424
 31
0.0
  0
LINE
  5
E8
  8
0
  6
CONTINUOUS
 62
     5
 10
447.103
 20
395.424
 30
0.0
 11
447.152
 21
395.424
 31
0.0
  0
LINE
  5
E9
  8
0
  6
CONTINUOUS
 62
     5
 10
447.152
 20
395.424
 30
0.0
 11
448.618
 21
395.43
 31
0.0
  0
POLYLINE
  5
EA
  8
0
  6
CONTINUOUS
 62
     5
 66
     1
 10
0.0
 20
0.0
 30
0.0
  0
VERTEX
  5
72D
  8
0
  6
CONTINUOUS
 62
     5
 10
448.618
 20
395.43
 30
0.0
  0
VERTEX
  5
72E
  8
0
  6
CONTINUOUS
 62
     5
 10
448.624
 20
395.455
 30
0.0
  0
VERTEX
  5
72F
  8
0
  6
CONTINUOUS
 62
     5
 10
448.63
 20
395.481
 30
0.0
  0
VERTEX
  5
730
  8
0
  6
CONTINUOUS
 62
     5
 10
448.634
 20
395.507
 30
0.0
  0
VERTEX
  5
731
  8
0
  6
CONTINUOUS
 62
     5
 10
448.637
 20
395.533
 30
0.0
  0
VERTEX
  5
732
  8
0
  6
CONTINUOUS
 62
     5
 10
448.639
 20
395.559
 30
0.0
  0
VERTEX
  5
733
  8
0
  6
CONTINUOUS
 62
     5
 10
448.64
 20
395.585
 30
0.0
  0
VERTEX
  5
734
  8
0
  6
CONTINUOUS
 62
     5
 10
448.639
 20
395.612
 30
0.0
  0
VERTEX
  5
735
  8
0
  6
CONTINUOUS
 62
     5
 10
448.638
 20
395.638
 30
0.0
  0
VERTEX
  5
736
  8
0
  6
CONTINUOUS
 62
     5
 10
448.635
 20
395.665
 30
0.0
  0
VERTEX
  5
737
  8
0
  6
CONTINUOUS
 62
     5
 10
448.632
 20
395.691
 30
0.0
  0
VERTEX
  5
738
  8
0
  6
CONTINUOUS
 62
     5
 10
448.628
 20
395.717
 30
0.0
  0
VERTEX
  5
739
  8
0
  6
CONTINUOUS
 62
     5
 10
448.623
 20
395.743
 30
0.0
  0
VERTEX
  5
73A
  8
0
  6
CONTINUOUS
 62
     5
 10
448.618
 20
395.769
 30
0.0
  0
VERTEX
  5
73B
  8
0
  6
CONTINUOUS
 62
     5
 10
448.611
 20
395.795
 30
0.0
  0
VERTEX
  5
73C
  8
0
  6
CONTINUOUS
 62
     5
 10
448.605
 20
395.821
 30
0.0
  0
VERTEX
  5
73D
  8
0
  6
CONTINUOUS
 62
     5
 10
448.598
 20
395.847
 30
0.0
  0
VERTEX
  5
73E
  8
0
  6
CONTINUOUS
 62
     5
 10
448.59
 20
395.872
 30
0.0
  0
VERTEX
  5
73F
  8
0
  6
CONTINUOUS
 62
     5
 10
448.582
 20
395.897
 30
0.0
  0
VERTEX
  5
740
  8
0
  6
CONTINUOUS
 62
     5
 10
448.573
 20
395.922
 30
0.0
  0
VERTEX
  5
741
  8
0
  6
CONTINUOUS
 62
     5
 10
448.564
 20
395.946
 30
0.0
  0
VERTEX
  5
742
  8
0
  6
CONTINUOUS
 62
     5
 10
448.554
 20
395.971
 30
0.0
  0
VERTEX
  5
743
  8
0
  6
CONTINUOUS
 62
     5
 10
448.543
 20
395.995
 30
0.0
  0
VERTEX
  5
744
  8
0
  6
CONTINUOUS
 62
     5
 10
448.532
 20
396.018
 30
0.0
  0
VERTEX
  5
745
  8
0
  6
CONTINUOUS
 62
     5
 10
448.52
 20
396.042
 30
0.0
  0
VERTEX
  5
746
  8
0
  6
CONTINUOUS
 62
     5
 10
448.508
 20
396.065
 30
0.0
  0
VERTEX
  5
747
  8
0
  6
CONTINUOUS
 62
     5
 10
448.495
 20
396.088
 30
0.0
  0
VERTEX
  5
748
  8
0
  6
CONTINUOUS
 62
     5
 10
448.481
 20
396.111
 30
0.0
  0
VERTEX
  5
749
  8
0
  6
CONTINUOUS
 62
     5
 10
448.467
 20
396.133
 30
0.0
  0
VERTEX
  5
74A
  8
0
  6
CONTINUOUS
 62
     5
 10
448.452
 20
396.154
 30
0.0
  0
VERTEX
  5
74B
  8
0
  6
CONTINUOUS
 62
     5
 10
448.436
 20
396.176
 30
0.0
  0
VERTEX
  5
74C
  8
0
  6
CONTINUOUS
 62
     5
 10
448.42
 20
396.196
 30
0.0
  0
VERTEX
  5
74D
  8
0
  6
CONTINUOUS
 62
     5
 10
448.403
 20
396.217
 30
0.0
  0
VERTEX
  5
74E
  8
0
  6
CONTINUOUS
 62
     5
 10
448.385
 20
396.236
 30
0.0
  0
VERTEX
  5
74F
  8
0
  6
CONTINUOUS
 62
     5
 10
448.367
 20
396.255
 30
0.0
  0
VERTEX
  5
750
  8
0
  6
CONTINUOUS
 62
     5
 10
448.348
 20
396.274
 30
0.0
  0
VERTEX
  5
751
  8
0
  6
CONTINUOUS
 62
     5
 10
448.329
 20
396.292
 30
0.0
  0
VERTEX
  5
752
  8
0
  6
CONTINUOUS
 62
     5
 10
448.309
 20
396.309
 30
0.0
  0
VERTEX
  5
753
  8
0
  6
CONTINUOUS
 62
     5
 10
448.289
 20
396.326
 30
0.0
  0
VERTEX
  5
754
  8
0
  6
CONTINUOUS
 62
     5
 10
448.269
 20
396.343
 30
0.0
  0
VERTEX
  5
755
  8
0
  6
CONTINUOUS
 62
     5
 10
448.248
 20
396.359
 30
0.0
  0
VERTEX
  5
756
  8
0
  6
CONTINUOUS
 62
     5
 10
448.226
 20
396.374
 30
0.0
  0
VERTEX
  5
757
  8
0
  6
CONTINUOUS
 62
     5
 10
448.205
 20
396.389
 30
0.0
  0
VERTEX
  5
758
  8
0
  6
CONTINUOUS
 62
     5
 10
448.182
 20
396.404
 30
0.0
  0
VERTEX
  5
759
  8
0
  6
CONTINUOUS
 62
     5
 10
448.16
 20
396.418
 30
0.0
  0
VERTEX
  5
75A
  8
0
  6
CONTINUOUS
 62
     5
 10
448.137
 20
396.431
 30
0.0
  0
VERTEX
  5
75B
  8
0
  6
CONTINUOUS
 62
     5
 10
448.114
 20
396.444
 30
0.0
  0
VERTEX
  5
75C
  8
0
  6
CONTINUOUS
 62
     5
 10
448.091
 20
396.456
 30
0.0
  0
VERTEX
  5
75D
  8
0
  6
CONTINUOUS
 62
     5
 10
448.067
 20
396.468
 30
0.0
  0
VERTEX
  5
75E
  8
0
  6
CONTINUOUS
 62
     5
 10
448.043
 20
396.478
 30
0.0
  0
VERTEX
  5
75F
  8
0
  6
CONTINUOUS
 62
     5
 10
448.019
 20
396.489
 30
0.0
  0
VERTEX
  5
760
  8
0
  6
CONTINUOUS
 62
     5
 10
447.995
 20
396.499
 30
0.0
  0
VERTEX
  5
761
  8
0
  6
CONTINUOUS
 62
     5
 10
447.97
 20
396.508
 30
0.0
  0
VERTEX
  5
762
  8
0
  6
CONTINUOUS
 62
     5
 10
447.945
 20
396.517
 30
0.0
  0
VERTEX
  5
763
  8
0
  6
CONTINUOUS
 62
     5
 10
447.92
 20
396.525
 30
0.0
  0
VERTEX
  5
764
  8
0
  6
CONTINUOUS
 62
     5
 10
447.895
 20
396.533
 30
0.0
  0
VERTEX
  5
765
  8
0
  6
CONTINUOUS
 62
     5
 10
447.87
 20
396.54
 30
0.0
  0
VERTEX
  5
766
  8
0
  6
CONTINUOUS
 62
     5
 10
447.845
 20
396.547
 30
0.0
  0
VERTEX
  5
767
  8
0
  6
CONTINUOUS
 62
     5
 10
447.819
 20
396.554
 30
0.0
  0
VERTEX
  5
768
  8
0
  6
CONTINUOUS
 62
     5
 10
447.794
 20
396.561
 30
0.0
  0
VERTEX
  5
769
  8
0
  6
CONTINUOUS
 62
     5
 10
447.768
 20
396.567
 30
0.0
  0
VERTEX
  5
76A
  8
0
  6
CONTINUOUS
 62
     5
 10
447.742
 20
396.573
 30
0.0
  0
VERTEX
  5
76B
  8
0
  6
CONTINUOUS
 62
     5
 10
447.716
 20
396.578
 30
0.0
  0
VERTEX
  5
76C
  8
0
  6
CONTINUOUS
 62
     5
 10
447.691
 20
396.583
 30
0.0
  0
VERTEX
  5
76D
  8
0
  6
CONTINUOUS
 62
     5
 10
447.665
 20
396.588
 30
0.0
  0
VERTEX
  5
76E
  8
0
  6
CONTINUOUS
 62
     5
 10
447.639
 20
396.592
 30
0.0
  0
VERTEX
  5
76F
  8
0
  6
CONTINUOUS
 62
     5
 10
447.613
 20
396.597
 30
0.0
  0
VERTEX
  5
770
  8
0
  6
CONTINUOUS
 62
     5
 10
447.587
 20
396.6
 30
0.0
  0
VERTEX
  5
771
  8
0
  6
CONTINUOUS
 62
     5
 10
447.561
 20
396.604
 30
0.0
  0
VERTEX
  5
772
  8
0
  6
CONTINUOUS
 62
     5
 10
447.535
 20
396.607
 30
0.0
  0
VERTEX
  5
773
  8
0
  6
CONTINUOUS
 62
     5
 10
447.508
 20
396.61
 30
0.0
  0
VERTEX
  5
774
  8
0
  6
CONTINUOUS
 62
     5
 10
447.482
 20
396.612
 30
0.0
  0
VERTEX
  5
775
  8
0
  6
CONTINUOUS
 62
     5
 10
447.456
 20
396.614
 30
0.0
  0
VERTEX
  5
776
  8
0
  6
CONTINUOUS
 62
     5
 10
447.43
 20
396.616
 30
0.0
  0
VERTEX
  5
777
  8
0
  6
CONTINUOUS
 62
     5
 10
447.404
 20
396.617
 30
0.0
  0
VERTEX
  5
778
  8
0
  6
CONTINUOUS
 62
     5
 10
447.377
 20
396.618
 30
0.0
  0
VERTEX
  5
779
  8
0
  6
CONTINUOUS
 62
     5
 10
447.351
 20
396.619
 30
0.0
  0
VERTEX
  5
77A
  8
0
  6
CONTINUOUS
 62
     5
 10
447.325
 20
396.62
 30
0.0
  0
VERTEX
  5
77B
  8
0
  6
CONTINUOUS
 62
     5
 10
447.298
 20
396.62
 30
0.0
  0
VERTEX
  5
77C
  8
0
  6
CONTINUOUS
 62
     5
 10
447.272
 20
396.621
 30
0.0
  0
VERTEX
  5
77D
  8
0
  6
CONTINUOUS
 62
     5
 10
447.246
 20
396.621
 30
0.0
  0
VERTEX
  5
77E
  8
0
  6
CONTINUOUS
 62
     5
 10
447.219
 20
396.62
 30
0.0
  0
VERTEX
  5
77F
  8
0
  6
CONTINUOUS
 62
     5
 10
447.193
 20
396.62
 30
0.0
  0
VERTEX
  5
780
  8
0
  6
CONTINUOUS
 62
     5
 10
447.167
 20
396.619
 30
0.0
  0
VERTEX
  5
781
  8
0
  6
CONTINUOUS
 62
     5
 10
447.14
 20
396.619
 30
0.0
  0
VERTEX
  5
782
  8
0
  6
CONTINUOUS
 62
     5
 10
447.114
 20
396.617
 30
0.0
  0
VERTEX
  5
783
  8
0
  6
CONTINUOUS
 62
     5
 10
447.088
 20
396.616
 30
0.0
  0
VERTEX
  5
784
  8
0
  6
CONTINUOUS
 62
     5
 10
447.061
 20
396.615
 30
0.0
  0
VERTEX
  5
785
  8
0
  6
CONTINUOUS
 62
     5
 10
447.035
 20
396.613
 30
0.0
  0
VERTEX
  5
786
  8
0
  6
CONTINUOUS
 62
     5
 10
447.009
 20
396.611
 30
0.0
  0
VERTEX
  5
787
  8
0
  6
CONTINUOUS
 62
     5
 10
446.983
 20
396.608
 30
0.0
  0
VERTEX
  5
788
  8
0
  6
CONTINUOUS
 62
     5
 10
446.957
 20
396.605
 30
0.0
  0
VERTEX
  5
789
  8
0
  6
CONTINUOUS
 62
     5
 10
446.93
 20
396.602
 30
0.0
  0
VERTEX
  5
78A
  8
0
  6
CONTINUOUS
 62
     5
 10
446.904
 20
396.599
 30
0.0
  0
VERTEX
  5
78B
  8
0
  6
CONTINUOUS
 62
     5
 10
446.878
 20
396.596
 30
0.0
  0
VERTEX
  5
78C
  8
0
  6
CONTINUOUS
 62
     5
 10
446.852
 20
396.592
 30
0.0
  0
VERTEX
  5
78D
  8
0
  6
CONTINUOUS
 62
     5
 10
446.826
 20
396.587
 30
0.0
  0
VERTEX
  5
78E
  8
0
  6
CONTINUOUS
 62
     5
 10
446.8
 20
396.583
 30
0.0
  0
VERTEX
  5
78F
  8
0
  6
CONTINUOUS
 62
     5
 10
446.774
 20
396.578
 30
0.0
  0
VERTEX
  5
790
  8
0
  6
CONTINUOUS
 62
     5
 10
446.749
 20
396.573
 30
0.0
  0
VERTEX
  5
791
  8
0
  6
CONTINUOUS
 62
     5
 10
446.723
 20
396.567
 30
0.0
  0
VERTEX
  5
792
  8
0
  6
CONTINUOUS
 62
     5
 10
446.697
 20
396.561
 30
0.0
  0
VERTEX
  5
793
  8
0
  6
CONTINUOUS
 62
     5
 10
446.672
 20
396.555
 30
0.0
  0
VERTEX
  5
794
  8
0
  6
CONTINUOUS
 62
     5
 10
446.646
 20
396.548
 30
0.0
  0
VERTEX
  5
795
  8
0
  6
CONTINUOUS
 62
     5
 10
446.621
 20
396.541
 30
0.0
  0
VERTEX
  5
796
  8
0
  6
CONTINUOUS
 62
     5
 10
446.596
 20
396.534
 30
0.0
  0
VERTEX
  5
797
  8
0
  6
CONTINUOUS
 62
     5
 10
446.57
 20
396.526
 30
0.0
  0
VERTEX
  5
798
  8
0
  6
CONTINUOUS
 62
     5
 10
446.545
 20
396.518
 30
0.0
  0
VERTEX
  5
799
  8
0
  6
CONTINUOUS
 62
     5
 10
446.52
 20
396.509
 30
0.0
  0
VERTEX
  5
79A
  8
0
  6
CONTINUOUS
 62
     5
 10
446.496
 20
396.5
 30
0.0
  0
VERTEX
  5
79B
  8
0
  6
CONTINUOUS
 62
     5
 10
446.471
 20
396.491
 30
0.0
  0
VERTEX
  5
79C
  8
0
  6
CONTINUOUS
 62
     5
 10
446.447
 20
396.48
 30
0.0
  0
VERTEX
  5
79D
  8
0
  6
CONTINUOUS
 62
     5
 10
446.423
 20
396.47
 30
0.0
  0
VERTEX
  5
79E
  8
0
  6
CONTINUOUS
 62
     5
 10
446.399
 20
396.459
 30
0.0
  0
VERTEX
  5
79F
  8
0
  6
CONTINUOUS
 62
     5
 10
446.375
 20
396.447
 30
0.0
  0
VERTEX
  5
7A0
  8
0
  6
CONTINUOUS
 62
     5
 10
446.352
 20
396.435
 30
0.0
  0
VERTEX
  5
7A1
  8
0
  6
CONTINUOUS
 62
     5
 10
446.329
 20
396.421
 30
0.0
  0
VERTEX
  5
7A2
  8
0
  6
CONTINUOUS
 62
     5
 10
446.307
 20
396.408
 30
0.0
  0
VERTEX
  5
7A3
  8
0
  6
CONTINUOUS
 62
     5
 10
446.284
 20
396.393
 30
0.0
  0
VERTEX
  5
7A4
  8
0
  6
CONTINUOUS
 62
     5
 10
446.263
 20
396.378
 30
0.0
  0
VERTEX
  5
7A5
  8
0
  6
CONTINUOUS
 62
     5
 10
446.241
 20
396.363
 30
0.0
  0
VERTEX
  5
7A6
  8
0
  6
CONTINUOUS
 62
     5
 10
446.221
 20
396.347
 30
0.0
  0
VERTEX
  5
7A7
  8
0
  6
CONTINUOUS
 62
     5
 10
446.2
 20
396.33
 30
0.0
  0
VERTEX
  5
7A8
  8
0
  6
CONTINUOUS
 62
     5
 10
446.181
 20
396.312
 30
0.0
  0
VERTEX
  5
7A9
  8
0
  6
CONTINUOUS
 62
     5
 10
446.161
 20
396.294
 30
0.0
  0
VERTEX
  5
7AA
  8
0
  6
CONTINUOUS
 62
     5
 10
446.143
 20
396.276
 30
0.0
  0
VERTEX
  5
7AB
  8
0
  6
CONTINUOUS
 62
     5
 10
446.125
 20
396.256
 30
0.0
  0
VERTEX
  5
7AC
  8
0
  6
CONTINUOUS
 62
     5
 10
446.107
 20
396.237
 30
0.0
  0
VERTEX
  5
7AD
  8
0
  6
CONTINUOUS
 62
     5
 10
446.09
 20
396.217
 30
0.0
  0
VERTEX
  5
7AE
  8
0
  6
CONTINUOUS
 62
     5
 10
446.074
 20
396.196
 30
0.0
  0
VERTEX
  5
7AF
  8
0
  6
CONTINUOUS
 62
     5
 10
446.058
 20
396.175
 30
0.0
  0
VERTEX
  5
7B0
  8
0
  6
CONTINUOUS
 62
     5
 10
446.043
 20
396.153
 30
0.0
  0
VERTEX
  5
7B1
  8
0
  6
CONTINUOUS
 62
     5
 10
446.028
 20
396.131
 30
0.0
  0
VERTEX
  5
7B2
  8
0
  6
CONTINUOUS
 62
     5
 10
446.015
 20
396.109
 30
0.0
  0
VERTEX
  5
7B3
  8
0
  6
CONTINUOUS
 62
     5
 10
446.001
 20
396.086
 30
0.0
  0
VERTEX
  5
7B4
  8
0
  6
CONTINUOUS
 62
     5
 10
445.988
 20
396.063
 30
0.0
  0
VERTEX
  5
7B5
  8
0
  6
CONTINUOUS
 62
     5
 10
445.976
 20
396.04
 30
0.0
  0
VERTEX
  5
7B6
  8
0
  6
CONTINUOUS
 62
     5
 10
445.965
 20
396.016
 30
0.0
  0
VERTEX
  5
7B7
  8
0
  6
CONTINUOUS
 62
     5
 10
445.954
 20
395.992
 30
0.0
  0
VERTEX
  5
7B8
  8
0
  6
CONTINUOUS
 62
     5
 10
445.944
 20
395.968
 30
0.0
  0
VERTEX
  5
7B9
  8
0
  6
CONTINUOUS
 62
     5
 10
445.934
 20
395.943
 30
0.0
  0
VERTEX
  5
7BA
  8
0
  6
CONTINUOUS
 62
     5
 10
445.925
 20
395.919
 30
0.0
  0
VERTEX
  5
7BB
  8
0
  6
CONTINUOUS
 62
     5
 10
445.916
 20
395.894
 30
0.0
  0
VERTEX
  5
7BC
  8
0
  6
CONTINUOUS
 62
     5
 10
445.908
 20
395.868
 30
0.0
  0
VERTEX
  5
7BD
  8
0
  6
CONTINUOUS
 62
     5
 10
445.901
 20
395.843
 30
0.0
  0
VERTEX
  5
7BE
  8
0
  6
CONTINUOUS
 62
     5
 10
445.895
 20
395.818
 30
0.0
  0
VERTEX
  5
7BF
  8
0
  6
CONTINUOUS
 62
     5
 10
445.889
 20
395.792
 30
0.0
  0
VERTEX
  5
7C0
  8
0
  6
CONTINUOUS
 62
     5
 10
445.884
 20
395.766
 30
0.0
  0
VERTEX
  5
7C1
  8
0
  6
CONTINUOUS
 62
     5
 10
445.879
 20
395.74
 30
0.0
  0
VERTEX
  5
7C2
  8
0
  6
CONTINUOUS
 62
     5
 10
445.875
 20
395.714
 30
0.0
  0
VERTEX
  5
7C3
  8
0
  6
CONTINUOUS
 62
     5
 10
445.873
 20
395.688
 30
0.0
  0
VERTEX
  5
7C4
  8
0
  6
CONTINUOUS
 62
     5
 10
445.87
 20
395.662
 30
0.0
  0
VERTEX
  5
7C5
  8
0
  6
CONTINUOUS
 62
     5
 10
445.869
 20
395.635
 30
0.0
  0
VERTEX
  5
7C6
  8
0
  6
CONTINUOUS
 62
     5
 10
445.868
 20
395.609
 30
0.0
  0
VERTEX
  5
7C7
  8
0
  6
CONTINUOUS
 62
     5
 10
445.868
 20
395.583
 30
0.0
  0
VERTEX
  5
7C8
  8
0
  6
CONTINUOUS
 62
     5
 10
445.869
 20
395.556
 30
0.0
  0
VERTEX
  5
7C9
  8
0
  6
CONTINUOUS
 62
     5
 10
445.87
 20
395.53
 30
0.0
  0
VERTEX
  5
7CA
  8
0
  6
CONTINUOUS
 62
     5
 10
445.873
 20
395.504
 30
0.0
  0
VERTEX
  5
7CB
  8
0
  6
CONTINUOUS
 62
     5
 10
445.876
 20
395.477
 30
0.0
  0
VERTEX
  5
7CC
  8
0
  6
CONTINUOUS
 62
     5
 10
445.88
 20
395.451
 30
0.0
  0
VERTEX
  5
7CD
  8
0
  6
CONTINUOUS
 62
     5
 10
445.885
 20
395.425
 30
0.0
  0
VERTEX
  5
7CE
  8
0
  6
CONTINUOUS
 62
     5
 10
445.89
 20
395.4
 30
0.0
  0
VERTEX
  5
7CF
  8
0
  6
CONTINUOUS
 62
     5
 10
445.897
 20
395.374
 30
0.0
  0
VERTEX
  5
7D0
  8
0
  6
CONTINUOUS
 62
     5
 10
445.904
 20
395.349
 30
0.0
  0
VERTEX
  5
7D1
  8
0
  6
CONTINUOUS
 62
     5
 10
445.912
 20
395.324
 30
0.0
  0
VERTEX
  5
7D2
  8
0
  6
CONTINUOUS
 62
     5
 10
445.921
 20
395.299
 30
0.0
  0
VERTEX
  5
7D3
  8
0
  6
CONTINUOUS
 62
     5
 10
445.93
 20
395.274
 30
0.0
  0
VERTEX
  5
7D4
  8
0
  6
CONTINUOUS
 62
     5
 10
445.94
 20
395.25
 30
0.0
  0
VERTEX
  5
7D5
  8
0
  6
CONTINUOUS
 62
     5
 10
445.95
 20
395.225
 30
0.0
  0
VERTEX
  5
7D6
  8
0
  6
CONTINUOUS
 62
     5
 10
445.96
 20
395.201
 30
0.0
  0
VERTEX
  5
7D7
  8
0
  6
CONTINUOUS
 62
     5
 10
445.972
 20
395.177
 30
0.0
  0
VERTEX
  5
7D8
  8
0
  6
CONTINUOUS
 62
     5
 10
445.983
 20
395.154
 30
0.0
  0
VERTEX
  5
7D9
  8
0
  6
CONTINUOUS
 62
     5
 10
445.996
 20
395.131
 30
0.0
  0
VERTEX
  5
7DA
  8
0
  6
CONTINUOUS
 62
     5
 10
446.009
 20
395.108
 30
0.0
  0
VERTEX
  5
7DB
  8
0
  6
CONTINUOUS
 62
     5
 10
446.022
 20
395.085
 30
0.0
  0
VERTEX
  5
7DC
  8
0
  6
CONTINUOUS
 62
     5
 10
446.036
 20
395.063
 30
0.0
  0
VERTEX
  5
7DD
  8
0
  6
CONTINUOUS
 62
     5
 10
446.051
 20
395.042
 30
0.0
  0
VERTEX
  5
7DE
  8
0
  6
CONTINUOUS
 62
     5
 10
446.067
 20
395.02
 30
0.0
  0
VERTEX
  5
7DF
  8
0
  6
CONTINUOUS
 62
     5
 10
446.083
 20
394.999
 30
0.0
  0
VERTEX
  5
7E0
  8
0
  6
CONTINUOUS
 62
     5
 10
446.099
 20
394.979
 30
0.0
  0
VERTEX
  5
7E1
  8
0
  6
CONTINUOUS
 62
     5
 10
446.116
 20
394.958
 30
0.0
  0
VERTEX
  5
7E2
  8
0
  6
CONTINUOUS
 62
     5
 10
446.133
 20
394.938
 30
0.0
  0
VERTEX
  5
7E3
  8
0
  6
CONTINUOUS
 62
     5
 10
446.151
 20
394.919
 30
0.0
  0
VERTEX
  5
7E4
  8
0
  6
CONTINUOUS
 62
     5
 10
446.169
 20
394.899
 30
0.0
  0
VERTEX
  5
7E5
  8
0
  6
CONTINUOUS
 62
     5
 10
446.188
 20
394.881
 30
0.0
  0
VERTEX
  5
7E6
  8
0
  6
CONTINUOUS
 62
     5
 10
446.207
 20
394.863
 30
0.0
  0
VERTEX
  5
7E7
  8
0
  6
CONTINUOUS
 62
     5
 10
446.227
 20
394.846
 30
0.0
  0
VERTEX
  5
7E8
  8
0
  6
CONTINUOUS
 62
     5
 10
446.248
 20
394.829
 30
0.0
  0
VERTEX
  5
7E9
  8
0
  6
CONTINUOUS
 62
     5
 10
446.269
 20
394.814
 30
0.0
  0
VERTEX
  5
7EA
  8
0
  6
CONTINUOUS
 62
     5
 10
446.29
 20
394.799
 30
0.0
  0
VERTEX
  5
7EB
  8
0
  6
CONTINUOUS
 62
     5
 10
446.313
 20
394.785
 30
0.0
  0
VERTEX
  5
7EC
  8
0
  6
CONTINUOUS
 62
     5
 10
446.335
 20
394.772
 30
0.0
  0
VERTEX
  5
7ED
  8
0
  6
CONTINUOUS
 62
     5
 10
446.359
 20
394.759
 30
0.0
  0
VERTEX
  5
7EE
  8
0
  6
CONTINUOUS
 62
     5
 10
446.382
 20
394.747
 30
0.0
  0
VERTEX
  5
7EF
  8
0
  6
CONTINUOUS
 62
     5
 10
446.406
 20
394.735
 30
0.0
  0
VERTEX
  5
7F0
  8
0
  6
CONTINUOUS
 62
     5
 10
446.43
 20
394.724
 30
0.0
  0
VERTEX
  5
7F1
  8
0
  6
CONTINUOUS
 62
     5
 10
446.454
 20
394.713
 30
0.0
  0
VERTEX
  5
7F2
  8
0
  6
CONTINUOUS
 62
     5
 10
446.478
 20
394.702
 30
0.0
  0
VERTEX
  5
7F3
  8
0
  6
CONTINUOUS
 62
     5
 10
446.502
 20
394.692
 30
0.0
  0
VERTEX
  5
7F4
  8
0
  6
CONTINUOUS
 62
     5
 10
446.527
 20
394.682
 30
0.0
  0
VERTEX
  5
7F5
  8
0
  6
CONTINUOUS
 62
     5
 10
446.551
 20
394.673
 30
0.0
  0
VERTEX
  5
7F6
  8
0
  6
CONTINUOUS
 62
     5
 10
446.576
 20
394.664
 30
0.0
  0
VERTEX
  5
7F7
  8
0
  6
CONTINUOUS
 62
     5
 10
446.601
 20
394.655
 30
0.0
  0
VERTEX
  5
7F8
  8
0
  6
CONTINUOUS
 62
     5
 10
446.626
 20
394.647
 30
0.0
  0
VERTEX
  5
7F9
  8
0
  6
CONTINUOUS
 62
     5
 10
446.651
 20
394.639
 30
0.0
  0
VERTEX
  5
7FA
  8
0
  6
CONTINUOUS
 62
     5
 10
446.676
 20
394.631
 30
0.0
  0
VERTEX
  5
7FB
  8
0
  6
CONTINUOUS
 62
     5
 10
446.701
 20
394.624
 30
0.0
  0
VERTEX
  5
7FC
  8
0
  6
CONTINUOUS
 62
     5
 10
446.727
 20
394.618
 30
0.0
  0
VERTEX
  5
7FD
  8
0
  6
CONTINUOUS
 62
     5
 10
446.752
 20
394.612
 30
0.0
  0
VERTEX
  5
7FE
  8
0
  6
CONTINUOUS
 62
     5
 10
446.778
 20
394.606
 30
0.0
  0
VERTEX
  5
7FF
  8
0
  6
CONTINUOUS
 62
     5
 10
446.804
 20
394.601
 30
0.0
  0
VERTEX
  5
800
  8
0
  6
CONTINUOUS
 62
     5
 10
446.83
 20
394.596
 30
0.0
  0
VERTEX
  5
801
  8
0
  6
CONTINUOUS
 62
     5
 10
446.856
 20
394.591
 30
0.0
  0
VERTEX
  5
802
  8
0
  6
CONTINUOUS
 62
     5
 10
446.882
 20
394.587
 30
0.0
  0
VERTEX
  5
803
  8
0
  6
CONTINUOUS
 62
     5
 10
446.908
 20
394.583
 30
0.0
  0
VERTEX
  5
804
  8
0
  6
CONTINUOUS
 62
     5
 10
446.934
 20
394.579
 30
0.0
  0
VERTEX
  5
805
  8
0
  6
CONTINUOUS
 62
     5
 10
446.96
 20
394.576
 30
0.0
  0
VERTEX
  5
806
  8
0
  6
CONTINUOUS
 62
     5
 10
446.986
 20
394.573
 30
0.0
  0
VERTEX
  5
807
  8
0
  6
CONTINUOUS
 62
     5
 10
447.012
 20
394.57
 30
0.0
  0
VERTEX
  5
808
  8
0
  6
CONTINUOUS
 62
     5
 10
447.038
 20
394.568
 30
0.0
  0
VERTEX
  5
809
  8
0
  6
CONTINUOUS
 62
     5
 10
447.065
 20
394.565
 30
0.0
  0
VERTEX
  5
80A
  8
0
  6
CONTINUOUS
 62
     5
 10
447.091
 20
394.563
 30
0.0
  0
VERTEX
  5
80B
  8
0
  6
CONTINUOUS
 62
     5
 10
447.117
 20
394.561
 30
0.0
  0
VERTEX
  5
80C
  8
0
  6
CONTINUOUS
 62
     5
 10
447.143
 20
394.56
 30
0.0
  0
VERTEX
  5
80D
  8
0
  6
CONTINUOUS
 62
     5
 10
447.17
 20
394.559
 30
0.0
  0
VERTEX
  5
80E
  8
0
  6
CONTINUOUS
 62
     5
 10
447.196
 20
394.558
 30
0.0
  0
VERTEX
  5
80F
  8
0
  6
CONTINUOUS
 62
     5
 10
447.222
 20
394.557
 30
0.0
  0
VERTEX
  5
810
  8
0
  6
CONTINUOUS
 62
     5
 10
447.249
 20
394.557
 30
0.0
  0
VERTEX
  5
811
  8
0
  6
CONTINUOUS
 62
     5
 10
447.275
 20
394.557
 30
0.0
  0
VERTEX
  5
812
  8
0
  6
CONTINUOUS
 62
     5
 10
447.301
 20
394.557
 30
0.0
  0
VERTEX
  5
813
  8
0
  6
CONTINUOUS
 62
     5
 10
447.327
 20
394.558
 30
0.0
  0
VERTEX
  5
814
  8
0
  6
CONTINUOUS
 62
     5
 10
447.354
 20
394.558
 30
0.0
  0
VERTEX
  5
815
  8
0
  6
CONTINUOUS
 62
     5
 10
447.38
 20
394.56
 30
0.0
  0
VERTEX
  5
816
  8
0
  6
CONTINUOUS
 62
     5
 10
447.406
 20
394.561
 30
0.0
  0
VERTEX
  5
817
  8
0
  6
CONTINUOUS
 62
     5
 10
447.433
 20
394.563
 30
0.0
  0
VERTEX
  5
818
  8
0
  6
CONTINUOUS
 62
     5
 10
447.459
 20
394.565
 30
0.0
  0
VERTEX
  5
819
  8
0
  6
CONTINUOUS
 62
     5
 10
447.485
 20
394.567
 30
0.0
  0
VERTEX
  5
81A
  8
0
  6
CONTINUOUS
 62
     5
 10
447.511
 20
394.569
 30
0.0
  0
VERTEX
  5
81B
  8
0
  6
CONTINUOUS
 62
     5
 10
447.537
 20
394.572
 30
0.0
  0
VERTEX
  5
81C
  8
0
  6
CONTINUOUS
 62
     5
 10
447.564
 20
394.575
 30
0.0
  0
VERTEX
  5
81D
  8
0
  6
CONTINUOUS
 62
     5
 10
447.59
 20
394.578
 30
0.0
  0
VERTEX
  5
81E
  8
0
  6
CONTINUOUS
 62
     5
 10
447.616
 20
394.582
 30
0.0
  0
VERTEX
  5
81F
  8
0
  6
CONTINUOUS
 62
     5
 10
447.642
 20
394.585
 30
0.0
  0
VERTEX
  5
820
  8
0
  6
CONTINUOUS
 62
     5
 10
447.668
 20
394.589
 30
0.0
  0
VERTEX
  5
821
  8
0
  6
CONTINUOUS
 62
     5
 10
447.694
 20
394.593
 30
0.0
  0
VERTEX
  5
822
  8
0
  6
CONTINUOUS
 62
     5
 10
447.72
 20
394.598
 30
0.0
  0
VERTEX
  5
823
  8
0
  6
CONTINUOUS
 62
     5
 10
447.746
 20
394.603
 30
0.0
  0
VERTEX
  5
824
  8
0
  6
CONTINUOUS
 62
     5
 10
447.772
 20
394.608
 30
0.0
  0
VERTEX
  5
825
  8
0
  6
CONTINUOUS
 62
     5
 10
447.798
 20
394.613
 30
0.0
  0
VERTEX
  5
826
  8
0
  6
CONTINUOUS
 62
     5
 10
447.824
 20
394.619
 30
0.0
  0
VERTEX
  5
827
  8
0
  6
CONTINUOUS
 62
     5
 10
447.849
 20
394.625
 30
0.0
  0
VERTEX
  5
828
  8
0
  6
CONTINUOUS
 62
     5
 10
447.875
 20
394.632
 30
0.0
  0
VERTEX
  5
829
  8
0
  6
CONTINUOUS
 62
     5
 10
447.9
 20
394.639
 30
0.0
  0
VERTEX
  5
82A
  8
0
  6
CONTINUOUS
 62
     5
 10
447.925
 20
394.646
 30
0.0
  0
VERTEX
  5
82B
  8
0
  6
CONTINUOUS
 62
     5
 10
447.95
 20
394.654
 30
0.0
  0
VERTEX
  5
82C
  8
0
  6
CONTINUOUS
 62
     5
 10
447.975
 20
394.663
 30
0.0
  0
VERTEX
  5
82D
  8
0
  6
CONTINUOUS
 62
     5
 10
448.0
 20
394.672
 30
0.0
  0
VERTEX
  5
82E
  8
0
  6
CONTINUOUS
 62
     5
 10
448.024
 20
394.681
 30
0.0
  0
VERTEX
  5
82F
  8
0
  6
CONTINUOUS
 62
     5
 10
448.049
 20
394.691
 30
0.0
  0
VERTEX
  5
830
  8
0
  6
CONTINUOUS
 62
     5
 10
448.073
 20
394.702
 30
0.0
  0
VERTEX
  5
831
  8
0
  6
CONTINUOUS
 62
     5
 10
448.097
 20
394.712
 30
0.0
  0
VERTEX
  5
832
  8
0
  6
CONTINUOUS
 62
     5
 10
448.121
 20
394.723
 30
0.0
  0
VERTEX
  5
833
  8
0
  6
CONTINUOUS
 62
     5
 10
448.145
 20
394.735
 30
0.0
  0
VERTEX
  5
834
  8
0
  6
CONTINUOUS
 62
     5
 10
448.168
 20
394.746
 30
0.0
  0
VERTEX
  5
835
  8
0
  6
CONTINUOUS
 62
     5
 10
448.192
 20
394.758
 30
0.0
  0
VERTEX
  5
836
  8
0
  6
CONTINUOUS
 62
     5
 10
448.215
 20
394.77
 30
0.0
  0
VERTEX
  5
837
  8
0
  6
CONTINUOUS
 62
     5
 10
448.238
 20
394.783
 30
0.0
  0
VERTEX
  5
838
  8
0
  6
CONTINUOUS
 62
     5
 10
448.261
 20
394.797
 30
0.0
  0
VERTEX
  5
839
  8
0
  6
CONTINUOUS
 62
     5
 10
448.283
 20
394.811
 30
0.0
  0
VERTEX
  5
83A
  8
0
  6
CONTINUOUS
 62
     5
 10
448.304
 20
394.826
 30
0.0
  0
VERTEX
  5
83B
  8
0
  6
CONTINUOUS
 62
     5
 10
448.325
 20
394.842
 30
0.0
  0
VERTEX
  5
83C
  8
0
  6
CONTINUOUS
 62
     5
 10
448.346
 20
394.859
 30
0.0
  0
VERTEX
  5
83D
  8
0
  6
CONTINUOUS
 62
     5
 10
448.365
 20
394.876
 30
0.0
  0
VERTEX
  5
83E
  8
0
  6
CONTINUOUS
 62
     5
 10
448.384
 20
394.895
 30
0.0
  0
VERTEX
  5
83F
  8
0
  6
CONTINUOUS
 62
     5
 10
448.403
 20
394.914
 30
0.0
  0
VERTEX
  5
840
  8
0
  6
CONTINUOUS
 62
     5
 10
448.42
 20
394.933
 30
0.0
  0
VERTEX
  5
841
  8
0
  6
CONTINUOUS
 62
     5
 10
448.437
 20
394.954
 30
0.0
  0
VERTEX
  5
842
  8
0
  6
CONTINUOUS
 62
     5
 10
448.453
 20
394.975
 30
0.0
  0
VERTEX
  5
843
  8
0
  6
CONTINUOUS
 62
     5
 10
448.468
 20
394.996
 30
0.0
  0
VERTEX
  5
844
  8
0
  6
CONTINUOUS
 62
     5
 10
448.483
 20
395.018
 30
0.0
  0
VERTEX
  5
845
  8
0
  6
CONTINUOUS
 62
     5
 10
448.497
 20
395.04
 30
0.0
  0
VERTEX
  5
846
  8
0
  6
CONTINUOUS
 62
     5
 10
448.51
 20
395.063
 30
0.0
  0
VERTEX
  5
847
  8
0
  6
CONTINUOUS
 62
     5
 10
448.521
 20
395.087
 30
0.0
  0
VERTEX
  5
848
  8
0
  6
CONTINUOUS
 62
     5
 10
448.532
 20
395.111
 30
0.0
  0
VERTEX
  5
849
  8
0
  6
CONTINUOUS
 62
     5
 10
448.542
 20
395.135
 30
0.0
  0
VERTEX
  5
84A
  8
0
  6
CONTINUOUS
 62
     5
 10
448.55
 20
395.16
 30
0.0
  0
VERTEX
  5
84B
  8
0
  6
CONTINUOUS
 62
     5
 10
448.557
 20
395.186
 30
0.0
  0
VERTEX
  5
84C
  8
0
  6
CONTINUOUS
 62
     5
 10
448.563
 20
395.211
 30
0.0
  0
VERTEX
  5
84D
  8
0
  6
CONTINUOUS
 62
     5
 10
448.568
 20
395.237
 30
0.0
  0
SEQEND
  5
84E
  8
0
  6
CONTINUOUS
 62
     5
  0
LINE
  5
EB
  8
0
  6
CONTINUOUS
 62
     5
 10
448.568
 20
395.237
 30
0.0
 11
447.723
 21
395.237
 31
0.0
  0
POLYLINE
  5
EC
  8
0
  6
CONTINUOUS
 62
     5
 66
     1
 10
0.0
 20
0.0
 30
0.0
  0
VERTEX
  5
84F
  8
0
  6
CONTINUOUS
 62
     5
 10
446.774
 20
395.825
 30
0.0
  0
VERTEX
  5
850
  8
0
  6
CONTINUOUS
 62
     5
 10
446.777
 20
395.839
 30
0.0
  0
VERTEX
  5
851
  8
0
  6
CONTINUOUS
 62
     5
 10
446.781
 20
395.852
 30
0.0
  0
VERTEX
  5
852
  8
0
  6
CONTINUOUS
 62
     5
 10
446.785
 20
395.866
 30
0.0
  0
VERTEX
  5
853
  8
0
  6
CONTINUOUS
 62
     5
 10
446.79
 20
395.879
 30
0.0
  0
VERTEX
  5
854
  8
0
  6
CONTINUOUS
 62
     5
 10
446.796
 20
395.892
 30
0.0
  0
VERTEX
  5
855
  8
0
  6
CONTINUOUS
 62
     5
 10
446.802
 20
395.905
 30
0.0
  0
VERTEX
  5
856
  8
0
  6
CONTINUOUS
 62
     5
 10
446.808
 20
395.918
 30
0.0
  0
VERTEX
  5
857
  8
0
  6
CONTINUOUS
 62
     5
 10
446.815
 20
395.931
 30
0.0
  0
VERTEX
  5
858
  8
0
  6
CONTINUOUS
 62
     5
 10
446.823
 20
395.943
 30
0.0
  0
VERTEX
  5
859
  8
0
  6
CONTINUOUS
 62
     5
 10
446.831
 20
395.955
 30
0.0
  0
VERTEX
  5
85A
  8
0
  6
CONTINUOUS
 62
     5
 10
446.839
 20
395.967
 30
0.0
  0
VERTEX
  5
85B
  8
0
  6
CONTINUOUS
 62
     5
 10
446.848
 20
395.978
 30
0.0
  0
VERTEX
  5
85C
  8
0
  6
CONTINUOUS
 62
     5
 10
446.858
 20
395.989
 30
0.0
  0
VERTEX
  5
85D
  8
0
  6
CONTINUOUS
 62
     5
 10
446.867
 20
395.999
 30
0.0
  0
VERTEX
  5
85E
  8
0
  6
CONTINUOUS
 62
     5
 10
446.878
 20
396.01
 30
0.0
  0
VERTEX
  5
85F
  8
0
  6
CONTINUOUS
 62
     5
 10
446.888
 20
396.019
 30
0.0
  0
VERTEX
  5
860
  8
0
  6
CONTINUOUS
 62
     5
 10
446.899
 20
396.028
 30
0.0
  0
VERTEX
  5
861
  8
0
  6
CONTINUOUS
 62
     5
 10
446.911
 20
396.037
 30
0.0
  0
VERTEX
  5
862
  8
0
  6
CONTINUOUS
 62
     5
 10
446.922
 20
396.045
 30
0.0
  0
VERTEX
  5
863
  8
0
  6
CONTINUOUS
 62
     5
 10
446.935
 20
396.052
 30
0.0
  0
VERTEX
  5
864
  8
0
  6
CONTINUOUS
 62
     5
 10
446.947
 20
396.059
 30
0.0
  0
VERTEX
  5
865
  8
0
  6
CONTINUOUS
 62
     5
 10
446.959
 20
396.066
 30
0.0
  0
VERTEX
  5
866
  8
0
  6
CONTINUOUS
 62
     5
 10
446.972
 20
396.073
 30
0.0
  0
VERTEX
  5
867
  8
0
  6
CONTINUOUS
 62
     5
 10
446.985
 20
396.079
 30
0.0
  0
VERTEX
  5
868
  8
0
  6
CONTINUOUS
 62
     5
 10
446.997
 20
396.086
 30
0.0
  0
VERTEX
  5
869
  8
0
  6
CONTINUOUS
 62
     5
 10
447.01
 20
396.093
 30
0.0
  0
VERTEX
  5
86A
  8
0
  6
CONTINUOUS
 62
     5
 10
447.022
 20
396.1
 30
0.0
  0
VERTEX
  5
86B
  8
0
  6
CONTINUOUS
 62
     5
 10
447.034
 20
396.108
 30
0.0
  0
VERTEX
  5
86C
  8
0
  6
CONTINUOUS
 62
     5
 10
447.047
 20
396.115
 30
0.0
  0
VERTEX
  5
86D
  8
0
  6
CONTINUOUS
 62
     5
 10
447.059
 20
396.122
 30
0.0
  0
VERTEX
  5
86E
  8
0
  6
CONTINUOUS
 62
     5
 10
447.072
 20
396.128
 30
0.0
  0
VERTEX
  5
86F
  8
0
  6
CONTINUOUS
 62
     5
 10
447.085
 20
396.134
 30
0.0
  0
VERTEX
  5
870
  8
0
  6
CONTINUOUS
 62
     5
 10
447.098
 20
396.139
 30
0.0
  0
VERTEX
  5
871
  8
0
  6
CONTINUOUS
 62
     5
 10
447.112
 20
396.143
 30
0.0
  0
VERTEX
  5
872
  8
0
  6
CONTINUOUS
 62
     5
 10
447.126
 20
396.146
 30
0.0
  0
VERTEX
  5
873
  8
0
  6
CONTINUOUS
 62
     5
 10
447.14
 20
396.149
 30
0.0
  0
VERTEX
  5
874
  8
0
  6
CONTINUOUS
 62
     5
 10
447.154
 20
396.151
 30
0.0
  0
VERTEX
  5
875
  8
0
  6
CONTINUOUS
 62
     5
 10
447.168
 20
396.153
 30
0.0
  0
VERTEX
  5
876
  8
0
  6
CONTINUOUS
 62
     5
 10
447.182
 20
396.155
 30
0.0
  0
VERTEX
  5
877
  8
0
  6
CONTINUOUS
 62
     5
 10
447.197
 20
396.156
 30
0.0
  0
VERTEX
  5
878
  8
0
  6
CONTINUOUS
 62
     5
 10
447.211
 20
396.157
 30
0.0
  0
VERTEX
  5
879
  8
0
  6
CONTINUOUS
 62
     5
 10
447.226
 20
396.158
 30
0.0
  0
VERTEX
  5
87A
  8
0
  6
CONTINUOUS
 62
     5
 10
447.24
 20
396.158
 30
0.0
  0
VERTEX
  5
87B
  8
0
  6
CONTINUOUS
 62
     5
 10
447.254
 20
396.159
 30
0.0
  0
VERTEX
  5
87C
  8
0
  6
CONTINUOUS
 62
     5
 10
447.269
 20
396.158
 30
0.0
  0
VERTEX
  5
87D
  8
0
  6
CONTINUOUS
 62
     5
 10
447.283
 20
396.158
 30
0.0
  0
VERTEX
  5
87E
  8
0
  6
CONTINUOUS
 62
     5
 10
447.298
 20
396.157
 30
0.0
  0
VERTEX
  5
87F
  8
0
  6
CONTINUOUS
 62
     5
 10
447.312
 20
396.156
 30
0.0
  0
VERTEX
  5
880
  8
0
  6
CONTINUOUS
 62
     5
 10
447.326
 20
396.154
 30
0.0
  0
VERTEX
  5
881
  8
0
  6
CONTINUOUS
 62
     5
 10
447.34
 20
396.152
 30
0.0
  0
VERTEX
  5
882
  8
0
  6
CONTINUOUS
 62
     5
 10
447.355
 20
396.15
 30
0.0
  0
VERTEX
  5
883
  8
0
  6
CONTINUOUS
 62
     5
 10
447.369
 20
396.148
 30
0.0
  0
VERTEX
  5
884
  8
0
  6
CONTINUOUS
 62
     5
 10
447.383
 20
396.145
 30
0.0
  0
VERTEX
  5
885
  8
0
  6
CONTINUOUS
 62
     5
 10
447.397
 20
396.142
 30
0.0
  0
VERTEX
  5
886
  8
0
  6
CONTINUOUS
 62
     5
 10
447.411
 20
396.138
 30
0.0
  0
VERTEX
  5
887
  8
0
  6
CONTINUOUS
 62
     5
 10
447.425
 20
396.135
 30
0.0
  0
VERTEX
  5
888
  8
0
  6
CONTINUOUS
 62
     5
 10
447.438
 20
396.13
 30
0.0
  0
VERTEX
  5
889
  8
0
  6
CONTINUOUS
 62
     5
 10
447.452
 20
396.126
 30
0.0
  0
VERTEX
  5
88A
  8
0
  6
CONTINUOUS
 62
     5
 10
447.465
 20
396.121
 30
0.0
  0
VERTEX
  5
88B
  8
0
  6
CONTINUOUS
 62
     5
 10
447.479
 20
396.116
 30
0.0
  0
VERTEX
  5
88C
  8
0
  6
CONTINUOUS
 62
     5
 10
447.492
 20
396.11
 30
0.0
  0
VERTEX
  5
88D
  8
0
  6
CONTINUOUS
 62
     5
 10
447.505
 20
396.104
 30
0.0
  0
VERTEX
  5
88E
  8
0
  6
CONTINUOUS
 62
     5
 10
447.518
 20
396.098
 30
0.0
  0
VERTEX
  5
88F
  8
0
  6
CONTINUOUS
 62
     5
 10
447.53
 20
396.091
 30
0.0
  0
VERTEX
  5
890
  8
0
  6
CONTINUOUS
 62
     5
 10
447.543
 20
396.084
 30
0.0
  0
VERTEX
  5
891
  8
0
  6
CONTINUOUS
 62
     5
 10
447.555
 20
396.077
 30
0.0
  0
VERTEX
  5
892
  8
0
  6
CONTINUOUS
 62
     5
 10
447.567
 20
396.069
 30
0.0
  0
VERTEX
  5
893
  8
0
  6
CONTINUOUS
 62
     5
 10
447.579
 20
396.061
 30
0.0
  0
VERTEX
  5
894
  8
0
  6
CONTINUOUS
 62
     5
 10
447.59
 20
396.053
 30
0.0
  0
VERTEX
  5
895
  8
0
  6
CONTINUOUS
 62
     5
 10
447.602
 20
396.044
 30
0.0
  0
VERTEX
  5
896
  8
0
  6
CONTINUOUS
 62
     5
 10
447.613
 20
396.035
 30
0.0
  0
VERTEX
  5
897
  8
0
  6
CONTINUOUS
 62
     5
 10
447.623
 20
396.025
 30
0.0
  0
VERTEX
  5
898
  8
0
  6
CONTINUOUS
 62
     5
 10
447.634
 20
396.015
 30
0.0
  0
VERTEX
  5
899
  8
0
  6
CONTINUOUS
 62
     5
 10
447.644
 20
396.005
 30
0.0
  0
VERTEX
  5
89A
  8
0
  6
CONTINUOUS
 62
     5
 10
447.653
 20
395.994
 30
0.0
  0
VERTEX
  5
89B
  8
0
  6
CONTINUOUS
 62
     5
 10
447.662
 20
395.983
 30
0.0
  0
VERTEX
  5
89C
  8
0
  6
CONTINUOUS
 62
     5
 10
447.671
 20
395.971
 30
0.0
  0
VERTEX
  5
89D
  8
0
  6
CONTINUOUS
 62
     5
 10
447.679
 20
395.959
 30
0.0
  0
VERTEX
  5
89E
  8
0
  6
CONTINUOUS
 62
     5
 10
447.686
 20
395.947
 30
0.0
  0
VERTEX
  5
89F
  8
0
  6
CONTINUOUS
 62
     5
 10
447.693
 20
395.934
 30
0.0
  0
VERTEX
  5
8A0
  8
0
  6
CONTINUOUS
 62
     5
 10
447.699
 20
395.922
 30
0.0
  0
VERTEX
  5
8A1
  8
0
  6
CONTINUOUS
 62
     5
 10
447.704
 20
395.908
 30
0.0
  0
VERTEX
  5
8A2
  8
0
  6
CONTINUOUS
 62
     5
 10
447.709
 20
395.895
 30
0.0
  0
VERTEX
  5
8A3
  8
0
  6
CONTINUOUS
 62
     5
 10
447.713
 20
395.881
 30
0.0
  0
VERTEX
  5
8A4
  8
0
  6
CONTINUOUS
 62
     5
 10
447.717
 20
395.867
 30
0.0
  0
VERTEX
  5
8A5
  8
0
  6
CONTINUOUS
 62
     5
 10
447.72
 20
395.853
 30
0.0
  0
VERTEX
  5
8A6
  8
0
  6
CONTINUOUS
 62
     5
 10
447.722
 20
395.839
 30
0.0
  0
VERTEX
  5
8A7
  8
0
  6
CONTINUOUS
 62
     5
 10
447.723
 20
395.825
 30
0.0
  0
SEQEND
  5
8A8
  8
0
  6
CONTINUOUS
 62
     5
  0
LINE
  5
ED
  8
0
  6
CONTINUOUS
 62
     5
 10
447.723
 20
395.825
 30
0.0
 11
447.152
 21
395.825
 31
0.0
  0
LINE
  5
EE
  8
0
  6
CONTINUOUS
 62
     5
 10
447.152
 20
395.825
 30
0.0
 11
446.774
 21
395.825
 31
0.0
  0
LINE
  5
EF
  8
0
  6
CONTINUOUS
 62
     5
 10
439.089
 20
322.601
 30
0.0
 11
439.089
 21
323.356
 31
0.0
  0
ARC
  5
F0
  8
0
  6
CONTINUOUS
 62
     5
 10
-438.839
 20
325.088
 30
0.0
 40
1.749999999999972
 50
261.787
 51
98.213
210
0.0
220
0.0
230
-1.0
  0
LINE
  5
F1
  8
0
  6
CONTINUOUS
 62
     5
 10
439.089
 20
326.821
 30
0.0
 11
439.089
 21
327.576
 31
0.0
  0
ARC
  5
F2
  8
0
  6
CONTINUOUS
 62
     5
 10
438.839
 20
325.088
 30
0.0
 40
2.499999999999982
 50
84.261
 51
275.739
  0
LINE
  5
F3
  8
0
  6
CONTINUOUS
 62
     5
 10
443.339
 20
322.601
 30
0.0
 11
443.339
 21
323.356
 31
0.0
  0
ARC
  5
F4
  8
0
  6
CONTINUOUS
 62
     5
 10
-443.089
 20
325.088
 30
0.0
 40
1.750000000000005
 50
261.787
 51
347.626
210
0.0
220
0.0
230
-1.0
  0
LINE
  5
F5
  8
0
  6
CONTINUOUS
 62
     5
 10
441.38
 20
324.713
 30
0.0
 11
442.839
 21
324.713
 31
0.0
  0
LINE
  5
F6
  8
0
  6
CONTINUOUS
 62
     5
 10
442.839
 20
324.713
 30
0.0
 11
442.839
 21
325.463
 31
0.0
  0
LINE
  5
F7
  8
0
  6
CONTINUOUS
 62
     5
 10
442.839
 20
325.463
 30
0.0
 11
441.38
 21
325.463
 31
0.0
  0
ARC
  5
F8
  8
0
  6
CONTINUOUS
 62
     5
 10
-443.089
 20
325.088
 30
0.0
 40
1.749999999999989
 50
12.374
 51
98.213
210
0.0
220
0.0
230
-1.0
  0
LINE
  5
F9
  8
0
  6
CONTINUOUS
 62
     5
 10
443.339
 20
326.821
 30
0.0
 11
443.339
 21
327.576
 31
0.0
  0
ARC
  5
FA
  8
0
  6
CONTINUOUS
 62
     5
 10
443.089
 20
325.088
 30
0.0
 40
2.499999999999953
 50
84.261
 51
275.739
  0
LINE
  5
FB
  8
0
  6
CONTINUOUS
 62
     6
 10
482.41
 20
381.149
 30
0.0
 11
482.41
 21
340.149
 31
0.0
  0
LINE
  5
FC
  8
0
  6
CONTINUOUS
 62
     4
 10
452.91
 20
320.649
 30
0.0
 11
452.91
 21
320.149
 31
0.0
  0
ARC
  5
FD
  8
0
  6
CONTINUOUS
 62
     4
 10
451.41
 20
320.149
 30
0.0
 40
1.5
 50
270.0
 51
360.0
  0
LINE
  5
FE
  8
0
  6
CONTINUOUS
 62
     5
 10
425.61
 20
329.649
 30
0.0
 11
425.61
 21
320.649
 31
0.0
  0
LINE
  5
FF
  8
0
  6
CONTINUOUS
 62
     5
 10
425.61
 20
338.149
 30
0.0
 11
425.61
 21
331.649
 31
0.0
  0
LINE
  5
100
  8
0
  6
CONTINUOUS
 62
     5
 10
425.61
 20
389.649
 30
0.0
 11
425.61
 21
383.149
 31
0.0
  0
LINE
  5
101
  8
0
  6
CONTINUOUS
 62
     5
 10
482.41
 20
381.149
 30
0.0
 11
429.91
 21
381.149
 31
0.0
  0
LINE
  5
102
  8
0
  6
CONTINUOUS
 62
     5
 10
429.91
 20
340.149
 30
0.0
 11
482.41
 21
340.149
 31
0.0
  0
LINE
  5
103
  8
0
  6
CONTINUOUS
 62
     5
 10
427.405
 20
400.649
 30
0.0
 11
425.818
 21
391.649
 31
0.0
  0
LINE
  5
104
  8
0
  6
CONTINUOUS
 62
     5
 10
429.91
 20
381.149
 30
0.0
 11
429.91
 21
363.149
 31
0.0
  0
LINE
  5
105
  8
0
  6
CONTINUOUS
 62
     5
 10
429.91
 20
358.149
 30
0.0
 11
429.91
 21
340.149
 31
0.0
  0
LINE
  5
106
  8
0
  6
CONTINUOUS
 62
     4
 10
423.61
 20
342.649
 30
0.0
 11
423.61
 21
318.649
 31
0.0
  0
LINE
  5
107
  8
0
  6
CONTINUOUS
 62
     4
 10
423.61
 20
342.649
 30
0.0
 11
427.91
 21
342.649
 31
0.0
  0
LINE
  5
108
  8
0
  6
CONTINUOUS
 62
     4
 10
427.91
 20
378.149
 30
0.0
 11
427.91
 21
342.649
 31
0.0
  0
LINE
  5
109
  8
0
  6
CONTINUOUS
 62
     4
 10
425.726
 20
402.649
 30
0.0
 11
423.61
 21
390.649
 31
0.0
  0
LINE
  5
10A
  8
0
  6
CONTINUOUS
 62
     4
 10
425.726
 20
402.649
 30
0.0
 11
451.41
 21
402.649
 31
0.0
  0
ARC
  5
10B
  8
0
  6
CONTINUOUS
 62
     4
 10
451.41
 20
401.149
 30
0.0
 40
1.5
 50
0.0
 51
90.0
  0
LINE
  5
10C
  8
0
  6
CONTINUOUS
 62
     4
 10
452.91
 20
401.149
 30
0.0
 11
452.91
 21
400.649
 31
0.0
  0
LINE
  5
10D
  8
0
  6
CONTINUOUS
 62
     4
 10
452.91
 20
400.649
 30
0.0
 11
452.91
 21
391.649
 31
0.0
  0
LINE
  5
10E
  8
0
  6
CONTINUOUS
 62
     4
 10
451.41
 20
318.649
 30
0.0
 11
423.81
 21
318.649
 31
0.0
  0
LINE
  5
10F
  8
0
  6
CONTINUOUS
 62
     5
 10
452.71
 20
400.649
 30
0.0
 11
427.405
 21
400.649
 31
0.0
  0
LINE
  5
110
  8
0
  6
CONTINUOUS
 62
     5
 10
425.818
 20
391.649
 30
0.0
 11
452.71
 21
391.649
 31
0.0
  0
LINE
  5
111
  8
0
  6
CONTINUOUS
 62
     4
 10
423.81
 20
318.649
 30
0.0
 11
423.61
 21
318.649
 31
0.0
  0
LINE
  5
112
  8
0
  6
CONTINUOUS
 62
     4
 10
452.71
 20
400.649
 30
0.0
 11
452.91
 21
400.649
 31
0.0
  0
LINE
  5
113
  8
0
  6
CONTINUOUS
 62
     4
 10
452.71
 20
391.649
 30
0.0
 11
452.91
 21
391.649
 31
0.0
  0
LINE
  5
114
  8
0
  6
CONTINUOUS
 62
     4
 10
452.91
 20
391.649
 30
0.0
 11
469.91
 21
391.649
 31
0.0
  0
ARC
  5
115
  8
0
  6
CONTINUOUS
 62
     4
 10
469.91
 20
390.149
 30
0.0
 40
1.5
 50
0.0
 51
90.0
  0
LINE
  5
116
  8
0
  6
CONTINUOUS
 62
     4
 10
471.41
 20
390.149
 30
0.0
 11
471.41
 21
389.649
 31
0.0
  0
LINE
  5
117
  8
0
  6
CONTINUOUS
 62
     4
 10
471.41
 20
389.649
 30
0.0
 11
471.41
 21
383.149
 31
0.0
  0
LINE
  5
118
  8
0
  6
CONTINUOUS
 62
     4
 10
471.41
 20
383.149
 30
0.0
 11
482.41
 21
383.149
 31
0.0
  0
LINE
  5
119
  8
0
  6
CONTINUOUS
 62
     5
 10
471.21
 20
389.649
 30
0.0
 11
425.61
 21
389.649
 31
0.0
  0
LINE
  5
11A
  8
0
  6
CONTINUOUS
 62
     5
 10
425.61
 20
383.149
 30
0.0
 11
471.21
 21
383.149
 31
0.0
  0
LINE
  5
11B
  8
0
  6
CONTINUOUS
 62
     5
 10
471.21
 20
389.649
 30
0.0
 11
471.41
 21
389.649
 31
0.0
  0
LINE
  5
11C
  8
0
  6
CONTINUOUS
 62
     4
 10
471.21
 20
383.149
 30
0.0
 11
471.41
 21
383.149
 31
0.0
  0
LINE
  5
11D
  8
0
  6
CONTINUOUS
 62
     6
 10
482.41
 20
382.949
 30
0.0
 11
482.41
 21
383.149
 31
0.0
  0
LINE
  5
11E
  8
0
  6
CONTINUOUS
 62
     4
 10
452.91
 20
329.649
 30
0.0
 11
452.91
 21
320.649
 31
0.0
  0
LINE
  5
11F
  8
0
  6
CONTINUOUS
 62
     5
 10
452.71
 20
329.649
 30
0.0
 11
425.61
 21
329.649
 31
0.0
  0
LINE
  5
120
  8
0
  6
CONTINUOUS
 62
     5
 10
425.61
 20
320.649
 30
0.0
 11
452.71
 21
320.649
 31
0.0
  0
LINE
  5
121
  8
0
  6
CONTINUOUS
 62
     4
 10
452.71
 20
329.649
 30
0.0
 11
452.91
 21
329.649
 31
0.0
  0
LINE
  5
122
  8
0
  6
CONTINUOUS
 62
     4
 10
452.71
 20
320.649
 30
0.0
 11
452.91
 21
320.649
 31
0.0
  0
LINE
  5
123
  8
0
  6
CONTINUOUS
 62
     4
 10
469.91
 20
329.649
 30
0.0
 11
452.91
 21
329.649
 31
0.0
  0
ARC
  5
124
  8
0
  6
CONTINUOUS
 62
     4
 10
-469.91
 20
331.149
 30
0.0
 40
1.5
 50
180.0
 51
270.0
210
0.0
220
0.0
230
-1.0
  0
LINE
  5
125
  8
0
  6
CONTINUOUS
 62
     4
 10
471.41
 20
331.649
 30
0.0
 11
471.41
 21
331.149
 31
0.0
  0
LINE
  5
126
  8
0
  6
CONTINUOUS
 62
     5
 10
471.21
 20
338.149
 30
0.0
 11
425.61
 21
338.149
 31
0.0
  0
LINE
  5
127
  8
0
  6
CONTINUOUS
 62
     5
 10
425.61
 20
331.649
 30
0.0
 11
471.21
 21
331.649
 31
0.0
  0
LINE
  5
128
  8
0
  6
CONTINUOUS
 62
     4
 10
471.21
 20
338.149
 30
0.0
 11
471.41
 21
338.149
 31
0.0
  0
LINE
  5
129
  8
0
  6
CONTINUOUS
 62
     4
 10
471.21
 20
331.649
 30
0.0
 11
471.41
 21
331.649
 31
0.0
  0
LINE
  5
12A
  8
0
  6
CONTINUOUS
 62
     4
 10
482.41
 20
338.149
 30
0.0
 11
471.41
 21
338.149
 31
0.0
  0
LINE
  5
12B
  8
0
  6
CONTINUOUS
 62
     6
 10
482.41
 20
338.349
 30
0.0
 11
482.41
 21
338.149
 31
0.0
  0
LINE
  5
12C
  8
0
  6
CONTINUOUS
 62
     4
 10
423.61
 20
390.649
 30
0.0
 11
423.61
 21
379.649
 31
0.0
  0
LINE
  5
12D
  8
0
  6
CONTINUOUS
 62
     5
 10
426.71
 20
378.649
 30
0.0
 11
427.91
 21
378.649
 31
0.0
  0
LINE
  5
12E
  8
0
  6
CONTINUOUS
 62
     4
 10
423.61
 20
378.649
 30
0.0
 11
423.61
 21
379.649
 31
0.0
  0
LINE
  5
12F
  8
0
  6
CONTINUOUS
 62
     4
 10
424.765
 20
376.649
 30
0.0
 11
423.61
 21
378.649
 31
0.0
  0
LINE
  5
130
  8
0
  6
CONTINUOUS
 62
     4
 10
426.175
 20
376.649
 30
0.0
 11
424.765
 21
376.649
 31
0.0
  0
LINE
  5
131
  8
0
  6
CONTINUOUS
 62
     4
 10
426.576
 20
378.149
 30
0.0
 11
426.175
 21
376.649
 31
0.0
  0
LINE
  5
132
  8
0
  6
CONTINUOUS
 62
     4
 10
471.41
 20
338.149
 30
0.0
 11
471.41
 21
331.649
 31
0.0
  0
LINE
  5
133
  8
0
  6
CONTINUOUS
 62
     4
 10
401.384
 20
339.149
 30
0.0
 11
401.384
 21
338.349
 31
0.0
  0
LINE
  5
134
  8
0
  6
CONTINUOUS
 62
     4
 10
401.384
 20
340.149
 30
0.0
 11
401.384
 21
339.149
 31
0.0
  0
LINE
  5
135
  8
0
  6
CONTINUOUS
 62
     4
 10
401.384
 20
382.149
 30
0.0
 11
401.384
 21
382.949
 31
0.0
  0
ARC
  5
136
  8
0
  6
CONTINUOUS
 62
     6
 10
-401.184
 20
338.349
 30
0.0
 40
0.2000000029802322
 50
180.0
 51
270.0
210
0.0
220
0.0
230
-1.0
  0
LINE
  5
137
  8
0
  6
CONTINUOUS
 62
     6
 10
401.384
 20
339.149
 30
0.0
 11
401.184
 21
339.149
 31
0.0
  0
ARC
  5
138
  8
0
  6
CONTINUOUS
 62
     4
 10
401.184
 20
382.949
 30
0.0
 40
0.2000000029802322
 50
0.0
 51
90.0
  0
LINE
  5
139
  8
0
  6
CONTINUOUS
 62
     4
 10
384.284
 20
382.149
 30
0.0
 11
384.284
 21
382.949
 31
0.0
  0
LINE
  5
13A
  8
0
  6
CONTINUOUS
 62
     4
 10
384.284
 20
381.149
 30
0.0
 11
384.284
 21
382.149
 31
0.0
  0
LINE
  5
13B
  8
0
  6
CONTINUOUS
 62
     4
 10
384.284
 20
339.149
 30
0.0
 11
384.284
 21
338.349
 31
0.0
  0
LINE
  5
13C
  8
0
  6
CONTINUOUS
 62
     6
 10
401.184
 20
383.149
 30
0.0
 11
384.484
 21
383.149
 31
0.0
  0
ARC
  5
13D
  8
0
  6
CONTINUOUS
 62
     4
 10
384.484
 20
382.949
 30
0.0
 40
0.2000000029802322
 50
90.0
 51
180.0
  0
LINE
  5
13E
  8
0
  6
CONTINUOUS
 62
     6
 10
384.484
 20
339.149
 30
0.0
 11
401.184
 21
339.149
 31
0.0
  0
LINE
  5
13F
  8
0
  6
CONTINUOUS
 62
     6
 10
384.484
 20
338.149
 30
0.0
 11
401.184
 21
338.149
 31
0.0
  0
LINE
  5
140
  8
0
  6
CONTINUOUS
 62
     6
 10
384.484
 20
339.149
 30
0.0
 11
384.284
 21
339.149
 31
0.0
  0
ARC
  5
141
  8
0
  6
CONTINUOUS
 62
     6
 10
-384.484
 20
338.349
 30
0.0
 40
0.2000000029802322
 50
270.0
 51
0.0
210
0.0
220
0.0
230
-1.0
  0
LINE
  5
142
  8
0
  6
CONTINUOUS
 62
     6
 10
396.684
 20
340.049
 30
0.0
 11
398.284
 21
340.049
 31
0.0
  0
LINE
  5
143
  8
0
  6
CONTINUOUS
 62
     6
 10
398.284
 20
340.049
 30
0.0
 11
398.284
 21
342.249
 31
0.0
  0
LINE
  5
144
  8
0
  6
CONTINUOUS
 62
     6
 10
398.284
 20
342.249
 30
0.0
 11
396.684
 21
342.249
 31
0.0
  0
LINE
  5
145
  8
0
  6
CONTINUOUS
 62
     6
 10
396.684
 20
342.249
 30
0.0
 11
396.684
 21
340.049
 31
0.0
  0
LINE
  5
146
  8
0
  6
CONTINUOUS
 62
     6
 10
393.584
 20
342.249
 30
0.0
 11
393.584
 21
340.049
 31
0.0
  0
LINE
  5
147
  8
0
  6
CONTINUOUS
 62
     6
 10
393.584
 20
340.049
 30
0.0
 11
395.184
 21
340.049
 31
0.0
  0
LINE
  5
148
  8
0
  6
CONTINUOUS
 62
     6
 10
395.184
 20
340.049
 30
0.0
 11
395.184
 21
342.249
 31
0.0
  0
LINE
  5
149
  8
0
  6
CONTINUOUS
 62
     6
 10
395.184
 20
342.249
 30
0.0
 11
393.584
 21
342.249
 31
0.0
  0
LINE
  5
14A
  8
0
  6
CONTINUOUS
 62
     6
 10
387.284
 20
380.249
 30
0.0
 11
387.284
 21
378.249
 31
0.0
  0
LINE
  5
14B
  8
0
  6
CONTINUOUS
 62
     6
 10
392.084
 20
340.019
 30
0.0
 11
392.084
 21
342.219
 31
0.0
  0
LINE
  5
14C
  8
0
  6
CONTINUOUS
 62
     6
 10
392.084
 20
342.219
 30
0.0
 11
390.484
 21
342.219
 31
0.0
  0
LINE
  5
14D
  8
0
  6
CONTINUOUS
 62
     6
 10
390.484
 20
342.219
 30
0.0
 11
390.484
 21
340.019
 31
0.0
  0
LINE
  5
14E
  8
0
  6
CONTINUOUS
 62
     6
 10
390.484
 20
340.019
 30
0.0
 11
392.084
 21
340.019
 31
0.0
  0
LINE
  5
14F
  8
0
  6
CONTINUOUS
 62
     6
 10
387.384
 20
342.249
 30
0.0
 11
387.384
 21
340.049
 31
0.0
  0
LINE
  5
150
  8
0
  6
CONTINUOUS
 62
     6
 10
387.384
 20
340.049
 30
0.0
 11
388.984
 21
340.049
 31
0.0
  0
LINE
  5
151
  8
0
  6
CONTINUOUS
 62
     6
 10
388.984
 20
340.049
 30
0.0
 11
388.984
 21
342.249
 31
0.0
  0
LINE
  5
152
  8
0
  6
CONTINUOUS
 62
     6
 10
388.984
 20
342.249
 30
0.0
 11
387.384
 21
342.249
 31
0.0
  0
ARC
  5
153
  8
0
  6
CONTINUOUS
 62
     4
 10
-397.584
 20
316.099
 30
0.0
 40
0.7999999849599999
 50
180.0
 51
270.0
210
0.0
220
0.0
230
-1.0
  0
LINE
  5
154
  8
0
  6
CONTINUOUS
 62
     4
 10
397.584
 20
315.299
 30
0.0
 11
396.357
 21
315.299
 31
0.0
  0
LINE
  5
155
  8
0
  6
CONTINUOUS
 62
     4
 10
396.357
 20
315.299
 30
0.0
 11
394.424
 21
314.214
 31
0.0
  0
ARC
  5
156
  8
0
  6
CONTINUOUS
 62
     4
 10
-392.834
 20
317.049
 30
0.0
 40
3.249999938900002
 50
240.707
 51
299.622
210
0.0
220
0.0
230
-1.0
  0
LINE
  5
157
  8
0
  6
CONTINUOUS
 62
     4
 10
391.227
 20
314.224
 30
0.0
 11
389.336
 21
315.299
 31
0.0
  0
LINE
  5
158
  8
0
  6
CONTINUOUS
 62
     4
 10
389.336
 20
315.299
 30
0.0
 11
388.084
 21
315.299
 31
0.0
  0
ARC
  5
159
  8
0
  6
CONTINUOUS
 62
     4
 10
-388.084
 20
316.099
 30
0.0
 40
0.7999999849600017
 50
270.0
 51
360.0
210
0.0
220
0.0
230
-1.0
  0
LINE
  5
15A
  8
0
  6
CONTINUOUS
 62
     6
 10
396.334
 20
317.799
 30
0.0
 11
394.955
 21
317.799
 31
0.0
  0
ARC
  5
15B
  8
0
  6
CONTINUOUS
 62
     6
 10
392.834
 20
317.049
 30
0.0
 40
2.249999957700001
 50
134.674
 51
160.529
  0
ARC
  5
15C
  8
0
  6
CONTINUOUS
 62
     6
 10
392.834
 20
317.049
 30
0.0
 40
2.249999957700001
 50
19.471
 51
45.326
  0
LINE
  5
15D
  8
0
  6
CONTINUOUS
 62
     6
 10
390.712
 20
317.799
 30
0.0
 11
389.334
 21
317.799
 31
0.0
  0
LINE
  5
15E
  8
0
  6
CONTINUOUS
 62
     6
 10
389.334
 20
317.799
 30
0.0
 11
389.334
 21
316.299
 31
0.0
  0
LINE
  5
15F
  8
0
  6
CONTINUOUS
 62
     6
 10
389.334
 20
316.299
 30
0.0
 11
390.712
 21
316.299
 31
0.0
  0
ARC
  5
160
  8
0
  6
CONTINUOUS
 62
     6
 10
392.834
 20
317.049
 30
0.0
 40
2.249999957700001
 50
199.471
 51
340.529
  0
LINE
  5
161
  8
0
  6
CONTINUOUS
 62
     6
 10
394.955
 20
316.299
 30
0.0
 11
396.334
 21
316.299
 31
0.0
  0
LINE
  5
162
  8
0
  6
CONTINUOUS
 62
     6
 10
396.334
 20
316.299
 30
0.0
 11
396.334
 21
317.799
 31
0.0
  0
LINE
  5
163
  8
0
  6
CONTINUOUS
 62
     4
 10
398.384
 20
318.649
 30
0.0
 11
398.384
 21
316.099
 31
0.0
  0
LINE
  5
164
  8
0
  6
CONTINUOUS
 62
     4
 10
387.284
 20
318.649
 30
0.0
 11
387.284
 21
316.099
 31
0.0
  0
LINE
  5
165
  8
0
  6
CONTINUOUS
 62
     5
 10
387.929
 20
396.199
 30
0.0
 11
388.074
 21
395.361
 31
0.0
  0
LINE
  5
166
  8
0
  6
CONTINUOUS
 62
     5
 10
388.074
 20
395.361
 30
0.0
 11
389.353
 21
395.581
 31
0.0
  0
LINE
  5
167
  8
0
  6
CONTINUOUS
 62
     5
 10
389.353
 20
395.581
 30
0.0
 11
389.208
 21
396.42
 31
0.0
  0
LINE
  5
168
  8
0
  6
CONTINUOUS
 62
     5
 10
389.208
 20
396.42
 30
0.0
 11
390.047
 21
396.564
 31
0.0
  0
LINE
  5
169
  8
0
  6
CONTINUOUS
 62
     5
 10
389.827
 20
397.843
 30
0.0
 11
388.988
 21
397.698
 31
0.0
  0
LINE
  5
16A
  8
0
  6
CONTINUOUS
 62
     5
 10
388.988
 20
397.698
 30
0.0
 11
388.843
 21
398.537
 31
0.0
  0
LINE
  5
16B
  8
0
  6
CONTINUOUS
 62
     5
 10
388.843
 20
398.537
 30
0.0
 11
387.565
 21
398.317
 31
0.0
  0
LINE
  5
16C
  8
0
  6
CONTINUOUS
 62
     5
 10
387.565
 20
398.317
 30
0.0
 11
387.709
 21
397.478
 31
0.0
  0
LINE
  5
16D
  8
0
  6
CONTINUOUS
 62
     5
 10
387.709
 20
397.478
 30
0.0
 11
386.87
 21
397.334
 31
0.0
  0
LINE
  5
16E
  8
0
  6
CONTINUOUS
 62
     5
 10
387.091
 20
396.055
 30
0.0
 11
387.929
 21
396.199
 31
0.0
  0
LINE
  5
16F
  8
0
  6
CONTINUOUS
 62
     5
 10
387.929
 20
396.199
 30
0.0
 11
388.051
 21
396.371
 31
0.0
  0
LINE
  5
170
  8
0
  6
CONTINUOUS
 62
     5
 10
387.846
 20
396.336
 30
0.0
 11
388.051
 21
396.371
 31
0.0
  0
LINE
  5
171
  8
0
  6
CONTINUOUS
 62
     5
 10
387.091
 20
396.055
 30
0.0
 11
387.846
 21
396.336
 31
0.0
  0
LINE
  5
172
  8
0
  6
CONTINUOUS
 62
     5
 10
388.074
 20
395.361
 30
0.0
 11
388.086
 21
396.167
 31
0.0
  0
LINE
  5
173
  8
0
  6
CONTINUOUS
 62
     5
 10
388.051
 20
396.371
 30
0.0
 11
388.086
 21
396.167
 31
0.0
  0
LINE
  5
174
  8
0
  6
CONTINUOUS
 62
     5
 10
389.353
 20
395.581
 30
0.0
 11
389.071
 21
396.337
 31
0.0
  0
LINE
  5
175
  8
0
  6
CONTINUOUS
 62
     5
 10
388.086
 20
396.167
 30
0.0
 11
389.071
 21
396.337
 31
0.0
  0
LINE
  5
176
  8
0
  6
CONTINUOUS
 62
     5
 10
389.208
 20
396.42
 30
0.0
 11
389.036
 21
396.541
 31
0.0
  0
LINE
  5
177
  8
0
  6
CONTINUOUS
 62
     5
 10
389.071
 20
396.337
 30
0.0
 11
389.036
 21
396.541
 31
0.0
  0
LINE
  5
178
  8
0
  6
CONTINUOUS
 62
     5
 10
390.047
 20
396.564
 30
0.0
 11
389.24
 21
396.576
 31
0.0
  0
LINE
  5
179
  8
0
  6
CONTINUOUS
 62
     5
 10
389.036
 20
396.541
 30
0.0
 11
389.24
 21
396.576
 31
0.0
  0
LINE
  5
17A
  8
0
  6
CONTINUOUS
 62
     5
 10
389.827
 20
397.843
 30
0.0
 11
389.071
 21
397.562
 31
0.0
  0
LINE
  5
17B
  8
0
  6
CONTINUOUS
 62
     5
 10
389.24
 20
396.576
 30
0.0
 11
389.071
 21
397.562
 31
0.0
  0
LINE
  5
17C
  8
0
  6
CONTINUOUS
 62
     5
 10
388.988
 20
397.698
 30
0.0
 11
388.866
 21
397.527
 31
0.0
  0
LINE
  5
17D
  8
0
  6
CONTINUOUS
 62
     5
 10
389.071
 20
397.562
 30
0.0
 11
388.866
 21
397.527
 31
0.0
  0
LINE
  5
17E
  8
0
  6
CONTINUOUS
 62
     5
 10
388.843
 20
398.537
 30
0.0
 11
388.831
 21
397.731
 31
0.0
  0
LINE
  5
17F
  8
0
  6
CONTINUOUS
 62
     5
 10
388.866
 20
397.527
 30
0.0
 11
388.831
 21
397.731
 31
0.0
  0
LINE
  5
180
  8
0
  6
CONTINUOUS
 62
     5
 10
387.565
 20
398.317
 30
0.0
 11
387.846
 21
397.561
 31
0.0
  0
LINE
  5
181
  8
0
  6
CONTINUOUS
 62
     5
 10
388.831
 20
397.731
 30
0.0
 11
387.846
 21
397.561
 31
0.0
  0
LINE
  5
182
  8
0
  6
CONTINUOUS
 62
     5
 10
387.709
 20
397.478
 30
0.0
 11
387.881
 21
397.357
 31
0.0
  0
LINE
  5
183
  8
0
  6
CONTINUOUS
 62
     5
 10
387.846
 20
397.561
 30
0.0
 11
387.881
 21
397.357
 31
0.0
  0
LINE
  5
184
  8
0
  6
CONTINUOUS
 62
     5
 10
386.87
 20
397.334
 30
0.0
 11
387.677
 21
397.322
 31
0.0
  0
LINE
  5
185
  8
0
  6
CONTINUOUS
 62
     5
 10
387.881
 20
397.357
 30
0.0
 11
387.677
 21
397.322
 31
0.0
  0
LINE
  5
186
  8
0
  6
CONTINUOUS
 62
     5
 10
387.677
 20
397.322
 30
0.0
 11
387.846
 21
396.336
 31
0.0
  0
LINE
  5
187
  8
0
  6
CONTINUOUS
 62
     5
 10
389.869
 20
397.598
 30
0.0
 11
389.827
 21
397.843
 31
0.0
  0
LINE
  5
188
  8
0
  6
CONTINUOUS
 62
     5
 10
390.047
 20
396.564
 30
0.0
 11
390.005
 21
396.809
 31
0.0
  0
LINE
  5
189
  8
0
  6
CONTINUOUS
 62
     5
 10
386.87
 20
397.334
 30
0.0
 11
386.912
 21
397.088
 31
0.0
  0
LINE
  5
18A
  8
0
  6
CONTINUOUS
 62
     5
 10
387.048
 20
396.3
 30
0.0
 11
387.091
 21
396.055
 31
0.0
  0
LINE
  5
18B
  8
0
  6
CONTINUOUS
 62
     5
 10
389.869
 20
397.598
 30
0.0
 11
389.501
 21
397.534
 31
0.0
  0
LINE
  5
18C
  8
0
  6
CONTINUOUS
 62
     5
 10
390.005
 20
396.809
 30
0.0
 11
389.637
 21
396.746
 31
0.0
  0
LINE
  5
18D
  8
0
  6
CONTINUOUS
 62
     5
 10
389.501
 20
397.534
 30
0.0
 11
389.637
 21
396.746
 31
0.0
  0
LINE
  5
18E
  8
0
  6
CONTINUOUS
 62
     5
 10
386.912
 20
397.088
 30
0.0
 11
387.28
 21
397.152
 31
0.0
  0
LINE
  5
18F
  8
0
  6
CONTINUOUS
 62
     5
 10
387.048
 20
396.3
 30
0.0
 11
387.416
 21
396.363
 31
0.0
  0
LINE
  5
190
  8
0
  6
CONTINUOUS
 62
     5
 10
387.28
 20
397.152
 30
0.0
 11
387.416
 21
396.363
 31
0.0
  0
ARC
  5
191
  8
0
  6
CONTINUOUS
 62
     5
 10
-388.459
 20
396.949
 30
0.0
 40
2.3
 50
160.208
 51
170.223
210
0.0
220
0.0
230
-1.0
  0
ARC
  5
192
  8
0
  6
CONTINUOUS
 62
     5
 10
-388.459
 20
396.949
 30
0.0
 40
2.3
 50
350.223
 51
0.239
210
0.0
220
0.0
230
-1.0
  0
ARC
  5
193
  8
0
  6
CONTINUOUS
 62
     5
 10
388.459
 20
396.949
 30
0.0
 40
2.3
 50
359.761
 51
9.777
  0
ARC
  5
194
  8
0
  6
CONTINUOUS
 62
     5
 10
388.459
 20
396.949
 30
0.0
 40
2.3
 50
189.777
 51
199.792
  0
ARC
  5
195
  8
0
  6
CONTINUOUS
 62
     5
 10
388.459
 20
396.949
 30
0.0
 40
2.3
 50
199.792
 51
359.761
  0
LINE
  5
196
  8
0
  6
CONTINUOUS
 62
     5
 10
386.595
 20
396.222
 30
0.0
 11
387.048
 21
396.3
 31
0.0
  0
LINE
  5
197
  8
0
  6
CONTINUOUS
 62
     5
 10
390.005
 20
396.809
 30
0.0
 11
390.458
 21
396.887
 31
0.0
  0
ARC
  5
198
  8
0
  6
CONTINUOUS
 62
     5
 10
-388.459
 20
396.949
 30
0.0
 40
2.3
 50
0.239
 51
160.208
210
0.0
220
0.0
230
-1.0
  0
LINE
  5
199
  8
0
  6
CONTINUOUS
 62
     5
 10
386.912
 20
397.088
 30
0.0
 11
386.46
 21
397.01
 31
0.0
  0
LINE
  5
19A
  8
0
  6
CONTINUOUS
 62
     5
 10
390.322
 20
397.676
 30
0.0
 11
389.869
 21
397.598
 31
0.0
  0
LINE
  5
19B
  8
0
  6
CONTINUOUS
 62
     5
 10
386.595
 20
396.222
 30
0.0
 11
386.295
 21
396.17
 31
0.0
  0
LINE
  5
19C
  8
0
  6
CONTINUOUS
 62
     5
 10
390.458
 20
396.887
 30
0.0
 11
390.759
 21
396.939
 31
0.0
  0
LINE
  5
19D
  8
0
  6
CONTINUOUS
 62
     5
 10
386.46
 20
397.01
 30
0.0
 11
386.159
 21
396.958
 31
0.0
  0
LINE
  5
19E
  8
0
  6
CONTINUOUS
 62
     5
 10
390.623
 20
397.728
 30
0.0
 11
390.322
 21
397.676
 31
0.0
  0
LINE
  5
19F
  8
0
  6
CONTINUOUS
 62
     5
 10
396.679
 20
396.199
 30
0.0
 11
396.824
 21
395.361
 31
0.0
  0
LINE
  5
1A0
  8
0
  6
CONTINUOUS
 62
     5
 10
396.824
 20
395.361
 30
0.0
 11
398.103
 21
395.581
 31
0.0
  0
LINE
  5
1A1
  8
0
  6
CONTINUOUS
 62
     5
 10
398.103
 20
395.581
 30
0.0
 11
397.958
 21
396.42
 31
0.0
  0
LINE
  5
1A2
  8
0
  6
CONTINUOUS
 62
     5
 10
397.958
 20
396.42
 30
0.0
 11
398.797
 21
396.564
 31
0.0
  0
LINE
  5
1A3
  8
0
  6
CONTINUOUS
 62
     5
 10
398.577
 20
397.843
 30
0.0
 11
397.738
 21
397.698
 31
0.0
  0
LINE
  5
1A4
  8
0
  6
CONTINUOUS
 62
     5
 10
397.738
 20
397.698
 30
0.0
 11
397.593
 21
398.537
 31
0.0
  0
LINE
  5
1A5
  8
0
  6
CONTINUOUS
 62
     5
 10
397.593
 20
398.537
 30
0.0
 11
396.315
 21
398.317
 31
0.0
  0
LINE
  5
1A6
  8
0
  6
CONTINUOUS
 62
     5
 10
396.315
 20
398.317
 30
0.0
 11
396.459
 21
397.478
 31
0.0
  0
LINE
  5
1A7
  8
0
  6
CONTINUOUS
 62
     5
 10
396.459
 20
397.478
 30
0.0
 11
395.62
 21
397.334
 31
0.0
  0
LINE
  5
1A8
  8
0
  6
CONTINUOUS
 62
     5
 10
395.841
 20
396.055
 30
0.0
 11
396.679
 21
396.199
 31
0.0
  0
LINE
  5
1A9
  8
0
  6
CONTINUOUS
 62
     5
 10
396.679
 20
396.199
 30
0.0
 11
396.801
 21
396.371
 31
0.0
  0
LINE
  5
1AA
  8
0
  6
CONTINUOUS
 62
     5
 10
396.596
 20
396.336
 30
0.0
 11
396.801
 21
396.371
 31
0.0
  0
LINE
  5
1AB
  8
0
  6
CONTINUOUS
 62
     5
 10
395.841
 20
396.055
 30
0.0
 11
396.596
 21
396.336
 31
0.0
  0
LINE
  5
1AC
  8
0
  6
CONTINUOUS
 62
     5
 10
396.824
 20
395.361
 30
0.0
 11
396.836
 21
396.167
 31
0.0
  0
LINE
  5
1AD
  8
0
  6
CONTINUOUS
 62
     5
 10
396.801
 20
396.371
 30
0.0
 11
396.836
 21
396.167
 31
0.0
  0
LINE
  5
1AE
  8
0
  6
CONTINUOUS
 62
     5
 10
398.103
 20
395.581
 30
0.0
 11
397.821
 21
396.337
 31
0.0
  0
LINE
  5
1AF
  8
0
  6
CONTINUOUS
 62
     5
 10
396.836
 20
396.167
 30
0.0
 11
397.821
 21
396.337
 31
0.0
  0
LINE
  5
1B0
  8
0
  6
CONTINUOUS
 62
     5
 10
397.958
 20
396.42
 30
0.0
 11
397.786
 21
396.541
 31
0.0
  0
LINE
  5
1B1
  8
0
  6
CONTINUOUS
 62
     5
 10
397.821
 20
396.337
 30
0.0
 11
397.786
 21
396.541
 31
0.0
  0
LINE
  5
1B2
  8
0
  6
CONTINUOUS
 62
     5
 10
398.797
 20
396.564
 30
0.0
 11
397.99
 21
396.576
 31
0.0
  0
LINE
  5
1B3
  8
0
  6
CONTINUOUS
 62
     5
 10
397.786
 20
396.541
 30
0.0
 11
397.99
 21
396.576
 31
0.0
  0
LINE
  5
1B4
  8
0
  6
CONTINUOUS
 62
     5
 10
398.577
 20
397.843
 30
0.0
 11
397.821
 21
397.562
 31
0.0
  0
LINE
  5
1B5
  8
0
  6
CONTINUOUS
 62
     5
 10
397.99
 20
396.576
 30
0.0
 11
397.821
 21
397.562
 31
0.0
  0
LINE
  5
1B6
  8
0
  6
CONTINUOUS
 62
     5
 10
397.738
 20
397.698
 30
0.0
 11
397.616
 21
397.527
 31
0.0
  0
LINE
  5
1B7
  8
0
  6
CONTINUOUS
 62
     5
 10
397.821
 20
397.562
 30
0.0
 11
397.616
 21
397.527
 31
0.0
  0
LINE
  5
1B8
  8
0
  6
CONTINUOUS
 62
     5
 10
397.593
 20
398.537
 30
0.0
 11
397.581
 21
397.731
 31
0.0
  0
LINE
  5
1B9
  8
0
  6
CONTINUOUS
 62
     5
 10
397.616
 20
397.527
 30
0.0
 11
397.581
 21
397.731
 31
0.0
  0
LINE
  5
1BA
  8
0
  6
CONTINUOUS
 62
     5
 10
396.315
 20
398.317
 30
0.0
 11
396.596
 21
397.561
 31
0.0
  0
LINE
  5
1BB
  8
0
  6
CONTINUOUS
 62
     5
 10
397.581
 20
397.731
 30
0.0
 11
396.596
 21
397.561
 31
0.0
  0
LINE
  5
1BC
  8
0
  6
CONTINUOUS
 62
     5
 10
396.459
 20
397.478
 30
0.0
 11
396.631
 21
397.357
 31
0.0
  0
LINE
  5
1BD
  8
0
  6
CONTINUOUS
 62
     5
 10
396.596
 20
397.561
 30
0.0
 11
396.631
 21
397.357
 31
0.0
  0
LINE
  5
1BE
  8
0
  6
CONTINUOUS
 62
     5
 10
395.62
 20
397.334
 30
0.0
 11
396.427
 21
397.322
 31
0.0
  0
LINE
  5
1BF
  8
0
  6
CONTINUOUS
 62
     5
 10
396.631
 20
397.357
 30
0.0
 11
396.427
 21
397.322
 31
0.0
  0
LINE
  5
1C0
  8
0
  6
CONTINUOUS
 62
     5
 10
396.427
 20
397.322
 30
0.0
 11
396.596
 21
396.336
 31
0.0
  0
LINE
  5
1C1
  8
0
  6
CONTINUOUS
 62
     5
 10
398.619
 20
397.598
 30
0.0
 11
398.577
 21
397.843
 31
0.0
  0
LINE
  5
1C2
  8
0
  6
CONTINUOUS
 62
     5
 10
398.797
 20
396.564
 30
0.0
 11
398.755
 21
396.809
 31
0.0
  0
LINE
  5
1C3
  8
0
  6
CONTINUOUS
 62
     5
 10
395.62
 20
397.334
 30
0.0
 11
395.662
 21
397.088
 31
0.0
  0
LINE
  5
1C4
  8
0
  6
CONTINUOUS
 62
     5
 10
395.798
 20
396.3
 30
0.0
 11
395.841
 21
396.055
 31
0.0
  0
LINE
  5
1C5
  8
0
  6
CONTINUOUS
 62
     5
 10
398.619
 20
397.598
 30
0.0
 11
398.251
 21
397.534
 31
0.0
  0
LINE
  5
1C6
  8
0
  6
CONTINUOUS
 62
     5
 10
398.755
 20
396.809
 30
0.0
 11
398.387
 21
396.746
 31
0.0
  0
LINE
  5
1C7
  8
0
  6
CONTINUOUS
 62
     5
 10
398.251
 20
397.534
 30
0.0
 11
398.387
 21
396.746
 31
0.0
  0
LINE
  5
1C8
  8
0
  6
CONTINUOUS
 62
     5
 10
395.662
 20
397.088
 30
0.0
 11
396.03
 21
397.152
 31
0.0
  0
LINE
  5
1C9
  8
0
  6
CONTINUOUS
 62
     5
 10
395.798
 20
396.3
 30
0.0
 11
396.166
 21
396.363
 31
0.0
  0
LINE
  5
1CA
  8
0
  6
CONTINUOUS
 62
     5
 10
396.03
 20
397.152
 30
0.0
 11
396.166
 21
396.363
 31
0.0
  0
ARC
  5
1CB
  8
0
  6
CONTINUOUS
 62
     5
 10
-397.209
 20
396.949
 30
0.0
 40
2.3
 50
160.208
 51
170.223
210
0.0
220
0.0
230
-1.0
  0
ARC
  5
1CC
  8
0
  6
CONTINUOUS
 62
     5
 10
-397.209
 20
396.949
 30
0.0
 40
2.3
 50
350.223
 51
0.239
210
0.0
220
0.0
230
-1.0
  0
ARC
  5
1CD
  8
0
  6
CONTINUOUS
 62
     5
 10
397.209
 20
396.949
 30
0.0
 40
2.3
 50
359.761
 51
9.777
  0
ARC
  5
1CE
  8
0
  6
CONTINUOUS
 62
     5
 10
397.209
 20
396.949
 30
0.0
 40
2.3
 50
189.777
 51
199.792
  0
ARC
  5
1CF
  8
0
  6
CONTINUOUS
 62
     5
 10
397.209
 20
396.949
 30
0.0
 40
2.3
 50
199.792
 51
359.761
  0
LINE
  5
1D0
  8
0
  6
CONTINUOUS
 62
     5
 10
395.345
 20
396.222
 30
0.0
 11
395.798
 21
396.3
 31
0.0
  0
LINE
  5
1D1
  8
0
  6
CONTINUOUS
 62
     5
 10
398.755
 20
396.809
 30
0.0
 11
399.208
 21
396.887
 31
0.0
  0
ARC
  5
1D2
  8
0
  6
CONTINUOUS
 62
     5
 10
-397.209
 20
396.949
 30
0.0
 40
2.3
 50
0.239
 51
160.208
210
0.0
220
0.0
230
-1.0
  0
LINE
  5
1D3
  8
0
  6
CONTINUOUS
 62
     5
 10
395.662
 20
397.088
 30
0.0
 11
395.21
 21
397.01
 31
0.0
  0
LINE
  5
1D4
  8
0
  6
CONTINUOUS
 62
     5
 10
399.072
 20
397.676
 30
0.0
 11
398.619
 21
397.598
 31
0.0
  0
LINE
  5
1D5
  8
0
  6
CONTINUOUS
 62
     5
 10
395.345
 20
396.222
 30
0.0
 11
395.045
 21
396.17
 31
0.0
  0
LINE
  5
1D6
  8
0
  6
CONTINUOUS
 62
     5
 10
399.208
 20
396.887
 30
0.0
 11
399.509
 21
396.939
 31
0.0
  0
LINE
  5
1D7
  8
0
  6
CONTINUOUS
 62
     5
 10
395.21
 20
397.01
 30
0.0
 11
394.909
 21
396.958
 31
0.0
  0
LINE
  5
1D8
  8
0
  6
CONTINUOUS
 62
     5
 10
399.373
 20
397.728
 30
0.0
 11
399.072
 21
397.676
 31
0.0
  0
CIRCLE
  5
1D9
  8
0
  6
CONTINUOUS
 62
     6
 10
397.209
 20
396.849
 30
0.0
 40
2.5
  0
CIRCLE
  5
1DA
  8
0
  6
CONTINUOUS
 62
     6
 10
388.459
 20
396.849
 30
0.0
 40
2.5
  0
LINE
  5
1DB
  8
0
  6
CONTINUOUS
 62
     4
 10
401.584
 20
381.149
 30
0.0
 11
401.384
 21
381.149
 31
0.0
  0
LINE
  5
1DC
  8
0
  6
CONTINUOUS
 62
     4
 10
401.584
 20
340.149
 30
0.0
 11
401.384
 21
340.149
 31
0.0
  0
LINE
  5
1DD
  8
0
  6
CONTINUOUS
 62
     4
 10
401.584
 20
320.649
 30
0.0
 11
401.384
 21
320.649
 31
0.0
  0
LINE
  5
1DE
  8
0
  6
CONTINUOUS
 62
     4
 10
401.584
 20
340.149
 30
0.0
 11
401.584
 21
381.149
 31
0.0
  0
LINE
  5
1DF
  8
0
  6
CONTINUOUS
 62
     4
 10
401.584
 20
329.649
 30
0.0
 11
401.584
 21
320.649
 31
0.0
  0
LINE
  5
1E0
  8
0
  6
CONTINUOUS
 62
     4
 10
401.384
 20
320.649
 30
0.0
 11
401.384
 21
320.149
 31
0.0
  0
LINE
  5
1E1
  8
0
  6
CONTINUOUS
 62
     4
 10
401.584
 20
329.649
 30
0.0
 11
401.384
 21
329.649
 31
0.0
  0
LINE
  5
1E2
  8
0
  6
CONTINUOUS
 62
     4
 10
401.384
 20
320.149
 30
0.0
 11
401.384
 21
318.649
 31
0.0
  0
LINE
  5
1E3
  8
0
  6
CONTINUOUS
 62
     4
 10
384.084
 20
381.149
 30
0.0
 11
384.284
 21
381.149
 31
0.0
  0
LINE
  5
1E4
  8
0
  6
CONTINUOUS
 62
     4
 10
384.084
 20
340.149
 30
0.0
 11
384.284
 21
340.149
 31
0.0
  0
LINE
  5
1E5
  8
0
  6
CONTINUOUS
 62
     4
 10
384.084
 20
381.149
 30
0.0
 11
384.084
 21
340.149
 31
0.0
  0
LINE
  5
1E6
  8
0
  6
CONTINUOUS
 62
     4
 10
401.384
 20
318.649
 30
0.0
 11
384.284
 21
318.649
 31
0.0
  0
LINE
  5
1E7
  8
0
  6
CONTINUOUS
 62
     6
 10
401.384
 20
320.149
 30
0.0
 11
384.284
 21
320.149
 31
0.0
  0
LINE
  5
1E8
  8
0
  6
CONTINUOUS
 62
     4
 10
384.284
 20
320.649
 30
0.0
 11
384.284
 21
320.149
 31
0.0
  0
LINE
  5
1E9
  8
0
  6
CONTINUOUS
 62
     4
 10
384.284
 20
320.149
 30
0.0
 11
384.284
 21
318.649
 31
0.0
  0
CIRCLE
  5
1EA
  8
0
  6
CONTINUOUS
 62
     6
 10
397.209
 20
335.449
 30
0.0
 40
2.5
  0
CIRCLE
  5
1EB
  8
0
  6
CONTINUOUS
 62
     6
 10
388.459
 20
335.449
 30
0.0
 40
2.5
  0
LINE
  5
1EC
  8
0
  6
CONTINUOUS
 62
     4
 10
401.384
 20
401.149
 30
0.0
 11
401.384
 21
402.449
 31
0.0
  0
LINE
  5
1ED
  8
0
  6
CONTINUOUS
 62
     4
 10
401.384
 20
401.149
 30
0.0
 11
401.384
 21
400.649
 31
0.0
  0
LINE
  5
1EE
  8
0
  6
CONTINUOUS
 62
     4
 10
401.584
 20
400.649
 30
0.0
 11
401.584
 21
391.649
 31
0.0
  0
ARC
  5
1EF
  8
0
  6
CONTINUOUS
 62
     4
 10
-401.184
 20
402.449
 30
0.0
 40
0.2000000029802322
 50
90.0
 51
180.0
210
0.0
220
0.0
230
-1.0
  0
LINE
  5
1F0
  8
0
  6
CONTINUOUS
 62
     6
 10
401.184
 20
401.149
 30
0.0
 11
401.384
 21
401.149
 31
0.0
  0
LINE
  5
1F1
  8
0
  6
CONTINUOUS
 62
     4
 10
401.384
 20
400.649
 30
0.0
 11
401.584
 21
400.649
 31
0.0
  0
LINE
  5
1F2
  8
0
  6
CONTINUOUS
 62
     4
 10
401.384
 20
391.649
 30
0.0
 11
401.584
 21
391.649
 31
0.0
  0
LINE
  5
1F3
  8
0
  6
CONTINUOUS
 62
     4
 10
384.284
 20
401.149
 30
0.0
 11
384.284
 21
402.449
 31
0.0
  0
LINE
  5
1F4
  8
0
  6
CONTINUOUS
 62
     4
 10
384.284
 20
401.149
 30
0.0
 11
384.284
 21
400.649
 31
0.0
  0
LINE
  5
1F5
  8
0
  6
CONTINUOUS
 62
     4
 10
384.084
 20
400.649
 30
0.0
 11
384.084
 21
391.649
 31
0.0
  0
LINE
  5
1F6
  8
0
  6
CONTINUOUS
 62
     4
 10
401.184
 20
402.649
 30
0.0
 11
384.484
 21
402.649
 31
0.0
  0
ARC
  5
1F7
  8
0
  6
CONTINUOUS
 62
     4
 10
384.484
 20
402.449
 30
0.0
 40
0.2000000029802322
 50
90.0
 51
180.0
  0
LINE
  5
1F8
  8
0
  6
CONTINUOUS
 62
     6
 10
401.184
 20
401.149
 30
0.0
 11
384.484
 21
401.149
 31
0.0
  0
LINE
  5
1F9
  8
0
  6
CONTINUOUS
 62
     6
 10
384.484
 20
401.149
 30
0.0
 11
384.284
 21
401.149
 31
0.0
  0
LINE
  5
1FA
  8
0
  6
CONTINUOUS
 62
     4
 10
384.284
 20
400.649
 30
0.0
 11
384.084
 21
400.649
 31
0.0
  0
LINE
  5
1FB
  8
0
  6
CONTINUOUS
 62
     4
 10
384.284
 20
391.649
 30
0.0
 11
384.084
 21
391.649
 31
0.0
  0
LINE
  5
1FC
  8
0
  6
CONTINUOUS
 62
     4
 10
384.284
 20
390.149
 30
0.0
 11
384.284
 21
391.449
 31
0.0
  0
LINE
  5
1FD
  8
0
  6
CONTINUOUS
 62
     4
 10
384.284
 20
390.149
 30
0.0
 11
384.284
 21
389.649
 31
0.0
  0
LINE
  5
1FE
  8
0
  6
CONTINUOUS
 62
     4
 10
384.084
 20
389.649
 30
0.0
 11
384.084
 21
383.149
 31
0.0
  0
ARC
  5
1FF
  8
0
  6
CONTINUOUS
 62
     6
 10
-384.484
 20
391.449
 30
0.0
 40
0.2000000029802322
 50
0.0
 51
90.0
210
0.0
220
0.0
230
-1.0
  0
LINE
  5
200
  8
0
  6
CONTINUOUS
 62
     6
 10
384.484
 20
390.149
 30
0.0
 11
384.284
 21
390.149
 31
0.0
  0
LINE
  5
201
  8
0
  6
CONTINUOUS
 62
     4
 10
384.284
 20
391.649
 30
0.0
 11
384.284
 21
391.449
 31
0.0
  0
LINE
  5
202
  8
0
  6
CONTINUOUS
 62
     4
 10
384.284
 20
389.649
 30
0.0
 11
384.084
 21
389.649
 31
0.0
  0
LINE
  5
203
  8
0
  6
CONTINUOUS
 62
     4
 10
384.284
 20
383.149
 30
0.0
 11
384.084
 21
383.149
 31
0.0
  0
LINE
  5
204
  8
0
  6
CONTINUOUS
 62
     4
 10
384.284
 20
383.149
 30
0.0
 11
384.284
 21
382.949
 31
0.0
  0
LINE
  5
205
  8
0
  6
CONTINUOUS
 62
     4
 10
401.384
 20
390.149
 30
0.0
 11
401.384
 21
391.449
 31
0.0
  0
LINE
  5
206
  8
0
  6
CONTINUOUS
 62
     4
 10
401.384
 20
390.149
 30
0.0
 11
401.384
 21
389.649
 31
0.0
  0
LINE
  5
207
  8
0
  6
CONTINUOUS
 62
     6
 10
401.184
 20
391.649
 30
0.0
 11
384.484
 21
391.649
 31
0.0
  0
ARC
  5
208
  8
0
  6
CONTINUOUS
 62
     6
 10
-401.184
 20
391.449
 30
0.0
 40
0.2000000029802322
 50
90.0
 51
180.0
210
0.0
220
0.0
230
-1.0
  0
LINE
  5
209
  8
0
  6
CONTINUOUS
 62
     6
 10
401.184
 20
390.149
 30
0.0
 11
384.484
 21
390.149
 31
0.0
  0
LINE
  5
20A
  8
0
  6
CONTINUOUS
 62
     6
 10
401.184
 20
390.149
 30
0.0
 11
401.384
 21
390.149
 31
0.0
  0
LINE
  5
20B
  8
0
  6
CONTINUOUS
 62
     4
 10
401.384
 20
391.649
 30
0.0
 11
401.384
 21
391.449
 31
0.0
  0
LINE
  5
20C
  8
0
  6
CONTINUOUS
 62
     4
 10
401.584
 20
389.649
 30
0.0
 11
401.584
 21
383.149
 31
0.0
  0
LINE
  5
20D
  8
0
  6
CONTINUOUS
 62
     4
 10
401.384
 20
389.649
 30
0.0
 11
401.584
 21
389.649
 31
0.0
  0
LINE
  5
20E
  8
0
  6
CONTINUOUS
 62
     4
 10
401.384
 20
383.149
 30
0.0
 11
401.584
 21
383.149
 31
0.0
  0
LINE
  5
20F
  8
0
  6
CONTINUOUS
 62
     4
 10
401.384
 20
383.149
 30
0.0
 11
401.384
 21
382.949
 31
0.0
  0
LINE
  5
210
  8
0
  6
CONTINUOUS
 62
     4
 10
401.384
 20
338.149
 30
0.0
 11
401.384
 21
338.349
 31
0.0
  0
LINE
  5
211
  8
0
  6
CONTINUOUS
 62
     4
 10
401.584
 20
338.149
 30
0.0
 11
401.584
 21
331.649
 31
0.0
  0
LINE
  5
212
  8
0
  6
CONTINUOUS
 62
     4
 10
401.384
 20
338.149
 30
0.0
 11
401.584
 21
338.149
 31
0.0
  0
LINE
  5
213
  8
0
  6
CONTINUOUS
 62
     4
 10
401.384
 20
331.649
 30
0.0
 11
401.584
 21
331.649
 31
0.0
  0
LINE
  5
214
  8
0
  6
CONTINUOUS
 62
     4
 10
401.384
 20
331.649
 30
0.0
 11
401.384
 21
331.149
 31
0.0
  0
LINE
  5
215
  8
0
  6
CONTINUOUS
 62
     4
 10
401.384
 20
331.149
 30
0.0
 11
401.384
 21
329.849
 31
0.0
  0
LINE
  5
216
  8
0
  6
CONTINUOUS
 62
     6
 10
401.184
 20
331.149
 30
0.0
 11
401.384
 21
331.149
 31
0.0
  0
ARC
  5
217
  8
0
  6
CONTINUOUS
 62
     6
 10
401.184
 20
329.849
 30
0.0
 40
0.2000000029802322
 50
270.0
 51
360.0
  0
LINE
  5
218
  8
0
  6
CONTINUOUS
 62
     4
 10
401.384
 20
329.649
 30
0.0
 11
401.384
 21
329.849
 31
0.0
  0
LINE
  5
219
  8
0
  6
CONTINUOUS
 62
     4
 10
384.084
 20
329.649
 30
0.0
 11
384.084
 21
320.649
 31
0.0
  0
LINE
  5
21A
  8
0
  6
CONTINUOUS
 62
     4
 10
384.284
 20
329.649
 30
0.0
 11
384.084
 21
329.649
 31
0.0
  0
LINE
  5
21B
  8
0
  6
CONTINUOUS
 62
     4
 10
384.284
 20
320.649
 30
0.0
 11
384.084
 21
320.649
 31
0.0
  0
LINE
  5
21C
  8
0
  6
CONTINUOUS
 62
     4
 10
384.284
 20
331.149
 30
0.0
 11
384.284
 21
329.849
 31
0.0
  0
LINE
  5
21D
  8
0
  6
CONTINUOUS
 62
     4
 10
384.284
 20
331.649
 30
0.0
 11
384.284
 21
331.149
 31
0.0
  0
LINE
  5
21E
  8
0
  6
CONTINUOUS
 62
     6
 10
401.184
 20
329.649
 30
0.0
 11
384.484
 21
329.649
 31
0.0
  0
ARC
  5
21F
  8
0
  6
CONTINUOUS
 62
     6
 10
384.484
 20
329.849
 30
0.0
 40
0.2000000029802322
 50
180.0
 51
270.0
  0
LINE
  5
220
  8
0
  6
CONTINUOUS
 62
     6
 10
401.184
 20
331.149
 30
0.0
 11
384.484
 21
331.149
 31
0.0
  0
LINE
  5
221
  8
0
  6
CONTINUOUS
 62
     6
 10
384.484
 20
331.149
 30
0.0
 11
384.284
 21
331.149
 31
0.0
  0
LINE
  5
222
  8
0
  6
CONTINUOUS
 62
     4
 10
384.284
 20
329.649
 30
0.0
 11
384.284
 21
329.849
 31
0.0
  0
LINE
  5
223
  8
0
  6
CONTINUOUS
 62
     4
 10
384.084
 20
338.149
 30
0.0
 11
384.084
 21
331.649
 31
0.0
  0
LINE
  5
224
  8
0
  6
CONTINUOUS
 62
     4
 10
384.284
 20
338.149
 30
0.0
 11
384.084
 21
338.149
 31
0.0
  0
LINE
  5
225
  8
0
  6
CONTINUOUS
 62
     4
 10
384.284
 20
331.649
 30
0.0
 11
384.084
 21
331.649
 31
0.0
  0
LINE
  5
226
  8
0
  6
CONTINUOUS
 62
     4
 10
384.284
 20
338.149
 30
0.0
 11
384.284
 21
338.349
 31
0.0
  0
LINE
  5
227
  8
0
  6
CONTINUOUS
 62
     6
 10
389.284
 20
380.249
 30
0.0
 11
387.284
 21
380.249
 31
0.0
  0
LINE
  5
228
  8
0
  6
CONTINUOUS
 62
     6
 10
387.284
 20
378.249
 30
0.0
 11
389.284
 21
378.249
 31
0.0
  0
LINE
  5
229
  8
0
  6
CONTINUOUS
 62
     6
 10
389.284
 20
378.249
 30
0.0
 11
389.284
 21
380.249
 31
0.0
  0
LINE
  5
22A
  8
0
  6
CONTINUOUS
 62
     5
 10
388.988
 20
336.098
 30
0.0
 11
388.843
 21
336.937
 31
0.0
  0
LINE
  5
22B
  8
0
  6
CONTINUOUS
 62
     5
 10
388.843
 20
336.937
 30
0.0
 11
387.565
 21
336.717
 31
0.0
  0
LINE
  5
22C
  8
0
  6
CONTINUOUS
 62
     5
 10
387.565
 20
336.717
 30
0.0
 11
387.709
 21
335.878
 31
0.0
  0
LINE
  5
22D
  8
0
  6
CONTINUOUS
 62
     5
 10
387.709
 20
335.878
 30
0.0
 11
386.87
 21
335.733
 31
0.0
  0
LINE
  5
22E
  8
0
  6
CONTINUOUS
 62
     5
 10
387.091
 20
334.455
 30
0.0
 11
387.93
 21
334.599
 31
0.0
  0
LINE
  5
22F
  8
0
  6
CONTINUOUS
 62
     5
 10
387.93
 20
334.599
 30
0.0
 11
388.074
 21
333.76
 31
0.0
  0
LINE
  5
230
  8
0
  6
CONTINUOUS
 62
     5
 10
388.074
 20
333.76
 30
0.0
 11
389.353
 21
333.981
 31
0.0
  0
LINE
  5
231
  8
0
  6
CONTINUOUS
 62
     5
 10
389.353
 20
333.981
 30
0.0
 11
389.208
 21
334.82
 31
0.0
  0
LINE
  5
232
  8
0
  6
CONTINUOUS
 62
     5
 10
389.208
 20
334.82
 30
0.0
 11
390.047
 21
334.964
 31
0.0
  0
LINE
  5
233
  8
0
  6
CONTINUOUS
 62
     5
 10
389.827
 20
336.243
 30
0.0
 11
388.988
 21
336.098
 31
0.0
  0
LINE
  5
234
  8
0
  6
CONTINUOUS
 62
     5
 10
388.988
 20
336.098
 30
0.0
 11
388.867
 21
335.926
 31
0.0
  0
LINE
  5
235
  8
0
  6
CONTINUOUS
 62
     5
 10
389.071
 20
335.962
 30
0.0
 11
388.867
 21
335.926
 31
0.0
  0
LINE
  5
236
  8
0
  6
CONTINUOUS
 62
     5
 10
389.827
 20
336.243
 30
0.0
 11
389.071
 21
335.962
 31
0.0
  0
LINE
  5
237
  8
0
  6
CONTINUOUS
 62
     5
 10
388.843
 20
336.937
 30
0.0
 11
388.831
 21
336.131
 31
0.0
  0
LINE
  5
238
  8
0
  6
CONTINUOUS
 62
     5
 10
388.867
 20
335.926
 30
0.0
 11
388.831
 21
336.131
 31
0.0
  0
LINE
  5
239
  8
0
  6
CONTINUOUS
 62
     5
 10
387.565
 20
336.717
 30
0.0
 11
387.846
 21
335.961
 31
0.0
  0
LINE
  5
23A
  8
0
  6
CONTINUOUS
 62
     5
 10
388.831
 20
336.131
 30
0.0
 11
387.846
 21
335.961
 31
0.0
  0
LINE
  5
23B
  8
0
  6
CONTINUOUS
 62
     5
 10
387.709
 20
335.878
 30
0.0
 11
387.881
 21
335.757
 31
0.0
  0
LINE
  5
23C
  8
0
  6
CONTINUOUS
 62
     5
 10
387.846
 20
335.961
 30
0.0
 11
387.881
 21
335.757
 31
0.0
  0
LINE
  5
23D
  8
0
  6
CONTINUOUS
 62
     5
 10
386.87
 20
335.733
 30
0.0
 11
387.677
 21
335.721
 31
0.0
  0
LINE
  5
23E
  8
0
  6
CONTINUOUS
 62
     5
 10
387.881
 20
335.757
 30
0.0
 11
387.677
 21
335.721
 31
0.0
  0
LINE
  5
23F
  8
0
  6
CONTINUOUS
 62
     5
 10
387.091
 20
334.455
 30
0.0
 11
387.847
 21
334.736
 31
0.0
  0
LINE
  5
240
  8
0
  6
CONTINUOUS
 62
     5
 10
387.677
 20
335.721
 30
0.0
 11
387.847
 21
334.736
 31
0.0
  0
LINE
  5
241
  8
0
  6
CONTINUOUS
 62
     5
 10
387.93
 20
334.599
 30
0.0
 11
388.051
 21
334.771
 31
0.0
  0
LINE
  5
242
  8
0
  6
CONTINUOUS
 62
     5
 10
387.847
 20
334.736
 30
0.0
 11
388.051
 21
334.771
 31
0.0
  0
LINE
  5
243
  8
0
  6
CONTINUOUS
 62
     5
 10
388.074
 20
333.76
 30
0.0
 11
388.086
 21
334.567
 31
0.0
  0
LINE
  5
244
  8
0
  6
CONTINUOUS
 62
     5
 10
388.051
 20
334.771
 30
0.0
 11
388.086
 21
334.567
 31
0.0
  0
LINE
  5
245
  8
0
  6
CONTINUOUS
 62
     5
 10
389.353
 20
333.981
 30
0.0
 11
389.072
 21
334.737
 31
0.0
  0
LINE
  5
246
  8
0
  6
CONTINUOUS
 62
     5
 10
388.086
 20
334.567
 30
0.0
 11
389.072
 21
334.737
 31
0.0
  0
LINE
  5
247
  8
0
  6
CONTINUOUS
 62
     5
 10
389.208
 20
334.82
 30
0.0
 11
389.036
 21
334.941
 31
0.0
  0
LINE
  5
248
  8
0
  6
CONTINUOUS
 62
     5
 10
389.072
 20
334.737
 30
0.0
 11
389.036
 21
334.941
 31
0.0
  0
LINE
  5
249
  8
0
  6
CONTINUOUS
 62
     5
 10
390.047
 20
334.964
 30
0.0
 11
389.241
 21
334.976
 31
0.0
  0
LINE
  5
24A
  8
0
  6
CONTINUOUS
 62
     5
 10
389.036
 20
334.941
 30
0.0
 11
389.241
 21
334.976
 31
0.0
  0
LINE
  5
24B
  8
0
  6
CONTINUOUS
 62
     5
 10
389.241
 20
334.976
 30
0.0
 11
389.071
 21
335.962
 31
0.0
  0
LINE
  5
24C
  8
0
  6
CONTINUOUS
 62
     5
 10
387.048
 20
334.7
 30
0.0
 11
387.091
 21
334.455
 31
0.0
  0
LINE
  5
24D
  8
0
  6
CONTINUOUS
 62
     5
 10
386.87
 20
335.733
 30
0.0
 11
386.913
 21
335.488
 31
0.0
  0
LINE
  5
24E
  8
0
  6
CONTINUOUS
 62
     5
 10
390.047
 20
334.964
 30
0.0
 11
390.005
 21
335.209
 31
0.0
  0
LINE
  5
24F
  8
0
  6
CONTINUOUS
 62
     5
 10
389.869
 20
335.998
 30
0.0
 11
389.827
 21
336.243
 31
0.0
  0
LINE
  5
250
  8
0
  6
CONTINUOUS
 62
     5
 10
387.048
 20
334.7
 30
0.0
 11
387.416
 21
334.763
 31
0.0
  0
LINE
  5
251
  8
0
  6
CONTINUOUS
 62
     5
 10
386.913
 20
335.488
 30
0.0
 11
387.28
 21
335.552
 31
0.0
  0
LINE
  5
252
  8
0
  6
CONTINUOUS
 62
     5
 10
387.416
 20
334.763
 30
0.0
 11
387.28
 21
335.552
 31
0.0
  0
LINE
  5
253
  8
0
  6
CONTINUOUS
 62
     5
 10
390.005
 20
335.209
 30
0.0
 11
389.637
 21
335.146
 31
0.0
  0
LINE
  5
254
  8
0
  6
CONTINUOUS
 62
     5
 10
389.869
 20
335.998
 30
0.0
 11
389.501
 21
335.934
 31
0.0
  0
LINE
  5
255
  8
0
  6
CONTINUOUS
 62
     5
 10
389.637
 20
335.146
 30
0.0
 11
389.501
 21
335.934
 31
0.0
  0
ARC
  5
256
  8
0
  6
CONTINUOUS
 62
     5
 10
-388.459
 20
335.349
 30
0.0
 40
2.3
 50
340.208
 51
350.223
210
0.0
220
0.0
230
-1.0
  0
ARC
  5
257
  8
0
  6
CONTINUOUS
 62
     5
 10
-388.459
 20
335.349
 30
0.0
 40
2.3
 50
170.223
 51
180.239
210
0.0
220
0.0
230
-1.0
  0
ARC
  5
258
  8
0
  6
CONTINUOUS
 62
     5
 10
388.459
 20
335.349
 30
0.0
 40
2.3
 50
179.761
 51
189.777
  0
ARC
  5
259
  8
0
  6
CONTINUOUS
 62
     5
 10
388.459
 20
335.349
 30
0.0
 40
2.3
 50
9.777
 51
19.792
  0
ARC
  5
25A
  8
0
  6
CONTINUOUS
 62
     5
 10
388.459
 20
335.349
 30
0.0
 40
2.3
 50
19.792
 51
179.761
  0
LINE
  5
25B
  8
0
  6
CONTINUOUS
 62
     5
 10
390.322
 20
336.076
 30
0.0
 11
389.869
 21
335.998
 31
0.0
  0
LINE
  5
25C
  8
0
  6
CONTINUOUS
 62
     5
 10
386.913
 20
335.488
 30
0.0
 11
386.46
 21
335.41
 31
0.0
  0
ARC
  5
25D
  8
0
  6
CONTINUOUS
 62
     5
 10
-388.459
 20
335.349
 30
0.0
 40
2.3
 50
180.239
 51
340.208
210
0.0
220
0.0
230
-1.0
  0
LINE
  5
25E
  8
0
  6
CONTINUOUS
 62
     5
 10
390.005
 20
335.209
 30
0.0
 11
390.458
 21
335.287
 31
0.0
  0
LINE
  5
25F
  8
0
  6
CONTINUOUS
 62
     5
 10
386.595
 20
334.622
 30
0.0
 11
387.048
 21
334.7
 31
0.0
  0
LINE
  5
260
  8
0
  6
CONTINUOUS
 62
     5
 10
390.322
 20
336.076
 30
0.0
 11
390.623
 21
336.128
 31
0.0
  0
LINE
  5
261
  8
0
  6
CONTINUOUS
 62
     5
 10
386.46
 20
335.41
 30
0.0
 11
386.159
 21
335.358
 31
0.0
  0
LINE
  5
262
  8
0
  6
CONTINUOUS
 62
     5
 10
390.458
 20
335.287
 30
0.0
 11
390.759
 21
335.339
 31
0.0
  0
LINE
  5
263
  8
0
  6
CONTINUOUS
 62
     5
 10
386.295
 20
334.57
 30
0.0
 11
386.595
 21
334.622
 31
0.0
  0
LINE
  5
264
  8
0
  6
CONTINUOUS
 62
     5
 10
397.738
 20
336.098
 30
0.0
 11
397.593
 21
336.937
 31
0.0
  0
LINE
  5
265
  8
0
  6
CONTINUOUS
 62
     5
 10
397.593
 20
336.937
 30
0.0
 11
396.315
 21
336.717
 31
0.0
  0
LINE
  5
266
  8
0
  6
CONTINUOUS
 62
     5
 10
396.315
 20
336.717
 30
0.0
 11
396.459
 21
335.878
 31
0.0
  0
LINE
  5
267
  8
0
  6
CONTINUOUS
 62
     5
 10
396.459
 20
335.878
 30
0.0
 11
395.62
 21
335.733
 31
0.0
  0
LINE
  5
268
  8
0
  6
CONTINUOUS
 62
     5
 10
395.841
 20
334.455
 30
0.0
 11
396.68
 21
334.599
 31
0.0
  0
LINE
  5
269
  8
0
  6
CONTINUOUS
 62
     5
 10
396.68
 20
334.599
 30
0.0
 11
396.824
 21
333.76
 31
0.0
  0
LINE
  5
26A
  8
0
  6
CONTINUOUS
 62
     5
 10
396.824
 20
333.76
 30
0.0
 11
398.103
 21
333.981
 31
0.0
  0
LINE
  5
26B
  8
0
  6
CONTINUOUS
 62
     5
 10
398.103
 20
333.981
 30
0.0
 11
397.958
 21
334.82
 31
0.0
  0
LINE
  5
26C
  8
0
  6
CONTINUOUS
 62
     5
 10
397.958
 20
334.82
 30
0.0
 11
398.797
 21
334.964
 31
0.0
  0
LINE
  5
26D
  8
0
  6
CONTINUOUS
 62
     5
 10
398.577
 20
336.243
 30
0.0
 11
397.738
 21
336.098
 31
0.0
  0
LINE
  5
26E
  8
0
  6
CONTINUOUS
 62
     5
 10
397.738
 20
336.098
 30
0.0
 11
397.617
 21
335.926
 31
0.0
  0
LINE
  5
26F
  8
0
  6
CONTINUOUS
 62
     5
 10
397.821
 20
335.962
 30
0.0
 11
397.617
 21
335.926
 31
0.0
  0
LINE
  5
270
  8
0
  6
CONTINUOUS
 62
     5
 10
398.577
 20
336.243
 30
0.0
 11
397.821
 21
335.962
 31
0.0
  0
LINE
  5
271
  8
0
  6
CONTINUOUS
 62
     5
 10
397.593
 20
336.937
 30
0.0
 11
397.581
 21
336.131
 31
0.0
  0
LINE
  5
272
  8
0
  6
CONTINUOUS
 62
     5
 10
397.617
 20
335.926
 30
0.0
 11
397.581
 21
336.131
 31
0.0
  0
LINE
  5
273
  8
0
  6
CONTINUOUS
 62
     5
 10
396.315
 20
336.717
 30
0.0
 11
396.596
 21
335.961
 31
0.0
  0
LINE
  5
274
  8
0
  6
CONTINUOUS
 62
     5
 10
397.581
 20
336.131
 30
0.0
 11
396.596
 21
335.961
 31
0.0
  0
LINE
  5
275
  8
0
  6
CONTINUOUS
 62
     5
 10
396.459
 20
335.878
 30
0.0
 11
396.631
 21
335.757
 31
0.0
  0
LINE
  5
276
  8
0
  6
CONTINUOUS
 62
     5
 10
396.596
 20
335.961
 30
0.0
 11
396.631
 21
335.757
 31
0.0
  0
LINE
  5
277
  8
0
  6
CONTINUOUS
 62
     5
 10
395.62
 20
335.733
 30
0.0
 11
396.427
 21
335.721
 31
0.0
  0
LINE
  5
278
  8
0
  6
CONTINUOUS
 62
     5
 10
396.631
 20
335.757
 30
0.0
 11
396.427
 21
335.721
 31
0.0
  0
LINE
  5
279
  8
0
  6
CONTINUOUS
 62
     5
 10
395.841
 20
334.455
 30
0.0
 11
396.597
 21
334.736
 31
0.0
  0
LINE
  5
27A
  8
0
  6
CONTINUOUS
 62
     5
 10
396.427
 20
335.721
 30
0.0
 11
396.597
 21
334.736
 31
0.0
  0
LINE
  5
27B
  8
0
  6
CONTINUOUS
 62
     5
 10
396.68
 20
334.599
 30
0.0
 11
396.801
 21
334.771
 31
0.0
  0
LINE
  5
27C
  8
0
  6
CONTINUOUS
 62
     5
 10
396.597
 20
334.736
 30
0.0
 11
396.801
 21
334.771
 31
0.0
  0
LINE
  5
27D
  8
0
  6
CONTINUOUS
 62
     5
 10
396.824
 20
333.76
 30
0.0
 11
396.836
 21
334.567
 31
0.0
  0
LINE
  5
27E
  8
0
  6
CONTINUOUS
 62
     5
 10
396.801
 20
334.771
 30
0.0
 11
396.836
 21
334.567
 31
0.0
  0
LINE
  5
27F
  8
0
  6
CONTINUOUS
 62
     5
 10
398.103
 20
333.981
 30
0.0
 11
397.822
 21
334.737
 31
0.0
  0
LINE
  5
280
  8
0
  6
CONTINUOUS
 62
     5
 10
396.836
 20
334.567
 30
0.0
 11
397.822
 21
334.737
 31
0.0
  0
LINE
  5
281
  8
0
  6
CONTINUOUS
 62
     5
 10
397.958
 20
334.82
 30
0.0
 11
397.786
 21
334.941
 31
0.0
  0
LINE
  5
282
  8
0
  6
CONTINUOUS
 62
     5
 10
397.822
 20
334.737
 30
0.0
 11
397.786
 21
334.941
 31
0.0
  0
LINE
  5
283
  8
0
  6
CONTINUOUS
 62
     5
 10
398.797
 20
334.964
 30
0.0
 11
397.991
 21
334.976
 31
0.0
  0
LINE
  5
284
  8
0
  6
CONTINUOUS
 62
     5
 10
397.786
 20
334.941
 30
0.0
 11
397.991
 21
334.976
 31
0.0
  0
LINE
  5
285
  8
0
  6
CONTINUOUS
 62
     5
 10
397.991
 20
334.976
 30
0.0
 11
397.821
 21
335.962
 31
0.0
  0
LINE
  5
286
  8
0
  6
CONTINUOUS
 62
     5
 10
395.798
 20
334.7
 30
0.0
 11
395.841
 21
334.455
 31
0.0
  0
LINE
  5
287
  8
0
  6
CONTINUOUS
 62
     5
 10
395.62
 20
335.733
 30
0.0
 11
395.663
 21
335.488
 31
0.0
  0
LINE
  5
288
  8
0
  6
CONTINUOUS
 62
     5
 10
398.797
 20
334.964
 30
0.0
 11
398.755
 21
335.209
 31
0.0
  0
LINE
  5
289
  8
0
  6
CONTINUOUS
 62
     5
 10
398.619
 20
335.998
 30
0.0
 11
398.577
 21
336.243
 31
0.0
  0
LINE
  5
28A
  8
0
  6
CONTINUOUS
 62
     5
 10
395.798
 20
334.7
 30
0.0
 11
396.166
 21
334.763
 31
0.0
  0
LINE
  5
28B
  8
0
  6
CONTINUOUS
 62
     5
 10
395.663
 20
335.488
 30
0.0
 11
396.03
 21
335.552
 31
0.0
  0
LINE
  5
28C
  8
0
  6
CONTINUOUS
 62
     5
 10
396.166
 20
334.763
 30
0.0
 11
396.03
 21
335.552
 31
0.0
  0
LINE
  5
28D
  8
0
  6
CONTINUOUS
 62
     5
 10
398.755
 20
335.209
 30
0.0
 11
398.387
 21
335.146
 31
0.0
  0
LINE
  5
28E
  8
0
  6
CONTINUOUS
 62
     5
 10
398.619
 20
335.998
 30
0.0
 11
398.251
 21
335.934
 31
0.0
  0
LINE
  5
28F
  8
0
  6
CONTINUOUS
 62
     5
 10
398.387
 20
335.146
 30
0.0
 11
398.251
 21
335.934
 31
0.0
  0
ARC
  5
290
  8
0
  6
CONTINUOUS
 62
     5
 10
-397.209
 20
335.349
 30
0.0
 40
2.3
 50
340.208
 51
350.223
210
0.0
220
0.0
230
-1.0
  0
ARC
  5
291
  8
0
  6
CONTINUOUS
 62
     5
 10
-397.209
 20
335.349
 30
0.0
 40
2.3
 50
170.223
 51
180.239
210
0.0
220
0.0
230
-1.0
  0
ARC
  5
292
  8
0
  6
CONTINUOUS
 62
     5
 10
397.209
 20
335.349
 30
0.0
 40
2.3
 50
179.761
 51
189.777
  0
ARC
  5
293
  8
0
  6
CONTINUOUS
 62
     5
 10
397.209
 20
335.349
 30
0.0
 40
2.3
 50
9.777
 51
19.792
  0
ARC
  5
294
  8
0
  6
CONTINUOUS
 62
     5
 10
397.209
 20
335.349
 30
0.0
 40
2.3
 50
19.792
 51
179.761
  0
LINE
  5
295
  8
0
  6
CONTINUOUS
 62
     5
 10
399.072
 20
336.076
 30
0.0
 11
398.619
 21
335.998
 31
0.0
  0
LINE
  5
296
  8
0
  6
CONTINUOUS
 62
     5
 10
395.663
 20
335.488
 30
0.0
 11
395.21
 21
335.41
 31
0.0
  0
ARC
  5
297
  8
0
  6
CONTINUOUS
 62
     5
 10
-397.209
 20
335.349
 30
0.0
 40
2.3
 50
180.239
 51
340.208
210
0.0
220
0.0
230
-1.0
  0
LINE
  5
298
  8
0
  6
CONTINUOUS
 62
     5
 10
398.755
 20
335.209
 30
0.0
 11
399.208
 21
335.287
 31
0.0
  0
LINE
  5
299
  8
0
  6
CONTINUOUS
 62
     5
 10
395.345
 20
334.622
 30
0.0
 11
395.798
 21
334.7
 31
0.0
  0
LINE
  5
29A
  8
0
  6
CONTINUOUS
 62
     5
 10
399.072
 20
336.076
 30
0.0
 11
399.373
 21
336.128
 31
0.0
  0
LINE
  5
29B
  8
0
  6
CONTINUOUS
 62
     5
 10
395.21
 20
335.41
 30
0.0
 11
394.909
 21
335.358
 31
0.0
  0
LINE
  5
29C
  8
0
  6
CONTINUOUS
 62
     5
 10
399.208
 20
335.287
 30
0.0
 11
399.509
 21
335.339
 31
0.0
  0
LINE
  5
29D
  8
0
  6
CONTINUOUS
 62
     5
 10
395.045
 20
334.57
 30
0.0
 11
395.345
 21
334.622
 31
0.0
  0
LINE
  5
29E
  8
0
  6
CONTINUOUS
 62
     4
 10
384.284
 20
339.149
 30
0.0
 11
384.284
 21
340.149
 31
0.0
  0
LINE
  5
29F
  8
0
  6
CONTINUOUS
 62
     4
 10
401.384
 20
382.149
 30
0.0
 11
401.384
 21
381.149
 31
0.0
  0
DIMENSION
  5
2A0
  8
DIM
  6
CONTINUOUS
 62
     6
  2
*D3
 10
401.584
 20
407.477
 30
0.0
 11
392.834
 21
412.061
 31
0.0
 70
    33
  1
\fArial MT Std|b1|i0|c0|p0;17.5
 13
384.084
 23
400.649
 33
0.0
 14
401.584
 24
400.649
 34
0.0
  0
DIMENSION
  5
2AD
  8
DIM
  6
CONTINUOUS
 62
     6
  2
*D4
 10
484.41
 20
407.477
 30
0.0
 11
456.56
 21
407.477
 31
0.0
 70
   160
  1
\fArial MT Std|b1|i0|c0|p0;60.8
 13
423.61
 23
390.649
 33
0.0
 14
484.41
 24
382.149
 34
0.0
  0
DIMENSION
  5
2BA
  8
DIM
  6
CONTINUOUS
 62
     6
  2
*D5
 10
502.389
 20
318.649
 30
0.0
 11
497.805
 21
360.649
 31
0.0
 70
    33
  1
\fArial MT Std|b1|i0|c0|p0;<>
 13
451.41
 23
402.649
 33
0.0
 14
451.41
 24
318.649
 34
0.0
  0
DIMENSION
  5
2C7
  8
DIM
  6
CONTINUOUS
 62
     6
  2
*D6
 10
492.761
 20
338.149
 30
0.0
 11
488.177
 21
360.649
 31
0.0
 70
    33
  1
\fArial MT Std|b1|i0|c0|p0;<>
 13
482.41
 23
383.149
 33
0.0
 14
482.41
 24
338.149
 34
0.0
  0
LINE
  5
2D4
  8
0
  6
CONTINUOUS
 62
     5
 10
426.71
 20
378.649
 30
0.0
 11
426.576
 21
378.149
 31
0.0
  0
LINE
  5
2D5
  8
0
  6
CONTINUOUS
 62
     5
 10
427.91
 20
378.649
 30
0.0
 11
427.91
 21
378.149
 31
0.0
  0
DIMENSION
  5
2D6
  8
DIM
  6
CONTINUOUS
 62
     6
  2
*D7
 10
419.154
 20
344.349
 30
0.0
 11
414.57
 21
361.249
 31
0.0
 70
    32
  1
\fArial MT Std|b1|i0|c0|p0;<>
 13
426.576
 23
378.149
 33
0.0
 14
426.71
 24
344.349
 34
0.0
 50
90.0
  0
DIMENSION
  5
2E3
  8
DIM
  6
CONTINUOUS
 62
     6
  2
*D8
 10
419.154
 20
313.799
 30
0.0
 11
414.57
 21
329.074
 31
0.0
 70
    32
  1
\fArial MT Std|b1|i0|c0|p0;<>
 13
426.71
 23
344.349
 33
0.0
 14
424.11
 24
313.799
 34
0.0
 50
90.0
  0
LINE
  5
2F0
  8
0
  6
CONTINUOUS
 62
     5
 10
397.738
 20
325.098
 30
0.0
 11
397.593
 21
325.937
 31
0.0
  0
LINE
  5
2F1
  8
0
  6
CONTINUOUS
 62
     5
 10
397.593
 20
325.937
 30
0.0
 11
396.315
 21
325.717
 31
0.0
  0
LINE
  5
2F2
  8
0
  6
CONTINUOUS
 62
     5
 10
396.315
 20
325.717
 30
0.0
 11
396.459
 21
324.878
 31
0.0
  0
LINE
  5
2F3
  8
0
  6
CONTINUOUS
 62
     5
 10
396.459
 20
324.878
 30
0.0
 11
395.62
 21
324.733
 31
0.0
  0
LINE
  5
2F4
  8
0
  6
CONTINUOUS
 62
     5
 10
395.841
 20
323.455
 30
0.0
 11
396.68
 21
323.599
 31
0.0
  0
LINE
  5
2F5
  8
0
  6
CONTINUOUS
 62
     5
 10
396.68
 20
323.599
 30
0.0
 11
396.824
 21
322.76
 31
0.0
  0
LINE
  5
2F6
  8
0
  6
CONTINUOUS
 62
     5
 10
396.824
 20
322.76
 30
0.0
 11
398.103
 21
322.981
 31
0.0
  0
LINE
  5
2F7
  8
0
  6
CONTINUOUS
 62
     5
 10
398.103
 20
322.981
 30
0.0
 11
397.958
 21
323.82
 31
0.0
  0
LINE
  5
2F8
  8
0
  6
CONTINUOUS
 62
     5
 10
397.958
 20
323.82
 30
0.0
 11
398.797
 21
323.964
 31
0.0
  0
LINE
  5
2F9
  8
0
  6
CONTINUOUS
 62
     5
 10
398.577
 20
325.243
 30
0.0
 11
397.738
 21
325.098
 31
0.0
  0
LINE
  5
2FA
  8
0
  6
CONTINUOUS
 62
     5
 10
397.738
 20
325.098
 30
0.0
 11
397.617
 21
324.926
 31
0.0
  0
LINE
  5
2FB
  8
0
  6
CONTINUOUS
 62
     5
 10
397.821
 20
324.962
 30
0.0
 11
397.617
 21
324.926
 31
0.0
  0
LINE
  5
2FC
  8
0
  6
CONTINUOUS
 62
     5
 10
398.577
 20
325.243
 30
0.0
 11
397.821
 21
324.962
 31
0.0
  0
LINE
  5
2FD
  8
0
  6
CONTINUOUS
 62
     5
 10
397.593
 20
325.937
 30
0.0
 11
397.581
 21
325.131
 31
0.0
  0
LINE
  5
2FE
  8
0
  6
CONTINUOUS
 62
     5
 10
397.617
 20
324.926
 30
0.0
 11
397.581
 21
325.131
 31
0.0
  0
LINE
  5
2FF
  8
0
  6
CONTINUOUS
 62
     5
 10
396.315
 20
325.717
 30
0.0
 11
396.596
 21
324.961
 31
0.0
  0
LINE
  5
300
  8
0
  6
CONTINUOUS
 62
     5
 10
397.581
 20
325.131
 30
0.0
 11
396.596
 21
324.961
 31
0.0
  0
LINE
  5
301
  8
0
  6
CONTINUOUS
 62
     5
 10
396.459
 20
324.878
 30
0.0
 11
396.631
 21
324.757
 31
0.0
  0
LINE
  5
302
  8
0
  6
CONTINUOUS
 62
     5
 10
396.596
 20
324.961
 30
0.0
 11
396.631
 21
324.757
 31
0.0
  0
LINE
  5
303
  8
0
  6
CONTINUOUS
 62
     5
 10
395.62
 20
324.733
 30
0.0
 11
396.427
 21
324.721
 31
0.0
  0
LINE
  5
304
  8
0
  6
CONTINUOUS
 62
     5
 10
396.631
 20
324.757
 30
0.0
 11
396.427
 21
324.721
 31
0.0
  0
LINE
  5
305
  8
0
  6
CONTINUOUS
 62
     5
 10
395.841
 20
323.455
 30
0.0
 11
396.597
 21
323.736
 31
0.0
  0
LINE
  5
306
  8
0
  6
CONTINUOUS
 62
     5
 10
396.427
 20
324.721
 30
0.0
 11
396.597
 21
323.736
 31
0.0
  0
LINE
  5
307
  8
0
  6
CONTINUOUS
 62
     5
 10
396.68
 20
323.599
 30
0.0
 11
396.801
 21
323.771
 31
0.0
  0
LINE
  5
308
  8
0
  6
CONTINUOUS
 62
     5
 10
396.597
 20
323.736
 30
0.0
 11
396.801
 21
323.771
 31
0.0
  0
LINE
  5
309
  8
0
  6
CONTINUOUS
 62
     5
 10
396.824
 20
322.76
 30
0.0
 11
396.836
 21
323.567
 31
0.0
  0
LINE
  5
30A
  8
0
  6
CONTINUOUS
 62
     5
 10
396.801
 20
323.771
 30
0.0
 11
396.836
 21
323.567
 31
0.0
  0
LINE
  5
30B
  8
0
  6
CONTINUOUS
 62
     5
 10
398.103
 20
322.981
 30
0.0
 11
397.822
 21
323.737
 31
0.0
  0
LINE
  5
30C
  8
0
  6
CONTINUOUS
 62
     5
 10
396.836
 20
323.567
 30
0.0
 11
397.822
 21
323.737
 31
0.0
  0
LINE
  5
30D
  8
0
  6
CONTINUOUS
 62
     5
 10
397.958
 20
323.82
 30
0.0
 11
397.786
 21
323.941
 31
0.0
  0
LINE
  5
30E
  8
0
  6
CONTINUOUS
 62
     5
 10
397.822
 20
323.737
 30
0.0
 11
397.786
 21
323.941
 31
0.0
  0
LINE
  5
30F
  8
0
  6
CONTINUOUS
 62
     5
 10
398.797
 20
323.964
 30
0.0
 11
397.991
 21
323.976
 31
0.0
  0
LINE
  5
310
  8
0
  6
CONTINUOUS
 62
     5
 10
397.786
 20
323.941
 30
0.0
 11
397.991
 21
323.976
 31
0.0
  0
LINE
  5
311
  8
0
  6
CONTINUOUS
 62
     5
 10
397.991
 20
323.976
 30
0.0
 11
397.821
 21
324.962
 31
0.0
  0
LINE
  5
312
  8
0
  6
CONTINUOUS
 62
     5
 10
395.798
 20
323.7
 30
0.0
 11
395.841
 21
323.455
 31
0.0
  0
LINE
  5
313
  8
0
  6
CONTINUOUS
 62
     5
 10
395.62
 20
324.733
 30
0.0
 11
395.663
 21
324.488
 31
0.0
  0
LINE
  5
314
  8
0
  6
CONTINUOUS
 62
     5
 10
398.797
 20
323.964
 30
0.0
 11
398.755
 21
324.209
 31
0.0
  0
LINE
  5
315
  8
0
  6
CONTINUOUS
 62
     5
 10
398.619
 20
324.998
 30
0.0
 11
398.577
 21
325.243
 31
0.0
  0
LINE
  5
316
  8
0
  6
CONTINUOUS
 62
     5
 10
395.798
 20
323.7
 30
0.0
 11
396.166
 21
323.763
 31
0.0
  0
LINE
  5
317
  8
0
  6
CONTINUOUS
 62
     5
 10
395.663
 20
324.488
 30
0.0
 11
396.03
 21
324.552
 31
0.0
  0
LINE
  5
318
  8
0
  6
CONTINUOUS
 62
     5
 10
396.166
 20
323.763
 30
0.0
 11
396.03
 21
324.552
 31
0.0
  0
LINE
  5
319
  8
0
  6
CONTINUOUS
 62
     5
 10
398.755
 20
324.209
 30
0.0
 11
398.387
 21
324.146
 31
0.0
  0
LINE
  5
31A
  8
0
  6
CONTINUOUS
 62
     5
 10
398.619
 20
324.998
 30
0.0
 11
398.251
 21
324.934
 31
0.0
  0
LINE
  5
31B
  8
0
  6
CONTINUOUS
 62
     5
 10
398.387
 20
324.146
 30
0.0
 11
398.251
 21
324.934
 31
0.0
  0
ARC
  5
31C
  8
0
  6
CONTINUOUS
 62
     5
 10
-397.209
 20
324.349
 30
0.0
 40
2.3
 50
340.208
 51
350.223
210
0.0
220
0.0
230
-1.0
  0
ARC
  5
31D
  8
0
  6
CONTINUOUS
 62
     5
 10
-397.209
 20
324.349
 30
0.0
 40
2.3
 50
170.223
 51
180.239
210
0.0
220
0.0
230
-1.0
  0
ARC
  5
31E
  8
0
  6
CONTINUOUS
 62
     5
 10
397.209
 20
324.349
 30
0.0
 40
2.3
 50
179.761
 51
189.777
  0
ARC
  5
31F
  8
0
  6
CONTINUOUS
 62
     5
 10
397.209
 20
324.349
 30
0.0
 40
2.3
 50
9.777
 51
19.792
  0
ARC
  5
320
  8
0
  6
CONTINUOUS
 62
     5
 10
397.209
 20
324.349
 30
0.0
 40
2.3
 50
19.792
 51
179.761
  0
LINE
  5
321
  8
0
  6
CONTINUOUS
 62
     5
 10
399.072
 20
325.076
 30
0.0
 11
398.619
 21
324.998
 31
0.0
  0
LINE
  5
322
  8
0
  6
CONTINUOUS
 62
     5
 10
395.663
 20
324.488
 30
0.0
 11
395.21
 21
324.41
 31
0.0
  0
ARC
  5
323
  8
0
  6
CONTINUOUS
 62
     5
 10
-397.209
 20
324.349
 30
0.0
 40
2.3
 50
180.239
 51
340.208
210
0.0
220
0.0
230
-1.0
  0
LINE
  5
324
  8
0
  6
CONTINUOUS
 62
     5
 10
398.755
 20
324.209
 30
0.0
 11
399.208
 21
324.287
 31
0.0
  0
LINE
  5
325
  8
0
  6
CONTINUOUS
 62
     5
 10
395.345
 20
323.622
 30
0.0
 11
395.798
 21
323.7
 31
0.0
  0
LINE
  5
326
  8
0
  6
CONTINUOUS
 62
     5
 10
399.072
 20
325.076
 30
0.0
 11
399.373
 21
325.128
 31
0.0
  0
LINE
  5
327
  8
0
  6
CONTINUOUS
 62
     5
 10
395.21
 20
324.41
 30
0.0
 11
394.909
 21
324.358
 31
0.0
  0
LINE
  5
328
  8
0
  6
CONTINUOUS
 62
     5
 10
399.208
 20
324.287
 30
0.0
 11
399.509
 21
324.339
 31
0.0
  0
LINE
  5
329
  8
0
  6
CONTINUOUS
 62
     5
 10
395.045
 20
323.57
 30
0.0
 11
395.345
 21
323.622
 31
0.0
  0
LINE
  5
32A
  8
0
  6
CONTINUOUS
 62
     5
 10
388.988
 20
325.098
 30
0.0
 11
388.843
 21
325.937
 31
0.0
  0
LINE
  5
32B
  8
0
  6
CONTINUOUS
 62
     5
 10
388.843
 20
325.937
 30
0.0
 11
387.565
 21
325.717
 31
0.0
  0
LINE
  5
32C
  8
0
  6
CONTINUOUS
 62
     5
 10
387.565
 20
325.717
 30
0.0
 11
387.709
 21
324.878
 31
0.0
  0
LINE
  5
32D
  8
0
  6
CONTINUOUS
 62
     5
 10
387.709
 20
324.878
 30
0.0
 11
386.87
 21
324.733
 31
0.0
  0
LINE
  5
32E
  8
0
  6
CONTINUOUS
 62
     5
 10
387.091
 20
323.455
 30
0.0
 11
387.93
 21
323.599
 31
0.0
  0
LINE
  5
32F
  8
0
  6
CONTINUOUS
 62
     5
 10
387.93
 20
323.599
 30
0.0
 11
388.074
 21
322.76
 31
0.0
  0
LINE
  5
330
  8
0
  6
CONTINUOUS
 62
     5
 10
388.074
 20
322.76
 30
0.0
 11
389.353
 21
322.981
 31
0.0
  0
LINE
  5
331
  8
0
  6
CONTINUOUS
 62
     5
 10
389.353
 20
322.981
 30
0.0
 11
389.208
 21
323.82
 31
0.0
  0
LINE
  5
332
  8
0
  6
CONTINUOUS
 62
     5
 10
389.208
 20
323.82
 30
0.0
 11
390.047
 21
323.964
 31
0.0
  0
LINE
  5
333
  8
0
  6
CONTINUOUS
 62
     5
 10
389.827
 20
325.243
 30
0.0
 11
388.988
 21
325.098
 31
0.0
  0
LINE
  5
334
  8
0
  6
CONTINUOUS
 62
     5
 10
388.988
 20
325.098
 30
0.0
 11
388.867
 21
324.926
 31
0.0
  0
LINE
  5
335
  8
0
  6
CONTINUOUS
 62
     5
 10
389.071
 20
324.962
 30
0.0
 11
388.867
 21
324.926
 31
0.0
  0
LINE
  5
336
  8
0
  6
CONTINUOUS
 62
     5
 10
389.827
 20
325.243
 30
0.0
 11
389.071
 21
324.962
 31
0.0
  0
LINE
  5
337
  8
0
  6
CONTINUOUS
 62
     5
 10
388.843
 20
325.937
 30
0.0
 11
388.831
 21
325.131
 31
0.0
  0
LINE
  5
338
  8
0
  6
CONTINUOUS
 62
     5
 10
388.867
 20
324.926
 30
0.0
 11
388.831
 21
325.131
 31
0.0
  0
LINE
  5
339
  8
0
  6
CONTINUOUS
 62
     5
 10
387.565
 20
325.717
 30
0.0
 11
387.846
 21
324.961
 31
0.0
  0
LINE
  5
33A
  8
0
  6
CONTINUOUS
 62
     5
 10
388.831
 20
325.131
 30
0.0
 11
387.846
 21
324.961
 31
0.0
  0
LINE
  5
33B
  8
0
  6
CONTINUOUS
 62
     5
 10
387.709
 20
324.878
 30
0.0
 11
387.881
 21
324.757
 31
0.0
  0
LINE
  5
33C
  8
0
  6
CONTINUOUS
 62
     5
 10
387.846
 20
324.961
 30
0.0
 11
387.881
 21
324.757
 31
0.0
  0
LINE
  5
33D
  8
0
  6
CONTINUOUS
 62
     5
 10
386.87
 20
324.733
 30
0.0
 11
387.677
 21
324.721
 31
0.0
  0
LINE
  5
33E
  8
0
  6
CONTINUOUS
 62
     5
 10
387.881
 20
324.757
 30
0.0
 11
387.677
 21
324.721
 31
0.0
  0
LINE
  5
33F
  8
0
  6
CONTINUOUS
 62
     5
 10
387.091
 20
323.455
 30
0.0
 11
387.847
 21
323.736
 31
0.0
  0
LINE
  5
340
  8
0
  6
CONTINUOUS
 62
     5
 10
387.677
 20
324.721
 30
0.0
 11
387.847
 21
323.736
 31
0.0
  0
LINE
  5
341
  8
0
  6
CONTINUOUS
 62
     5
 10
387.93
 20
323.599
 30
0.0
 11
388.051
 21
323.771
 31
0.0
  0
LINE
  5
342
  8
0
  6
CONTINUOUS
 62
     5
 10
387.847
 20
323.736
 30
0.0
 11
388.051
 21
323.771
 31
0.0
  0
LINE
  5
343
  8
0
  6
CONTINUOUS
 62
     5
 10
388.074
 20
322.76
 30
0.0
 11
388.086
 21
323.567
 31
0.0
  0
LINE
  5
344
  8
0
  6
CONTINUOUS
 62
     5
 10
388.051
 20
323.771
 30
0.0
 11
388.086
 21
323.567
 31
0.0
  0
LINE
  5
345
  8
0
  6
CONTINUOUS
 62
     5
 10
389.353
 20
322.981
 30
0.0
 11
389.072
 21
323.737
 31
0.0
  0
LINE
  5
346
  8
0
  6
CONTINUOUS
 62
     5
 10
388.086
 20
323.567
 30
0.0
 11
389.072
 21
323.737
 31
0.0
  0
LINE
  5
347
  8
0
  6
CONTINUOUS
 62
     5
 10
389.208
 20
323.82
 30
0.0
 11
389.036
 21
323.941
 31
0.0
  0
LINE
  5
348
  8
0
  6
CONTINUOUS
 62
     5
 10
389.072
 20
323.737
 30
0.0
 11
389.036
 21
323.941
 31
0.0
  0
LINE
  5
349
  8
0
  6
CONTINUOUS
 62
     5
 10
390.047
 20
323.964
 30
0.0
 11
389.241
 21
323.976
 31
0.0
  0
LINE
  5
34A
  8
0
  6
CONTINUOUS
 62
     5
 10
389.036
 20
323.941
 30
0.0
 11
389.241
 21
323.976
 31
0.0
  0
LINE
  5
34B
  8
0
  6
CONTINUOUS
 62
     5
 10
389.241
 20
323.976
 30
0.0
 11
389.071
 21
324.962
 31
0.0
  0
LINE
  5
34C
  8
0
  6
CONTINUOUS
 62
     5
 10
387.048
 20
323.7
 30
0.0
 11
387.091
 21
323.455
 31
0.0
  0
LINE
  5
34D
  8
0
  6
CONTINUOUS
 62
     5
 10
386.87
 20
324.733
 30
0.0
 11
386.913
 21
324.488
 31
0.0
  0
LINE
  5
34E
  8
0
  6
CONTINUOUS
 62
     5
 10
390.047
 20
323.964
 30
0.0
 11
390.005
 21
324.209
 31
0.0
  0
LINE
  5
34F
  8
0
  6
CONTINUOUS
 62
     5
 10
389.869
 20
324.998
 30
0.0
 11
389.827
 21
325.243
 31
0.0
  0
LINE
  5
350
  8
0
  6
CONTINUOUS
 62
     5
 10
387.048
 20
323.7
 30
0.0
 11
387.416
 21
323.763
 31
0.0
  0
LINE
  5
351
  8
0
  6
CONTINUOUS
 62
     5
 10
386.913
 20
324.488
 30
0.0
 11
387.28
 21
324.552
 31
0.0
  0
LINE
  5
352
  8
0
  6
CONTINUOUS
 62
     5
 10
387.416
 20
323.763
 30
0.0
 11
387.28
 21
324.552
 31
0.0
  0
LINE
  5
353
  8
0
  6
CONTINUOUS
 62
     5
 10
390.005
 20
324.209
 30
0.0
 11
389.637
 21
324.146
 31
0.0
  0
LINE
  5
354
  8
0
  6
CONTINUOUS
 62
     5
 10
389.869
 20
324.998
 30
0.0
 11
389.501
 21
324.934
 31
0.0
  0
LINE
  5
355
  8
0
  6
CONTINUOUS
 62
     5
 10
389.637
 20
324.146
 30
0.0
 11
389.501
 21
324.934
 31
0.0
  0
ARC
  5
356
  8
0
  6
CONTINUOUS
 62
     5
 10
-388.459
 20
324.349
 30
0.0
 40
2.3
 50
340.208
 51
350.223
210
0.0
220
0.0
230
-1.0
  0
ARC
  5
357
  8
0
  6
CONTINUOUS
 62
     5
 10
-388.459
 20
324.349
 30
0.0
 40
2.3
 50
170.223
 51
180.239
210
0.0
220
0.0
230
-1.0
  0
ARC
  5
358
  8
0
  6
CONTINUOUS
 62
     5
 10
388.459
 20
324.349
 30
0.0
 40
2.3
 50
179.761
 51
189.777
  0
ARC
  5
359
  8
0
  6
CONTINUOUS
 62
     5
 10
388.459
 20
324.349
 30
0.0
 40
2.3
 50
9.777
 51
19.792
  0
ARC
  5
35A
  8
0
  6
CONTINUOUS
 62
     5
 10
388.459
 20
324.349
 30
0.0
 40
2.3
 50
19.792
 51
179.761
  0
LINE
  5
35B
  8
0
  6
CONTINUOUS
 62
     5
 10
390.322
 20
325.076
 30
0.0
 11
389.869
 21
324.998
 31
0.0
  0
LINE
  5
35C
  8
0
  6
CONTINUOUS
 62
     5
 10
386.913
 20
324.488
 30
0.0
 11
386.46
 21
324.41
 31
0.0
  0
ARC
  5
35D
  8
0
  6
CONTINUOUS
 62
     5
 10
-388.459
 20
324.349
 30
0.0
 40
2.3
 50
180.239
 51
340.208
210
0.0
220
0.0
230
-1.0
  0
LINE
  5
35E
  8
0
  6
CONTINUOUS
 62
     5
 10
390.005
 20
324.209
 30
0.0
 11
390.458
 21
324.287
 31
0.0
  0
LINE
  5
35F
  8
0
  6
CONTINUOUS
 62
     5
 10
386.595
 20
323.622
 30
0.0
 11
387.048
 21
323.7
 31
0.0
  0
LINE
  5
360
  8
0
  6
CONTINUOUS
 62
     5
 10
390.322
 20
325.076
 30
0.0
 11
390.623
 21
325.128
 31
0.0
  0
LINE
  5
361
  8
0
  6
CONTINUOUS
 62
     5
 10
386.46
 20
324.41
 30
0.0
 11
386.159
 21
324.358
 31
0.0
  0
LINE
  5
362
  8
0
  6
CONTINUOUS
 62
     5
 10
390.458
 20
324.287
 30
0.0
 11
390.759
 21
324.339
 31
0.0
  0
LINE
  5
363
  8
0
  6
CONTINUOUS
 62
     5
 10
386.295
 20
323.57
 30
0.0
 11
386.595
 21
323.622
 31
0.0
  0
CIRCLE
  5
364
  8
0
  6
CONTINUOUS
 62
     6
 10
397.209
 20
324.449
 30
0.0
 40
2.5
  0
CIRCLE
  5
365
  8
0
  6
CONTINUOUS
 62
     6
 10
388.459
 20
324.449
 30
0.0
 40
2.5
  0
CIRCLE
  5
366
  8
0
  6
CONTINUOUS
 62
     6
 10
-397.209
 20
385.849
 30
0.0
 40
2.5
210
0.0
220
0.0
230
-1.0
  0
LINE
  5
367
  8
0
  6
CONTINUOUS
 62
     5
 10
396.679
 20
385.199
 30
0.0
 11
396.824
 21
384.361
 31
0.0
  0
LINE
  5
368
  8
0
  6
CONTINUOUS
 62
     5
 10
396.824
 20
384.361
 30
0.0
 11
398.103
 21
384.581
 31
0.0
  0
LINE
  5
369
  8
0
  6
CONTINUOUS
 62
     5
 10
398.103
 20
384.581
 30
0.0
 11
397.958
 21
385.42
 31
0.0
  0
LINE
  5
36A
  8
0
  6
CONTINUOUS
 62
     5
 10
397.958
 20
385.42
 30
0.0
 11
398.797
 21
385.564
 31
0.0
  0
LINE
  5
36B
  8
0
  6
CONTINUOUS
 62
     5
 10
398.577
 20
386.843
 30
0.0
 11
397.738
 21
386.698
 31
0.0
  0
LINE
  5
36C
  8
0
  6
CONTINUOUS
 62
     5
 10
397.738
 20
386.698
 30
0.0
 11
397.593
 21
387.537
 31
0.0
  0
LINE
  5
36D
  8
0
  6
CONTINUOUS
 62
     5
 10
397.593
 20
387.537
 30
0.0
 11
396.315
 21
387.317
 31
0.0
  0
LINE
  5
36E
  8
0
  6
CONTINUOUS
 62
     5
 10
396.315
 20
387.317
 30
0.0
 11
396.459
 21
386.478
 31
0.0
  0
LINE
  5
36F
  8
0
  6
CONTINUOUS
 62
     5
 10
396.459
 20
386.478
 30
0.0
 11
395.62
 21
386.334
 31
0.0
  0
LINE
  5
370
  8
0
  6
CONTINUOUS
 62
     5
 10
395.841
 20
385.055
 30
0.0
 11
396.679
 21
385.199
 31
0.0
  0
LINE
  5
371
  8
0
  6
CONTINUOUS
 62
     5
 10
396.679
 20
385.199
 30
0.0
 11
396.801
 21
385.371
 31
0.0
  0
LINE
  5
372
  8
0
  6
CONTINUOUS
 62
     5
 10
396.596
 20
385.336
 30
0.0
 11
396.801
 21
385.371
 31
0.0
  0
LINE
  5
373
  8
0
  6
CONTINUOUS
 62
     5
 10
395.841
 20
385.055
 30
0.0
 11
396.596
 21
385.336
 31
0.0
  0
LINE
  5
374
  8
0
  6
CONTINUOUS
 62
     5
 10
396.824
 20
384.361
 30
0.0
 11
396.836
 21
385.167
 31
0.0
  0
LINE
  5
375
  8
0
  6
CONTINUOUS
 62
     5
 10
396.801
 20
385.371
 30
0.0
 11
396.836
 21
385.167
 31
0.0
  0
LINE
  5
376
  8
0
  6
CONTINUOUS
 62
     5
 10
398.103
 20
384.581
 30
0.0
 11
397.821
 21
385.337
 31
0.0
  0
LINE
  5
377
  8
0
  6
CONTINUOUS
 62
     5
 10
396.836
 20
385.167
 30
0.0
 11
397.821
 21
385.337
 31
0.0
  0
LINE
  5
378
  8
0
  6
CONTINUOUS
 62
     5
 10
397.958
 20
385.42
 30
0.0
 11
397.786
 21
385.541
 31
0.0
  0
LINE
  5
379
  8
0
  6
CONTINUOUS
 62
     5
 10
397.821
 20
385.337
 30
0.0
 11
397.786
 21
385.541
 31
0.0
  0
LINE
  5
37A
  8
0
  6
CONTINUOUS
 62
     5
 10
398.797
 20
385.564
 30
0.0
 11
397.99
 21
385.576
 31
0.0
  0
LINE
  5
37B
  8
0
  6
CONTINUOUS
 62
     5
 10
397.786
 20
385.541
 30
0.0
 11
397.99
 21
385.576
 31
0.0
  0
LINE
  5
37C
  8
0
  6
CONTINUOUS
 62
     5
 10
398.577
 20
386.843
 30
0.0
 11
397.821
 21
386.562
 31
0.0
  0
LINE
  5
37D
  8
0
  6
CONTINUOUS
 62
     5
 10
397.99
 20
385.576
 30
0.0
 11
397.821
 21
386.562
 31
0.0
  0
LINE
  5
37E
  8
0
  6
CONTINUOUS
 62
     5
 10
397.738
 20
386.698
 30
0.0
 11
397.616
 21
386.527
 31
0.0
  0
LINE
  5
37F
  8
0
  6
CONTINUOUS
 62
     5
 10
397.821
 20
386.562
 30
0.0
 11
397.616
 21
386.527
 31
0.0
  0
LINE
  5
380
  8
0
  6
CONTINUOUS
 62
     5
 10
397.593
 20
387.537
 30
0.0
 11
397.581
 21
386.731
 31
0.0
  0
LINE
  5
381
  8
0
  6
CONTINUOUS
 62
     5
 10
397.616
 20
386.527
 30
0.0
 11
397.581
 21
386.731
 31
0.0
  0
LINE
  5
382
  8
0
  6
CONTINUOUS
 62
     5
 10
396.315
 20
387.317
 30
0.0
 11
396.596
 21
386.561
 31
0.0
  0
LINE
  5
383
  8
0
  6
CONTINUOUS
 62
     5
 10
397.581
 20
386.731
 30
0.0
 11
396.596
 21
386.561
 31
0.0
  0
LINE
  5
384
  8
0
  6
CONTINUOUS
 62
     5
 10
396.459
 20
386.478
 30
0.0
 11
396.631
 21
386.357
 31
0.0
  0
LINE
  5
385
  8
0
  6
CONTINUOUS
 62
     5
 10
396.596
 20
386.561
 30
0.0
 11
396.631
 21
386.357
 31
0.0
  0
LINE
  5
386
  8
0
  6
CONTINUOUS
 62
     5
 10
395.62
 20
386.334
 30
0.0
 11
396.427
 21
386.322
 31
0.0
  0
LINE
  5
387
  8
0
  6
CONTINUOUS
 62
     5
 10
396.631
 20
386.357
 30
0.0
 11
396.427
 21
386.322
 31
0.0
  0
LINE
  5
388
  8
0
  6
CONTINUOUS
 62
     5
 10
396.427
 20
386.322
 30
0.0
 11
396.596
 21
385.336
 31
0.0
  0
LINE
  5
389
  8
0
  6
CONTINUOUS
 62
     5
 10
398.619
 20
386.598
 30
0.0
 11
398.577
 21
386.843
 31
0.0
  0
LINE
  5
38A
  8
0
  6
CONTINUOUS
 62
     5
 10
398.797
 20
385.564
 30
0.0
 11
398.755
 21
385.809
 31
0.0
  0
LINE
  5
38B
  8
0
  6
CONTINUOUS
 62
     5
 10
395.62
 20
386.334
 30
0.0
 11
395.662
 21
386.088
 31
0.0
  0
LINE
  5
38C
  8
0
  6
CONTINUOUS
 62
     5
 10
395.798
 20
385.3
 30
0.0
 11
395.841
 21
385.055
 31
0.0
  0
LINE
  5
38D
  8
0
  6
CONTINUOUS
 62
     5
 10
398.619
 20
386.598
 30
0.0
 11
398.251
 21
386.534
 31
0.0
  0
LINE
  5
38E
  8
0
  6
CONTINUOUS
 62
     5
 10
398.755
 20
385.809
 30
0.0
 11
398.387
 21
385.746
 31
0.0
  0
LINE
  5
38F
  8
0
  6
CONTINUOUS
 62
     5
 10
398.251
 20
386.534
 30
0.0
 11
398.387
 21
385.746
 31
0.0
  0
LINE
  5
390
  8
0
  6
CONTINUOUS
 62
     5
 10
395.662
 20
386.088
 30
0.0
 11
396.03
 21
386.152
 31
0.0
  0
LINE
  5
391
  8
0
  6
CONTINUOUS
 62
     5
 10
395.798
 20
385.3
 30
0.0
 11
396.166
 21
385.363
 31
0.0
  0
LINE
  5
392
  8
0
  6
CONTINUOUS
 62
     5
 10
396.03
 20
386.152
 30
0.0
 11
396.166
 21
385.363
 31
0.0
  0
ARC
  5
393
  8
0
  6
CONTINUOUS
 62
     5
 10
-397.209
 20
385.949
 30
0.0
 40
2.3
 50
160.208
 51
170.223
210
0.0
220
0.0
230
-1.0
  0
ARC
  5
394
  8
0
  6
CONTINUOUS
 62
     5
 10
-397.209
 20
385.949
 30
0.0
 40
2.3
 50
350.223
 51
0.239
210
0.0
220
0.0
230
-1.0
  0
ARC
  5
395
  8
0
  6
CONTINUOUS
 62
     5
 10
397.209
 20
385.949
 30
0.0
 40
2.3
 50
359.761
 51
9.777
  0
ARC
  5
396
  8
0
  6
CONTINUOUS
 62
     5
 10
397.209
 20
385.949
 30
0.0
 40
2.3
 50
189.777
 51
199.792
  0
ARC
  5
397
  8
0
  6
CONTINUOUS
 62
     5
 10
397.209
 20
385.949
 30
0.0
 40
2.3
 50
199.792
 51
359.761
  0
LINE
  5
398
  8
0
  6
CONTINUOUS
 62
     5
 10
395.345
 20
385.222
 30
0.0
 11
395.798
 21
385.3
 31
0.0
  0
LINE
  5
399
  8
0
  6
CONTINUOUS
 62
     5
 10
398.755
 20
385.809
 30
0.0
 11
399.208
 21
385.887
 31
0.0
  0
ARC
  5
39A
  8
0
  6
CONTINUOUS
 62
     5
 10
-397.209
 20
385.949
 30
0.0
 40
2.3
 50
0.239
 51
160.208
210
0.0
220
0.0
230
-1.0
  0
LINE
  5
39B
  8
0
  6
CONTINUOUS
 62
     5
 10
395.662
 20
386.088
 30
0.0
 11
395.21
 21
386.01
 31
0.0
  0
LINE
  5
39C
  8
0
  6
CONTINUOUS
 62
     5
 10
399.072
 20
386.676
 30
0.0
 11
398.619
 21
386.598
 31
0.0
  0
LINE
  5
39D
  8
0
  6
CONTINUOUS
 62
     5
 10
395.345
 20
385.222
 30
0.0
 11
395.045
 21
385.17
 31
0.0
  0
LINE
  5
39E
  8
0
  6
CONTINUOUS
 62
     5
 10
399.208
 20
385.887
 30
0.0
 11
399.509
 21
385.939
 31
0.0
  0
LINE
  5
39F
  8
0
  6
CONTINUOUS
 62
     5
 10
395.21
 20
386.01
 30
0.0
 11
394.909
 21
385.958
 31
0.0
  0
LINE
  5
3A0
  8
0
  6
CONTINUOUS
 62
     5
 10
399.373
 20
386.728
 30
0.0
 11
399.072
 21
386.676
 31
0.0
  0
DIMENSION
  5
3A1
  8
DIM
  6
CONTINUOUS
 62
     6
  2
*D9
 10
376.719
 20
313.799
 30
0.0
 11
372.136
 21
358.224
 31
0.0
 70
    32
  1
\fArial MT Std|b1|i0|c0|p0;88.8
 13
384.484
 23
402.649
 33
0.0
 14
392.824
 24
313.799
 34
0.0
 50
90.0
  0
LINE
  5
3AE
  8
0
  6
CONTINUOUS
 62
     6
 10
389.284
 20
356.349
 30
0.0
 11
387.284
 21
356.349
 31
0.0
  0
LINE
  5
3AF
  8
0
  6
CONTINUOUS
 62
     6
 10
387.284
 20
356.349
 30
0.0
 11
387.284
 21
354.349
 31
0.0
  0
LINE
  5
3B0
  8
0
  6
CONTINUOUS
 62
     6
 10
387.284
 20
354.349
 30
0.0
 11
389.284
 21
354.349
 31
0.0
  0
LINE
  5
3B1
  8
0
  6
CONTINUOUS
 62
     6
 10
389.284
 20
354.349
 30
0.0
 11
389.284
 21
356.349
 31
0.0
  0
ARC
  5
3B2
  8
0
  6
CONTINUOUS
 62
     6
 10
394.834
 20
348.119
 30
0.0
 40
2.5
 50
270.0
 51
10.201
  0
ARC
  5
3B3
  8
0
  6
CONTINUOUS
 62
     6
 10
394.834
 20
348.119
 30
0.0
 40
2.5
 50
255.655
 51
267.981
  0
ARC
  5
3B4
  8
0
  6
CONTINUOUS
 62
     6
 10
394.834
 20
348.119
 30
0.0
 40
2.5
 50
239.292
 51
251.618
  0
ARC
  5
3B5
  8
0
  6
CONTINUOUS
 62
     6
 10
394.834
 20
348.119
 30
0.0
 40
2.5
 50
222.928
 51
235.254
  0
ARC
  5
3B6
  8
0
  6
CONTINUOUS
 62
     6
 10
394.834
 20
348.119
 30
0.0
 40
2.5
 50
206.564
 51
218.89
  0
ARC
  5
3B7
  8
0
  6
CONTINUOUS
 62
     6
 10
394.834
 20
348.119
 30
0.0
 40
2.5
 50
190.201
 51
202.527
  0
ARC
  5
3B8
  8
0
  6
CONTINUOUS
 62
     6
 10
394.834
 20
348.119
 30
0.0
 40
2.5
 50
173.837
 51
186.163
  0
ARC
  5
3B9
  8
0
  6
CONTINUOUS
 62
     6
 10
394.834
 20
348.119
 30
0.0
 40
2.5
 50
157.473
 51
169.799
  0
ARC
  5
3BA
  8
0
  6
CONTINUOUS
 62
     6
 10
394.834
 20
348.119
 30
0.0
 40
2.5
 50
141.11
 51
153.436
  0
ARC
  5
3BB
  8
0
  6
CONTINUOUS
 62
     6
 10
394.834
 20
348.119
 30
0.0
 40
2.5
 50
124.746
 51
137.072
  0
ARC
  5
3BC
  8
0
  6
CONTINUOUS
 62
     6
 10
394.834
 20
348.119
 30
0.0
 40
2.5
 50
108.382
 51
120.708
  0
ARC
  5
3BD
  8
0
  6
CONTINUOUS
 62
     6
 10
394.834
 20
348.119
 30
0.0
 40
2.5
 50
92.019
 51
104.345
  0
ARC
  5
3BE
  8
0
  6
CONTINUOUS
 62
     6
 10
394.834
 20
348.119
 30
0.0
 40
2.5
 50
10.201
 51
90.0
  0
CIRCLE
  5
3BF
  8
0
  6
CONTINUOUS
 62
     6
 10
-388.459
 20
385.849
 30
0.0
 40
2.5
210
0.0
220
0.0
230
-1.0
  0
ARC
  5
3C0
  8
0
  6
CONTINUOUS
 62
     6
 10
394.834
 20
348.119
 30
0.0
 40
2.499999999999999
 50
186.163
 51
190.201
  0
LINE
  5
3C1
  8
0
  6
CONTINUOUS
 62
     5
 10
392.706
 20
347.495
 30
0.0
 11
392.373
 21
347.677
 31
0.0
  0
LINE
  5
3C2
  8
0
  6
CONTINUOUS
 62
     5
 10
392.524
 20
347.162
 30
0.0
 11
392.706
 21
347.495
 31
0.0
  0
ARC
  5
3C3
  8
0
  6
CONTINUOUS
 62
     6
 10
394.834
 20
348.119
 30
0.0
 40
2.499999999999999
 50
202.527
 51
206.564
  0
LINE
  5
3C4
  8
0
  6
CONTINUOUS
 62
     5
 10
392.968
 20
346.921
 30
0.0
 11
392.598
 21
347.001
 31
0.0
  0
LINE
  5
3C5
  8
0
  6
CONTINUOUS
 62
     5
 10
392.888
 20
346.55
 30
0.0
 11
392.968
 21
346.921
 31
0.0
  0
ARC
  5
3C6
  8
0
  6
CONTINUOUS
 62
     6
 10
394.834
 20
348.119
 30
0.0
 40
2.499999999999999
 50
218.89
 51
222.928
  0
LINE
  5
3C7
  8
0
  6
CONTINUOUS
 62
     5
 10
393.382
 20
346.444
 30
0.0
 11
393.003
 21
346.417
 31
0.0
  0
LINE
  5
3C8
  8
0
  6
CONTINUOUS
 62
     5
 10
393.409
 20
346.065
 30
0.0
 11
393.382
 21
346.444
 31
0.0
  0
ARC
  5
3C9
  8
0
  6
CONTINUOUS
 62
     6
 10
394.834
 20
348.119
 30
0.0
 40
2.499999999999999
 50
235.254
 51
239.292
  0
LINE
  5
3CA
  8
0
  6
CONTINUOUS
 62
     5
 10
393.913
 20
346.103
 30
0.0
 11
393.557
 21
345.97
 31
0.0
  0
LINE
  5
3CB
  8
0
  6
CONTINUOUS
 62
     5
 10
394.045
 20
345.747
 30
0.0
 11
393.913
 21
346.103
 31
0.0
  0
ARC
  5
3CC
  8
0
  6
CONTINUOUS
 62
     6
 10
394.834
 20
348.119
 30
0.0
 40
2.499999999999999
 50
251.618
 51
255.655
  0
LINE
  5
3CD
  8
0
  6
CONTINUOUS
 62
     5
 10
394.518
 20
345.925
 30
0.0
 11
394.214
 21
345.697
 31
0.0
  0
LINE
  5
3CE
  8
0
  6
CONTINUOUS
 62
     5
 10
394.746
 20
345.621
 30
0.0
 11
394.518
 21
345.925
 31
0.0
  0
ARC
  5
3CF
  8
0
  6
CONTINUOUS
 62
     6
 10
394.834
 20
348.119
 30
0.0
 40
2.499999999999999
 50
267.981
 51
270.0
  0
ARC
  5
3D0
  8
0
  6
CONTINUOUS
 62
     5
 10
-397.496
 20
344.238
 30
0.0
 40
3.0
 50
27.425
 51
82.688
210
0.0
220
0.0
230
-1.0
  0
LINE
  5
3D1
  8
0
  6
CONTINUOUS
 62
     5
 10
396.961
 20
347.495
 30
0.0
 11
397.115
 21
347.213
 31
0.0
  0
LINE
  5
3D2
  8
0
  6
CONTINUOUS
 62
     5
 10
397.294
 20
347.677
 30
0.0
 11
396.961
 21
347.495
 31
0.0
  0
LINE
  5
3D3
  8
0
  6
CONTINUOUS
 62
     5
 10
397.051
 20
348.119
 30
0.0
 11
397.319
 21
347.851
 31
0.0
  0
LINE
  5
3D4
  8
0
  6
CONTINUOUS
 62
     5
 10
397.319
 20
348.388
 30
0.0
 11
397.051
 21
348.119
 31
0.0
  0
LINE
  5
3D5
  8
0
  6
CONTINUOUS
 62
     5
 10
396.961
 20
348.744
 30
0.0
 11
397.294
 21
348.562
 31
0.0
  0
LINE
  5
3D6
  8
0
  6
CONTINUOUS
 62
     5
 10
397.115
 20
349.026
 30
0.0
 11
396.961
 21
348.744
 31
0.0
  0
ARC
  5
3D7
  8
0
  6
CONTINUOUS
 62
     5
 10
-397.496
 20
352.001
 30
0.0
 40
3.0
 50
277.312
 51
332.575
210
0.0
220
0.0
230
-1.0
  0
ARC
  5
3D8
  8
0
  6
CONTINUOUS
 62
     6
 10
394.834
 20
348.119
 30
0.0
 40
2.499999999999999
 50
90.0
 51
92.019
  0
LINE
  5
3D9
  8
0
  6
CONTINUOUS
 62
     5
 10
394.518
 20
350.314
 30
0.0
 11
394.746
 21
350.618
 31
0.0
  0
LINE
  5
3DA
  8
0
  6
CONTINUOUS
 62
     5
 10
394.214
 20
350.542
 30
0.0
 11
394.518
 21
350.314
 31
0.0
  0
ARC
  5
3DB
  8
0
  6
CONTINUOUS
 62
     6
 10
394.834
 20
348.119
 30
0.0
 40
2.499999999999999
 50
104.345
 51
108.382
  0
LINE
  5
3DC
  8
0
  6
CONTINUOUS
 62
     5
 10
393.913
 20
350.136
 30
0.0
 11
394.045
 21
350.492
 31
0.0
  0
LINE
  5
3DD
  8
0
  6
CONTINUOUS
 62
     5
 10
393.557
 20
350.269
 30
0.0
 11
393.913
 21
350.136
 31
0.0
  0
ARC
  5
3DE
  8
0
  6
CONTINUOUS
 62
     6
 10
394.834
 20
348.119
 30
0.0
 40
2.499999999999999
 50
120.708
 51
124.746
  0
LINE
  5
3DF
  8
0
  6
CONTINUOUS
 62
     5
 10
393.382
 20
349.795
 30
0.0
 11
393.409
 21
350.174
 31
0.0
  0
LINE
  5
3E0
  8
0
  6
CONTINUOUS
 62
     5
 10
393.003
 20
349.822
 30
0.0
 11
393.382
 21
349.795
 31
0.0
  0
ARC
  5
3E1
  8
0
  6
CONTINUOUS
 62
     6
 10
394.834
 20
348.119
 30
0.0
 40
2.499999999999999
 50
137.072
 51
141.11
  0
LINE
  5
3E2
  8
0
  6
CONTINUOUS
 62
     5
 10
392.968
 20
349.318
 30
0.0
 11
392.888
 21
349.689
 31
0.0
  0
LINE
  5
3E3
  8
0
  6
CONTINUOUS
 62
     5
 10
392.598
 20
349.237
 30
0.0
 11
392.968
 21
349.318
 31
0.0
  0
ARC
  5
3E4
  8
0
  6
CONTINUOUS
 62
     6
 10
394.834
 20
348.119
 30
0.0
 40
2.499999999999999
 50
153.436
 51
157.473
  0
LINE
  5
3E5
  8
0
  6
CONTINUOUS
 62
     5
 10
392.706
 20
348.744
 30
0.0
 11
392.524
 21
349.077
 31
0.0
  0
LINE
  5
3E6
  8
0
  6
CONTINUOUS
 62
     5
 10
392.373
 20
348.562
 30
0.0
 11
392.706
 21
348.744
 31
0.0
  0
ARC
  5
3E7
  8
0
  6
CONTINUOUS
 62
     6
 10
394.834
 20
348.119
 30
0.0
 40
2.499999999999999
 50
169.799
 51
173.837
  0
LINE
  5
3E8
  8
0
  6
CONTINUOUS
 62
     5
 10
392.616
 20
348.119
 30
0.0
 11
392.348
 21
348.388
 31
0.0
  0
LINE
  5
3E9
  8
0
  6
CONTINUOUS
 62
     5
 10
392.348
 20
347.851
 30
0.0
 11
392.616
 21
348.119
 31
0.0
  0
ARC
  5
3EA
  8
0
  6
CONTINUOUS
 62
     5
 10
-396.233
 20
348.138
 30
0.0
 40
0.1000000014901161
 50
190.885
 51
252.059
210
0.0
220
0.0
230
-1.0
  0
ARC
  5
3EB
  8
0
  6
CONTINUOUS
 62
     5
 10
-397.496
 20
344.238
 30
0.0
 40
4.0
 50
39.042
 51
72.059
210
0.0
220
0.0
230
-1.0
  0
ARC
  5
3EC
  8
0
  6
CONTINUOUS
 62
     5
 10
-394.312
 20
346.82
 30
0.0
 40
0.1000000014901162
 50
219.042
 51
291.873
210
0.0
220
0.0
230
-1.0
  0
ARC
  5
3ED
  8
0
  6
CONTINUOUS
 62
     5
 10
394.834
 20
348.119
 30
0.0
 40
1.499999999999999
 50
111.873
 51
248.127
  0
ARC
  5
3EE
  8
0
  6
CONTINUOUS
 62
     5
 10
-394.312
 20
349.419
 30
0.0
 40
0.100000001490116
 50
68.127
 51
140.958
210
0.0
220
0.0
230
-1.0
  0
ARC
  5
3EF
  8
0
  6
CONTINUOUS
 62
     5
 10
-397.496
 20
352.001
 30
0.0
 40
3.999999999999999
 50
287.941
 51
320.958
210
0.0
220
0.0
230
-1.0
  0
ARC
  5
3F0
  8
0
  6
CONTINUOUS
 62
     5
 10
-396.233
 20
348.101
 30
0.0
 40
0.1000000014901158
 50
107.941
 51
169.115
210
0.0
220
0.0
230
-1.0
  0
POLYLINE
  5
3F1
  8
0
  6
CONTINUOUS
 62
     5
 66
     1
 10
0.0
 20
0.0
 30
0.0
  0
VERTEX
  5
8A9
  8
0
  6
CONTINUOUS
 62
     5
 10
392.348
 20
347.851
 30
0.0
  0
VERTEX
  5
8AA
  8
0
  6
CONTINUOUS
 62
     5
 10
392.348
 20
347.851
 30
0.0
  0
VERTEX
  5
8AB
  8
0
  6
CONTINUOUS
 62
     5
 10
392.348
 20
347.851
 30
0.0
  0
VERTEX
  5
8AC
  8
0
  6
CONTINUOUS
 62
     5
 10
392.349
 20
347.851
 30
0.0
  0
VERTEX
  5
8AD
  8
0
  6
CONTINUOUS
 62
     5
 10
392.349
 20
347.851
 30
0.0
  0
VERTEX
  5
8AE
  8
0
  6
CONTINUOUS
 62
     5
 10
392.35
 20
347.85
 30
0.0
  0
VERTEX
  5
8AF
  8
0
  6
CONTINUOUS
 62
     5
 10
392.351
 20
347.85
 30
0.0
  0
VERTEX
  5
8B0
  8
0
  6
CONTINUOUS
 62
     5
 10
392.352
 20
347.85
 30
0.0
  0
VERTEX
  5
8B1
  8
0
  6
CONTINUOUS
 62
     5
 10
392.354
 20
347.849
 30
0.0
  0
VERTEX
  5
8B2
  8
0
  6
CONTINUOUS
 62
     5
 10
392.355
 20
347.849
 30
0.0
  0
VERTEX
  5
8B3
  8
0
  6
CONTINUOUS
 62
     5
 10
392.357
 20
347.848
 30
0.0
  0
VERTEX
  5
8B4
  8
0
  6
CONTINUOUS
 62
     5
 10
392.359
 20
347.847
 30
0.0
  0
VERTEX
  5
8B5
  8
0
  6
CONTINUOUS
 62
     5
 10
392.361
 20
347.847
 30
0.0
  0
VERTEX
  5
8B6
  8
0
  6
CONTINUOUS
 62
     5
 10
392.363
 20
347.846
 30
0.0
  0
VERTEX
  5
8B7
  8
0
  6
CONTINUOUS
 62
     5
 10
392.365
 20
347.845
 30
0.0
  0
VERTEX
  5
8B8
  8
0
  6
CONTINUOUS
 62
     5
 10
392.367
 20
347.844
 30
0.0
  0
VERTEX
  5
8B9
  8
0
  6
CONTINUOUS
 62
     5
 10
392.37
 20
347.843
 30
0.0
  0
VERTEX
  5
8BA
  8
0
  6
CONTINUOUS
 62
     5
 10
392.372
 20
347.843
 30
0.0
  0
VERTEX
  5
8BB
  8
0
  6
CONTINUOUS
 62
     5
 10
392.375
 20
347.842
 30
0.0
  0
VERTEX
  5
8BC
  8
0
  6
CONTINUOUS
 62
     5
 10
392.378
 20
347.841
 30
0.0
  0
VERTEX
  5
8BD
  8
0
  6
CONTINUOUS
 62
     5
 10
392.381
 20
347.84
 30
0.0
  0
VERTEX
  5
8BE
  8
0
  6
CONTINUOUS
 62
     5
 10
392.384
 20
347.839
 30
0.0
  0
VERTEX
  5
8BF
  8
0
  6
CONTINUOUS
 62
     5
 10
392.387
 20
347.837
 30
0.0
  0
VERTEX
  5
8C0
  8
0
  6
CONTINUOUS
 62
     5
 10
392.39
 20
347.836
 30
0.0
  0
VERTEX
  5
8C1
  8
0
  6
CONTINUOUS
 62
     5
 10
392.393
 20
347.835
 30
0.0
  0
VERTEX
  5
8C2
  8
0
  6
CONTINUOUS
 62
     5
 10
392.397
 20
347.834
 30
0.0
  0
VERTEX
  5
8C3
  8
0
  6
CONTINUOUS
 62
     5
 10
392.4
 20
347.833
 30
0.0
  0
VERTEX
  5
8C4
  8
0
  6
CONTINUOUS
 62
     5
 10
392.404
 20
347.832
 30
0.0
  0
VERTEX
  5
8C5
  8
0
  6
CONTINUOUS
 62
     5
 10
392.407
 20
347.83
 30
0.0
  0
VERTEX
  5
8C6
  8
0
  6
CONTINUOUS
 62
     5
 10
392.411
 20
347.829
 30
0.0
  0
VERTEX
  5
8C7
  8
0
  6
CONTINUOUS
 62
     5
 10
392.415
 20
347.828
 30
0.0
  0
VERTEX
  5
8C8
  8
0
  6
CONTINUOUS
 62
     5
 10
392.418
 20
347.826
 30
0.0
  0
VERTEX
  5
8C9
  8
0
  6
CONTINUOUS
 62
     5
 10
392.422
 20
347.825
 30
0.0
  0
VERTEX
  5
8CA
  8
0
  6
CONTINUOUS
 62
     5
 10
392.426
 20
347.824
 30
0.0
  0
VERTEX
  5
8CB
  8
0
  6
CONTINUOUS
 62
     5
 10
392.43
 20
347.823
 30
0.0
  0
VERTEX
  5
8CC
  8
0
  6
CONTINUOUS
 62
     5
 10
392.434
 20
347.821
 30
0.0
  0
VERTEX
  5
8CD
  8
0
  6
CONTINUOUS
 62
     5
 10
392.438
 20
347.82
 30
0.0
  0
VERTEX
  5
8CE
  8
0
  6
CONTINUOUS
 62
     5
 10
392.441
 20
347.819
 30
0.0
  0
VERTEX
  5
8CF
  8
0
  6
CONTINUOUS
 62
     5
 10
392.445
 20
347.817
 30
0.0
  0
VERTEX
  5
8D0
  8
0
  6
CONTINUOUS
 62
     5
 10
392.449
 20
347.816
 30
0.0
  0
VERTEX
  5
8D1
  8
0
  6
CONTINUOUS
 62
     5
 10
392.453
 20
347.815
 30
0.0
  0
SEQEND
  5
8D2
  8
0
  6
CONTINUOUS
 62
     5
  0
LINE
  5
3F2
  8
0
  6
CONTINUOUS
 62
     5
 10
392.464
 20
347.741
 30
0.0
 11
392.373
 21
347.677
 31
0.0
  0
ARC
  5
3F3
  8
0
  6
CONTINUOUS
 62
     5
 10
394.834
 20
348.119
 30
0.0
 40
2.399999998509883
 50
187.297
 51
189.067
  0
LINE
  5
3F4
  8
0
  6
CONTINUOUS
 62
     5
 10
392.635
 20
347.156
 30
0.0
 11
392.524
 21
347.162
 31
0.0
  0
LINE
  5
3F5
  8
0
  6
CONTINUOUS
 62
     5
 10
392.666
 20
347.089
 30
0.0
 11
392.598
 21
347.001
 31
0.0
  0
ARC
  5
3F6
  8
0
  6
CONTINUOUS
 62
     5
 10
394.834
 20
348.119
 30
0.0
 40
2.399999998509883
 50
203.661
 51
205.43
  0
LINE
  5
3F7
  8
0
  6
CONTINUOUS
 62
     5
 10
392.996
 20
346.576
 30
0.0
 11
392.888
 21
346.55
 31
0.0
  0
LINE
  5
3F8
  8
0
  6
CONTINUOUS
 62
     5
 10
393.044
 20
346.52
 30
0.0
 11
393.003
 21
346.417
 31
0.0
  0
ARC
  5
3F9
  8
0
  6
CONTINUOUS
 62
     5
 10
394.834
 20
348.119
 30
0.0
 40
2.399999998509883
 50
220.024
 51
221.794
  0
LINE
  5
3FA
  8
0
  6
CONTINUOUS
 62
     5
 10
393.505
 20
346.121
 30
0.0
 11
393.409
 21
346.065
 31
0.0
  0
LINE
  5
3FB
  8
0
  6
CONTINUOUS
 62
     5
 10
393.567
 20
346.081
 30
0.0
 11
393.557
 21
345.97
 31
0.0
  0
ARC
  5
3FC
  8
0
  6
CONTINUOUS
 62
     5
 10
394.834
 20
348.119
 30
0.0
 40
2.399999998509883
 50
236.388
 51
238.158
  0
LINE
  5
3FD
  8
0
  6
CONTINUOUS
 62
     5
 10
394.122
 20
345.827
 30
0.0
 11
394.045
 21
345.747
 31
0.0
  0
LINE
  5
3FE
  8
0
  6
CONTINUOUS
 62
     5
 10
394.193
 20
345.806
 30
0.0
 11
394.214
 21
345.697
 31
0.0
  0
ARC
  5
3FF
  8
0
  6
CONTINUOUS
 62
     5
 10
394.834
 20
348.119
 30
0.0
 40
2.399999998509883
 50
252.751
 51
254.521
  0
LINE
  5
400
  8
0
  6
CONTINUOUS
 62
     5
 10
397.204
 20
347.741
 30
0.0
 11
397.294
 21
347.677
 31
0.0
  0
LINE
  5
401
  8
0
  6
CONTINUOUS
 62
     5
 10
397.214
 20
347.815
 30
0.0
 11
397.319
 21
347.851
 31
0.0
  0
ARC
  5
402
  8
0
  6
CONTINUOUS
 62
     5
 10
394.834
 20
348.119
 30
0.0
 40
2.399999998509883
 50
350.933
 51
352.703
  0
LINE
  5
403
  8
0
  6
CONTINUOUS
 62
     5
 10
397.214
 20
348.424
 30
0.0
 11
397.319
 21
348.388
 31
0.0
  0
LINE
  5
404
  8
0
  6
CONTINUOUS
 62
     5
 10
397.204
 20
348.498
 30
0.0
 11
397.294
 21
348.562
 31
0.0
  0
ARC
  5
405
  8
0
  6
CONTINUOUS
 62
     5
 10
394.834
 20
348.119
 30
0.0
 40
2.399999998509883
 50
7.297
 51
9.067
  0
LINE
  5
406
  8
0
  6
CONTINUOUS
 62
     5
 10
393.044
 20
349.719
 30
0.0
 11
393.003
 21
349.822
 31
0.0
  0
LINE
  5
407
  8
0
  6
CONTINUOUS
 62
     5
 10
392.996
 20
349.663
 30
0.0
 11
392.888
 21
349.689
 31
0.0
  0
ARC
  5
408
  8
0
  6
CONTINUOUS
 62
     5
 10
394.834
 20
348.119
 30
0.0
 40
2.399999998509883
 50
138.206
 51
139.976
  0
LINE
  5
409
  8
0
  6
CONTINUOUS
 62
     5
 10
392.666
 20
349.15
 30
0.0
 11
392.598
 21
349.237
 31
0.0
  0
LINE
  5
40A
  8
0
  6
CONTINUOUS
 62
     5
 10
392.635
 20
349.083
 30
0.0
 11
392.524
 21
349.077
 31
0.0
  0
ARC
  5
40B
  8
0
  6
CONTINUOUS
 62
     5
 10
394.834
 20
348.119
 30
0.0
 40
2.399999998509883
 50
154.57
 51
156.339
  0
LINE
  5
40C
  8
0
  6
CONTINUOUS
 62
     5
 10
392.464
 20
348.498
 30
0.0
 11
392.373
 21
348.562
 31
0.0
  0
LINE
  5
40D
  8
0
  6
CONTINUOUS
 62
     5
 10
392.348
 20
348.388
 30
0.0
 11
392.453
 21
348.424
 31
0.0
  0
ARC
  5
40E
  8
0
  6
CONTINUOUS
 62
     5
 10
394.834
 20
348.119
 30
0.0
 40
2.399999998509883
 50
170.933
 51
172.703
  0
LINE
  5
40F
  8
0
  6
CONTINUOUS
 62
     5
 10
394.786
 20
350.54
 30
0.0
 11
394.746
 21
350.618
 31
0.0
  0
LINE
  5
410
  8
0
  6
CONTINUOUS
 62
     5
 10
394.786
 20
350.54
 30
0.0
 11
394.834
 21
350.619
 31
0.0
  0
LINE
  5
411
  8
0
  6
CONTINUOUS
 62
     5
 10
394.786
 20
345.699
 30
0.0
 11
394.834
 21
345.619
 31
0.0
  0
LINE
  5
412
  8
0
  6
CONTINUOUS
 62
     5
 10
394.786
 20
345.699
 30
0.0
 11
394.746
 21
345.621
 31
0.0
  0
LINE
  5
413
  8
0
  6
CONTINUOUS
 62
     5
 10
387.929
 20
385.199
 30
0.0
 11
388.074
 21
384.361
 31
0.0
  0
LINE
  5
414
  8
0
  6
CONTINUOUS
 62
     5
 10
388.074
 20
384.361
 30
0.0
 11
389.353
 21
384.581
 31
0.0
  0
LINE
  5
415
  8
0
  6
CONTINUOUS
 62
     5
 10
389.353
 20
384.581
 30
0.0
 11
389.208
 21
385.42
 31
0.0
  0
LINE
  5
416
  8
0
  6
CONTINUOUS
 62
     5
 10
389.208
 20
385.42
 30
0.0
 11
390.047
 21
385.564
 31
0.0
  0
LINE
  5
417
  8
0
  6
CONTINUOUS
 62
     5
 10
389.827
 20
386.843
 30
0.0
 11
388.988
 21
386.698
 31
0.0
  0
LINE
  5
418
  8
0
  6
CONTINUOUS
 62
     5
 10
388.988
 20
386.698
 30
0.0
 11
388.843
 21
387.537
 31
0.0
  0
LINE
  5
419
  8
0
  6
CONTINUOUS
 62
     5
 10
388.843
 20
387.537
 30
0.0
 11
387.565
 21
387.317
 31
0.0
  0
LINE
  5
41A
  8
0
  6
CONTINUOUS
 62
     5
 10
387.565
 20
387.317
 30
0.0
 11
387.709
 21
386.478
 31
0.0
  0
LINE
  5
41B
  8
0
  6
CONTINUOUS
 62
     5
 10
387.709
 20
386.478
 30
0.0
 11
386.87
 21
386.334
 31
0.0
  0
LINE
  5
41C
  8
0
  6
CONTINUOUS
 62
     5
 10
387.091
 20
385.055
 30
0.0
 11
387.929
 21
385.199
 31
0.0
  0
LINE
  5
41D
  8
0
  6
CONTINUOUS
 62
     5
 10
387.929
 20
385.199
 30
0.0
 11
388.051
 21
385.371
 31
0.0
  0
LINE
  5
41E
  8
0
  6
CONTINUOUS
 62
     5
 10
387.846
 20
385.336
 30
0.0
 11
388.051
 21
385.371
 31
0.0
  0
LINE
  5
41F
  8
0
  6
CONTINUOUS
 62
     5
 10
387.091
 20
385.055
 30
0.0
 11
387.846
 21
385.336
 31
0.0
  0
LINE
  5
420
  8
0
  6
CONTINUOUS
 62
     5
 10
388.074
 20
384.361
 30
0.0
 11
388.086
 21
385.167
 31
0.0
  0
LINE
  5
421
  8
0
  6
CONTINUOUS
 62
     5
 10
388.051
 20
385.371
 30
0.0
 11
388.086
 21
385.167
 31
0.0
  0
LINE
  5
422
  8
0
  6
CONTINUOUS
 62
     5
 10
389.353
 20
384.581
 30
0.0
 11
389.071
 21
385.337
 31
0.0
  0
LINE
  5
423
  8
0
  6
CONTINUOUS
 62
     5
 10
388.086
 20
385.167
 30
0.0
 11
389.071
 21
385.337
 31
0.0
  0
LINE
  5
424
  8
0
  6
CONTINUOUS
 62
     5
 10
389.208
 20
385.42
 30
0.0
 11
389.036
 21
385.541
 31
0.0
  0
LINE
  5
425
  8
0
  6
CONTINUOUS
 62
     5
 10
389.071
 20
385.337
 30
0.0
 11
389.036
 21
385.541
 31
0.0
  0
LINE
  5
426
  8
0
  6
CONTINUOUS
 62
     5
 10
390.047
 20
385.564
 30
0.0
 11
389.24
 21
385.576
 31
0.0
  0
LINE
  5
427
  8
0
  6
CONTINUOUS
 62
     5
 10
389.036
 20
385.541
 30
0.0
 11
389.24
 21
385.576
 31
0.0
  0
LINE
  5
428
  8
0
  6
CONTINUOUS
 62
     5
 10
389.827
 20
386.843
 30
0.0
 11
389.071
 21
386.562
 31
0.0
  0
LINE
  5
429
  8
0
  6
CONTINUOUS
 62
     5
 10
389.24
 20
385.576
 30
0.0
 11
389.071
 21
386.562
 31
0.0
  0
LINE
  5
42A
  8
0
  6
CONTINUOUS
 62
     5
 10
388.988
 20
386.698
 30
0.0
 11
388.866
 21
386.527
 31
0.0
  0
LINE
  5
42B
  8
0
  6
CONTINUOUS
 62
     5
 10
389.071
 20
386.562
 30
0.0
 11
388.866
 21
386.527
 31
0.0
  0
LINE
  5
42C
  8
0
  6
CONTINUOUS
 62
     5
 10
388.843
 20
387.537
 30
0.0
 11
388.831
 21
386.731
 31
0.0
  0
LINE
  5
42D
  8
0
  6
CONTINUOUS
 62
     5
 10
388.866
 20
386.527
 30
0.0
 11
388.831
 21
386.731
 31
0.0
  0
LINE
  5
42E
  8
0
  6
CONTINUOUS
 62
     5
 10
387.565
 20
387.317
 30
0.0
 11
387.846
 21
386.561
 31
0.0
  0
LINE
  5
42F
  8
0
  6
CONTINUOUS
 62
     5
 10
388.831
 20
386.731
 30
0.0
 11
387.846
 21
386.561
 31
0.0
  0
LINE
  5
430
  8
0
  6
CONTINUOUS
 62
     5
 10
387.709
 20
386.478
 30
0.0
 11
387.881
 21
386.357
 31
0.0
  0
LINE
  5
431
  8
0
  6
CONTINUOUS
 62
     5
 10
387.846
 20
386.561
 30
0.0
 11
387.881
 21
386.357
 31
0.0
  0
LINE
  5
432
  8
0
  6
CONTINUOUS
 62
     5
 10
386.87
 20
386.334
 30
0.0
 11
387.677
 21
386.322
 31
0.0
  0
LINE
  5
433
  8
0
  6
CONTINUOUS
 62
     5
 10
387.881
 20
386.357
 30
0.0
 11
387.677
 21
386.322
 31
0.0
  0
LINE
  5
434
  8
0
  6
CONTINUOUS
 62
     5
 10
387.677
 20
386.322
 30
0.0
 11
387.846
 21
385.336
 31
0.0
  0
LINE
  5
435
  8
0
  6
CONTINUOUS
 62
     5
 10
389.869
 20
386.598
 30
0.0
 11
389.827
 21
386.843
 31
0.0
  0
LINE
  5
436
  8
0
  6
CONTINUOUS
 62
     5
 10
390.047
 20
385.564
 30
0.0
 11
390.005
 21
385.809
 31
0.0
  0
LINE
  5
437
  8
0
  6
CONTINUOUS
 62
     5
 10
386.87
 20
386.334
 30
0.0
 11
386.912
 21
386.088
 31
0.0
  0
LINE
  5
438
  8
0
  6
CONTINUOUS
 62
     5
 10
387.048
 20
385.3
 30
0.0
 11
387.091
 21
385.055
 31
0.0
  0
LINE
  5
439
  8
0
  6
CONTINUOUS
 62
     5
 10
389.869
 20
386.598
 30
0.0
 11
389.501
 21
386.534
 31
0.0
  0
LINE
  5
43A
  8
0
  6
CONTINUOUS
 62
     5
 10
390.005
 20
385.809
 30
0.0
 11
389.637
 21
385.746
 31
0.0
  0
LINE
  5
43B
  8
0
  6
CONTINUOUS
 62
     5
 10
389.501
 20
386.534
 30
0.0
 11
389.637
 21
385.746
 31
0.0
  0
LINE
  5
43C
  8
0
  6
CONTINUOUS
 62
     5
 10
386.912
 20
386.088
 30
0.0
 11
387.28
 21
386.152
 31
0.0
  0
LINE
  5
43D
  8
0
  6
CONTINUOUS
 62
     5
 10
387.048
 20
385.3
 30
0.0
 11
387.416
 21
385.363
 31
0.0
  0
LINE
  5
43E
  8
0
  6
CONTINUOUS
 62
     5
 10
387.28
 20
386.152
 30
0.0
 11
387.416
 21
385.363
 31
0.0
  0
ARC
  5
43F
  8
0
  6
CONTINUOUS
 62
     5
 10
-388.459
 20
385.949
 30
0.0
 40
2.3
 50
160.208
 51
170.223
210
0.0
220
0.0
230
-1.0
  0
ARC
  5
440
  8
0
  6
CONTINUOUS
 62
     5
 10
-388.459
 20
385.949
 30
0.0
 40
2.3
 50
350.223
 51
0.239
210
0.0
220
0.0
230
-1.0
  0
ARC
  5
441
  8
0
  6
CONTINUOUS
 62
     5
 10
388.459
 20
385.949
 30
0.0
 40
2.3
 50
359.761
 51
9.777
  0
ARC
  5
442
  8
0
  6
CONTINUOUS
 62
     5
 10
388.459
 20
385.949
 30
0.0
 40
2.3
 50
189.777
 51
199.792
  0
ARC
  5
443
  8
0
  6
CONTINUOUS
 62
     5
 10
388.459
 20
385.949
 30
0.0
 40
2.3
 50
199.792
 51
359.761
  0
LINE
  5
444
  8
0
  6
CONTINUOUS
 62
     5
 10
386.595
 20
385.222
 30
0.0
 11
387.048
 21
385.3
 31
0.0
  0
LINE
  5
445
  8
0
  6
CONTINUOUS
 62
     5
 10
390.005
 20
385.809
 30
0.0
 11
390.458
 21
385.887
 31
0.0
  0
ARC
  5
446
  8
0
  6
CONTINUOUS
 62
     5
 10
-388.459
 20
385.949
 30
0.0
 40
2.3
 50
0.239
 51
160.208
210
0.0
220
0.0
230
-1.0
  0
LINE
  5
447
  8
0
  6
CONTINUOUS
 62
     5
 10
386.912
 20
386.088
 30
0.0
 11
386.46
 21
386.01
 31
0.0
  0
LINE
  5
448
  8
0
  6
CONTINUOUS
 62
     5
 10
390.322
 20
386.676
 30
0.0
 11
389.869
 21
386.598
 31
0.0
  0
LINE
  5
449
  8
0
  6
CONTINUOUS
 62
     5
 10
386.595
 20
385.222
 30
0.0
 11
386.295
 21
385.17
 31
0.0
  0
LINE
  5
44A
  8
0
  6
CONTINUOUS
 62
     5
 10
390.458
 20
385.887
 30
0.0
 11
390.759
 21
385.939
 31
0.0
  0
LINE
  5
44B
  8
0
  6
CONTINUOUS
 62
     5
 10
386.46
 20
386.01
 30
0.0
 11
386.159
 21
385.958
 31
0.0
  0
LINE
  5
44C
  8
0
  6
CONTINUOUS
 62
     5
 10
390.623
 20
386.728
 30
0.0
 11
390.322
 21
386.676
 31
0.0
  0
LINE
  5
44D
  8
0
  6
CONTINUOUS
 62
     4
 10
490.31
 20
345.619
 30
0.0
 11
490.31
 21
345.621
 31
0.0
  0
LINE
  5
44E
  8
0
  6
CONTINUOUS
 62
     4
 10
490.31
 20
350.618
 30
0.0
 11
490.31
 21
350.619
 31
0.0
  0
LINE
  5
44F
  8
0
  6
CONTINUOUS
 62
     5
 10
484.41
 20
347.851
 30
0.0
 11
490.31
 21
347.851
 31
0.0
  0
LINE
  5
450
  8
0
  6
CONTINUOUS
 62
     5
 10
490.31
 20
347.495
 30
0.0
 11
484.41
 21
347.495
 31
0.0
  0
LINE
  5
451
  8
0
  6
CONTINUOUS
 62
     5
 10
484.41
 20
347.162
 30
0.0
 11
490.31
 21
347.162
 31
0.0
  0
LINE
  5
452
  8
0
  6
CONTINUOUS
 62
     5
 10
490.31
 20
346.921
 30
0.0
 11
484.41
 21
346.921
 31
0.0
  0
LINE
  5
453
  8
0
  6
CONTINUOUS
 62
     5
 10
484.41
 20
346.417
 30
0.0
 11
490.31
 21
346.417
 31
0.0
  0
LINE
  5
454
  8
0
  6
CONTINUOUS
 62
     5
 10
484.41
 20
345.97
 30
0.0
 11
490.31
 21
345.97
 31
0.0
  0
LINE
  5
455
  8
0
  6
CONTINUOUS
 62
     4
 10
484.41
 20
345.621
 30
0.0
 11
490.31
 21
345.621
 31
0.0
  0
LINE
  5
456
  8
0
  6
CONTINUOUS
 62
     4
 10
484.41
 20
345.619
 30
0.0
 11
490.31
 21
345.619
 31
0.0
  0
LINE
  5
457
  8
0
  6
CONTINUOUS
 62
     4
 10
484.41
 20
350.619
 30
0.0
 11
490.31
 21
350.619
 31
0.0
  0
LINE
  5
458
  8
0
  6
CONTINUOUS
 62
     4
 10
484.41
 20
350.618
 30
0.0
 11
490.31
 21
350.618
 31
0.0
  0
LINE
  5
459
  8
0
  6
CONTINUOUS
 62
     5
 10
484.41
 20
350.492
 30
0.0
 11
490.31
 21
350.492
 31
0.0
  0
LINE
  5
45A
  8
0
  6
CONTINUOUS
 62
     5
 10
484.41
 20
350.174
 30
0.0
 11
490.31
 21
350.174
 31
0.0
  0
LINE
  5
45B
  8
0
  6
CONTINUOUS
 62
     5
 10
484.41
 20
349.689
 30
0.0
 11
490.31
 21
349.689
 31
0.0
  0
LINE
  5
45C
  8
0
  6
CONTINUOUS
 62
     5
 10
490.31
 20
349.318
 30
0.0
 11
484.41
 21
349.318
 31
0.0
  0
LINE
  5
45D
  8
0
  6
CONTINUOUS
 62
     5
 10
484.41
 20
349.077
 30
0.0
 11
490.31
 21
349.077
 31
0.0
  0
LINE
  5
45E
  8
0
  6
CONTINUOUS
 62
     5
 10
490.31
 20
348.744
 30
0.0
 11
484.41
 21
348.744
 31
0.0
  0
LINE
  5
45F
  8
0
  6
CONTINUOUS
 62
     5
 10
484.41
 20
348.388
 30
0.0
 11
490.31
 21
348.388
 31
0.0
  0
POLYLINE
  5
460
  8
0
  6
CONTINUOUS
 62
     5
 66
     1
 10
0.0
 20
0.0
 30
0.0
  0
VERTEX
  5
8D3
  8
0
  6
CONTINUOUS
 62
     5
 10
490.31
 20
347.851
 30
0.0
  0
VERTEX
  5
8D4
  8
0
  6
CONTINUOUS
 62
     5
 10
490.315
 20
347.851
 30
0.0
  0
VERTEX
  5
8D5
  8
0
  6
CONTINUOUS
 62
     5
 10
490.319
 20
347.851
 30
0.0
  0
VERTEX
  5
8D6
  8
0
  6
CONTINUOUS
 62
     5
 10
490.323
 20
347.851
 30
0.0
  0
VERTEX
  5
8D7
  8
0
  6
CONTINUOUS
 62
     5
 10
490.327
 20
347.851
 30
0.0
  0
VERTEX
  5
8D8
  8
0
  6
CONTINUOUS
 62
     5
 10
490.331
 20
347.85
 30
0.0
  0
VERTEX
  5
8D9
  8
0
  6
CONTINUOUS
 62
     5
 10
490.335
 20
347.85
 30
0.0
  0
VERTEX
  5
8DA
  8
0
  6
CONTINUOUS
 62
     5
 10
490.339
 20
347.85
 30
0.0
  0
VERTEX
  5
8DB
  8
0
  6
CONTINUOUS
 62
     5
 10
490.343
 20
347.849
 30
0.0
  0
VERTEX
  5
8DC
  8
0
  6
CONTINUOUS
 62
     5
 10
490.347
 20
347.849
 30
0.0
  0
VERTEX
  5
8DD
  8
0
  6
CONTINUOUS
 62
     5
 10
490.351
 20
347.848
 30
0.0
  0
VERTEX
  5
8DE
  8
0
  6
CONTINUOUS
 62
     5
 10
490.354
 20
347.847
 30
0.0
  0
VERTEX
  5
8DF
  8
0
  6
CONTINUOUS
 62
     5
 10
490.358
 20
347.847
 30
0.0
  0
VERTEX
  5
8E0
  8
0
  6
CONTINUOUS
 62
     5
 10
490.361
 20
347.846
 30
0.0
  0
VERTEX
  5
8E1
  8
0
  6
CONTINUOUS
 62
     5
 10
490.365
 20
347.845
 30
0.0
  0
VERTEX
  5
8E2
  8
0
  6
CONTINUOUS
 62
     5
 10
490.368
 20
347.844
 30
0.0
  0
VERTEX
  5
8E3
  8
0
  6
CONTINUOUS
 62
     5
 10
490.371
 20
347.843
 30
0.0
  0
VERTEX
  5
8E4
  8
0
  6
CONTINUOUS
 62
     5
 10
490.374
 20
347.843
 30
0.0
  0
VERTEX
  5
8E5
  8
0
  6
CONTINUOUS
 62
     5
 10
490.377
 20
347.842
 30
0.0
  0
VERTEX
  5
8E6
  8
0
  6
CONTINUOUS
 62
     5
 10
490.38
 20
347.841
 30
0.0
  0
VERTEX
  5
8E7
  8
0
  6
CONTINUOUS
 62
     5
 10
490.383
 20
347.84
 30
0.0
  0
VERTEX
  5
8E8
  8
0
  6
CONTINUOUS
 62
     5
 10
490.386
 20
347.839
 30
0.0
  0
VERTEX
  5
8E9
  8
0
  6
CONTINUOUS
 62
     5
 10
490.388
 20
347.837
 30
0.0
  0
VERTEX
  5
8EA
  8
0
  6
CONTINUOUS
 62
     5
 10
490.391
 20
347.836
 30
0.0
  0
VERTEX
  5
8EB
  8
0
  6
CONTINUOUS
 62
     5
 10
490.393
 20
347.835
 30
0.0
  0
VERTEX
  5
8EC
  8
0
  6
CONTINUOUS
 62
     5
 10
490.395
 20
347.834
 30
0.0
  0
VERTEX
  5
8ED
  8
0
  6
CONTINUOUS
 62
     5
 10
490.397
 20
347.833
 30
0.0
  0
VERTEX
  5
8EE
  8
0
  6
CONTINUOUS
 62
     5
 10
490.399
 20
347.832
 30
0.0
  0
VERTEX
  5
8EF
  8
0
  6
CONTINUOUS
 62
     5
 10
490.4
 20
347.83
 30
0.0
  0
VERTEX
  5
8F0
  8
0
  6
CONTINUOUS
 62
     5
 10
490.402
 20
347.829
 30
0.0
  0
VERTEX
  5
8F1
  8
0
  6
CONTINUOUS
 62
     5
 10
490.403
 20
347.828
 30
0.0
  0
VERTEX
  5
8F2
  8
0
  6
CONTINUOUS
 62
     5
 10
490.405
 20
347.826
 30
0.0
  0
VERTEX
  5
8F3
  8
0
  6
CONTINUOUS
 62
     5
 10
490.406
 20
347.825
 30
0.0
  0
VERTEX
  5
8F4
  8
0
  6
CONTINUOUS
 62
     5
 10
490.407
 20
347.824
 30
0.0
  0
VERTEX
  5
8F5
  8
0
  6
CONTINUOUS
 62
     5
 10
490.408
 20
347.823
 30
0.0
  0
VERTEX
  5
8F6
  8
0
  6
CONTINUOUS
 62
     5
 10
490.409
 20
347.821
 30
0.0
  0
VERTEX
  5
8F7
  8
0
  6
CONTINUOUS
 62
     5
 10
490.409
 20
347.82
 30
0.0
  0
VERTEX
  5
8F8
  8
0
  6
CONTINUOUS
 62
     5
 10
490.41
 20
347.819
 30
0.0
  0
VERTEX
  5
8F9
  8
0
  6
CONTINUOUS
 62
     5
 10
490.41
 20
347.817
 30
0.0
  0
VERTEX
  5
8FA
  8
0
  6
CONTINUOUS
 62
     5
 10
490.41
 20
347.816
 30
0.0
  0
VERTEX
  5
8FB
  8
0
  6
CONTINUOUS
 62
     5
 10
490.41
 20
347.815
 30
0.0
  0
SEQEND
  5
8FC
  8
0
  6
CONTINUOUS
 62
     5
  0
LINE
  5
461
  8
0
  6
CONTINUOUS
 62
     4
 10
490.41
 20
347.815
 30
0.0
 11
490.41
 21
348.119
 31
0.0
  0
LINE
  5
462
  8
0
  6
CONTINUOUS
 62
     4
 10
490.41
 20
347.741
 30
0.0
 11
490.41
 21
347.815
 31
0.0
  0
LINE
  5
463
  8
0
  6
CONTINUOUS
 62
     4
 10
490.41
 20
347.535
 30
0.0
 11
490.41
 21
347.741
 31
0.0
  0
POLYLINE
  5
464
  8
0
  6
CONTINUOUS
 62
     5
 66
     1
 10
0.0
 20
0.0
 30
0.0
  0
VERTEX
  5
8FD
  8
0
  6
CONTINUOUS
 62
     5
 10
490.41
 20
347.535
 30
0.0
  0
VERTEX
  5
8FE
  8
0
  6
CONTINUOUS
 62
     5
 10
490.41
 20
347.533
 30
0.0
  0
VERTEX
  5
8FF
  8
0
  6
CONTINUOUS
 62
     5
 10
490.41
 20
347.532
 30
0.0
  0
VERTEX
  5
900
  8
0
  6
CONTINUOUS
 62
     5
 10
490.41
 20
347.531
 30
0.0
  0
VERTEX
  5
901
  8
0
  6
CONTINUOUS
 62
     5
 10
490.41
 20
347.529
 30
0.0
  0
VERTEX
  5
902
  8
0
  6
CONTINUOUS
 62
     5
 10
490.409
 20
347.528
 30
0.0
  0
VERTEX
  5
903
  8
0
  6
CONTINUOUS
 62
     5
 10
490.408
 20
347.527
 30
0.0
  0
VERTEX
  5
904
  8
0
  6
CONTINUOUS
 62
     5
 10
490.408
 20
347.525
 30
0.0
  0
VERTEX
  5
905
  8
0
  6
CONTINUOUS
 62
     5
 10
490.407
 20
347.524
 30
0.0
  0
VERTEX
  5
906
  8
0
  6
CONTINUOUS
 62
     5
 10
490.406
 20
347.523
 30
0.0
  0
VERTEX
  5
907
  8
0
  6
CONTINUOUS
 62
     5
 10
490.405
 20
347.521
 30
0.0
  0
VERTEX
  5
908
  8
0
  6
CONTINUOUS
 62
     5
 10
490.404
 20
347.52
 30
0.0
  0
VERTEX
  5
909
  8
0
  6
CONTINUOUS
 62
     5
 10
490.402
 20
347.519
 30
0.0
  0
VERTEX
  5
90A
  8
0
  6
CONTINUOUS
 62
     5
 10
490.401
 20
347.517
 30
0.0
  0
VERTEX
  5
90B
  8
0
  6
CONTINUOUS
 62
     5
 10
490.399
 20
347.516
 30
0.0
  0
VERTEX
  5
90C
  8
0
  6
CONTINUOUS
 62
     5
 10
490.397
 20
347.515
 30
0.0
  0
VERTEX
  5
90D
  8
0
  6
CONTINUOUS
 62
     5
 10
490.396
 20
347.514
 30
0.0
  0
VERTEX
  5
90E
  8
0
  6
CONTINUOUS
 62
     5
 10
490.394
 20
347.512
 30
0.0
  0
VERTEX
  5
90F
  8
0
  6
CONTINUOUS
 62
     5
 10
490.391
 20
347.511
 30
0.0
  0
VERTEX
  5
910
  8
0
  6
CONTINUOUS
 62
     5
 10
490.389
 20
347.51
 30
0.0
  0
VERTEX
  5
911
  8
0
  6
CONTINUOUS
 62
     5
 10
490.387
 20
347.509
 30
0.0
  0
VERTEX
  5
912
  8
0
  6
CONTINUOUS
 62
     5
 10
490.384
 20
347.508
 30
0.0
  0
VERTEX
  5
913
  8
0
  6
CONTINUOUS
 62
     5
 10
490.382
 20
347.507
 30
0.0
  0
VERTEX
  5
914
  8
0
  6
CONTINUOUS
 62
     5
 10
490.379
 20
347.506
 30
0.0
  0
VERTEX
  5
915
  8
0
  6
CONTINUOUS
 62
     5
 10
490.376
 20
347.505
 30
0.0
  0
VERTEX
  5
916
  8
0
  6
CONTINUOUS
 62
     5
 10
490.373
 20
347.503
 30
0.0
  0
VERTEX
  5
917
  8
0
  6
CONTINUOUS
 62
     5
 10
490.37
 20
347.502
 30
0.0
  0
VERTEX
  5
918
  8
0
  6
CONTINUOUS
 62
     5
 10
490.366
 20
347.502
 30
0.0
  0
VERTEX
  5
919
  8
0
  6
CONTINUOUS
 62
     5
 10
490.363
 20
347.501
 30
0.0
  0
VERTEX
  5
91A
  8
0
  6
CONTINUOUS
 62
     5
 10
490.359
 20
347.5
 30
0.0
  0
VERTEX
  5
91B
  8
0
  6
CONTINUOUS
 62
     5
 10
490.355
 20
347.499
 30
0.0
  0
VERTEX
  5
91C
  8
0
  6
CONTINUOUS
 62
     5
 10
490.351
 20
347.498
 30
0.0
  0
VERTEX
  5
91D
  8
0
  6
CONTINUOUS
 62
     5
 10
490.347
 20
347.498
 30
0.0
  0
VERTEX
  5
91E
  8
0
  6
CONTINUOUS
 62
     5
 10
490.343
 20
347.497
 30
0.0
  0
VERTEX
  5
91F
  8
0
  6
CONTINUOUS
 62
     5
 10
490.338
 20
347.496
 30
0.0
  0
VERTEX
  5
920
  8
0
  6
CONTINUOUS
 62
     5
 10
490.334
 20
347.496
 30
0.0
  0
VERTEX
  5
921
  8
0
  6
CONTINUOUS
 62
     5
 10
490.329
 20
347.496
 30
0.0
  0
VERTEX
  5
922
  8
0
  6
CONTINUOUS
 62
     5
 10
490.325
 20
347.495
 30
0.0
  0
VERTEX
  5
923
  8
0
  6
CONTINUOUS
 62
     5
 10
490.32
 20
347.495
 30
0.0
  0
VERTEX
  5
924
  8
0
  6
CONTINUOUS
 62
     5
 10
490.315
 20
347.495
 30
0.0
  0
VERTEX
  5
925
  8
0
  6
CONTINUOUS
 62
     5
 10
490.31
 20
347.495
 30
0.0
  0
SEQEND
  5
926
  8
0
  6
CONTINUOUS
 62
     5
  0
ARC
  5
465
  8
0
  6
CONTINUOUS
 62
     5
 10
490.335
 20
346.686
 30
0.0
 40
0.4762928186888525
 50
80.887
 51
92.956
  0
LINE
  5
466
  8
0
  6
CONTINUOUS
 62
     4
 10
490.41
 20
347.156
 30
0.0
 11
490.41
 21
347.535
 31
0.0
  0
LINE
  5
467
  8
0
  6
CONTINUOUS
 62
     4
 10
490.41
 20
347.089
 30
0.0
 11
490.41
 21
347.156
 31
0.0
  0
LINE
  5
468
  8
0
  6
CONTINUOUS
 62
     4
 10
490.41
 20
346.997
 30
0.0
 11
490.41
 21
347.089
 31
0.0
  0
POLYLINE
  5
469
  8
0
  6
CONTINUOUS
 62
     5
 66
     1
 10
0.0
 20
0.0
 30
0.0
  0
VERTEX
  5
927
  8
0
  6
CONTINUOUS
 62
     5
 10
490.41
 20
346.997
 30
0.0
  0
VERTEX
  5
928
  8
0
  6
CONTINUOUS
 62
     5
 10
490.41
 20
346.995
 30
0.0
  0
VERTEX
  5
929
  8
0
  6
CONTINUOUS
 62
     5
 10
490.41
 20
346.992
 30
0.0
  0
VERTEX
  5
92A
  8
0
  6
CONTINUOUS
 62
     5
 10
490.41
 20
346.99
 30
0.0
  0
VERTEX
  5
92B
  8
0
  6
CONTINUOUS
 62
     5
 10
490.41
 20
346.987
 30
0.0
  0
VERTEX
  5
92C
  8
0
  6
CONTINUOUS
 62
     5
 10
490.409
 20
346.984
 30
0.0
  0
VERTEX
  5
92D
  8
0
  6
CONTINUOUS
 62
     5
 10
490.408
 20
346.982
 30
0.0
  0
VERTEX
  5
92E
  8
0
  6
CONTINUOUS
 62
     5
 10
490.408
 20
346.979
 30
0.0
  0
VERTEX
  5
92F
  8
0
  6
CONTINUOUS
 62
     5
 10
490.407
 20
346.977
 30
0.0
  0
VERTEX
  5
930
  8
0
  6
CONTINUOUS
 62
     5
 10
490.406
 20
346.974
 30
0.0
  0
VERTEX
  5
931
  8
0
  6
CONTINUOUS
 62
     5
 10
490.405
 20
346.972
 30
0.0
  0
VERTEX
  5
932
  8
0
  6
CONTINUOUS
 62
     5
 10
490.404
 20
346.969
 30
0.0
  0
VERTEX
  5
933
  8
0
  6
CONTINUOUS
 62
     5
 10
490.402
 20
346.967
 30
0.0
  0
VERTEX
  5
934
  8
0
  6
CONTINUOUS
 62
     5
 10
490.401
 20
346.964
 30
0.0
  0
VERTEX
  5
935
  8
0
  6
CONTINUOUS
 62
     5
 10
490.399
 20
346.962
 30
0.0
  0
VERTEX
  5
936
  8
0
  6
CONTINUOUS
 62
     5
 10
490.397
 20
346.959
 30
0.0
  0
VERTEX
  5
937
  8
0
  6
CONTINUOUS
 62
     5
 10
490.396
 20
346.957
 30
0.0
  0
VERTEX
  5
938
  8
0
  6
CONTINUOUS
 62
     5
 10
490.394
 20
346.955
 30
0.0
  0
VERTEX
  5
939
  8
0
  6
CONTINUOUS
 62
     5
 10
490.391
 20
346.952
 30
0.0
  0
VERTEX
  5
93A
  8
0
  6
CONTINUOUS
 62
     5
 10
490.389
 20
346.95
 30
0.0
  0
VERTEX
  5
93B
  8
0
  6
CONTINUOUS
 62
     5
 10
490.387
 20
346.948
 30
0.0
  0
VERTEX
  5
93C
  8
0
  6
CONTINUOUS
 62
     5
 10
490.384
 20
346.946
 30
0.0
  0
VERTEX
  5
93D
  8
0
  6
CONTINUOUS
 62
     5
 10
490.382
 20
346.944
 30
0.0
  0
VERTEX
  5
93E
  8
0
  6
CONTINUOUS
 62
     5
 10
490.379
 20
346.941
 30
0.0
  0
VERTEX
  5
93F
  8
0
  6
CONTINUOUS
 62
     5
 10
490.376
 20
346.939
 30
0.0
  0
VERTEX
  5
940
  8
0
  6
CONTINUOUS
 62
     5
 10
490.373
 20
346.937
 30
0.0
  0
VERTEX
  5
941
  8
0
  6
CONTINUOUS
 62
     5
 10
490.37
 20
346.936
 30
0.0
  0
VERTEX
  5
942
  8
0
  6
CONTINUOUS
 62
     5
 10
490.366
 20
346.934
 30
0.0
  0
VERTEX
  5
943
  8
0
  6
CONTINUOUS
 62
     5
 10
490.363
 20
346.932
 30
0.0
  0
VERTEX
  5
944
  8
0
  6
CONTINUOUS
 62
     5
 10
490.359
 20
346.93
 30
0.0
  0
VERTEX
  5
945
  8
0
  6
CONTINUOUS
 62
     5
 10
490.355
 20
346.929
 30
0.0
  0
VERTEX
  5
946
  8
0
  6
CONTINUOUS
 62
     5
 10
490.351
 20
346.927
 30
0.0
  0
VERTEX
  5
947
  8
0
  6
CONTINUOUS
 62
     5
 10
490.347
 20
346.926
 30
0.0
  0
VERTEX
  5
948
  8
0
  6
CONTINUOUS
 62
     5
 10
490.343
 20
346.925
 30
0.0
  0
VERTEX
  5
949
  8
0
  6
CONTINUOUS
 62
     5
 10
490.338
 20
346.924
 30
0.0
  0
VERTEX
  5
94A
  8
0
  6
CONTINUOUS
 62
     5
 10
490.334
 20
346.923
 30
0.0
  0
VERTEX
  5
94B
  8
0
  6
CONTINUOUS
 62
     5
 10
490.329
 20
346.922
 30
0.0
  0
VERTEX
  5
94C
  8
0
  6
CONTINUOUS
 62
     5
 10
490.325
 20
346.922
 30
0.0
  0
VERTEX
  5
94D
  8
0
  6
CONTINUOUS
 62
     5
 10
490.32
 20
346.921
 30
0.0
  0
VERTEX
  5
94E
  8
0
  6
CONTINUOUS
 62
     5
 10
490.315
 20
346.921
 30
0.0
  0
VERTEX
  5
94F
  8
0
  6
CONTINUOUS
 62
     5
 10
490.31
 20
346.921
 30
0.0
  0
SEQEND
  5
950
  8
0
  6
CONTINUOUS
 62
     5
  0
LINE
  5
46A
  8
0
  6
CONTINUOUS
 62
     4
 10
490.41
 20
346.576
 30
0.0
 11
490.41
 21
346.997
 31
0.0
  0
ARC
  5
46B
  8
0
  6
CONTINUOUS
 62
     5
 10
-490.309
 20
346.518
 30
0.0
 40
0.1016629093026406
 50
179.124
 51
269.069
210
0.0
220
0.0
230
-1.0
  0
LINE
  5
46C
  8
0
  6
CONTINUOUS
 62
     4
 10
490.41
 20
346.52
 30
0.0
 11
490.41
 21
346.576
 31
0.0
  0
LINE
  5
46D
  8
0
  6
CONTINUOUS
 62
     4
 10
490.41
 20
346.121
 30
0.0
 11
490.41
 21
346.52
 31
0.0
  0
ARC
  5
46E
  8
0
  6
CONTINUOUS
 62
     5
 10
-490.305
 20
346.076
 30
0.0
 40
0.105825364777692
 50
177.311
 51
266.908
210
0.0
220
0.0
230
-1.0
  0
LINE
  5
46F
  8
0
  6
CONTINUOUS
 62
     4
 10
490.41
 20
346.081
 30
0.0
 11
490.41
 21
346.121
 31
0.0
  0
LINE
  5
470
  8
0
  6
CONTINUOUS
 62
     4
 10
490.41
 20
345.827
 30
0.0
 11
490.41
 21
346.081
 31
0.0
  0
LINE
  5
471
  8
0
  6
CONTINUOUS
 62
     4
 10
490.41
 20
345.806
 30
0.0
 11
490.41
 21
345.827
 31
0.0
  0
POLYLINE
  5
472
  8
0
  6
CONTINUOUS
 62
     5
 66
     1
 10
0.0
 20
0.0
 30
0.0
  0
VERTEX
  5
951
  8
0
  6
CONTINUOUS
 62
     5
 10
490.41
 20
350.412
 30
0.0
  0
VERTEX
  5
952
  8
0
  6
CONTINUOUS
 62
     5
 10
490.41
 20
350.414
 30
0.0
  0
VERTEX
  5
953
  8
0
  6
CONTINUOUS
 62
     5
 10
490.41
 20
350.417
 30
0.0
  0
VERTEX
  5
954
  8
0
  6
CONTINUOUS
 62
     5
 10
490.41
 20
350.42
 30
0.0
  0
VERTEX
  5
955
  8
0
  6
CONTINUOUS
 62
     5
 10
490.409
 20
350.423
 30
0.0
  0
VERTEX
  5
956
  8
0
  6
CONTINUOUS
 62
     5
 10
490.409
 20
350.426
 30
0.0
  0
VERTEX
  5
957
  8
0
  6
CONTINUOUS
 62
     5
 10
490.408
 20
350.429
 30
0.0
  0
VERTEX
  5
958
  8
0
  6
CONTINUOUS
 62
     5
 10
490.407
 20
350.432
 30
0.0
  0
VERTEX
  5
959
  8
0
  6
CONTINUOUS
 62
     5
 10
490.406
 20
350.435
 30
0.0
  0
VERTEX
  5
95A
  8
0
  6
CONTINUOUS
 62
     5
 10
490.405
 20
350.438
 30
0.0
  0
VERTEX
  5
95B
  8
0
  6
CONTINUOUS
 62
     5
 10
490.403
 20
350.441
 30
0.0
  0
VERTEX
  5
95C
  8
0
  6
CONTINUOUS
 62
     5
 10
490.402
 20
350.444
 30
0.0
  0
VERTEX
  5
95D
  8
0
  6
CONTINUOUS
 62
     5
 10
490.4
 20
350.447
 30
0.0
  0
VERTEX
  5
95E
  8
0
  6
CONTINUOUS
 62
     5
 10
490.399
 20
350.449
 30
0.0
  0
VERTEX
  5
95F
  8
0
  6
CONTINUOUS
 62
     5
 10
490.397
 20
350.452
 30
0.0
  0
VERTEX
  5
960
  8
0
  6
CONTINUOUS
 62
     5
 10
490.395
 20
350.455
 30
0.0
  0
VERTEX
  5
961
  8
0
  6
CONTINUOUS
 62
     5
 10
490.393
 20
350.457
 30
0.0
  0
VERTEX
  5
962
  8
0
  6
CONTINUOUS
 62
     5
 10
490.391
 20
350.46
 30
0.0
  0
VERTEX
  5
963
  8
0
  6
CONTINUOUS
 62
     5
 10
490.388
 20
350.462
 30
0.0
  0
VERTEX
  5
964
  8
0
  6
CONTINUOUS
 62
     5
 10
490.386
 20
350.465
 30
0.0
  0
VERTEX
  5
965
  8
0
  6
CONTINUOUS
 62
     5
 10
490.383
 20
350.467
 30
0.0
  0
VERTEX
  5
966
  8
0
  6
CONTINUOUS
 62
     5
 10
490.38
 20
350.469
 30
0.0
  0
VERTEX
  5
967
  8
0
  6
CONTINUOUS
 62
     5
 10
490.377
 20
350.471
 30
0.0
  0
VERTEX
  5
968
  8
0
  6
CONTINUOUS
 62
     5
 10
490.374
 20
350.473
 30
0.0
  0
VERTEX
  5
969
  8
0
  6
CONTINUOUS
 62
     5
 10
490.371
 20
350.475
 30
0.0
  0
VERTEX
  5
96A
  8
0
  6
CONTINUOUS
 62
     5
 10
490.368
 20
350.477
 30
0.0
  0
VERTEX
  5
96B
  8
0
  6
CONTINUOUS
 62
     5
 10
490.365
 20
350.479
 30
0.0
  0
VERTEX
  5
96C
  8
0
  6
CONTINUOUS
 62
     5
 10
490.361
 20
350.481
 30
0.0
  0
VERTEX
  5
96D
  8
0
  6
CONTINUOUS
 62
     5
 10
490.358
 20
350.482
 30
0.0
  0
VERTEX
  5
96E
  8
0
  6
CONTINUOUS
 62
     5
 10
490.354
 20
350.484
 30
0.0
  0
VERTEX
  5
96F
  8
0
  6
CONTINUOUS
 62
     5
 10
490.351
 20
350.485
 30
0.0
  0
VERTEX
  5
970
  8
0
  6
CONTINUOUS
 62
     5
 10
490.347
 20
350.486
 30
0.0
  0
VERTEX
  5
971
  8
0
  6
CONTINUOUS
 62
     5
 10
490.343
 20
350.488
 30
0.0
  0
VERTEX
  5
972
  8
0
  6
CONTINUOUS
 62
     5
 10
490.339
 20
350.489
 30
0.0
  0
VERTEX
  5
973
  8
0
  6
CONTINUOUS
 62
     5
 10
490.335
 20
350.489
 30
0.0
  0
VERTEX
  5
974
  8
0
  6
CONTINUOUS
 62
     5
 10
490.331
 20
350.49
 30
0.0
  0
VERTEX
  5
975
  8
0
  6
CONTINUOUS
 62
     5
 10
490.327
 20
350.491
 30
0.0
  0
VERTEX
  5
976
  8
0
  6
CONTINUOUS
 62
     5
 10
490.323
 20
350.491
 30
0.0
  0
VERTEX
  5
977
  8
0
  6
CONTINUOUS
 62
     5
 10
490.319
 20
350.492
 30
0.0
  0
VERTEX
  5
978
  8
0
  6
CONTINUOUS
 62
     5
 10
490.315
 20
350.492
 30
0.0
  0
VERTEX
  5
979
  8
0
  6
CONTINUOUS
 62
     5
 10
490.31
 20
350.492
 30
0.0
  0
SEQEND
  5
97A
  8
0
  6
CONTINUOUS
 62
     5
  0
LINE
  5
473
  8
0
  6
CONTINUOUS
 62
     4
 10
490.41
 20
350.158
 30
0.0
 11
490.41
 21
350.412
 31
0.0
  0
LINE
  5
474
  8
0
  6
CONTINUOUS
 62
     4
 10
490.41
 20
350.412
 30
0.0
 11
490.41
 21
350.432
 31
0.0
  0
POLYLINE
  5
475
  8
0
  6
CONTINUOUS
 62
     5
 66
     1
 10
0.0
 20
0.0
 30
0.0
  0
VERTEX
  5
97B
  8
0
  6
CONTINUOUS
 62
     5
 10
490.41
 20
350.118
 30
0.0
  0
VERTEX
  5
97C
  8
0
  6
CONTINUOUS
 62
     5
 10
490.41
 20
350.12
 30
0.0
  0
VERTEX
  5
97D
  8
0
  6
CONTINUOUS
 62
     5
 10
490.41
 20
350.122
 30
0.0
  0
VERTEX
  5
97E
  8
0
  6
CONTINUOUS
 62
     5
 10
490.41
 20
350.124
 30
0.0
  0
VERTEX
  5
97F
  8
0
  6
CONTINUOUS
 62
     5
 10
490.409
 20
350.126
 30
0.0
  0
VERTEX
  5
980
  8
0
  6
CONTINUOUS
 62
     5
 10
490.409
 20
350.128
 30
0.0
  0
VERTEX
  5
981
  8
0
  6
CONTINUOUS
 62
     5
 10
490.408
 20
350.131
 30
0.0
  0
VERTEX
  5
982
  8
0
  6
CONTINUOUS
 62
     5
 10
490.407
 20
350.133
 30
0.0
  0
VERTEX
  5
983
  8
0
  6
CONTINUOUS
 62
     5
 10
490.406
 20
350.135
 30
0.0
  0
VERTEX
  5
984
  8
0
  6
CONTINUOUS
 62
     5
 10
490.405
 20
350.137
 30
0.0
  0
VERTEX
  5
985
  8
0
  6
CONTINUOUS
 62
     5
 10
490.403
 20
350.139
 30
0.0
  0
VERTEX
  5
986
  8
0
  6
CONTINUOUS
 62
     5
 10
490.402
 20
350.14
 30
0.0
  0
VERTEX
  5
987
  8
0
  6
CONTINUOUS
 62
     5
 10
490.4
 20
350.142
 30
0.0
  0
VERTEX
  5
988
  8
0
  6
CONTINUOUS
 62
     5
 10
490.399
 20
350.144
 30
0.0
  0
VERTEX
  5
989
  8
0
  6
CONTINUOUS
 62
     5
 10
490.397
 20
350.146
 30
0.0
  0
VERTEX
  5
98A
  8
0
  6
CONTINUOUS
 62
     5
 10
490.395
 20
350.148
 30
0.0
  0
VERTEX
  5
98B
  8
0
  6
CONTINUOUS
 62
     5
 10
490.393
 20
350.15
 30
0.0
  0
VERTEX
  5
98C
  8
0
  6
CONTINUOUS
 62
     5
 10
490.391
 20
350.152
 30
0.0
  0
VERTEX
  5
98D
  8
0
  6
CONTINUOUS
 62
     5
 10
490.388
 20
350.153
 30
0.0
  0
VERTEX
  5
98E
  8
0
  6
CONTINUOUS
 62
     5
 10
490.386
 20
350.155
 30
0.0
  0
VERTEX
  5
98F
  8
0
  6
CONTINUOUS
 62
     5
 10
490.383
 20
350.156
 30
0.0
  0
VERTEX
  5
990
  8
0
  6
CONTINUOUS
 62
     5
 10
490.38
 20
350.158
 30
0.0
  0
VERTEX
  5
991
  8
0
  6
CONTINUOUS
 62
     5
 10
490.377
 20
350.16
 30
0.0
  0
VERTEX
  5
992
  8
0
  6
CONTINUOUS
 62
     5
 10
490.374
 20
350.161
 30
0.0
  0
VERTEX
  5
993
  8
0
  6
CONTINUOUS
 62
     5
 10
490.371
 20
350.162
 30
0.0
  0
VERTEX
  5
994
  8
0
  6
CONTINUOUS
 62
     5
 10
490.368
 20
350.164
 30
0.0
  0
VERTEX
  5
995
  8
0
  6
CONTINUOUS
 62
     5
 10
490.365
 20
350.165
 30
0.0
  0
VERTEX
  5
996
  8
0
  6
CONTINUOUS
 62
     5
 10
490.361
 20
350.166
 30
0.0
  0
VERTEX
  5
997
  8
0
  6
CONTINUOUS
 62
     5
 10
490.358
 20
350.167
 30
0.0
  0
VERTEX
  5
998
  8
0
  6
CONTINUOUS
 62
     5
 10
490.354
 20
350.168
 30
0.0
  0
VERTEX
  5
999
  8
0
  6
CONTINUOUS
 62
     5
 10
490.351
 20
350.169
 30
0.0
  0
VERTEX
  5
99A
  8
0
  6
CONTINUOUS
 62
     5
 10
490.347
 20
350.17
 30
0.0
  0
VERTEX
  5
99B
  8
0
  6
CONTINUOUS
 62
     5
 10
490.343
 20
350.171
 30
0.0
  0
VERTEX
  5
99C
  8
0
  6
CONTINUOUS
 62
     5
 10
490.339
 20
350.171
 30
0.0
  0
VERTEX
  5
99D
  8
0
  6
CONTINUOUS
 62
     5
 10
490.335
 20
350.172
 30
0.0
  0
VERTEX
  5
99E
  8
0
  6
CONTINUOUS
 62
     5
 10
490.331
 20
350.172
 30
0.0
  0
VERTEX
  5
99F
  8
0
  6
CONTINUOUS
 62
     5
 10
490.327
 20
350.173
 30
0.0
  0
VERTEX
  5
9A0
  8
0
  6
CONTINUOUS
 62
     5
 10
490.323
 20
350.173
 30
0.0
  0
VERTEX
  5
9A1
  8
0
  6
CONTINUOUS
 62
     5
 10
490.319
 20
350.173
 30
0.0
  0
VERTEX
  5
9A2
  8
0
  6
CONTINUOUS
 62
     5
 10
490.315
 20
350.174
 30
0.0
  0
VERTEX
  5
9A3
  8
0
  6
CONTINUOUS
 62
     5
 10
490.31
 20
350.174
 30
0.0
  0
SEQEND
  5
9A4
  8
0
  6
CONTINUOUS
 62
     5
  0
LINE
  5
476
  8
0
  6
CONTINUOUS
 62
     4
 10
490.41
 20
349.719
 30
0.0
 11
490.41
 21
350.118
 31
0.0
  0
LINE
  5
477
  8
0
  6
CONTINUOUS
 62
     4
 10
490.41
 20
350.118
 30
0.0
 11
490.41
 21
350.158
 31
0.0
  0
POLYLINE
  5
478
  8
0
  6
CONTINUOUS
 62
     5
 66
     1
 10
0.0
 20
0.0
 30
0.0
  0
VERTEX
  5
9A5
  8
0
  6
CONTINUOUS
 62
     5
 10
490.41
 20
349.663
 30
0.0
  0
VERTEX
  5
9A6
  8
0
  6
CONTINUOUS
 62
     5
 10
490.41
 20
349.664
 30
0.0
  0
VERTEX
  5
9A7
  8
0
  6
CONTINUOUS
 62
     5
 10
490.41
 20
349.665
 30
0.0
  0
VERTEX
  5
9A8
  8
0
  6
CONTINUOUS
 62
     5
 10
490.41
 20
349.666
 30
0.0
  0
VERTEX
  5
9A9
  8
0
  6
CONTINUOUS
 62
     5
 10
490.409
 20
349.667
 30
0.0
  0
VERTEX
  5
9AA
  8
0
  6
CONTINUOUS
 62
     5
 10
490.409
 20
349.668
 30
0.0
  0
VERTEX
  5
9AB
  8
0
  6
CONTINUOUS
 62
     5
 10
490.408
 20
349.669
 30
0.0
  0
VERTEX
  5
9AC
  8
0
  6
CONTINUOUS
 62
     5
 10
490.407
 20
349.67
 30
0.0
  0
VERTEX
  5
9AD
  8
0
  6
CONTINUOUS
 62
     5
 10
490.406
 20
349.671
 30
0.0
  0
VERTEX
  5
9AE
  8
0
  6
CONTINUOUS
 62
     5
 10
490.405
 20
349.672
 30
0.0
  0
VERTEX
  5
9AF
  8
0
  6
CONTINUOUS
 62
     5
 10
490.403
 20
349.673
 30
0.0
  0
VERTEX
  5
9B0
  8
0
  6
CONTINUOUS
 62
     5
 10
490.402
 20
349.673
 30
0.0
  0
VERTEX
  5
9B1
  8
0
  6
CONTINUOUS
 62
     5
 10
490.4
 20
349.674
 30
0.0
  0
VERTEX
  5
9B2
  8
0
  6
CONTINUOUS
 62
     5
 10
490.399
 20
349.675
 30
0.0
  0
VERTEX
  5
9B3
  8
0
  6
CONTINUOUS
 62
     5
 10
490.397
 20
349.676
 30
0.0
  0
VERTEX
  5
9B4
  8
0
  6
CONTINUOUS
 62
     5
 10
490.395
 20
349.677
 30
0.0
  0
VERTEX
  5
9B5
  8
0
  6
CONTINUOUS
 62
     5
 10
490.393
 20
349.678
 30
0.0
  0
VERTEX
  5
9B6
  8
0
  6
CONTINUOUS
 62
     5
 10
490.391
 20
349.679
 30
0.0
  0
VERTEX
  5
9B7
  8
0
  6
CONTINUOUS
 62
     5
 10
490.388
 20
349.679
 30
0.0
  0
VERTEX
  5
9B8
  8
0
  6
CONTINUOUS
 62
     5
 10
490.386
 20
349.68
 30
0.0
  0
VERTEX
  5
9B9
  8
0
  6
CONTINUOUS
 62
     5
 10
490.383
 20
349.681
 30
0.0
  0
VERTEX
  5
9BA
  8
0
  6
CONTINUOUS
 62
     5
 10
490.38
 20
349.682
 30
0.0
  0
VERTEX
  5
9BB
  8
0
  6
CONTINUOUS
 62
     5
 10
490.377
 20
349.682
 30
0.0
  0
VERTEX
  5
9BC
  8
0
  6
CONTINUOUS
 62
     5
 10
490.374
 20
349.683
 30
0.0
  0
VERTEX
  5
9BD
  8
0
  6
CONTINUOUS
 62
     5
 10
490.371
 20
349.684
 30
0.0
  0
VERTEX
  5
9BE
  8
0
  6
CONTINUOUS
 62
     5
 10
490.368
 20
349.684
 30
0.0
  0
VERTEX
  5
9BF
  8
0
  6
CONTINUOUS
 62
     5
 10
490.365
 20
349.685
 30
0.0
  0
VERTEX
  5
9C0
  8
0
  6
CONTINUOUS
 62
     5
 10
490.361
 20
349.685
 30
0.0
  0
VERTEX
  5
9C1
  8
0
  6
CONTINUOUS
 62
     5
 10
490.358
 20
349.686
 30
0.0
  0
VERTEX
  5
9C2
  8
0
  6
CONTINUOUS
 62
     5
 10
490.354
 20
349.686
 30
0.0
  0
VERTEX
  5
9C3
  8
0
  6
CONTINUOUS
 62
     5
 10
490.351
 20
349.687
 30
0.0
  0
VERTEX
  5
9C4
  8
0
  6
CONTINUOUS
 62
     5
 10
490.347
 20
349.687
 30
0.0
  0
VERTEX
  5
9C5
  8
0
  6
CONTINUOUS
 62
     5
 10
490.343
 20
349.688
 30
0.0
  0
VERTEX
  5
9C6
  8
0
  6
CONTINUOUS
 62
     5
 10
490.339
 20
349.688
 30
0.0
  0
VERTEX
  5
9C7
  8
0
  6
CONTINUOUS
 62
     5
 10
490.335
 20
349.688
 30
0.0
  0
VERTEX
  5
9C8
  8
0
  6
CONTINUOUS
 62
     5
 10
490.331
 20
349.688
 30
0.0
  0
VERTEX
  5
9C9
  8
0
  6
CONTINUOUS
 62
     5
 10
490.327
 20
349.689
 30
0.0
  0
VERTEX
  5
9CA
  8
0
  6
CONTINUOUS
 62
     5
 10
490.323
 20
349.689
 30
0.0
  0
VERTEX
  5
9CB
  8
0
  6
CONTINUOUS
 62
     5
 10
490.319
 20
349.689
 30
0.0
  0
VERTEX
  5
9CC
  8
0
  6
CONTINUOUS
 62
     5
 10
490.315
 20
349.689
 30
0.0
  0
VERTEX
  5
9CD
  8
0
  6
CONTINUOUS
 62
     5
 10
490.31
 20
349.689
 30
0.0
  0
SEQEND
  5
9CE
  8
0
  6
CONTINUOUS
 62
     5
  0
LINE
  5
479
  8
0
  6
CONTINUOUS
 62
     4
 10
490.41
 20
349.242
 30
0.0
 11
490.41
 21
349.663
 31
0.0
  0
LINE
  5
47A
  8
0
  6
CONTINUOUS
 62
     4
 10
490.41
 20
349.663
 30
0.0
 11
490.41
 21
349.719
 31
0.0
  0
POLYLINE
  5
47B
  8
0
  6
CONTINUOUS
 62
     5
 66
     1
 10
0.0
 20
0.0
 30
0.0
  0
VERTEX
  5
9CF
  8
0
  6
CONTINUOUS
 62
     5
 10
490.41
 20
349.242
 30
0.0
  0
VERTEX
  5
9D0
  8
0
  6
CONTINUOUS
 62
     5
 10
490.41
 20
349.244
 30
0.0
  0
VERTEX
  5
9D1
  8
0
  6
CONTINUOUS
 62
     5
 10
490.41
 20
349.247
 30
0.0
  0
VERTEX
  5
9D2
  8
0
  6
CONTINUOUS
 62
     5
 10
490.41
 20
349.249
 30
0.0
  0
VERTEX
  5
9D3
  8
0
  6
CONTINUOUS
 62
     5
 10
490.41
 20
349.252
 30
0.0
  0
VERTEX
  5
9D4
  8
0
  6
CONTINUOUS
 62
     5
 10
490.409
 20
349.254
 30
0.0
  0
VERTEX
  5
9D5
  8
0
  6
CONTINUOUS
 62
     5
 10
490.408
 20
349.257
 30
0.0
  0
VERTEX
  5
9D6
  8
0
  6
CONTINUOUS
 62
     5
 10
490.408
 20
349.26
 30
0.0
  0
VERTEX
  5
9D7
  8
0
  6
CONTINUOUS
 62
     5
 10
490.407
 20
349.262
 30
0.0
  0
VERTEX
  5
9D8
  8
0
  6
CONTINUOUS
 62
     5
 10
490.406
 20
349.265
 30
0.0
  0
VERTEX
  5
9D9
  8
0
  6
CONTINUOUS
 62
     5
 10
490.405
 20
349.267
 30
0.0
  0
VERTEX
  5
9DA
  8
0
  6
CONTINUOUS
 62
     5
 10
490.404
 20
349.27
 30
0.0
  0
VERTEX
  5
9DB
  8
0
  6
CONTINUOUS
 62
     5
 10
490.402
 20
349.272
 30
0.0
  0
VERTEX
  5
9DC
  8
0
  6
CONTINUOUS
 62
     5
 10
490.401
 20
349.275
 30
0.0
  0
VERTEX
  5
9DD
  8
0
  6
CONTINUOUS
 62
     5
 10
490.399
 20
349.277
 30
0.0
  0
VERTEX
  5
9DE
  8
0
  6
CONTINUOUS
 62
     5
 10
490.397
 20
349.28
 30
0.0
  0
VERTEX
  5
9DF
  8
0
  6
CONTINUOUS
 62
     5
 10
490.396
 20
349.282
 30
0.0
  0
VERTEX
  5
9E0
  8
0
  6
CONTINUOUS
 62
     5
 10
490.394
 20
349.284
 30
0.0
  0
VERTEX
  5
9E1
  8
0
  6
CONTINUOUS
 62
     5
 10
490.391
 20
349.287
 30
0.0
  0
VERTEX
  5
9E2
  8
0
  6
CONTINUOUS
 62
     5
 10
490.389
 20
349.289
 30
0.0
  0
VERTEX
  5
9E3
  8
0
  6
CONTINUOUS
 62
     5
 10
490.387
 20
349.291
 30
0.0
  0
VERTEX
  5
9E4
  8
0
  6
CONTINUOUS
 62
     5
 10
490.384
 20
349.293
 30
0.0
  0
VERTEX
  5
9E5
  8
0
  6
CONTINUOUS
 62
     5
 10
490.382
 20
349.295
 30
0.0
  0
VERTEX
  5
9E6
  8
0
  6
CONTINUOUS
 62
     5
 10
490.379
 20
349.297
 30
0.0
  0
VERTEX
  5
9E7
  8
0
  6
CONTINUOUS
 62
     5
 10
490.376
 20
349.3
 30
0.0
  0
VERTEX
  5
9E8
  8
0
  6
CONTINUOUS
 62
     5
 10
490.373
 20
349.301
 30
0.0
  0
VERTEX
  5
9E9
  8
0
  6
CONTINUOUS
 62
     5
 10
490.37
 20
349.303
 30
0.0
  0
VERTEX
  5
9EA
  8
0
  6
CONTINUOUS
 62
     5
 10
490.366
 20
349.305
 30
0.0
  0
VERTEX
  5
9EB
  8
0
  6
CONTINUOUS
 62
     5
 10
490.363
 20
349.307
 30
0.0
  0
VERTEX
  5
9EC
  8
0
  6
CONTINUOUS
 62
     5
 10
490.359
 20
349.309
 30
0.0
  0
VERTEX
  5
9ED
  8
0
  6
CONTINUOUS
 62
     5
 10
490.355
 20
349.31
 30
0.0
  0
VERTEX
  5
9EE
  8
0
  6
CONTINUOUS
 62
     5
 10
490.351
 20
349.312
 30
0.0
  0
VERTEX
  5
9EF
  8
0
  6
CONTINUOUS
 62
     5
 10
490.347
 20
349.313
 30
0.0
  0
VERTEX
  5
9F0
  8
0
  6
CONTINUOUS
 62
     5
 10
490.343
 20
349.314
 30
0.0
  0
VERTEX
  5
9F1
  8
0
  6
CONTINUOUS
 62
     5
 10
490.338
 20
349.315
 30
0.0
  0
VERTEX
  5
9F2
  8
0
  6
CONTINUOUS
 62
     5
 10
490.334
 20
349.316
 30
0.0
  0
VERTEX
  5
9F3
  8
0
  6
CONTINUOUS
 62
     5
 10
490.329
 20
349.317
 30
0.0
  0
VERTEX
  5
9F4
  8
0
  6
CONTINUOUS
 62
     5
 10
490.325
 20
349.317
 30
0.0
  0
VERTEX
  5
9F5
  8
0
  6
CONTINUOUS
 62
     5
 10
490.32
 20
349.318
 30
0.0
  0
VERTEX
  5
9F6
  8
0
  6
CONTINUOUS
 62
     5
 10
490.315
 20
349.318
 30
0.0
  0
VERTEX
  5
9F7
  8
0
  6
CONTINUOUS
 62
     5
 10
490.31
 20
349.318
 30
0.0
  0
SEQEND
  5
9F8
  8
0
  6
CONTINUOUS
 62
     5
  0
LINE
  5
47C
  8
0
  6
CONTINUOUS
 62
     4
 10
490.41
 20
349.15
 30
0.0
 11
490.41
 21
349.242
 31
0.0
  0
ARC
  5
47D
  8
0
  6
CONTINUOUS
 62
     5
 10
-490.335
 20
349.553
 30
0.0
 40
0.4762884847494312
 50
260.886
 51
272.956
210
0.0
220
0.0
230
-1.0
  0
LINE
  5
47E
  8
0
  6
CONTINUOUS
 62
     4
 10
490.41
 20
348.704
 30
0.0
 11
490.41
 21
349.083
 31
0.0
  0
LINE
  5
47F
  8
0
  6
CONTINUOUS
 62
     4
 10
490.41
 20
349.083
 30
0.0
 11
490.41
 21
349.15
 31
0.0
  0
POLYLINE
  5
480
  8
0
  6
CONTINUOUS
 62
     5
 66
     1
 10
0.0
 20
0.0
 30
0.0
  0
VERTEX
  5
9F9
  8
0
  6
CONTINUOUS
 62
     5
 10
490.41
 20
348.704
 30
0.0
  0
VERTEX
  5
9FA
  8
0
  6
CONTINUOUS
 62
     5
 10
490.41
 20
348.706
 30
0.0
  0
VERTEX
  5
9FB
  8
0
  6
CONTINUOUS
 62
     5
 10
490.41
 20
348.707
 30
0.0
  0
VERTEX
  5
9FC
  8
0
  6
CONTINUOUS
 62
     5
 10
490.41
 20
348.708
 30
0.0
  0
VERTEX
  5
9FD
  8
0
  6
CONTINUOUS
 62
     5
 10
490.41
 20
348.71
 30
0.0
  0
VERTEX
  5
9FE
  8
0
  6
CONTINUOUS
 62
     5
 10
490.409
 20
348.711
 30
0.0
  0
VERTEX
  5
9FF
  8
0
  6
CONTINUOUS
 62
     5
 10
490.408
 20
348.712
 30
0.0
  0
VERTEX
  5
A00
  8
0
  6
CONTINUOUS
 62
     5
 10
490.408
 20
348.714
 30
0.0
  0
VERTEX
  5
A01
  8
0
  6
CONTINUOUS
 62
     5
 10
490.407
 20
348.715
 30
0.0
  0
VERTEX
  5
A02
  8
0
  6
CONTINUOUS
 62
     5
 10
490.406
 20
348.716
 30
0.0
  0
VERTEX
  5
A03
  8
0
  6
CONTINUOUS
 62
     5
 10
490.405
 20
348.718
 30
0.0
  0
VERTEX
  5
A04
  8
0
  6
CONTINUOUS
 62
     5
 10
490.404
 20
348.719
 30
0.0
  0
VERTEX
  5
A05
  8
0
  6
CONTINUOUS
 62
     5
 10
490.402
 20
348.72
 30
0.0
  0
VERTEX
  5
A06
  8
0
  6
CONTINUOUS
 62
     5
 10
490.401
 20
348.721
 30
0.0
  0
VERTEX
  5
A07
  8
0
  6
CONTINUOUS
 62
     5
 10
490.399
 20
348.723
 30
0.0
  0
VERTEX
  5
A08
  8
0
  6
CONTINUOUS
 62
     5
 10
490.397
 20
348.724
 30
0.0
  0
VERTEX
  5
A09
  8
0
  6
CONTINUOUS
 62
     5
 10
490.396
 20
348.725
 30
0.0
  0
VERTEX
  5
A0A
  8
0
  6
CONTINUOUS
 62
     5
 10
490.394
 20
348.726
 30
0.0
  0
VERTEX
  5
A0B
  8
0
  6
CONTINUOUS
 62
     5
 10
490.391
 20
348.728
 30
0.0
  0
VERTEX
  5
A0C
  8
0
  6
CONTINUOUS
 62
     5
 10
490.389
 20
348.729
 30
0.0
  0
VERTEX
  5
A0D
  8
0
  6
CONTINUOUS
 62
     5
 10
490.387
 20
348.73
 30
0.0
  0
VERTEX
  5
A0E
  8
0
  6
CONTINUOUS
 62
     5
 10
490.384
 20
348.731
 30
0.0
  0
VERTEX
  5
A0F
  8
0
  6
CONTINUOUS
 62
     5
 10
490.382
 20
348.732
 30
0.0
  0
VERTEX
  5
A10
  8
0
  6
CONTINUOUS
 62
     5
 10
490.379
 20
348.733
 30
0.0
  0
VERTEX
  5
A11
  8
0
  6
CONTINUOUS
 62
     5
 10
490.376
 20
348.734
 30
0.0
  0
VERTEX
  5
A12
  8
0
  6
CONTINUOUS
 62
     5
 10
490.373
 20
348.735
 30
0.0
  0
VERTEX
  5
A13
  8
0
  6
CONTINUOUS
 62
     5
 10
490.37
 20
348.736
 30
0.0
  0
VERTEX
  5
A14
  8
0
  6
CONTINUOUS
 62
     5
 10
490.366
 20
348.737
 30
0.0
  0
VERTEX
  5
A15
  8
0
  6
CONTINUOUS
 62
     5
 10
490.363
 20
348.738
 30
0.0
  0
VERTEX
  5
A16
  8
0
  6
CONTINUOUS
 62
     5
 10
490.359
 20
348.739
 30
0.0
  0
VERTEX
  5
A17
  8
0
  6
CONTINUOUS
 62
     5
 10
490.355
 20
348.74
 30
0.0
  0
VERTEX
  5
A18
  8
0
  6
CONTINUOUS
 62
     5
 10
490.351
 20
348.741
 30
0.0
  0
VERTEX
  5
A19
  8
0
  6
CONTINUOUS
 62
     5
 10
490.347
 20
348.741
 30
0.0
  0
VERTEX
  5
A1A
  8
0
  6
CONTINUOUS
 62
     5
 10
490.343
 20
348.742
 30
0.0
  0
VERTEX
  5
A1B
  8
0
  6
CONTINUOUS
 62
     5
 10
490.338
 20
348.742
 30
0.0
  0
VERTEX
  5
A1C
  8
0
  6
CONTINUOUS
 62
     5
 10
490.334
 20
348.743
 30
0.0
  0
VERTEX
  5
A1D
  8
0
  6
CONTINUOUS
 62
     5
 10
490.329
 20
348.743
 30
0.0
  0
VERTEX
  5
A1E
  8
0
  6
CONTINUOUS
 62
     5
 10
490.325
 20
348.744
 30
0.0
  0
VERTEX
  5
A1F
  8
0
  6
CONTINUOUS
 62
     5
 10
490.32
 20
348.744
 30
0.0
  0
VERTEX
  5
A20
  8
0
  6
CONTINUOUS
 62
     5
 10
490.315
 20
348.744
 30
0.0
  0
VERTEX
  5
A21
  8
0
  6
CONTINUOUS
 62
     5
 10
490.31
 20
348.744
 30
0.0
  0
SEQEND
  5
A22
  8
0
  6
CONTINUOUS
 62
     5
  0
LINE
  5
481
  8
0
  6
CONTINUOUS
 62
     4
 10
490.41
 20
348.498
 30
0.0
 11
490.41
 21
348.704
 31
0.0
  0
POLYLINE
  5
482
  8
0
  6
CONTINUOUS
 62
     5
 66
     1
 10
0.0
 20
0.0
 30
0.0
  0
VERTEX
  5
A23
  8
0
  6
CONTINUOUS
 62
     5
 10
490.31
 20
348.388
 30
0.0
  0
VERTEX
  5
A24
  8
0
  6
CONTINUOUS
 62
     5
 10
490.315
 20
348.388
 30
0.0
  0
VERTEX
  5
A25
  8
0
  6
CONTINUOUS
 62
     5
 10
490.319
 20
348.388
 30
0.0
  0
VERTEX
  5
A26
  8
0
  6
CONTINUOUS
 62
     5
 10
490.323
 20
348.388
 30
0.0
  0
VERTEX
  5
A27
  8
0
  6
CONTINUOUS
 62
     5
 10
490.327
 20
348.388
 30
0.0
  0
VERTEX
  5
A28
  8
0
  6
CONTINUOUS
 62
     5
 10
490.331
 20
348.389
 30
0.0
  0
VERTEX
  5
A29
  8
0
  6
CONTINUOUS
 62
     5
 10
490.335
 20
348.389
 30
0.0
  0
VERTEX
  5
A2A
  8
0
  6
CONTINUOUS
 62
     5
 10
490.339
 20
348.389
 30
0.0
  0
VERTEX
  5
A2B
  8
0
  6
CONTINUOUS
 62
     5
 10
490.343
 20
348.39
 30
0.0
  0
VERTEX
  5
A2C
  8
0
  6
CONTINUOUS
 62
     5
 10
490.347
 20
348.39
 30
0.0
  0
VERTEX
  5
A2D
  8
0
  6
CONTINUOUS
 62
     5
 10
490.351
 20
348.391
 30
0.0
  0
VERTEX
  5
A2E
  8
0
  6
CONTINUOUS
 62
     5
 10
490.354
 20
348.392
 30
0.0
  0
VERTEX
  5
A2F
  8
0
  6
CONTINUOUS
 62
     5
 10
490.358
 20
348.392
 30
0.0
  0
VERTEX
  5
A30
  8
0
  6
CONTINUOUS
 62
     5
 10
490.361
 20
348.393
 30
0.0
  0
VERTEX
  5
A31
  8
0
  6
CONTINUOUS
 62
     5
 10
490.365
 20
348.394
 30
0.0
  0
VERTEX
  5
A32
  8
0
  6
CONTINUOUS
 62
     5
 10
490.368
 20
348.395
 30
0.0
  0
VERTEX
  5
A33
  8
0
  6
CONTINUOUS
 62
     5
 10
490.371
 20
348.395
 30
0.0
  0
VERTEX
  5
A34
  8
0
  6
CONTINUOUS
 62
     5
 10
490.374
 20
348.396
 30
0.0
  0
VERTEX
  5
A35
  8
0
  6
CONTINUOUS
 62
     5
 10
490.377
 20
348.397
 30
0.0
  0
VERTEX
  5
A36
  8
0
  6
CONTINUOUS
 62
     5
 10
490.38
 20
348.398
 30
0.0
  0
VERTEX
  5
A37
  8
0
  6
CONTINUOUS
 62
     5
 10
490.383
 20
348.399
 30
0.0
  0
VERTEX
  5
A38
  8
0
  6
CONTINUOUS
 62
     5
 10
490.386
 20
348.4
 30
0.0
  0
VERTEX
  5
A39
  8
0
  6
CONTINUOUS
 62
     5
 10
490.388
 20
348.401
 30
0.0
  0
VERTEX
  5
A3A
  8
0
  6
CONTINUOUS
 62
     5
 10
490.391
 20
348.403
 30
0.0
  0
VERTEX
  5
A3B
  8
0
  6
CONTINUOUS
 62
     5
 10
490.393
 20
348.404
 30
0.0
  0
VERTEX
  5
A3C
  8
0
  6
CONTINUOUS
 62
     5
 10
490.395
 20
348.405
 30
0.0
  0
VERTEX
  5
A3D
  8
0
  6
CONTINUOUS
 62
     5
 10
490.397
 20
348.406
 30
0.0
  0
VERTEX
  5
A3E
  8
0
  6
CONTINUOUS
 62
     5
 10
490.399
 20
348.407
 30
0.0
  0
VERTEX
  5
A3F
  8
0
  6
CONTINUOUS
 62
     5
 10
490.4
 20
348.409
 30
0.0
  0
VERTEX
  5
A40
  8
0
  6
CONTINUOUS
 62
     5
 10
490.402
 20
348.41
 30
0.0
  0
VERTEX
  5
A41
  8
0
  6
CONTINUOUS
 62
     5
 10
490.403
 20
348.411
 30
0.0
  0
VERTEX
  5
A42
  8
0
  6
CONTINUOUS
 62
     5
 10
490.405
 20
348.412
 30
0.0
  0
VERTEX
  5
A43
  8
0
  6
CONTINUOUS
 62
     5
 10
490.406
 20
348.414
 30
0.0
  0
VERTEX
  5
A44
  8
0
  6
CONTINUOUS
 62
     5
 10
490.407
 20
348.415
 30
0.0
  0
VERTEX
  5
A45
  8
0
  6
CONTINUOUS
 62
     5
 10
490.408
 20
348.416
 30
0.0
  0
VERTEX
  5
A46
  8
0
  6
CONTINUOUS
 62
     5
 10
490.409
 20
348.418
 30
0.0
  0
VERTEX
  5
A47
  8
0
  6
CONTINUOUS
 62
     5
 10
490.409
 20
348.419
 30
0.0
  0
VERTEX
  5
A48
  8
0
  6
CONTINUOUS
 62
     5
 10
490.41
 20
348.42
 30
0.0
  0
VERTEX
  5
A49
  8
0
  6
CONTINUOUS
 62
     5
 10
490.41
 20
348.422
 30
0.0
  0
VERTEX
  5
A4A
  8
0
  6
CONTINUOUS
 62
     5
 10
490.41
 20
348.423
 30
0.0
  0
VERTEX
  5
A4B
  8
0
  6
CONTINUOUS
 62
     5
 10
490.41
 20
348.424
 30
0.0
  0
SEQEND
  5
A4C
  8
0
  6
CONTINUOUS
 62
     5
  0
LINE
  5
483
  8
0
  6
CONTINUOUS
 62
     4
 10
490.41
 20
348.424
 30
0.0
 11
490.41
 21
348.498
 31
0.0
  0
LINE
  5
484
  8
0
  6
CONTINUOUS
 62
     4
 10
490.41
 20
348.119
 30
0.0
 11
490.41
 21
348.424
 31
0.0
  0
LINE
  5
485
  8
0
  6
CONTINUOUS
 62
     4
 10
490.408
 20
350.54
 30
0.0
 11
490.41
 21
350.502
 31
0.0
  0
ARC
  5
486
  8
0
  6
CONTINUOUS
 62
     4
 10
490.311
 20
350.519
 30
0.0
 40
0.0993289347578306
 50
12.26
 51
90.424
  0
LINE
  5
487
  8
0
  6
CONTINUOUS
 62
     4
 10
490.41
 20
350.432
 30
0.0
 11
490.41
 21
350.502
 31
0.0
  0
ARC
  5
488
  8
0
  6
CONTINUOUS
 62
     4
 10
490.311
 20
350.52
 30
0.0
 40
0.0997023374337347
 50
22.213
 51
90.049
  0
LINE
  5
489
  8
0
  6
CONTINUOUS
 62
     4
 10
490.408
 20
345.699
 30
0.0
 11
490.41
 21
345.737
 31
0.0
  0
ARC
  5
48A
  8
0
  6
CONTINUOUS
 62
     4
 10
-490.31
 20
345.719
 30
0.0
 40
0.0998745343228306
 50
191.604
 51
270.001
210
0.0
220
0.0
230
-1.0
  0
ARC
  5
48B
  8
0
  6
CONTINUOUS
 62
     4
 10
-490.311
 20
345.72
 30
0.0
 40
0.0993289403251385
 50
192.258
 51
270.424
210
0.0
220
0.0
230
-1.0
  0
LINE
  5
48C
  8
0
  6
CONTINUOUS
 62
     4
 10
490.41
 20
345.737
 30
0.0
 11
490.41
 21
345.806
 31
0.0
  0
ENDSEC
  0
EOF
