  0
SECTION
  2
HEADER
  9
$ACADVER
  1
AC1015
  9
$ACADMAINTVER
 70
    20
  9
$DWGCODEPAGE
  3
ANSI_1252
  9
$INSBASE
 10
0.0
 20
0.0
 30
0.0
  9
$EXTMIN
 10
1055.918444335711
 20
202.257037917318
 30
0.0
  9
$EXTMAX
 10
1325.918444335711
 20
402.2570379173179
 30
0.0
  9
$LIMMIN
 10
0.0
 20
0.0
  9
$LIMMAX
 10
420.0
 20
297.0
  9
$ORTHOMODE
 70
     0
  9
$REGENMODE
 70
     1
  9
$FILLMODE
 70
     1
  9
$QTEXTMODE
 70
     0
  9
$MIRRTEXT
 70
     1
  9
$LTSCALE
 40
1.0
  9
$ATTMODE
 70
     1
  9
$TEXTSIZE
 40
2.5
  9
$TRACEWID
 40
1.0
  9
$TEXTSTYLE
  7
Standard
  9
$CLAYER
  8
0
  9
$CELTYPE
  6
ByLayer
  9
$CECOLOR
 62
   256
  9
$CELTSCALE
 40
1.0
  9
$DISPSILH
 70
     0
  9
$DIMSCALE
 40
1.0
  9
$DIMASZ
 40
2.5
  9
$DIMEXO
 40
0.625
  9
$DIMDLI
 40
3.75
  9
$DIMRND
 40
0.0
  9
$DIMDLE
 40
0.0
  9
$DIMEXE
 40
1.25
  9
$DIMTP
 40
0.0
  9
$DIMTM
 40
0.0
  9
$DIMTXT
 40
2.5
  9
$DIMCEN
 40
2.5
  9
$DIMTSZ
 40
0.0
  9
$DIMTOL
 70
     0
  9
$DIMLIM
 70
     0
  9
$DIMTIH
 70
     0
  9
$DIMTOH
 70
     0
  9
$DIMSE1
 70
     0
  9
$DIMSE2
 70
     0
  9
$DIMTAD
 70
     0
  9
$DIMZIN
 70
     8
  9
$DIMBLK
  1

  9
$DIMASO
 70
     1
  9
$DIMSHO
 70
     1
  9
$DIMPOST
  1

  9
$DIMAPOST
  1

  9
$DIMALT
 70
     0
  9
$DIMALTD
 70
     3
  9
$DIMALTF
 40
0.03937007874016
  9
$DIMLFAC
 40
1.0
  9
$DIMTOFL
 70
     1
  9
$DIMTVP
 40
0.0
  9
$DIMTIX
 70
     0
  9
$DIMSOXD
 70
     0
  9
$DIMSAH
 70
     0
  9
$DIMBLK1
  1

  9
$DIMBLK2
  1

  9
$DIMSTYLE
  2
ISO-25
  9
$DIMCLRD
 70
     0
  9
$DIMCLRE
 70
     0
  9
$DIMCLRT
 70
     0
  9
$DIMTFAC
 40
1.0
  9
$DIMGAP
 40
0.625
  9
$DIMJUST
 70
     0
  9
$DIMSD1
 70
     0
  9
$DIMSD2
 70
     0
  9
$DIMTOLJ
 70
     0
  9
$DIMTZIN
 70
     8
  9
$DIMALTZ
 70
     0
  9
$DIMALTTZ
 70
     0
  9
$DIMUPT
 70
     0
  9
$DIMDEC
 70
     2
  9
$DIMTDEC
 70
     2
  9
$DIMALTU
 70
     2
  9
$DIMALTTD
 70
     3
  9
$DIMTXSTY
  7
Standard
  9
$DIMAUNIT
 70
     0
  9
$DIMADEC
 70
     0
  9
$DIMALTRND
 40
0.0
  9
$DIMAZIN
 70
     0
  9
$DIMDSEP
 70
    44
  9
$DIMATFIT
 70
     3
  9
$DIMFRAC
 70
     0
  9
$DIMLDRBLK
  1

  9
$DIMLUNIT
 70
     2
  9
$DIMLWD
 70
    -2
  9
$DIMLWE
 70
    -2
  9
$DIMTMOVE
 70
     0
  9
$LUNITS
 70
     2
  9
$LUPREC
 70
     4
  9
$SKETCHINC
 40
1.0
  9
$FILLETRAD
 40
10.0
  9
$AUNITS
 70
     0
  9
$AUPREC
 70
     0
  9
$MENU
  1
.
  9
$ELEVATION
 40
0.0
  9
$PELEVATION
 40
0.0
  9
$THICKNESS
 40
0.0
  9
$LIMCHECK
 70
     0
  9
$CHAMFERA
 40
10.0
  9
$CHAMFERB
 40
10.0
  9
$CHAMFERC
 40
20.0
  9
$CHAMFERD
 40
0.0
  9
$SKPOLY
 70
     0
  9
$TDCREATE
 40
2452662.431316620
  9
$TDUCREATE
 40
2452662.389649954
  9
$TDUPDATE
 40
2454049.316136401
  9
$TDUUPDATE
 40
2454049.274469734
  9
$TDINDWG
 40
0.5278085880
  9
$TDUSRTIMER
 40
0.5277985648
  9
$USRTIMER
 70
     1
  9
$ANGBASE
 50
0.0
  9
$ANGDIR
 70
     0
  9
$PDMODE
 70
     0
  9
$PDSIZE
 40
0.0
  9
$PLINEWID
 40
0.0
  9
$SPLFRAME
 70
     0
  9
$SPLINETYPE
 70
     6
  9
$SPLINESEGS
 70
     8
  9
$HANDSEED
  5
91A0
  9
$SURFTAB1
 70
     6
  9
$SURFTAB2
 70
     6
  9
$SURFTYPE
 70
     6
  9
$SURFU
 70
     6
  9
$SURFV
 70
     6
  9
$UCSBASE
  2

  9
$UCSNAME
  2

  9
$UCSORG
 10
0.0
 20
0.0
 30
0.0
  9
$UCSXDIR
 10
1.0
 20
0.0
 30
0.0
  9
$UCSYDIR
 10
0.0
 20
1.0
 30
0.0
  9
$UCSORTHOREF
  2

  9
$UCSORTHOVIEW
 70
     0
  9
$UCSORGTOP
 10
0.0
 20
0.0
 30
0.0
  9
$UCSORGBOTTOM
 10
0.0
 20
0.0
 30
0.0
  9
$UCSORGLEFT
 10
0.0
 20
0.0
 30
0.0
  9
$UCSORGRIGHT
 10
0.0
 20
0.0
 30
0.0
  9
$UCSORGFRONT
 10
0.0
 20
0.0
 30
0.0
  9
$UCSORGBACK
 10
0.0
 20
0.0
 30
0.0
  9
$PUCSBASE
  2

  9
$PUCSNAME
  2

  9
$PUCSORG
 10
0.0
 20
0.0
 30
0.0
  9
$PUCSXDIR
 10
1.0
 20
0.0
 30
0.0
  9
$PUCSYDIR
 10
0.0
 20
1.0
 30
0.0
  9
$PUCSORTHOREF
  2

  9
$PUCSORTHOVIEW
 70
     0
  9
$PUCSORGTOP
 10
0.0
 20
0.0
 30
0.0
  9
$PUCSORGBOTTOM
 10
0.0
 20
0.0
 30
0.0
  9
$PUCSORGLEFT
 10
0.0
 20
0.0
 30
0.0
  9
$PUCSORGRIGHT
 10
0.0
 20
0.0
 30
0.0
  9
$PUCSORGFRONT
 10
0.0
 20
0.0
 30
0.0
  9
$PUCSORGBACK
 10
0.0
 20
0.0
 30
0.0
  9
$USERI1
 70
     0
  9
$USERI2
 70
     0
  9
$USERI3
 70
     0
  9
$USERI4
 70
     0
  9
$USERI5
 70
     0
  9
$USERR1
 40
0.0
  9
$USERR2
 40
0.0
  9
$USERR3
 40
0.0
  9
$USERR4
 40
0.0
  9
$USERR5
 40
0.0
  9
$WORLDVIEW
 70
     1
  9
$SHADEDGE
 70
     3
  9
$SHADEDIF
 70
    70
  9
$TILEMODE
 70
     1
  9
$MAXACTVP
 70
    64
  9
$PINSBASE
 10
0.0
 20
0.0
 30
0.0
  9
$PLIMCHECK
 70
     0
  9
$PEXTMIN
 10
0.0
 20
0.0
 30
0.0
  9
$PEXTMAX
 10
0.0
 20
0.0
 30
0.0
  9
$PLIMMIN
 10
0.0
 20
0.0
  9
$PLIMMAX
 10
12.0
 20
9.0
  9
$UNITMODE
 70
     0
  9
$VISRETAIN
 70
     1
  9
$PLINEGEN
 70
     0
  9
$PSLTSCALE
 70
     1
  9
$TREEDEPTH
 70
  3020
  9
$CMLSTYLE
  2
Standard
  9
$CMLJUST
 70
     0
  9
$CMLSCALE
 40
20.0
  9
$PROXYGRAPHICS
 70
     1
  9
$MEASUREMENT
 70
     1
  9
$CELWEIGHT
370
    -1
  9
$ENDCAPS
280
     0
  9
$JOINSTYLE
280
     0
  9
$LWDISPLAY
290
     0
  9
$INSUNITS
 70
     4
  9
$HYPERLINKBASE
  1

  9
$STYLESHEET
  1
MONOCHROME.CTB
  9
$XEDIT
290
     1
  9
$CEPSNTYPE
380
     0
  9
$PSTYLEMODE
290
     1
  9
$FINGERPRINTGUID
  2
{FDEAD578-A652-11D2-9A35-0060089B3A3F}
  9
$VERSIONGUID
  2
{FD6D4D82-76E1-4103-9738-53E827B9D591}
  9
$EXTNAMES
290
     1
  9
$PSVPSCALE
 40
0.0
  9
$OLESTARTUP
290
     0
  0
ENDSEC
  0
SECTION
  2
CLASSES
  0
CLASS
  1
ACDBDICTIONARYWDFLT
  2
AcDbDictionaryWithDefault
  3
ObjectDBX Classes
 90
        0
280
     0
281
     0
  0
CLASS
  1
DICTIONARYVAR
  2
AcDbDictionaryVar
  3
ObjectDBX Classes
 90
        0
280
     0
281
     0
  0
CLASS
  1
DIMASSOC
  2
AcDbDimAssoc
  3
"AcDbDimAssoc|Product Desc:     AcDim ARX App For Dimension|Company:          Autodesk, Inc.|WEB Address:      www.autodesk.com"
 90
        0
280
     0
281
     0
  0
CLASS
  1
ACDBPLACEHOLDER
  2
AcDbPlaceHolder
  3
ObjectDBX Classes
 90
        0
280
     0
281
     0
  0
CLASS
  1
LAYOUT
  2
AcDbLayout
  3
ObjectDBX Classes
 90
        0
280
     0
281
     0
  0
CLASS
  1
MATERIAL
  2
AcDbMaterial
  3
ObjectDBX Classes
 90
     1024
280
     0
281
     0
  0
CLASS
  1
VISUALSTYLE
  2
AcDbVisualStyle
  3
ObjectDBX Classes
 90
     4095
280
     0
281
     0
  0
CLASS
  1
TABLESTYLE
  2
AcDbTableStyle
  3
ObjectDBX Classes
 90
     4095
280
     0
281
     0
  0
CLASS
  1
SORTENTSTABLE
  2
AcDbSortentsTable
  3
ObjectDBX Classes
 90
        0
280
     0
281
     0
  0
ENDSEC
  0
SECTION
  2
TABLES
  0
TABLE
  2
VPORT
  5
8
102
{ACAD_XDICTIONARY
360
9174
102
}
330
0
100
AcDbSymbolTable
 70
     1
  0
VPORT
  5
8B28
330
8
100
AcDbSymbolTableRecord
100
AcDbViewportTableRecord
  2
*Active
 70
     0
 10
0.0
 20
0.0
 11
1.0
 21
1.0
 12
1195.576654314308
 22
302.2605605692806
 13
0.0
 23
0.0
 14
10.0
 24
10.0
 15
10.0
 25
10.0
 16
0.0
 26
0.0
 36
1.0
 17
0.0
 27
0.0
 37
0.0
 40
201.6196350840685
 41
1.640449438202247
 42
50.0
 43
0.0
 44
0.0
 50
0.0
 51
0.0
 71
     0
 72
   100
 73
     1
 74
     3
 75
     0
 76
     0
 77
     0
 78
     0
281
     0
 65
     1
110
0.0
120
0.0
130
0.0
111
1.0
121
0.0
131
0.0
112
0.0
122
1.0
132
0.0
 79
     0
146
0.0
  0
ENDTAB
  0
TABLE
  2
LTYPE
  5
5
330
0
100
AcDbSymbolTable
 70
     2
  0
LTYPE
  5
14
330
5
100
AcDbSymbolTableRecord
100
AcDbLinetypeTableRecord
  2
ByBlock
 70
     0
  3

 72
    65
 73
     0
 40
0.0
  0
LTYPE
  5
15
330
5
100
AcDbSymbolTableRecord
100
AcDbLinetypeTableRecord
  2
ByLayer
 70
     0
  3

 72
    65
 73
     0
 40
0.0
  0
LTYPE
  5
16
330
5
100
AcDbSymbolTableRecord
100
AcDbLinetypeTableRecord
  2
Continuous
 70
     0
  3
Solid line
 72
    65
 73
     0
 40
0.0
  0
LTYPE
  5
2083
330
5
100
AcDbSymbolTableRecord
100
AcDbLinetypeTableRecord
  2
CENTER
 70
     0
  3
____ _ ____ _ ____ _ ____ _ ____ _ ____ _ ____
 72
    65
 73
     4
 40
0.6
 49
0.375
 74
     0
 49
-0.075
 74
     0
 49
0.075
 74
     0
 49
-0.075
 74
     0
  0
ENDTAB
  0
TABLE
  2
LAYER
  5
2
102
{ACAD_XDICTIONARY
360
8B75
102
}
330
0
100
AcDbSymbolTable
 70
     8
  0
LAYER
  5
10
330
2
100
AcDbSymbolTableRecord
100
AcDbLayerTableRecord
  2
0
 70
     0
 62
     7
  6
Continuous
370
    -3
390
F
  0
LAYER
  5
1F03
330
2
100
AcDbSymbolTableRecord
100
AcDbLayerTableRecord
  2
Defpoints
 70
     0
 62
     7
  6
Continuous
290
     0
370
    -3
390
F
  0
LAYER
  5
2084
330
2
100
AcDbSymbolTableRecord
100
AcDbLayerTableRecord
  2
91000_TIP
 70
     0
 62
     7
  6
Continuous
370
    -3
390
F
  0
LAYER
  5
2085
330
2
100
AcDbSymbolTableRecord
100
AcDbLayerTableRecord
  2
11000_Left
 70
     0
 62
     7
  6
Continuous
370
    -3
390
F
  0
LAYER
  5
214D
330
2
100
AcDbSymbolTableRecord
100
AcDbLayerTableRecord
  2
10000_FRONT
 70
     0
 62
     7
  6
Continuous
370
    -3
390
F
  0
LAYER
  5
214E
330
2
100
AcDbSymbolTableRecord
100
AcDbLayerTableRecord
  2
10100_FRONT_DIM
 70
     0
 62
     7
  6
Continuous
370
    -3
390
F
  0
LAYER
  5
214F
330
2
100
AcDbSymbolTableRecord
100
AcDbLayerTableRecord
  2
90000_FRAME
 70
     0
 62
     7
  6
Continuous
370
    -3
390
F
  0
LAYER
  5
2150
330
2
100
AcDbSymbolTableRecord
100
AcDbLayerTableRecord
  2
11100_LEFT_DIM
 70
     0
 62
     7
  6
Continuous
370
    -3
390
F
  0
ENDTAB
  0
TABLE
  2
STYLE
  5
3
330
0
100
AcDbSymbolTable
 70
     1
  0
STYLE
  5
11
330
3
100
AcDbSymbolTableRecord
100
AcDbTextStyleTableRecord
  2
Standard
 70
     0
 40
0.0
 41
1.0
 50
0.0
 71
     0
 42
2.5
  3
txt
  4

  0
ENDTAB
  0
TABLE
  2
VIEW
  5
6
330
0
100
AcDbSymbolTable
 70
     0
  0
ENDTAB
  0
TABLE
  2
UCS
  5
7
330
0
100
AcDbSymbolTable
 70
     0
  0
ENDTAB
  0
TABLE
  2
APPID
  5
9
330
0
100
AcDbSymbolTable
 70
     5
  0
APPID
  5
12
330
9
100
AcDbSymbolTableRecord
100
AcDbRegAppTableRecord
  2
ACAD
 70
     0
  0
APPID
  5
1C6
330
9
100
AcDbSymbolTableRecord
100
AcDbRegAppTableRecord
  2
AUSTER_ANSICHT
 70
     0
  0
APPID
  5
1C7
330
9
100
AcDbSymbolTableRecord
100
AcDbRegAppTableRecord
  2
AUSTER_FOLIE
 70
     0
  0
APPID
  5
8B6F
330
9
100
AcDbSymbolTableRecord
100
AcDbRegAppTableRecord
  2
ACAD_EXEMPT_FROM_CAD_STANDARDS
 70
     0
  0
APPID
  5
8C17
330
9
100
AcDbSymbolTableRecord
100
AcDbRegAppTableRecord
  2
AcAecLayerStandard
 70
     0
  0
ENDTAB
  0
TABLE
  2
DIMSTYLE
  5
A
330
0
100
AcDbSymbolTable
 70
     3
100
AcDbDimStyleTable
 71
     2
340
27
340
2086
  0
DIMSTYLE
105
27
330
A
100
AcDbSymbolTableRecord
100
AcDbDimStyleTableRecord
  2
ISO-25
 70
     0
 41
2.5
 42
0.625
 43
3.75
 44
1.25
 73
     0
 74
     0
 78
     8
140
2.5
141
2.5
143
0.03937007874016
147
0.625
171
     3
172
     1
271
     2
272
     2
274
     3
278
    44
283
     0
284
     8
340
11
  0
DIMSTYLE
105
EE
330
A
100
AcDbSymbolTableRecord
100
AcDbDimStyleTableRecord
  2
Standard
 70
     0
340
11
  0
DIMSTYLE
105
2086
102
{ACAD_REACTORS
330
8F73
330
8F70
330
8F6D
330
8F6A
102
}
330
A
100
AcDbSymbolTableRecord
100
AcDbDimStyleTableRecord
  2
DSTYLE1
 70
     0
 41
3.0
 42
0.0
 44
1.0
 73
     0
 74
     0
 77
     1
 78
     3
140
2.5
143
0.039370079
147
1.0
271
     3
272
     3
274
     0
279
     2
340
11
  0
ENDTAB
  0
TABLE
  2
BLOCK_RECORD
  5
1
330
0
100
AcDbSymbolTable
 70
     6
  0
BLOCK_RECORD
  5
1F
102
{ACAD_XDICTIONARY
360
9022
102
}
330
1
100
AcDbSymbolTableRecord
100
AcDbBlockTableRecord
  2
*Model_Space
340
22
  0
BLOCK_RECORD
  5
50
330
1
100
AcDbSymbolTableRecord
100
AcDbBlockTableRecord
  2
*Paper_Space
340
51
  0
BLOCK_RECORD
  5
55
330
1
100
AcDbSymbolTableRecord
100
AcDbBlockTableRecord
  2
*Paper_Space0
340
56
  0
BLOCK_RECORD
  5
6C
330
1
100
AcDbSymbolTableRecord
100
AcDbBlockTableRecord
  2
SIEMENS_OUTLINE_BL0
340
0
102
{BLKREFS
331
117
102
}
  0
BLOCK_RECORD
  5
8F76
330
1
100
AcDbSymbolTableRecord
100
AcDbBlockTableRecord
  2
*D2
340
0
  0
BLOCK_RECORD
  5
8F83
330
1
100
AcDbSymbolTableRecord
100
AcDbBlockTableRecord
  2
*D3
340
0
  0
BLOCK_RECORD
  5
8F90
330
1
100
AcDbSymbolTableRecord
100
AcDbBlockTableRecord
  2
*D4
340
0
  0
BLOCK_RECORD
  5
8F9D
330
1
100
AcDbSymbolTableRecord
100
AcDbBlockTableRecord
  2
*D5
340
0
  0
ENDTAB
  0
ENDSEC
  0
SECTION
  2
BLOCKS
  0
BLOCK
  5
20
330
1F
100
AcDbEntity
  8
0
100
AcDbBlockBegin
  2
*Model_Space
 70
     0
 10
0.0
 20
0.0
 30
0.0
  3
*Model_Space
  1

  0
ENDBLK
  5
21
330
1F
100
AcDbEntity
  8
0
100
AcDbBlockEnd
  0
BLOCK
  5
52
330
50
100
AcDbEntity
 67
     1
  8
0
100
AcDbBlockBegin
  2
*Paper_Space
 70
     0
 10
0.0
 20
0.0
 30
0.0
  3
*Paper_Space
  1

  0
ENDBLK
  5
53
330
50
100
AcDbEntity
 67
     1
  8
0
100
AcDbBlockEnd
  0
BLOCK
  5
57
330
55
100
AcDbEntity
 67
     1
  8
0
100
AcDbBlockBegin
  2
*Paper_Space0
 70
     0
 10
0.0
 20
0.0
 30
0.0
  3
*Paper_Space0
  1

  0
ENDBLK
  5
58
330
55
100
AcDbEntity
 67
     1
  8
0
100
AcDbBlockEnd
  0
BLOCK
  5
D5
330
6C
100
AcDbEntity
  8
0
  6
Continuous
 62
     7
100
AcDbBlockBegin
  2
SIEMENS_OUTLINE_BL0
 70
     0
 10
0.0
 20
0.0
 30
0.0
  3
SIEMENS_OUTLINE_BL0
  1

  0
LINE
  5
6D
330
6C
100
AcDbEntity
  8
0
  6
Continuous
 62
     7
100
AcDbLine
 10
79.186200508
 20
21.4145478991
 30
0.0
 11
79.186200508
 21
16.6612788158
 31
0.0
  0
LINE
  5
6E
330
6C
100
AcDbEntity
  8
0
  6
Continuous
 62
     7
100
AcDbLine
 10
80.61218123299999
 20
21.4145478991
 30
0.0
 11
80.61218123299999
 21
16.6612788158
 31
0.0
  0
LINE
  5
6F
330
6C
100
AcDbEntity
  8
0
  6
Continuous
 62
     7
100
AcDbLine
 10
79.186200508
 20
16.6612788158
 30
0.0
 11
80.61218123299999
 21
16.6612788158
 31
0.0
  0
LINE
  5
70
330
6C
100
AcDbEntity
  8
0
  6
Continuous
 62
     7
100
AcDbLine
 10
79.186200508
 20
21.4145478991
 30
0.0
 11
80.61218123299999
 21
21.4145478991
 31
0.0
  0
LINE
  5
71
330
6C
100
AcDbEntity
  8
0
  6
Continuous
 62
     7
100
AcDbLine
 10
81.7054331221
 20
21.4145478991
 30
0.0
 11
81.7054331221
 21
16.6612788158
 31
0.0
  0
LINE
  5
72
330
6C
100
AcDbEntity
  8
0
  6
Continuous
 62
     7
100
AcDbLine
 10
81.7054331221
 20
16.6612788158
 30
0.0
 11
85.2703849346
 21
16.6612788158
 31
0.0
  0
LINE
  5
73
330
6C
100
AcDbEntity
  8
0
  6
Continuous
 62
     7
100
AcDbLine
 10
85.2703849346
 20
17.56439994169999
 30
0.0
 11
83.0838811563
 21
17.56439994169999
 31
0.0
  0
LINE
  5
74
330
6C
100
AcDbEntity
  8
0
  6
Continuous
 62
     7
100
AcDbLine
 10
85.2703849346
 20
17.56439994169999
 30
0.0
 11
85.2703849346
 21
16.6612788158
 31
0.0
  0
LINE
  5
75
330
6C
100
AcDbEntity
  8
0
  6
Continuous
 62
     7
100
AcDbLine
 10
85.2228522438
 20
21.4145478991
 30
0.0
 11
81.7054331221
 21
21.4145478991
 31
0.0
  0
LINE
  5
76
330
6C
100
AcDbEntity
  8
0
  6
Continuous
 62
     7
100
AcDbLine
 10
85.2228522438
 20
20.5351931187
 30
0.0
 11
83.0838811563
 21
20.5351931187
 31
0.0
  0
LINE
  5
77
330
6C
100
AcDbEntity
  8
0
  6
Continuous
 62
     7
100
AcDbLine
 10
85.2228522438
 20
21.4145478991
 30
0.0
 11
85.2228522438
 21
20.5351931187
 31
0.0
  0
LINE
  5
78
330
6C
100
AcDbEntity
  8
0
  6
Continuous
 62
     7
100
AcDbLine
 10
84.9376560988
 20
18.68141817619999
 30
0.0
 11
83.0838811563
 21
18.68141817619999
 31
0.0
  0
LINE
  5
79
330
6C
100
AcDbEntity
  8
0
  6
Continuous
 62
     7
100
AcDbLine
 10
84.9376560988
 20
19.46570757499999
 30
0.0
 11
84.9376560988
 21
18.68141817619999
 31
0.0
  0
LINE
  5
7A
330
6C
100
AcDbEntity
  8
0
  6
Continuous
 62
     7
100
AcDbLine
 10
84.9376560988
 20
19.46570757499999
 30
0.0
 11
83.0838811563
 21
19.46570757499999
 31
0.0
  0
LINE
  5
7B
330
6C
100
AcDbEntity
  8
0
  6
Continuous
 62
     7
100
AcDbLine
 10
83.0838811563
 20
20.5351931187
 30
0.0
 11
83.0838811563
 21
19.46570757499999
 31
0.0
  0
LINE
  5
7C
330
6C
100
AcDbEntity
  8
0
  6
Continuous
 62
     7
100
AcDbLine
 10
83.0838811563
 20
18.68141817619999
 30
0.0
 11
83.0838811563
 21
17.56439994169999
 31
0.0
  0
LINE
  5
7D
330
6C
100
AcDbEntity
  8
0
  6
Continuous
 62
     7
100
AcDbLine
 10
86.0784406788
 20
16.6612788158
 30
0.0
 11
86.0784406788
 21
21.4145478991
 31
0.0
  0
LINE
  5
7E
330
6C
100
AcDbEntity
  8
0
  6
Continuous
 62
     7
100
AcDbLine
 10
86.0784406788
 20
16.6612788158
 30
0.0
 11
87.02909449539999
 21
16.6612788158
 31
0.0
  0
LINE
  5
7F
330
6C
100
AcDbEntity
  8
0
  6
Continuous
 62
     7
100
AcDbLine
 10
91.92496165120001
 20
21.4145478991
 30
0.0
 11
91.92496165120001
 21
16.6612788158
 31
0.0
  0
LINE
  5
80
330
6C
100
AcDbEntity
  8
0
  6
Continuous
 62
     7
100
AcDbLine
 10
91.92496165120001
 20
16.6612788158
 30
0.0
 11
90.54651361700001
 21
16.6612788158
 31
0.0
  0
LINE
  5
81
330
6C
100
AcDbEntity
  8
0
  6
Continuous
 62
     7
100
AcDbLine
 10
88.3600098387
 20
16.61374612499999
 30
0.0
 11
89.21559827370002
 21
16.61374612499999
 31
0.0
  0
LINE
  5
82
330
6C
100
AcDbEntity
  8
0
  6
Continuous
 62
     7
100
AcDbLine
 10
88.3600098387
 20
16.61374612499999
 30
0.0
 11
87.02909449539999
 21
19.7033710291
 31
0.0
  0
LINE
  5
83
330
6C
100
AcDbEntity
  8
0
  6
Continuous
 62
     7
100
AcDbLine
 10
87.02909449539999
 20
16.6612788158
 30
0.0
 11
87.02909449539999
 21
19.7033710291
 31
0.0
  0
LINE
  5
84
330
6C
100
AcDbEntity
  8
0
  6
Continuous
 62
     7
100
AcDbLine
 10
90.54651361700001
 20
19.75090372
 30
0.0
 11
89.21559827370002
 21
16.61374612499999
 31
0.0
  0
LINE
  5
85
330
6C
100
AcDbEntity
  8
0
  6
Continuous
 62
     7
100
AcDbLine
 10
87.78961754870001
 20
21.4145478991
 30
0.0
 11
86.0784406788
 21
21.4145478991
 31
0.0
  0
LINE
  5
86
330
6C
100
AcDbEntity
  8
0
  6
Continuous
 62
     7
100
AcDbLine
 10
91.92496165120001
 20
21.4145478991
 30
0.0
 11
90.2137847812
 21
21.4145478991
 31
0.0
  0
LINE
  5
87
330
6C
100
AcDbEntity
  8
0
  6
Continuous
 62
     7
100
AcDbLine
 10
87.78961754870001
 20
21.4145478991
 30
0.0
 11
89.0254675104
 21
18.51505375829999
 31
0.0
  0
LINE
  5
88
330
6C
100
AcDbEntity
  8
0
  6
Continuous
 62
     7
100
AcDbLine
 10
90.2137847812
 20
21.4145478991
 30
0.0
 11
89.0254675104
 21
18.51505375829999
 31
0.0
  0
LINE
  5
89
330
6C
100
AcDbEntity
  8
0
  6
Continuous
 62
     7
100
AcDbLine
 10
90.54651361700001
 20
19.75090372
 30
0.0
 11
90.54651361700001
 21
16.6612788158
 31
0.0
  0
LINE
  5
8A
330
6C
100
AcDbEntity
  8
0
  6
Continuous
 62
     7
100
AcDbLine
 10
93.01821354030002
 20
21.4145478991
 30
0.0
 11
93.01821354030002
 21
16.6612788158
 31
0.0
  0
LINE
  5
8B
330
6C
100
AcDbEntity
  8
0
  6
Continuous
 62
     7
100
AcDbLine
 10
93.01821354030002
 20
16.6612788158
 30
0.0
 11
96.5831653528
 21
16.6612788158
 31
0.0
  0
LINE
  5
8C
330
6C
100
AcDbEntity
  8
0
  6
Continuous
 62
     7
100
AcDbLine
 10
96.5831653528
 20
17.56439994169999
 30
0.0
 11
94.3966615745
 21
17.56439994169999
 31
0.0
  0
LINE
  5
8D
330
6C
100
AcDbEntity
  8
0
  6
Continuous
 62
     7
100
AcDbLine
 10
96.5831653528
 20
17.56439994169999
 30
0.0
 11
96.5831653528
 21
16.6612788158
 31
0.0
  0
LINE
  5
8E
330
6C
100
AcDbEntity
  8
0
  6
Continuous
 62
     7
100
AcDbLine
 10
96.53563266200002
 20
21.4145478991
 30
0.0
 11
93.01821354030002
 21
21.4145478991
 31
0.0
  0
LINE
  5
8F
330
6C
100
AcDbEntity
  8
0
  6
Continuous
 62
     7
100
AcDbLine
 10
96.53563266200002
 20
20.5351931187
 30
0.0
 11
94.3966615745
 21
20.5351931187
 31
0.0
  0
LINE
  5
90
330
6C
100
AcDbEntity
  8
0
  6
Continuous
 62
     7
100
AcDbLine
 10
96.53563266200002
 20
21.4145478991
 30
0.0
 11
96.53563266200002
 21
20.5351931187
 31
0.0
  0
LINE
  5
91
330
6C
100
AcDbEntity
  8
0
  6
Continuous
 62
     7
100
AcDbLine
 10
96.25043651700002
 20
18.68141817619999
 30
0.0
 11
94.3966615745
 21
18.68141817619999
 31
0.0
  0
LINE
  5
92
330
6C
100
AcDbEntity
  8
0
  6
Continuous
 62
     7
100
AcDbLine
 10
96.25043651700002
 20
19.46570757499999
 30
0.0
 11
96.25043651700002
 21
18.68141817619999
 31
0.0
  0
LINE
  5
93
330
6C
100
AcDbEntity
  8
0
  6
Continuous
 62
     7
100
AcDbLine
 10
96.25043651700002
 20
19.46570757499999
 30
0.0
 11
94.3966615745
 21
19.46570757499999
 31
0.0
  0
LINE
  5
94
330
6C
100
AcDbEntity
  8
0
  6
Continuous
 62
     7
100
AcDbLine
 10
94.3966615745
 20
20.5351931187
 30
0.0
 11
94.3966615745
 21
19.46570757499999
 31
0.0
  0
LINE
  5
95
330
6C
100
AcDbEntity
  8
0
  6
Continuous
 62
     7
100
AcDbLine
 10
94.3966615745
 20
18.68141817619999
 30
0.0
 11
94.3966615745
 21
17.56439994169999
 31
0.0
  0
LINE
  5
96
330
6C
100
AcDbEntity
  8
0
  6
Continuous
 62
     7
100
AcDbLine
 10
97.3674547515
 20
16.6612788158
 30
0.0
 11
97.3674547515
 21
21.4145478991
 31
0.0
  0
LINE
  5
97
330
6C
100
AcDbEntity
  8
0
  6
Continuous
 62
     7
100
AcDbLine
 10
101.5503315447999
 20
21.4145478991
 30
0.0
 11
101.5503315447999
 21
16.6612788158
 31
0.0
  0
LINE
  5
98
330
6C
100
AcDbEntity
  8
0
  6
Continuous
 62
     7
100
AcDbLine
 10
97.3674547515
 20
16.6612788158
 30
0.0
 11
98.3181085682
 21
16.6612788158
 31
0.0
  0
LINE
  5
99
330
6C
100
AcDbEntity
  8
0
  6
Continuous
 62
     7
100
AcDbLine
 10
101.5503315447999
 20
21.4145478991
 30
0.0
 11
100.5996777281999
 21
21.4145478991
 31
0.0
  0
LINE
  5
9A
330
6C
100
AcDbEntity
  8
0
  6
Continuous
 62
     7
100
AcDbLine
 10
98.91226720360002
 20
21.4145478991
 30
0.0
 11
97.3674547515
 21
21.4145478991
 31
0.0
  0
LINE
  5
9B
330
6C
100
AcDbEntity
  8
0
  6
Continuous
 62
     7
100
AcDbLine
 10
101.5503315447999
 20
16.6612788158
 30
0.0
 11
100.0292854381999
 21
16.6612788158
 31
0.0
  0
LINE
  5
9C
330
6C
100
AcDbEntity
  8
0
  6
Continuous
 62
     7
100
AcDbLine
 10
100.0292854381999
 20
16.6612788158
 30
0.0
 11
98.3181085682
 21
19.7033710291
 31
0.0
  0
LINE
  5
9D
330
6C
100
AcDbEntity
  8
0
  6
Continuous
 62
     7
100
AcDbLine
 10
98.91226720360002
 20
21.4145478991
 30
0.0
 11
100.5996777281999
 21
18.4675210675
 31
0.0
  0
LINE
  5
9E
330
6C
100
AcDbEntity
  8
0
  6
Continuous
 62
     7
100
AcDbLine
 10
100.5996777281999
 20
21.4145478991
 30
0.0
 11
100.5996777281999
 21
18.4675210675
 31
0.0
  0
LINE
  5
9F
330
6C
100
AcDbEntity
  8
0
  6
Continuous
 62
     7
100
AcDbLine
 10
98.3181085682
 20
16.6612788158
 30
0.0
 11
98.3181085682
 21
19.7033710291
 31
0.0
  0
LINE
  5
A0
330
6C
100
AcDbEntity
  8
0
  6
Continuous
 62
     7
100
AcDbLine
 10
102.3583872889999
 20
16.75634419749999
 30
0.0
 11
102.3583872889999
 21
17.7069980142
 31
0.0
  0
LINE
  5
A1
330
6C
100
AcDbEntity
  8
0
  6
Continuous
 62
     7
100
AcDbLine
 10
105.6856756473
 20
20.4163613916
 30
0.0
 11
105.6856756473
 21
21.36701520829999
 31
0.0
  0
ARC
  5
A2
330
6C
100
AcDbEntity
  8
0
  6
Continuous
 62
     7
100
AcDbCircle
 10
104.063028414
 20
18.61843736089998
 30
0.0
 40
1.111619360599997
100
AcDbArc
 50
277.7099956934
 51
295.6884927745999
  0
ARC
  5
A3
330
6C
100
AcDbEntity
  8
0
  6
Continuous
 62
     7
100
AcDbCircle
 10
104.3473383967
 20
17.8936115972
 30
0.0
 40
0.3401689265
100
AcDbArc
 50
305.503221255
 51
72.46528985229999
  0
ARC
  5
A4
330
6C
100
AcDbEntity
  8
0
  6
Continuous
 62
     7
100
AcDbCircle
 10
103.7813445885999
 20
21.2953185068
 30
0.0
 40
4.756794641099999
100
AcDbArc
 50
252.5939200548001
 51
280.9816604255999
  0
ARC
  5
A5
330
6C
100
AcDbEntity
  8
0
  6
Continuous
 62
     7
100
AcDbCircle
 10
104.2361799517
 20
18.6773047703
 30
0.0
 40
2.100726595299998
100
AcDbArc
 50
282.4058358519999
 51
311.8644433928
  0
ARC
  5
A6
330
6C
100
AcDbEntity
  8
0
  6
Continuous
 62
     7
100
AcDbCircle
 10
103.9626156045999
 20
20.2856464918
 30
0.0
 40
0.3029626476
100
AcDbArc
 50
154.4400348282
 51
221.8201698800999
  0
ARC
  5
A7
330
6C
100
AcDbEntity
  8
0
  6
Continuous
 62
     7
100
AcDbCircle
 10
104.0418367559
 20
20.2064253405
 30
0.0
 40
0.4103089737
100
AcDbArc
 50
102.8287828680999
 51
149.2259639003
  0
ARC
  5
A8
330
6C
100
AcDbEntity
  8
0
  6
Continuous
 62
     7
100
AcDbCircle
 10
104.4588635915999
 20
18.46409001059999
 30
0.0
 40
2.201836557
100
AcDbArc
 50
84.0400061857
 51
103.3427657870999
  0
ARC
  5
A9
330
6C
100
AcDbEntity
  8
0
  6
Continuous
 62
     7
100
AcDbCircle
 10
104.1178997669
 20
16.0467260867
 30
0.0
 40
4.642373736499997
100
AcDbArc
 50
70.2625858546
 51
82.95241863799999
  0
ARC
  5
AA
330
6C
100
AcDbEntity
  8
0
  6
Continuous
 62
     7
100
AcDbCircle
 10
103.6038815646999
 20
20.7183489764
 30
0.0
 40
3.258755990899997
100
AcDbArc
 50
247.5300206145
 51
280.7579522143
  0
ARC
  5
AB
330
6C
100
AcDbEntity
  8
0
  6
Continuous
 62
     7
100
AcDbCircle
 10
97.21891509270001
 20
2.4668290159
 30
0.0
 40
17.3316084133
100
AcDbArc
 50
65.34146746500001
 51
67.39977707359999
  0
ARC
  5
AC
330
6C
100
AcDbEntity
  8
0
  6
Continuous
 62
     7
100
AcDbCircle
 10
108.0147774981
 20
28.259255379
 30
0.0
 40
10.6291642039
100
AcDbArc
 50
242.8620101252001
 51
247.1042029186
  0
ARC
  5
AD
330
6C
100
AcDbEntity
  8
0
  6
Continuous
 62
     7
100
AcDbCircle
 10
104.1598762715
 20
20.725323882
 30
0.0
 40
2.166291629199998
100
AcDbArc
 50
227.3119280793999
 51
242.7040315235
  0
ARC
  5
AE
330
6C
100
AcDbEntity
  8
0
  6
Continuous
 62
     7
100
AcDbCircle
 10
103.5558454618999
 20
20.0196462412
 30
0.0
 40
1.238521734
100
AcDbArc
 50
194.7952194236
 51
225.7176549047
  0
ARC
  5
AF
330
6C
100
AcDbEntity
  8
0
  6
Continuous
 62
     7
100
AcDbCircle
 10
103.6180035961
 20
20.05986621039999
 30
0.0
 40
1.309092072899999
100
AcDbArc
 50
164.1974860461
 51
195.8025139539
  0
ARC
  5
B0
330
6C
100
AcDbEntity
  8
0
  6
Continuous
 62
     7
100
AcDbCircle
 10
104.1750273167
 20
19.1715990505
 30
0.0
 40
2.366924815299999
100
AcDbArc
 50
86.22180229280001
 51
120.4272602309
  0
ARC
  5
B1
330
6C
100
AcDbEntity
  8
0
  6
Continuous
 62
     7
100
AcDbCircle
 10
103.9061705341999
 20
12.4754312294
 30
0.0
 40
9.0679051661
100
AcDbArc
 50
78.68270492259998
 51
87.3147599624
  0
ARC
  5
B2
330
6C
100
AcDbEntity
  8
0
  6
Continuous
 62
     7
100
AcDbCircle
 10
103.4501013557999
 20
20.1673739729
 30
0.0
 40
1.119747444
100
AcDbArc
 50
142.8139179029999
 51
167.1522951416999
  0
ARC
  5
B3
330
6C
100
AcDbEntity
  8
0
  6
Continuous
 62
     7
100
AcDbCircle
 10
103.7954106973999
 20
19.86079227619999
 30
0.0
 40
1.580546684499998
100
AcDbArc
 50
121.2140948535
 51
141.5254768286
  0
ARC
  5
B4
330
6C
100
AcDbEntity
  8
0
  6
Continuous
 62
     7
100
AcDbCircle
 10
104.372585063
 20
20.6718496049
 30
0.0
 40
0.8661276051999998
100
AcDbArc
 50
222.7760387596
 51
239.0362434679
  0
ARC
  5
B5
330
6C
100
AcDbEntity
  8
0
  6
Continuous
 62
     7
100
AcDbCircle
 10
101.8658754847
 20
13.3415774063
 30
0.0
 40
6.858773576299999
100
AcDbArc
 50
59.90202725599999
 51
68.2036481279
  0
ARC
  5
B6
330
6C
100
AcDbEntity
  8
0
  6
Continuous
 62
     7
100
AcDbCircle
 10
105.2743699785
 20
22.26746391349999
 30
0.0
 40
2.698741017099999
100
AcDbArc
 50
240.0481997804
 51
251.3779673736999
  0
ARC
  5
B7
330
6C
100
AcDbEntity
  8
0
  6
Continuous
 62
     7
100
AcDbCircle
 10
104.6089128116999
 20
18.1105652982
 30
0.0
 40
1.4334474881
100
AcDbArc
 50
315.8904553224
 51
333.5229264372999
  0
ARC
  5
B8
330
6C
100
AcDbEntity
  8
0
  6
Continuous
 62
     7
100
AcDbCircle
 10
104.6135510555
 20
18.057158148
 30
0.0
 40
1.406228711899998
100
AcDbArc
 50
335.3867972702
 51
24.39151194019999
  0
ARC
  5
B9
330
6C
100
AcDbEntity
  8
0
  6
Continuous
 62
     7
100
AcDbCircle
 10
104.5413461519
 20
17.97930145619999
 30
0.0
 40
1.504702514799999
100
AcDbArc
 50
25.95629166050001
 51
59.4834829668
  0
LINE
  5
BA
330
6C
100
AcDbEntity
  8
0
  6
Continuous
 62
     7
100
AcDbLine
 10
74.7656602606
 20
16.75634419749999
 30
0.0
 11
74.7656602606
 21
17.7069980142
 31
0.0
  0
LINE
  5
BB
330
6C
100
AcDbEntity
  8
0
  6
Continuous
 62
     7
100
AcDbLine
 10
78.09294861879997
 20
20.4163613916
 30
0.0
 11
78.09294861879997
 21
21.36701520829999
 31
0.0
  0
ARC
  5
BC
330
6C
100
AcDbEntity
  8
0
  6
Continuous
 62
     7
100
AcDbCircle
 10
76.4703013855
 20
18.61843736089998
 30
0.0
 40
1.111619360599997
100
AcDbArc
 50
277.7099956934
 51
295.6884927745999
  0
ARC
  5
BD
330
6C
100
AcDbEntity
  8
0
  6
Continuous
 62
     7
100
AcDbCircle
 10
76.7546113683
 20
17.8936115972
 30
0.0
 40
0.3401689265
100
AcDbArc
 50
305.5032212556
 51
72.4652898515
  0
ARC
  5
BE
330
6C
100
AcDbEntity
  8
0
  6
Continuous
 62
     7
100
AcDbCircle
 10
76.1886175602
 20
21.2953185068
 30
0.0
 40
4.756794641099999
100
AcDbArc
 50
252.5939200545
 51
280.9816604253
  0
ARC
  5
BF
330
6C
100
AcDbEntity
  8
0
  6
Continuous
 62
     7
100
AcDbCircle
 10
76.64345292330001
 20
18.6773047703
 30
0.0
 40
2.100726595299998
100
AcDbArc
 50
282.4058358513
 51
311.8644433923
  0
ARC
  5
C0
330
6C
100
AcDbEntity
  8
0
  6
Continuous
 62
     7
100
AcDbCircle
 10
76.3698885762
 20
20.2856464918
 30
0.0
 40
0.3029626476
100
AcDbArc
 50
154.4400348282
 51
221.8201698800999
  0
ARC
  5
C1
330
6C
100
AcDbEntity
  8
0
  6
Continuous
 62
     7
100
AcDbCircle
 10
76.4491097276
 20
20.2064253405
 30
0.0
 40
0.4103089737
100
AcDbArc
 50
102.8287828727
 51
149.2259639027
  0
ARC
  5
C2
330
6C
100
AcDbEntity
  8
0
  6
Continuous
 62
     7
100
AcDbCircle
 10
76.8661365632
 20
18.46409001059999
 30
0.0
 40
2.201836557
100
AcDbArc
 50
84.0400061859
 51
103.3427657871999
  0
ARC
  5
C3
330
6C
100
AcDbEntity
  8
0
  6
Continuous
 62
     7
100
AcDbCircle
 10
76.5251727384
 20
16.0467260867
 30
0.0
 40
4.642373736499997
100
AcDbArc
 50
70.2625858546
 51
82.9524186379
  0
ARC
  5
C4
330
6C
100
AcDbEntity
  8
0
  6
Continuous
 62
     7
100
AcDbCircle
 10
76.0111545363
 20
20.7183489764
 30
0.0
 40
3.258755990899997
100
AcDbArc
 50
247.5300206148
 51
280.7579522145
  0
ARC
  5
C5
330
6C
100
AcDbEntity
  8
0
  6
Continuous
 62
     7
100
AcDbCircle
 10
69.6261880643
 20
2.4668290159
 30
0.0
 40
17.3316084133
100
AcDbArc
 50
65.34146746500001
 51
67.39977707359999
  0
ARC
  5
C6
330
6C
100
AcDbEntity
  8
0
  6
Continuous
 62
     7
100
AcDbCircle
 10
80.4220504697
 20
28.259255379
 30
0.0
 40
10.6291642039
100
AcDbArc
 50
242.8620101252001
 51
247.1042029184999
  0
ARC
  5
C7
330
6C
100
AcDbEntity
  8
0
  6
Continuous
 62
     7
100
AcDbCircle
 10
76.56714924310001
 20
20.725323882
 30
0.0
 40
2.166291629199998
100
AcDbArc
 50
227.3119280793999
 51
242.7040315235
  0
ARC
  5
C8
330
6C
100
AcDbEntity
  8
0
  6
Continuous
 62
     7
100
AcDbCircle
 10
75.9631184335
 20
20.0196462412
 30
0.0
 40
1.238521734
100
AcDbArc
 50
194.7952194234
 51
225.7176549041999
  0
ARC
  5
C9
330
6C
100
AcDbEntity
  8
0
  6
Continuous
 62
     7
100
AcDbCircle
 10
76.58230028830002
 20
19.1715990505
 30
0.0
 40
2.366924815299999
100
AcDbArc
 50
86.22180229280001
 51
120.4272602309
  0
ARC
  5
CA
330
6C
100
AcDbEntity
  8
0
  6
Continuous
 62
     7
100
AcDbCircle
 10
76.3134435058
 20
12.4754312294
 30
0.0
 40
9.0679051661
100
AcDbArc
 50
78.68270492259998
 51
87.3147599624
  0
ARC
  5
CB
330
6C
100
AcDbEntity
  8
0
  6
Continuous
 62
     7
100
AcDbCircle
 10
76.20268366899998
 20
19.86079227619999
 30
0.0
 40
1.580546684599998
100
AcDbArc
 50
121.2140948540999
 51
141.5254768289999
  0
ARC
  5
CC
330
6C
100
AcDbEntity
  8
0
  6
Continuous
 62
     7
100
AcDbCircle
 10
76.7798580346
 20
20.6718496049
 30
0.0
 40
0.8661276051999998
100
AcDbArc
 50
222.7760387596
 51
239.0362434679
  0
ARC
  5
CD
330
6C
100
AcDbEntity
  8
0
  6
Continuous
 62
     7
100
AcDbCircle
 10
74.2731484563
 20
13.3415774063
 30
0.0
 40
6.858773576299999
100
AcDbArc
 50
59.90202725620001
 51
68.20364812820002
  0
ARC
  5
CE
330
6C
100
AcDbEntity
  8
0
  6
Continuous
 62
     7
100
AcDbCircle
 10
77.6816429501
 20
22.26746391349999
 30
0.0
 40
2.698741017099999
100
AcDbArc
 50
240.0481997804
 51
251.3779673734
  0
ARC
  5
CF
330
6C
100
AcDbEntity
  8
0
  6
Continuous
 62
     7
100
AcDbCircle
 10
77.0161857833
 20
18.1105652982
 30
0.0
 40
1.4334474881
100
AcDbArc
 50
315.8904553225998
 51
333.5229264375
  0
ARC
  5
D0
330
6C
100
AcDbEntity
  8
0
  6
Continuous
 62
     7
100
AcDbCircle
 10
77.020824027
 20
18.057158148
 30
0.0
 40
1.406228711899998
100
AcDbArc
 50
335.3867972703
 51
24.3915119403
  0
ARC
  5
D1
330
6C
100
AcDbEntity
  8
0
  6
Continuous
 62
     7
100
AcDbCircle
 10
76.94861912350001
 20
17.97930145619999
 30
0.0
 40
1.504702514699999
100
AcDbArc
 50
25.9562916611
 51
59.4834829676
  0
LINE
  5
D2
330
6C
100
AcDbEntity
  8
0
  6
Continuous
 62
     7
100
AcDbLine
 10
74.9574888499
 20
20.8337423583
 30
0.0
 11
75.2315546745
 21
21.10781543579999
 31
0.0
  0
ARC
  5
D3
330
6C
100
AcDbEntity
  8
0
  6
Continuous
 62
     7
100
AcDbCircle
 10
76.0252765676
 20
20.05986621039999
 30
0.0
 40
1.309092072899999
100
AcDbArc
 50
164.1974860461
 51
195.8025139539
  0
ARC
  5
D4
330
6C
100
AcDbEntity
  8
0
  6
Continuous
 62
     7
100
AcDbCircle
 10
75.8573743274
 20
20.1673739729
 30
0.0
 40
1.119747444
100
AcDbArc
 50
142.8139179029999
 51
167.1522951416999
  0
ENDBLK
  5
D6
330
6C
100
AcDbEntity
  8
0
100
AcDbBlockEnd
  0
BLOCK
  5
8F81
330
8F76
100
AcDbEntity
  8
0
100
AcDbBlockBegin
  2
*D2
 70
     1
 10
0.0
 20
0.0
 30
0.0
  3
*D2
  1

  0
LINE
  5
90EA
330
8F76
100
AcDbEntity
  8
10100_FRONT_DIM
  6
Continuous
 62
     0
370
    -2
100
AcDbLine
 10
1178.328744435646
 20
297.9373156443923
 30
0.0
 11
1183.328744435646
 21
297.9373156443923
 31
0.0
  0
LINE
  5
90EB
330
8F76
100
AcDbEntity
  8
10100_FRONT_DIM
  6
Continuous
 62
     0
370
    -2
100
AcDbLine
 10
1178.328744435646
 20
330.1873186303922
 30
0.0
 11
1183.328744435646
 21
330.1873186303922
 31
0.0
  0
LINE
  5
90EC
330
8F76
100
AcDbEntity
  8
10100_FRONT_DIM
  6
Continuous
 62
     0
370
    -2
100
AcDbLine
 10
1182.328744435646
 20
299.9373156443923
 30
0.0
 11
1182.328744435646
 21
310.1456504707256
 31
0.0
  0
LINE
  5
90ED
330
8F76
100
AcDbEntity
  8
10100_FRONT_DIM
  6
Continuous
 62
     0
370
    -2
100
AcDbLine
 10
1182.328744435646
 20
328.1873186303922
 30
0.0
 11
1182.328744435646
 21
317.9789838040589
 31
0.0
  0
SOLID
  5
90EE
330
8F76
100
AcDbEntity
  8
10100_FRONT_DIM
  6
Continuous
 62
     0
100
AcDbTrace
 10
1181.995411102312
 20
299.9373156443923
 30
0.0
 11
1182.662077768979
 21
299.9373156443923
 31
0.0
 12
1182.328744435646
 22
297.9373156443923
 32
0.0
 13
1182.328744435646
 23
297.9373156443923
 33
0.0
  0
SOLID
  5
90EF
330
8F76
100
AcDbEntity
  8
10100_FRONT_DIM
  6
Continuous
 62
     0
100
AcDbTrace
 10
1181.995411102312
 20
328.1873186303922
 30
0.0
 11
1182.662077768979
 21
328.1873186303922
 31
0.0
 12
1182.328744435646
 22
330.1873186303922
 32
0.0
 13
1182.328744435646
 23
330.1873186303922
 33
0.0
  0
MTEXT
  5
90F0
330
8F76
100
AcDbEntity
  8
10100_FRONT_DIM
  6
Continuous
 62
     0
370
    13
100
AcDbMText
 10
1182.328744435646
 20
314.0623171373925
 30
0.0
 40
3.5
 41
0.0
 71
     5
 72
     1
  1
\A1;32
 11
0.0000000000000001
 21
1.0
 31
0.0
 73
     1
 44
1.0
1001
ACAD
1000
MTEXTBEGIN
1070
    73
1070
     1
1070
    44
1040
1.0
1070
    74
1070
     0
1000
MTEXTEND
  0
POINT
  5
90F1
330
8F76
100
AcDbEntity
  8
Defpoints
  6
Continuous
 62
     0
100
AcDbPoint
 10
1177.328744435646
 20
297.9373156443923
 30
0.0
  0
POINT
  5
90F2
330
8F76
100
AcDbEntity
  8
Defpoints
  6
Continuous
 62
     0
100
AcDbPoint
 10
1177.328744435646
 20
330.1873186303922
 30
0.0
  0
POINT
  5
90F3
330
8F76
100
AcDbEntity
  8
Defpoints
  6
Continuous
 62
     0
100
AcDbPoint
 10
1182.328744435646
 20
330.1873186303922
 30
0.0
  0
ENDBLK
  5
8F82
330
8F76
100
AcDbEntity
  8
0
100
AcDbBlockEnd
  0
BLOCK
  5
8F8E
330
8F83
100
AcDbEntity
  8
0
100
AcDbBlockBegin
  2
*D3
 70
     1
 10
0.0
 20
0.0
 30
0.0
  3
*D3
  1

  0
LINE
  5
90F4
330
8F83
100
AcDbEntity
  8
10100_FRONT_DIM
  6
Continuous
 62
     0
370
    -2
100
AcDbLine
 10
1141.328744435646
 20
296.9373156443923
 30
0.0
 11
1141.328744435646
 21
288.1888382343925
 31
0.0
  0
LINE
  5
90F5
330
8F83
100
AcDbEntity
  8
10100_FRONT_DIM
  6
Continuous
 62
     0
370
    -2
100
AcDbLine
 10
1177.328744435646
 20
296.9373156443923
 30
0.0
 11
1177.328744435646
 21
288.1888382343925
 31
0.0
  0
LINE
  5
90F6
330
8F83
100
AcDbEntity
  8
10100_FRONT_DIM
  6
Continuous
 62
     0
370
    -2
100
AcDbLine
 10
1143.328744435646
 20
289.1888382343925
 30
0.0
 11
1155.412077768979
 21
289.1888382343925
 31
0.0
  0
LINE
  5
90F7
330
8F83
100
AcDbEntity
  8
10100_FRONT_DIM
  6
Continuous
 62
     0
370
    -2
100
AcDbLine
 10
1175.328744435646
 20
289.1888382343925
 30
0.0
 11
1163.245411102312
 21
289.1888382343925
 31
0.0
  0
SOLID
  5
90F8
330
8F83
100
AcDbEntity
  8
10100_FRONT_DIM
  6
Continuous
 62
     0
100
AcDbTrace
 10
1143.328744435646
 20
289.5221715677258
 30
0.0
 11
1143.328744435646
 21
288.8555049010592
 31
0.0
 12
1141.328744435646
 22
289.1888382343925
 32
0.0
 13
1141.328744435646
 23
289.1888382343925
 33
0.0
  0
SOLID
  5
90F9
330
8F83
100
AcDbEntity
  8
10100_FRONT_DIM
  6
Continuous
 62
     0
100
AcDbTrace
 10
1175.328744435646
 20
289.5221715677258
 30
0.0
 11
1175.328744435646
 21
288.8555049010592
 31
0.0
 12
1177.328744435646
 22
289.1888382343925
 32
0.0
 13
1177.328744435646
 23
289.1888382343925
 33
0.0
  0
MTEXT
  5
90FA
330
8F83
100
AcDbEntity
  8
10100_FRONT_DIM
  6
Continuous
 62
     0
370
    13
100
AcDbMText
 10
1159.328744435646
 20
289.1888382343925
 30
0.0
 40
3.5
 41
0.0
 71
     5
 72
     1
  1
\A1;36
 73
     1
 44
1.0
1001
ACAD
1000
MTEXTBEGIN
1070
    73
1070
     1
1070
    44
1040
1.0
1070
    74
1070
     0
1000
MTEXTEND
  0
POINT
  5
90FB
330
8F83
100
AcDbEntity
  8
Defpoints
  6
Continuous
 62
     0
100
AcDbPoint
 10
1141.328744435646
 20
297.9373156443923
 30
0.0
  0
POINT
  5
90FC
330
8F83
100
AcDbEntity
  8
Defpoints
  6
Continuous
 62
     0
100
AcDbPoint
 10
1177.328744435646
 20
297.9373156443923
 30
0.0
  0
POINT
  5
90FD
330
8F83
100
AcDbEntity
  8
Defpoints
  6
Continuous
 62
     0
100
AcDbPoint
 10
1177.328744435646
 20
289.1888382343925
 30
0.0
  0
ENDBLK
  5
8F8F
330
8F83
100
AcDbEntity
  8
0
100
AcDbBlockEnd
  0
BLOCK
  5
8F9B
330
8F90
100
AcDbEntity
  8
0
100
AcDbBlockBegin
  2
*D4
 70
     1
 10
0.0
 20
0.0
 30
0.0
  3
*D4
  1

  0
LINE
  5
911A
330
8F90
100
AcDbEntity
  8
11100_LEFT_DIM
  6
Continuous
 62
     0
370
    -2
100
AcDbLine
 10
1208.286048049646
 20
331.6873186303922
 30
0.0
 11
1201.786048049647
 21
331.6873186303922
 31
0.0
  0
LINE
  5
911B
330
8F90
100
AcDbEntity
  8
11100_LEFT_DIM
  6
Continuous
 62
     0
370
    -2
100
AcDbLine
 10
1208.286048049707
 20
294.1873186303717
 30
0.0
 11
1201.786048049647
 21
294.1873186303717
 31
0.0
  0
LINE
  5
911C
330
8F90
100
AcDbEntity
  8
11100_LEFT_DIM
  6
Continuous
 62
     0
370
    -2
100
AcDbLine
 10
1202.786048049647
 20
329.6873186303922
 30
0.0
 11
1202.786048049647
 21
316.8539852970486
 31
0.0
  0
LINE
  5
911D
330
8F90
100
AcDbEntity
  8
11100_LEFT_DIM
  6
Continuous
 62
     0
370
    -2
100
AcDbLine
 10
1202.786048049647
 20
296.1873186303717
 30
0.0
 11
1202.786048049647
 21
309.0206519637153
 31
0.0
  0
SOLID
  5
911E
330
8F90
100
AcDbEntity
  8
11100_LEFT_DIM
  6
Continuous
 62
     0
100
AcDbTrace
 10
1202.452714716313
 20
329.6873186303922
 30
0.0
 11
1203.11938138298
 21
329.6873186303922
 31
0.0
 12
1202.786048049647
 22
331.6873186303922
 32
0.0
 13
1202.786048049647
 23
331.6873186303922
 33
0.0
  0
SOLID
  5
911F
330
8F90
100
AcDbEntity
  8
11100_LEFT_DIM
  6
Continuous
 62
     0
100
AcDbTrace
 10
1202.452714716313
 20
296.1873186303717
 30
0.0
 11
1203.11938138298
 21
296.1873186303717
 31
0.0
 12
1202.786048049647
 22
294.1873186303717
 32
0.0
 13
1202.786048049647
 23
294.1873186303717
 33
0.0
  0
MTEXT
  5
9120
330
8F90
100
AcDbEntity
  8
11100_LEFT_DIM
  6
Continuous
 62
     0
370
    13
100
AcDbMText
 10
1202.786048049647
 20
312.9373186303821
 30
0.0
 40
3.5
 41
0.0
 71
     5
 72
     1
  1
\A1;38
 11
0.0000000000000001
 21
1.0
 31
0.0
 73
     1
 44
1.0
1001
ACAD
1000
MTEXTBEGIN
1070
    73
1070
     1
1070
    44
1040
1.0
1070
    74
1070
     0
1000
MTEXTEND
  0
POINT
  5
9121
330
8F90
100
AcDbEntity
  8
Defpoints
  6
Continuous
 62
     0
100
AcDbPoint
 10
1209.286048049646
 20
331.6873186303922
 30
0.0
  0
POINT
  5
9122
330
8F90
100
AcDbEntity
  8
Defpoints
  6
Continuous
 62
     0
100
AcDbPoint
 10
1209.286048049707
 20
294.1873186303717
 30
0.0
  0
POINT
  5
9123
330
8F90
100
AcDbEntity
  8
Defpoints
  6
Continuous
 62
     0
100
AcDbPoint
 10
1202.786048049647
 20
294.1873186303717
 30
0.0
  0
ENDBLK
  5
8F9C
330
8F90
100
AcDbEntity
  8
0
100
AcDbBlockEnd
  0
BLOCK
  5
8FA8
330
8F9D
100
AcDbEntity
  8
0
100
AcDbBlockBegin
  2
*D5
 70
     1
 10
0.0
 20
0.0
 30
0.0
  3
*D5
  1

  0
LINE
  5
9124
330
8F9D
100
AcDbEntity
  8
11100_LEFT_DIM
  6
Continuous
 62
     0
370
    -2
100
AcDbLine
 10
1207.786048049625
 20
294.6873186303922
 30
0.0
 11
1207.786048049625
 21
288.1873186892928
 31
0.0
  0
LINE
  5
9125
330
8F9D
100
AcDbEntity
  8
11100_LEFT_DIM
  6
Continuous
 62
     0
370
    -2
100
AcDbLine
 10
1245.353790391976
 20
297.8669641314368
 30
0.0
 11
1245.353790391976
 21
288.1873186892928
 31
0.0
  0
LINE
  5
9126
330
8F9D
100
AcDbEntity
  8
11100_LEFT_DIM
  6
Continuous
 62
     0
370
    -2
100
AcDbLine
 10
1209.786048049626
 20
289.1873186892929
 30
0.0
 11
1222.653252554134
 21
289.1873186892929
 31
0.0
  0
LINE
  5
9127
330
8F9D
100
AcDbEntity
  8
11100_LEFT_DIM
  6
Continuous
 62
     0
370
    -2
100
AcDbLine
 10
1243.353790391976
 20
289.1873186892929
 30
0.0
 11
1230.486585887467
 21
289.1873186892929
 31
0.0
  0
SOLID
  5
9128
330
8F9D
100
AcDbEntity
  8
11100_LEFT_DIM
  6
Continuous
 62
     0
100
AcDbTrace
 10
1209.786048049626
 20
289.5206520226262
 30
0.0
 11
1209.786048049626
 21
288.8539853559596
 31
0.0
 12
1207.786048049625
 22
289.1873186892929
 32
0.0
 13
1207.786048049625
 23
289.1873186892929
 33
0.0
  0
SOLID
  5
9129
330
8F9D
100
AcDbEntity
  8
11100_LEFT_DIM
  6
Continuous
 62
     0
100
AcDbTrace
 10
1243.353790391976
 20
289.5206520226262
 30
0.0
 11
1243.353790391976
 21
288.8539853559596
 31
0.0
 12
1245.353790391976
 22
289.1873186892929
 32
0.0
 13
1245.353790391976
 23
289.1873186892929
 33
0.0
  0
MTEXT
  5
912A
330
8F9D
100
AcDbEntity
  8
11100_LEFT_DIM
  6
Continuous
 62
     0
370
    13
100
AcDbMText
 10
1226.569919220801
 20
289.1873186892929
 30
0.0
 40
3.5
 41
0.0
 71
     5
 72
     1
  1
\A1;38
 73
     1
 44
1.0
1001
ACAD
1000
MTEXTBEGIN
1070
    73
1070
     1
1070
    44
1040
1.0
1070
    74
1070
     0
1000
MTEXTEND
  0
POINT
  5
912B
330
8F9D
100
AcDbEntity
  8
Defpoints
  6
Continuous
 62
     0
100
AcDbPoint
 10
1207.786048049625
 20
295.6873186303921
 30
0.0
  0
POINT
  5
912C
330
8F9D
100
AcDbEntity
  8
Defpoints
  6
Continuous
 62
     0
100
AcDbPoint
 10
1245.353790391976
 20
298.8669641314368
 30
0.0
  0
POINT
  5
912D
330
8F9D
100
AcDbEntity
  8
Defpoints
  6
Continuous
 62
     0
100
AcDbPoint
 10
1245.353790391976
 20
289.1873186892929
 30
0.0
  0
ENDBLK
  5
8FA9
330
8F9D
100
AcDbEntity
  8
0
100
AcDbBlockEnd
  0
ENDSEC
  0
SECTION
  2
ENTITIES
  0
INSERT
  5
117
330
1F
100
AcDbEntity
  8
90000_FRAME
  6
Continuous
 62
     7
100
AcDbBlockReference
  2
SIEMENS_OUTLINE_BL0
 10
1113.564341719631
 20
201.9187786897147
 30
0.0
  0
LINE
  5
118
330
1F
100
AcDbEntity
  8
90000_FRAME
  6
Continuous
 62
     7
100
AcDbLine
 10
1180.91844433571
 20
212.257037917318
 30
0.0
 11
1315.91844433571
 21
212.257037917318
 31
0.0
  0
LINE
  5
119
330
1F
100
AcDbEntity
  8
90000_FRAME
  6
Continuous
 62
     7
100
AcDbLine
 10
1180.91844433571
 20
212.257037917318
 30
0.0
 11
1180.91844433571
 21
230.257037917318
 31
0.0
  0
LINE
  5
11A
330
1F
100
AcDbEntity
  8
90000_FRAME
  6
Continuous
 62
     7
100
AcDbLine
 10
1230.91844433571
 20
218.257037917318
 30
0.0
 11
1315.91844433571
 21
218.257037917318
 31
0.0
  0
LINE
  5
11B
330
1F
100
AcDbEntity
  8
90000_FRAME
  6
Continuous
 62
     7
100
AcDbLine
 10
1180.91844433571
 20
230.257037917318
 30
0.0
 11
1315.91844433571
 21
230.257037917318
 31
0.0
  0
LINE
  5
11C
330
1F
100
AcDbEntity
  8
90000_FRAME
  6
Continuous
 62
     7
100
AcDbLine
 10
1230.91844433571
 20
212.257037917318
 30
0.0
 11
1230.91844433571
 21
230.257037917318
 31
0.0
  0
LINE
  5
11D
330
1F
100
AcDbEntity
  8
90000_FRAME
  6
Continuous
 62
     7
100
AcDbLine
 10
1273.41844433571
 20
212.257037917318
 30
0.0
 11
1273.41844433571
 21
218.257037917318
 31
0.0
  0
LINE
  5
11E
330
1F
100
AcDbEntity
  8
90000_FRAME
  6
Continuous
 62
     7
100
AcDbLine
 10
1315.91844433571
 20
212.257037917318
 30
0.0
 11
1315.91844433571
 21
230.257037917318
 31
0.0
  0
TEXT
  5
11F
330
1F
100
AcDbEntity
  8
90000_FRAME
  6
Continuous
 62
     7
100
AcDbText
 10
1231.57844433571
 20
214.157037917318
 30
0.0
 40
2.2
  1
Format / Size: DIN A4
 41
0.7994987468660263
 72
     5
 11
1264.99749195471
 21
214.157037917318
 31
0.0
100
AcDbText
  0
TEXT
  5
120
330
1F
100
AcDbEntity
  8
90000_FRAME
  6
Continuous
 62
     7
100
AcDbText
 10
1274.07844433571
 20
214.157037917318
 30
0.0
 40
2.2
  1
Massstab / Scale: 1:1
 41
0.7732634338148433
 72
     5
 11
1304.98320624051
 21
214.157037917318
 31
0.0
100
AcDbText
  0
TEXT
  5
121
330
1F
100
AcDbEntity
  8
90000_FRAME
  6
Continuous
 62
     7
100
AcDbText
 10
1245.237574160445
 20
219.6585883896237
 30
0.0
 40
3.5
  1
Hilfsschalterblock S00 4-pol
 41
0.6476313523457505
 72
     5
 11
1301.149747579628
 21
219.6585883896237
 31
0.0
100
AcDbText
  0
LINE
  5
124
330
1F
100
AcDbEntity
  8
90000_FRAME
  6
Continuous
 62
     7
100
AcDbLine
 10
1055.918444335711
 20
202.257037917318
 30
0.0
 11
1325.918444335711
 21
202.257037917318
 31
0.0
  0
LINE
  5
126
330
1F
100
AcDbEntity
  8
90000_FRAME
  6
Continuous
 62
     7
100
AcDbLine
 10
1325.918444335711
 20
202.257037917318
 30
0.0
 11
1325.918444335711
 21
402.2570379173179
 31
0.0
  0
TEXT
  5
129
330
1F
100
AcDbEntity
  8
91000_TIP
  6
Continuous
 62
     7
100
AcDbText
 10
1059.971794118375
 20
210.9892745389946
 30
0.0
 40
2.5
  1
Alle Bemassungswerte sind in Millimeter (mm) angegeben.
 41
0.6056311217924569
 72
     5
 11
1133.656913936457
 21
210.9892745389946
 31
0.0
100
AcDbText
  0
TEXT
  5
12A
330
1F
100
AcDbEntity
  8
91000_TIP
  6
Continuous
 62
     7
100
AcDbText
 10
1059.971794118375
 20
205.7392745389947
 30
0.0
 40
2.5
  1
All dimensions are in millimeters (mm).
 41
0.7513350295680256
 72
     5
 11
1120.078596483817
 21
205.7392745389947
 31
0.0
100
AcDbText
  0
LINE
  5
2093
330
1F
100
AcDbEntity
  8
91000_TIP
  6
Continuous
 62
     7
100
AcDbLine
 10
1155.733114439736
 20
223.5807754396886
 30
0.0
 11
1165.733114235536
 21
226.0807753886886
 31
0.0
  0
LINE
  5
2094
330
1F
100
AcDbEntity
  8
91000_TIP
  6
CENTER
 62
     7
100
AcDbLine
 10
1154.453603967735
 20
221.0807754907886
 30
0.0
 11
1178.055593231835
 21
221.0807754907886
 31
0.0
  0
LINE
  5
2095
330
1F
100
AcDbEntity
  8
91000_TIP
  6
Continuous
 62
     7
100
AcDbLine
 10
1155.733114439736
 20
218.5807755418886
 30
0.0
 11
1165.733114235536
 21
216.0807755928885
 31
0.0
  0
LINE
  5
2096
330
1F
100
AcDbEntity
  8
91000_TIP
  6
Continuous
 62
     7
100
AcDbLine
 10
1155.733114439736
 20
223.5807754396886
 30
0.0
 11
1155.733114439736
 21
218.5807755418886
 31
0.0
  0
LINE
  5
2097
330
1F
100
AcDbEntity
  8
91000_TIP
  6
Continuous
 62
     7
100
AcDbLine
 10
1165.733114235536
 20
226.0807753886886
 30
0.0
 11
1165.733114235536
 21
216.0807755928885
 31
0.0
  0
LINE
  5
2098
330
1F
100
AcDbEntity
  8
91000_TIP
  6
CENTER
 62
     7
100
AcDbLine
 10
1172.233114102736
 20
215.3592942843886
 30
0.0
 11
1172.233114102736
 21
226.6426802843886
 31
0.0
  0
CIRCLE
  5
2099
330
1F
100
AcDbEntity
  8
91000_TIP
  6
Continuous
 62
     7
100
AcDbCircle
 10
1172.233114102736
 20
221.0807754907886
 30
0.0
 40
4.9999998979
  0
CIRCLE
  5
209A
330
1F
100
AcDbEntity
  8
91000_TIP
  6
Continuous
 62
     7
100
AcDbCircle
 10
1172.233114102736
 20
221.0807754907886
 30
0.0
 40
2.499999948899997
  0
LINE
  5
33C9
330
1F
100
AcDbEntity
  8
90000_FRAME
  6
Continuous
 62
     7
100
AcDbLine
 10
1055.918444335711
 20
202.257037917318
 30
0.0
 11
1055.918444335711
 21
402.2570379173179
 31
0.0
  0
LINE
  5
33CA
330
1F
100
AcDbEntity
  8
90000_FRAME
  6
Continuous
 62
     7
100
AcDbLine
 10
1055.918444335711
 20
402.2570379173179
 30
0.0
 11
1325.918444335711
 21
402.2570379173179
 31
0.0
  0
TEXT
  5
8BAF
330
1F
100
AcDbEntity
  8
90000_FRAME
  6
Continuous
 62
     7
100
AcDbText
 10
1244.730971510053
 20
225.5817993063757
 30
0.0
 40
3.5
  1
3RH1911_00001783_000_ALL
 41
0.754720001158827
 72
     5
 11
1300.643144929236
 21
225.5817993063757
 31
0.0
100
AcDbText
  0
ARC
  5
8DCA
330
1F
100
AcDbEntity
  8
10000_FRONT
  6
Continuous
 62
     7
370
    13
100
AcDbCircle
 10
1167.478746188645
 20
315.9373128738923
 30
0.0
 40
0.5000025697407186
100
AcDbArc
 50
90.00017835549325
 51
180.0
  0
ARC
  5
8DCB
330
1F
100
AcDbEntity
  8
10000_FRONT
  6
Continuous
 62
     7
370
    13
100
AcDbCircle
 10
1167.478746950646
 20
309.9373189668924
 30
0.0
 40
0.5000033317207456
100
AcDbArc
 50
180.0
 51
269.9997343291944
  0
LINE
  5
8DCC
330
1F
100
AcDbEntity
  8
10000_FRONT
  6
Continuous
 62
     7
370
    13
100
AcDbLine
 10
1174.478743916645
 20
309.4373156348922
 30
0.0
 11
1167.478744632145
 21
309.4373156348922
 31
0.0
  0
LINE
  5
8DCD
330
1F
100
AcDbEntity
  8
10000_FRONT
  6
Continuous
 62
     7
370
    13
100
AcDbLine
 10
1174.978744487146
 20
315.9373156443921
 30
0.0
 11
1174.978744487146
 21
309.9373156443923
 31
0.0
  0
LINE
  5
8DCE
330
1F
100
AcDbEntity
  8
10000_FRONT
  6
Continuous
 62
     7
370
    13
100
AcDbLine
 10
1167.478744632145
 20
316.4373154433922
 30
0.0
 11
1174.478743916645
 21
316.4373154433922
 31
0.0
  0
ARC
  5
8DCF
330
1F
100
AcDbEntity
  8
10000_FRONT
  6
Continuous
 62
     7
370
    13
100
AcDbCircle
 10
1146.478435714145
 20
320.9373165963924
 30
0.0
 40
3.250047717123901
100
AcDbArc
 50
278.9049986535999
 51
81.09495979940588
  0
LINE
  5
8DD0
330
1F
100
AcDbEntity
  8
10000_FRONT
  6
Continuous
 62
     7
370
    13
100
AcDbLine
 10
1141.328744435646
 20
297.9373156708923
 30
0.0
 11
1177.328744435646
 21
297.9373156708923
 31
0.0
  0
ARC
  5
8DD2
330
1F
100
AcDbEntity
  8
10000_FRONT
  6
Continuous
 62
     7
370
    13
100
AcDbCircle
 10
1146.466112729146
 20
320.937316600892
 30
0.0
 40
3.251978066356628
100
AcDbArc
 50
80.88046077860228
 51
279.1194976744054
  0
LINE
  5
8DD3
330
1F
100
AcDbEntity
  8
10000_FRONT
  6
Continuous
 62
     7
370
    13
100
AcDbLine
 10
1166.978744487146
 20
309.9373156443923
 30
0.0
 11
1166.978744487146
 21
315.9373156443921
 31
0.0
  0
ARC
  5
8DD4
330
1F
100
AcDbEntity
  8
10000_FRONT
  6
Continuous
 62
     7
370
    13
100
AcDbCircle
 10
1172.266113035146
 20
304.9373164688925
 30
0.0
 40
3.258471943979709
100
AcDbArc
 50
80.35957727150055
 51
279.6404227285953
  0
ARC
  5
8DD5
330
1F
100
AcDbEntity
  8
10000_FRONT
  6
Continuous
 62
     7
370
    13
100
AcDbCircle
 10
1172.318948806646
 20
304.9373164688925
 30
0.0
 40
3.250041293537979
100
AcDbArc
 50
278.7220824470001
 51
81.27791755299991
  0
ARC
  5
8DD6
330
1F
100
AcDbEntity
  8
10000_FRONT
  6
Continuous
 62
     7
370
    13
100
AcDbCircle
 10
1174.478741786646
 20
309.9373187783922
 30
0.0
 40
0.50000314352899
100
AcDbArc
 50
270.0002441059959
 51
0.0
  0
ARC
  5
8DD7
330
1F
100
AcDbEntity
  8
10000_FRONT
  6
Continuous
 62
     7
370
    13
100
AcDbCircle
 10
1172.266113035146
 20
320.9373167128922
 30
0.0
 40
3.251978045943904
100
AcDbArc
 50
80.88045055500131
 51
279.1194829698007
  0
ARC
  5
8DD8
330
1F
100
AcDbEntity
  8
10000_FRONT
  6
Continuous
 62
     7
370
    13
100
AcDbCircle
 10
1172.278435274645
 20
320.9373167058923
 30
0.0
 40
3.250047812687698
100
AcDbArc
 50
278.9049969416019
 51
81.0949365832028
  0
LINE
  5
8DD9
330
1F
100
AcDbEntity
  8
10000_FRONT
  6
Continuous
 62
     7
370
    50
100
AcDbLine
 10
1141.328744435646
 20
327.0076674028921
 30
0.0
 11
1141.328744435646
 21
298.8669638853924
 31
0.0
  0
ARC
  5
8DDA
330
1F
100
AcDbEntity
  8
10000_FRONT
  6
Continuous
 62
     7
370
    13
100
AcDbCircle
 10
1163.666112743146
 20
320.9373167128922
 30
0.0
 40
3.251978045943884
100
AcDbArc
 50
80.88045055500131
 51
279.1194829698007
  0
ARC
  5
8DDB
330
1F
100
AcDbEntity
  8
10000_FRONT
  6
Continuous
 62
     7
370
    13
100
AcDbCircle
 10
1163.678435718145
 20
320.9373167058923
 30
0.0
 40
3.250047698841135
100
AcDbArc
 50
278.9049841323971
 51
81.09494939239848
  0
ARC
  5
8DDC
330
1F
100
AcDbEntity
  8
10000_FRONT
  6
Continuous
 62
     7
370
    13
100
AcDbCircle
 10
1146.518949339146
 20
304.9373165048921
 30
0.0
 40
3.25004104461761
100
AcDbArc
 50
278.7220496904904
 51
81.27794200419732
  0
ARC
  5
8DDD
330
1F
100
AcDbEntity
  8
10000_FRONT
  6
Continuous
 62
     7
370
    13
100
AcDbCircle
 10
1155.066112784645
 20
320.9373166383923
 30
0.0
 40
3.251978066902362
100
AcDbArc
 50
80.88045656400643
 51
279.1194935795931
  0
ARC
  5
8DDE
330
1F
100
AcDbEntity
  8
10000_FRONT
  6
Continuous
 62
     7
370
    13
100
AcDbCircle
 10
1155.078435306146
 20
320.9373166328922
 30
0.0
 40
3.250047789454905
100
AcDbArc
 50
278.9050026371039
 51
81.09494750649831
  0
LINE
  5
8DDF
330
1F
100
AcDbEntity
  8
10000_FRONT
  6
Continuous
 62
     7
370
    50
100
AcDbLine
 10
1177.328744435646
 20
327.9373156443924
 30
0.0
 11
1177.328744435646
 21
298.8669638853924
 31
0.0
  0
ARC
  5
8DE0
330
1F
100
AcDbEntity
  8
10000_FRONT
  6
Continuous
 62
     7
370
    13
100
AcDbCircle
 10
1155.066112632146
 20
304.9373165478921
 30
0.0
 40
3.258471835673493
100
AcDbArc
 50
80.35958017760005
 51
279.6404032117977
  0
ARC
  5
8DE1
330
1F
100
AcDbEntity
  8
10000_FRONT
  6
Continuous
 62
     7
370
    13
100
AcDbCircle
 10
1155.118948340646
 20
304.9373165403924
 30
0.0
 40
3.250041205012946
100
AcDbArc
 50
278.7220639690907
 51
81.27791942029706
  0
ARC
  5
8DE2
330
1F
100
AcDbEntity
  8
10000_FRONT
  6
Continuous
 62
     7
370
    13
100
AcDbCircle
 10
1174.478742021646
 20
315.9373125353923
 30
0.0
 40
0.5000029083382726
100
AcDbArc
 50
0.0
 51
89.99978284469525
  0
ARC
  5
8DE3
330
1F
100
AcDbEntity
  8
10000_FRONT
  6
Continuous
 62
     7
370
    13
100
AcDbCircle
 10
1163.666113105146
 20
304.9373166273924
 30
0.0
 40
3.258471727367457
100
AcDbArc
 50
80.35958308379692
 51
279.6403836950028
  0
ARC
  5
8DE4
330
1F
100
AcDbEntity
  8
10000_FRONT
  6
Continuous
 62
     7
370
    13
100
AcDbCircle
 10
1163.718948750645
 20
304.9373166118924
 30
0.0
 40
3.250041116488131
100
AcDbArc
 50
278.7220454912991
 51
81.27792128749707
  0
ARC
  5
8DE5
330
1F
100
AcDbEntity
  8
10000_FRONT
  6
Continuous
 62
     7
370
    13
100
AcDbCircle
 10
1146.466112765145
 20
304.9373165083923
 30
0.0
 40
3.258471803472281
100
AcDbArc
 50
80.3595876636019
 51
279.640404031107
  0
LINE
  5
8DE7
330
1F
100
AcDbEntity
  8
10000_FRONT
  6
Continuous
 62
     7
370
    50
100
AcDbLine
 10
1141.328744435646
 20
298.8669638853924
 30
0.0
 11
1141.328744435646
 21
297.9373156443923
 31
0.0
  0
LINE
  5
8DE8
330
1F
100
AcDbEntity
  8
10000_FRONT
  6
Continuous
 62
     7
370
    50
100
AcDbLine
 10
1177.328744435646
 20
298.8669638853924
 30
0.0
 11
1177.328744435646
 21
297.9373156443923
 31
0.0
  0
LINE
  5
8DE9
330
1F
100
AcDbEntity
  8
10000_FRONT
  6
Continuous
 62
     7
370
    13
100
AcDbLine
 10
1141.328744435646
 20
327.9373156443924
 30
0.0
 11
1177.328744435646
 21
327.9373156443924
 31
0.0
  0
LINE
  5
8DEA
330
1F
100
AcDbEntity
  8
10000_FRONT
  6
Continuous
 62
     7
370
    50
100
AcDbLine
 10
1141.328744435646
 20
327.9373156443924
 30
0.0
 11
1141.328744435646
 21
327.0076674028921
 31
0.0
  0
LINE
  5
8DEC
330
1F
100
AcDbEntity
  8
10000_FRONT
  6
Continuous
 62
     7
370
    13
100
AcDbLine
 10
1167.778744391645
 20
313.9373155488922
 30
0.0
 11
1167.778744391645
 21
311.9373155488923
 31
0.0
  0
ARC
  5
8DED
330
1F
100
AcDbEntity
  8
10000_FRONT
  6
Continuous
 62
     7
370
    13
100
AcDbCircle
 10
1168.278744391646
 20
311.9373155488923
 30
0.0
 40
0.4999999999992255
100
AcDbArc
 50
180.0
 51
270.0
  0
LINE
  5
8DEE
330
1F
100
AcDbEntity
  8
10000_FRONT
  6
Continuous
 62
     7
370
    13
100
AcDbLine
 10
1168.278744391646
 20
311.4373155488922
 30
0.0
 11
1173.678744344146
 21
311.4373155488922
 31
0.0
  0
ARC
  5
8DEF
330
1F
100
AcDbEntity
  8
10000_FRONT
  6
Continuous
 62
     7
370
    13
100
AcDbCircle
 10
1173.678744344146
 20
311.9373155488923
 30
0.0
 40
0.4999999999993501
100
AcDbArc
 50
270.0
 51
0.0
  0
LINE
  5
8DF0
330
1F
100
AcDbEntity
  8
10000_FRONT
  6
Continuous
 62
     7
370
    13
100
AcDbLine
 10
1174.178744344146
 20
311.9373155488923
 30
0.0
 11
1174.178744344146
 21
313.9373155488922
 31
0.0
  0
ARC
  5
8DF1
330
1F
100
AcDbEntity
  8
10000_FRONT
  6
Continuous
 62
     7
370
    13
100
AcDbCircle
 10
1173.678744344146
 20
313.9373155488922
 30
0.0
 40
0.499999999999634
100
AcDbArc
 50
0.0
 51
90.0
  0
LINE
  5
8DF2
330
1F
100
AcDbEntity
  8
10000_FRONT
  6
Continuous
 62
     7
370
    13
100
AcDbLine
 10
1173.678744344146
 20
314.4373155488922
 30
0.0
 11
1168.278744391646
 21
314.4373155488922
 31
0.0
  0
ARC
  5
8DF3
330
1F
100
AcDbEntity
  8
10000_FRONT
  6
Continuous
 62
     7
370
    13
100
AcDbCircle
 10
1168.278744391646
 20
313.9373155488922
 30
0.0
 40
0.4999999999994031
100
AcDbArc
 50
90.0
 51
180.0
  0
LINE
  5
8DF5
330
1F
100
AcDbEntity
  8
10000_FRONT
  6
Continuous
 62
     7
370
    13
100
AcDbLine
 10
1176.393394118646
 20
331.6823055653923
 30
0.0
 11
1176.392425543146
 21
331.6838534233923
 31
0.0
  0
LINE
  5
8DFF
330
1F
100
AcDbEntity
  8
10000_FRONT
  6
Continuous
 62
     7
370
    50
100
AcDbLine
 10
1142.228744435145
 20
330.1873186188922
 30
0.0
 11
1150.628744435146
 21
330.1873186303922
 31
0.0
  0
LINE
  5
8E00
330
1F
100
AcDbEntity
  8
10000_FRONT
  6
Continuous
 62
     7
370
    50
100
AcDbLine
 10
1150.628744435146
 20
330.1873186303922
 30
0.0
 11
1150.828744435146
 21
330.1873186188922
 31
0.0
  0
LINE
  5
8E01
330
1F
100
AcDbEntity
  8
10000_FRONT
  6
Continuous
 62
     7
370
    50
100
AcDbLine
 10
1150.828744435146
 20
330.1873186188922
 30
0.0
 11
1159.228744435146
 21
330.1873186303922
 31
0.0
  0
LINE
  5
8E02
330
1F
100
AcDbEntity
  8
10000_FRONT
  6
Continuous
 62
     7
370
    50
100
AcDbLine
 10
1159.228744435146
 20
330.1873186303922
 30
0.0
 11
1159.428744435146
 21
330.1873186188922
 31
0.0
  0
LINE
  5
8E03
330
1F
100
AcDbEntity
  8
10000_FRONT
  6
Continuous
 62
     7
370
    50
100
AcDbLine
 10
1159.428744435146
 20
330.1873186188922
 30
0.0
 11
1167.828744435146
 21
330.1873186303922
 31
0.0
  0
LINE
  5
8E04
330
1F
100
AcDbEntity
  8
10000_FRONT
  6
Continuous
 62
     7
370
    50
100
AcDbLine
 10
1167.828744435146
 20
330.1873186303922
 30
0.0
 11
1168.028744435146
 21
330.1873186303922
 31
0.0
  0
LINE
  5
8E05
330
1F
100
AcDbEntity
  8
10000_FRONT
  6
Continuous
 62
     7
370
    50
100
AcDbLine
 10
1176.393528229146
 20
330.1873186288923
 30
0.0
 11
1177.328744435646
 21
330.1873186303922
 31
0.0
  0
LINE
  5
8E06
330
1F
100
AcDbEntity
  8
10000_FRONT
  6
Continuous
 62
     7
370
    50
100
AcDbLine
 10
1141.328744435646
 20
330.1873186303922
 30
0.0
 11
1142.228744435145
 21
330.1873186188922
 31
0.0
  0
LINE
  5
8E07
330
1F
100
AcDbEntity
  8
10000_FRONT
  6
Continuous
 62
     7
370
    50
100
AcDbLine
 10
1168.028744435146
 20
330.1873186303922
 30
0.0
 11
1176.393528229146
 21
330.1873186288923
 31
0.0
  0
LINE
  5
8E08
330
1F
100
AcDbEntity
  8
10000_FRONT
  6
Continuous
 62
     7
370
    50
100
AcDbLine
 10
1141.328744435646
 20
330.1873186303922
 30
0.0
 11
1141.328744435646
 21
327.9373156443924
 31
0.0
  0
LINE
  5
8E09
330
1F
100
AcDbEntity
  8
10000_FRONT
  6
Continuous
 62
     7
370
    50
100
AcDbLine
 10
1177.328744435646
 20
330.1873186303922
 30
0.0
 11
1177.328744435646
 21
327.9373156443924
 31
0.0
  0
LINE
  5
8E0A
330
1F
100
AcDbEntity
  8
10000_FRONT
  6
Continuous
 62
     7
370
    13
100
AcDbLine
 10
1176.393394118646
 20
331.6823055653923
 30
0.0
 11
1177.328744435646
 21
331.6823060673921
 31
0.0
  0
LINE
  5
8E0B
102
{ACAD_REACTORS
330
8F6C
102
}
330
1F
100
AcDbEntity
  8
10000_FRONT
  6
Continuous
 62
     7
370
    13
100
AcDbLine
 10
1177.328744435646
 20
331.6823060673921
 30
0.0
 11
1177.328744435646
 21
330.1873186303922
 31
0.0
  0
LINE
  5
8E0C
330
1F
100
AcDbEntity
  8
10000_FRONT
  6
Continuous
 62
     7
370
    13
100
AcDbLine
 10
1167.828744435146
 20
331.6823060673921
 30
0.0
 11
1168.028744435146
 21
331.6823060673921
 31
0.0
  0
LINE
  5
8E0D
330
1F
100
AcDbEntity
  8
10000_FRONT
  6
Continuous
 62
     7
370
    13
100
AcDbLine
 10
1150.628744435146
 20
331.6823060673921
 30
0.0
 11
1150.828744435146
 21
331.6823060673921
 31
0.0
  0
LINE
  5
8E0E
330
1F
100
AcDbEntity
  8
10000_FRONT
  6
Continuous
 62
     7
370
    13
100
AcDbLine
 10
1159.228744435146
 20
331.6823060673921
 30
0.0
 11
1159.428744435146
 21
331.6823060673921
 31
0.0
  0
LINE
  5
8E0F
330
1F
100
AcDbEntity
  8
10000_FRONT
  6
Continuous
 62
     7
370
    13
100
AcDbLine
 10
1141.328744435646
 20
331.6823060673921
 30
0.0
 11
1142.228744435145
 21
331.6823060673921
 31
0.0
  0
LINE
  5
8E10
330
1F
100
AcDbEntity
  8
10000_FRONT
  6
Continuous
 62
     7
370
    13
100
AcDbLine
 10
1141.328744435646
 20
331.6823060673921
 30
0.0
 11
1141.328744435646
 21
330.1873186303922
 31
0.0
  0
LINE
  5
8E11
330
1F
100
AcDbEntity
  8
10000_FRONT
  6
Continuous
 62
     7
370
    13
100
AcDbLine
 10
1176.228743738147
 20
331.6873179433924
 30
0.0
 11
1177.328743732146
 21
331.6873179433924
 31
0.0
  0
LINE
  5
8E12
330
1F
100
AcDbEntity
  8
10000_FRONT
  6
Continuous
 62
     7
370
    13
100
AcDbLine
 10
1176.392425543146
 20
331.6838534233923
 30
0.0
 11
1176.228743738147
 21
331.6839316543922
 31
0.0
  0
LINE
  5
8E13
330
1F
100
AcDbEntity
  8
10000_FRONT
  6
Continuous
 62
     7
370
    13
100
AcDbLine
 10
1176.228743738147
 20
331.6839316543922
 30
0.0
 11
1176.228743738147
 21
331.6873179433924
 31
0.0
  0
LINE
  5
8E14
330
1F
100
AcDbEntity
  8
10000_FRONT
  6
Continuous
 62
     7
370
    13
100
AcDbLine
 10
1177.328743732146
 20
331.6873179433924
 30
0.0
 11
1177.328744435646
 21
331.6823060673921
 31
0.0
  0
LINE
  5
8E15
330
1F
100
AcDbEntity
  8
10000_FRONT
  6
Continuous
 62
     7
370
    13
100
AcDbLine
 10
1141.328744434146
 20
331.6873179433924
 30
0.0
 11
1142.428744461146
 21
331.6873179433924
 31
0.0
  0
LINE
  5
8E16
330
1F
100
AcDbEntity
  8
10000_FRONT
  6
Continuous
 62
     7
370
    13
100
AcDbLine
 10
1142.428744461146
 20
331.6873179433924
 30
0.0
 11
1142.428744461146
 21
331.6839316543922
 31
0.0
  0
LINE
  5
8E17
330
1F
100
AcDbEntity
  8
10000_FRONT
  6
Continuous
 62
     7
370
    13
100
AcDbLine
 10
1142.428744461146
 20
331.6839316543922
 30
0.0
 11
1142.228744435145
 21
331.6823060673921
 31
0.0
  0
LINE
  5
8E18
330
1F
100
AcDbEntity
  8
10000_FRONT
  6
Continuous
 62
     7
370
    13
100
AcDbLine
 10
1141.328744434146
 20
331.6873179433924
 30
0.0
 11
1141.328744435646
 21
331.6823060673921
 31
0.0
  0
LINE
  5
8E19
330
1F
100
AcDbEntity
  8
10000_FRONT
  6
Continuous
 62
     7
370
    13
100
AcDbLine
 10
1159.228744435146
 20
331.6823060673921
 30
0.0
 11
1159.028745016645
 21
331.6839316543922
 31
0.0
  0
LINE
  5
8E1A
330
1F
100
AcDbEntity
  8
10000_FRONT
  6
Continuous
 62
     7
370
    13
100
AcDbLine
 10
1159.028745016645
 20
331.6839316543922
 30
0.0
 11
1159.028745016645
 21
331.6857980248922
 31
0.0
  0
LINE
  5
8E1B
330
1F
100
AcDbEntity
  8
10000_FRONT
  6
Continuous
 62
     7
370
    13
100
AcDbLine
 10
1159.028745016645
 20
331.6857980248922
 30
0.0
 11
1159.628743997146
 21
331.6857980248922
 31
0.0
  0
LINE
  5
8E1C
330
1F
100
AcDbEntity
  8
10000_FRONT
  6
Continuous
 62
     7
370
    13
100
AcDbLine
 10
1159.628743997146
 20
331.6857980248922
 30
0.0
 11
1159.628743997146
 21
331.6839316543922
 31
0.0
  0
LINE
  5
8E1D
330
1F
100
AcDbEntity
  8
10000_FRONT
  6
Continuous
 62
     7
370
    13
100
AcDbLine
 10
1159.628743997146
 20
331.6839316543922
 30
0.0
 11
1159.428744435146
 21
331.6823060673921
 31
0.0
  0
LINE
  5
8E1E
330
1F
100
AcDbEntity
  8
10000_FRONT
  6
Continuous
 62
     7
370
    13
100
AcDbLine
 10
1150.628744435146
 20
331.6823060673921
 30
0.0
 11
1150.428744724646
 21
331.6839316543922
 31
0.0
  0
LINE
  5
8E1F
330
1F
100
AcDbEntity
  8
10000_FRONT
  6
Continuous
 62
     7
370
    13
100
AcDbLine
 10
1150.428744724646
 20
331.6839316543922
 30
0.0
 11
1150.428744724646
 21
331.6857980248922
 31
0.0
  0
LINE
  5
8E20
330
1F
100
AcDbEntity
  8
10000_FRONT
  6
Continuous
 62
     7
370
    13
100
AcDbLine
 10
1150.428744724646
 20
331.6857980248922
 30
0.0
 11
1151.028744636645
 21
331.6857980248922
 31
0.0
  0
LINE
  5
8E21
330
1F
100
AcDbEntity
  8
10000_FRONT
  6
Continuous
 62
     7
370
    13
100
AcDbLine
 10
1151.028744636645
 20
331.6857980248922
 30
0.0
 11
1151.028744636645
 21
331.6839316543922
 31
0.0
  0
LINE
  5
8E22
330
1F
100
AcDbEntity
  8
10000_FRONT
  6
Continuous
 62
     7
370
    13
100
AcDbLine
 10
1151.028744636645
 20
331.6839316543922
 30
0.0
 11
1150.828744435146
 21
331.6823060673921
 31
0.0
  0
LINE
  5
8E23
330
1F
100
AcDbEntity
  8
10000_FRONT
  6
Continuous
 62
     7
370
    13
100
AcDbLine
 10
1167.828744435146
 20
331.6823060673921
 30
0.0
 11
1167.628745308646
 21
331.6839316543922
 31
0.0
  0
LINE
  5
8E24
330
1F
100
AcDbEntity
  8
10000_FRONT
  6
Continuous
 62
     7
370
    13
100
AcDbLine
 10
1167.628745308646
 20
331.6839316543922
 30
0.0
 11
1167.628745308646
 21
331.6857980248922
 31
0.0
  0
LINE
  5
8E25
330
1F
100
AcDbEntity
  8
10000_FRONT
  6
Continuous
 62
     7
370
    13
100
AcDbLine
 10
1167.628745308646
 20
331.6857980248922
 30
0.0
 11
1168.228744289646
 21
331.6857980248922
 31
0.0
  0
LINE
  5
8E26
330
1F
100
AcDbEntity
  8
10000_FRONT
  6
Continuous
 62
     7
370
    13
100
AcDbLine
 10
1168.228744289646
 20
331.6857980248922
 30
0.0
 11
1168.228744289646
 21
331.6839316543922
 31
0.0
  0
LINE
  5
8E27
330
1F
100
AcDbEntity
  8
10000_FRONT
  6
Continuous
 62
     7
370
    13
100
AcDbLine
 10
1168.228744289646
 20
331.6839316543922
 30
0.0
 11
1168.028744435146
 21
331.6823060673921
 31
0.0
  0
LINE
  5
8E40
330
1F
100
AcDbEntity
  8
10000_FRONT
  6
Continuous
 62
     7
370
    13
100
AcDbLine
 10
1176.228743738147
 20
330.1873186288923
 30
0.0
 11
1176.228743738147
 21
331.6839316543922
 31
0.0
  0
LINE
  5
8E48
330
1F
100
AcDbEntity
  8
10000_FRONT
  6
Continuous
 62
     7
370
    13
100
AcDbLine
 10
1168.228744289646
 20
330.1873186288923
 30
0.0
 11
1168.228744289646
 21
331.6839316543922
 31
0.0
  0
LINE
  5
8E49
330
1F
100
AcDbEntity
  8
10000_FRONT
  6
Continuous
 62
     7
370
    13
100
AcDbLine
 10
1151.028744636645
 20
330.1873186288923
 30
0.0
 11
1151.028744636645
 21
331.6839316543922
 31
0.0
  0
LINE
  5
8E4A
330
1F
100
AcDbEntity
  8
10000_FRONT
  6
Continuous
 62
     7
370
    13
100
AcDbLine
 10
1142.428744461146
 20
330.1873186288923
 30
0.0
 11
1142.428744461146
 21
331.6839316543922
 31
0.0
  0
LINE
  5
8E4B
330
1F
100
AcDbEntity
  8
10000_FRONT
  6
Continuous
 62
     7
370
    13
100
AcDbLine
 10
1159.028745016645
 20
330.1873186288923
 30
0.0
 11
1159.028745016645
 21
331.6839316543922
 31
0.0
  0
LINE
  5
8E4C
330
1F
100
AcDbEntity
  8
10000_FRONT
  6
Continuous
 62
     7
370
    13
100
AcDbLine
 10
1159.628743997146
 20
330.1873186288923
 30
0.0
 11
1159.628743997146
 21
331.6839316543922
 31
0.0
  0
LINE
  5
8E4D
330
1F
100
AcDbEntity
  8
10000_FRONT
  6
Continuous
 62
     7
370
    13
100
AcDbLine
 10
1150.428744724646
 20
330.1873186288923
 30
0.0
 11
1150.428744724646
 21
331.6839316543922
 31
0.0
  0
LINE
  5
8E4E
330
1F
100
AcDbEntity
  8
10000_FRONT
  6
Continuous
 62
     7
370
    13
100
AcDbLine
 10
1167.628745308646
 20
330.1873186288923
 30
0.0
 11
1167.628745308646
 21
331.6839316543922
 31
0.0
  0
LINE
  5
8E4F
330
1F
100
AcDbEntity
  8
10000_FRONT
  6
Continuous
 62
     7
370
    13
100
AcDbLine
 10
1143.836479627146
 20
316.4873130303922
 30
0.0
 11
1143.836479627146
 21
309.3873131003923
 31
0.0
  0
LINE
  5
8E50
330
1F
100
AcDbEntity
  8
10000_FRONT
  6
Continuous
 62
     7
370
    13
100
AcDbLine
 10
1164.036477676146
 20
316.4873130303922
 30
0.0
 11
1143.836479627146
 21
316.4873130303922
 31
0.0
  0
LINE
  5
8E51
330
1F
100
AcDbEntity
  8
10000_FRONT
  6
Continuous
 62
     7
370
    13
100
AcDbLine
 10
1164.036477676146
 20
309.3873131003923
 30
0.0
 11
1164.036477676146
 21
316.4873130303922
 31
0.0
  0
LINE
  5
8E52
330
1F
100
AcDbEntity
  8
10000_FRONT
  6
Continuous
 62
     7
370
    13
100
AcDbLine
 10
1143.836479627146
 20
309.3873131003923
 30
0.0
 11
1164.036477676146
 21
309.3873131003923
 31
0.0
  0
LINE
  5
8E53
330
1F
100
AcDbEntity
  8
11000_Left
  6
Continuous
 62
     7
370
    50
100
AcDbLine
 10
1207.786048424646
 20
326.4301398453924
 30
0.0
 11
1207.786048049647
 21
330.1873186303922
 31
0.0
  0
ARC
  5
8E54
330
1F
100
AcDbEntity
  8
11000_Left
  6
Continuous
 62
     7
370
    50
100
AcDbCircle
 10
1209.286048049646
 20
330.1873186303922
 30
0.0
 40
1.500000000025458
100
AcDbArc
 50
90.0
 51
180.0
  0
LINE
  5
8E55
102
{ACAD_REACTORS
330
8F72
102
}
330
1F
100
AcDbEntity
  8
11000_Left
  6
Continuous
 62
     7
370
    50
100
AcDbLine
 10
1209.286048049646
 20
331.6873186303922
 30
0.0
 11
1241.908573813146
 21
331.6823060673921
 31
0.0
  0
ARC
  5
8E56
330
1F
100
AcDbEntity
  8
11000_Left
  6
Continuous
 62
     7
370
    50
100
AcDbCircle
 10
1241.786048049646
 20
330.1873186303922
 30
0.0
 40
1.49999999999867
100
AcDbArc
 50
0.0
 51
85.31464037530261
  0
LINE
  5
8E57
330
1F
100
AcDbEntity
  8
11000_Left
  6
Continuous
 62
     7
370
    50
100
AcDbLine
 10
1243.286048049646
 20
330.1873186303922
 30
0.0
 11
1243.286045861646
 21
327.9373159313923
 31
0.0
  0
LINE
  5
8E58
330
1F
100
AcDbEntity
  8
11000_Left
  6
Continuous
 62
     7
370
    50
100
AcDbLine
 10
1243.286045861646
 20
327.9373159313923
 30
0.0
 11
1244.356268129146
 21
327.9373156443924
 31
0.0
  0
ARC
  5
8E59
330
1F
100
AcDbEntity
  8
11000_Left
  6
Continuous
 62
     7
370
    50
100
AcDbCircle
 10
1244.356268129146
 20
326.9373156443921
 30
0.0
 40
0.9999999999977402
100
AcDbArc
 50
4.034191323099647
 51
90.0
  0
ARC
  5
8E5A
102
{ACAD_REACTORS
330
8F75
102
}
330
1F
100
AcDbEntity
  8
11000_Left
  6
Continuous
 62
     7
370
    50
100
AcDbCircle
 10
1045.84562097647
 20
312.9375288579865
 30
0.0
 40
200.0037261034159
100
AcDbArc
 50
355.965822727424
 51
358.9829036342572
  0
ARC
  5
8E5B
330
1F
100
AcDbEntity
  8
11000_Left
  6
Continuous
 62
     7
370
    13
100
AcDbCircle
 10
1045.849341297026
 20
312.9373156443924
 30
0.0
 40
200.0000000009457
100
AcDbArc
 50
358.9829457871995
 51
1.017052735373783
  0
ARC
  5
8E5C
330
1F
100
AcDbEntity
  8
11000_Left
  6
Continuous
 62
     7
370
    50
100
AcDbCircle
 10
1045.849341297146
 20
312.9373156443924
 30
0.0
 40
200.0000000008251
100
AcDbArc
 50
1.017052735378872
 51
4.034191322997664
  0
ARC
  5
8E5D
102
{ACAD_REACTORS
330
8F75
102
}
330
1F
100
AcDbEntity
  8
11000_Left
  6
Continuous
 62
     7
370
    50
100
AcDbCircle
 10
1244.356268129146
 20
298.9373156443924
 30
0.0
 40
1.000000000006262
100
AcDbArc
 50
270.0
 51
355.965808676798
  0
LINE
  5
8E5E
330
1F
100
AcDbEntity
  8
11000_Left
  6
Continuous
 62
     7
370
    50
100
AcDbLine
 10
1244.356268129146
 20
297.9373156443923
 30
0.0
 11
1243.286045861646
 21
297.9373156708923
 31
0.0
  0
LINE
  5
8E5F
330
1F
100
AcDbEntity
  8
11000_Left
  6
Continuous
 62
     7
370
    50
100
AcDbLine
 10
1243.286045861646
 20
297.9373156708923
 30
0.0
 11
1243.286048049646
 21
295.6873186303921
 31
0.0
  0
ARC
  5
8E60
330
1F
100
AcDbEntity
  8
11000_Left
  6
Continuous
 62
     7
370
    50
100
AcDbCircle
 10
1241.786048049646
 20
295.6873186303921
 30
0.0
 40
1.500000000000771
100
AcDbArc
 50
274.6829129150937
 51
0.0
  0
LINE
  5
8E61
330
1F
100
AcDbEntity
  8
11000_Left
  6
Continuous
 62
     7
370
    50
100
AcDbLine
 10
1241.908509972646
 20
294.1923259623923
 30
0.0
 11
1209.286048049646
 21
294.1873186303922
 31
0.0
  0
ARC
  5
8E62
102
{ACAD_REACTORS
330
8F72
330
8F75
102
}
330
1F
100
AcDbEntity
  8
11000_Left
  6
Continuous
 62
     7
370
    50
100
AcDbCircle
 10
1209.286048049646
 20
295.6873186303921
 30
0.0
 40
1.500000000020501
100
AcDbArc
 50
180.0
 51
270.0000000023026
  0
LINE
  5
8E63
330
1F
100
AcDbEntity
  8
11000_Left
  6
Continuous
 62
     7
370
    50
100
AcDbLine
 10
1207.786048049647
 20
295.6873186303921
 30
0.0
 11
1207.786048424646
 21
299.4444982763923
 31
0.0
  0
LINE
  5
8E64
330
1F
100
AcDbEntity
  8
11000_Left
  6
Continuous
 62
     7
370
    50
100
AcDbLine
 10
1207.786048424646
 20
299.4444982763923
 30
0.0
 11
1208.186047745146
 21
300.9373189563921
 31
0.0
  0
LINE
  5
8E65
330
1F
100
AcDbEntity
  8
11000_Left
  6
Continuous
 62
     7
370
    50
100
AcDbLine
 10
1208.186047745146
 20
300.9373189563921
 30
0.0
 11
1208.186047745146
 21
324.9373182338922
 31
0.0
  0
LINE
  5
8E66
330
1F
100
AcDbEntity
  8
11000_Left
  6
Continuous
 62
     7
370
    50
100
AcDbLine
 10
1208.186047745146
 20
324.9373182338922
 30
0.0
 11
1207.786048424646
 21
326.4301398453924
 31
0.0
  0
LINE
  5
8E67
330
1F
100
AcDbEntity
  8
11000_Left
  6
Continuous
 62
     7
370
    50
100
AcDbLine
 10
1245.817835104646
 20
309.3873131003923
 30
0.0
 11
1245.886045170146
 21
309.3873131003923
 31
0.0
  0
LINE
  5
8E68
330
1F
100
AcDbEntity
  8
11000_Left
  6
Continuous
 62
     7
370
    50
100
AcDbLine
 10
1245.886045170146
 20
316.4873130303922
 30
0.0
 11
1245.886045170146
 21
309.3873131003923
 31
0.0
  0
LINE
  5
8E69
330
1F
100
AcDbEntity
  8
11000_Left
  6
Continuous
 62
     7
370
    50
100
AcDbLine
 10
1245.817835104646
 20
316.4873130303922
 30
0.0
 11
1245.886045170146
 21
316.4873130303922
 31
0.0
  0
LINE
  5
8F4B
330
1F
100
AcDbEntity
  8
10000_FRONT
  6
Continuous
 62
     7
370
    13
100
AcDbLine
 10
1172.828801046282
 20
304.2734042120094
 30
0.0
 11
1172.828801046282
 21
302.9959087388863
 31
0.0
  0
LINE
  5
8F4C
330
1F
100
AcDbEntity
  8
10000_FRONT
  6
Continuous
 62
     7
370
    13
100
AcDbLine
 10
1172.828801046282
 20
306.8787241988982
 30
0.0
 11
1172.828801046282
 21
305.6012287257754
 31
0.0
  0
LINE
  5
8F4E
330
1F
100
AcDbEntity
  8
10000_FRONT
  6
Continuous
 62
     7
370
    13
100
AcDbLine
 10
1171.703424030737
 20
302.9959087388863
 30
0.0
 11
1171.703424030737
 21
304.2734042120094
 31
0.0
  0
LINE
  5
8F51
330
1F
100
AcDbEntity
  8
10000_FRONT
  6
Continuous
 62
     7
370
    13
100
AcDbLine
 10
1171.703424030737
 20
305.6012287257754
 30
0.0
 11
1171.703424030737
 21
306.8787241988982
 31
0.0
  0
ARC
  5
8F52
330
1F
100
AcDbEntity
  8
10000_FRONT
  6
Continuous
 62
     7
370
    13
100
AcDbCircle
 10
1172.266113035146
 20
304.9373164688925
 30
0.0
 40
2.021306447774523
100
AcDbArc
 50
253.8365500000004
 51
286.1634499999995
  0
ARC
  5
8F53
330
1F
100
AcDbEntity
  8
10000_FRONT
  6
Continuous
 62
     7
370
    13
100
AcDbCircle
 10
1172.266113035146
 20
304.9373164688925
 30
0.0
 40
2.021306447774523
100
AcDbArc
 50
73.83655500000443
 51
106.1634499999995
  0
ARC
  5
8F5C
330
1F
100
AcDbEntity
  8
10000_FRONT
  6
Continuous
 62
     7
370
    13
100
AcDbCircle
 10
1170.799474816464
 20
304.9404549263959
 30
0.0
 40
1.654770779026445
100
AcDbArc
 50
156.4646747449891
 51
203.7725952672219
  0
LINE
  5
8F5E
330
1F
100
AcDbEntity
  8
10000_FRONT
  6
Continuous
 62
     7
370
    13
100
AcDbLine
 10
1172.828801046282
 20
305.6012287257754
 30
0.0
 11
1175.249868361098
 21
305.6012287257754
 31
0.0
  0
LINE
  5
8F5F
330
1F
100
AcDbEntity
  8
10000_FRONT
  6
Continuous
 62
     7
370
    13
100
AcDbLine
 10
1169.282357709193
 20
305.6012287257752
 30
0.0
 11
1171.703424030737
 21
305.6012287257754
 31
0.0
  0
LINE
  5
8F60
330
1F
100
AcDbEntity
  8
10000_FRONT
  6
Continuous
 62
     7
370
    13
100
AcDbLine
 10
1175.24711900162
 20
304.2734042120094
 30
0.0
 11
1172.828801046282
 21
304.2734042120094
 31
0.0
  0
LINE
  5
8F61
330
1F
100
AcDbEntity
  8
10000_FRONT
  6
Continuous
 62
     7
370
    13
100
AcDbLine
 10
1171.703424030737
 20
304.2734042120094
 30
0.0
 11
1169.285107068671
 21
304.2734042120096
 31
0.0
  0
DIMENSION
  5
8F6A
102
{ACAD_XDICTIONARY
360
8F6B
102
}
102
{ACAD_REACTORS
330
8F6C
102
}
330
1F
100
AcDbEntity
  8
10100_FRONT_DIM
  6
Continuous
 62
     7
370
    13
100
AcDbDimension
  2
*D2
 10
1182.328744435646
 20
330.1873186303922
 30
0.0
 11
1182.328744435646
 21
314.0623171373925
 31
0.0
 70
    32
 71
     5
 42
32.2500029859998
  3
DSTYLE1
100
AcDbAlignedDimension
 13
1177.328744435646
 23
297.9373156443923
 33
0.0
 14
1177.328744435646
 24
330.1873186303922
 34
0.0
 50
90.0
100
AcDbRotatedDimension
1001
ACAD
1000
DSTYLE
1002
{
1070
    41
1040
2.0
1070
    42
1040
1.0
1070
    43
1040
1.0
1070
    47
1040
0.005
1070
    48
1040
-0.005
1070
    77
1070
     0
1070
    78
1070
     0
1070
   140
1040
3.5
1070
   143
1040
25.4
1070
   171
1070
     0
1070
   172
1070
     1
1070
   271
1070
     0
1070
   272
1070
     1
1070
   277
1070
     6
1070
   279
1070
     0
1002
}
  0
DIMENSION
  5
8F6D
330
1F
100
AcDbEntity
  8
10100_FRONT_DIM
  6
Continuous
 62
     7
370
    13
100
AcDbDimension
  2
*D3
 10
1177.328744435646
 20
289.1888382343925
 30
0.0
 11
1159.328744435646
 21
289.1888382343925
 31
0.0
 70
    32
 71
     5
 42
36.0
  3
DSTYLE1
100
AcDbAlignedDimension
 13
1141.328744435646
 23
297.9373156443923
 33
0.0
 14
1177.328744435646
 24
297.9373156443923
 34
0.0
100
AcDbRotatedDimension
1001
ACAD
1000
DSTYLE
1002
{
1070
    41
1040
2.0
1070
    42
1040
1.0
1070
    43
1040
1.0
1070
    47
1040
0.005
1070
    48
1040
-0.005
1070
    77
1070
     0
1070
    78
1070
     0
1070
   140
1040
3.5
1070
   143
1040
25.4
1070
   171
1070
     0
1070
   172
1070
     1
1070
   271
1070
     0
1070
   272
1070
     1
1070
   277
1070
     6
1070
   279
1070
     0
1002
}
  0
DIMENSION
  5
8F70
102
{ACAD_XDICTIONARY
360
8F71
102
}
102
{ACAD_REACTORS
330
8F72
102
}
330
1F
100
AcDbEntity
  8
11100_LEFT_DIM
  6
Continuous
 62
     7
370
    13
100
AcDbDimension
  2
*D4
 10
1202.786048049647
 20
294.1873186303717
 30
0.0
 11
1202.786048049647
 21
312.9373186303821
 31
0.0
 70
    32
 71
     5
 42
37.50000000002046
  3
DSTYLE1
100
AcDbAlignedDimension
 13
1209.286048049646
 23
331.6873186303922
 33
0.0
 14
1209.286048049707
 24
294.1873186303717
 34
0.0
 50
90.0
100
AcDbRotatedDimension
1001
ACAD
1000
DSTYLE
1002
{
1070
    41
1040
2.0
1070
    42
1040
1.0
1070
    43
1040
1.0
1070
    47
1040
0.005
1070
    48
1040
-0.005
1070
    77
1070
     0
1070
    78
1070
     0
1070
   140
1040
3.5
1070
   143
1040
25.4
1070
   171
1070
     0
1070
   172
1070
     1
1070
   271
1070
     0
1070
   272
1070
     1
1070
   277
1070
     6
1070
   279
1070
     0
1002
}
  0
DIMENSION
  5
8F73
102
{ACAD_XDICTIONARY
360
8F74
102
}
102
{ACAD_REACTORS
330
8F75
102
}
330
1F
100
AcDbEntity
  8
11100_LEFT_DIM
  6
Continuous
 62
     7
370
    13
100
AcDbDimension
  2
*D5
 10
1245.353790391976
 20
289.1873186892929
 30
0.0
 11
1226.569919220801
 21
289.1873186892929
 31
0.0
 70
    32
 71
     5
 42
37.56774234235036
  3
DSTYLE1
100
AcDbAlignedDimension
 13
1207.786048049625
 23
295.6873186303921
 33
0.0
 14
1245.353790391976
 24
298.8669641314368
 34
0.0
100
AcDbRotatedDimension
1001
ACAD
1000
DSTYLE
1002
{
1070
    41
1040
2.0
1070
    42
1040
1.0
1070
    43
1040
1.0
1070
    47
1040
0.005
1070
    48
1040
-0.005
1070
    77
1070
     0
1070
    78
1070
     0
1070
   140
1040
3.5
1070
   143
1040
25.4
1070
   171
1070
     0
1070
   172
1070
     1
1070
   271
1070
     0
1070
   272
1070
     1
1070
   277
1070
     6
1070
   279
1070
     0
1002
}
  0
ARC
  5
9027
330
1F
100
AcDbEntity
  8
10000_FRONT
  6
Continuous
 62
     7
370
    13
100
AcDbCircle
 10
1173.732751253827
 20
304.9404549263959
 30
0.0
 40
1.654770779026445
100
AcDbArc
 50
336.2274047327745
 51
23.53532525501212
  0
LINE
  5
9040
330
1F
100
AcDbEntity
  8
10000_FRONT
  6
Continuous
 62
     7
370
    13
100
AcDbLine
 10
1147.028801578783
 20
304.273404248009
 30
0.0
 11
1147.028801578783
 21
302.995908774886
 31
0.0
  0
LINE
  5
9041
330
1F
100
AcDbEntity
  8
10000_FRONT
  6
Continuous
 62
     7
370
    13
100
AcDbLine
 10
1147.028801578783
 20
306.8787242348979
 30
0.0
 11
1147.028801578783
 21
305.601228761775
 31
0.0
  0
LINE
  5
9042
330
1F
100
AcDbEntity
  8
10000_FRONT
  6
Continuous
 62
     7
370
    13
100
AcDbLine
 10
1145.903424563238
 20
302.995908774886
 30
0.0
 11
1145.903424563238
 21
304.273404248009
 31
0.0
  0
LINE
  5
9043
330
1F
100
AcDbEntity
  8
10000_FRONT
  6
Continuous
 62
     7
370
    13
100
AcDbLine
 10
1145.903424563238
 20
305.601228761775
 30
0.0
 11
1145.903424563238
 21
306.8787242348979
 31
0.0
  0
ARC
  5
9044
330
1F
100
AcDbEntity
  8
10000_FRONT
  6
Continuous
 62
     7
370
    13
100
AcDbCircle
 10
1146.466113567646
 20
304.9373165048921
 30
0.0
 40
2.021306447774523
100
AcDbArc
 50
253.8365499999989
 51
286.1634499999995
  0
ARC
  5
9045
330
1F
100
AcDbEntity
  8
10000_FRONT
  6
Continuous
 62
     7
370
    13
100
AcDbCircle
 10
1146.466113567646
 20
304.9373165048921
 30
0.0
 40
2.021306447774523
100
AcDbArc
 50
73.83655500000443
 51
106.1634499999995
  0
ARC
  5
9046
330
1F
100
AcDbEntity
  8
10000_FRONT
  6
Continuous
 62
     7
370
    13
100
AcDbCircle
 10
1144.999475348965
 20
304.9404549623955
 30
0.0
 40
1.654770779026445
100
AcDbArc
 50
156.4646747449891
 51
203.7725952672219
  0
LINE
  5
9047
330
1F
100
AcDbEntity
  8
10000_FRONT
  6
Continuous
 62
     7
370
    13
100
AcDbLine
 10
1147.028801578783
 20
305.601228761775
 30
0.0
 11
1149.449868893599
 21
305.601228761775
 31
0.0
  0
LINE
  5
9048
330
1F
100
AcDbEntity
  8
10000_FRONT
  6
Continuous
 62
     7
370
    13
100
AcDbLine
 10
1143.482358241694
 20
305.6012287617749
 30
0.0
 11
1145.903424563238
 21
305.601228761775
 31
0.0
  0
LINE
  5
9049
330
1F
100
AcDbEntity
  8
10000_FRONT
  6
Continuous
 62
     7
370
    13
100
AcDbLine
 10
1149.447119534121
 20
304.273404248009
 30
0.0
 11
1147.028801578783
 21
304.273404248009
 31
0.0
  0
LINE
  5
904A
330
1F
100
AcDbEntity
  8
10000_FRONT
  6
Continuous
 62
     7
370
    13
100
AcDbLine
 10
1145.903424563238
 20
304.273404248009
 30
0.0
 11
1143.485107601171
 21
304.2734042480092
 31
0.0
  0
ARC
  5
904B
330
1F
100
AcDbEntity
  8
10000_FRONT
  6
Continuous
 62
     7
370
    13
100
AcDbCircle
 10
1147.932751786328
 20
304.9404549623955
 30
0.0
 40
1.654770779026445
100
AcDbArc
 50
336.2274047327743
 51
23.53532525501212
  0
LINE
  5
907C
330
1F
100
AcDbEntity
  8
10000_FRONT
  6
Continuous
 62
     7
370
    13
100
AcDbLine
 10
1172.788287514282
 20
320.2734044490092
 30
0.0
 11
1172.788287514282
 21
318.9959089758861
 31
0.0
  0
LINE
  5
907D
330
1F
100
AcDbEntity
  8
10000_FRONT
  6
Continuous
 62
     7
370
    13
100
AcDbLine
 10
1172.788287514282
 20
322.878724435898
 30
0.0
 11
1172.788287514282
 21
321.6012289627752
 31
0.0
  0
LINE
  5
907E
330
1F
100
AcDbEntity
  8
10000_FRONT
  6
Continuous
 62
     7
370
    13
100
AcDbLine
 10
1171.662910498736
 20
318.9959089758861
 30
0.0
 11
1171.662910498736
 21
320.2734044490092
 31
0.0
  0
LINE
  5
907F
330
1F
100
AcDbEntity
  8
10000_FRONT
  6
Continuous
 62
     7
370
    13
100
AcDbLine
 10
1171.662910498736
 20
321.6012289627752
 30
0.0
 11
1171.662910498736
 21
322.878724435898
 31
0.0
  0
ARC
  5
9080
330
1F
100
AcDbEntity
  8
10000_FRONT
  6
Continuous
 62
     7
370
    13
100
AcDbCircle
 10
1172.225599503145
 20
320.9373167058923
 30
0.0
 40
2.021306447774523
100
AcDbArc
 50
253.8365500000004
 51
286.1634499999995
  0
ARC
  5
9081
330
1F
100
AcDbEntity
  8
10000_FRONT
  6
Continuous
 62
     7
370
    13
100
AcDbCircle
 10
1172.225599503145
 20
320.9373167058923
 30
0.0
 40
2.021306447774523
100
AcDbArc
 50
73.83655500000443
 51
106.1634499999995
  0
ARC
  5
9082
330
1F
100
AcDbEntity
  8
10000_FRONT
  6
Continuous
 62
     7
370
    13
100
AcDbCircle
 10
1170.758961284463
 20
320.9404551633956
 30
0.0
 40
1.654770779026445
100
AcDbArc
 50
156.4646747449891
 51
203.7725952672219
  0
LINE
  5
9083
330
1F
100
AcDbEntity
  8
10000_FRONT
  6
Continuous
 62
     7
370
    13
100
AcDbLine
 10
1172.788287514282
 20
321.6012289627752
 30
0.0
 11
1175.209354829097
 21
321.6012289627752
 31
0.0
  0
LINE
  5
9084
330
1F
100
AcDbEntity
  8
10000_FRONT
  6
Continuous
 62
     7
370
    13
100
AcDbLine
 10
1169.241844177193
 20
321.601228962775
 30
0.0
 11
1171.662910498736
 21
321.6012289627752
 31
0.0
  0
LINE
  5
9085
330
1F
100
AcDbEntity
  8
10000_FRONT
  6
Continuous
 62
     7
370
    13
100
AcDbLine
 10
1175.206605469619
 20
320.2734044490092
 30
0.0
 11
1172.788287514282
 21
320.2734044490092
 31
0.0
  0
LINE
  5
9086
330
1F
100
AcDbEntity
  8
10000_FRONT
  6
Continuous
 62
     7
370
    13
100
AcDbLine
 10
1171.662910498736
 20
320.2734044490092
 30
0.0
 11
1169.24459353667
 21
320.2734044490094
 31
0.0
  0
ARC
  5
9087
330
1F
100
AcDbEntity
  8
10000_FRONT
  6
Continuous
 62
     7
370
    13
100
AcDbCircle
 10
1173.692237721826
 20
320.9404551633956
 30
0.0
 40
1.654770779026445
100
AcDbArc
 50
336.2274047327745
 51
23.53532525501212
  0
LINE
  5
90A0
330
1F
100
AcDbEntity
  8
10000_FRONT
  6
Continuous
 62
     7
370
    13
100
AcDbLine
 10
1146.988288046782
 20
320.2734044850088
 30
0.0
 11
1146.988288046782
 21
318.9959090118857
 31
0.0
  0
LINE
  5
90A1
330
1F
100
AcDbEntity
  8
10000_FRONT
  6
Continuous
 62
     7
370
    13
100
AcDbLine
 10
1146.988288046782
 20
322.8787244718976
 30
0.0
 11
1146.988288046782
 21
321.6012289987748
 31
0.0
  0
LINE
  5
90A2
330
1F
100
AcDbEntity
  8
10000_FRONT
  6
Continuous
 62
     7
370
    13
100
AcDbLine
 10
1145.862911031237
 20
318.9959090118857
 30
0.0
 11
1145.862911031237
 21
320.2734044850088
 31
0.0
  0
LINE
  5
90A3
330
1F
100
AcDbEntity
  8
10000_FRONT
  6
Continuous
 62
     7
370
    13
100
AcDbLine
 10
1145.862911031237
 20
321.6012289987748
 30
0.0
 11
1145.862911031237
 21
322.8787244718976
 31
0.0
  0
ARC
  5
90A4
330
1F
100
AcDbEntity
  8
10000_FRONT
  6
Continuous
 62
     7
370
    13
100
AcDbCircle
 10
1146.425600035646
 20
320.9373167418918
 30
0.0
 40
2.021306447774523
100
AcDbArc
 50
253.8365499999989
 51
286.1634499999995
  0
ARC
  5
90A5
330
1F
100
AcDbEntity
  8
10000_FRONT
  6
Continuous
 62
     7
370
    13
100
AcDbCircle
 10
1146.425600035646
 20
320.9373167418918
 30
0.0
 40
2.021306447774523
100
AcDbArc
 50
73.83655500000443
 51
106.1634499999995
  0
ARC
  5
90A6
330
1F
100
AcDbEntity
  8
10000_FRONT
  6
Continuous
 62
     7
370
    13
100
AcDbCircle
 10
1144.958961816964
 20
320.9404551993953
 30
0.0
 40
1.654770779026445
100
AcDbArc
 50
156.4646747449891
 51
203.7725952672219
  0
LINE
  5
90A7
330
1F
100
AcDbEntity
  8
10000_FRONT
  6
Continuous
 62
     7
370
    13
100
AcDbLine
 10
1146.988288046782
 20
321.6012289987748
 30
0.0
 11
1149.409355361598
 21
321.6012289987748
 31
0.0
  0
LINE
  5
90A8
330
1F
100
AcDbEntity
  8
10000_FRONT
  6
Continuous
 62
     7
370
    13
100
AcDbLine
 10
1143.441844709693
 20
321.6012289987746
 30
0.0
 11
1145.862911031237
 21
321.6012289987748
 31
0.0
  0
LINE
  5
90A9
330
1F
100
AcDbEntity
  8
10000_FRONT
  6
Continuous
 62
     7
370
    13
100
AcDbLine
 10
1149.40660600212
 20
320.2734044850088
 30
0.0
 11
1146.988288046782
 21
320.2734044850088
 31
0.0
  0
LINE
  5
90AA
330
1F
100
AcDbEntity
  8
10000_FRONT
  6
Continuous
 62
     7
370
    13
100
AcDbLine
 10
1145.862911031237
 20
320.2734044850088
 30
0.0
 11
1143.444594069171
 21
320.273404485009
 31
0.0
  0
ARC
  5
90AB
330
1F
100
AcDbEntity
  8
10000_FRONT
  6
Continuous
 62
     7
370
    13
100
AcDbCircle
 10
1147.892238254327
 20
320.9404551993953
 30
0.0
 40
1.654770779026445
100
AcDbArc
 50
336.2274047327743
 51
23.53532525501212
  0
LINE
  5
90B7
330
1F
100
AcDbEntity
  8
10000_FRONT
  6
Continuous
 62
     7
370
    50
100
AcDbLine
 10
1141.328744435646
 20
297.9373104863922
 30
0.0
 11
1141.328744435646
 21
298.8669587278923
 31
0.0
  0
LINE
  5
90B8
330
1F
100
AcDbEntity
  8
10000_FRONT
  6
Continuous
 62
     7
370
    13
100
AcDbLine
 10
1176.393394118646
 20
294.1923205653921
 30
0.0
 11
1176.392425543146
 21
294.1907727073921
 31
0.0
  0
LINE
  5
90B9
330
1F
100
AcDbEntity
  8
10000_FRONT
  6
Continuous
 62
     7
370
    50
100
AcDbLine
 10
1142.228744435145
 20
295.6873075118924
 30
0.0
 11
1150.628744435146
 21
295.6873075003923
 31
0.0
  0
LINE
  5
90BA
330
1F
100
AcDbEntity
  8
10000_FRONT
  6
Continuous
 62
     7
370
    50
100
AcDbLine
 10
1150.628744435146
 20
295.6873075003923
 30
0.0
 11
1150.828744435146
 21
295.6873075118924
 31
0.0
  0
LINE
  5
90BB
330
1F
100
AcDbEntity
  8
10000_FRONT
  6
Continuous
 62
     7
370
    50
100
AcDbLine
 10
1150.828744435146
 20
295.6873075118924
 30
0.0
 11
1159.228744435146
 21
295.6873075003923
 31
0.0
  0
LINE
  5
90BC
330
1F
100
AcDbEntity
  8
10000_FRONT
  6
Continuous
 62
     7
370
    50
100
AcDbLine
 10
1159.228744435146
 20
295.6873075003923
 30
0.0
 11
1159.428744435146
 21
295.6873075118924
 31
0.0
  0
LINE
  5
90BD
330
1F
100
AcDbEntity
  8
10000_FRONT
  6
Continuous
 62
     7
370
    50
100
AcDbLine
 10
1159.428744435146
 20
295.6873075118924
 30
0.0
 11
1167.828744435146
 21
295.6873075003923
 31
0.0
  0
LINE
  5
90BE
330
1F
100
AcDbEntity
  8
10000_FRONT
  6
Continuous
 62
     7
370
    50
100
AcDbLine
 10
1167.828744435146
 20
295.6873075003923
 30
0.0
 11
1168.028744435146
 21
295.6873075003923
 31
0.0
  0
LINE
  5
90BF
330
1F
100
AcDbEntity
  8
10000_FRONT
  6
Continuous
 62
     7
370
    50
100
AcDbLine
 10
1176.393528229146
 20
295.6873075018921
 30
0.0
 11
1177.328744435646
 21
295.6873075003923
 31
0.0
  0
LINE
  5
90C0
330
1F
100
AcDbEntity
  8
10000_FRONT
  6
Continuous
 62
     7
370
    50
100
AcDbLine
 10
1141.328744435646
 20
295.6873075003923
 30
0.0
 11
1142.228744435145
 21
295.6873075118924
 31
0.0
  0
LINE
  5
90C1
330
1F
100
AcDbEntity
  8
10000_FRONT
  6
Continuous
 62
     7
370
    50
100
AcDbLine
 10
1168.028744435146
 20
295.6873075003923
 30
0.0
 11
1176.393528229146
 21
295.6873075018921
 31
0.0
  0
LINE
  5
90C2
330
1F
100
AcDbEntity
  8
10000_FRONT
  6
Continuous
 62
     7
370
    50
100
AcDbLine
 10
1141.328744435646
 20
295.6873075003923
 30
0.0
 11
1141.328744435646
 21
297.9373104863922
 31
0.0
  0
LINE
  5
90C3
330
1F
100
AcDbEntity
  8
10000_FRONT
  6
Continuous
 62
     7
370
    50
100
AcDbLine
 10
1177.328744435646
 20
295.6873075003923
 30
0.0
 11
1177.328744435646
 21
297.9373104863922
 31
0.0
  0
LINE
  5
90C4
330
1F
100
AcDbEntity
  8
10000_FRONT
  6
Continuous
 62
     7
370
    13
100
AcDbLine
 10
1176.393394118646
 20
294.1923205653921
 30
0.0
 11
1177.328744435646
 21
294.1923200633923
 31
0.0
  0
LINE
  5
90C5
330
1F
100
AcDbEntity
  8
10000_FRONT
  6
Continuous
 62
     7
370
    13
100
AcDbLine
 10
1177.328744435646
 20
294.1923200633923
 30
0.0
 11
1177.328744435646
 21
295.6873075003923
 31
0.0
  0
LINE
  5
90C6
330
1F
100
AcDbEntity
  8
10000_FRONT
  6
Continuous
 62
     7
370
    13
100
AcDbLine
 10
1167.828744435146
 20
294.1923200633923
 30
0.0
 11
1168.028744435146
 21
294.1923200633923
 31
0.0
  0
LINE
  5
90C7
330
1F
100
AcDbEntity
  8
10000_FRONT
  6
Continuous
 62
     7
370
    13
100
AcDbLine
 10
1150.628744435146
 20
294.1923200633923
 30
0.0
 11
1150.828744435146
 21
294.1923200633923
 31
0.0
  0
LINE
  5
90C8
330
1F
100
AcDbEntity
  8
10000_FRONT
  6
Continuous
 62
     7
370
    13
100
AcDbLine
 10
1159.228744435146
 20
294.1923200633923
 30
0.0
 11
1159.428744435146
 21
294.1923200633923
 31
0.0
  0
LINE
  5
90C9
330
1F
100
AcDbEntity
  8
10000_FRONT
  6
Continuous
 62
     7
370
    13
100
AcDbLine
 10
1141.328744435646
 20
294.1923200633923
 30
0.0
 11
1142.228744435145
 21
294.1923200633923
 31
0.0
  0
LINE
  5
90CA
330
1F
100
AcDbEntity
  8
10000_FRONT
  6
Continuous
 62
     7
370
    13
100
AcDbLine
 10
1141.328744435646
 20
294.1923200633923
 30
0.0
 11
1141.328744435646
 21
295.6873075003923
 31
0.0
  0
LINE
  5
90CB
330
1F
100
AcDbEntity
  8
10000_FRONT
  6
Continuous
 62
     7
370
    13
100
AcDbLine
 10
1176.228743738147
 20
294.1873081873922
 30
0.0
 11
1177.328743732146
 21
294.1873081873922
 31
0.0
  0
LINE
  5
90CC
330
1F
100
AcDbEntity
  8
10000_FRONT
  6
Continuous
 62
     7
370
    13
100
AcDbLine
 10
1176.392425543146
 20
294.1907727073921
 30
0.0
 11
1176.228743738147
 21
294.1906944763923
 31
0.0
  0
LINE
  5
90CD
330
1F
100
AcDbEntity
  8
10000_FRONT
  6
Continuous
 62
     7
370
    13
100
AcDbLine
 10
1176.228743738147
 20
294.1906944763923
 30
0.0
 11
1176.228743738147
 21
294.1873081873922
 31
0.0
  0
LINE
  5
90CE
330
1F
100
AcDbEntity
  8
10000_FRONT
  6
Continuous
 62
     7
370
    13
100
AcDbLine
 10
1177.328743732146
 20
294.1873081873922
 30
0.0
 11
1177.328744435646
 21
294.1923200633923
 31
0.0
  0
LINE
  5
90CF
330
1F
100
AcDbEntity
  8
10000_FRONT
  6
Continuous
 62
     7
370
    13
100
AcDbLine
 10
1141.328744434146
 20
294.1873081873922
 30
0.0
 11
1142.428744461146
 21
294.1873081873922
 31
0.0
  0
LINE
  5
90D0
330
1F
100
AcDbEntity
  8
10000_FRONT
  6
Continuous
 62
     7
370
    13
100
AcDbLine
 10
1142.428744461146
 20
294.1873081873922
 30
0.0
 11
1142.428744461146
 21
294.1906944763923
 31
0.0
  0
LINE
  5
90D1
330
1F
100
AcDbEntity
  8
10000_FRONT
  6
Continuous
 62
     7
370
    13
100
AcDbLine
 10
1142.428744461146
 20
294.1906944763923
 30
0.0
 11
1142.228744435145
 21
294.1923200633923
 31
0.0
  0
LINE
  5
90D2
330
1F
100
AcDbEntity
  8
10000_FRONT
  6
Continuous
 62
     7
370
    13
100
AcDbLine
 10
1141.328744434146
 20
294.1873081873922
 30
0.0
 11
1141.328744435646
 21
294.1923200633923
 31
0.0
  0
LINE
  5
90D3
330
1F
100
AcDbEntity
  8
10000_FRONT
  6
Continuous
 62
     7
370
    13
100
AcDbLine
 10
1159.228744435146
 20
294.1923200633923
 30
0.0
 11
1159.028745016645
 21
294.1906944763923
 31
0.0
  0
LINE
  5
90D4
330
1F
100
AcDbEntity
  8
10000_FRONT
  6
Continuous
 62
     7
370
    13
100
AcDbLine
 10
1159.028745016645
 20
294.1906944763923
 30
0.0
 11
1159.028745016645
 21
294.1888281058923
 31
0.0
  0
LINE
  5
90D5
330
1F
100
AcDbEntity
  8
10000_FRONT
  6
Continuous
 62
     7
370
    13
100
AcDbLine
 10
1159.028745016645
 20
294.1888281058923
 30
0.0
 11
1159.628743997146
 21
294.1888281058923
 31
0.0
  0
LINE
  5
90D6
330
1F
100
AcDbEntity
  8
10000_FRONT
  6
Continuous
 62
     7
370
    13
100
AcDbLine
 10
1159.628743997146
 20
294.1888281058923
 30
0.0
 11
1159.628743997146
 21
294.1906944763923
 31
0.0
  0
LINE
  5
90D7
330
1F
100
AcDbEntity
  8
10000_FRONT
  6
Continuous
 62
     7
370
    13
100
AcDbLine
 10
1159.628743997146
 20
294.1906944763923
 30
0.0
 11
1159.428744435146
 21
294.1923200633923
 31
0.0
  0
LINE
  5
90D8
330
1F
100
AcDbEntity
  8
10000_FRONT
  6
Continuous
 62
     7
370
    13
100
AcDbLine
 10
1150.628744435146
 20
294.1923200633923
 30
0.0
 11
1150.428744724646
 21
294.1906944763923
 31
0.0
  0
LINE
  5
90D9
330
1F
100
AcDbEntity
  8
10000_FRONT
  6
Continuous
 62
     7
370
    13
100
AcDbLine
 10
1150.428744724646
 20
294.1906944763923
 30
0.0
 11
1150.428744724646
 21
294.1888281058923
 31
0.0
  0
LINE
  5
90DA
330
1F
100
AcDbEntity
  8
10000_FRONT
  6
Continuous
 62
     7
370
    13
100
AcDbLine
 10
1150.428744724646
 20
294.1888281058923
 30
0.0
 11
1151.028744636645
 21
294.1888281058923
 31
0.0
  0
LINE
  5
90DB
330
1F
100
AcDbEntity
  8
10000_FRONT
  6
Continuous
 62
     7
370
    13
100
AcDbLine
 10
1151.028744636645
 20
294.1888281058923
 30
0.0
 11
1151.028744636645
 21
294.1906944763923
 31
0.0
  0
LINE
  5
90DC
330
1F
100
AcDbEntity
  8
10000_FRONT
  6
Continuous
 62
     7
370
    13
100
AcDbLine
 10
1151.028744636645
 20
294.1906944763923
 30
0.0
 11
1150.828744435146
 21
294.1923200633923
 31
0.0
  0
LINE
  5
90DD
330
1F
100
AcDbEntity
  8
10000_FRONT
  6
Continuous
 62
     7
370
    13
100
AcDbLine
 10
1167.828744435146
 20
294.1923200633923
 30
0.0
 11
1167.628745308646
 21
294.1906944763923
 31
0.0
  0
LINE
  5
90DE
330
1F
100
AcDbEntity
  8
10000_FRONT
  6
Continuous
 62
     7
370
    13
100
AcDbLine
 10
1167.628745308646
 20
294.1906944763923
 30
0.0
 11
1167.628745308646
 21
294.1888281058923
 31
0.0
  0
LINE
  5
90DF
330
1F
100
AcDbEntity
  8
10000_FRONT
  6
Continuous
 62
     7
370
    13
100
AcDbLine
 10
1167.628745308646
 20
294.1888281058923
 30
0.0
 11
1168.228744289646
 21
294.1888281058923
 31
0.0
  0
LINE
  5
90E0
330
1F
100
AcDbEntity
  8
10000_FRONT
  6
Continuous
 62
     7
370
    13
100
AcDbLine
 10
1168.228744289646
 20
294.1888281058923
 30
0.0
 11
1168.228744289646
 21
294.1906944763923
 31
0.0
  0
LINE
  5
90E1
330
1F
100
AcDbEntity
  8
10000_FRONT
  6
Continuous
 62
     7
370
    13
100
AcDbLine
 10
1168.228744289646
 20
294.1906944763923
 30
0.0
 11
1168.028744435146
 21
294.1923200633923
 31
0.0
  0
LINE
  5
90E2
330
1F
100
AcDbEntity
  8
10000_FRONT
  6
Continuous
 62
     7
370
    13
100
AcDbLine
 10
1176.228743738147
 20
295.6873075018921
 30
0.0
 11
1176.228743738147
 21
294.1906944763923
 31
0.0
  0
LINE
  5
90E3
330
1F
100
AcDbEntity
  8
10000_FRONT
  6
Continuous
 62
     7
370
    13
100
AcDbLine
 10
1168.228744289646
 20
295.6873075018921
 30
0.0
 11
1168.228744289646
 21
294.1906944763923
 31
0.0
  0
LINE
  5
90E4
330
1F
100
AcDbEntity
  8
10000_FRONT
  6
Continuous
 62
     7
370
    13
100
AcDbLine
 10
1151.028744636645
 20
295.6873075018921
 30
0.0
 11
1151.028744636645
 21
294.1906944763923
 31
0.0
  0
LINE
  5
90E5
330
1F
100
AcDbEntity
  8
10000_FRONT
  6
Continuous
 62
     7
370
    13
100
AcDbLine
 10
1142.428744461146
 20
295.6873075018921
 30
0.0
 11
1142.428744461146
 21
294.1906944763923
 31
0.0
  0
LINE
  5
90E6
330
1F
100
AcDbEntity
  8
10000_FRONT
  6
Continuous
 62
     7
370
    13
100
AcDbLine
 10
1159.028745016645
 20
295.6873075018921
 30
0.0
 11
1159.028745016645
 21
294.1906944763923
 31
0.0
  0
LINE
  5
90E7
330
1F
100
AcDbEntity
  8
10000_FRONT
  6
Continuous
 62
     7
370
    13
100
AcDbLine
 10
1159.628743997146
 20
295.6873075018921
 30
0.0
 11
1159.628743997146
 21
294.1906944763923
 31
0.0
  0
LINE
  5
90E8
330
1F
100
AcDbEntity
  8
10000_FRONT
  6
Continuous
 62
     7
370
    13
100
AcDbLine
 10
1150.428744724646
 20
295.6873075018921
 30
0.0
 11
1150.428744724646
 21
294.1906944763923
 31
0.0
  0
LINE
  5
90E9
330
1F
100
AcDbEntity
  8
10000_FRONT
  6
Continuous
 62
     7
370
    13
100
AcDbLine
 10
1167.628745308646
 20
295.6873075018921
 30
0.0
 11
1167.628745308646
 21
294.1906944763923
 31
0.0
  0
ENDSEC
  0
SECTION
  2
OBJECTS
  0
DICTIONARY
  5
C
330
0
100
AcDbDictionary
281
     1
  3
ACAD_COLOR
350
2081
  3
ACAD_GROUP
350
D
  3
ACAD_LAYOUT
350
1A
  3
ACAD_MATERIAL
350
2080
  3
ACAD_MLINESTYLE
350
17
  3
ACAD_PLOTSETTINGS
350
19
  3
ACAD_PLOTSTYLENAME
350
E
  3
ACAD_TABLESTYLE
350
8B4A
  3
ACAD_VISUALSTYLE
350
8B39
  3
AcDbVariableDictionary
350
5E
  3
DWGPROPS
350
9191
  0
DICTIONARY
  5
9174
330
8
100
AcDbDictionary
280
     1
281
     1
  0
DICTIONARY
  5
8B75
330
2
100
AcDbDictionary
280
     1
281
     1
  3
ACAD_LAYERFILTERS
360
9139
  3
ACLYDICTIONARY
360
9138
  0
DICTIONARY
  5
9022
330
1F
100
AcDbDictionary
280
     1
281
     1
  3
ACAD_SORTENTS
360
9023
  0
DICTIONARY
  5
8F6B
330
8F6A
100
AcDbDictionary
280
     1
281
     1
  3
ACAD_DIMASSOC
360
8F6C
  0
DICTIONARY
  5
8F71
330
8F70
100
AcDbDictionary
280
     1
281
     1
  3
ACAD_DIMASSOC
360
8F72
  0
DICTIONARY
  5
8F74
330
8F73
100
AcDbDictionary
280
     1
281
     1
  3
ACAD_DIMASSOC
360
8F75
  0
DICTIONARY
  5
2081
102
{ACAD_REACTORS
330
C
102
}
330
C
100
AcDbDictionary
281
     1
  0
DICTIONARY
  5
D
102
{ACAD_REACTORS
330
C
102
}
330
C
100
AcDbDictionary
281
     1
  0
DICTIONARY
  5
1A
102
{ACAD_REACTORS
330
C
102
}
330
C
100
AcDbDictionary
281
     1
  3
Layout1
350
51
  3
Layout2
350
56
  3
Model
350
22
  0
DICTIONARY
  5
2080
102
{ACAD_REACTORS
330
C
102
}
330
C
100
AcDbDictionary
281
     1
  3
ByBlock
350
8B37
  3
ByLayer
350
8B36
  3
Global
350
8B38
  0
DICTIONARY
  5
17
102
{ACAD_REACTORS
330
C
102
}
330
C
100
AcDbDictionary
281
     1
  3
Standard
350
18
  0
DICTIONARY
  5
19
102
{ACAD_REACTORS
330
C
102
}
330
C
100
AcDbDictionary
281
     1
  0
ACDBDICTIONARYWDFLT
  5
E
102
{ACAD_REACTORS
330
C
102
}
330
C
100
AcDbDictionary
281
     1
  3
Normal
350
F
100
AcDbDictionaryWithDefault
340
F
  0
DICTIONARY
  5
8B4A
102
{ACAD_REACTORS
330
C
102
}
330
C
100
AcDbDictionary
281
     1
  3
Standard
350
8B4B
  0
DICTIONARY
  5
8B39
102
{ACAD_REACTORS
330
C
102
}
330
C
100
AcDbDictionary
281
     1
  3
2dWireframe
350
8B3F
  3
3D Hidden
350
8B41
  3
3dWireframe
350
8B40
  3
Basic
350
8B3E
  3
Brighten
350
8B45
  3
ColorChange
350
8B49
  3
Conceptual
350
8B42
  3
Dim
350
8B44
  3
Facepattern
350
8B48
  3
Flat
350
8B3A
  3
FlatWithEdges
350
8B3B
  3
Gouraud
350
8B3C
  3
GouraudWithEdges
350
8B3D
  3
Linepattern
350
8B47
  3
Realistic
350
8B43
  3
Thicken
350
8B46
  0
DICTIONARY
  5
5E
102
{ACAD_REACTORS
330
C
102
}
330
C
100
AcDbDictionary
281
     1
  3
CTABLESTYLE
350
8B53
  3
DIMASSOC
350
5F
  3
HIDETEXT
350
63
  3
INDEXCTL
350
8B55
  3
PROJECTNAME
350
7A40
  3
SORTENTS
350
8B54
  0
XRECORD
  5
9191
102
{ACAD_REACTORS
330
C
102
}
330
C
100
AcDbXrecord
280
     1
  1
DWGPROPS COOKIE
  2

  3

  4

  6

  7

  8
chpf
  9

300
=
301
=
302
=
303
=
304
=
305
=
306
=
307
=
308
=
309
=
 40
0.527808587962963
 41
2452662.43131662
 42
2454049.316136401
  1

 90
        0
  0
DICTIONARY
  5
9139
102
{ACAD_REACTORS
330
8B75
102
}
330
8B75
100
AcDbDictionary
281
     1
  0
DICTIONARY
  5
9138
102
{ACAD_REACTORS
330
8B75
102
}
330
8B75
100
AcDbDictionary
281
     1
1001
ACAD
1000
<All
  0
SORTENTSTABLE
  5
9023
102
{ACAD_REACTORS
330
9022
102
}
330
9022
100
AcDbSortentsTable
330
1F
331
8E11
  5
8E11
331
8DD2
  5
8DD2
331
8E60
  5
8E60
331
8E19
  5
8E19
331
8DDA
  5
8DDA
331
8E68
  5
8E68
331
8E21
  5
8E21
331
8DE2
  5
8DE2
331
8DEA
  5
8DEA
331
2095
  5
2095
331
8DF2
  5
8DF2
331
11E
  5
11E
331
8E49
  5
8E49
331
8F60
  5
8F63
331
126
  5
126
331
8E02
  5
8E02
331
8E51
  5
8E51
331
8E0A
  5
8E0A
331
8DCB
  5
8DCB
331
8E59
  5
8E59
331
8F70
  5
901F
331
8E12
  5
8E12
331
8DD3
  5
8DD3
331
8E61
  5
8E61
331
8E1A
  5
8E1A
331
8E69
  5
8E69
331
8DDB
  5
8DDB
331
8E22
  5
8E22
331
8DE3
  5
8DE3
331
8F51
  5
8F51
331
117
  5
117
331
2096
  5
2096
331
8DF3
  5
8DF3
331
8F61
  5
8F64
331
11F
  5
11F
331
8E4A
  5
8E4A
331
8E52
  5
8E52
331
8E03
  5
8E03
331
8E0B
  5
8E0B
331
8E5A
  5
8E5A
331
8DCC
  5
8DCC
331
8E13
  5
8E13
331
8DD4
  5
8DD4
331
8E62
  5
8E62
331
8E1B
  5
8E1B
331
8DDC
  5
8DDC
331
8E23
  5
8E23
331
8DE4
  5
8DE4
331
8F52
  5
8F52
331
8DEC
  5
8DEC
331
118
  5
118
331
2097
  5
2097
331
120
  5
120
331
8E4B
  5
8E4B
331
8E04
  5
8E04
331
8E53
  5
8E53
331
8F6A
  5
8F73
331
8E0C
  5
8E0C
331
8DCD
  5
8DCD
331
8E5B
  5
8E5B
331
8E14
  5
8E14
331
8DD5
  5
8DD5
331
8E63
  5
8E63
331
8E1C
  5
8E1C
331
8DDD
  5
8DDD
331
8E24
  5
8E24
331
8DE5
  5
8DE5
331
8F4B
  5
8F4B
331
8DED
  5
8DED
331
8F53
  5
8F53
331
8DF5
  5
8DF5
331
119
  5
119
331
2098
  5
2098
331
8E4C
  5
8E4C
331
121
  5
121
331
8E54
  5
8E54
331
8E05
  5
8E05
331
129
  5
129
331
8E0D
  5
8E0D
331
8E5C
  5
8E5C
331
8DCE
  5
8DCE
331
8F73
  5
9020
331
8E15
  5
8E15
331
8DD6
  5
8DD6
331
8E64
  5
8E64
331
8E1D
  5
8E1D
331
8DDE
  5
8DDE
331
8E25
  5
8E25
331
8F4C
  5
8F4C
331
8DEE
  5
8DEE
331
8F5C
  5
8F5C
331
11A
  5
11A
331
2099
  5
2099
331
8BAF
  5
8BAF
331
8E4D
  5
8E4D
331
8E06
  5
8E06
331
8E55
  5
8E55
331
12A
  5
12A
331
8E0E
  5
8E0E
331
8DCF
  5
8DCF
331
8E5D
  5
8E5D
331
33C9
  5
33C9
331
8E16
  5
8E16
331
8DD7
  5
8DD7
331
8E65
  5
8E65
331
8E1E
  5
8E1E
331
8DDF
  5
8DDF
331
8E26
  5
8E26
331
8DE7
  5
8DE7
331
8DEF
  5
8DEF
331
11B
  5
11B
331
209A
  5
209A
331
8E4E
  5
8E4E
331
8DFF
  5
8DFF
331
8E56
  5
8E56
331
8E07
  5
8E07
331
8F6D
  5
901E
331
8E0F
  5
8E0F
331
8E5E
  5
8E5E
331
33CA
  5
33CA
331
8DD0
  5
8DD0
331
8E17
  5
8E17
331
8DD8
  5
8DD8
331
8E66
  5
8E66
331
8E1F
  5
8E1F
331
8DE0
  5
8DE0
331
8E27
  5
8E27
331
8DE8
  5
8DE8
331
8F4E
  5
8F4E
331
2093
  5
2093
331
8DF0
  5
8DF0
331
11C
  5
11C
331
8F5E
  5
8F61
331
124
  5
124
331
8E00
  5
8E00
331
8E4F
  5
8E4F
331
8E08
  5
8E08
331
8E57
  5
8E57
331
8E5F
  5
8E5F
331
8E10
  5
8E10
331
8E18
  5
8E18
331
8E67
  5
8E67
331
8DD9
  5
8DD9
331
8E20
  5
8E20
331
8DE1
  5
8DE1
331
8DE9
  5
8DE9
331
2094
  5
2094
331
8DF1
  5
8DF1
331
8E40
  5
8E40
331
8F5F
  5
8F62
331
11D
  5
11D
331
8E48
  5
8E48
331
8E50
  5
8E50
331
8E01
  5
8E01
331
8E09
  5
8E09
331
8E58
  5
8E58
331
8DCA
  5
8DCA
  0
DIMASSOC
  5
8F6C
102
{ACAD_REACTORS
330
8F6B
102
}
330
8F6B
100
AcDbDimAssoc
330
8F6A
 90
        2
 70
     0
 71
     0
  1
AcDbOsnapPointRef
 72
     1
331
8E0B
 73
     2
 91
        0
 40
1.0
 10
0.0
 20
0.0
 30
2.000000000000000E+50
 75
     0
  0
DIMASSOC
  5
8F72
102
{ACAD_REACTORS
330
8F71
102
}
330
8F71
100
AcDbDimAssoc
330
8F70
 90
        3
 70
     0
 71
     0
  1
AcDbOsnapPointRef
 72
    13
331
8E55
 73
     2
 91
        0
 40
0.0
 10
0.0
 20
0.0
 30
2.000000000000000E+50
 75
     0
  1
AcDbOsnapPointRef
 72
     1
331
8E62
 73
     2
 91
        0
 40
4.712388980424835
 10
0.0
 20
0.0
 30
2.000000000000000E+50
 75
     0
  0
DIMASSOC
  5
8F75
102
{ACAD_REACTORS
330
8F74
102
}
330
8F74
100
AcDbDimAssoc
330
8F73
 90
        3
 70
     0
 71
     0
  1
AcDbOsnapPointRef
 72
    13
331
8E62
 73
     2
 91
        0
 40
3.141592653589792
 10
0.0
 20
0.0
 30
2.000000000000000E+50
 75
     0
  1
AcDbOsnapPointRef
 72
     6
331
8E5D
 73
     2
 91
        0
 40
0.0
 10
0.0
 20
0.0
 30
0.0
332
8E5A
 74
     2
 92
        0
 75
     0
  0
LAYOUT
  5
51
102
{ACAD_XDICTIONARY
360
9194
102
}
102
{ACAD_REACTORS
330
1A
102
}
330
1A
100
AcDbPlotSettings
  1

  2
None
  4

  6

 40
0.0
 41
0.0
 42
0.0
 43
0.0
 44
0.0
 45
0.0
 46
0.0
 47
0.0
 48
0.0
 49
0.0
140
0.0
141
0.0
142
1.0
143
1.0
 70
   688
 72
     0
 73
     0
 74
     5
  7

 75
    16
147
1.0
148
0.0
149
0.0
100
AcDbLayout
  1
Layout1
 70
     1
 71
     1
 10
0.0
 20
0.0
 11
12.0
 21
9.0
 12
0.0
 22
0.0
 32
0.0
 14
0.0
 24
0.0
 34
0.0
 15
0.0
 25
0.0
 35
0.0
146
0.0
 13
0.0
 23
0.0
 33
0.0
 16
1.0
 26
0.0
 36
0.0
 17
0.0
 27
1.0
 37
0.0
 76
     0
330
50
  0
LAYOUT
  5
56
102
{ACAD_XDICTIONARY
360
9196
102
}
102
{ACAD_REACTORS
330
1A
102
}
330
1A
100
AcDbPlotSettings
  1

  2
None
  4

  6

 40
0.0
 41
0.0
 42
0.0
 43
0.0
 44
0.0
 45
0.0
 46
0.0
 47
0.0
 48
0.0
 49
0.0
140
0.0
141
0.0
142
1.0
143
1.0
 70
   688
 72
     0
 73
     0
 74
     5
  7

 75
    16
147
1.0
148
0.0
149
0.0
100
AcDbLayout
  1
Layout2
 70
     1
 71
     2
 10
0.0
 20
0.0
 11
12.0
 21
9.0
 12
0.0
 22
0.0
 32
0.0
 14
0.0
 24
0.0
 34
0.0
 15
0.0
 25
0.0
 35
0.0
146
0.0
 13
0.0
 23
0.0
 33
0.0
 16
1.0
 26
0.0
 36
0.0
 17
0.0
 27
1.0
 37
0.0
 76
     0
330
55
  0
LAYOUT
  5
22
102
{ACAD_XDICTIONARY
360
9192
102
}
102
{ACAD_REACTORS
330
1A
102
}
330
1A
100
AcDbPlotSettings
  1

  2
\\AMBW779A\A_P00873 (Canon iR2200-3300 PCL6)
  4
A4
  6

 40
4.815417
 41
4.815412
 42
4.815413999999996
 43
4.81543
 44
209.973328
 45
296.925995
 46
0.0
 47
0.0
 48
0.0
 49
0.0
140
0.0
141
0.0
142
1.0
143
1.522439501186379
 70
 11952
 72
     1
 73
     1
 74
     0
  7
monochrome.ctb
 75
     0
147
0.6568405504591395
148
-1047.618704464668
149
-334.8207486987071
100
AcDbLayout
  1
Model
 70
     1
 71
     0
 10
0.0
 20
0.0
 11
12.0
 21
9.0
 12
0.0
 22
0.0
 32
0.0
 14
0.0
 24
0.0
 34
0.0
 15
0.0
 25
0.0
 35
0.0
146
0.0
 13
0.0
 23
0.0
 33
0.0
 16
1.0
 26
0.0
 36
0.0
 17
0.0
 27
1.0
 37
0.0
 76
     0
330
1F
331
8B28
  0
MATERIAL
  5
8B37
102
{ACAD_XDICTIONARY
360
919A
102
}
102
{ACAD_REACTORS
330
2080
102
}
330
2080
100
AcDbMaterial
  1
ByBlock
  0
MATERIAL
  5
8B36
102
{ACAD_XDICTIONARY
360
9198
102
}
102
{ACAD_REACTORS
330
2080
102
}
330
2080
100
AcDbMaterial
  1
ByLayer
  0
MATERIAL
  5
8B38
102
{ACAD_XDICTIONARY
360
919C
102
}
102
{ACAD_REACTORS
330
2080
102
}
330
2080
100
AcDbMaterial
  1
Global
  0
MLINESTYLE
  5
18
102
{ACAD_REACTORS
330
17
102
}
330
17
100
AcDbMlineStyle
  2
STANDARD
 70
     0
  3

 62
   256
 51
90.0
 52
90.0
 71
     2
 49
0.5
 62
   256
  6
BYLAYER
 49
-0.5
 62
   256
  6
BYLAYER
  0
ACDBPLACEHOLDER
  5
F
102
{ACAD_REACTORS
330
E
102
}
330
E
  0
TABLESTYLE
  5
8B4B
102
{ACAD_XDICTIONARY
360
919E
102
}
102
{ACAD_REACTORS
330
8B4A
102
}
330
8B4A
100
AcDbTableStyle
  3
Standard
 70
     0
 71
     0
 40
1.5
 41
1.5
280
     0
281
     0
  7
Standard
140
4.5
170
     2
 62
     0
 63
     7
283
     0
274
    -2
284
     1
 64
     0
275
    -2
285
     1
 65
     0
276
    -2
286
     1
 66
     0
277
    -2
287
     1
 67
     0
278
    -2
288
     1
 68
     0
279
    -2
289
     1
 69
     0
  7
Standard
140
6.0
170
     5
 62
     0
 63
     7
283
     0
274
    -2
284
     1
 64
     0
275
    -2
285
     1
 65
     0
276
    -2
286
     1
 66
     0
277
    -2
287
     1
 67
     0
278
    -2
288
     1
 68
     0
279
    -2
289
     1
 69
     0
  7
Standard
140
4.5
170
     5
 62
     0
 63
     7
283
     0
274
    -2
284
     1
 64
     0
275
    -2
285
     1
 65
     0
276
    -2
286
     1
 66
     0
277
    -2
287
     1
 67
     0
278
    -2
288
     1
 68
     0
279
    -2
289
     1
 69
     0
  0
VISUALSTYLE
  5
8B3F
102
{ACAD_REACTORS
330
8B39
102
}
330
8B39
100
AcDbVisualStyle
  2
2dWireframe
 70
     4
 71
     0
 72
     2
 73
     0
 90
        0
 40
-0.6
 41
-30.0
 62
     5
 63
     7
 74
     1
 91
        4
 64
     7
 65
   257
 75
     1
175
     1
 42
1.0
 92
        0
 66
   257
 43
1.0
 76
     1
 77
     6
 78
     2
 67
     7
 79
     5
170
     0
171
     0
290
     0
174
     0
 93
        1
 44
0.0
173
     0
291
     0
 45
0.0
1001
ACAD
1000
AcDbSavedByObjectVersion
1070
     0
1000
AcDbSavedByObjectVersion
1070
     0
1000
AcDbSavedByObjectVersion
1070
     0
1000
AcDbSavedByObjectVersion
1070
     0
1000
AcDbSavedByObjectVersion
1070
     0
1000
AcDbSavedByObjectVersion
1070
     0
  0
VISUALSTYLE
  5
8B41
102
{ACAD_REACTORS
330
8B39
102
}
330
8B39
100
AcDbVisualStyle
  2
3D Hidden
 70
     6
 71
     1
 72
     2
 73
     2
 90
        0
 40
-0.6
 41
-30.0
 62
     5
 63
     7
 74
     2
 91
        2
 64
     7
 65
   257
 75
     2
175
     1
 42
40.0
 92
        0
 66
   257
 43
1.0
 76
     1
 77
     6
 78
     2
 67
     7
 79
     3
170
     0
171
     0
290
     0
174
     0
 93
        1
 44
0.0
173
     0
291
     0
 45
0.0
1001
ACAD
1000
AcDbSavedByObjectVersion
1070
     0
1000
AcDbSavedByObjectVersion
1070
     0
1000
AcDbSavedByObjectVersion
1070
     0
1000
AcDbSavedByObjectVersion
1070
     0
1000
AcDbSavedByObjectVersion
1070
     0
1000
AcDbSavedByObjectVersion
1070
     0
  0
VISUALSTYLE
  5
8B40
102
{ACAD_REACTORS
330
8B39
102
}
330
8B39
100
AcDbVisualStyle
  2
3dWireframe
 70
     5
 71
     0
 72
     2
 73
     0
 90
        0
 40
-0.6
 41
-30.0
 62
     5
 63
     7
 74
     1
 91
        4
 64
     7
 65
   257
 75
     1
175
     1
 42
1.0
 92
        0
 66
   257
 43
1.0
 76
     1
 77
     6
 78
     2
 67
     7
 79
     5
170
     0
171
     0
290
     0
174
     0
 93
        1
 44
0.0
173
     0
291
     0
 45
0.0
1001
ACAD
1000
AcDbSavedByObjectVersion
1070
     0
1000
AcDbSavedByObjectVersion
1070
     0
1000
AcDbSavedByObjectVersion
1070
     0
1000
AcDbSavedByObjectVersion
1070
     0
1000
AcDbSavedByObjectVersion
1070
     0
1000
AcDbSavedByObjectVersion
1070
     0
  0
VISUALSTYLE
  5
8B3E
102
{ACAD_REACTORS
330
8B39
102
}
330
8B39
100
AcDbVisualStyle
  2
Basic
 70
     7
 71
     1
 72
     0
 73
     1
 90
        0
 40
-0.6
 41
-30.0
 62
     5
 63
     7
 74
     0
 91
        4
 64
     7
 65
   257
 75
     1
175
     1
 42
1.0
 92
        8
 66
     7
 43
1.0
 76
     1
 77
     6
 78
     2
 67
     7
 79
     5
170
     0
171
     0
290
     0
174
     0
 93
        1
 44
0.0
173
     0
291
     1
 45
0.0
1001
ACAD
1000
AcDbSavedByObjectVersion
1070
     0
1000
AcDbSavedByObjectVersion
1070
     0
1000
AcDbSavedByObjectVersion
1070
     0
1000
AcDbSavedByObjectVersion
1070
     0
1000
AcDbSavedByObjectVersion
1070
     0
1000
AcDbSavedByObjectVersion
1070
     0
  0
VISUALSTYLE
  5
8B45
102
{ACAD_REACTORS
330
8B39
102
}
330
8B39
100
AcDbVisualStyle
  2
Brighten
 70
    12
 71
     2
 72
     2
 73
     0
 90
        0
 40
-0.6
 41
-30.0
 62
     5
 63
     7
 74
     1
 91
        4
 64
     7
 65
   257
 75
     1
175
     1
 42
1.0
 92
        8
 66
     7
 43
1.0
 76
     1
 77
     6
 78
     2
 67
     7
 79
     5
170
     0
171
     0
290
     0
174
     0
 93
        1
 44
50.0
173
     0
291
     1
 45
0.0
1001
ACAD
1000
AcDbSavedByObjectVersion
1070
     0
1000
AcDbSavedByObjectVersion
1070
     0
1000
AcDbSavedByObjectVersion
1070
     0
1000
AcDbSavedByObjectVersion
1070
     0
1000
AcDbSavedByObjectVersion
1070
     0
1000
AcDbSavedByObjectVersion
1070
     0
  0
VISUALSTYLE
  5
8B49
102
{ACAD_REACTORS
330
8B39
102
}
330
8B39
100
AcDbVisualStyle
  2
ColorChange
 70
    16
 71
     2
 72
     2
 73
     3
 90
        0
 40
-0.6
 41
-30.0
 62
     5
 63
     8
 74
     1
 91
        4
 64
     7
 65
   257
 75
     1
175
     1
 42
1.0
 92
        8
 66
     8
 43
1.0
 76
     1
 77
     6
 78
     2
 67
     7
 79
     5
170
     0
171
     0
290
     0
174
     0
 93
        1
 44
0.0
173
     0
291
     1
 45
0.0
1001
ACAD
1000
AcDbSavedByObjectVersion
1070
     0
1000
AcDbSavedByObjectVersion
1070
     0
1000
AcDbSavedByObjectVersion
1070
     0
1000
AcDbSavedByObjectVersion
1070
     0
1000
AcDbSavedByObjectVersion
1070
     0
1000
AcDbSavedByObjectVersion
1070
     0
  0
VISUALSTYLE
  5
8B42
102
{ACAD_REACTORS
330
8B39
102
}
330
8B39
100
AcDbVisualStyle
  2
Conceptual
 70
     9
 71
     3
 72
     2
 73
     0
 90
        0
 40
-0.6
 41
-30.0
 62
     5
 63
     7
 74
     2
 91
        2
 64
     7
 65
   257
 75
     1
175
     1
 42
40.0
 92
        8
 66
     7
 43
1.0
 76
     1
 77
     6
 78
     2
 67
     7
 79
     3
170
     0
171
     0
290
     0
174
     0
 93
        1
 44
0.0
173
     0
291
     0
 45
0.0
1001
ACAD
1000
AcDbSavedByObjectVersion
1070
     0
1000
AcDbSavedByObjectVersion
1070
     0
1000
AcDbSavedByObjectVersion
1070
     0
1000
AcDbSavedByObjectVersion
1070
     0
1000
AcDbSavedByObjectVersion
1070
     0
1000
AcDbSavedByObjectVersion
1070
     0
  0
VISUALSTYLE
  5
8B44
102
{ACAD_REACTORS
330
8B39
102
}
330
8B39
100
AcDbVisualStyle
  2
Dim
 70
    11
 71
     2
 72
     2
 73
     0
 90
        0
 40
-0.6
 41
-30.0
 62
     5
 63
     7
 74
     1
 91
        4
 64
     7
 65
   257
 75
     1
175
     1
 42
1.0
 92
        8
 66
     7
 43
1.0
 76
     1
 77
     6
 78
     2
 67
     7
 79
     5
170
     0
171
     0
290
     0
174
     0
 93
        1
 44
-50.0
173
     0
291
     1
 45
0.0
1001
ACAD
1000
AcDbSavedByObjectVersion
1070
     0
1000
AcDbSavedByObjectVersion
1070
     0
1000
AcDbSavedByObjectVersion
1070
     0
1000
AcDbSavedByObjectVersion
1070
     0
1000
AcDbSavedByObjectVersion
1070
     0
1000
AcDbSavedByObjectVersion
1070
     0
  0
VISUALSTYLE
  5
8B48
102
{ACAD_REACTORS
330
8B39
102
}
330
8B39
100
AcDbVisualStyle
  2
Facepattern
 70
    15
 71
     2
 72
     2
 73
     0
 90
        0
 40
-0.6
 41
-30.0
 62
     5
 63
     7
 74
     1
 91
        4
 64
     7
 65
   257
 75
     1
175
     1
 42
1.0
 92
        8
 66
     7
 43
1.0
 76
     1
 77
     6
 78
     2
 67
     7
 79
     5
170
     0
171
     0
290
     0
174
     0
 93
        1
 44
0.0
173
     0
291
     1
 45
0.0
1001
ACAD
1000
AcDbSavedByObjectVersion
1070
     0
1000
AcDbSavedByObjectVersion
1070
     0
1000
AcDbSavedByObjectVersion
1070
     0
1000
AcDbSavedByObjectVersion
1070
     0
1000
AcDbSavedByObjectVersion
1070
     0
1000
AcDbSavedByObjectVersion
1070
     0
  0
VISUALSTYLE
  5
8B3A
102
{ACAD_REACTORS
330
8B39
102
}
330
8B39
100
AcDbVisualStyle
  2
Flat
 70
     0
 71
     2
 72
     1
 73
     1
 90
        2
 40
-0.6
 41
30.0
 62
     5
 63
     7
 74
     0
 91
        4
 64
     7
 65
   257
 75
     1
175
     1
 42
1.0
 92
        8
 66
     7
 43
1.0
 76
     1
 77
     6
 78
     2
 67
     7
 79
     5
170
     0
171
     0
290
     0
174
     0
 93
       13
 44
0.0
173
     0
291
     1
 45
0.0
1001
ACAD
1000
AcDbSavedByObjectVersion
1070
     0
1000
AcDbSavedByObjectVersion
1070
     0
1000
AcDbSavedByObjectVersion
1070
     0
1000
AcDbSavedByObjectVersion
1070
     0
1000
AcDbSavedByObjectVersion
1070
     0
1000
AcDbSavedByObjectVersion
1070
     0
  0
VISUALSTYLE
  5
8B3B
102
{ACAD_REACTORS
330
8B39
102
}
330
8B39
100
AcDbVisualStyle
  2
FlatWithEdges
 70
     1
 71
     2
 72
     1
 73
     1
 90
        2
 40
-0.6
 41
30.0
 62
     5
 63
     7
 74
     1
 91
        4
 64
     7
 65
   257
 75
     1
175
     1
 42
1.0
 92
        0
 66
   257
 43
1.0
 76
     1
 77
     6
 78
     2
 67
     7
 79
     5
170
     0
171
     0
290
     0
174
     0
 93
       13
 44
0.0
173
     0
291
     1
 45
0.0
1001
ACAD
1000
AcDbSavedByObjectVersion
1070
     0
1000
AcDbSavedByObjectVersion
1070
     0
1000
AcDbSavedByObjectVersion
1070
     0
1000
AcDbSavedByObjectVersion
1070
     0
1000
AcDbSavedByObjectVersion
1070
     0
1000
AcDbSavedByObjectVersion
1070
     0
  0
VISUALSTYLE
  5
8B3C
102
{ACAD_REACTORS
330
8B39
102
}
330
8B39
100
AcDbVisualStyle
  2
Gouraud
 70
     2
 71
     2
 72
     2
 73
     1
 90
        2
 40
-0.6
 41
30.0
 62
     5
 63
     7
 74
     0
 91
        4
 64
     7
 65
   257
 75
     1
175
     1
 42
1.0
 92
        0
 66
     7
 43
1.0
 76
     1
 77
     6
 78
     2
 67
     7
 79
     5
170
     0
171
     0
290
     0
174
     0
 93
       13
 44
0.0
173
     0
291
     1
 45
0.0
1001
ACAD
1000
AcDbSavedByObjectVersion
1070
     0
1000
AcDbSavedByObjectVersion
1070
     0
1000
AcDbSavedByObjectVersion
1070
     0
1000
AcDbSavedByObjectVersion
1070
     0
1000
AcDbSavedByObjectVersion
1070
     0
1000
AcDbSavedByObjectVersion
1070
     0
  0
VISUALSTYLE
  5
8B3D
102
{ACAD_REACTORS
330
8B39
102
}
330
8B39
100
AcDbVisualStyle
  2
GouraudWithEdges
 70
     3
 71
     2
 72
     2
 73
     1
 90
        2
 40
-0.6
 41
30.0
 62
     5
 63
     7
 74
     1
 91
        4
 64
     7
 65
   257
 75
     1
175
     1
 42
1.0
 92
        0
 66
   257
 43
1.0
 76
     1
 77
     6
 78
     2
 67
     7
 79
     5
170
     0
171
     0
290
     0
174
     0
 93
       13
 44
0.0
173
     0
291
     1
 45
0.0
1001
ACAD
1000
AcDbSavedByObjectVersion
1070
     0
1000
AcDbSavedByObjectVersion
1070
     0
1000
AcDbSavedByObjectVersion
1070
     0
1000
AcDbSavedByObjectVersion
1070
     0
1000
AcDbSavedByObjectVersion
1070
     0
1000
AcDbSavedByObjectVersion
1070
     0
  0
VISUALSTYLE
  5
8B47
102
{ACAD_REACTORS
330
8B39
102
}
330
8B39
100
AcDbVisualStyle
  2
Linepattern
 70
    14
 71
     2
 72
     2
 73
     0
 90
        0
 40
-0.6
 41
-30.0
 62
     5
 63
     7
 74
     1
 91
        4
 64
     7
 65
   257
 75
     7
175
     7
 42
1.0
 92
        8
 66
     7
 43
1.0
 76
     1
 77
     6
 78
     2
 67
     7
 79
     5
170
     0
171
     0
290
     0
174
     0
 93
        1
 44
0.0
173
     0
291
     1
 45
0.0
1001
ACAD
1000
AcDbSavedByObjectVersion
1070
     0
1000
AcDbSavedByObjectVersion
1070
     0
1000
AcDbSavedByObjectVersion
1070
     0
1000
AcDbSavedByObjectVersion
1070
     0
1000
AcDbSavedByObjectVersion
1070
     0
1000
AcDbSavedByObjectVersion
1070
     0
  0
VISUALSTYLE
  5
8B43
102
{ACAD_REACTORS
330
8B39
102
}
330
8B39
100
AcDbVisualStyle
  2
Realistic
 70
     8
 71
     2
 72
     2
 73
     0
 90
        0
 40
-0.6
 41
-30.0
 62
     5
 63
     7
 74
     1
 91
        0
 64
     7
 65
   257
 75
     1
175
     1
 42
1.0
 92
        8
 66
     8
 43
1.0
 76
     1
 77
     6
 78
     2
 67
     7
 79
     5
170
     0
171
     0
290
     0
174
     0
 93
       13
 44
0.0
173
     0
291
     0
 45
0.0
1001
ACAD
1000
AcDbSavedByObjectVersion
1070
     0
1000
AcDbSavedByObjectVersion
1070
     0
1000
AcDbSavedByObjectVersion
1070
     0
1000
AcDbSavedByObjectVersion
1070
     0
1000
AcDbSavedByObjectVersion
1070
     0
1000
AcDbSavedByObjectVersion
1070
     0
  0
VISUALSTYLE
  5
8B46
102
{ACAD_REACTORS
330
8B39
102
}
330
8B39
100
AcDbVisualStyle
  2
Thicken
 70
    13
 71
     2
 72
     2
 73
     0
 90
        0
 40
-0.6
 41
-30.0
 62
     5
 63
     7
 74
     1
 91
        4
 64
     7
 65
   257
 75
     1
175
     1
 42
1.0
 92
       12
 66
     7
 43
1.0
 76
     1
 77
     6
 78
     2
 67
     7
 79
     5
170
     0
171
     0
290
     0
174
     0
 93
        1
 44
0.0
173
     0
291
     1
 45
0.0
1001
ACAD
1000
AcDbSavedByObjectVersion
1070
     0
1000
AcDbSavedByObjectVersion
1070
     0
1000
AcDbSavedByObjectVersion
1070
     0
1000
AcDbSavedByObjectVersion
1070
     0
1000
AcDbSavedByObjectVersion
1070
     0
1000
AcDbSavedByObjectVersion
1070
     0
  0
DICTIONARYVAR
  5
8B53
102
{ACAD_REACTORS
330
5E
102
}
330
5E
100
DictionaryVariables
280
     0
  1
STANDARD
  0
DICTIONARYVAR
  5
5F
102
{ACAD_REACTORS
330
5E
102
}
330
5E
100
DictionaryVariables
280
     0
  1
2
  0
DICTIONARYVAR
  5
63
102
{ACAD_REACTORS
330
5E
102
}
330
5E
100
DictionaryVariables
280
     0
  1
1
  0
DICTIONARYVAR
  5
8B55
102
{ACAD_REACTORS
330
5E
102
}
330
5E
100
DictionaryVariables
280
     0
  1
0
  0
DICTIONARYVAR
  5
7A40
102
{ACAD_REACTORS
330
5E
102
}
330
5E
100
DictionaryVariables
280
     0
  1

  0
DICTIONARYVAR
  5
8B54
102
{ACAD_REACTORS
330
5E
102
}
330
5E
100
DictionaryVariables
280
     0
  1
127
  0
DICTIONARY
  5
9194
330
51
100
AcDbDictionary
280
     1
281
     1
  3
ACAD_XREC_ROUNDTRIP
360
9195
  0
DICTIONARY
  5
9196
330
56
100
AcDbDictionary
280
     1
281
     1
  3
ACAD_XREC_ROUNDTRIP
360
9197
  0
DICTIONARY
  5
9192
330
22
100
AcDbDictionary
280
     1
281
     1
  3
ACAD_XREC_ROUNDTRIP
360
9193
  0
DICTIONARY
  5
919A
330
8B37
100
AcDbDictionary
280
     1
281
     1
  3
ACAD_XREC_ROUNDTRIP
360
919B
  0
DICTIONARY
  5
9198
330
8B36
100
AcDbDictionary
280
     1
281
     1
  3
ACAD_XREC_ROUNDTRIP
360
9199
  0
DICTIONARY
  5
919C
330
8B38
100
AcDbDictionary
280
     1
281
     1
  3
ACAD_XREC_ROUNDTRIP
360
919D
  0
DICTIONARY
  5
919E
330
8B4B
100
AcDbDictionary
280
     1
281
     1
  3
ACAD_XREC_ROUNDTRIP
360
919F
  0
XRECORD
  5
9195
102
{ACAD_REACTORS
330
9194
102
}
330
9194
100
AcDbXrecord
280
     1
102
SHADEPLOT
 70
     0
102
SHADEPLOTRESLEVEL
 70
     2
102
SHADEPLOTCUSTOMDPI
 70
   300
  0
XRECORD
  5
9197
102
{ACAD_REACTORS
330
9196
102
}
330
9196
100
AcDbXrecord
280
     1
102
SHADEPLOT
 70
     0
102
SHADEPLOTRESLEVEL
 70
     2
102
SHADEPLOTCUSTOMDPI
 70
   300
  0
XRECORD
  5
9193
102
{ACAD_REACTORS
330
9192
102
}
330
9192
100
AcDbXrecord
280
     1
102
SHADEPLOT
 70
     1
102
SHADEPLOTRESLEVEL
 70
     2
102
SHADEPLOTCUSTOMDPI
 70
   300
  0
XRECORD
  5
919B
102
{ACAD_REACTORS
330
919A
102
}
330
919A
100
AcDbXrecord
280
     1
102
MATERIAL
148
0.0
149
0.0
149
0.0
 93
        0
 94
       63
282
     0
 72
     1
 77
     1
171
     1
175
     1
179
     1
273
     0
  0
XRECORD
  5
9199
102
{ACAD_REACTORS
330
9198
102
}
330
9198
100
AcDbXrecord
280
     1
102
MATERIAL
148
0.0
149
0.0
149
0.0
 93
        0
 94
       63
282
     0
 72
     1
 77
     1
171
     1
175
     1
179
     1
273
     0
  0
XRECORD
  5
919D
102
{ACAD_REACTORS
330
919C
102
}
330
919C
100
AcDbXrecord
280
     1
102
MATERIAL
148
0.0
149
0.0
149
0.0
 93
        0
 94
       63
282
     0
 72
     1
 77
     1
171
     1
175
     1
179
     1
273
     0
  0
XRECORD
  5
919F
102
{ACAD_REACTORS
330
919E
102
}
330
919E
100
AcDbXrecord
280
     1
102
ACAD_ROUNDTRIP_PRE2007_TABLESTYLE
 90
      512
 91
        0
  1

 92
      512
 93
        0
  2

 94
      512
 95
        0
  3

  0
ENDSEC
  0
EOF
