  0
SECTION
  2
HEADER
  9
$ACADVER
  1
AC1015
  9
$ACADMAINTVER
 70
    20
  9
$DWGCODEPAGE
  3
ANSI_1252
  9
$INSBASE
 10
0.0
 20
0.0
 30
0.0
  9
$EXTMIN
 10
1185.556762984221
 20
-15.0
 30
-0.00000001
  9
$EXTMAX
 10
1515.556762984221
 20
225.0
 30
0.00000001
  9
$LIMMIN
 10
0.0
 20
0.0
  9
$LIMMAX
 10
420.0
 20
297.0
  9
$ORTHOMODE
 70
     0
  9
$REGENMODE
 70
     1
  9
$FILLMODE
 70
     1
  9
$QTEXTMODE
 70
     0
  9
$MIRRTEXT
 70
     0
  9
$LTSCALE
 40
0.5
  9
$ATTMODE
 70
     1
  9
$TEXTSIZE
 40
2.5
  9
$TRACEWID
 40
1.0
  9
$TEXTSTYLE
  7
Standard
  9
$CLAYER
  8
10000_FRONT
  9
$CELTYPE
  6
ByLayer
  9
$CECOLOR
 62
   256
  9
$CELTSCALE
 40
1.0
  9
$DISPSILH
 70
     0
  9
$DIMSCALE
 40
1.0
  9
$DIMASZ
 40
3.5
  9
$DIMEXO
 40
0.0
  9
$DIMDLI
 40
10.0
  9
$DIMRND
 40
0.0
  9
$DIMDLE
 40
0.0
  9
$DIMEXE
 40
1.0
  9
$DIMTP
 40
0.1
  9
$DIMTM
 40
0.1
  9
$DIMTXT
 40
3.5
  9
$DIMCEN
 40
3.5
  9
$DIMTSZ
 40
0.0
  9
$DIMTOL
 70
     0
  9
$DIMLIM
 70
     0
  9
$DIMTIH
 70
     0
  9
$DIMTOH
 70
     0
  9
$DIMSE1
 70
     0
  9
$DIMSE2
 70
     0
  9
$DIMTAD
 70
     1
  9
$DIMZIN
 70
     8
  9
$DIMBLK
  1

  9
$DIMASO
 70
     1
  9
$DIMSHO
 70
     1
  9
$DIMPOST
  1

  9
$DIMAPOST
  1
"
  9
$DIMALT
 70
     0
  9
$DIMALTD
 70
     2
  9
$DIMALTF
 40
0.0393701
  9
$DIMLFAC
 40
1.0
  9
$DIMTOFL
 70
     1
  9
$DIMTVP
 40
0.0
  9
$DIMTIX
 70
     0
  9
$DIMSOXD
 70
     0
  9
$DIMSAH
 70
     0
  9
$DIMBLK1
  1

  9
$DIMBLK2
  1

  9
$DIMSTYLE
  2
DIN_3.5
  9
$DIMCLRD
 70
   256
  9
$DIMCLRE
 70
   256
  9
$DIMCLRT
 70
   256
  9
$DIMTFAC
 40
0.71
  9
$DIMGAP
 40
1.5
  9
$DIMJUST
 70
     0
  9
$DIMSD1
 70
     0
  9
$DIMSD2
 70
     0
  9
$DIMTOLJ
 70
     0
  9
$DIMTZIN
 70
     8
  9
$DIMALTZ
 70
     0
  9
$DIMALTTZ
 70
     0
  9
$DIMUPT
 70
     0
  9
$DIMDEC
 70
     1
  9
$DIMTDEC
 70
     1
  9
$DIMALTU
 70
     2
  9
$DIMALTTD
 70
     2
  9
$DIMTXSTY
  7
Standard
  9
$DIMAUNIT
 70
     0
  9
$DIMADEC
 70
     0
  9
$DIMALTRND
 40
0.0
  9
$DIMAZIN
 70
     2
  9
$DIMDSEP
 70
    44
  9
$DIMATFIT
 70
     3
  9
$DIMFRAC
 70
     0
  9
$DIMLDRBLK
  1

  9
$DIMLUNIT
 70
     2
  9
$DIMLWD
 70
    -1
  9
$DIMLWE
 70
    -1
  9
$DIMTMOVE
 70
     0
  9
$LUNITS
 70
     2
  9
$LUPREC
 70
     4
  9
$SKETCHINC
 40
1.0
  9
$FILLETRAD
 40
0.0
  9
$AUNITS
 70
     0
  9
$AUPREC
 70
     0
  9
$MENU
  1
.
  9
$ELEVATION
 40
0.0
  9
$PELEVATION
 40
0.0
  9
$THICKNESS
 40
0.0
  9
$LIMCHECK
 70
     0
  9
$CHAMFERA
 40
0.0
  9
$CHAMFERB
 40
0.0
  9
$CHAMFERC
 40
0.0
  9
$CHAMFERD
 40
0.0
  9
$SKPOLY
 70
     0
  9
$TDCREATE
 40
2454508.700060162
  9
$TDUCREATE
 40
2454508.658393495
  9
$TDUPDATE
 40
2454865.710561620
  9
$TDUUPDATE
 40
2454865.668894954
  9
$TDINDWG
 40
0.1583587963
  9
$TDUSRTIMER
 40
0.1583582523
  9
$USRTIMER
 70
     1
  9
$ANGBASE
 50
0.0
  9
$ANGDIR
 70
     0
  9
$PDMODE
 70
     0
  9
$PDSIZE
 40
0.0
  9
$PLINEWID
 40
0.0
  9
$SPLFRAME
 70
     0
  9
$SPLINETYPE
 70
     6
  9
$SPLINESEGS
 70
     8
  9
$HANDSEED
  5
4938
  9
$SURFTAB1
 70
     6
  9
$SURFTAB2
 70
     6
  9
$SURFTYPE
 70
     6
  9
$SURFU
 70
     6
  9
$SURFV
 70
     6
  9
$UCSBASE
  2

  9
$UCSNAME
  2

  9
$UCSORG
 10
0.0
 20
0.0
 30
0.0
  9
$UCSXDIR
 10
1.0
 20
0.0
 30
0.0
  9
$UCSYDIR
 10
0.0
 20
1.0
 30
0.0
  9
$UCSORTHOREF
  2

  9
$UCSORTHOVIEW
 70
     0
  9
$UCSORGTOP
 10
0.0
 20
0.0
 30
0.0
  9
$UCSORGBOTTOM
 10
0.0
 20
0.0
 30
0.0
  9
$UCSORGLEFT
 10
0.0
 20
0.0
 30
0.0
  9
$UCSORGRIGHT
 10
0.0
 20
0.0
 30
0.0
  9
$UCSORGFRONT
 10
0.0
 20
0.0
 30
0.0
  9
$UCSORGBACK
 10
0.0
 20
0.0
 30
0.0
  9
$PUCSBASE
  2

  9
$PUCSNAME
  2

  9
$PUCSORG
 10
0.0
 20
0.0
 30
0.0
  9
$PUCSXDIR
 10
1.0
 20
0.0
 30
0.0
  9
$PUCSYDIR
 10
0.0
 20
1.0
 30
0.0
  9
$PUCSORTHOREF
  2

  9
$PUCSORTHOVIEW
 70
     0
  9
$PUCSORGTOP
 10
0.0
 20
0.0
 30
0.0
  9
$PUCSORGBOTTOM
 10
0.0
 20
0.0
 30
0.0
  9
$PUCSORGLEFT
 10
0.0
 20
0.0
 30
0.0
  9
$PUCSORGRIGHT
 10
0.0
 20
0.0
 30
0.0
  9
$PUCSORGFRONT
 10
0.0
 20
0.0
 30
0.0
  9
$PUCSORGBACK
 10
0.0
 20
0.0
 30
0.0
  9
$USERI1
 70
     0
  9
$USERI2
 70
     0
  9
$USERI3
 70
     0
  9
$USERI4
 70
     0
  9
$USERI5
 70
     0
  9
$USERR1
 40
0.0
  9
$USERR2
 40
0.0
  9
$USERR3
 40
0.0
  9
$USERR4
 40
0.0
  9
$USERR5
 40
0.0
  9
$WORLDVIEW
 70
     1
  9
$SHADEDGE
 70
     3
  9
$SHADEDIF
 70
    70
  9
$TILEMODE
 70
     1
  9
$MAXACTVP
 70
    64
  9
$PINSBASE
 10
0.0
 20
0.0
 30
0.0
  9
$PLIMCHECK
 70
     0
  9
$PEXTMIN
 10
-0.9936687586021831
 20
20.36233246326448
 30
0.0
  9
$PEXTMAX
 10
272.7693535763502
 20
196.7317955205857
 30
0.0
  9
$PLIMMIN
 10
-3.17498779296875
 20
-3.174999952316281
  9
$PLIMMAX
 10
293.8356628417969
 20
206.7983276844024
  9
$UNITMODE
 70
     0
  9
$VISRETAIN
 70
     1
  9
$PLINEGEN
 70
     0
  9
$PSLTSCALE
 70
     1
  9
$TREEDEPTH
 70
  3020
  9
$CMLSTYLE
  2
Standard
  9
$CMLJUST
 70
     0
  9
$CMLSCALE
 40
20.0
  9
$PROXYGRAPHICS
 70
     1
  9
$MEASUREMENT
 70
     1
  9
$CELWEIGHT
370
    -1
  9
$ENDCAPS
280
     0
  9
$JOINSTYLE
280
     0
  9
$LWDISPLAY
290
     1
  9
$INSUNITS
 70
     4
  9
$HYPERLINKBASE
  1

  9
$STYLESHEET
  1

  9
$XEDIT
290
     1
  9
$CEPSNTYPE
380
     0
  9
$PSTYLEMODE
290
     1
  9
$FINGERPRINTGUID
  2
{50A4FE5B-C6E4-4C38-AC8C-BFBE6D3655E5}
  9
$VERSIONGUID
  2
{A12A7099-2061-4E1B-91FC-D49549E576C9}
  9
$EXTNAMES
290
     1
  9
$PSVPSCALE
 40
0.0
  9
$OLESTARTUP
290
     0
  0
ENDSEC
  0
SECTION
  2
CLASSES
  0
CLASS
  1
ACDBDICTIONARYWDFLT
  2
AcDbDictionaryWithDefault
  3
ObjectDBX Classes
 90
        0
280
     0
281
     0
  0
CLASS
  1
MATERIAL
  2
AcDbMaterial
  3
ObjectDBX Classes
 90
     1153
280
     0
281
     0
  0
CLASS
  1
VISUALSTYLE
  2
AcDbVisualStyle
  3
ObjectDBX Classes
 90
     4095
280
     0
281
     0
  0
CLASS
  1
TABLESTYLE
  2
AcDbTableStyle
  3
ObjectDBX Classes
 90
     4095
280
     0
281
     0
  0
CLASS
  1
DICTIONARYVAR
  2
AcDbDictionaryVar
  3
ObjectDBX Classes
 90
        0
280
     0
281
     0
  0
CLASS
  1
ACAD_EVALUATION_GRAPH
  2
AcDbEvalGraph
  3
ObjectDBX Classes
 90
     1153
280
     0
281
     0
  0
CLASS
  1
ACAECUSTOBJ
  2
AcAeEditorObj
  3
AcAeEditorObj
 90
    33792
280
     0
281
     0
  0
CLASS
  1
BLOCKPOINTPARAMETER
  2
AcDbBlockPointParameter
  3
ObjectDBX Classes
 90
    33921
280
     0
281
     0
  0
CLASS
  1
BLOCKXYGRIP
  2
AcDbBlockXYGrip
  3
ObjectDBX Classes
 90
    33921
280
     0
281
     0
  0
CLASS
  1
BLOCKGRIPLOCATIONCOMPONENT
  2
AcDbBlockGripExpr
  3
ObjectDBX Classes
 90
    33921
280
     0
281
     0
  0
CLASS
  1
XYGRIPENTITY
  2
AcDbBlockXYGripEntity
  3
ObjectDBX Classes
 90
    33793
280
     0
281
     1
  0
CLASS
  1
ACAEEEMGROBJ
  2
AcAeEEMgrObj
  3
AcAeEEMgrObj
 90
    33792
280
     0
281
     0
  0
CLASS
  1
POINTPARAMETERENTITY
  2
AcDbBlockPointParameterEntity
  3
ObjectDBX Classes
 90
    33793
280
     0
281
     1
  0
CLASS
  1
BLOCKMOVEACTION
  2
AcDbBlockMoveAction
  3
ObjectDBX Classes
 90
    33921
280
     0
281
     0
  0
CLASS
  1
MOVEACTIONENTITY
  2
AcDbBlockMoveActionEntity
  3
ObjectDBX Classes
 90
    33793
280
     0
281
     1
  0
CLASS
  1
ACDB_DYNAMICBLOCKPURGEPREVENTER_VERSION
  2
AcDbDynamicBlockPurgePreventer
  3
ObjectDBX Classes
 90
     1153
280
     0
281
     0
  0
CLASS
  1
ACDB_BLOCKREPRESENTATION_DATA
  2
AcDbBlockRepresentationData
  3
ObjectDBX Classes
 90
     1153
280
     0
281
     0
  0
CLASS
  1
SORTENTSTABLE
  2
AcDbSortentsTable
  3
ObjectDBX Classes
 90
        0
280
     0
281
     0
  0
CLASS
  1
DIMASSOC
  2
AcDbDimAssoc
  3
"AcDbDimAssoc|Product Desc:     AcDim ARX App For Dimension|Company:          Autodesk, Inc.|WEB Address:      www.autodesk.com"
 90
        0
280
     0
281
     0
  0
CLASS
  1
SOLID_BACKGROUND
  2
AcDbSolidBackground
  3
SCENEOE
 90
    36863
280
     0
281
     0
  0
CLASS
  1
NPOCOLLECTION
  2
AcDbImpNonPersistentObjectsCollection
  3
ObjectDBX Classes
 90
    33921
280
     0
281
     0
  0
CLASS
  1
BLOCKBASEPOINTPARAMETER
  2
AcDbBlockBasepointParameter
  3
ObjectDBX Classes
 90
     1153
280
     0
281
     0
  0
CLASS
  1
BASEPOINTPARAMETERENTITY
  2
AcDbBlockBasepointParameterEntity
  3
ObjectDBX Classes
 90
    33793
280
     0
281
     1
  0
CLASS
  1
ACDBPLACEHOLDER
  2
AcDbPlaceHolder
  3
ObjectDBX Classes
 90
        0
280
     0
281
     0
  0
CLASS
  1
LAYOUT
  2
AcDbLayout
  3
ObjectDBX Classes
 90
        0
280
     0
281
     0
  0
CLASS
  1
SCALE
  2
AcDbScale
  3
ObjectDBX Classes
 90
     1153
280
     0
281
     0
  0
CLASS
  1
MLEADERSTYLE
  2
AcDbMLeaderStyle
  3
ACDB_MLEADERSTYLE_CLASS
 90
     4095
280
     0
281
     0
  0
CLASS
  1
CELLSTYLEMAP
  2
AcDbCellStyleMap
  3
ObjectDBX Classes
 90
     1152
280
     0
281
     0
  0
CLASS
  1
ACME_DOCUMENT
  2
AcMeDbDoc
  3
AcMeServices
 90
    33792
280
     0
281
     0
  0
CLASS
  1
AMGSETTINGSOBJ
  2
AmgSettingsObj
  3
"AcadM|Product Description: AutoCAD Mechanical|Company: Autodesk, Inc."
 90
    33792
280
     0
281
     0
  0
CLASS
  1
ACMESCOPE
  2
AcMeScope
  3
AcMeServices
 90
    33792
280
     0
281
     0
  0
CLASS
  1
ACMECOMMANDHISTORY
  2
AcMeCommandHistory
  3
AcMeServices
 90
    33792
280
     0
281
     0
  0
CLASS
  1
ACIMSYSVARMAN
  2
AcImSysVarManager
  3
AcMeServices
 90
    33792
280
     0
281
     0
  0
CLASS
  1
ACIMINTSYSVAR
  2
AcImIntSysVar
  3
AcMeServices
 90
    33792
280
     0
281
     0
  0
CLASS
  1
ACMEDRAWINGMAN
  2
AcMeDrawingMan
  3
AcMeServices
 90
    33792
280
     0
281
     0
  0
CLASS
  1
ACMEVIEW
  2
AcMeView
  3
AcMeServices
 90
    33792
280
     0
281
     0
  0
CLASS
  1
ACDBENTITYCACHE
  2
AcMeEntityCache
  3
AcMeServices
 90
    33792
280
     0
281
     0
  0
CLASS
  1
GSMANAGER
  2
AcMeGSManager
  3
AcMeServices
 90
    33792
280
     0
281
     0
  0
CLASS
  1
AMDTINTERNALREACTOR
  2
AmdtInternalReactor
  3
AcMeServices
 90
    33792
280
     0
281
     0
  0
CLASS
  1
ACMESTATEMGR
  2
AcMeStateMgr
  3
AcMeServices
 90
    33792
280
     0
281
     0
  0
CLASS
  1
ACGREFMASTER
  2
AcGrefMaster
  3
AcAttribServices
 90
    33792
280
     0
281
     0
  0
CLASS
  1
AM_DRAWING_MGR
  2
AcDmDwgMgr
  3
AcMechDwgViewMgmt
 90
    33792
280
     0
281
     0
  0
CLASS
  1
AM_DWG_DOCUMENT
  2
AcDmDwgDocument
  3
AcMechDwgViewMgmt
 90
    33792
280
     0
281
     0
  0
CLASS
  1
AM_DWG_SHEET
  2
AcDmSheet
  3
AcMechDwgViewMgmt
 90
    33792
280
     0
281
     0
  0
CLASS
  1
AM_VIEWDIMPARMAP
  2
AcDmViewDimParMap
  3
AcMechDwgViewMgmt
 90
    33792
280
     0
281
     0
  0
CLASS
  1
ACIMREALSYSVAR
  2
AcImRealSysVar
  3
AcMeServices
 90
    33792
280
     0
281
     0
  0
CLASS
  1
AM_DWGMGR_NAME
  2
AcDmDwgMgrName
  3
AcMechDwgViewMgmt
 90
    33792
280
     0
281
     0
  0
CLASS
  1
ACME_DATABASE
  2
AcMeDbDatabase
  3
AcMeServices
 90
    33792
280
     0
281
     0
  0
CLASS
  1
ACRFINSADJUSTERMGR
  2
AcRfInsAdjusterMgr
  3
AcMeServices
 90
    33792
280
     0
281
     0
  0
CLASS
  1
ACGREFACADMASTER
  2
AcGrefacadMaster
  3
AcGrefServices
 90
    33792
280
     0
281
     0
  0
CLASS
  1
AMDTMENUSTATEMGR
  2
AmdtMenuStateMgr
  3
McadcomServices
 90
    33792
280
     0
281
     0
  0
CLASS
  1
AMDTMCOMMENUSTATE
  2
AmdtMcomMenuState
  3
McadcomServices
 90
    33792
280
     0
281
     0
  0
CLASS
  1
AMIMASTER
  2
AmiMaster
  3
AmiServices
 90
    33792
280
     0
281
     0
  0
CLASS
  1
MAPIAMMOUDLE
  2
MApiAmModule
  3
MApiAmServices
 90
    33792
280
     0
281
     0
  0
CLASS
  1
ACIMSTRSYSVAR
  2
AcImStrSysVar
  3
AcMeServices
 90
    33792
280
     0
281
     0
  0
CLASS
  1
AMDTADMENUSTATE
  2
AmdtAdMenuState
  3
DesignerServices
 90
    33792
280
     0
281
     0
  0
CLASS
  1
ADAPPL
  2
AcAdAppl
  3
DesignerServices
 90
    33792
280
     0
281
     0
  0
CLASS
  1
DEPMGR
  2
AcAdDepMgr
  3
DesignerServices
 90
    33792
280
     0
281
     0
  0
CLASS
  1
PARAMMGR
  2
AcAdParamMgr
  3
DesignerServices
 90
    33792
280
     0
281
     0
  0
CLASS
  1
PARAMSCOPE
  2
AcAdParamScope
  3
DesignerServices
 90
    33792
280
     0
281
     0
  0
CLASS
  1
NAMEDAPPL
  2
AcAdNamedAppl
  3
DesignerServices
 90
    33792
280
     0
281
     0
  0
CLASS
  1
AMDTDMMENUSTATE
  2
AmdtDmMenuState
  3
AcMechDwgViewMgmt
 90
    33792
280
     0
281
     0
  0
CLASS
  1
AMDTAMMENUSTATE
  2
AmdtAmMenuState
  3
DesignerAssemblies
 90
    33792
280
     0
281
     0
  0
CLASS
  1
ACAMPROJECT
  2
AcAmProject
  3
DesignerAssemblies
 90
    33792
280
     0
281
     0
  0
CLASS
  1
ACAMGRCOMPDEF
  2
AcAmGrCompDef
  3
DesignerAssemblies
 90
    33792
280
     0
281
     0
  0
CLASS
  1
ACCMCONTEXT
  2
AcCmContext
  3
DesignerAssemblies
 90
    33792
280
     0
281
     0
  0
CLASS
  1
ACAMCOMPDEF
  2
AcAmCompDef
  3
DesignerAssemblies
 90
    33792
280
     0
281
     0
  0
CLASS
  1
ACAMCOMPDEFMGR
  2
AcAmCompDefMgr
  3
DesignerAssemblies
 90
    33792
280
     0
281
     0
  0
CLASS
  1
AMCONTEXTMGR
  2
AcAmContextMgr
  3
DesignerAssemblies
 90
    33792
280
     0
281
     0
  0
CLASS
  1
ACAMCONTEXTMODELER
  2
AcAmContextModeler
  3
DesignerAssemblies
 90
    33792
280
     0
281
     0
  0
CLASS
  1
ACMDATADICTIONARY
  2
AcmDataDictionary
  3
"AcmSymBB|Product Description: AutoCAD Mechanical|Company: Autodesk, Inc."
 90
    33792
280
     0
281
     0
  0
CLASS
  1
CATALOGSTATE
  2
AcAmCatalogState
  3
DesignerAssemblies
 90
    33792
280
     0
281
     0
  0
CLASS
  1
ACAMGRCOMPDEFSET
  2
AcAmGrCompDefSet
  3
DesignerAssemblies
 90
    33792
280
     0
281
     0
  0
CLASS
  1
AMDTBROWSERDBTAB
  2
AmdtBrowserDbTab
  3
McadcomServices
 90
    33792
280
     0
281
     0
  0
CLASS
  1
CBROWSERAPPOBJECT
  2
CBrowserAppObject
  3
McadcomServices
 90
    33792
280
     0
281
     0
  0
CLASS
  1
DM_PLACEHOLDER
  2
AcDmSelsetPlaceholder
  3
AcMechDwgViewMgmt
 90
    33792
280
     0
281
     0
  0
CLASS
  1
ACMSTANDARDISO
  2
AcmStandardISO
  3
"Amdt_StdImp|Product Description: AutoCAD Mechanical|Company: Autodesk, Inc."
 90
    33792
280
     0
281
     0
  0
CLASS
  1
AMDTEDGESTANDARDISO13715
  2
AmdtEdgeStdISO13715
  3
"Amdt_StdImp|Product Description: AutoCAD Mechanical|Company: Autodesk, Inc."
 90
    33792
280
     0
281
     0
  0
CLASS
  1
ACMSURFSTANDARDISO2002
  2
AcmSurfTextStdISO2002
  3
"Amdt_StdImp|Product Description: AutoCAD Mechanical|Company: Autodesk, Inc."
 90
    33792
280
     0
281
     0
  0
CLASS
  1
ACMFCFSTANDARDISO
  2
AcmFCFStdISO
  3
"Amdt_StdImp|Product Description: AutoCAD Mechanical|Company: Autodesk, Inc."
 90
    33792
280
     0
281
     0
  0
CLASS
  1
ACMWELDSTANDARDISO
  2
AcmWeldingStdISO
  3
"Amdt_StdImp|Product Description: AutoCAD Mechanical|Company: Autodesk, Inc."
 90
    33792
280
     0
281
     0
  0
CLASS
  1
ACMIDSTANDARDISO
  2
AcmIdStdISO
  3
"Amdt_StdImp|Product Description: AutoCAD Mechanical|Company: Autodesk, Inc."
 90
    33792
280
     0
281
     0
  0
CLASS
  1
ACMDATUMSTANDARDISO
  2
AcmDatumStdISO
  3
"Amdt_StdImp|Product Description: AutoCAD Mechanical|Company: Autodesk, Inc."
 90
    33792
280
     0
281
     0
  0
CLASS
  1
ACMBOMSTANDARDISO
  2
AcmBOMStdISO
  3
"Amdt_StdImp|Product Description: AutoCAD Mechanical|Company: Autodesk, Inc."
 90
    33792
280
     0
281
     0
  0
CLASS
  1
ACMDETAILSTANDARDISO
  2
AmdtDetailSymStdISO
  3
"Amdt_StdImp|Product Description: AutoCAD Mechanical|Company: Autodesk, Inc."
 90
    33792
280
     0
281
     0
  0
CLASS
  1
ACMSECTIONSTANDARDISO2001
  2
AmdtSectionSymStdISO2001
  3
"Amdt_StdImp|Product Description: AutoCAD Mechanical|Company: Autodesk, Inc."
 90
    33792
280
     0
281
     0
  0
CLASS
  1
ACMCENTERLINESTANDARDISO
  2
AmdtCenterLineStdISO
  3
"Amdt_StdImp|Product Description: AutoCAD Mechanical|Company: Autodesk, Inc."
 90
    33792
280
     0
281
     0
  0
CLASS
  1
ACMTHREADLINESTANDARDISO
  2
AmdtThreadLineStdISO
  3
"Amdt_StdImp|Product Description: AutoCAD Mechanical|Company: Autodesk, Inc."
 90
    33792
280
     0
281
     0
  0
CLASS
  1
ACMNOTESTANDARDISO
  2
AmdtNoteStdISO
  3
"Amdt_StdImp|Product Description: AutoCAD Mechanical|Company: Autodesk, Inc."
 90
    33792
280
     0
281
     0
  0
CLASS
  1
ACMTAPERSTANDARDISO
  2
AcmTaperStdISO
  3
"Amdt_StdImp|Product Description: AutoCAD Mechanical|Company: Autodesk, Inc."
 90
    33792
280
     0
281
     0
  0
CLASS
  1
ACMANOOTATIONVIEWSTANDARDISO
  2
AmdtAnViewStdISO
  3
"Amdt_StdImp|Product Description: AutoCAD Mechanical|Company: Autodesk, Inc."
 90
    33792
280
     0
281
     0
  0
CLASS
  1
ACAMGLAYSTD
  2
AcAmgLayStd
  3
"AmgLay|Product Description: AutoCAD Mechanical|Company: Autodesk, Inc."
 90
    33792
280
     0
281
     0
  0
CLASS
  1
ACAMGDIMSTD
  2
AcAmgDimStd
  3
"AmgDim|Product Description: AutoCAD Mechanical|Company: Autodesk, Inc."
 90
    33792
280
     0
281
     0
  0
CLASS
  1
ACAMGHOLECHARTSTDISO
  2
AcAmgHoleChartStdISO
  3
AmgDim|Product Description: AutoCAD Mechanical|Company: Autodesk, Inc.
 90
    33792
280
     0
281
     0
  0
CLASS
  1
AMGOBJPROPCFG
  2
AmgObjPropCfg
  3
"AmgLay|Product Description: AutoCAD Mechanical|Company: Autodesk, Inc."
 90
    33793
280
     0
281
     0
  0
CLASS
  1
ACAMGTITLESTD
  2
AcAmgTitleStd
  3
"AmgTitle|Product Description: AutoCAD Mechanical|Company: Autodesk, Inc."
 90
    36863
280
     0
281
     0
  0
CLASS
  1
AMDTNOTETEMPLATEDB
  2
AmdtNoteTemplateDB
  3
AcmSymBB|Product Description: AutoCAD Mechanical|Company: Autodesk, Inc.
 90
    33792
280
     0
281
     0
  0
CLASS
  1
CAMSSTRUCTBTNSTATE
  2
StructBtnState
  3
DesignerAssemblies
 90
    33792
280
     0
281
     0
  0
CLASS
  1
ACAMGFILTERDAT
  2
AcAmgFilterDat
  3
"AcadM|Product Description: AutoCAD Mechanical|Company: Autodesk, Inc."
 90
    33792
280
     0
281
     0
  0
ENDSEC
  0
SECTION
  2
TABLES
  0
TABLE
  2
VPORT
  5
8
330
0
100
AcDbSymbolTable
 70
     1
  0
VPORT
  5
28
330
8
100
AcDbSymbolTableRecord
100
AcDbViewportTableRecord
  2
*Active
 70
     0
 10
0.0
 20
0.0
 11
1.0
 21
1.0
 12
1411.257676889679
 22
62.81933707913314
 13
0.0
 23
0.0
 14
10.0
 24
10.0
 15
10.0
 25
10.0
 16
0.0
 26
0.0
 36
1.0
 17
0.0
 27
0.0
 37
0.0
 40
265.4598637162341
 41
1.918640576725025
 42
50.0
 43
0.0
 44
0.0
 50
0.0
 51
0.0
 71
     0
 72
  1000
 73
     1
 74
     3
 75
     0
 76
     0
 77
     0
 78
     0
281
     0
 65
     1
110
0.0
120
0.0
130
0.0
111
1.0
121
0.0
131
0.0
112
0.0
122
1.0
132
0.0
 79
     0
146
0.0
  0
ENDTAB
  0
TABLE
  2
LTYPE
  5
5
330
0
100
AcDbSymbolTable
 70
    25
  0
LTYPE
  5
29
330
5
100
AcDbSymbolTableRecord
100
AcDbLinetypeTableRecord
  2
ByBlock
 70
     0
  3

 72
    65
 73
     0
 40
0.0
  0
LTYPE
  5
2A
330
5
100
AcDbSymbolTableRecord
100
AcDbLinetypeTableRecord
  2
ByLayer
 70
     0
  3

 72
    65
 73
     0
 40
0.0
  0
LTYPE
  5
2B
330
5
100
AcDbSymbolTableRecord
100
AcDbLinetypeTableRecord
  2
Continuous
 70
     0
  3
Solid line
 72
    65
 73
     0
 40
0.0
  0
LTYPE
  5
1781
330
5
100
AcDbSymbolTableRecord
100
AcDbLinetypeTableRecord
  2
HIDDEN
 70
     0
  3
Verdeckt
 72
    65
 73
     2
 40
9.525
 49
6.349999999999997
 74
     0
 49
-3.174999999999998
 74
     0
  0
LTYPE
  5
1782
330
5
100
AcDbSymbolTableRecord
100
AcDbLinetypeTableRecord
  2
PHANTOM2
 70
     0
  3
Phantom (.5x) ___ _ _ ___ _ _ ___ _ _ ___ _ _
 72
    65
 73
     6
 40
31.75
 49
15.875
 74
     0
 49
-3.174999999999998
 74
     0
 49
3.174999999999998
 74
     0
 49
-3.174999999999998
 74
     0
 49
3.174999999999998
 74
     0
 49
-3.174999999999998
 74
     0
  0
LTYPE
  5
1783
330
5
100
AcDbSymbolTableRecord
100
AcDbLinetypeTableRecord
  2
CENTER
 70
     0
  3
Mitte ____ _ ____ _ ____ _ ____ _ ____ _ ____
 72
    65
 73
     4
 40
50.8
 49
31.75
 74
     0
 49
-6.349999999999997
 74
     0
 49
6.349999999999997
 74
     0
 49
-6.349999999999997
 74
     0
  0
LTYPE
  5
1784
330
5
100
AcDbSymbolTableRecord
100
AcDbLinetypeTableRecord
  2
Amconstr
 70
     0
  3
_______________________
 72
    65
 73
     2
 40
9999.0
 49
9999.0
 74
     0
 49
0.0
 74
     0
  0
LTYPE
  5
1785
330
5
100
AcDbSymbolTableRecord
100
AcDbLinetypeTableRecord
  2
Amzigzag
 70
     0
  3
/\/-/\/-/\/-/\/-/\/-/\/
 72
    65
 73
     2
 40
11.0001
 49
0.0001
 74
     4
 75
   135
340
17C7
 46
0.04
 50
0.0
 44
0.0
 45
0.0
 49
-11.0
 74
     0
  0
LTYPE
  5
1786
330
5
100
AcDbSymbolTableRecord
100
AcDbLinetypeTableRecord
  2
AM_DIN_F_W050
 70
     0
  3
__ __ __ __ __ __ __ __ __ __ __ __ __ __ __
 72
    65
 73
     2
 40
6.25
 49
4.75
 74
     0
 49
-1.5
 74
     0
  0
LTYPE
  5
1787
330
5
100
AcDbSymbolTableRecord
100
AcDbLinetypeTableRecord
  2
AM_DIN_G_W050
 70
     0
  3
____ . ____ . ____ . ____ . ____ . ____ . ____
 72
    65
 73
     4
 40
13.75
 49
9.75
 74
     0
 49
-1.5
 74
     0
 49
1.0
 74
     0
 49
-1.5
 74
     0
  0
LTYPE
  5
1788
330
5
100
AcDbSymbolTableRecord
100
AcDbLinetypeTableRecord
  2
AM_DIN_K_W050
 70
     0
  3
_____ . . _____ . . _____ . . ____ .. ____
 72
    65
 73
     6
 40
16.25
 49
9.75
 74
     0
 49
-1.5
 74
     0
 49
1.0
 74
     0
 49
-1.5
 74
     0
 49
1.0
 74
     0
 49
-1.5
 74
     0
  0
LTYPE
  5
1789
330
5
100
AcDbSymbolTableRecord
100
AcDbLinetypeTableRecord
  2
AM_DIN_G_W050x2
 70
     0
  3
__ . __ . __ . __ . __ . __
 72
    65
 73
     4
 40
6.875
 49
4.75
 74
     0
 49
-0.875
 74
     0
 49
0.375
 74
     0
 49
-0.875
 74
     0
  0
LTYPE
  5
178A
330
5
100
AcDbSymbolTableRecord
100
AcDbLinetypeTableRecord
  2
AM_DIN_F_W050x2
 70
     0
  3
 _ _ _ _ _ _ _ _ _ _ _ _
 72
    65
 73
     2
 40
3.125
 49
2.25
 74
     0
 49
-0.875
 74
     0
  0
LTYPE
  5
178B
330
5
100
AcDbSymbolTableRecord
100
AcDbLinetypeTableRecord
  2
ACDINWELD
 70
     0
  3
_ _ _ _ _
 72
    65
 73
     2
 40
2.0
 49
2.0
 74
     0
 49
-1.0
 74
     0
  0
LTYPE
  5
178C
330
5
100
AcDbSymbolTableRecord
100
AcDbLinetypeTableRecord
  2
ACDINTGB
 70
     0
  3
__ . . __ . .
 72
    65
 73
     6
 40
9.0
 49
4.0
 74
     0
 49
-1.0
 74
     0
 49
1.0
 74
     0
 49
-1.0
 74
     0
 49
1.0
 74
     0
 49
-1.0
 74
     0
  0
LTYPE
  5
178D
330
5
100
AcDbSymbolTableRecord
100
AcDbLinetypeTableRecord
  2
ACDINTGL
 70
     0
  3
_ _ _ _ _
 72
    65
 73
     2
 40
3.0
 49
2.0
 74
     0
 49
-1.0
 74
     0
  0
LTYPE
  5
178E
330
5
100
AcDbSymbolTableRecord
100
AcDbLinetypeTableRecord
  2
ACAD_ISO10W100
 70
     0
  3
ISO Strichpunktlinie __ . __ . __ . __ . __ . _
 72
    65
 73
     4
 40
18.0
 49
12.0
 74
     0
 49
-3.0
 74
     0
 49
0.0
 74
     0
 49
-3.0
 74
     0
  0
LTYPE
  5
178F
330
5
100
AcDbSymbolTableRecord
100
AcDbLinetypeTableRecord
  2
ASULTYPE
 70
     0
  3
Ausgezogene Linie
 72
    65
 73
     2
 40
3.0
 49
2.5
 74
     0
 49
0.5
 74
     0
  0
LTYPE
  5
1790
330
5
100
AcDbSymbolTableRecord
100
AcDbLinetypeTableRecord
  2
ASVLTYPE
 70
     0
  3
__ __ __ __ __ __ __ __ __ __ __ __ __ __ __ __ __ __ __ __ __
 72
    65
 73
     2
 40
0.75
 49
0.5
 74
     0
 49
-0.25
 74
     0
  0
LTYPE
  5
453B
330
5
100
AcDbSymbolTableRecord
100
AcDbLinetypeTableRecord
  2
AM_ISO02W050
 70
     0
  3
__ __ __ __ __ __ __ __ __ __ __ __ __ __ __
 72
    65
 73
     2
 40
7.5
 49
6.0
 74
     0
 49
-1.5
 74
     0
  0
LTYPE
  5
453C
330
5
100
AcDbSymbolTableRecord
100
AcDbLinetypeTableRecord
  2
AM_ISO08W050
 70
     0
  3
____ . ____ . ____ . ____ . ____ . ____ . ____
 72
    65
 73
     4
 40
18.0
 49
12.0
 74
     0
 49
-1.5
 74
     0
 49
3.0
 74
     0
 49
-1.5
 74
     0
  0
LTYPE
  5
453D
330
5
100
AcDbSymbolTableRecord
100
AcDbLinetypeTableRecord
  2
AM_ISO09W050
 70
     0
  3
_____ . . _____ . . _____ . . ____ .. ____
 72
    65
 73
     6
 40
22.5
 49
12.0
 74
     0
 49
-1.5
 74
     0
 49
3.0
 74
     0
 49
-1.5
 74
     0
 49
3.0
 74
     0
 49
-1.5
 74
     0
  0
LTYPE
  5
453E
330
5
100
AcDbSymbolTableRecord
100
AcDbLinetypeTableRecord
  2
AM_ISO08W050x2
 70
     0
  3
__ . __ . __ . __ . __ . __
 72
    65
 73
     4
 40
9.0
 49
6.0
 74
     0
 49
-0.75
 74
     0
 49
1.5
 74
     0
 49
-0.75
 74
     0
  0
LTYPE
  5
453F
330
5
100
AcDbSymbolTableRecord
100
AcDbLinetypeTableRecord
  2
AM_ISO02W050x2
 70
     0
  3
 _ _ _ _ _ _ _ _ _ _ _ _
 72
    65
 73
     2
 40
3.75
 49
3.0
 74
     0
 49
-0.75
 74
     0
  0
LTYPE
  5
4543
330
5
100
AcDbSymbolTableRecord
100
AcDbLinetypeTableRecord
  2
ACISOWELD
 70
     0
  3
_ _ _ _ _
 72
    65
 73
     2
 40
2.0
 49
2.0
 74
     0
 49
-1.0
 74
     0
  0
LTYPE
  5
4544
330
5
100
AcDbSymbolTableRecord
100
AcDbLinetypeTableRecord
  2
ACISOTGB
 70
     0
  3
__ . . __ . .
 72
    65
 73
     6
 40
9.0
 49
4.0
 74
     0
 49
-1.0
 74
     0
 49
1.0
 74
     0
 49
-1.0
 74
     0
 49
1.0
 74
     0
 49
-1.0
 74
     0
  0
LTYPE
  5
4545
330
5
100
AcDbSymbolTableRecord
100
AcDbLinetypeTableRecord
  2
ACISOTGL
 70
     0
  3
_ _ _ _ _
 72
    65
 73
     2
 40
3.0
 49
2.0
 74
     0
 49
-1.0
 74
     0
  0
ENDTAB
  0
TABLE
  2
LAYER
  5
2
102
{ACAD_XDICTIONARY
360
B73
102
}
330
0
100
AcDbSymbolTable
 70
    57
  0
LAYER
  5
25
102
{ACAD_XDICTIONARY
360
443F
102
}
330
2
100
AcDbSymbolTableRecord
100
AcDbLayerTableRecord
  2
0
 70
     0
 62
     7
  6
Continuous
370
    -3
390
F
  0
LAYER
  5
110
330
2
100
AcDbSymbolTableRecord
100
AcDbLayerTableRecord
  2
Defpoints
 70
     0
 62
     7
  6
Continuous
290
     0
370
    -3
390
F
  0
LAYER
  5
1791
102
{ACAD_XDICTIONARY
360
4441
102
}
330
2
100
AcDbSymbolTableRecord
100
AcDbLayerTableRecord
  2
90100_FRAME_THICK
 70
     0
 62
     7
  6
Continuous
370
    -3
390
F
  0
LAYER
  5
1792
102
{ACAD_XDICTIONARY
360
4443
102
}
330
2
100
AcDbSymbolTableRecord
100
AcDbLayerTableRecord
  2
90000_FRAME_THIN
 70
     0
 62
     7
  6
Continuous
370
    -3
390
F
  0
LAYER
  5
1793
102
{ACAD_XDICTIONARY
360
4445
102
}
330
2
100
AcDbSymbolTableRecord
100
AcDbLayerTableRecord
  2
90200_FRAME_SIZE
 70
     0
 62
     3
  6
AM_DIN_K_W050
370
    -3
390
F
  0
LAYER
  5
1794
102
{ACAD_XDICTIONARY
360
4447
102
}
330
2
100
AcDbSymbolTableRecord
100
AcDbLayerTableRecord
  2
92000_TITLE
 70
     0
 62
     7
  6
Continuous
370
    -3
390
F
  0
LAYER
  5
1795
102
{ACAD_XDICTIONARY
360
4449
102
}
330
2
100
AcDbSymbolTableRecord
100
AcDbLayerTableRecord
  2
91100_TIP_SYM
 70
     0
 62
     7
  6
CENTER
370
    -3
390
F
  0
LAYER
  5
1796
102
{ACAD_XDICTIONARY
360
444B
102
}
330
2
100
AcDbSymbolTableRecord
100
AcDbLayerTableRecord
  2
91000_TIP
 70
     0
 62
     7
  6
Continuous
370
    -3
390
F
  0
LAYER
  5
1797
102
{ACAD_XDICTIONARY
360
444D
102
}
330
2
100
AcDbSymbolTableRecord
100
AcDbLayerTableRecord
  2
91200_TIP_SYMB
 70
     0
 62
     7
  6
Continuous
370
    -3
390
F
  0
LAYER
  5
1798
102
{ACAD_XDICTIONARY
360
444F
102
}
330
2
100
AcDbSymbolTableRecord
100
AcDbLayerTableRecord
  2
10000_FRONT
 70
     0
 62
     7
  6
Continuous
370
    -3
390
F
  0
LAYER
  5
1799
102
{ACAD_XDICTIONARY
360
4451
102
}
330
2
100
AcDbSymbolTableRecord
100
AcDbLayerTableRecord
  2
11000_LEFT
 70
     0
 62
     7
  6
Continuous
370
    -3
390
F
  0
LAYER
  5
179A
102
{ACAD_XDICTIONARY
360
4453
102
}
330
2
100
AcDbSymbolTableRecord
100
AcDbLayerTableRecord
  2
12000_RIGHT
 70
     0
 62
     7
  6
Continuous
370
    -3
390
F
  0
LAYER
  5
179B
102
{ACAD_XDICTIONARY
360
4455
102
}
330
2
100
AcDbSymbolTableRecord
100
AcDbLayerTableRecord
  2
13000_TOP
 70
     0
 62
     7
  6
Continuous
370
    -3
390
F
  0
LAYER
  5
179C
102
{ACAD_XDICTIONARY
360
4457
102
}
330
2
100
AcDbSymbolTableRecord
100
AcDbLayerTableRecord
  2
14000_BOTTOM
 70
     0
 62
     7
  6
Continuous
370
    -3
390
F
  0
LAYER
  5
179D
102
{ACAD_XDICTIONARY
360
4459
102
}
330
2
100
AcDbSymbolTableRecord
100
AcDbLayerTableRecord
  2
15000_BACK
 70
     0
 62
     7
  6
Continuous
370
    -3
390
F
  0
LAYER
  5
179E
102
{ACAD_XDICTIONARY
360
445B
102
}
330
2
100
AcDbSymbolTableRecord
100
AcDbLayerTableRecord
  2
40000_ISO
 70
     0
 62
     7
  6
Continuous
370
    -3
390
F
  0
LAYER
  5
179F
102
{ACAD_XDICTIONARY
360
445D
102
}
330
2
100
AcDbSymbolTableRecord
100
AcDbLayerTableRecord
  2
41000_DIMT
 70
     0
 62
     7
  6
Continuous
370
    -3
390
F
  0
LAYER
  5
17A0
102
{ACAD_XDICTIONARY
360
445F
102
}
330
2
100
AcDbSymbolTableRecord
100
AcDbLayerTableRecord
  2
30000_DRILLING
 70
     0
 62
     7
  6
Continuous
370
    -3
390
F
  0
LAYER
  5
17A1
102
{ACAD_XDICTIONARY
360
4461
102
}
330
2
100
AcDbSymbolTableRecord
100
AcDbLayerTableRecord
  2
10100_FRONT_DIM
 70
     0
 62
     7
  6
Continuous
370
    -3
390
F
  0
LAYER
  5
17A2
102
{ACAD_XDICTIONARY
360
4463
102
}
330
2
100
AcDbSymbolTableRecord
100
AcDbLayerTableRecord
  2
11100_LEFT_DIM
 70
     0
 62
     7
  6
Continuous
370
    -3
390
F
  0
LAYER
  5
17A3
102
{ACAD_XDICTIONARY
360
4465
102
}
330
2
100
AcDbSymbolTableRecord
100
AcDbLayerTableRecord
  2
12100_RIGHT_DIM
 70
     0
 62
     7
  6
Continuous
370
    -3
390
F
  0
LAYER
  5
17A4
102
{ACAD_XDICTIONARY
360
4467
102
}
330
2
100
AcDbSymbolTableRecord
100
AcDbLayerTableRecord
  2
13100_TOP_DIM
 70
     0
 62
     7
  6
Continuous
370
    -3
390
F
  0
LAYER
  5
17A5
102
{ACAD_XDICTIONARY
360
4469
102
}
330
2
100
AcDbSymbolTableRecord
100
AcDbLayerTableRecord
  2
14100_BOTTOM_DIM
 70
     0
 62
     7
  6
Continuous
370
    -3
390
F
  0
LAYER
  5
17A6
102
{ACAD_XDICTIONARY
360
446B
102
}
330
2
100
AcDbSymbolTableRecord
100
AcDbLayerTableRecord
  2
15100_BACK_DIM
 70
     0
 62
     7
  6
Continuous
370
    -3
390
F
  0
LAYER
  5
17A7
102
{ACAD_XDICTIONARY
360
446D
102
}
330
2
100
AcDbSymbolTableRecord
100
AcDbLayerTableRecord
  2
30100_DRILLING_DIM
 70
     0
 62
     7
  6
Continuous
370
    -3
390
F
  0
LAYER
  5
17A8
102
{ACAD_XDICTIONARY
360
446F
102
}
330
2
100
AcDbSymbolTableRecord
100
AcDbLayerTableRecord
  2
10200_FRONT_SYM
 70
     0
 62
     7
  6
CENTER
370
    -3
390
F
  0
LAYER
  5
17A9
102
{ACAD_XDICTIONARY
360
4471
102
}
330
2
100
AcDbSymbolTableRecord
100
AcDbLayerTableRecord
  2
11200_LEFT_SYM
 70
     0
 62
     7
  6
CENTER
370
    -3
390
F
  0
LAYER
  5
17AA
102
{ACAD_XDICTIONARY
360
4473
102
}
330
2
100
AcDbSymbolTableRecord
100
AcDbLayerTableRecord
  2
12200_RIGHT_SYM
 70
     0
 62
     7
  6
CENTER
370
    -3
390
F
  0
LAYER
  5
17AB
102
{ACAD_XDICTIONARY
360
4475
102
}
330
2
100
AcDbSymbolTableRecord
100
AcDbLayerTableRecord
  2
13200_TOP_SYM
 70
     0
 62
     7
  6
CENTER
370
    -3
390
F
  0
LAYER
  5
17AC
102
{ACAD_XDICTIONARY
360
4477
102
}
330
2
100
AcDbSymbolTableRecord
100
AcDbLayerTableRecord
  2
14200_BOTTOM_SYM
 70
     0
 62
     7
  6
CENTER
370
    -3
390
F
  0
LAYER
  5
17AD
102
{ACAD_XDICTIONARY
360
4479
102
}
330
2
100
AcDbSymbolTableRecord
100
AcDbLayerTableRecord
  2
15200_BACK_SYM
 70
     0
 62
     7
  6
CENTER
370
    -3
390
F
  0
LAYER
  5
17AE
102
{ACAD_XDICTIONARY
360
447B
102
}
330
2
100
AcDbSymbolTableRecord
100
AcDbLayerTableRecord
  2
30200_DRILLING_SYM
 70
     0
 62
     7
  6
CENTER
370
    -3
390
F
  0
LAYER
  5
17AF
102
{ACAD_XDICTIONARY
360
447D
102
}
330
2
100
AcDbSymbolTableRecord
100
AcDbLayerTableRecord
  2
30400_DRILLING_CONT
 70
     0
 62
     7
  6
PHANTOM2
370
    -3
390
F
  0
LAYER
  5
17B0
102
{ACAD_XDICTIONARY
360
447F
102
}
330
2
100
AcDbSymbolTableRecord
100
AcDbLayerTableRecord
  2
10300_FRONT_DET
 70
     0
 62
     7
  6
Continuous
370
    -3
390
F
  0
LAYER
  5
17B1
102
{ACAD_XDICTIONARY
360
4481
102
}
330
2
100
AcDbSymbolTableRecord
100
AcDbLayerTableRecord
  2
11300_LEFT_DET
 70
     0
 62
     7
  6
Continuous
370
    -3
390
F
  0
LAYER
  5
17B2
102
{ACAD_XDICTIONARY
360
4483
102
}
330
2
100
AcDbSymbolTableRecord
100
AcDbLayerTableRecord
  2
12300_RIGHT_DET
 70
     0
 62
     7
  6
Continuous
370
    -3
390
F
  0
LAYER
  5
17B3
102
{ACAD_XDICTIONARY
360
4485
102
}
330
2
100
AcDbSymbolTableRecord
100
AcDbLayerTableRecord
  2
13300_TOP_DET
 70
     0
 62
     7
  6
Continuous
370
    -3
390
F
  0
LAYER
  5
17B4
102
{ACAD_XDICTIONARY
360
4487
102
}
330
2
100
AcDbSymbolTableRecord
100
AcDbLayerTableRecord
  2
14300_BOTTOM_DET
 70
     0
 62
     7
  6
Continuous
370
    -3
390
F
  0
LAYER
  5
17B5
102
{ACAD_XDICTIONARY
360
4489
102
}
330
2
100
AcDbSymbolTableRecord
100
AcDbLayerTableRecord
  2
15300_BACK_DET
 70
     0
 62
     7
  6
Continuous
370
    -3
390
F
  0
LAYER
  5
17B6
102
{ACAD_XDICTIONARY
360
448B
102
}
330
2
100
AcDbSymbolTableRecord
100
AcDbLayerTableRecord
  2
30300_DRILLING_DET
 70
     0
 62
     7
  6
Continuous
370
    -3
390
F
  0
LAYER
  5
17B7
102
{ACAD_XDICTIONARY
360
448D
102
}
330
2
100
AcDbSymbolTableRecord
100
AcDbLayerTableRecord
  2
40300_ISO_DET
 70
     0
 62
     7
  6
Continuous
370
    -3
390
F
  0
LAYER
  5
17B8
102
{ACAD_XDICTIONARY
360
448F
102
}
330
2
100
AcDbSymbolTableRecord
100
AcDbLayerTableRecord
  2
41300_DIMT_DET
 70
     0
 62
     7
  6
Continuous
370
    -3
390
F
  0
LAYER
  5
17B9
102
{ACAD_XDICTIONARY
360
4491
102
}
330
2
100
AcDbSymbolTableRecord
100
AcDbLayerTableRecord
  2
10400_FRONT_HIDDEN
 70
     0
 62
     7
  6
HIDDEN
370
    -3
390
F
  0
LAYER
  5
17BA
102
{ACAD_XDICTIONARY
360
4493
102
}
330
2
100
AcDbSymbolTableRecord
100
AcDbLayerTableRecord
  2
10500_FRONT_BUILD
 70
     0
 62
     7
  6
PHANTOM2
370
    -3
390
F
  0
LAYER
  5
17BB
102
{ACAD_XDICTIONARY
360
4495
102
}
330
2
100
AcDbSymbolTableRecord
100
AcDbLayerTableRecord
  2
11400_LEFT_HIDDEN
 70
     0
 62
     7
  6
HIDDEN
370
    -3
390
F
  0
LAYER
  5
17BC
102
{ACAD_XDICTIONARY
360
4497
102
}
330
2
100
AcDbSymbolTableRecord
100
AcDbLayerTableRecord
  2
11500_LEFT_BUILD
 70
     0
 62
     7
  6
PHANTOM2
370
    -3
390
F
  0
LAYER
  5
17BD
102
{ACAD_XDICTIONARY
360
4499
102
}
330
2
100
AcDbSymbolTableRecord
100
AcDbLayerTableRecord
  2
12400_RIGHT_HIDDEN
 70
     0
 62
     7
  6
HIDDEN
370
    -3
390
F
  0
LAYER
  5
17BE
102
{ACAD_XDICTIONARY
360
449B
102
}
330
2
100
AcDbSymbolTableRecord
100
AcDbLayerTableRecord
  2
12500_RIGHT_BUILD
 70
     0
 62
     7
  6
PHANTOM2
370
    -3
390
F
  0
LAYER
  5
17BF
102
{ACAD_XDICTIONARY
360
449D
102
}
330
2
100
AcDbSymbolTableRecord
100
AcDbLayerTableRecord
  2
13400_TOP_HIDDEN
 70
     0
 62
     7
  6
HIDDEN
370
    -3
390
F
  0
LAYER
  5
17C0
102
{ACAD_XDICTIONARY
360
449F
102
}
330
2
100
AcDbSymbolTableRecord
100
AcDbLayerTableRecord
  2
13500_TOP_BUILD
 70
     0
 62
     7
  6
PHANTOM2
370
    -3
390
F
  0
LAYER
  5
17C1
102
{ACAD_XDICTIONARY
360
44A1
102
}
330
2
100
AcDbSymbolTableRecord
100
AcDbLayerTableRecord
  2
14400_BOTTOM_HIDDEN
 70
     0
 62
     7
  6
HIDDEN
370
    -3
390
F
  0
LAYER
  5
17C2
102
{ACAD_XDICTIONARY
360
44A3
102
}
330
2
100
AcDbSymbolTableRecord
100
AcDbLayerTableRecord
  2
14500_BOTTOM_BUILD
 70
     0
 62
     7
  6
PHANTOM2
370
    -3
390
F
  0
LAYER
  5
17C3
102
{ACAD_XDICTIONARY
360
44A5
102
}
330
2
100
AcDbSymbolTableRecord
100
AcDbLayerTableRecord
  2
15400_BACK_HIDDEN
 70
     0
 62
     7
  6
HIDDEN
370
    -3
390
F
  0
LAYER
  5
17C4
102
{ACAD_XDICTIONARY
360
44A7
102
}
330
2
100
AcDbSymbolTableRecord
100
AcDbLayerTableRecord
  2
15500_BACK_BUILD
 70
     0
 62
     7
  6
PHANTOM2
370
    -3
390
F
  0
LAYER
  5
17C5
102
{ACAD_XDICTIONARY
360
44A9
102
}
330
2
100
AcDbSymbolTableRecord
100
AcDbLayerTableRecord
  2
00000_HELPLINE
 70
     0
 62
     1
  6
Continuous
290
     0
370
    -3
390
F
  0
LAYER
  5
17C6
102
{ACAD_XDICTIONARY
360
44AB
102
}
330
2
100
AcDbSymbolTableRecord
100
AcDbLayerTableRecord
  2
00001_VIEWNAME
 70
     0
 62
     7
  6
Continuous
370
    -3
390
F
  0
LAYER
  5
47CC
330
2
100
AcDbSymbolTableRecord
100
AcDbLayerTableRecord
  2
AM_5
 70
     0
 62
     3
  6
Continuous
370
    25
390
F
1001
AcAecLayerStandard
1000

1000

  0
ENDTAB
  0
TABLE
  2
STYLE
  5
3
330
0
100
AcDbSymbolTable
 70
     7
  0
STYLE
  5
26
330
3
100
AcDbSymbolTableRecord
100
AcDbTextStyleTableRecord
  2
Standard
 70
     0
 40
0.0
 41
1.0
 50
0.0
 71
     0
 42
2.5
  3
isocpeur.ttf
  4

1001
ACAD
1000
ISOCPEUR
1071
       34
  0
STYLE
  5
17C7
330
3
100
AcDbSymbolTableRecord
100
AcDbTextStyleTableRecord
  2

 70
     1
 40
0.0
 41
1.0
 50
0.0
 71
     0
 42
2.5
  3
ltypeshp.shx
  4

  0
STYLE
  5
17C8
330
3
100
AcDbSymbolTableRecord
100
AcDbTextStyleTableRecord
  2
ACDINTS
 70
     0
 40
1.0
 41
1.0
 50
0.0
 71
     0
 42
2.5
  3
isocp.shx
  4

  0
STYLE
  5
17C9
330
3
100
AcDbSymbolTableRecord
100
AcDbTextStyleTableRecord
  2
ACDINGDT
 70
     0
 40
0.0
 41
1.0
 50
0.0
 71
     0
 42
2.5
  3
amgdt.shx
  4

  0
STYLE
  5
4541
330
3
100
AcDbSymbolTableRecord
100
AcDbTextStyleTableRecord
  2
ACISOTS
 70
     0
 40
1.0
 41
1.0
 50
0.0
 71
     0
 42
2.5
  3
isocp.shx
  4

  0
STYLE
  5
4542
330
3
100
AcDbSymbolTableRecord
100
AcDbTextStyleTableRecord
  2
ACISOGDT
 70
     0
 40
0.0
 41
1.0
 50
0.0
 71
     0
 42
2.5
  3
amgdt.shx
  4

  0
STYLE
  5
4570
330
3
100
AcDbSymbolTableRecord
100
AcDbTextStyleTableRecord
  2

 70
     1
 40
0.0
 41
1.0
 50
0.0
 71
     0
 42
3.5
  3
genltshp.shx
  4

  0
ENDTAB
  0
TABLE
  2
VIEW
  5
6
330
0
100
AcDbSymbolTable
 70
     0
  0
ENDTAB
  0
TABLE
  2
UCS
  5
7
330
0
100
AcDbSymbolTable
 70
     0
  0
ENDTAB
  0
TABLE
  2
APPID
  5
9
330
0
100
AcDbSymbolTable
 70
    34
  0
APPID
  5
27
330
9
100
AcDbSymbolTableRecord
100
AcDbRegAppTableRecord
  2
ACAD
 70
     0
  0
APPID
  5
14F
330
9
100
AcDbSymbolTableRecord
100
AcDbRegAppTableRecord
  2
MCAD_NO_VIS
 70
     0
  0
APPID
  5
150
330
9
100
AcDbSymbolTableRecord
100
AcDbRegAppTableRecord
  2
ACAD_TEMP_GRAPHIC
 70
     0
  0
APPID
  5
151
330
9
100
AcDbSymbolTableRecord
100
AcDbRegAppTableRecord
  2
AD_DRAW
 70
     0
  0
APPID
  5
152
330
9
100
AcDbSymbolTableRecord
100
AcDbRegAppTableRecord
  2
ACATTRIBSERVICES
 70
     0
  0
APPID
  5
153
330
9
100
AcDbSymbolTableRecord
100
AcDbRegAppTableRecord
  2
GENIUS_GENDIM_13
 70
     0
  0
APPID
  5
154
330
9
100
AcDbSymbolTableRecord
100
AcDbRegAppTableRecord
  2
GENIUS_GENDTOL_13
 70
     0
  0
APPID
  5
155
330
9
100
AcDbSymbolTableRecord
100
AcDbRegAppTableRecord
  2
GENIUS_GE3DTOL_13
 70
     0
  0
APPID
  5
156
330
9
100
AcDbSymbolTableRecord
100
AcDbRegAppTableRecord
  2
ASURF_PCURVE_APPNAME
 70
     0
  0
APPID
  5
157
330
9
100
AcDbSymbolTableRecord
100
AcDbRegAppTableRecord
  2
AMG_3D2D_5.0
 70
     0
  0
APPID
  5
158
330
9
100
AcDbSymbolTableRecord
100
AcDbRegAppTableRecord
  2
DESIGNERASSEMBLIES
 70
     0
  0
APPID
  5
159
330
9
100
AcDbSymbolTableRecord
100
AcDbRegAppTableRecord
  2
ACADM_DIM_EDIT
 70
     0
  0
APPID
  5
15A
330
9
100
AcDbSymbolTableRecord
100
AcDbRegAppTableRecord
  2
AMDT_DM_ADJ
 70
     0
  0
APPID
  5
15B
330
9
100
AcDbSymbolTableRecord
100
AcDbRegAppTableRecord
  2
GENIUS_GENREC_14
 70
     0
  0
APPID
  5
15C
330
9
100
AcDbSymbolTableRecord
100
AcDbRegAppTableRecord
  2
GENIUS_GENODEF_13
 70
     0
  0
APPID
  5
15D
330
9
100
AcDbSymbolTableRecord
100
AcDbRegAppTableRecord
  2
GENIUS_GENOBJ-N-REC_13
 70
     0
  0
APPID
  5
15E
330
9
100
AcDbSymbolTableRecord
100
AcDbRegAppTableRecord
  2
DCO15
 70
     0
  0
APPID
  5
1C8
330
9
100
AcDbSymbolTableRecord
100
AcDbRegAppTableRecord
  2
ACAD_EXEMPT_FROM_CAD_STANDARDS
 70
     0
  0
APPID
  5
227
330
9
100
AcDbSymbolTableRecord
100
AcDbRegAppTableRecord
  2
ACAUTHENVIRON
 70
     0
  0
APPID
  5
3A7
330
9
100
AcDbSymbolTableRecord
100
AcDbRegAppTableRecord
  2
AcDbDynamicBlockTrueName
 70
     0
  0
APPID
  5
3A8
330
9
100
AcDbSymbolTableRecord
100
AcDbRegAppTableRecord
  2
AcDbDynamicBlockGUID
 70
     0
  0
APPID
  5
3AA
330
9
100
AcDbSymbolTableRecord
100
AcDbRegAppTableRecord
  2
AcDbBlockRepETag
 70
     0
  0
APPID
  5
3B2
330
9
100
AcDbSymbolTableRecord
100
AcDbRegAppTableRecord
  2
AcDbBlockRepBTag
 70
     0
  0
APPID
  5
BB9
330
9
100
AcDbSymbolTableRecord
100
AcDbRegAppTableRecord
  2
ACAD_PSEXT
 70
     0
  0
APPID
  5
1DB7
330
9
100
AcDbSymbolTableRecord
100
AcDbRegAppTableRecord
  2
ACAD_DSTYLE_DIMJOGGED_JOGANGLE_SYMBOL
 70
     0
  0
APPID
  5
440B
330
9
100
AcDbSymbolTableRecord
100
AcDbRegAppTableRecord
  2
ACAD_MLEADERVER
 70
     0
  0
APPID
  5
4424
330
9
100
AcDbSymbolTableRecord
100
AcDbRegAppTableRecord
  2
ACAD_DSTYLE_DIMINSPECT
 70
     0
  0
APPID
  5
454C
330
9
100
AcDbSymbolTableRecord
100
AcDbRegAppTableRecord
  2
GENIUS_GENSCREG_15
 70
     0
  0
APPID
  5
454D
330
9
100
AcDbSymbolTableRecord
100
AcDbRegAppTableRecord
  2
GENIUS_GENOBJ-N-SDF_13
 70
     0
  0
APPID
  5
47CD
330
9
100
AcDbSymbolTableRecord
100
AcDbRegAppTableRecord
  2
AcAecLayerStandard
 70
     0
  0
APPID
  5
48E3
330
9
100
AcDbSymbolTableRecord
100
AcDbRegAppTableRecord
  2
ACAD_DSTYLE_DIMARC_LENGTH_SYMBOL
 70
     0
  0
APPID
  5
48E4
330
9
100
AcDbSymbolTableRecord
100
AcDbRegAppTableRecord
  2
ACAD_DSTYLE_DIM_LINETYPE
 70
     0
  0
APPID
  5
48E5
330
9
100
AcDbSymbolTableRecord
100
AcDbRegAppTableRecord
  2
ACAD_DSTYLE_DIM_EXT1_LINETYPE
 70
     0
  0
APPID
  5
48E6
330
9
100
AcDbSymbolTableRecord
100
AcDbRegAppTableRecord
  2
ACAD_DSTYLE_DIM_EXT2_LINETYPE
 70
     0
  0
ENDTAB
  0
TABLE
  2
DIMSTYLE
  5
A
330
0
100
AcDbSymbolTable
 70
    14
100
AcDbDimStyleTable
 71
     4
340
17CC
340
4423
340
BA7
340
1D85
  0
DIMSTYLE
105
BA7
330
A
100
AcDbSymbolTableRecord
100
AcDbDimStyleTableRecord
  2
DIN_2.5
 70
     0
  4
"
 41
2.5
 42
1.0
 43
10.0
 44
1.0
 47
0.1
 48
0.1
 73
     0
 74
     0
 77
     1
 78
     8
 79
     2
140
2.5
141
3.5
143
0.0393701
146
0.71
147
1.5
172
     1
176
   256
177
   256
178
   256
271
     2
272
     2
283
     0
284
     8
340
26
371
    -1
372
    -1
  0
DIMSTYLE
105
17CA
330
A
100
AcDbSymbolTableRecord
100
AcDbDimStyleTableRecord
  2
ISO-25
 70
     0
 41
2.5
 42
0.625
 43
3.75
 44
1.25
 73
     0
 74
     0
 77
     1
 78
     8
140
2.5
141
2.5
143
0.03937007874016
147
0.625
171
     3
172
     1
271
     2
272
     2
274
     3
278
    44
283
     0
284
     8
340
26
1001
ACAD_DSTYLE_DIMJOGGED_JOGANGLE_SYMBOL
1070
   384
1040
1.570796326794896
  0
DIMSTYLE
105
17CB
330
A
100
AcDbSymbolTableRecord
100
AcDbDimStyleTableRecord
  2
AM_DIN
 70
     0
  4
"
 41
2.5
 42
1.0
 43
10.0
 44
1.0
 47
0.1
 48
0.1
 73
     0
 74
     0
 77
     1
 78
     8
 79
     2
140
3.5
141
0.0
143
0.0393701
146
0.71
147
1.5
172
     1
176
   256
177
   256
178
     2
271
     2
272
     2
283
     0
284
     8
340
26
371
    -1
372
    -1
  0
DIMSTYLE
105
17CC
330
A
100
AcDbSymbolTableRecord
100
AcDbDimStyleTableRecord
  2
DIN_3.5
 70
     0
  4
"
 41
3.5
 42
0.0
 43
10.0
 44
1.0
 47
0.1
 48
0.1
 73
     0
 74
     0
 77
     1
 78
     8
 79
     2
140
3.5
141
3.5
143
0.0393701
146
0.71
147
1.5
172
     1
176
   256
177
   256
178
   256
271
     1
272
     1
278
    44
283
     0
284
     8
340
26
371
    -1
372
    -1
  0
DIMSTYLE
105
17CD
330
A
100
AcDbSymbolTableRecord
100
AcDbDimStyleTableRecord
  2
DIN_5
 70
     0
  4
"
 41
2.5
 42
1.0
 43
10.0
 44
1.0
 47
0.1
 48
0.1
 73
     0
 74
     0
 77
     1
 78
     8
 79
     2
140
5.0
141
3.5
143
0.0393701
146
0.71
147
1.5
172
     1
176
   256
177
   256
178
   256
271
     2
272
     2
283
     0
284
     8
340
26
371
    -1
372
    -1
  0
DIMSTYLE
105
1D85
330
A
100
AcDbSymbolTableRecord
100
AcDbDimStyleTableRecord
  2
DIN_2.5_v001
 70
     0
  4
"
 41
2.5
 42
0.0
 43
10.0
 44
1.0
 47
0.1
 48
0.1
 73
     0
 74
     0
 77
     1
 78
     8
 79
     2
140
2.5
141
3.5
143
0.0393701
146
0.71
147
1.5
172
     1
176
   256
177
   256
178
   256
271
     1
272
     1
283
     0
284
     8
340
26
371
    -1
372
    -1
  0
DIMSTYLE
105
4423
330
A
100
AcDbSymbolTableRecord
100
AcDbDimStyleTableRecord
  2
AM_ISO
 70
     0
  4
"
 41
3.5
 42
1.0
 43
10.0
 44
1.0
 47
0.1
 48
0.1
 73
     0
 74
     0
 77
     1
 78
     8
 79
     2
140
3.5
141
0.0
143
0.0393701
146
0.71
147
1.5
172
     1
176
   256
177
   256
178
     2
271
     2
272
     3
274
     4
283
     0
284
     8
340
26
371
    -1
372
    -1
1001
ACAD_DSTYLE_DIMARC_LENGTH_SYMBOL
1070
   379
1070
     1
1001
ACAD_DSTYLE_DIM_LINETYPE
1070
   380
1005
29
1001
ACAD_DSTYLE_DIM_EXT1_LINETYPE
1070
   381
1005
29
1001
ACAD_DSTYLE_DIM_EXT2_LINETYPE
1070
   382
1005
29
  0
DIMSTYLE
105
4533
330
A
100
AcDbSymbolTableRecord
100
AcDbDimStyleTableRecord
  2
AM_ISO$3
 70
     0
  4
"
 41
3.5
 42
1.0
 43
10.0
 44
1.0
 47
0.1
 48
0.1
 73
     0
 77
     1
 78
     8
 79
     2
140
3.5
141
0.0
143
0.0393701
146
0.71
147
1.5
176
   256
177
   256
178
     2
271
     2
272
     3
274
     4
283
     0
284
     8
288
     1
289
     0
340
26
371
    -1
372
    -1
1001
ACAD_DSTYLE_DIMARC_LENGTH_SYMBOL
1070
   379
1070
     1
1001
ACAD_DSTYLE_DIM_LINETYPE
1070
   380
1005
29
1001
ACAD_DSTYLE_DIM_EXT1_LINETYPE
1070
   381
1005
29
1001
ACAD_DSTYLE_DIM_EXT2_LINETYPE
1070
   382
1005
29
  0
DIMSTYLE
105
4534
330
A
100
AcDbSymbolTableRecord
100
AcDbDimStyleTableRecord
  2
AM_ISO$4
 70
     0
  4
"
 41
3.5
 42
1.0
 43
10.0
 44
1.0
 47
0.1
 48
0.1
 73
     0
 74
     0
 77
     1
 78
     8
 79
     2
140
3.5
141
0.0
143
0.0393701
146
0.71
147
1.5
172
     1
176
   256
177
   256
178
     2
271
     2
272
     3
274
     4
283
     0
284
     8
340
26
371
    -1
372
    -1
1001
ACAD_DSTYLE_DIMARC_LENGTH_SYMBOL
1070
   379
1070
     1
1001
ACAD_DSTYLE_DIM_LINETYPE
1070
   380
1005
29
1001
ACAD_DSTYLE_DIM_EXT1_LINETYPE
1070
   381
1005
29
1001
ACAD_DSTYLE_DIM_EXT2_LINETYPE
1070
   382
1005
29
  0
DIMSTYLE
105
4535
330
A
100
AcDbSymbolTableRecord
100
AcDbDimStyleTableRecord
  2
AM_ISO$6
 70
     0
  4
"
 41
3.5
 42
1.0
 43
10.0
 44
1.0
 47
0.1
 48
0.1
 73
     0
 74
     0
 78
     8
 79
     2
140
3.5
141
0.0
143
0.0393701
146
0.71
147
1.5
172
     1
176
   256
177
   256
178
     2
271
     2
272
     3
274
     4
283
     0
284
     8
340
26
371
    -1
372
    -1
1001
ACAD_DSTYLE_DIMARC_LENGTH_SYMBOL
1070
   379
1070
     1
1001
ACAD_DSTYLE_DIM_LINETYPE
1070
   380
1005
29
1001
ACAD_DSTYLE_DIM_EXT1_LINETYPE
1070
   381
1005
29
1001
ACAD_DSTYLE_DIM_EXT2_LINETYPE
1070
   382
1005
29
  0
DIMSTYLE
105
4536
330
A
100
AcDbSymbolTableRecord
100
AcDbDimStyleTableRecord
  2
AM_ISO$7
 70
     0
  4
"
 41
3.5
 42
1.0
 43
10.0
 44
1.0
 47
0.1
 48
0.1
 73
     0
 74
     0
 77
     1
 78
     8
 79
     2
140
3.5
141
0.0
143
0.0393701
146
0.71
147
1.5
172
     1
176
   256
177
   256
178
     2
271
     2
272
     3
274
     4
283
     0
284
     8
340
26
371
    -1
372
    -1
1001
ACAD_DSTYLE_DIMARC_LENGTH_SYMBOL
1070
   379
1070
     1
1001
ACAD_DSTYLE_DIM_LINETYPE
1070
   380
1005
29
1001
ACAD_DSTYLE_DIM_EXT1_LINETYPE
1070
   381
1005
29
1001
ACAD_DSTYLE_DIM_EXT2_LINETYPE
1070
   382
1005
29
  0
DIMSTYLE
105
4537
330
A
100
AcDbSymbolTableRecord
100
AcDbDimStyleTableRecord
  2
AM_ISO$SF
 70
     0
  4
"
 41
3.5
 42
1.0
 43
10.0
 44
1.0
 47
0.1
 48
0.1
 73
     0
 74
     0
 75
     1
 76
     1
 77
     1
 78
     8
 79
     2
140
3.5
141
0.0
143
0.0393701
146
0.71
147
1.5
172
     1
176
   256
177
   256
178
     2
271
     2
272
     3
274
     4
283
     0
284
     8
340
26
371
    -1
372
    -1
1001
ACAD_DSTYLE_DIMARC_LENGTH_SYMBOL
1070
   379
1070
     1
1001
ACAD_DSTYLE_DIM_LINETYPE
1070
   380
1005
29
1001
ACAD_DSTYLE_DIM_EXT1_LINETYPE
1070
   381
1005
29
1001
ACAD_DSTYLE_DIM_EXT2_LINETYPE
1070
   382
1005
29
  0
DIMSTYLE
105
4538
330
A
100
AcDbSymbolTableRecord
100
AcDbDimStyleTableRecord
  2
AM_ISO$SH
 70
     0
  4
"
 41
3.5
 42
1.0
 43
10.0
 44
1.0
 47
0.1
 48
0.1
 73
     0
 74
     0
 75
     1
 76
     1
 77
     1
 78
     8
 79
     2
140
3.5
141
0.0
143
0.0393701
144
2.0
146
0.71
147
1.5
172
     1
173
     1
176
   256
177
   256
178
     2
271
     2
272
     3
274
     4
283
     0
284
     8
340
26
343
170A
371
    -1
372
    -1
1001
ACAD_DSTYLE_DIMARC_LENGTH_SYMBOL
1070
   379
1070
     1
1001
ACAD_DSTYLE_DIM_LINETYPE
1070
   380
1005
29
1001
ACAD_DSTYLE_DIM_EXT1_LINETYPE
1070
   381
1005
29
1001
ACAD_DSTYLE_DIM_EXT2_LINETYPE
1070
   382
1005
29
  0
DIMSTYLE
105
47CE
102
{ACAD_REACTORS
330
47D0
330
47FA
330
4824
102
}
330
A
100
AcDbSymbolTableRecord
100
AcDbDimStyleTableRecord
  2
DIN_3.5$0
 70
     0
  4
"
 41
3.5
 42
0.0
 43
10.0
 44
1.0
 47
0.1
 48
0.1
 73
     0
 74
     0
 77
     1
 78
     8
 79
     2
140
3.5
141
3.5
143
0.0393701
146
0.71
147
1.5
172
     1
176
   256
177
   256
178
   256
271
     1
272
     1
278
    44
283
     0
284
     8
340
26
371
    -1
372
    -1
  0
ENDTAB
  0
TABLE
  2
BLOCK_RECORD
  5
1
330
0
100
AcDbSymbolTable
 70
    17
  0
BLOCK_RECORD
  5
37
102
{ACAD_XDICTIONARY
360
4CA
102
}
330
1
100
AcDbSymbolTableRecord
100
AcDbBlockTableRecord
  2
*Model_Space
340
3A
  0
BLOCK_RECORD
  5
33
330
1
100
AcDbSymbolTableRecord
100
AcDbBlockTableRecord
  2
*Paper_Space
340
36
  0
BLOCK_RECORD
  5
3B
330
1
100
AcDbSymbolTableRecord
100
AcDbBlockTableRecord
  2
*Paper_Space0
340
3E
  0
BLOCK_RECORD
  5
170A
330
1
100
AcDbSymbolTableRecord
100
AcDbBlockTableRecord
  2
GENAXEH
340
0
  0
BLOCK_RECORD
  5
170E
330
1
100
AcDbSymbolTableRecord
100
AcDbBlockTableRecord
  2
Title_A4P
340
0
310
2800000020000000200000000100080000000000000400000000000000000000000000000000000000000000000080000080000000808000800000008000800080800000C0C0C000C0DCC000F0CAA6000020400000206000002080000020A0000020C0000020E00000400000004020000040400000406000004080000040A0
310
000040C0000040E00000600000006020000060400000606000006080000060A0000060C0000060E00000800000008020000080400000806000008080000080A0000080C0000080E00000A0000000A0200000A0400000A0600000A0800000A0A00000A0C00000A0E00000C0000000C0200000C0400000C0600000C0800000C0
310
A00000C0C00000C0E00000E0000000E0200000E0400000E0600000E0800000E0A00000E0C00000E0E00040000000400020004000400040006000400080004000A0004000C0004000E00040200000402020004020400040206000402080004020A0004020C0004020E000404000004040200040404000404060004040800040
310
40A0004040C0004040E00040600000406020004060400040606000406080004060A0004060C0004060E00040800000408020004080400040806000408080004080A0004080C0004080E00040A0000040A0200040A0400040A0600040A0800040A0A00040A0C00040A0E00040C0000040C0200040C0400040C0600040C08000
310
40C0A00040C0C00040C0E00040E0000040E0200040E0400040E0600040E0800040E0A00040E0C00040E0E00080000000800020008000400080006000800080008000A0008000C0008000E00080200000802020008020400080206000802080008020A0008020C0008020E00080400000804020008040400080406000804080
310
008040A0008040C0008040E00080600000806020008060400080606000806080008060A0008060C0008060E00080800000808020008080400080806000808080008080A0008080C0008080E00080A0000080A0200080A0400080A0600080A0800080A0A00080A0C00080A0E00080C0000080C0200080C0400080C0600080C0
310
800080C0A00080C0C00080C0E00080E0000080E0200080E0400080E0600080E0800080E0A00080E0C00080E0E000C0000000C0002000C0004000C0006000C0008000C000A000C000C000C000E000C0200000C0202000C0204000C0206000C0208000C020A000C020C000C020E000C0400000C0402000C0404000C0406000C0
310
408000C040A000C040C000C040E000C0600000C0602000C0604000C0606000C0608000C060A000C060C000C060E000C0800000C0802000C0804000C0806000C0808000C080A000C080C000C080E000C0A00000C0A02000C0A04000C0A06000C0A08000C0A0A000C0A0C000C0A0E000C0C00000C0C02000C0C04000C0C06000
310
C0C08000C0C0A000F0FBFF00A4A0A000808080000000FF0000FF000000FFFF00FF000000FF00FF00FFFF0000FFFFFF0000000000000000000000000000000000000000000000000000000000000000000000000000000000000000000000000000000000000000000000000000000000000000000000000000000000000000
310
00000000000000000000000000000000000000000000000000000000000000000000000000000000000000000000000000000000000000000000000000000000000000000000000000000000000000000000000000000000000000000000000000000000000000000000000000000000000000000000000000000000000000
310
00000000000000000000000000000000000000000000000000000000000000000000000000000000000000000000000000000000000000000000000000000000000000000000000000000000000000000000000000000000000000000000000000000000000000000000000000000000000000000000000000000000000000
310
000000000000000000000000000000000000000000000000000000000000000000000000000000000000000000000000000000000000000000000000000000000000000000000000000000000000000000000000000000000000FFFFFFFFFFFFFFFFFFFFFFFFFFFFFFFFFFFFFFFFFFFF0000000000FFFFFFFF00FFFFFFFFFF
310
FFFFFFFFFFFFFFFFFFFFFFFFFFFFFFFFFFFFFF0000FFFFFFFFFFFFFFFFFFFFFFFFFFFFFF000000FFFFFFFFFFFFFF0000FF000000000000FFFFFF00FFFFFFFFFFFFFFFFFFFFFFFFFFFFFFFFFFFFFFFFFFFF00000000000000000000FFFFFFFFFFFFFFFFFFFFFFFFFFFFFF0000000000000000000000000000000000FFFFFFFF
310
FFFFFFFFFFFFFFFFFFFFFF0000000000000000000000000000000000000000000000000000000000000000000000000000000000000000000000000000000000000000000000000000000000000000000000000000000000000000000000000000000000000000000000000000000000000000000000000000000000000000
310
00000000000000000000000000000000000000000000000000000000000000000000000000000000000000000000000000000000000000000000000000000000000000000000000000000000000000000000000000000000000000000000000000000000000000000000000000000000000000000000000000000000000000
310
00000000000000000000000000000000000000000000000000000000000000000000000000000000000000000000000000000000000000000000000000000000000000000000000000000000000000000000000000000000000000000000000000000000000000000000000000000000000000000000000000000000000000
310
0000000000000000000000000000000000000000000000000000000000000000000000000000000000000000000000000000000000000000
102
{BLKREFS
331
17E4
331
17EA
102
}
1001
ACAD
1000
DesignCenter Data
1002
{
1070
     1
1070
     4
1002
}
  0
BLOCK_RECORD
  5
171C
330
1
100
AcDbSymbolTableRecord
100
AcDbBlockTableRecord
  2
Title_A4L
340
0
310
2800000020000000200000000100080000000000000400000000000000000000000000000000000000000000000080000080000000808000800000008000800080800000C0C0C000C0DCC000F0CAA6000020400000206000002080000020A0000020C0000020E00000400000004020000040400000406000004080000040A0
310
000040C0000040E00000600000006020000060400000606000006080000060A0000060C0000060E00000800000008020000080400000806000008080000080A0000080C0000080E00000A0000000A0200000A0400000A0600000A0800000A0A00000A0C00000A0E00000C0000000C0200000C0400000C0600000C0800000C0
310
A00000C0C00000C0E00000E0000000E0200000E0400000E0600000E0800000E0A00000E0C00000E0E00040000000400020004000400040006000400080004000A0004000C0004000E00040200000402020004020400040206000402080004020A0004020C0004020E000404000004040200040404000404060004040800040
310
40A0004040C0004040E00040600000406020004060400040606000406080004060A0004060C0004060E00040800000408020004080400040806000408080004080A0004080C0004080E00040A0000040A0200040A0400040A0600040A0800040A0A00040A0C00040A0E00040C0000040C0200040C0400040C0600040C08000
310
40C0A00040C0C00040C0E00040E0000040E0200040E0400040E0600040E0800040E0A00040E0C00040E0E00080000000800020008000400080006000800080008000A0008000C0008000E00080200000802020008020400080206000802080008020A0008020C0008020E00080400000804020008040400080406000804080
310
008040A0008040C0008040E00080600000806020008060400080606000806080008060A0008060C0008060E00080800000808020008080400080806000808080008080A0008080C0008080E00080A0000080A0200080A0400080A0600080A0800080A0A00080A0C00080A0E00080C0000080C0200080C0400080C0600080C0
310
800080C0A00080C0C00080C0E00080E0000080E0200080E0400080E0600080E0800080E0A00080E0C00080E0E000C0000000C0002000C0004000C0006000C0008000C000A000C000C000C000E000C0200000C0202000C0204000C0206000C0208000C020A000C020C000C020E000C0400000C0402000C0404000C0406000C0
310
408000C040A000C040C000C040E000C0600000C0602000C0604000C0606000C0608000C060A000C060C000C060E000C0800000C0802000C0804000C0806000C0808000C080A000C080C000C080E000C0A00000C0A02000C0A04000C0A06000C0A08000C0A0A000C0A0C000C0A0E000C0C00000C0C02000C0C04000C0C06000
310
C0C08000C0C0A000F0FBFF00A4A0A000808080000000FF0000FF000000FFFF00FF000000FF00FF00FFFF0000FFFFFF0000000000000000000000000000000000000000000000000000000000000000000000000000000000000000000000000000000000000000000000000000000000000000000000000000000000000000
310
00000000000000000000000000000000000000000000000000000000000000000000000000000000000000000000000000000000000000000000000000000000000000000000000000000000000000000000000000000000000000000000000000000000000000000000000000000000000000000000000000000000000000
310
00000000000000000000000000000000000000000000000000000000000000000000000000000000000000000000000000000000000000000000000000000000000000000000000000000000000000000000000000000000000000000000000000000000000000000000000000000000000000000000000000000000000000
310
000000000000000000000000000000000000000000000000000000000000000000000000000000000000000000000000000000000000000000000000000000000000000000000000000000000000000000000000000000000000FFFFFFFFFFFFFFFFFFFFFFFFFFFFFFFFFFFFFFFFFFFFFFFF000000FFFFFFFF00FFFFFFFFFF
310
FFFFFFFFFFFFFFFFFFFFFFFFFFFFFFFFFFFFFF0000FFFFFFFFFFFFFF00FFFFFFFFFFFF00FF00000000000000000000000000FF00000000FFFFFF00FFFFFFFFFFFFFFFFFFFFFFFFFFFFFFFFFFFFFFFFFFFFFFFF0000000000000000FFFFFFFFFFFFFFFFFFFFFFFFFFFFFFFF00000000000000000000000000000000FFFFFFFF
310
FFFFFFFFFFFFFFFFFFFFFFFF00000000000000000000000000000000000000000000000000000000000000000000000000000000000000000000000000000000000000000000000000000000000000000000000000000000000000000000000000000000000000000000000000000000000000000000000000000000000000
310
00000000000000000000000000000000000000000000000000000000000000000000000000000000000000000000000000000000000000000000000000000000000000000000000000000000000000000000000000000000000000000000000000000000000000000000000000000000000000000000000000000000000000
310
00000000000000000000000000000000000000000000000000000000000000000000000000000000000000000000000000000000000000000000000000000000000000000000000000000000000000000000000000000000000000000000000000000000000000000000000000000000000000000000000000000000000000
310
0000000000000000000000000000000000000000000000000000000000000000000000000000000000000000000000000000000000000000
102
{BLKREFS
331
17E5
331
17EB
102
}
1001
ACAD
1000
DesignCenter Data
1002
{
1070
     1
1070
     4
1002
}
  0
BLOCK_RECORD
  5
1728
330
1
100
AcDbSymbolTableRecord
100
AcDbBlockTableRecord
  2
Title_A3
340
0
310
2800000020000000200000000100080000000000000400000000000000000000000000000000000000000000000080000080000000808000800000008000800080800000C0C0C000C0DCC000F0CAA6000020400000206000002080000020A0000020C0000020E00000400000004020000040400000406000004080000040A0
310
000040C0000040E00000600000006020000060400000606000006080000060A0000060C0000060E00000800000008020000080400000806000008080000080A0000080C0000080E00000A0000000A0200000A0400000A0600000A0800000A0A00000A0C00000A0E00000C0000000C0200000C0400000C0600000C0800000C0
310
A00000C0C00000C0E00000E0000000E0200000E0400000E0600000E0800000E0A00000E0C00000E0E00040000000400020004000400040006000400080004000A0004000C0004000E00040200000402020004020400040206000402080004020A0004020C0004020E000404000004040200040404000404060004040800040
310
40A0004040C0004040E00040600000406020004060400040606000406080004060A0004060C0004060E00040800000408020004080400040806000408080004080A0004080C0004080E00040A0000040A0200040A0400040A0600040A0800040A0A00040A0C00040A0E00040C0000040C0200040C0400040C0600040C08000
310
40C0A00040C0C00040C0E00040E0000040E0200040E0400040E0600040E0800040E0A00040E0C00040E0E00080000000800020008000400080006000800080008000A0008000C0008000E00080200000802020008020400080206000802080008020A0008020C0008020E00080400000804020008040400080406000804080
310
008040A0008040C0008040E00080600000806020008060400080606000806080008060A0008060C0008060E00080800000808020008080400080806000808080008080A0008080C0008080E00080A0000080A0200080A0400080A0600080A0800080A0A00080A0C00080A0E00080C0000080C0200080C0400080C0600080C0
310
800080C0A00080C0C00080C0E00080E0000080E0200080E0400080E0600080E0800080E0A00080E0C00080E0E000C0000000C0002000C0004000C0006000C0008000C000A000C000C000C000E000C0200000C0202000C0204000C0206000C0208000C020A000C020C000C020E000C0400000C0402000C0404000C0406000C0
310
408000C040A000C040C000C040E000C0600000C0602000C0604000C0606000C0608000C060A000C060C000C060E000C0800000C0802000C0804000C0806000C0808000C080A000C080C000C080E000C0A00000C0A02000C0A04000C0A06000C0A08000C0A0A000C0A0C000C0A0E000C0C00000C0C02000C0C04000C0C06000
310
C0C08000C0C0A000F0FBFF00A4A0A000808080000000FF0000FF000000FFFF00FF000000FF00FF00FFFF0000FFFFFF0000000000000000000000000000000000000000000000000000000000000000000000000000000000000000000000000000000000000000000000000000000000000000000000000000000000000000
310
00000000000000000000000000000000000000000000000000000000000000000000000000000000000000000000000000000000000000000000000000000000000000000000000000000000000000000000000000000000000000000000000000000000000000000000000000000000000000000000000000000000000000
310
00000000000000000000000000000000000000000000000000000000000000000000000000000000000000000000000000000000000000000000000000000000000000000000000000000000000000000000000000000000000000000000000000000000000000000000000000000000000000000000000000000000000000
310
000000000000000000000000000000000000000000000000000000000000000000000000000000000000000000000000000000000000000000000000000000000000000000000000000000000000000000000000000000000000FFFFFFFFFFFFFFFFFFFFFFFFFFFFFFFFFFFFFFFFFFFFFFFF000000FFFFFFFF00FFFFFFFFFF
310
FFFFFFFFFFFFFFFFFFFFFFFFFFFFFFFFFFFFFF0000FFFFFFFFFFFFFF00FFFFFFFFFFFF00FF00000000000000000000000000FF00000000FFFFFF00FFFFFFFFFFFFFFFFFFFFFFFFFFFFFFFFFFFFFFFFFFFFFFFF0000000000000000FFFFFFFFFFFFFFFFFFFFFFFFFFFFFFFF00000000000000000000000000000000FFFFFFFF
310
FFFFFFFFFFFFFFFFFFFFFFFF00000000000000000000000000000000000000000000000000000000000000000000000000000000000000000000000000000000000000000000000000000000000000000000000000000000000000000000000000000000000000000000000000000000000000000000000000000000000000
310
00000000000000000000000000000000000000000000000000000000000000000000000000000000000000000000000000000000000000000000000000000000000000000000000000000000000000000000000000000000000000000000000000000000000000000000000000000000000000000000000000000000000000
310
00000000000000000000000000000000000000000000000000000000000000000000000000000000000000000000000000000000000000000000000000000000000000000000000000000000000000000000000000000000000000000000000000000000000000000000000000000000000000000000000000000000000000
310
0000000000000000000000000000000000000000000000000000000000000000000000000000000000000000000000000000000000000000
102
{BLKREFS
331
17E6
331
17EC
102
}
1001
ACAD
1000
DesignCenter Data
1002
{
1070
     1
1070
     4
1002
}
  0
BLOCK_RECORD
  5
1734
330
1
100
AcDbSymbolTableRecord
100
AcDbBlockTableRecord
  2
Title_A2
340
0
310
2800000020000000200000000100080000000000000400000000000000000000000000000000000000000000000080000080000000808000800000008000800080800000C0C0C000C0DCC000F0CAA6000020400000206000002080000020A0000020C0000020E00000400000004020000040400000406000004080000040A0
310
000040C0000040E00000600000006020000060400000606000006080000060A0000060C0000060E00000800000008020000080400000806000008080000080A0000080C0000080E00000A0000000A0200000A0400000A0600000A0800000A0A00000A0C00000A0E00000C0000000C0200000C0400000C0600000C0800000C0
310
A00000C0C00000C0E00000E0000000E0200000E0400000E0600000E0800000E0A00000E0C00000E0E00040000000400020004000400040006000400080004000A0004000C0004000E00040200000402020004020400040206000402080004020A0004020C0004020E000404000004040200040404000404060004040800040
310
40A0004040C0004040E00040600000406020004060400040606000406080004060A0004060C0004060E00040800000408020004080400040806000408080004080A0004080C0004080E00040A0000040A0200040A0400040A0600040A0800040A0A00040A0C00040A0E00040C0000040C0200040C0400040C0600040C08000
310
40C0A00040C0C00040C0E00040E0000040E0200040E0400040E0600040E0800040E0A00040E0C00040E0E00080000000800020008000400080006000800080008000A0008000C0008000E00080200000802020008020400080206000802080008020A0008020C0008020E00080400000804020008040400080406000804080
310
008040A0008040C0008040E00080600000806020008060400080606000806080008060A0008060C0008060E00080800000808020008080400080806000808080008080A0008080C0008080E00080A0000080A0200080A0400080A0600080A0800080A0A00080A0C00080A0E00080C0000080C0200080C0400080C0600080C0
310
800080C0A00080C0C00080C0E00080E0000080E0200080E0400080E0600080E0800080E0A00080E0C00080E0E000C0000000C0002000C0004000C0006000C0008000C000A000C000C000C000E000C0200000C0202000C0204000C0206000C0208000C020A000C020C000C020E000C0400000C0402000C0404000C0406000C0
310
408000C040A000C040C000C040E000C0600000C0602000C0604000C0606000C0608000C060A000C060C000C060E000C0800000C0802000C0804000C0806000C0808000C080A000C080C000C080E000C0A00000C0A02000C0A04000C0A06000C0A08000C0A0A000C0A0C000C0A0E000C0C00000C0C02000C0C04000C0C06000
310
C0C08000C0C0A000F0FBFF00A4A0A000808080000000FF0000FF000000FFFF00FF000000FF00FF00FFFF0000FFFFFF0000000000000000000000000000000000000000000000000000000000000000000000000000000000000000000000000000000000000000000000000000000000000000000000000000000000000000
310
00000000000000000000000000000000000000000000000000000000000000000000000000000000000000000000000000000000000000000000000000000000000000000000000000000000000000000000000000000000000000000000000000000000000000000000000000000000000000000000000000000000000000
310
00000000000000000000000000000000000000000000000000000000000000000000000000000000000000000000000000000000000000000000000000000000000000000000000000000000000000000000000000000000000000000000000000000000000000000000000000000000000000000000000000000000000000
310
000000000000000000000000000000000000000000000000000000000000000000000000000000000000000000000000000000000000000000000000000000000000000000000000000000000000000000000000000000000000FFFFFFFFFFFFFFFFFFFFFFFFFFFFFFFFFFFFFFFFFFFFFFFF000000FFFFFFFF00FFFFFFFFFF
310
FFFFFFFFFFFFFFFFFFFFFFFFFFFFFFFFFFFFFF0000FFFFFFFFFFFFFF00FFFFFFFFFFFF00FF00000000000000000000000000FF00000000FFFFFF00FFFFFFFFFFFFFFFFFFFFFFFFFFFFFFFFFFFFFFFFFFFFFFFF0000000000000000FFFFFFFFFFFFFFFFFFFFFFFFFFFFFFFF00000000000000000000000000000000FFFFFFFF
310
FFFFFFFFFFFFFFFFFFFFFFFF00000000000000000000000000000000000000000000000000000000000000000000000000000000000000000000000000000000000000000000000000000000000000000000000000000000000000000000000000000000000000000000000000000000000000000000000000000000000000
310
00000000000000000000000000000000000000000000000000000000000000000000000000000000000000000000000000000000000000000000000000000000000000000000000000000000000000000000000000000000000000000000000000000000000000000000000000000000000000000000000000000000000000
310
00000000000000000000000000000000000000000000000000000000000000000000000000000000000000000000000000000000000000000000000000000000000000000000000000000000000000000000000000000000000000000000000000000000000000000000000000000000000000000000000000000000000000
310
0000000000000000000000000000000000000000000000000000000000000000000000000000000000000000000000000000000000000000
102
{BLKREFS
331
17E7
331
17ED
102
}
1001
ACAD
1000
DesignCenter Data
1002
{
1070
     1
1070
     4
1002
}
  0
BLOCK_RECORD
  5
1740
330
1
100
AcDbSymbolTableRecord
100
AcDbBlockTableRecord
  2
Title_A1
340
0
310
2800000020000000200000000100080000000000000400000000000000000000000000000000000000000000000080000080000000808000800000008000800080800000C0C0C000C0DCC000F0CAA6000020400000206000002080000020A0000020C0000020E00000400000004020000040400000406000004080000040A0
310
000040C0000040E00000600000006020000060400000606000006080000060A0000060C0000060E00000800000008020000080400000806000008080000080A0000080C0000080E00000A0000000A0200000A0400000A0600000A0800000A0A00000A0C00000A0E00000C0000000C0200000C0400000C0600000C0800000C0
310
A00000C0C00000C0E00000E0000000E0200000E0400000E0600000E0800000E0A00000E0C00000E0E00040000000400020004000400040006000400080004000A0004000C0004000E00040200000402020004020400040206000402080004020A0004020C0004020E000404000004040200040404000404060004040800040
310
40A0004040C0004040E00040600000406020004060400040606000406080004060A0004060C0004060E00040800000408020004080400040806000408080004080A0004080C0004080E00040A0000040A0200040A0400040A0600040A0800040A0A00040A0C00040A0E00040C0000040C0200040C0400040C0600040C08000
310
40C0A00040C0C00040C0E00040E0000040E0200040E0400040E0600040E0800040E0A00040E0C00040E0E00080000000800020008000400080006000800080008000A0008000C0008000E00080200000802020008020400080206000802080008020A0008020C0008020E00080400000804020008040400080406000804080
310
008040A0008040C0008040E00080600000806020008060400080606000806080008060A0008060C0008060E00080800000808020008080400080806000808080008080A0008080C0008080E00080A0000080A0200080A0400080A0600080A0800080A0A00080A0C00080A0E00080C0000080C0200080C0400080C0600080C0
310
800080C0A00080C0C00080C0E00080E0000080E0200080E0400080E0600080E0800080E0A00080E0C00080E0E000C0000000C0002000C0004000C0006000C0008000C000A000C000C000C000E000C0200000C0202000C0204000C0206000C0208000C020A000C020C000C020E000C0400000C0402000C0404000C0406000C0
310
408000C040A000C040C000C040E000C0600000C0602000C0604000C0606000C0608000C060A000C060C000C060E000C0800000C0802000C0804000C0806000C0808000C080A000C080C000C080E000C0A00000C0A02000C0A04000C0A06000C0A08000C0A0A000C0A0C000C0A0E000C0C00000C0C02000C0C04000C0C06000
310
C0C08000C0C0A000F0FBFF00A4A0A000808080000000FF0000FF000000FFFF00FF000000FF00FF00FFFF0000FFFFFF0000000000000000000000000000000000000000000000000000000000000000000000000000000000000000000000000000000000000000000000000000000000000000000000000000000000000000
310
00000000000000000000000000000000000000000000000000000000000000000000000000000000000000000000000000000000000000000000000000000000000000000000000000000000000000000000000000000000000000000000000000000000000000000000000000000000000000000000000000000000000000
310
00000000000000000000000000000000000000000000000000000000000000000000000000000000000000000000000000000000000000000000000000000000000000000000000000000000000000000000000000000000000000000000000000000000000000000000000000000000000000000000000000000000000000
310
000000000000000000000000000000000000000000000000000000000000000000000000000000000000000000000000000000000000000000000000000000000000000000000000000000000000000000000000000000000000FFFFFFFFFFFFFFFFFFFFFFFFFFFFFFFFFFFFFFFFFFFFFFFF000000FFFFFFFF00FFFFFFFFFF
310
FFFFFFFFFFFFFFFFFFFFFFFFFFFFFFFFFFFFFF0000FFFFFFFFFFFFFF00FFFFFFFFFFFF00FF00000000000000000000000000FF00000000FFFFFF00FFFFFFFFFFFFFFFFFFFFFFFFFFFFFFFFFFFFFFFFFFFFFFFF0000000000000000FFFFFFFFFFFFFFFFFFFFFFFFFFFFFFFF00000000000000000000000000000000FFFFFFFF
310
FFFFFFFFFFFFFFFFFFFFFFFF00000000000000000000000000000000000000000000000000000000000000000000000000000000000000000000000000000000000000000000000000000000000000000000000000000000000000000000000000000000000000000000000000000000000000000000000000000000000000
310
00000000000000000000000000000000000000000000000000000000000000000000000000000000000000000000000000000000000000000000000000000000000000000000000000000000000000000000000000000000000000000000000000000000000000000000000000000000000000000000000000000000000000
310
00000000000000000000000000000000000000000000000000000000000000000000000000000000000000000000000000000000000000000000000000000000000000000000000000000000000000000000000000000000000000000000000000000000000000000000000000000000000000000000000000000000000000
310
0000000000000000000000000000000000000000000000000000000000000000000000000000000000000000000000000000000000000000
102
{BLKREFS
331
17E8
331
17EE
102
}
1001
ACAD
1000
DesignCenter Data
1002
{
1070
     1
1070
     4
1002
}
  0
BLOCK_RECORD
  5
174C
330
1
100
AcDbSymbolTableRecord
100
AcDbBlockTableRecord
  2
Title_A0
340
0
310
2800000020000000200000000100080000000000000400000000000000000000000000000000000000000000000080000080000000808000800000008000800080800000C0C0C000C0DCC000F0CAA6000020400000206000002080000020A0000020C0000020E00000400000004020000040400000406000004080000040A0
310
000040C0000040E00000600000006020000060400000606000006080000060A0000060C0000060E00000800000008020000080400000806000008080000080A0000080C0000080E00000A0000000A0200000A0400000A0600000A0800000A0A00000A0C00000A0E00000C0000000C0200000C0400000C0600000C0800000C0
310
A00000C0C00000C0E00000E0000000E0200000E0400000E0600000E0800000E0A00000E0C00000E0E00040000000400020004000400040006000400080004000A0004000C0004000E00040200000402020004020400040206000402080004020A0004020C0004020E000404000004040200040404000404060004040800040
310
40A0004040C0004040E00040600000406020004060400040606000406080004060A0004060C0004060E00040800000408020004080400040806000408080004080A0004080C0004080E00040A0000040A0200040A0400040A0600040A0800040A0A00040A0C00040A0E00040C0000040C0200040C0400040C0600040C08000
310
40C0A00040C0C00040C0E00040E0000040E0200040E0400040E0600040E0800040E0A00040E0C00040E0E00080000000800020008000400080006000800080008000A0008000C0008000E00080200000802020008020400080206000802080008020A0008020C0008020E00080400000804020008040400080406000804080
310
008040A0008040C0008040E00080600000806020008060400080606000806080008060A0008060C0008060E00080800000808020008080400080806000808080008080A0008080C0008080E00080A0000080A0200080A0400080A0600080A0800080A0A00080A0C00080A0E00080C0000080C0200080C0400080C0600080C0
310
800080C0A00080C0C00080C0E00080E0000080E0200080E0400080E0600080E0800080E0A00080E0C00080E0E000C0000000C0002000C0004000C0006000C0008000C000A000C000C000C000E000C0200000C0202000C0204000C0206000C0208000C020A000C020C000C020E000C0400000C0402000C0404000C0406000C0
310
408000C040A000C040C000C040E000C0600000C0602000C0604000C0606000C0608000C060A000C060C000C060E000C0800000C0802000C0804000C0806000C0808000C080A000C080C000C080E000C0A00000C0A02000C0A04000C0A06000C0A08000C0A0A000C0A0C000C0A0E000C0C00000C0C02000C0C04000C0C06000
310
C0C08000C0C0A000F0FBFF00A4A0A000808080000000FF0000FF000000FFFF00FF000000FF00FF00FFFF0000FFFFFF0000000000000000000000000000000000000000000000000000000000000000000000000000000000000000000000000000000000000000000000000000000000000000000000000000000000000000
310
00000000000000000000000000000000000000000000000000000000000000000000000000000000000000000000000000000000000000000000000000000000000000000000000000000000000000000000000000000000000000000000000000000000000000000000000000000000000000000000000000000000000000
310
00000000000000000000000000000000000000000000000000000000000000000000000000000000000000000000000000000000000000000000000000000000000000000000000000000000000000000000000000000000000000000000000000000000000000000000000000000000000000000000000000000000000000
310
000000000000000000000000000000000000000000000000000000000000000000000000000000000000000000000000000000000000000000000000000000000000000000000000000000000000000000000000000000000000FFFFFFFFFFFFFFFFFFFFFFFFFFFFFFFFFFFFFFFFFFFFFFFF000000FFFFFFFF00FFFFFFFFFF
310
FFFFFFFFFFFFFFFFFFFFFFFFFFFFFFFFFFFFFF0000FFFFFFFFFFFFFF00FFFFFFFFFFFF00FF00000000000000000000000000FF00000000FFFFFF00FFFFFFFFFFFFFFFFFFFFFFFFFFFFFFFFFFFFFFFFFFFFFFFF0000000000000000FFFFFFFFFFFFFFFFFFFFFFFFFFFFFFFF00000000000000000000000000000000FFFFFFFF
310
FFFFFFFFFFFFFFFFFFFFFFFF00000000000000000000000000000000000000000000000000000000000000000000000000000000000000000000000000000000000000000000000000000000000000000000000000000000000000000000000000000000000000000000000000000000000000000000000000000000000000
310
00000000000000000000000000000000000000000000000000000000000000000000000000000000000000000000000000000000000000000000000000000000000000000000000000000000000000000000000000000000000000000000000000000000000000000000000000000000000000000000000000000000000000
310
00000000000000000000000000000000000000000000000000000000000000000000000000000000000000000000000000000000000000000000000000000000000000000000000000000000000000000000000000000000000000000000000000000000000000000000000000000000000000000000000000000000000000
310
0000000000000000000000000000000000000000000000000000000000000000000000000000000000000000000000000000000000000000
102
{BLKREFS
331
17E9
331
17EF
102
}
1001
ACAD
1000
DesignCenter Data
1002
{
1070
     1
1070
     4
1002
}
  0
BLOCK_RECORD
  5
1758
102
{ACAD_XDICTIONARY
360
1759
102
}
330
1
100
AcDbSymbolTableRecord
100
AcDbBlockTableRecord
  2
TYP_SYMB
340
0
310
2800000020000000200000000100080000000000000400000000000000000000000000000000000000000000000080000080000000808000800000008000800080800000C0C0C000C0DCC000F0CAA6000020400000206000002080000020A0000020C0000020E00000400000004020000040400000406000004080000040A0
310
000040C0000040E00000600000006020000060400000606000006080000060A0000060C0000060E00000800000008020000080400000806000008080000080A0000080C0000080E00000A0000000A0200000A0400000A0600000A0800000A0A00000A0C00000A0E00000C0000000C0200000C0400000C0600000C0800000C0
310
A00000C0C00000C0E00000E0000000E0200000E0400000E0600000E0800000E0A00000E0C00000E0E00040000000400020004000400040006000400080004000A0004000C0004000E00040200000402020004020400040206000402080004020A0004020C0004020E000404000004040200040404000404060004040800040
310
40A0004040C0004040E00040600000406020004060400040606000406080004060A0004060C0004060E00040800000408020004080400040806000408080004080A0004080C0004080E00040A0000040A0200040A0400040A0600040A0800040A0A00040A0C00040A0E00040C0000040C0200040C0400040C0600040C08000
310
40C0A00040C0C00040C0E00040E0000040E0200040E0400040E0600040E0800040E0A00040E0C00040E0E00080000000800020008000400080006000800080008000A0008000C0008000E00080200000802020008020400080206000802080008020A0008020C0008020E00080400000804020008040400080406000804080
310
008040A0008040C0008040E00080600000806020008060400080606000806080008060A0008060C0008060E00080800000808020008080400080806000808080008080A0008080C0008080E00080A0000080A0200080A0400080A0600080A0800080A0A00080A0C00080A0E00080C0000080C0200080C0400080C0600080C0
310
800080C0A00080C0C00080C0E00080E0000080E0200080E0400080E0600080E0800080E0A00080E0C00080E0E000C0000000C0002000C0004000C0006000C0008000C000A000C000C000C000E000C0200000C0202000C0204000C0206000C0208000C020A000C020C000C020E000C0400000C0402000C0404000C0406000C0
310
408000C040A000C040C000C040E000C0600000C0602000C0604000C0606000C0608000C060A000C060C000C060E000C0800000C0802000C0804000C0806000C0808000C080A000C080C000C080E000C0A00000C0A02000C0A04000C0A06000C0A08000C0A0A000C0A0C000C0A0E000C0C00000C0C02000C0C04000C0C06000
310
C0C08000C0C0A000F0FBFF00A4A0A000808080000000FF0000FF000000FFFF00FF000000FF00FF00FFFF0000FFFFFF0000000000000000000000000000000000000000000000000000000000000000000000000000000000000000000000000000000000000000000000000000000000000000000000000000000000000000
310
00000000000000000000000000000000000000000000000000000000000000000000000000000000000000000000000000000000000000000000000000000000000000000000000000000000000000000000000000000000000000000000000000000000000000000000000000000000000000000000000000000000000000
310
000000000000000000000000000000000000000000000000000000000000000000000000000000000000000000000000000000000000000000000000000000000000000000000000000000000000000000000000000000000000000000000000000000000000000000FF000000000000000000000000000000000000000000
310
00000000000000000000FF000000000000000000000000000000000000FFFFFFFFFFFFFF0000000000FFFF0000000000000000000000FFFFFFFFFFFFFF000000000000FF000000FFFF00FFFFFFFF0000000000000000FF000000000000000000000000FF00FFFF000000FF000000FF00000000000000FF0000000000000000
310
00000000FF00FF00000000FF000000FF0000000000FFFFFFFFFFFFFFFFFFFFFFFFFFFFFFFFFFFFFFFFFFFFFFFFFFFFFFFFFFFF00000000FF000000000000000000000000FF00FF000000FFFFFF000000FF000000000000FF000000000000000000000000FF00FF00000000FF000000FF00000000000000FF00000000000000
310
0000000000FF00FF00000000FF000000FF00000000000000FFFFFFFFFFFFFF000000000000FF0000FFFF0000FF00FFFF000000000000000000000000000000FFFFFFFFFFFFFF00000000FFFFFFFF000000000000000000000000000000000000000000000000000000000000FF000000000000000000000000000000000000
310
00000000000000000000000000FF0000000000000000000000000000000000000000000000000000000000000000000000000000000000000000000000000000000000000000000000000000000000000000000000000000000000000000000000000000000000000000000000000000000000000000000000000000000000
310
00000000000000000000000000000000000000000000000000000000000000000000000000000000000000000000000000000000000000000000000000000000000000000000000000000000000000000000000000000000000000000000000000000000000000000000000000000000000000000000000000000000000000
310
0000000000000000000000000000000000000000000000000000000000000000000000000000000000000000000000000000000000000000
102
{BLKREFS
331
171E
331
172B
331
1736
331
174E
102
}
1001
AcDbDynamicBlockGUID
1000
{63667387-D1AD-44FC-9ABB-F8AB95C0C54C}
1001
AcDbBlockRepETag
1070
     1
1071
        9
1001
ACAD
1000
DesignCenter Data
1002
{
1070
     1
1070
     4
1002
}
  0
BLOCK_RECORD
  5
1765
102
{ACAD_XDICTIONARY
360
1D18
102
}
330
1
100
AcDbSymbolTableRecord
100
AcDbBlockTableRecord
  2
*U9
340
0
310
2800000020000000200000000100080000000000000400000000000000000000000000000000000000000000000080000080000000808000800000008000800080800000C0C0C000C0DCC000F0CAA6000020400000206000002080000020A0000020C0000020E00000400000004020000040400000406000004080000040A0
310
000040C0000040E00000600000006020000060400000606000006080000060A0000060C0000060E00000800000008020000080400000806000008080000080A0000080C0000080E00000A0000000A0200000A0400000A0600000A0800000A0A00000A0C00000A0E00000C0000000C0200000C0400000C0600000C0800000C0
310
A00000C0C00000C0E00000E0000000E0200000E0400000E0600000E0800000E0A00000E0C00000E0E00040000000400020004000400040006000400080004000A0004000C0004000E00040200000402020004020400040206000402080004020A0004020C0004020E000404000004040200040404000404060004040800040
310
40A0004040C0004040E00040600000406020004060400040606000406080004060A0004060C0004060E00040800000408020004080400040806000408080004080A0004080C0004080E00040A0000040A0200040A0400040A0600040A0800040A0A00040A0C00040A0E00040C0000040C0200040C0400040C0600040C08000
310
40C0A00040C0C00040C0E00040E0000040E0200040E0400040E0600040E0800040E0A00040E0C00040E0E00080000000800020008000400080006000800080008000A0008000C0008000E00080200000802020008020400080206000802080008020A0008020C0008020E00080400000804020008040400080406000804080
310
008040A0008040C0008040E00080600000806020008060400080606000806080008060A0008060C0008060E00080800000808020008080400080806000808080008080A0008080C0008080E00080A0000080A0200080A0400080A0600080A0800080A0A00080A0C00080A0E00080C0000080C0200080C0400080C0600080C0
310
800080C0A00080C0C00080C0E00080E0000080E0200080E0400080E0600080E0800080E0A00080E0C00080E0E000C0000000C0002000C0004000C0006000C0008000C000A000C000C000C000E000C0200000C0202000C0204000C0206000C0208000C020A000C020C000C020E000C0400000C0402000C0404000C0406000C0
310
408000C040A000C040C000C040E000C0600000C0602000C0604000C0606000C0608000C060A000C060C000C060E000C0800000C0802000C0804000C0806000C0808000C080A000C080C000C080E000C0A00000C0A02000C0A04000C0A06000C0A08000C0A0A000C0A0C000C0A0E000C0C00000C0C02000C0C04000C0C06000
310
C0C08000C0C0A000F0FBFF00A4A0A000808080000000FF0000FF000000FFFF00FF000000FF00FF00FFFF0000FFFFFF0000000000000000000000000000000000000000000000000000000000000000000000000000000000000000000000000000000000000000000000000000000000000000000000000000000000000000
310
00000000000000000000000000000000000000000000000000000000000000000000000000000000000000000000000000000000000000000000000000000000000000000000000000000000000000000000000000000000000000000000000000000000000000000000000000000000000000000000000000000000000000
310
00000000000000000000000000000000000000000000000000000000000000000000000000000000000000000000000000000000000000000000000000000000000000000000000000000000000000000000000000000000000000000000000000000000000000000000000000000000000000000000000000000000000000
310
000000000000000000000000000000000000000000000000000000000000000000000000000000000000000000000000000000000000000000000000000000000000000000000000000000000000000000000000000000000000FFFFFFFFFFFFFFFFFFFFFFFFFFFFFFFFFFFFFFFFFFFF0000000000FFFFFFFF00FFFFFFFFFF
310
FFFFFFFFFFFFFFFFFFFFFFFFFFFFFFFFFFFFFF0000FFFFFFFFFFFFFFFFFFFFFFFFFFFFFF000000FFFFFFFFFFFFFF0000FF000000000000FFFFFF00FFFFFFFFFFFFFFFFFFFFFFFFFFFFFFFFFFFFFFFFFFFF00000000000000000000FFFFFFFFFFFFFFFFFFFFFFFFFFFFFF0000000000000000000000000000000000FFFFFFFF
310
FFFFFFFFFFFFFFFFFFFFFF0000000000000000000000000000000000000000000000000000000000000000000000000000000000000000000000000000000000000000000000000000000000000000000000000000000000000000000000000000000000000000000000000000000000000000000000000000000000000000
310
00000000000000000000000000000000000000000000000000000000000000000000000000000000000000000000000000000000000000000000000000000000000000000000000000000000000000000000000000000000000000000000000000000000000000000000000000000000000000000000000000000000000000
310
00000000000000000000000000000000000000000000000000000000000000000000000000000000000000000000000000000000000000000000000000000000000000000000000000000000000000000000000000000000000000000000000000000000000000000000000000000000000000000000000000000000000000
310
0000000000000000000000000000000000000000000000000000000000000000000000000000000000000000000000000000000000000000
1001
AcDbDynamicBlockTrueName
1000
TITLE
1001
AcDbDynamicBlockGUID
1000
{65D03009-AFDC-4B18-8F84-CB5E28FB53D8}
1001
AcDbBlockRepETag
1070
     1
1071
       29
1001
ACAD
1000
DesignCenter Data
1002
{
1070
     1
1070
     4
1002
}
  0
BLOCK_RECORD
  5
177B
102
{ACAD_XDICTIONARY
360
177C
102
}
330
1
100
AcDbSymbolTableRecord
100
AcDbBlockTableRecord
  2
text_allg
340
0
310
2800000020000000200000000100080000000000000400000000000000000000000000000000000000000000000080000080000000808000800000008000800080800000C0C0C000C0DCC000F0CAA6000020400000206000002080000020A0000020C0000020E00000400000004020000040400000406000004080000040A0
310
000040C0000040E00000600000006020000060400000606000006080000060A0000060C0000060E00000800000008020000080400000806000008080000080A0000080C0000080E00000A0000000A0200000A0400000A0600000A0800000A0A00000A0C00000A0E00000C0000000C0200000C0400000C0600000C0800000C0
310
A00000C0C00000C0E00000E0000000E0200000E0400000E0600000E0800000E0A00000E0C00000E0E00040000000400020004000400040006000400080004000A0004000C0004000E00040200000402020004020400040206000402080004020A0004020C0004020E000404000004040200040404000404060004040800040
310
40A0004040C0004040E00040600000406020004060400040606000406080004060A0004060C0004060E00040800000408020004080400040806000408080004080A0004080C0004080E00040A0000040A0200040A0400040A0600040A0800040A0A00040A0C00040A0E00040C0000040C0200040C0400040C0600040C08000
310
40C0A00040C0C00040C0E00040E0000040E0200040E0400040E0600040E0800040E0A00040E0C00040E0E00080000000800020008000400080006000800080008000A0008000C0008000E00080200000802020008020400080206000802080008020A0008020C0008020E00080400000804020008040400080406000804080
310
008040A0008040C0008040E00080600000806020008060400080606000806080008060A0008060C0008060E00080800000808020008080400080806000808080008080A0008080C0008080E00080A0000080A0200080A0400080A0600080A0800080A0A00080A0C00080A0E00080C0000080C0200080C0400080C0600080C0
310
800080C0A00080C0C00080C0E00080E0000080E0200080E0400080E0600080E0800080E0A00080E0C00080E0E000C0000000C0002000C0004000C0006000C0008000C000A000C000C000C000E000C0200000C0202000C0204000C0206000C0208000C020A000C020C000C020E000C0400000C0402000C0404000C0406000C0
310
408000C040A000C040C000C040E000C0600000C0602000C0604000C0606000C0608000C060A000C060C000C060E000C0800000C0802000C0804000C0806000C0808000C080A000C080C000C080E000C0A00000C0A02000C0A04000C0A06000C0A08000C0A0A000C0A0C000C0A0E000C0C00000C0C02000C0C04000C0C06000
310
C0C08000C0C0A000F0FBFF00A4A0A000808080000000FF0000FF000000FFFF00FF000000FF00FF00FFFF0000FFFFFF0000000000000000000000000000000000000000000000000000000000000000000000000000000000000000000000000000000000000000000000000000000000000000000000000000000000000000
310
00000000000000000000000000000000000000000000000000000000000000000000000000000000000000000000000000000000000000000000000000000000000000000000000000000000000000000000000000000000000000000000000000000000000000000000000000000000000000000000000000000000000000
310
00000000000000000000000000000000000000000000000000000000000000000000000000000000000000000000000000000000000000000000000000000000000000000000000000000000000000000000000000000000000000000000000000000000000000000000000000000000000000000000000000000000000000
310
00000000000000000000000000000000000000000000000000000000000000000000000000000000000000000000000000000000000000000000000000000000000000000000000000000000000000000000000000000000000000000000000000000000000000000000000000000000000000000000000000000000000000
310
000000000000FF00FF000000000000000000000000FFFFFFFFFFFFFFFFFFFFFFFFFFFFFFFFFFFFFFFF00000000FFFFFF0000000000FFFFFFFFFFFFFFFFFFFFFFFFFFFFFFFFFFFFFFFFFFFFFFFFFFFFFFFFFFFF0000000000000000000000000000000000000000000000FF00FF000000000000000000000000000000000000
310
00000000000000000000000000000000000000000000000000000000000000000000000000000000000000000000000000000000000000000000000000000000000000000000000000000000000000000000000000000000000000000000000000000000000000000000000000000000000000000000000000000000000000
310
00000000000000000000000000000000000000000000000000000000000000000000000000000000000000000000000000000000000000000000000000000000000000000000000000000000000000000000000000000000000000000000000000000000000000000000000000000000000000000000000000000000000000
310
00000000000000000000000000000000000000000000000000000000000000000000000000000000000000000000000000000000000000000000000000000000000000000000000000000000000000000000000000000000000000000000000000000000000000000000000000000000000000000000000000000000000000
310
0000000000000000000000000000000000000000000000000000000000000000000000000000000000000000000000000000000000000000
102
{BLKREFS
331
1859
331
1D07
331
1D32
102
}
1001
AcDbDynamicBlockGUID
1000
{D409DF77-E7A3-413F-9DD9-C199792E5581}
1001
AcDbBlockRepETag
1070
     1
1071
        2
1001
ACAD
1000
DesignCenter Data
1002
{
1070
     1
1070
     4
1002
}
  0
BLOCK_RECORD
  5
17CE
102
{ACAD_XDICTIONARY
360
17F0
102
}
330
1
100
AcDbSymbolTableRecord
100
AcDbBlockTableRecord
  2
Rahmen
340
0
1001
ACAD
1000
DesignCenter Data
1002
{
1070
     1
1070
     4
1002
}
  0
BLOCK_RECORD
  5
1D24
102
{ACAD_XDICTIONARY
360
1D43
102
}
330
1
100
AcDbSymbolTableRecord
100
AcDbBlockTableRecord
  2
*U12
340
0
102
{BLKREFS
331
1720
331
172C
331
1738
331
1750
331
1942
331
195D
102
}
1001
AcDbBlockRepBTag
1070
     1
1005
1765
  0
BLOCK_RECORD
  5
4433
330
1
100
AcDbSymbolTableRecord
100
AcDbBlockTableRecord
  2
*D13
340
0
  0
BLOCK_RECORD
  5
47D1
330
1
100
AcDbSymbolTableRecord
100
AcDbBlockTableRecord
  2
*D14
340
0
  0
BLOCK_RECORD
  5
47FB
330
1
100
AcDbSymbolTableRecord
100
AcDbBlockTableRecord
  2
*D15
340
0
  0
BLOCK_RECORD
  5
4825
330
1
100
AcDbSymbolTableRecord
100
AcDbBlockTableRecord
  2
*D16
340
0
  0
ENDTAB
  0
ENDSEC
  0
SECTION
  2
BLOCKS
  0
BLOCK
  5
38
330
37
100
AcDbEntity
  8
0
100
AcDbBlockBegin
  2
*Model_Space
 70
     0
 10
0.0
 20
0.0
 30
0.0
  3
*Model_Space
  1

  0
ENDBLK
  5
39
330
37
100
AcDbEntity
  8
0
100
AcDbBlockEnd
  0
BLOCK
  5
34
330
33
100
AcDbEntity
 67
     1
  8
0
100
AcDbBlockBegin
  2
*Paper_Space
 70
     0
 10
0.0
 20
0.0
 30
0.0
  3
*Paper_Space
  1

  0
ENDBLK
  5
35
330
33
100
AcDbEntity
 67
     1
  8
0
100
AcDbBlockEnd
  0
BLOCK
  5
3C
330
3B
100
AcDbEntity
 67
     1
  8
0
100
AcDbBlockBegin
  2
*Paper_Space0
 70
     0
 10
0.0
 20
0.0
 30
0.0
  3
*Paper_Space0
  1

  0
ENDBLK
  5
3D
330
3B
100
AcDbEntity
 67
     1
  8
0
100
AcDbBlockEnd
  0
BLOCK
  5
170B
330
170A
100
AcDbEntity
  8
0
100
AcDbBlockBegin
  2
GENAXEH
 70
     0
 10
0.0
 20
0.0
 30
0.0
  3
GENAXEH
  1

  0
LINE
  5
170C
330
170A
100
AcDbEntity
  8
0
100
AcDbLine
 10
-1.0
 20
0.0
 30
0.0
 11
1.0
 21
0.0
 31
0.0
  0
ENDBLK
  5
170D
330
170A
100
AcDbEntity
  8
0
100
AcDbBlockEnd
  0
BLOCK
  5
170F
330
170E
100
AcDbEntity
  8
0
100
AcDbBlockBegin
  2
Title_A4P
 70
     2
 10
0.0
 20
0.0
 30
0.0
  3
Title_A4P
  1

  4
Schriftfeld A4 hoch
  0
LINE
  5
184C
330
170E
100
AcDbEntity
  8
91100_TIP_SYM
 48
0.5
370
    18
100
AcDbLine
 10
1867.575661690334
 20
148.982417962376
 30
0.0
 11
1884.075661690333
 21
148.982417962376
 31
0.0
1001
AcDbBlockRepETag
1070
     1
1071
        0
1005
184C
  0
LINE
  5
184D
330
170E
100
AcDbEntity
  8
91200_TIP_SYMB
370
    18
100
AcDbLine
 10
1882.075661690334
 20
143.982417962376
 30
0.0
 11
1869.575661690334
 21
145.4824179623761
 31
0.0
1001
AcDbBlockRepETag
1070
     1
1071
        1
1005
184D
  0
LINE
  5
184E
330
170E
100
AcDbEntity
  8
91200_TIP_SYMB
370
    18
100
AcDbLine
 10
1869.575661690334
 20
152.482417962376
 30
0.0
 11
1882.075661690334
 21
153.9824179623761
 31
0.0
1001
AcDbBlockRepETag
1070
     1
1071
        2
1005
184E
  0
LINE
  5
184F
330
170E
100
AcDbEntity
  8
91200_TIP_SYMB
370
    18
100
AcDbLine
 10
1869.575661690334
 20
145.4824179623761
 30
0.0
 11
1869.575661690334
 21
152.482417962376
 31
0.0
1001
AcDbBlockRepETag
1070
     1
1071
        3
1005
184F
  0
CIRCLE
  5
1850
330
170E
100
AcDbEntity
  8
91200_TIP_SYMB
370
    18
100
AcDbCircle
 10
1892.189308243912
 20
148.982417962376
 30
0.0
 40
5.0
1001
AcDbBlockRepETag
1070
     1
1071
        4
1005
1850
  0
LINE
  5
1851
330
170E
100
AcDbEntity
  8
91200_TIP_SYMB
370
    18
100
AcDbLine
 10
1882.075661690334
 20
153.9824179623761
 30
0.0
 11
1882.075661690334
 21
143.982417962376
 31
0.0
1001
AcDbBlockRepETag
1070
     1
1071
        5
1005
1851
  0
CIRCLE
  5
1852
330
170E
100
AcDbEntity
  8
91200_TIP_SYMB
370
    18
100
AcDbCircle
 10
1892.189308243912
 20
148.982417962376
 30
0.0
 40
2.0
1001
AcDbBlockRepETag
1070
     1
1071
        6
1005
1852
  0
LINE
  5
1853
330
170E
100
AcDbEntity
  8
91100_TIP_SYM
 48
0.5
370
    18
100
AcDbLine
 10
1892.189308243912
 20
155.9824179623761
 30
0.0
 11
1892.189308243912
 21
141.982417962376
 31
0.0
1001
AcDbBlockRepETag
1070
     1
1071
        7
1005
1853
  0
LINE
  5
1854
330
170E
100
AcDbEntity
  8
91100_TIP_SYM
 48
0.5
370
    18
100
AcDbLine
 10
1885.189308243912
 20
148.982417962376
 30
0.0
 11
1899.189308243912
 21
148.982417962376
 31
0.0
1001
AcDbBlockRepETag
1070
     1
1071
        8
1005
1854
  0
MTEXT
  5
1855
330
170E
100
AcDbEntity
  8
92000_TITLE
100
AcDbMText
 10
1974.439308243912
 20
142.9824179623761
 30
0.0
 40
2.5
 41
42.5
 71
     5
 72
     5
  1
Format/Size: DIN A4
 73
     1
 44
1.0
1001
ACAD
1000
MTEXTBEGIN
1070
    73
1070
     1
1070
    44
1040
1.0
1070
    74
1070
     0
1000
MTEXTEND
  0
MTEXT
  5
1856
330
170E
100
AcDbEntity
  8
92000_TITLE
370
    13
100
AcDbMText
 10
1974.439308243912
 20
142.9824179623761
 30
0.0
 40
2.5
 41
42.5
 71
     5
 72
     5
  1
Format/Size: DIN A4
 73
     1
 44
1.0
1001
ACAD
1000
MTEXTBEGIN
1070
    73
1070
     1
1070
    44
1040
1.0
1070
    74
1070
     0
1000
MTEXTEND
  0
LINE
  5
1857
330
170E
100
AcDbEntity
  8
92000_TITLE
100
AcDbLine
 10
2000.689308243912
 20
139.982417962376
 30
0.0
 11
2000.689308243912
 21
145.982417962376
 31
0.0
1001
GENIUS_GENREC_14
1002
{
1000
PYDIR
1011
1908.189308243912
1021
157.9824179623761
1031
0.0
1002
}
1002
{
1000
PXDIR
1011
2043.189308243912
1021
139.982417962376
1031
0.0
1002
}
1002
{
1000
PORI
1011
1908.189308243912
1021
139.982417962376
1031
0.0
1002
}
1002
{
1000
PINS
1011
1908.189308243912
1021
139.982417962376
1031
0.0
1002
}
1002
{
1000
HVAL
1000
18
1002
}
1002
{
1000
H
1070
     2
1002
}
1002
{
1000
WVAL
1000
135
1002
}
1002
{
1000
W
1070
     2
1002
}
1002
{
1000
C
1070
     1
1002
}
1001
GENIUS_GENOBJ-N-REC_13
1002
{
1000
OWNER
1000
GEN
1002
}
1001
GENIUS_GENODEF_13
1002
{
1000
HIER
1070
     0
1002
}
1002
{
1000
MANEDIT
1070
     0
1002
}
1002
{
1000
NOSEL
1070
     0
1002
}
1002
{
1000
BEHIND
1070
     0
1002
}
1002
{
1000
OTHER
1070
     0
1002
}
1002
{
1000
REACTOR
1002
}
1001
AcDbBlockRepETag
1070
     1
1071
        1
1005
1857
  0
LINE
  5
1858
330
170E
100
AcDbEntity
  8
92000_TITLE
100
AcDbLine
 10
2038.189308243912
 20
139.982417962376
 30
0.0
 11
2038.189308243912
 21
157.9824179623761
 31
0.0
1001
GENIUS_GENREC_14
1002
{
1000
PYDIR
1011
1903.189308243912
1021
157.9824179623761
1031
0.0
1002
}
1002
{
1000
PXDIR
1011
2038.189308243912
1021
139.982417962376
1031
0.0
1002
}
1002
{
1000
PORI
1011
1903.189308243912
1021
139.982417962376
1031
0.0
1002
}
1002
{
1000
PINS
1011
1903.189308243912
1021
139.982417962376
1031
0.0
1002
}
1002
{
1000
HVAL
1000
18
1002
}
1002
{
1000
H
1070
     2
1002
}
1002
{
1000
WVAL
1000
135
1002
}
1002
{
1000
W
1070
     2
1002
}
1002
{
1000
C
1070
     1
1002
}
1001
GENIUS_GENOBJ-N-REC_13
1002
{
1000
OWNER
1000
GEN
1002
}
1001
GENIUS_GENODEF_13
1002
{
1000
HIER
1070
     0
1002
}
1002
{
1000
MANEDIT
1070
     0
1002
}
1002
{
1000
NOSEL
1070
     0
1002
}
1002
{
1000
BEHIND
1070
     0
1002
}
1002
{
1000
OTHER
1070
     0
1002
}
1002
{
1000
REACTOR
1002
}
1001
AcDbBlockRepETag
1070
     1
1071
        0
1005
1858
  0
INSERT
  5
1859
330
170E
100
AcDbEntity
  8
0
370
    18
100
AcDbBlockReference
  2
text_allg
 10
1903.189308243912
 20
157.9824179623761
 30
0.0
1001
AcDbBlockRepETag
1070
     1
1071
        2
1005
1859
  0
MTEXT
  5
185A
330
170E
100
AcDbEntity
  8
92000_TITLE
100
AcDbMText
 10
1928.189308243912
 20
151.9824179623761
 30
0.0
 40
3.5
 41
40.0
 71
     5
 72
     5
  1
{\fSiemens Logo|b0|i0|c0|p2;s}
 73
     1
 44
1.0
1001
AcDbBlockRepETag
1070
     1
1071
        3
1005
185A
1001
ACAD
1000
MTEXTBEGIN
1070
    73
1070
     1
1070
    44
1040
1.0
1070
    74
1070
     0
1000
MTEXTEND
  0
LINE
  5
185B
330
170E
100
AcDbEntity
  8
92000_TITLE
100
AcDbLine
 10
1903.189308243912
 20
139.982417962376
 30
0.0
 11
2038.189308243912
 21
139.982417962376
 31
0.0
1001
GENIUS_GENREC_14
1002
{
1000
PYDIR
1011
1903.189308243912
1021
157.9824179623761
1031
0.0
1002
}
1002
{
1000
PXDIR
1011
2038.189308243912
1021
139.982417962376
1031
0.0
1002
}
1002
{
1000
PORI
1011
1903.189308243912
1021
139.982417962376
1031
0.0
1002
}
1002
{
1000
PINS
1011
1903.189308243912
1021
139.982417962376
1031
0.0
1002
}
1002
{
1000
HVAL
1000
18
1002
}
1002
{
1000
H
1070
     2
1002
}
1002
{
1000
WVAL
1000
135
1002
}
1002
{
1000
W
1070
     2
1002
}
1002
{
1000
C
1070
     1
1002
}
1001
GENIUS_GENOBJ-N-REC_13
1002
{
1000
OWNER
1000
GEN
1002
}
1001
GENIUS_GENODEF_13
1002
{
1000
HIER
1070
     0
1002
}
1002
{
1000
MANEDIT
1070
     0
1002
}
1002
{
1000
NOSEL
1070
     0
1002
}
1002
{
1000
BEHIND
1070
     0
1002
}
1002
{
1000
OTHER
1070
     0
1002
}
1002
{
1000
REACTOR
1002
}
1001
AcDbBlockRepETag
1070
     1
1071
        4
1005
185B
  0
LINE
  5
185C
330
170E
100
AcDbEntity
  8
92000_TITLE
100
AcDbLine
 10
2038.189308243912
 20
157.9824179623761
 30
0.0
 11
1903.189308243912
 21
157.9824179623761
 31
0.0
1001
GENIUS_GENREC_14
1002
{
1000
PYDIR
1011
1903.189308243912
1021
157.9824179623761
1031
0.0
1002
}
1002
{
1000
PXDIR
1011
2038.189308243912
1021
139.982417962376
1031
0.0
1002
}
1002
{
1000
PORI
1011
1903.189308243912
1021
139.982417962376
1031
0.0
1002
}
1002
{
1000
PINS
1011
1903.189308243912
1021
139.982417962376
1031
0.0
1002
}
1002
{
1000
HVAL
1000
18
1002
}
1002
{
1000
H
1070
     2
1002
}
1002
{
1000
WVAL
1000
135
1002
}
1002
{
1000
W
1070
     2
1002
}
1002
{
1000
C
1070
     1
1002
}
1001
GENIUS_GENOBJ-N-REC_13
1002
{
1000
OWNER
1000
GEN
1002
}
1001
GENIUS_GENODEF_13
1002
{
1000
HIER
1070
     0
1002
}
1002
{
1000
MANEDIT
1070
     0
1002
}
1002
{
1000
NOSEL
1070
     0
1002
}
1002
{
1000
BEHIND
1070
     0
1002
}
1002
{
1000
OTHER
1070
     0
1002
}
1002
{
1000
REACTOR
1002
}
1001
AcDbBlockRepETag
1070
     1
1071
        5
1005
185C
  0
LINE
  5
185D
330
170E
100
AcDbEntity
  8
92000_TITLE
100
AcDbLine
 10
2038.189308243912
 20
145.982417962376
 30
0.0
 11
1903.189308243912
 21
145.982417962376
 31
0.0
1001
GENIUS_GENREC_14
1002
{
1000
PYDIR
1011
1903.189308243912
1021
157.9824179623761
1031
0.0
1002
}
1002
{
1000
PXDIR
1011
2038.189308243912
1021
139.982417962376
1031
0.0
1002
}
1002
{
1000
PORI
1011
1903.189308243912
1021
139.982417962376
1031
0.0
1002
}
1002
{
1000
PINS
1011
1903.189308243912
1021
139.982417962376
1031
0.0
1002
}
1002
{
1000
HVAL
1000
18
1002
}
1002
{
1000
H
1070
     2
1002
}
1002
{
1000
WVAL
1000
135
1002
}
1002
{
1000
W
1070
     2
1002
}
1002
{
1000
C
1070
     1
1002
}
1001
GENIUS_GENOBJ-N-REC_13
1002
{
1000
OWNER
1000
GEN
1002
}
1001
GENIUS_GENODEF_13
1002
{
1000
HIER
1070
     0
1002
}
1002
{
1000
MANEDIT
1070
     0
1002
}
1002
{
1000
NOSEL
1070
     0
1002
}
1002
{
1000
BEHIND
1070
     0
1002
}
1002
{
1000
OTHER
1070
     0
1002
}
1002
{
1000
REACTOR
1002
}
1001
AcDbBlockRepETag
1070
     1
1071
        6
1005
185D
  0
MTEXT
  5
185E
330
170E
100
AcDbEntity
  8
92000_TITLE
370
    13
100
AcDbMText
 10
1910.439308243912
 20
142.9824179623761
 30
0.0
 40
2.5
 41
11.0
 71
     5
 72
     5
  1
Date:
 73
     1
 44
1.0
1001
AcDbBlockRepETag
1070
     1
1071
        7
1005
185E
1001
ACAD
1000
MTEXTBEGIN
1070
    73
1070
     1
1070
    44
1040
1.0
1070
    74
1070
     0
1000
MTEXTEND
  0
LINE
  5
185F
330
170E
100
AcDbEntity
  8
92000_TITLE
100
AcDbLine
 10
1903.189308243912
 20
157.9824179623761
 30
0.0
 11
1903.189308243912
 21
139.982417962376
 31
0.0
1001
GENIUS_GENREC_14
1002
{
1000
PYDIR
1011
1903.189308243912
1021
157.9824179623761
1031
0.0
1002
}
1002
{
1000
PXDIR
1011
2038.189308243912
1021
139.982417962376
1031
0.0
1002
}
1002
{
1000
PORI
1011
1903.189308243912
1021
139.982417962376
1031
0.0
1002
}
1002
{
1000
PINS
1011
1903.189308243912
1021
139.982417962376
1031
0.0
1002
}
1002
{
1000
HVAL
1000
18
1002
}
1002
{
1000
H
1070
     2
1002
}
1002
{
1000
WVAL
1000
135
1002
}
1002
{
1000
W
1070
     2
1002
}
1002
{
1000
C
1070
     1
1002
}
1001
GENIUS_GENOBJ-N-REC_13
1002
{
1000
OWNER
1000
GEN
1002
}
1001
GENIUS_GENODEF_13
1002
{
1000
HIER
1070
     0
1002
}
1002
{
1000
MANEDIT
1070
     0
1002
}
1002
{
1000
NOSEL
1070
     0
1002
}
1002
{
1000
BEHIND
1070
     0
1002
}
1002
{
1000
OTHER
1070
     0
1002
}
1002
{
1000
REACTOR
1002
}
1001
AcDbBlockRepETag
1070
     1
1071
        8
1005
185F
  0
MTEXT
  5
1860
330
170E
100
AcDbEntity
  8
92000_TITLE
370
    13
100
AcDbMText
 10
1935.439308243912
 20
142.9824179623761
 30
0.0
 40
2.5
 41
11.0
 71
     5
 72
     5
  1
Name:
 73
     1
 44
1.0
1001
AcDbBlockRepETag
1070
     1
1071
        9
1005
1860
1001
ACAD
1000
MTEXTBEGIN
1070
    73
1070
     1
1070
    44
1040
1.0
1070
    74
1070
     0
1000
MTEXTEND
  0
LINE
  5
1861
330
170E
100
AcDbEntity
  8
92000_TITLE
100
AcDbLine
 10
1928.189308243912
 20
145.982417962376
 30
0.0
 11
1928.189308243912
 21
139.982417962376
 31
0.0
1001
GENIUS_GENREC_14
1002
{
1000
PYDIR
1011
1903.189308243912
1021
157.9824179623761
1031
0.0
1002
}
1002
{
1000
PXDIR
1011
2038.189308243912
1021
139.982417962376
1031
0.0
1002
}
1002
{
1000
PORI
1011
1903.189308243912
1021
139.982417962376
1031
0.0
1002
}
1002
{
1000
PINS
1011
1903.189308243912
1021
139.982417962376
1031
0.0
1002
}
1002
{
1000
HVAL
1000
18
1002
}
1002
{
1000
H
1070
     2
1002
}
1002
{
1000
WVAL
1000
135
1002
}
1002
{
1000
W
1070
     2
1002
}
1002
{
1000
C
1070
     1
1002
}
1001
GENIUS_GENOBJ-N-REC_13
1002
{
1000
OWNER
1000
GEN
1002
}
1001
GENIUS_GENODEF_13
1002
{
1000
HIER
1070
     0
1002
}
1002
{
1000
MANEDIT
1070
     0
1002
}
1002
{
1000
NOSEL
1070
     0
1002
}
1002
{
1000
BEHIND
1070
     0
1002
}
1002
{
1000
OTHER
1070
     0
1002
}
1002
{
1000
REACTOR
1002
}
1001
AcDbBlockRepETag
1070
     1
1071
       10
1005
1861
  0
TEXT
  5
1862
330
170E
100
AcDbEntity
  8
92000_TITLE
370
    18
100
AcDbText
 10
2004.564308243912
 20
141.733364932073
 30
0.0
 40
2.5
  1
Massstab/Scale:
100
AcDbText
1001
AcDbBlockRepETag
1070
     1
1071
       11
1005
0
  0
LINE
  5
1863
330
170E
100
AcDbEntity
  8
92000_TITLE
100
AcDbLine
 10
1953.189308243912
 20
157.9824179623761
 30
0.0
 11
1953.189308243912
 21
139.982417962376
 31
0.0
1001
GENIUS_GENREC_14
1002
{
1000
PYDIR
1011
1903.189308243912
1021
157.9824179623761
1031
0.0
1002
}
1002
{
1000
PXDIR
1011
2038.189308243912
1021
139.982417962376
1031
0.0
1002
}
1002
{
1000
PORI
1011
1903.189308243912
1021
139.982417962376
1031
0.0
1002
}
1002
{
1000
PINS
1011
1903.189308243912
1021
139.982417962376
1031
0.0
1002
}
1002
{
1000
HVAL
1000
18
1002
}
1002
{
1000
H
1070
     2
1002
}
1002
{
1000
WVAL
1000
135
1002
}
1002
{
1000
W
1070
     2
1002
}
1002
{
1000
C
1070
     1
1002
}
1001
GENIUS_GENOBJ-N-REC_13
1002
{
1000
OWNER
1000
GEN
1002
}
1001
GENIUS_GENODEF_13
1002
{
1000
HIER
1070
     0
1002
}
1002
{
1000
MANEDIT
1070
     0
1002
}
1002
{
1000
NOSEL
1070
     0
1002
}
1002
{
1000
BEHIND
1070
     0
1002
}
1002
{
1000
OTHER
1070
     0
1002
}
1002
{
1000
REACTOR
1002
}
1001
AcDbBlockRepETag
1070
     1
1071
       12
1005
1863
  0
LINE
  5
1864
330
170E
100
AcDbEntity
  8
92000_TITLE
100
AcDbLine
 10
2000.689308243912
 20
139.982417962376
 30
0.0
 11
2000.689308243912
 21
145.982417962376
 31
0.0
1001
GENIUS_GENREC_14
1002
{
1000
PYDIR
1011
1908.189308243912
1021
157.9824179623761
1031
0.0
1002
}
1002
{
1000
PXDIR
1011
2043.189308243912
1021
139.982417962376
1031
0.0
1002
}
1002
{
1000
PORI
1011
1908.189308243912
1021
139.982417962376
1031
0.0
1002
}
1002
{
1000
PINS
1011
1908.189308243912
1021
139.982417962376
1031
0.0
1002
}
1002
{
1000
HVAL
1000
18
1002
}
1002
{
1000
H
1070
     2
1002
}
1002
{
1000
WVAL
1000
135
1002
}
1002
{
1000
W
1070
     2
1002
}
1002
{
1000
C
1070
     1
1002
}
1001
GENIUS_GENOBJ-N-REC_13
1002
{
1000
OWNER
1000
GEN
1002
}
1001
GENIUS_GENODEF_13
1002
{
1000
HIER
1070
     0
1002
}
1002
{
1000
MANEDIT
1070
     0
1002
}
1002
{
1000
NOSEL
1070
     0
1002
}
1002
{
1000
BEHIND
1070
     0
1002
}
1002
{
1000
OTHER
1070
     0
1002
}
1002
{
1000
REACTOR
1002
}
1001
AcDbBlockRepETag
1070
     1
1071
        1
1005
0
  0
ATTDEF
  5
1865
330
170E
100
AcDbEntity
  8
92000_TITLE
370
    13
100
AcDbText
 10
1946.189308243912
 20
141.7324179623761
 30
0.0
 40
2.5
  1

 72
     1
 11
1946.189308243912
 21
142.9824179623761
 31
0.0
100
AcDbAttributeDefinition
  3
Name
  2
NAME
 70
     0
 74
     2
1001
AcDbBlockRepETag
1070
     1
1071
       15
1005
0
  0
ATTDEF
  5
1866
330
170E
100
AcDbEntity
  8
92000_TITLE
370
    13
100
AcDbText
 10
1921.189308243912
 20
141.7324179623761
 30
0.0
 40
2.5
  1

 72
     1
 11
1921.189308243912
 21
142.9824179623761
 31
0.0
100
AcDbAttributeDefinition
  3
Datum
  2
DATUM
 70
     0
 74
     2
1001
AcDbBlockRepETag
1070
     1
1071
       16
1005
0
  0
ATTDEF
  5
1867
330
170E
100
AcDbEntity
  8
92000_TITLE
370
    13
100
AcDbText
 10
1995.689308243912
 20
147.210201292536
 30
0.0
 40
2.5
  1

 72
     1
 11
1995.689308243912
 21
148.460201292536
 31
0.0
100
AcDbAttributeDefinition
  3
A-Name
  2
ARTIKELNAME
 70
     0
 74
     2
1001
AcDbBlockRepETag
1070
     1
1071
       13
1005
0
  0
ATTDEF
  5
1868
330
170E
100
AcDbEntity
  8
92000_TITLE
370
    25
100
AcDbText
 10
1995.689308243912
 20
152.2324179623762
 30
0.0
 40
3.5
  1

 72
     1
 11
1995.689308243912
 21
153.9824179623762
 31
0.0
100
AcDbAttributeDefinition
  3
Z-Name
  2
ZEICHNUNGSNAME
 70
     0
 74
     2
1001
AcDbBlockRepETag
1070
     1
1071
       14
1005
0
  0
ATTDEF
  5
1869
330
170E
100
AcDbEntity
  8
92000_TITLE
370
    13
100
AcDbText
 10
2030.180171328135
 20
141.8273231439694
 30
0.0
 40
2.5
  1
1:1
 72
     1
 11
2031.805171328135
 21
143.0773231439694
 31
0.0
100
AcDbAttributeDefinition
  3
Massstab
  2
MASSSTAB/SCALE:
 70
     0
 74
     2
1001
AcDbBlockRepETag
1070
     1
1071
       13
1005
0
  0
ENDBLK
  5
171B
330
170E
100
AcDbEntity
  8
0
100
AcDbBlockEnd
  0
BLOCK
  5
171D
330
171C
100
AcDbEntity
  8
0
100
AcDbBlockBegin
  2
Title_A4L
 70
     2
 10
0.0
 20
0.0
 30
0.0
  3
Title_A4L
  1

  4
Schriftfeld A4 quer
  0
INSERT
  5
171E
330
171C
100
AcDbEntity
  8
0
100
AcDbBlockReference
  2
TYP_SYMB
 10
-135.0
 20
0.0
 30
0.0
  0
MTEXT
  5
171F
330
171C
100
AcDbEntity
  8
92000_TITLE
370
    13
100
AcDbMText
 10
-63.75
 20
3.0
 30
0.0
 40
2.5
 41
42.5
 71
     5
 72
     5
  1
Format/Size: DIN A4
 73
     1
 44
1.0
1001
ACAD
1000
MTEXTBEGIN
1070
    73
1070
     1
1070
    44
1040
1.0
1070
    74
1070
     0
1000
MTEXTEND
  0
INSERT
  5
1720
102
{ACAD_XDICTIONARY
360
1B24
102
}
330
171C
100
AcDbEntity
  8
0
370
    18
100
AcDbBlockReference
 66
     1
  2
*U12
 10
0.0
 20
0.0
 30
0.0
  0
ATTRIB
  5
1721
330
1720
100
AcDbEntity
  8
92000_TITLE
370
    13
100
AcDbText
 10
-8.009136915777162
 20
1.844905181593389
 30
0.0
 40
2.5
  1
1:1
 72
     1
 11
-6.384136915777162
 21
3.094905181593389
 31
0.0
100
AcDbAttribute
  2
MASSSTAB/SCALE:
 70
     0
 74
     2
1001
AcDbBlockRepETag
1070
     1
1071
       13
1005
0
  0
ATTRIB
  5
1722
330
1720
100
AcDbEntity
  8
92000_TITLE
370
    25
100
AcDbText
 10
-42.49999999999952
 20
12.25000000000011
 30
0.0
 40
3.5
  1

 72
     1
 11
-42.49999999999952
 21
14.00000000000011
 31
0.0
100
AcDbAttribute
  2
ZEICHNUNGSNAME
 70
     0
 74
     2
1001
AcDbBlockRepETag
1070
     1
1071
       14
1005
0
  0
ATTRIB
  5
1723
330
1720
100
AcDbEntity
  8
92000_TITLE
370
    13
100
AcDbText
 10
-42.49999999999952
 20
7.22778333016015
 30
0.0
 40
2.5
  1

 72
     1
 11
-42.49999999999952
 21
8.47778333016015
 31
0.0
100
AcDbAttribute
  2
ARTIKELNAME
 70
     0
 74
     2
1001
AcDbBlockRepETag
1070
     1
1071
       13
1005
0
  0
ATTRIB
  5
1724
330
1720
100
AcDbEntity
  8
92000_TITLE
370
    13
100
AcDbText
 10
-116.9999999999995
 20
1.75
 30
0.0
 40
2.5
  1

 72
     1
 11
-116.9999999999995
 21
3.0
 31
0.0
100
AcDbAttribute
  2
DATUM
 70
     0
 74
     2
1001
AcDbBlockRepETag
1070
     1
1071
       16
1005
0
  0
ATTRIB
  5
1725
330
1720
100
AcDbEntity
  8
92000_TITLE
370
    13
100
AcDbText
 10
-91.99999999999954
 20
1.75
 30
0.0
 40
2.5
  1

 72
     1
 11
-91.99999999999954
 21
3.0
 31
0.0
100
AcDbAttribute
  2
NAME
 70
     0
 74
     2
1001
AcDbBlockRepETag
1070
     1
1071
       15
1005
0
  0
SEQEND
  5
1726
330
1720
100
AcDbEntity
  8
0
370
    18
  0
ENDBLK
  5
1727
330
171C
100
AcDbEntity
  8
0
100
AcDbBlockEnd
  0
BLOCK
  5
1729
330
1728
100
AcDbEntity
  8
0
100
AcDbBlockBegin
  2
Title_A3
 70
     2
 10
0.0
 20
0.0
 30
0.0
  3
Title_A3
  1

  4
Schriftfeld A3
  0
MTEXT
  5
172A
330
1728
100
AcDbEntity
  8
92000_TITLE
370
    13
100
AcDbMText
 10
-63.75
 20
3.0
 30
0.0
 40
2.5
 41
42.5
 71
     5
 72
     5
  1
Format/Size: DIN A3
 73
     1
 44
1.0
1001
ACAD
1000
MTEXTBEGIN
1070
    73
1070
     1
1070
    44
1040
1.0
1070
    74
1070
     0
1000
MTEXTEND
  0
INSERT
  5
172B
330
1728
100
AcDbEntity
  8
0
100
AcDbBlockReference
  2
TYP_SYMB
 10
-135.0
 20
0.0
 30
0.0
  0
INSERT
  5
172C
102
{ACAD_XDICTIONARY
360
1B2A
102
}
330
1728
100
AcDbEntity
  8
0
370
    18
100
AcDbBlockReference
 66
     1
  2
*U12
 10
0.0
 20
0.0
 30
0.0
  0
ATTRIB
  5
172D
330
172C
100
AcDbEntity
  8
92000_TITLE
370
    13
100
AcDbText
 10
-8.009136915777162
 20
1.844905181593389
 30
0.0
 40
2.5
  1
1:1
 72
     1
 11
-6.384136915777162
 21
3.094905181593389
 31
0.0
100
AcDbAttribute
  2
MASSSTAB/SCALE:
 70
     0
 74
     2
1001
AcDbBlockRepETag
1070
     1
1071
       13
1005
0
  0
ATTRIB
  5
172E
330
172C
100
AcDbEntity
  8
92000_TITLE
370
    25
100
AcDbText
 10
-42.49999999999952
 20
12.25000000000011
 30
0.0
 40
3.5
  1

 72
     1
 11
-42.49999999999952
 21
14.00000000000011
 31
0.0
100
AcDbAttribute
  2
ZEICHNUNGSNAME
 70
     0
 74
     2
1001
AcDbBlockRepETag
1070
     1
1071
       14
1005
0
  0
ATTRIB
  5
172F
330
172C
100
AcDbEntity
  8
92000_TITLE
370
    13
100
AcDbText
 10
-42.49999999999952
 20
7.22778333016015
 30
0.0
 40
2.5
  1

 72
     1
 11
-42.49999999999952
 21
8.47778333016015
 31
0.0
100
AcDbAttribute
  2
ARTIKELNAME
 70
     0
 74
     2
1001
AcDbBlockRepETag
1070
     1
1071
       13
1005
0
  0
ATTRIB
  5
1730
330
172C
100
AcDbEntity
  8
92000_TITLE
370
    13
100
AcDbText
 10
-116.9999999999995
 20
1.75
 30
0.0
 40
2.5
  1

 72
     1
 11
-116.9999999999995
 21
3.0
 31
0.0
100
AcDbAttribute
  2
DATUM
 70
     0
 74
     2
1001
AcDbBlockRepETag
1070
     1
1071
       16
1005
0
  0
ATTRIB
  5
1731
330
172C
100
AcDbEntity
  8
92000_TITLE
370
    13
100
AcDbText
 10
-91.99999999999954
 20
1.75
 30
0.0
 40
2.5
  1

 72
     1
 11
-91.99999999999954
 21
3.0
 31
0.0
100
AcDbAttribute
  2
NAME
 70
     0
 74
     2
1001
AcDbBlockRepETag
1070
     1
1071
       15
1005
0
  0
SEQEND
  5
1732
330
172C
100
AcDbEntity
  8
0
370
    18
  0
ENDBLK
  5
1733
330
1728
100
AcDbEntity
  8
0
100
AcDbBlockEnd
  0
BLOCK
  5
1735
330
1734
100
AcDbEntity
  8
0
100
AcDbBlockBegin
  2
Title_A2
 70
     2
 10
0.0
 20
0.0
 30
0.0
  3
Title_A2
  1

  4
Schriftfeld A2
  0
INSERT
  5
1736
330
1734
100
AcDbEntity
  8
0
100
AcDbBlockReference
  2
TYP_SYMB
 10
-135.0
 20
0.0
 30
0.0
  0
MTEXT
  5
1737
330
1734
100
AcDbEntity
  8
92000_TITLE
370
    13
100
AcDbMText
 10
-63.75
 20
3.0
 30
0.0
 40
2.5
 41
42.5
 71
     5
 72
     5
  1
Format/Size: DIN A2
 73
     1
 44
1.0
1001
ACAD
1000
MTEXTBEGIN
1070
    73
1070
     1
1070
    44
1040
1.0
1070
    74
1070
     0
1000
MTEXTEND
  0
INSERT
  5
1738
102
{ACAD_XDICTIONARY
360
1B30
102
}
330
1734
100
AcDbEntity
  8
0
370
    18
100
AcDbBlockReference
 66
     1
  2
*U12
 10
0.0
 20
0.0
 30
0.0
  0
ATTRIB
  5
1739
330
1738
100
AcDbEntity
  8
92000_TITLE
370
    13
100
AcDbText
 10
-8.009136915777162
 20
1.844905181593389
 30
0.0
 40
2.5
  1
1:1
 72
     1
 11
-6.384136915777162
 21
3.094905181593389
 31
0.0
100
AcDbAttribute
  2
MASSSTAB/SCALE:
 70
     0
 74
     2
1001
AcDbBlockRepETag
1070
     1
1071
       13
1005
0
  0
ATTRIB
  5
173A
330
1738
100
AcDbEntity
  8
92000_TITLE
370
    25
100
AcDbText
 10
-42.49999999999952
 20
12.25000000000011
 30
0.0
 40
3.5
  1

 72
     1
 11
-42.49999999999952
 21
14.00000000000011
 31
0.0
100
AcDbAttribute
  2
ZEICHNUNGSNAME
 70
     0
 74
     2
1001
AcDbBlockRepETag
1070
     1
1071
       14
1005
0
  0
ATTRIB
  5
173B
330
1738
100
AcDbEntity
  8
92000_TITLE
370
    13
100
AcDbText
 10
-42.49999999999952
 20
7.22778333016015
 30
0.0
 40
2.5
  1

 72
     1
 11
-42.49999999999952
 21
8.47778333016015
 31
0.0
100
AcDbAttribute
  2
ARTIKELNAME
 70
     0
 74
     2
1001
AcDbBlockRepETag
1070
     1
1071
       13
1005
0
  0
ATTRIB
  5
173C
330
1738
100
AcDbEntity
  8
92000_TITLE
370
    13
100
AcDbText
 10
-116.9999999999995
 20
1.75
 30
0.0
 40
2.5
  1

 72
     1
 11
-116.9999999999995
 21
3.0
 31
0.0
100
AcDbAttribute
  2
DATUM
 70
     0
 74
     2
1001
AcDbBlockRepETag
1070
     1
1071
       16
1005
0
  0
ATTRIB
  5
173D
330
1738
100
AcDbEntity
  8
92000_TITLE
370
    13
100
AcDbText
 10
-91.99999999999954
 20
1.75
 30
0.0
 40
2.5
  1

 72
     1
 11
-91.99999999999954
 21
3.0
 31
0.0
100
AcDbAttribute
  2
NAME
 70
     0
 74
     2
1001
AcDbBlockRepETag
1070
     1
1071
       15
1005
0
  0
SEQEND
  5
173E
330
1738
100
AcDbEntity
  8
0
370
    18
  0
ENDBLK
  5
173F
330
1734
100
AcDbEntity
  8
0
100
AcDbBlockEnd
  0
BLOCK
  5
1741
330
1740
100
AcDbEntity
  8
0
100
AcDbBlockBegin
  2
Title_A1
 70
     2
 10
0.0
 20
0.0
 30
0.0
  3
Title_A1
  1

  4
Schriftfeld A1
  0
MTEXT
  5
1941
330
1740
100
AcDbEntity
  8
92000_TITLE
370
    13
100
AcDbMText
 10
-63.75
 20
3.0
 30
0.0
 40
2.5
 41
42.5
 71
     5
 72
     5
  1
Format/Size: DIN A1
 73
     1
 44
1.0
1001
ACAD
1000
MTEXTBEGIN
1070
    73
1070
     1
1070
    44
1040
1.0
1070
    74
1070
     0
1000
MTEXTEND
  0
INSERT
  5
1942
102
{ACAD_XDICTIONARY
360
1B5A
102
}
330
1740
100
AcDbEntity
  8
0
370
    18
100
AcDbBlockReference
 66
     1
  2
*U12
 10
0.0
 20
0.0
 30
0.0
  0
ATTRIB
  5
1943
330
1942
100
AcDbEntity
  8
92000_TITLE
370
    13
100
AcDbText
 10
-8.009136915777162
 20
1.844905181593389
 30
0.0
 40
2.5
  1
1:1
 72
     1
 11
-6.384136915777162
 21
3.094905181593389
 31
0.0
100
AcDbAttribute
  2
MASSSTAB/SCALE:
 70
     0
 74
     2
1001
AcDbBlockRepETag
1070
     1
1071
       13
1005
0
  0
ATTRIB
  5
1944
330
1942
100
AcDbEntity
  8
92000_TITLE
370
    25
100
AcDbText
 10
-42.49999999999952
 20
12.25000000000011
 30
0.0
 40
3.5
  1

 72
     1
 11
-42.49999999999952
 21
14.00000000000011
 31
0.0
100
AcDbAttribute
  2
ZEICHNUNGSNAME
 70
     0
 74
     2
1001
AcDbBlockRepETag
1070
     1
1071
       14
1005
0
  0
ATTRIB
  5
1945
330
1942
100
AcDbEntity
  8
92000_TITLE
370
    13
100
AcDbText
 10
-42.49999999999952
 20
7.22778333016015
 30
0.0
 40
2.5
  1

 72
     1
 11
-42.49999999999952
 21
8.47778333016015
 31
0.0
100
AcDbAttribute
  2
ARTIKELNAME
 70
     0
 74
     2
1001
AcDbBlockRepETag
1070
     1
1071
       13
1005
0
  0
ATTRIB
  5
1946
330
1942
100
AcDbEntity
  8
92000_TITLE
370
    13
100
AcDbText
 10
-116.9999999999995
 20
1.75
 30
0.0
 40
2.5
  1

 72
     1
 11
-116.9999999999995
 21
3.0
 31
0.0
100
AcDbAttribute
  2
DATUM
 70
     0
 74
     2
1001
AcDbBlockRepETag
1070
     1
1071
       16
1005
0
  0
ATTRIB
  5
1947
330
1942
100
AcDbEntity
  8
92000_TITLE
370
    13
100
AcDbText
 10
-91.99999999999954
 20
1.75
 30
0.0
 40
2.5
  1

 72
     1
 11
-91.99999999999954
 21
3.0
 31
0.0
100
AcDbAttribute
  2
NAME
 70
     0
 74
     2
1001
AcDbBlockRepETag
1070
     1
1071
       15
1005
0
  0
SEQEND
  5
1948
330
1942
100
AcDbEntity
  8
0
370
    18
  0
ENDBLK
  5
174B
330
1740
100
AcDbEntity
  8
0
100
AcDbBlockEnd
  0
BLOCK
  5
174D
330
174C
100
AcDbEntity
  8
0
100
AcDbBlockBegin
  2
Title_A0
 70
     2
 10
0.0
 20
0.0
 30
0.0
  3
Title_A0
  1

  4
Schriftfeld A0
  0
INSERT
  5
174E
330
174C
100
AcDbEntity
  8
0
100
AcDbBlockReference
  2
TYP_SYMB
 10
-135.0
 20
0.0
 30
0.0
  0
MTEXT
  5
174F
330
174C
100
AcDbEntity
  8
92000_TITLE
370
    13
100
AcDbMText
 10
-63.75
 20
3.0
 30
0.0
 40
2.5
 41
42.5
 71
     5
 72
     5
  1
Format/Size: DIN A0
 73
     1
 44
1.0
1001
ACAD
1000
MTEXTBEGIN
1070
    73
1070
     1
1070
    44
1040
1.0
1070
    74
1070
     0
1000
MTEXTEND
  0
INSERT
  5
1750
102
{ACAD_XDICTIONARY
360
1B36
102
}
330
174C
100
AcDbEntity
  8
0
370
    18
100
AcDbBlockReference
 66
     1
  2
*U12
 10
0.0
 20
0.0
 30
0.0
  0
ATTRIB
  5
1751
330
1750
100
AcDbEntity
  8
92000_TITLE
370
    13
100
AcDbText
 10
-8.009136915777162
 20
1.844905181593389
 30
0.0
 40
2.5
  1
1:1
 72
     1
 11
-6.384136915777162
 21
3.094905181593389
 31
0.0
100
AcDbAttribute
  2
MASSSTAB/SCALE:
 70
     0
 74
     2
1001
AcDbBlockRepETag
1070
     1
1071
       13
1005
0
  0
ATTRIB
  5
1752
330
1750
100
AcDbEntity
  8
92000_TITLE
370
    25
100
AcDbText
 10
-42.49999999999952
 20
12.25000000000011
 30
0.0
 40
3.5
  1

 72
     1
 11
-42.49999999999952
 21
14.00000000000011
 31
0.0
100
AcDbAttribute
  2
ZEICHNUNGSNAME
 70
     0
 74
     2
1001
AcDbBlockRepETag
1070
     1
1071
       14
1005
0
  0
ATTRIB
  5
1753
330
1750
100
AcDbEntity
  8
92000_TITLE
370
    13
100
AcDbText
 10
-42.49999999999952
 20
7.22778333016015
 30
0.0
 40
2.5
  1

 72
     1
 11
-42.49999999999952
 21
8.47778333016015
 31
0.0
100
AcDbAttribute
  2
ARTIKELNAME
 70
     0
 74
     2
1001
AcDbBlockRepETag
1070
     1
1071
       13
1005
0
  0
ATTRIB
  5
1754
330
1750
100
AcDbEntity
  8
92000_TITLE
370
    13
100
AcDbText
 10
-116.9999999999995
 20
1.75
 30
0.0
 40
2.5
  1

 72
     1
 11
-116.9999999999995
 21
3.0
 31
0.0
100
AcDbAttribute
  2
DATUM
 70
     0
 74
     2
1001
AcDbBlockRepETag
1070
     1
1071
       16
1005
0
  0
ATTRIB
  5
1755
330
1750
100
AcDbEntity
  8
92000_TITLE
370
    13
100
AcDbText
 10
-91.99999999999954
 20
1.75
 30
0.0
 40
2.5
  1

 72
     1
 11
-91.99999999999954
 21
3.0
 31
0.0
100
AcDbAttribute
  2
NAME
 70
     0
 74
     2
1001
AcDbBlockRepETag
1070
     1
1071
       15
1005
0
  0
SEQEND
  5
1756
330
1750
100
AcDbEntity
  8
0
370
    18
  0
ENDBLK
  5
1757
330
174C
100
AcDbEntity
  8
0
100
AcDbBlockEnd
  0
BLOCK
  5
175A
330
1758
100
AcDbEntity
  8
0
100
AcDbBlockBegin
  2
TYP_SYMB
 70
     0
 10
0.0
 20
0.0
 30
0.0
  3
TYP_SYMB
  1

  0
LINE
  5
175B
330
1758
100
AcDbEntity
  8
91100_TIP_SYM
 48
0.5
370
    18
100
AcDbLine
 10
-35.61364655357738
 20
9.0
 30
0.0
 11
-19.11364655357738
 21
9.0
 31
0.0
1001
AcDbBlockRepETag
1070
     1
1071
        0
1005
175B
  0
LINE
  5
175C
330
1758
100
AcDbEntity
  8
91200_TIP_SYMB
370
    18
100
AcDbLine
 10
-21.11364655357738
 20
4.0
 30
0.0
 11
-33.61364655357738
 21
5.5
 31
0.0
1001
AcDbBlockRepETag
1070
     1
1071
        1
1005
175C
  0
LINE
  5
175D
330
1758
100
AcDbEntity
  8
91200_TIP_SYMB
370
    18
100
AcDbLine
 10
-33.61364655357738
 20
12.5
 30
0.0
 11
-21.11364655357738
 21
14.0
 31
0.0
1001
AcDbBlockRepETag
1070
     1
1071
        2
1005
175D
  0
LINE
  5
175E
330
1758
100
AcDbEntity
  8
91200_TIP_SYMB
370
    18
100
AcDbLine
 10
-33.61364655357738
 20
5.5
 30
0.0
 11
-33.61364655357738
 21
12.5
 31
0.0
1001
AcDbBlockRepETag
1070
     1
1071
        3
1005
175E
  0
CIRCLE
  5
175F
330
1758
100
AcDbEntity
  8
91200_TIP_SYMB
370
    18
100
AcDbCircle
 10
-11.0
 20
9.0
 30
0.0
 40
5.0
1001
AcDbBlockRepETag
1070
     1
1071
        4
1005
175F
  0
LINE
  5
1760
330
1758
100
AcDbEntity
  8
91200_TIP_SYMB
370
    18
100
AcDbLine
 10
-21.11364655357738
 20
14.0
 30
0.0
 11
-21.11364655357738
 21
4.0
 31
0.0
1001
AcDbBlockRepETag
1070
     1
1071
        5
1005
1760
  0
CIRCLE
  5
1761
330
1758
100
AcDbEntity
  8
91200_TIP_SYMB
370
    18
100
AcDbCircle
 10
-11.0
 20
9.0
 30
0.0
 40
2.0
1001
AcDbBlockRepETag
1070
     1
1071
        6
1005
1761
  0
LINE
  5
1762
330
1758
100
AcDbEntity
  8
91100_TIP_SYM
 48
0.5
370
    18
100
AcDbLine
 10
-11.0
 20
16.0
 30
0.0
 11
-11.0
 21
2.0
 31
0.0
1001
AcDbBlockRepETag
1070
     1
1071
        7
1005
1762
  0
LINE
  5
1763
330
1758
100
AcDbEntity
  8
91100_TIP_SYM
 48
0.5
370
    18
100
AcDbLine
 10
-18.0
 20
9.0
 30
0.0
 11
-4.0
 21
9.0
 31
0.0
1001
AcDbBlockRepETag
1070
     1
1071
        8
1005
1763
  0
ENDBLK
  5
1764
330
1758
100
AcDbEntity
  8
0
100
AcDbBlockEnd
  0
BLOCK
  5
1767
330
1765
100
AcDbEntity
  8
0
100
AcDbBlockBegin
  2
*U9
 70
     3
 10
0.0
 20
0.0
 30
0.0
  3
*U9
  1

  0
LINE
  5
1CFC
330
1765
100
AcDbEntity
  8
91100_TIP_SYM
 48
0.5
370
    18
100
AcDbLine
 10
-170.6136465535774
 20
9.0
 30
0.0
 11
-154.1136465535774
 21
9.0
 31
0.0
1001
AcDbBlockRepETag
1070
     1
1071
        0
1005
1CFC
  0
LINE
  5
1CFD
330
1765
100
AcDbEntity
  8
91200_TIP_SYMB
370
    25
100
AcDbLine
 10
-156.1136465535773
 20
4.0
 30
0.0
 11
-168.6136465535773
 21
5.5
 31
0.0
1001
AcDbBlockRepETag
1070
     1
1071
        1
1005
1CFD
  0
LINE
  5
1CFE
330
1765
100
AcDbEntity
  8
91200_TIP_SYMB
370
    25
100
AcDbLine
 10
-168.6136465535773
 20
12.5
 30
0.0
 11
-156.1136465535773
 21
14.0
 31
0.0
1001
AcDbBlockRepETag
1070
     1
1071
        2
1005
1CFE
  0
LINE
  5
1CFF
330
1765
100
AcDbEntity
  8
91200_TIP_SYMB
370
    25
100
AcDbLine
 10
-168.6136465535773
 20
5.5
 30
0.0
 11
-168.6136465535773
 21
12.5
 31
0.0
1001
AcDbBlockRepETag
1070
     1
1071
        3
1005
1CFF
  0
CIRCLE
  5
1D00
330
1765
100
AcDbEntity
  8
91200_TIP_SYMB
370
    25
100
AcDbCircle
 10
-146.0
 20
9.0
 30
0.0
 40
5.0
1001
AcDbBlockRepETag
1070
     1
1071
        4
1005
1D00
  0
LINE
  5
1D01
330
1765
100
AcDbEntity
  8
91200_TIP_SYMB
370
    25
100
AcDbLine
 10
-156.1136465535773
 20
14.0
 30
0.0
 11
-156.1136465535773
 21
4.0
 31
0.0
1001
AcDbBlockRepETag
1070
     1
1071
        5
1005
1D01
  0
CIRCLE
  5
1D02
330
1765
100
AcDbEntity
  8
91200_TIP_SYMB
370
    25
100
AcDbCircle
 10
-146.0
 20
9.0
 30
0.0
 40
2.0
1001
AcDbBlockRepETag
1070
     1
1071
        6
1005
1D02
  0
LINE
  5
1D03
330
1765
100
AcDbEntity
  8
91100_TIP_SYM
 48
0.5
370
    18
100
AcDbLine
 10
-146.0
 20
16.0
 30
0.0
 11
-146.0
 21
2.0
 31
0.0
1001
AcDbBlockRepETag
1070
     1
1071
        7
1005
1D03
  0
LINE
  5
1D04
330
1765
100
AcDbEntity
  8
91100_TIP_SYM
 48
0.5
370
    18
100
AcDbLine
 10
-153.0
 20
9.0
 30
0.0
 11
-139.0
 21
9.0
 31
0.0
1001
AcDbBlockRepETag
1070
     1
1071
        8
1005
1D04
  0
LINE
  5
1D05
330
1765
100
AcDbEntity
  8
92000_TITLE
370
    25
100
AcDbLine
 10
-37.5
 20
0.0
 30
0.0
 11
-37.5
 21
6.0
 31
0.0
1001
GENIUS_GENREC_14
1002
{
1000
PYDIR
1011
-130.0
1021
18.0
1031
0.0
1002
}
1002
{
1000
PXDIR
1011
5.0
1021
0.0
1031
0.0
1002
}
1002
{
1000
PORI
1011
-130.0
1021
0.0
1031
0.0
1002
}
1002
{
1000
PINS
1011
-130.0
1021
0.0
1031
0.0
1002
}
1002
{
1000
HVAL
1000
18
1002
}
1002
{
1000
H
1070
     2
1002
}
1002
{
1000
WVAL
1000
135
1002
}
1002
{
1000
W
1070
     2
1002
}
1002
{
1000
C
1070
     1
1002
}
1001
GENIUS_GENOBJ-N-REC_13
1002
{
1000
OWNER
1000
GEN
1002
}
1001
GENIUS_GENODEF_13
1002
{
1000
HIER
1070
     0
1002
}
1002
{
1000
MANEDIT
1070
     0
1002
}
1002
{
1000
NOSEL
1070
     0
1002
}
1002
{
1000
BEHIND
1070
     0
1002
}
1002
{
1000
OTHER
1070
     0
1002
}
1002
{
1000
REACTOR
1002
}
1001
AcDbBlockRepETag
1070
     1
1071
       17
1005
1D05
  0
LINE
  5
1D06
330
1765
100
AcDbEntity
  8
92000_TITLE
370
    25
100
AcDbLine
 10
0.0
 20
0.0
 30
0.0
 11
0.0
 21
18.0
 31
0.0
1001
GENIUS_GENREC_14
1002
{
1000
PYDIR
1011
-135.0
1021
18.0
1031
0.0
1002
}
1002
{
1000
PXDIR
1011
0.0
1021
0.0
1031
0.0
1002
}
1002
{
1000
PORI
1011
-135.0
1021
0.0
1031
0.0
1002
}
1002
{
1000
PINS
1011
-135.0
1021
0.0
1031
0.0
1002
}
1002
{
1000
HVAL
1000
18
1002
}
1002
{
1000
H
1070
     2
1002
}
1002
{
1000
WVAL
1000
135
1002
}
1002
{
1000
W
1070
     2
1002
}
1002
{
1000
C
1070
     1
1002
}
1001
GENIUS_GENOBJ-N-REC_13
1002
{
1000
OWNER
1000
GEN
1002
}
1001
GENIUS_GENODEF_13
1002
{
1000
HIER
1070
     0
1002
}
1002
{
1000
MANEDIT
1070
     0
1002
}
1002
{
1000
NOSEL
1070
     0
1002
}
1002
{
1000
BEHIND
1070
     0
1002
}
1002
{
1000
OTHER
1070
     0
1002
}
1002
{
1000
REACTOR
1002
}
1001
AcDbBlockRepETag
1070
     1
1071
       18
1005
1D06
  0
INSERT
  5
1D07
330
1765
100
AcDbEntity
  8
0
370
    25
100
AcDbBlockReference
  2
text_allg
 10
-135.0
 20
18.0
 30
0.0
1001
AcDbBlockRepETag
1070
     1
1071
       19
1005
1D07
  0
MTEXT
  5
1D08
330
1765
100
AcDbEntity
  8
92000_TITLE
100
AcDbMText
 10
-110.0
 20
12.0
 30
0.0
 40
3.5
 41
40.0
 71
     5
 72
     5
  1
{\fSiemens Logo|b0|i0|c0|p2;s}
 73
     1
 44
1.0
1001
AcDbBlockRepETag
1070
     1
1071
       20
1005
1D08
1001
ACAD
1000
MTEXTBEGIN
1070
    73
1070
     1
1070
    44
1040
1.0
1070
    74
1070
     0
1000
MTEXTEND
  0
LINE
  5
1D09
330
1765
100
AcDbEntity
  8
92000_TITLE
370
    25
100
AcDbLine
 10
-135.0
 20
0.0
 30
0.0
 11
0.0
 21
0.0
 31
0.0
1001
GENIUS_GENREC_14
1002
{
1000
PYDIR
1011
-135.0
1021
18.0
1031
0.0
1002
}
1002
{
1000
PXDIR
1011
0.0
1021
0.0
1031
0.0
1002
}
1002
{
1000
PORI
1011
-135.0
1021
0.0
1031
0.0
1002
}
1002
{
1000
PINS
1011
-135.0
1021
0.0
1031
0.0
1002
}
1002
{
1000
HVAL
1000
18
1002
}
1002
{
1000
H
1070
     2
1002
}
1002
{
1000
WVAL
1000
135
1002
}
1002
{
1000
W
1070
     2
1002
}
1002
{
1000
C
1070
     1
1002
}
1001
GENIUS_GENOBJ-N-REC_13
1002
{
1000
OWNER
1000
GEN
1002
}
1001
GENIUS_GENODEF_13
1002
{
1000
HIER
1070
     0
1002
}
1002
{
1000
MANEDIT
1070
     0
1002
}
1002
{
1000
NOSEL
1070
     0
1002
}
1002
{
1000
BEHIND
1070
     0
1002
}
1002
{
1000
OTHER
1070
     0
1002
}
1002
{
1000
REACTOR
1002
}
1001
AcDbBlockRepETag
1070
     1
1071
       21
1005
1D09
  0
LINE
  5
1D0A
330
1765
100
AcDbEntity
  8
92000_TITLE
370
    25
100
AcDbLine
 10
0.0
 20
18.0
 30
0.0
 11
-135.0
 21
18.0
 31
0.0
1001
GENIUS_GENREC_14
1002
{
1000
PYDIR
1011
-135.0
1021
18.0
1031
0.0
1002
}
1002
{
1000
PXDIR
1011
0.0
1021
0.0
1031
0.0
1002
}
1002
{
1000
PORI
1011
-135.0
1021
0.0
1031
0.0
1002
}
1002
{
1000
PINS
1011
-135.0
1021
0.0
1031
0.0
1002
}
1002
{
1000
HVAL
1000
18
1002
}
1002
{
1000
H
1070
     2
1002
}
1002
{
1000
WVAL
1000
135
1002
}
1002
{
1000
W
1070
     2
1002
}
1002
{
1000
C
1070
     1
1002
}
1001
GENIUS_GENOBJ-N-REC_13
1002
{
1000
OWNER
1000
GEN
1002
}
1001
GENIUS_GENODEF_13
1002
{
1000
HIER
1070
     0
1002
}
1002
{
1000
MANEDIT
1070
     0
1002
}
1002
{
1000
NOSEL
1070
     0
1002
}
1002
{
1000
BEHIND
1070
     0
1002
}
1002
{
1000
OTHER
1070
     0
1002
}
1002
{
1000
REACTOR
1002
}
1001
AcDbBlockRepETag
1070
     1
1071
       22
1005
1D0A
  0
LINE
  5
1D0B
330
1765
100
AcDbEntity
  8
92000_TITLE
370
    25
100
AcDbLine
 10
0.0
 20
6.0
 30
0.0
 11
-135.0
 21
6.0
 31
0.0
1001
GENIUS_GENREC_14
1002
{
1000
PYDIR
1011
-135.0
1021
18.0
1031
0.0
1002
}
1002
{
1000
PXDIR
1011
0.0
1021
0.0
1031
0.0
1002
}
1002
{
1000
PORI
1011
-135.0
1021
0.0
1031
0.0
1002
}
1002
{
1000
PINS
1011
-135.0
1021
0.0
1031
0.0
1002
}
1002
{
1000
HVAL
1000
18
1002
}
1002
{
1000
H
1070
     2
1002
}
1002
{
1000
WVAL
1000
135
1002
}
1002
{
1000
W
1070
     2
1002
}
1002
{
1000
C
1070
     1
1002
}
1001
GENIUS_GENOBJ-N-REC_13
1002
{
1000
OWNER
1000
GEN
1002
}
1001
GENIUS_GENODEF_13
1002
{
1000
HIER
1070
     0
1002
}
1002
{
1000
MANEDIT
1070
     0
1002
}
1002
{
1000
NOSEL
1070
     0
1002
}
1002
{
1000
BEHIND
1070
     0
1002
}
1002
{
1000
OTHER
1070
     0
1002
}
1002
{
1000
REACTOR
1002
}
1001
AcDbBlockRepETag
1070
     1
1071
       23
1005
1D0B
  0
MTEXT
  5
1D0C
330
1765
100
AcDbEntity
  8
92000_TITLE
370
    25
100
AcDbMText
 10
-127.75
 20
3.0
 30
0.0
 40
2.5
 41
11.0
 71
     5
 72
     5
  1
Date:
 73
     1
 44
1.0
1001
AcDbBlockRepETag
1070
     1
1071
       24
1005
1D0C
1001
ACAD
1000
MTEXTBEGIN
1070
    73
1070
     1
1070
    44
1040
1.0
1070
    74
1070
     0
1000
MTEXTEND
  0
LINE
  5
1D0D
330
1765
100
AcDbEntity
  8
92000_TITLE
370
    25
100
AcDbLine
 10
-135.0
 20
18.0
 30
0.0
 11
-135.0
 21
0.0
 31
0.0
1001
GENIUS_GENREC_14
1002
{
1000
PYDIR
1011
-135.0
1021
18.0
1031
0.0
1002
}
1002
{
1000
PXDIR
1011
0.0
1021
0.0
1031
0.0
1002
}
1002
{
1000
PORI
1011
-135.0
1021
0.0
1031
0.0
1002
}
1002
{
1000
PINS
1011
-135.0
1021
0.0
1031
0.0
1002
}
1002
{
1000
HVAL
1000
18
1002
}
1002
{
1000
H
1070
     2
1002
}
1002
{
1000
WVAL
1000
135
1002
}
1002
{
1000
W
1070
     2
1002
}
1002
{
1000
C
1070
     1
1002
}
1001
GENIUS_GENOBJ-N-REC_13
1002
{
1000
OWNER
1000
GEN
1002
}
1001
GENIUS_GENODEF_13
1002
{
1000
HIER
1070
     0
1002
}
1002
{
1000
MANEDIT
1070
     0
1002
}
1002
{
1000
NOSEL
1070
     0
1002
}
1002
{
1000
BEHIND
1070
     0
1002
}
1002
{
1000
OTHER
1070
     0
1002
}
1002
{
1000
REACTOR
1002
}
1001
AcDbBlockRepETag
1070
     1
1071
       25
1005
1D0D
  0
MTEXT
  5
1D0E
330
1765
100
AcDbEntity
  8
92000_TITLE
370
    25
100
AcDbMText
 10
-102.75
 20
3.0
 30
0.0
 40
2.5
 41
11.0
 71
     5
 72
     5
  1
Name:
 73
     1
 44
1.0
1001
AcDbBlockRepETag
1070
     1
1071
        9
1005
1D0E
1001
ACAD
1000
MTEXTBEGIN
1070
    73
1070
     1
1070
    44
1040
1.0
1070
    74
1070
     0
1000
MTEXTEND
  0
LINE
  5
1D0F
330
1765
100
AcDbEntity
  8
92000_TITLE
100
AcDbLine
 10
-110.0
 20
6.0
 30
0.0
 11
-110.0
 21
0.0
 31
0.0
1001
GENIUS_GENREC_14
1002
{
1000
PYDIR
1011
-135.0
1021
18.0
1031
0.0
1002
}
1002
{
1000
PXDIR
1011
0.0
1021
0.0
1031
0.0
1002
}
1002
{
1000
PORI
1011
-135.0
1021
0.0
1031
0.0
1002
}
1002
{
1000
PINS
1011
-135.0
1021
0.0
1031
0.0
1002
}
1002
{
1000
HVAL
1000
18
1002
}
1002
{
1000
H
1070
     2
1002
}
1002
{
1000
WVAL
1000
135
1002
}
1002
{
1000
W
1070
     2
1002
}
1002
{
1000
C
1070
     1
1002
}
1001
GENIUS_GENOBJ-N-REC_13
1002
{
1000
OWNER
1000
GEN
1002
}
1001
GENIUS_GENODEF_13
1002
{
1000
HIER
1070
     0
1002
}
1002
{
1000
MANEDIT
1070
     0
1002
}
1002
{
1000
NOSEL
1070
     0
1002
}
1002
{
1000
BEHIND
1070
     0
1002
}
1002
{
1000
OTHER
1070
     0
1002
}
1002
{
1000
REACTOR
1002
}
1001
AcDbBlockRepETag
1070
     1
1071
       10
1005
1D0F
  0
TEXT
  5
1D10
330
1765
100
AcDbEntity
  8
92000_TITLE
370
    25
100
AcDbText
 10
-33.625
 20
1.750946969696965
 30
0.0
 40
2.5
  1
Massstab/Scale:
100
AcDbText
1001
AcDbBlockRepETag
1070
     1
1071
       26
1005
1D10
  0
LINE
  5
1D11
330
1765
100
AcDbEntity
  8
92000_TITLE
370
    25
100
AcDbLine
 10
-85.0
 20
18.0
 30
0.0
 11
-85.0
 21
0.0
 31
0.0
1001
GENIUS_GENREC_14
1002
{
1000
PYDIR
1011
-135.0
1021
18.0
1031
0.0
1002
}
1002
{
1000
PXDIR
1011
0.0
1021
0.0
1031
0.0
1002
}
1002
{
1000
PORI
1011
-135.0
1021
0.0
1031
0.0
1002
}
1002
{
1000
PINS
1011
-135.0
1021
0.0
1031
0.0
1002
}
1002
{
1000
HVAL
1000
18
1002
}
1002
{
1000
H
1070
     2
1002
}
1002
{
1000
WVAL
1000
135
1002
}
1002
{
1000
W
1070
     2
1002
}
1002
{
1000
C
1070
     1
1002
}
1001
GENIUS_GENOBJ-N-REC_13
1002
{
1000
OWNER
1000
GEN
1002
}
1001
GENIUS_GENODEF_13
1002
{
1000
HIER
1070
     0
1002
}
1002
{
1000
MANEDIT
1070
     0
1002
}
1002
{
1000
NOSEL
1070
     0
1002
}
1002
{
1000
BEHIND
1070
     0
1002
}
1002
{
1000
OTHER
1070
     0
1002
}
1002
{
1000
REACTOR
1002
}
1001
AcDbBlockRepETag
1070
     1
1071
       12
1005
1D11
  0
LINE
  5
1D12
330
1765
100
AcDbEntity
  8
92000_TITLE
370
    25
100
AcDbLine
 10
-37.5
 20
0.0
 30
0.0
 11
-37.5
 21
6.0
 31
0.0
1001
GENIUS_GENREC_14
1002
{
1000
PYDIR
1011
-130.0
1021
18.0
1031
0.0
1002
}
1002
{
1000
PXDIR
1011
5.0
1021
0.0
1031
0.0
1002
}
1002
{
1000
PORI
1011
-130.0
1021
0.0
1031
0.0
1002
}
1002
{
1000
PINS
1011
-130.0
1021
0.0
1031
0.0
1002
}
1002
{
1000
HVAL
1000
18
1002
}
1002
{
1000
H
1070
     2
1002
}
1002
{
1000
WVAL
1000
135
1002
}
1002
{
1000
W
1070
     2
1002
}
1002
{
1000
C
1070
     1
1002
}
1001
GENIUS_GENOBJ-N-REC_13
1002
{
1000
OWNER
1000
GEN
1002
}
1001
GENIUS_GENODEF_13
1002
{
1000
HIER
1070
     0
1002
}
1002
{
1000
MANEDIT
1070
     0
1002
}
1002
{
1000
NOSEL
1070
     0
1002
}
1002
{
1000
BEHIND
1070
     0
1002
}
1002
{
1000
OTHER
1070
     0
1002
}
1002
{
1000
REACTOR
1002
}
1001
AcDbBlockRepETag
1070
     1
1071
       27
1005
1D12
  0
ATTDEF
  5
1D13
330
1765
100
AcDbEntity
  8
92000_TITLE
370
    25
100
AcDbText
 10
-8.009136915777162
 20
1.844905181593389
 30
0.0
 40
2.5
  1
1:1
 72
     1
 11
-6.384136915777162
 21
3.094905181593389
 31
0.0
100
AcDbAttributeDefinition
  3
Massstab
  2
MASSSTAB/SCALE:
 70
     0
 74
     2
1001
AcDbBlockRepETag
1070
     1
1071
       13
1005
0
  0
ATTDEF
  5
1D14
330
1765
100
AcDbEntity
  8
92000_TITLE
370
    35
100
AcDbText
 10
-42.49999999999952
 20
12.25000000000011
 30
0.0
 40
3.5
  1

 72
     1
 11
-42.49999999999952
 21
14.00000000000011
 31
0.0
100
AcDbAttributeDefinition
  3
Z-Name
  2
ZEICHNUNGSNAME
 70
     0
 74
     2
1001
AcDbBlockRepETag
1070
     1
1071
       14
1005
0
  0
ATTDEF
  5
1D15
330
1765
100
AcDbEntity
  8
92000_TITLE
370
    25
100
AcDbText
 10
-42.49999999999952
 20
7.22778333016015
 30
0.0
 40
2.5
  1

 72
     1
 11
-42.49999999999952
 21
8.47778333016015
 31
0.0
100
AcDbAttributeDefinition
  3
A-Name
  2
ARTIKELNAME
 70
     0
 74
     2
1001
AcDbBlockRepETag
1070
     1
1071
       28
1005
0
  0
ATTDEF
  5
1D16
330
1765
100
AcDbEntity
  8
92000_TITLE
370
    25
100
AcDbText
 10
-116.9999999999995
 20
1.75
 30
0.0
 40
2.5
  1

 72
     1
 11
-116.9999999999995
 21
3.0
 31
0.0
100
AcDbAttributeDefinition
  3
Datum
  2
DATUM
 70
     0
 74
     2
1001
AcDbBlockRepETag
1070
     1
1071
       16
1005
0
  0
ATTDEF
  5
1D17
330
1765
100
AcDbEntity
  8
92000_TITLE
370
    25
100
AcDbText
 10
-91.99999999999954
 20
1.75
 30
0.0
 40
2.5
  1

 72
     1
 11
-91.99999999999954
 21
3.0
 31
0.0
100
AcDbAttributeDefinition
  3
Name
  2
NAME
 70
     0
 74
     2
1001
AcDbBlockRepETag
1070
     1
1071
       15
1005
0
  0
ENDBLK
  5
177A
330
1765
100
AcDbEntity
  8
0
100
AcDbBlockEnd
  0
BLOCK
  5
177D
330
177B
100
AcDbEntity
  8
0
370
    18
100
AcDbBlockBegin
  2
text_allg
 70
     0
 10
0.0
 20
0.0
 30
0.0
  3
text_allg
  1

  0
TEXT
  5
177E
330
177B
100
AcDbEntity
  8
0
370
    25
100
AcDbText
 10
-0.0028789134175895
 20
6.473535615360106
 30
0.0
 40
2.5
  1
Alle Bemassungswerte sind in Millimeter (mm) angegeben
100
AcDbText
1001
AcDbBlockRepETag
1070
     1
1071
        0
1005
177E
  0
TEXT
  5
177F
330
177B
100
AcDbEntity
  8
0
370
    25
100
AcDbText
 10
-0.0028789134175895
 20
2.965492351154351
 30
0.0
 40
2.5
  1
All dimensions are in millimeters (mm)
100
AcDbText
1001
AcDbBlockRepETag
1070
     1
1071
        1
1005
177F
  0
ENDBLK
  5
1780
330
177B
100
AcDbEntity
  8
0
370
    18
100
AcDbBlockEnd
  0
BLOCK
  5
17F2
330
17CE
100
AcDbEntity
  8
0
370
    18
100
AcDbBlockBegin
  2
Rahmen
 70
     0
 10
0.0
 20
0.0
 30
0.0
  3
Rahmen
  1

  0
LWPOLYLINE
  5
17CF
330
17CE
100
AcDbEntity
  8
90200_FRAME_SIZE
100
AcDbPolyline
 90
        4
 70
     1
 43
0.0
 10
-13.33508291258363
 20
487.1504543301591
 10
1216.664917087416
 20
487.1504543301591
 10
1216.664917087416
 20
1367.150454330159
 10
-13.33508291258363
 20
1367.15045433016
1001
GENIUS_GENREC_14
1002
{
1000
PYDIR
1011
-13.33508291258363
1021
1367.150454330159
1031
0.0
1002
}
1002
{
1000
PXDIR
1011
1216.664917087416
1021
487.1504543301591
1031
0.0
1002
}
1002
{
1000
PORI
1011
-13.33508291258363
1021
487.1504543301591
1031
0.0
1002
}
1002
{
1000
PINS
1011
-13.33508291258363
1021
487.1504543301591
1031
0.0
1002
}
1002
{
1000
HVAL
1000
880
1002
}
1002
{
1000
H
1070
     2
1002
}
1002
{
1000
WVAL
1000
1230
1002
}
1002
{
1000
W
1070
     2
1002
}
1002
{
1000
C
1070
     1
1002
}
1001
GENIUS_GENOBJ-N-REC_13
1002
{
1000
OWNER
1000
GEN
1002
}
1001
GENIUS_GENODEF_13
1002
{
1000
HIER
1070
     0
1002
}
1002
{
1000
MANEDIT
1070
     0
1002
}
1002
{
1000
NOSEL
1070
     0
1002
}
1002
{
1000
BEHIND
1070
     0
1002
}
1002
{
1000
OTHER
1070
     0
1002
}
1002
{
1000
REACTOR
1002
}
1001
AcDbBlockRepETag
1070
     1
1071
        0
1005
17CF
  0
LWPOLYLINE
  5
17D0
330
17CE
100
AcDbEntity
  8
90200_FRAME_SIZE
100
AcDbPolyline
 90
        4
 70
     1
 43
0.0
 10
1298.004347295625
 20
487.1504543301591
 10
2178.004347295626
 20
487.1504543301591
 10
2178.004347295626
 20
1112.150454330159
 10
1298.004347295625
 20
1112.150454330159
1001
GENIUS_GENREC_14
1002
{
1000
PYDIR
1011
1298.004347295625
1021
1112.150454330159
1031
0.0
1002
}
1002
{
1000
PXDIR
1011
2178.004347295626
1021
487.1504543301591
1031
0.0
1002
}
1002
{
1000
PORI
1011
1298.004347295625
1021
487.1504543301591
1031
0.0
1002
}
1002
{
1000
PINS
1011
1298.004347295625
1021
487.1504543301591
1031
0.0
1002
}
1002
{
1000
HVAL
1000
625
1002
}
1002
{
1000
H
1070
     2
1002
}
1002
{
1000
WVAL
1000
880
1002
}
1002
{
1000
W
1070
     2
1002
}
1002
{
1000
C
1070
     1
1002
}
1001
GENIUS_GENOBJ-N-REC_13
1002
{
1000
OWNER
1000
GEN
1002
}
1001
GENIUS_GENODEF_13
1002
{
1000
HIER
1070
     0
1002
}
1002
{
1000
MANEDIT
1070
     0
1002
}
1002
{
1000
NOSEL
1070
     0
1002
}
1002
{
1000
BEHIND
1070
     0
1002
}
1002
{
1000
OTHER
1070
     0
1002
}
1002
{
1000
REACTOR
1002
}
1001
AcDbBlockRepETag
1070
     1
1071
        1
1005
17D0
  0
LWPOLYLINE
  5
17D1
330
17CE
100
AcDbEntity
  8
90200_FRAME_SIZE
100
AcDbPolyline
 90
        4
 70
     1
 43
0.0
 10
-15.5
 20
-15.0
 10
609.4999999999997
 20
-15.0
 10
609.4999999999997
 20
435.0
 10
-15.5
 20
435.0000000000001
1001
GENIUS_GENREC_14
1002
{
1000
PYDIR
1011
-15.5
1021
435.0
1031
0.0
1002
}
1002
{
1000
PXDIR
1011
609.4999999999997
1021
-15.0
1031
0.0
1002
}
1002
{
1000
PORI
1011
-15.5
1021
-15.0
1031
0.0
1002
}
1002
{
1000
PINS
1011
-15.5
1021
-15.0
1031
0.0
1002
}
1002
{
1000
HVAL
1000
450
1002
}
1002
{
1000
H
1070
     2
1002
}
1002
{
1000
WVAL
1000
625
1002
}
1002
{
1000
W
1070
     2
1002
}
1002
{
1000
C
1070
     1
1002
}
1001
GENIUS_GENODEF_13
1002
{
1000
HIER
1070
     0
1002
}
1002
{
1000
MANEDIT
1070
     0
1002
}
1002
{
1000
NOSEL
1070
     0
1002
}
1002
{
1000
BEHIND
1070
     0
1002
}
1002
{
1000
OTHER
1070
     0
1002
}
1002
{
1000
REACTOR
1002
}
1001
GENIUS_GENOBJ-N-REC_13
1002
{
1000
OWNER
1000
GEN
1002
}
1001
AcDbBlockRepETag
1070
     1
1071
        2
1005
17D1
  0
LWPOLYLINE
  5
17D2
330
17CE
100
AcDbEntity
  8
90200_FRAME_SIZE
100
AcDbPolyline
 90
        4
 70
     1
 43
0.0
 10
1185.556762984221
 20
-15.0
 10
1515.556762984221
 20
-15.0
 10
1515.556762984221
 20
225.0
 10
1185.556762984221
 20
225.0
1001
GENIUS_GENREC_14
1002
{
1000
PYDIR
1011
1185.556762984221
1021
225.0
1031
0.0
1002
}
1002
{
1000
PXDIR
1011
1515.556762984221
1021
-15.0
1031
0.0
1002
}
1002
{
1000
PORI
1011
1185.556762984221
1021
-15.0
1031
0.0
1002
}
1002
{
1000
PINS
1011
1185.556762984221
1021
-15.0
1031
0.0
1002
}
1002
{
1000
HVAL
1000
240
1002
}
1002
{
1000
H
1070
     2
1002
}
1002
{
1000
WVAL
1000
330
1002
}
1002
{
1000
W
1070
     2
1002
}
1002
{
1000
C
1070
     1
1002
}
1001
GENIUS_GENOBJ-N-REC_13
1002
{
1000
OWNER
1000
GEN
1002
}
1001
GENIUS_GENODEF_13
1002
{
1000
HIER
1070
     0
1002
}
1002
{
1000
MANEDIT
1070
     0
1002
}
1002
{
1000
NOSEL
1070
     0
1002
}
1002
{
1000
BEHIND
1070
     0
1002
}
1002
{
1000
OTHER
1070
     0
1002
}
1002
{
1000
REACTOR
1002
}
1001
AcDbBlockRepETag
1070
     1
1071
        4
1005
17D2
  0
LWPOLYLINE
  5
17D3
330
17CE
100
AcDbEntity
  8
90200_FRAME_SIZE
100
AcDbPolyline
 90
        4
 70
     1
 43
0.0
 10
1600.393688952082
 20
-31.5
 10
1840.393688952081
 20
-31.5
 10
1840.393688952081
 20
298.5
 10
1600.393688952082
 20
298.5
1001
GENIUS_GENREC_14
1002
{
1000
PYDIR
1011
1600.393688952082
1021
298.5
1031
0.0
1002
}
1002
{
1000
PXDIR
1011
1840.393688952081
1021
-31.5
1031
0.0
1002
}
1002
{
1000
PORI
1011
1600.393688952082
1021
-31.5
1031
0.0
1002
}
1002
{
1000
PINS
1011
1600.393688952082
1021
-31.5
1031
0.0
1002
}
1002
{
1000
HVAL
1000
330
1002
}
1002
{
1000
H
1070
     2
1002
}
1002
{
1000
WVAL
1000
240
1002
}
1002
{
1000
W
1070
     2
1002
}
1002
{
1000
C
1070
     1
1002
}
1001
GENIUS_GENODEF_13
1002
{
1000
HIER
1070
     0
1002
}
1002
{
1000
MANEDIT
1070
     0
1002
}
1002
{
1000
NOSEL
1070
     0
1002
}
1002
{
1000
BEHIND
1070
     0
1002
}
1002
{
1000
OTHER
1070
     0
1002
}
1002
{
1000
REACTOR
1002
}
1001
GENIUS_GENOBJ-N-REC_13
1002
{
1000
OWNER
1000
GEN
1002
}
1001
AcDbBlockRepETag
1070
     1
1071
        5
1005
17D3
  0
LWPOLYLINE
  5
17D4
330
17CE
100
AcDbEntity
  8
90100_FRAME_THICK
100
AcDbPolyline
 90
        4
 70
     1
 43
0.0
 10
7.16491708741637
 20
506.6504543301594
 10
1196.164917087416
 20
506.6504543301594
 10
1196.164917087416
 20
1347.650454330159
 10
7.16491708741637
 20
1347.65045433016
1001
GENIUS_GENREC_14
1002
{
1000
PYDIR
1011
7.16491708741637
1021
1347.650454330159
1031
0.0
1002
}
1002
{
1000
PXDIR
1011
1196.164917087416
1021
506.6504543301594
1031
0.0
1002
}
1002
{
1000
PORI
1011
7.16491708741637
1021
506.6504543301594
1031
0.0
1002
}
1002
{
1000
PINS
1011
7.16491708741637
1021
506.6504543301594
1031
0.0
1002
}
1002
{
1000
HVAL
1000
841
1002
}
1002
{
1000
H
1070
     2
1002
}
1002
{
1000
WVAL
1000
1189
1002
}
1002
{
1000
W
1070
     2
1002
}
1002
{
1000
C
1070
     1
1002
}
1001
GENIUS_GENOBJ-N-REC_13
1002
{
1000
OWNER
1000
GEN
1002
}
1001
GENIUS_GENODEF_13
1002
{
1000
HIER
1070
     0
1002
}
1002
{
1000
MANEDIT
1070
     0
1002
}
1002
{
1000
NOSEL
1070
     0
1002
}
1002
{
1000
BEHIND
1070
     0
1002
}
1002
{
1000
OTHER
1070
     0
1002
}
1002
{
1000
REACTOR
1002
}
1001
AcDbBlockRepETag
1070
     1
1071
        6
1005
17D4
  0
LWPOLYLINE
  5
17D5
330
17CE
100
AcDbEntity
  8
90000_FRAME_THIN
100
AcDbPolyline
 90
        4
 70
     1
 43
0.0
 10
12.16491708741637
 20
511.6504543301592
 10
1191.164917087416
 20
511.6504543301592
 10
1191.164917087416
 20
1342.650454330159
 10
12.16491708741637
 20
1342.65045433016
1001
GENIUS_GENREC_14
1002
{
1000
PYDIR
1011
7.16491708741637
1021
1347.650454330159
1031
0.0
1002
}
1002
{
1000
PXDIR
1011
1196.164917087416
1021
506.6504543301594
1031
0.0
1002
}
1002
{
1000
PORI
1011
7.16491708741637
1021
506.6504543301594
1031
0.0
1002
}
1002
{
1000
PINS
1011
7.16491708741637
1021
506.6504543301594
1031
0.0
1002
}
1002
{
1000
HVAL
1000
841
1002
}
1002
{
1000
H
1070
     2
1002
}
1002
{
1000
WVAL
1000
1189
1002
}
1002
{
1000
W
1070
     2
1002
}
1002
{
1000
C
1070
     1
1002
}
1001
GENIUS_GENOBJ-N-REC_13
1002
{
1000
OWNER
1000
GEN
1002
}
1001
GENIUS_GENODEF_13
1002
{
1000
HIER
1070
     0
1002
}
1002
{
1000
MANEDIT
1070
     0
1002
}
1002
{
1000
NOSEL
1070
     0
1002
}
1002
{
1000
BEHIND
1070
     0
1002
}
1002
{
1000
OTHER
1070
     0
1002
}
1002
{
1000
REACTOR
1002
}
1001
AcDbBlockRepETag
1070
     1
1071
        7
1005
17D5
  0
LWPOLYLINE
  5
17D6
330
17CE
100
AcDbEntity
  8
90100_FRAME_THICK
100
AcDbPolyline
 90
        4
 70
     1
 43
0.0
 10
1317.504347295625
 20
502.6504543301594
 10
2158.504347295625
 20
502.6504543301594
 10
2158.504347295625
 20
1096.650454330159
 10
1317.504347295625
 20
1096.650454330159
1001
GENIUS_GENREC_14
1002
{
1000
PYDIR
1011
1317.504347295625
1021
1096.650454330159
1031
0.0
1002
}
1002
{
1000
PXDIR
1011
2158.504347295625
1021
502.6504543301594
1031
0.0
1002
}
1002
{
1000
PORI
1011
1317.504347295625
1021
502.6504543301594
1031
0.0
1002
}
1002
{
1000
PINS
1011
1317.504347295625
1021
502.6504543301594
1031
0.0
1002
}
1002
{
1000
HVAL
1000
594
1002
}
1002
{
1000
H
1070
     2
1002
}
1002
{
1000
WVAL
1000
841
1002
}
1002
{
1000
W
1070
     2
1002
}
1002
{
1000
C
1070
     1
1002
}
1001
GENIUS_GENOBJ-N-REC_13
1002
{
1000
OWNER
1000
GEN
1002
}
1001
GENIUS_GENODEF_13
1002
{
1000
HIER
1070
     0
1002
}
1002
{
1000
MANEDIT
1070
     0
1002
}
1002
{
1000
NOSEL
1070
     0
1002
}
1002
{
1000
BEHIND
1070
     0
1002
}
1002
{
1000
OTHER
1070
     0
1002
}
1002
{
1000
REACTOR
1002
}
1001
AcDbBlockRepETag
1070
     1
1071
        8
1005
17D6
  0
LWPOLYLINE
  5
17D7
330
17CE
100
AcDbEntity
  8
90000_FRAME_THIN
100
AcDbPolyline
 90
        4
 70
     1
 43
0.0
 10
1322.504347295625
 20
507.6504543301592
 10
2153.504347295625
 20
507.6504543301592
 10
2153.504347295625
 20
1091.650454330159
 10
1322.504347295625
 20
1091.650454330159
1001
GENIUS_GENREC_14
1002
{
1000
PYDIR
1011
1317.504347295625
1021
1096.650454330159
1031
0.0
1002
}
1002
{
1000
PXDIR
1011
2158.504347295625
1021
502.6504543301594
1031
0.0
1002
}
1002
{
1000
PORI
1011
1317.504347295625
1021
502.6504543301594
1031
0.0
1002
}
1002
{
1000
PINS
1011
1317.504347295625
1021
502.6504543301594
1031
0.0
1002
}
1002
{
1000
HVAL
1000
594
1002
}
1002
{
1000
H
1070
     2
1002
}
1002
{
1000
WVAL
1000
841
1002
}
1002
{
1000
W
1070
     2
1002
}
1002
{
1000
C
1070
     1
1002
}
1001
GENIUS_GENOBJ-N-REC_13
1002
{
1000
OWNER
1000
GEN
1002
}
1001
GENIUS_GENODEF_13
1002
{
1000
HIER
1070
     0
1002
}
1002
{
1000
MANEDIT
1070
     0
1002
}
1002
{
1000
NOSEL
1070
     0
1002
}
1002
{
1000
BEHIND
1070
     0
1002
}
1002
{
1000
OTHER
1070
     0
1002
}
1002
{
1000
REACTOR
1002
}
1001
AcDbBlockRepETag
1070
     1
1071
        9
1005
17D7
  0
LWPOLYLINE
  5
17D8
330
17CE
100
AcDbEntity
  8
90100_FRAME_THICK
100
AcDbPolyline
 90
        4
 70
     1
 43
0.0
 10
0.0
 20
0.0
 10
594.0
 20
0.0
 10
594.0
 20
420.0
 10
0.0
 20
420.0000000000001
1001
GENIUS_GENREC_14
1002
{
1000
PYDIR
1011
0.0
1021
420.0
1031
0.0
1002
}
1002
{
1000
PXDIR
1011
594.0
1021
0.0
1031
0.0
1002
}
1002
{
1000
PORI
1011
0.0
1021
0.0
1031
0.0
1002
}
1002
{
1000
PINS
1011
0.0
1021
0.0
1031
0.0
1002
}
1002
{
1000
HVAL
1000
420
1002
}
1002
{
1000
H
1070
     2
1002
}
1002
{
1000
WVAL
1000
594
1002
}
1002
{
1000
W
1070
     2
1002
}
1002
{
1000
C
1070
     1
1002
}
1001
GENIUS_GENODEF_13
1002
{
1000
HIER
1070
     0
1002
}
1002
{
1000
MANEDIT
1070
     0
1002
}
1002
{
1000
NOSEL
1070
     0
1002
}
1002
{
1000
BEHIND
1070
     0
1002
}
1002
{
1000
OTHER
1070
     0
1002
}
1002
{
1000
REACTOR
1002
}
1001
GENIUS_GENOBJ-N-REC_13
1002
{
1000
OWNER
1000
GEN
1002
}
1001
AcDbBlockRepETag
1070
     1
1071
       10
1005
17D8
  0
LWPOLYLINE
  5
17D9
330
17CE
100
AcDbEntity
  8
90100_FRAME_THICK
100
AcDbPolyline
 90
        4
 70
     1
 43
0.0
 10
1202.056762984222
 20
0.0
 10
1499.056762984222
 20
0.0
 10
1499.056762984222
 20
210.0
 10
1202.056762984222
 20
210.0
1001
GENIUS_GENREC_14
1002
{
1000
PYDIR
1011
1202.056762984222
1021
210.0
1031
0.0
1002
}
1002
{
1000
PXDIR
1011
1499.056762984222
1021
0.0
1031
0.0
1002
}
1002
{
1000
PORI
1011
1202.056762984222
1021
0.0
1031
0.0
1002
}
1002
{
1000
PINS
1011
1202.056762984222
1021
0.0
1031
0.0
1002
}
1002
{
1000
HVAL
1000
210
1002
}
1002
{
1000
H
1070
     2
1002
}
1002
{
1000
WVAL
1000
297
1002
}
1002
{
1000
W
1070
     2
1002
}
1002
{
1000
C
1070
     1
1002
}
1001
GENIUS_GENODEF_13
1002
{
1000
HIER
1070
     0
1002
}
1002
{
1000
MANEDIT
1070
     0
1002
}
1002
{
1000
NOSEL
1070
     0
1002
}
1002
{
1000
BEHIND
1070
     0
1002
}
1002
{
1000
OTHER
1070
     0
1002
}
1002
{
1000
REACTOR
1002
}
1001
GENIUS_GENOBJ-N-REC_13
1002
{
1000
OWNER
1000
GEN
1002
}
1001
AcDbBlockRepETag
1070
     1
1071
       12
1005
17D9
  0
LWPOLYLINE
  5
17DA
330
17CE
100
AcDbEntity
  8
90100_FRAME_THICK
100
AcDbPolyline
 90
        4
 70
     1
 43
0.0
 10
1615.393688952082
 20
-15.0
 10
1825.393688952082
 20
-15.0
 10
1825.393688952082
 20
282.0
 10
1615.393688952082
 20
282.0
1001
GENIUS_GENREC_14
1002
{
1000
PYDIR
1011
1615.393688952082
1021
282.0
1031
0.0
1002
}
1002
{
1000
PXDIR
1011
1825.393688952082
1021
-15.0
1031
0.0
1002
}
1002
{
1000
PORI
1011
1615.393688952082
1021
-15.0
1031
0.0
1002
}
1002
{
1000
PINS
1011
1615.393688952082
1021
-15.0
1031
0.0
1002
}
1002
{
1000
HVAL
1000
297
1002
}
1002
{
1000
H
1070
     2
1002
}
1002
{
1000
WVAL
1000
210
1002
}
1002
{
1000
W
1070
     2
1002
}
1002
{
1000
C
1070
     1
1002
}
1001
GENIUS_GENODEF_13
1002
{
1000
HIER
1070
     0
1002
}
1002
{
1000
MANEDIT
1070
     0
1002
}
1002
{
1000
NOSEL
1070
     0
1002
}
1002
{
1000
BEHIND
1070
     0
1002
}
1002
{
1000
OTHER
1070
     0
1002
}
1002
{
1000
REACTOR
1002
}
1001
GENIUS_GENOBJ-N-REC_13
1002
{
1000
OWNER
1000
GEN
1002
}
1001
AcDbBlockRepETag
1070
     1
1071
       13
1005
17DA
  0
LWPOLYLINE
  5
17DB
330
17CE
100
AcDbEntity
  8
90000_FRAME_THIN
100
AcDbPolyline
 90
        4
 70
     1
 43
0.0
 10
5.0
 20
5.0
 10
589.0
 20
5.0
 10
589.0
 20
415.0
 10
5.0
 20
415.0000000000002
1001
GENIUS_GENREC_14
1002
{
1000
PYDIR
1011
0.0
1021
420.0
1031
0.0
1002
}
1002
{
1000
PXDIR
1011
594.0
1021
0.0
1031
0.0
1002
}
1002
{
1000
PORI
1011
0.0
1021
0.0
1031
0.0
1002
}
1002
{
1000
PINS
1011
0.0
1021
0.0
1031
0.0
1002
}
1002
{
1000
HVAL
1000
420
1002
}
1002
{
1000
H
1070
     2
1002
}
1002
{
1000
WVAL
1000
594
1002
}
1002
{
1000
W
1070
     2
1002
}
1002
{
1000
C
1070
     1
1002
}
1001
GENIUS_GENODEF_13
1002
{
1000
HIER
1070
     0
1002
}
1002
{
1000
MANEDIT
1070
     0
1002
}
1002
{
1000
NOSEL
1070
     0
1002
}
1002
{
1000
BEHIND
1070
     0
1002
}
1002
{
1000
OTHER
1070
     0
1002
}
1002
{
1000
REACTOR
1002
}
1001
GENIUS_GENOBJ-N-REC_13
1002
{
1000
OWNER
1000
GEN
1002
}
1001
AcDbBlockRepETag
1070
     1
1071
       14
1005
17DB
  0
LWPOLYLINE
  5
17DC
330
17CE
100
AcDbEntity
  8
90000_FRAME_THIN
100
AcDbPolyline
 90
        4
 70
     1
 43
0.0
 10
1207.056762984221
 20
5.0
 10
1494.056762984222
 20
5.0
 10
1494.056762984222
 20
205.0
 10
1207.056762984221
 20
205.0
1001
GENIUS_GENREC_14
1002
{
1000
PYDIR
1011
1202.056762984222
1021
210.0
1031
0.0
1002
}
1002
{
1000
PXDIR
1011
1499.056762984222
1021
0.0
1031
0.0
1002
}
1002
{
1000
PORI
1011
1202.056762984222
1021
0.0
1031
0.0
1002
}
1002
{
1000
PINS
1011
1202.056762984222
1021
0.0
1031
0.0
1002
}
1002
{
1000
HVAL
1000
210
1002
}
1002
{
1000
H
1070
     2
1002
}
1002
{
1000
WVAL
1000
297
1002
}
1002
{
1000
W
1070
     2
1002
}
1002
{
1000
C
1070
     1
1002
}
1001
GENIUS_GENODEF_13
1002
{
1000
HIER
1070
     0
1002
}
1002
{
1000
MANEDIT
1070
     0
1002
}
1002
{
1000
NOSEL
1070
     0
1002
}
1002
{
1000
BEHIND
1070
     0
1002
}
1002
{
1000
OTHER
1070
     0
1002
}
1002
{
1000
REACTOR
1002
}
1001
GENIUS_GENOBJ-N-REC_13
1002
{
1000
OWNER
1000
GEN
1002
}
1001
AcDbBlockRepETag
1070
     1
1071
       16
1005
17DC
  0
LWPOLYLINE
  5
17DD
330
17CE
100
AcDbEntity
  8
90000_FRAME_THIN
100
AcDbPolyline
 90
        4
 70
     1
 43
0.0
 10
1620.393688952082
 20
-10.0
 10
1820.393688952082
 20
-10.0
 10
1820.393688952082
 20
277.0
 10
1620.393688952082
 20
277.0
1001
GENIUS_GENREC_14
1002
{
1000
PYDIR
1011
1615.393688952082
1021
282.0
1031
0.0
1002
}
1002
{
1000
PXDIR
1011
1825.393688952082
1021
-15.0
1031
0.0
1002
}
1002
{
1000
PORI
1011
1615.393688952082
1021
-15.0
1031
0.0
1002
}
1002
{
1000
PINS
1011
1615.393688952082
1021
-15.0
1031
0.0
1002
}
1002
{
1000
HVAL
1000
297
1002
}
1002
{
1000
H
1070
     2
1002
}
1002
{
1000
WVAL
1000
210
1002
}
1002
{
1000
W
1070
     2
1002
}
1002
{
1000
C
1070
     1
1002
}
1001
GENIUS_GENODEF_13
1002
{
1000
HIER
1070
     0
1002
}
1002
{
1000
MANEDIT
1070
     0
1002
}
1002
{
1000
NOSEL
1070
     0
1002
}
1002
{
1000
BEHIND
1070
     0
1002
}
1002
{
1000
OTHER
1070
     0
1002
}
1002
{
1000
REACTOR
1002
}
1001
GENIUS_GENOBJ-N-REC_13
1002
{
1000
OWNER
1000
GEN
1002
}
1001
AcDbBlockRepETag
1070
     1
1071
       17
1005
17DD
  0
LWPOLYLINE
  5
17DE
330
17CE
100
AcDbEntity
  8
90200_FRAME_SIZE
100
AcDbPolyline
 90
        4
 70
     1
 43
0.0
 10
667.3002389181964
 20
-31.5
 10
1117.300238918196
 20
-31.5
 10
1117.300238918196
 20
298.5
 10
667.3002389181964
 20
298.5
1001
GENIUS_GENREC_14
1002
{
1000
PYDIR
1011
667.3002389181964
1021
298.5
1031
0.0
1002
}
1002
{
1000
PXDIR
1011
1117.300238918196
1021
-31.5
1031
0.0
1002
}
1002
{
1000
PORI
1011
667.3002389181964
1021
-31.5
1031
0.0
1002
}
1002
{
1000
PINS
1011
667.3002389181964
1021
-31.5
1031
0.0
1002
}
1002
{
1000
HVAL
1000
330
1002
}
1002
{
1000
H
1070
     2
1002
}
1002
{
1000
WVAL
1000
450
1002
}
1002
{
1000
W
1070
     2
1002
}
1002
{
1000
C
1070
     1
1002
}
1001
GENIUS_GENODEF_13
1002
{
1000
HIER
1070
     0
1002
}
1002
{
1000
MANEDIT
1070
     0
1002
}
1002
{
1000
NOSEL
1070
     0
1002
}
1002
{
1000
BEHIND
1070
     0
1002
}
1002
{
1000
OTHER
1070
     0
1002
}
1002
{
1000
REACTOR
1002
}
1001
GENIUS_GENOBJ-N-REC_13
1002
{
1000
OWNER
1000
GEN
1002
}
1001
AcDbBlockRepETag
1070
     1
1071
        3
1005
0
  0
LWPOLYLINE
  5
17DF
330
17CE
100
AcDbEntity
  8
90100_FRAME_THICK
100
AcDbPolyline
 90
        4
 70
     1
 43
0.0
 10
682.3002389181964
 20
-15.0
 10
1102.300238918196
 20
-15.0
 10
1102.300238918196
 20
282.0
 10
682.3002389181964
 20
282.0
1001
GENIUS_GENREC_14
1002
{
1000
PYDIR
1011
682.3002389181964
1021
282.0
1031
0.0
1002
}
1002
{
1000
PXDIR
1011
1102.300238918196
1021
-15.0
1031
0.0
1002
}
1002
{
1000
PORI
1011
682.3002389181964
1021
-15.0
1031
0.0
1002
}
1002
{
1000
PINS
1011
682.3002389181964
1021
-15.0
1031
0.0
1002
}
1002
{
1000
HVAL
1000
297
1002
}
1002
{
1000
H
1070
     2
1002
}
1002
{
1000
WVAL
1000
420
1002
}
1002
{
1000
W
1070
     2
1002
}
1002
{
1000
C
1070
     1
1002
}
1001
GENIUS_GENOBJ-N-REC_13
1002
{
1000
OWNER
1000
GEN
1002
}
1001
GENIUS_GENODEF_13
1002
{
1000
HIER
1070
     0
1002
}
1002
{
1000
MANEDIT
1070
     0
1002
}
1002
{
1000
NOSEL
1070
     0
1002
}
1002
{
1000
BEHIND
1070
     0
1002
}
1002
{
1000
OTHER
1070
     0
1002
}
1002
{
1000
REACTOR
1002
}
1001
AcDbBlockRepETag
1070
     1
1071
       11
1005
0
  0
LWPOLYLINE
  5
17E0
330
17CE
100
AcDbEntity
  8
90000_FRAME_THIN
100
AcDbPolyline
 90
        4
 70
     1
 43
0.0
 10
687.3002389181965
 20
-10.0
 10
1097.300238918196
 20
-10.0
 10
1097.300238918196
 20
277.0
 10
687.3002389181964
 20
277.0
1001
GENIUS_GENREC_14
1002
{
1000
PYDIR
1011
682.3002389181964
1021
282.0
1031
0.0
1002
}
1002
{
1000
PXDIR
1011
1102.300238918196
1021
-15.0
1031
0.0
1002
}
1002
{
1000
PORI
1011
682.3002389181964
1021
-15.0
1031
0.0
1002
}
1002
{
1000
PINS
1011
682.3002389181964
1021
-15.0
1031
0.0
1002
}
1002
{
1000
HVAL
1000
297
1002
}
1002
{
1000
H
1070
     2
1002
}
1002
{
1000
WVAL
1000
420
1002
}
1002
{
1000
W
1070
     2
1002
}
1002
{
1000
C
1070
     1
1002
}
1001
GENIUS_GENOBJ-N-REC_13
1002
{
1000
OWNER
1000
GEN
1002
}
1001
GENIUS_GENODEF_13
1002
{
1000
HIER
1070
     0
1002
}
1002
{
1000
MANEDIT
1070
     0
1002
}
1002
{
1000
NOSEL
1070
     0
1002
}
1002
{
1000
BEHIND
1070
     0
1002
}
1002
{
1000
OTHER
1070
     0
1002
}
1002
{
1000
REACTOR
1002
}
1001
AcDbBlockRepETag
1070
     1
1071
       15
1005
0
  0
LWPOLYLINE
  5
17E1
330
17CE
100
AcDbEntity
  8
90200_FRAME_SIZE
100
AcDbPolyline
 90
        4
 70
     1
 43
0.0
 10
667.3002389181964
 20
-31.5
 10
1117.300238918196
 20
-31.5
 10
1117.300238918196
 20
298.5
 10
667.3002389181964
 20
298.5
1001
GENIUS_GENREC_14
1002
{
1000
PYDIR
1011
667.3002389181964
1021
298.5
1031
0.0
1002
}
1002
{
1000
PXDIR
1011
1117.300238918196
1021
-31.5
1031
0.0
1002
}
1002
{
1000
PORI
1011
667.3002389181964
1021
-31.5
1031
0.0
1002
}
1002
{
1000
PINS
1011
667.3002389181964
1021
-31.5
1031
0.0
1002
}
1002
{
1000
HVAL
1000
330
1002
}
1002
{
1000
H
1070
     2
1002
}
1002
{
1000
WVAL
1000
450
1002
}
1002
{
1000
W
1070
     2
1002
}
1002
{
1000
C
1070
     1
1002
}
1001
GENIUS_GENODEF_13
1002
{
1000
HIER
1070
     0
1002
}
1002
{
1000
MANEDIT
1070
     0
1002
}
1002
{
1000
NOSEL
1070
     0
1002
}
1002
{
1000
BEHIND
1070
     0
1002
}
1002
{
1000
OTHER
1070
     0
1002
}
1002
{
1000
REACTOR
1002
}
1001
GENIUS_GENOBJ-N-REC_13
1002
{
1000
OWNER
1000
GEN
1002
}
1001
AcDbBlockRepETag
1070
     1
1071
        3
1005
0
  0
LWPOLYLINE
  5
17E2
330
17CE
100
AcDbEntity
  8
90100_FRAME_THICK
100
AcDbPolyline
 90
        4
 70
     1
 43
0.0
 10
682.3002389181964
 20
-15.0
 10
1102.300238918196
 20
-15.0
 10
1102.300238918196
 20
282.0
 10
682.3002389181964
 20
282.0
1001
GENIUS_GENREC_14
1002
{
1000
PYDIR
1011
682.3002389181964
1021
282.0
1031
0.0
1002
}
1002
{
1000
PXDIR
1011
1102.300238918196
1021
-15.0
1031
0.0
1002
}
1002
{
1000
PORI
1011
682.3002389181964
1021
-15.0
1031
0.0
1002
}
1002
{
1000
PINS
1011
682.3002389181964
1021
-15.0
1031
0.0
1002
}
1002
{
1000
HVAL
1000
297
1002
}
1002
{
1000
H
1070
     2
1002
}
1002
{
1000
WVAL
1000
420
1002
}
1002
{
1000
W
1070
     2
1002
}
1002
{
1000
C
1070
     1
1002
}
1001
GENIUS_GENOBJ-N-REC_13
1002
{
1000
OWNER
1000
GEN
1002
}
1001
GENIUS_GENODEF_13
1002
{
1000
HIER
1070
     0
1002
}
1002
{
1000
MANEDIT
1070
     0
1002
}
1002
{
1000
NOSEL
1070
     0
1002
}
1002
{
1000
BEHIND
1070
     0
1002
}
1002
{
1000
OTHER
1070
     0
1002
}
1002
{
1000
REACTOR
1002
}
1001
AcDbBlockRepETag
1070
     1
1071
       11
1005
0
  0
LWPOLYLINE
  5
17E3
330
17CE
100
AcDbEntity
  8
90000_FRAME_THIN
100
AcDbPolyline
 90
        4
 70
     1
 43
0.0
 10
687.3002389181965
 20
-10.0
 10
1097.300238918196
 20
-10.0
 10
1097.300238918196
 20
277.0
 10
687.3002389181964
 20
277.0
1001
GENIUS_GENREC_14
1002
{
1000
PYDIR
1011
682.3002389181964
1021
282.0
1031
0.0
1002
}
1002
{
1000
PXDIR
1011
1102.300238918196
1021
-15.0
1031
0.0
1002
}
1002
{
1000
PORI
1011
682.3002389181964
1021
-15.0
1031
0.0
1002
}
1002
{
1000
PINS
1011
682.3002389181964
1021
-15.0
1031
0.0
1002
}
1002
{
1000
HVAL
1000
297
1002
}
1002
{
1000
H
1070
     2
1002
}
1002
{
1000
WVAL
1000
420
1002
}
1002
{
1000
W
1070
     2
1002
}
1002
{
1000
C
1070
     1
1002
}
1001
GENIUS_GENOBJ-N-REC_13
1002
{
1000
OWNER
1000
GEN
1002
}
1001
GENIUS_GENODEF_13
1002
{
1000
HIER
1070
     0
1002
}
1002
{
1000
MANEDIT
1070
     0
1002
}
1002
{
1000
NOSEL
1070
     0
1002
}
1002
{
1000
BEHIND
1070
     0
1002
}
1002
{
1000
OTHER
1070
     0
1002
}
1002
{
1000
REACTOR
1002
}
1001
AcDbBlockRepETag
1070
     1
1071
       15
1005
0
  0
INSERT
  5
17E4
330
17CE
100
AcDbEntity
  8
0
370
    18
100
AcDbBlockReference
  2
Title_A4P
 10
2038.189308243912
 20
139.982417962376
 30
0.0
  0
INSERT
  5
17E5
330
17CE
100
AcDbEntity
  8
0
370
    18
100
AcDbBlockReference
  2
Title_A4L
 10
2038.189308243912
 20
104.9824179623761
 30
0.0
  0
INSERT
  5
17E6
330
17CE
100
AcDbEntity
  8
0
370
    18
100
AcDbBlockReference
  2
Title_A3
 10
2038.189308243912
 20
64.98241796237607
 30
0.0
  0
INSERT
  5
17E7
330
17CE
100
AcDbEntity
  8
0
370
    18
100
AcDbBlockReference
  2
Title_A2
 10
2038.189308243912
 20
24.98241796237608
 30
0.0
  0
INSERT
  5
17E8
330
17CE
100
AcDbEntity
  8
0
370
    18
100
AcDbBlockReference
  2
Title_A1
 10
2038.189308243912
 20
-15.01758203762392
 30
0.0
  0
INSERT
  5
17E9
330
17CE
100
AcDbEntity
  8
0
370
    18
100
AcDbBlockReference
  2
Title_A0
 10
2038.189308243912
 20
-55.01758203762392
 30
0.0
  0
INSERT
  5
17EA
330
17CE
100
AcDbEntity
  8
0
370
    18
100
AcDbBlockReference
  2
Title_A4P
 10
1815.393688952082
 20
-5.0
 30
0.0
  0
INSERT
  5
17EB
330
17CE
100
AcDbEntity
  8
0
370
    18
100
AcDbBlockReference
  2
Title_A4L
 10
1489.056762984222
 20
10.0
 30
0.0
  0
INSERT
  5
17EC
330
17CE
100
AcDbEntity
  8
0
370
    18
100
AcDbBlockReference
  2
Title_A3
 10
1092.300238918196
 20
-5.0
 30
0.0
  0
INSERT
  5
17ED
330
17CE
100
AcDbEntity
  8
0
370
    18
100
AcDbBlockReference
  2
Title_A2
 10
584.0
 20
10.0
 30
0.0
  0
INSERT
  5
17EE
330
17CE
100
AcDbEntity
  8
0
370
    18
100
AcDbBlockReference
  2
Title_A1
 10
2148.504347295626
 20
512.6504543301592
 30
0.0
  0
INSERT
  5
17EF
330
17CE
100
AcDbEntity
  8
0
370
    18
100
AcDbBlockReference
  2
Title_A0
 10
1186.164917087416
 20
516.6504543301592
 30
0.0
  0
ENDBLK
  5
17F3
330
17CE
100
AcDbEntity
  8
0
370
    18
100
AcDbBlockEnd
  0
BLOCK
  5
1D25
330
1D24
100
AcDbEntity
  8
0
100
AcDbBlockBegin
  2
*U12
 70
     3
 10
0.0
 20
0.0
 30
0.0
  3
*U12
  1

  0
LINE
  5
1D27
330
1D24
100
AcDbEntity
  8
91100_TIP_SYM
 48
0.5
370
    18
100
AcDbLine
 10
-170.6136465535774
 20
9.0
 30
0.0
 11
-154.1136465535774
 21
9.0
 31
0.0
1001
AcDbBlockRepETag
1070
     1
1071
        0
1005
1D27
  0
LINE
  5
1D28
330
1D24
100
AcDbEntity
  8
91200_TIP_SYMB
370
    25
100
AcDbLine
 10
-156.1136465535773
 20
4.0
 30
0.0
 11
-168.6136465535773
 21
5.5
 31
0.0
1001
AcDbBlockRepETag
1070
     1
1071
        1
1005
1D28
  0
LINE
  5
1D29
330
1D24
100
AcDbEntity
  8
91200_TIP_SYMB
370
    25
100
AcDbLine
 10
-168.6136465535773
 20
12.5
 30
0.0
 11
-156.1136465535773
 21
14.0
 31
0.0
1001
AcDbBlockRepETag
1070
     1
1071
        2
1005
1D29
  0
LINE
  5
1D2A
330
1D24
100
AcDbEntity
  8
91200_TIP_SYMB
370
    25
100
AcDbLine
 10
-168.6136465535773
 20
5.5
 30
0.0
 11
-168.6136465535773
 21
12.5
 31
0.0
1001
AcDbBlockRepETag
1070
     1
1071
        3
1005
1D2A
  0
CIRCLE
  5
1D2B
330
1D24
100
AcDbEntity
  8
91200_TIP_SYMB
370
    25
100
AcDbCircle
 10
-146.0
 20
9.0
 30
0.0
 40
5.0
1001
AcDbBlockRepETag
1070
     1
1071
        4
1005
1D2B
  0
LINE
  5
1D2C
330
1D24
100
AcDbEntity
  8
91200_TIP_SYMB
370
    25
100
AcDbLine
 10
-156.1136465535773
 20
14.0
 30
0.0
 11
-156.1136465535773
 21
4.0
 31
0.0
1001
AcDbBlockRepETag
1070
     1
1071
        5
1005
1D2C
  0
CIRCLE
  5
1D2D
330
1D24
100
AcDbEntity
  8
91200_TIP_SYMB
370
    25
100
AcDbCircle
 10
-146.0
 20
9.0
 30
0.0
 40
2.0
1001
AcDbBlockRepETag
1070
     1
1071
        6
1005
1D2D
  0
LINE
  5
1D2E
330
1D24
100
AcDbEntity
  8
91100_TIP_SYM
 48
0.5
370
    18
100
AcDbLine
 10
-146.0
 20
16.0
 30
0.0
 11
-146.0
 21
2.0
 31
0.0
1001
AcDbBlockRepETag
1070
     1
1071
        7
1005
1D2E
  0
LINE
  5
1D2F
330
1D24
100
AcDbEntity
  8
91100_TIP_SYM
 48
0.5
370
    18
100
AcDbLine
 10
-153.0
 20
9.0
 30
0.0
 11
-139.0
 21
9.0
 31
0.0
1001
AcDbBlockRepETag
1070
     1
1071
        8
1005
1D2F
  0
LINE
  5
1D30
330
1D24
100
AcDbEntity
  8
92000_TITLE
370
    25
100
AcDbLine
 10
-37.5
 20
0.0
 30
0.0
 11
-37.5
 21
6.0
 31
0.0
1001
GENIUS_GENREC_14
1002
{
1000
PYDIR
1011
-130.0
1021
18.0
1031
0.0
1002
}
1002
{
1000
PXDIR
1011
5.0
1021
0.0
1031
0.0
1002
}
1002
{
1000
PORI
1011
-130.0
1021
0.0
1031
0.0
1002
}
1002
{
1000
PINS
1011
-130.0
1021
0.0
1031
0.0
1002
}
1002
{
1000
HVAL
1000
18
1002
}
1002
{
1000
H
1070
     2
1002
}
1002
{
1000
WVAL
1000
135
1002
}
1002
{
1000
W
1070
     2
1002
}
1002
{
1000
C
1070
     1
1002
}
1001
GENIUS_GENOBJ-N-REC_13
1002
{
1000
OWNER
1000
GEN
1002
}
1001
GENIUS_GENODEF_13
1002
{
1000
HIER
1070
     0
1002
}
1002
{
1000
MANEDIT
1070
     0
1002
}
1002
{
1000
NOSEL
1070
     0
1002
}
1002
{
1000
BEHIND
1070
     0
1002
}
1002
{
1000
OTHER
1070
     0
1002
}
1002
{
1000
REACTOR
1002
}
1001
AcDbBlockRepETag
1070
     1
1071
       17
1005
1D30
  0
LINE
  5
1D31
330
1D24
100
AcDbEntity
  8
92000_TITLE
370
    25
100
AcDbLine
 10
0.0
 20
0.0
 30
0.0
 11
0.0
 21
18.0
 31
0.0
1001
GENIUS_GENREC_14
1002
{
1000
PYDIR
1011
-135.0
1021
18.0
1031
0.0
1002
}
1002
{
1000
PXDIR
1011
0.0
1021
0.0
1031
0.0
1002
}
1002
{
1000
PORI
1011
-135.0
1021
0.0
1031
0.0
1002
}
1002
{
1000
PINS
1011
-135.0
1021
0.0
1031
0.0
1002
}
1002
{
1000
HVAL
1000
18
1002
}
1002
{
1000
H
1070
     2
1002
}
1002
{
1000
WVAL
1000
135
1002
}
1002
{
1000
W
1070
     2
1002
}
1002
{
1000
C
1070
     1
1002
}
1001
GENIUS_GENOBJ-N-REC_13
1002
{
1000
OWNER
1000
GEN
1002
}
1001
GENIUS_GENODEF_13
1002
{
1000
HIER
1070
     0
1002
}
1002
{
1000
MANEDIT
1070
     0
1002
}
1002
{
1000
NOSEL
1070
     0
1002
}
1002
{
1000
BEHIND
1070
     0
1002
}
1002
{
1000
OTHER
1070
     0
1002
}
1002
{
1000
REACTOR
1002
}
1001
AcDbBlockRepETag
1070
     1
1071
       18
1005
1D31
  0
INSERT
  5
1D32
330
1D24
100
AcDbEntity
  8
0
370
    25
100
AcDbBlockReference
  2
text_allg
 10
-135.0
 20
18.0
 30
0.0
1001
AcDbBlockRepETag
1070
     1
1071
       19
1005
1D32
  0
MTEXT
  5
1D33
330
1D24
100
AcDbEntity
  8
92000_TITLE
100
AcDbMText
 10
-110.0
 20
12.0
 30
0.0
 40
3.5
 41
40.0
 71
     5
 72
     5
  1
{\fSiemens Logo|b0|i0|c0|p2;s}
 73
     1
 44
1.0
1001
AcDbBlockRepETag
1070
     1
1071
       20
1005
1D33
1001
ACAD
1000
MTEXTBEGIN
1070
    73
1070
     1
1070
    44
1040
1.0
1070
    74
1070
     0
1000
MTEXTEND
  0
LINE
  5
1D34
330
1D24
100
AcDbEntity
  8
92000_TITLE
370
    25
100
AcDbLine
 10
-135.0
 20
0.0
 30
0.0
 11
0.0
 21
0.0
 31
0.0
1001
GENIUS_GENREC_14
1002
{
1000
PYDIR
1011
-135.0
1021
18.0
1031
0.0
1002
}
1002
{
1000
PXDIR
1011
0.0
1021
0.0
1031
0.0
1002
}
1002
{
1000
PORI
1011
-135.0
1021
0.0
1031
0.0
1002
}
1002
{
1000
PINS
1011
-135.0
1021
0.0
1031
0.0
1002
}
1002
{
1000
HVAL
1000
18
1002
}
1002
{
1000
H
1070
     2
1002
}
1002
{
1000
WVAL
1000
135
1002
}
1002
{
1000
W
1070
     2
1002
}
1002
{
1000
C
1070
     1
1002
}
1001
GENIUS_GENOBJ-N-REC_13
1002
{
1000
OWNER
1000
GEN
1002
}
1001
GENIUS_GENODEF_13
1002
{
1000
HIER
1070
     0
1002
}
1002
{
1000
MANEDIT
1070
     0
1002
}
1002
{
1000
NOSEL
1070
     0
1002
}
1002
{
1000
BEHIND
1070
     0
1002
}
1002
{
1000
OTHER
1070
     0
1002
}
1002
{
1000
REACTOR
1002
}
1001
AcDbBlockRepETag
1070
     1
1071
       21
1005
1D34
  0
LINE
  5
1D35
330
1D24
100
AcDbEntity
  8
92000_TITLE
370
    25
100
AcDbLine
 10
0.0
 20
18.0
 30
0.0
 11
-135.0
 21
18.0
 31
0.0
1001
GENIUS_GENREC_14
1002
{
1000
PYDIR
1011
-135.0
1021
18.0
1031
0.0
1002
}
1002
{
1000
PXDIR
1011
0.0
1021
0.0
1031
0.0
1002
}
1002
{
1000
PORI
1011
-135.0
1021
0.0
1031
0.0
1002
}
1002
{
1000
PINS
1011
-135.0
1021
0.0
1031
0.0
1002
}
1002
{
1000
HVAL
1000
18
1002
}
1002
{
1000
H
1070
     2
1002
}
1002
{
1000
WVAL
1000
135
1002
}
1002
{
1000
W
1070
     2
1002
}
1002
{
1000
C
1070
     1
1002
}
1001
GENIUS_GENOBJ-N-REC_13
1002
{
1000
OWNER
1000
GEN
1002
}
1001
GENIUS_GENODEF_13
1002
{
1000
HIER
1070
     0
1002
}
1002
{
1000
MANEDIT
1070
     0
1002
}
1002
{
1000
NOSEL
1070
     0
1002
}
1002
{
1000
BEHIND
1070
     0
1002
}
1002
{
1000
OTHER
1070
     0
1002
}
1002
{
1000
REACTOR
1002
}
1001
AcDbBlockRepETag
1070
     1
1071
       22
1005
1D35
  0
LINE
  5
1D36
330
1D24
100
AcDbEntity
  8
92000_TITLE
370
    25
100
AcDbLine
 10
0.0
 20
6.0
 30
0.0
 11
-135.0
 21
6.0
 31
0.0
1001
GENIUS_GENREC_14
1002
{
1000
PYDIR
1011
-135.0
1021
18.0
1031
0.0
1002
}
1002
{
1000
PXDIR
1011
0.0
1021
0.0
1031
0.0
1002
}
1002
{
1000
PORI
1011
-135.0
1021
0.0
1031
0.0
1002
}
1002
{
1000
PINS
1011
-135.0
1021
0.0
1031
0.0
1002
}
1002
{
1000
HVAL
1000
18
1002
}
1002
{
1000
H
1070
     2
1002
}
1002
{
1000
WVAL
1000
135
1002
}
1002
{
1000
W
1070
     2
1002
}
1002
{
1000
C
1070
     1
1002
}
1001
GENIUS_GENOBJ-N-REC_13
1002
{
1000
OWNER
1000
GEN
1002
}
1001
GENIUS_GENODEF_13
1002
{
1000
HIER
1070
     0
1002
}
1002
{
1000
MANEDIT
1070
     0
1002
}
1002
{
1000
NOSEL
1070
     0
1002
}
1002
{
1000
BEHIND
1070
     0
1002
}
1002
{
1000
OTHER
1070
     0
1002
}
1002
{
1000
REACTOR
1002
}
1001
AcDbBlockRepETag
1070
     1
1071
       23
1005
1D36
  0
MTEXT
  5
1D37
330
1D24
100
AcDbEntity
  8
92000_TITLE
370
    25
100
AcDbMText
 10
-127.75
 20
3.0
 30
0.0
 40
2.5
 41
11.0
 71
     5
 72
     5
  1
Date:
 73
     1
 44
1.0
1001
AcDbBlockRepETag
1070
     1
1071
       24
1005
1D37
1001
ACAD
1000
MTEXTBEGIN
1070
    73
1070
     1
1070
    44
1040
1.0
1070
    74
1070
     0
1000
MTEXTEND
  0
LINE
  5
1D38
330
1D24
100
AcDbEntity
  8
92000_TITLE
370
    25
100
AcDbLine
 10
-135.0
 20
18.0
 30
0.0
 11
-135.0
 21
0.0
 31
0.0
1001
GENIUS_GENREC_14
1002
{
1000
PYDIR
1011
-135.0
1021
18.0
1031
0.0
1002
}
1002
{
1000
PXDIR
1011
0.0
1021
0.0
1031
0.0
1002
}
1002
{
1000
PORI
1011
-135.0
1021
0.0
1031
0.0
1002
}
1002
{
1000
PINS
1011
-135.0
1021
0.0
1031
0.0
1002
}
1002
{
1000
HVAL
1000
18
1002
}
1002
{
1000
H
1070
     2
1002
}
1002
{
1000
WVAL
1000
135
1002
}
1002
{
1000
W
1070
     2
1002
}
1002
{
1000
C
1070
     1
1002
}
1001
GENIUS_GENOBJ-N-REC_13
1002
{
1000
OWNER
1000
GEN
1002
}
1001
GENIUS_GENODEF_13
1002
{
1000
HIER
1070
     0
1002
}
1002
{
1000
MANEDIT
1070
     0
1002
}
1002
{
1000
NOSEL
1070
     0
1002
}
1002
{
1000
BEHIND
1070
     0
1002
}
1002
{
1000
OTHER
1070
     0
1002
}
1002
{
1000
REACTOR
1002
}
1001
AcDbBlockRepETag
1070
     1
1071
       25
1005
1D38
  0
MTEXT
  5
1D39
330
1D24
100
AcDbEntity
  8
92000_TITLE
370
    25
100
AcDbMText
 10
-102.75
 20
3.0
 30
0.0
 40
2.5
 41
11.0
 71
     5
 72
     5
  1
Name:
 73
     1
 44
1.0
1001
AcDbBlockRepETag
1070
     1
1071
        9
1005
1D39
1001
ACAD
1000
MTEXTBEGIN
1070
    73
1070
     1
1070
    44
1040
1.0
1070
    74
1070
     0
1000
MTEXTEND
  0
LINE
  5
1D3A
330
1D24
100
AcDbEntity
  8
92000_TITLE
100
AcDbLine
 10
-110.0
 20
6.0
 30
0.0
 11
-110.0
 21
0.0
 31
0.0
1001
GENIUS_GENREC_14
1002
{
1000
PYDIR
1011
-135.0
1021
18.0
1031
0.0
1002
}
1002
{
1000
PXDIR
1011
0.0
1021
0.0
1031
0.0
1002
}
1002
{
1000
PORI
1011
-135.0
1021
0.0
1031
0.0
1002
}
1002
{
1000
PINS
1011
-135.0
1021
0.0
1031
0.0
1002
}
1002
{
1000
HVAL
1000
18
1002
}
1002
{
1000
H
1070
     2
1002
}
1002
{
1000
WVAL
1000
135
1002
}
1002
{
1000
W
1070
     2
1002
}
1002
{
1000
C
1070
     1
1002
}
1001
GENIUS_GENOBJ-N-REC_13
1002
{
1000
OWNER
1000
GEN
1002
}
1001
GENIUS_GENODEF_13
1002
{
1000
HIER
1070
     0
1002
}
1002
{
1000
MANEDIT
1070
     0
1002
}
1002
{
1000
NOSEL
1070
     0
1002
}
1002
{
1000
BEHIND
1070
     0
1002
}
1002
{
1000
OTHER
1070
     0
1002
}
1002
{
1000
REACTOR
1002
}
1001
AcDbBlockRepETag
1070
     1
1071
       10
1005
1D3A
  0
TEXT
  5
1D3B
330
1D24
100
AcDbEntity
  8
92000_TITLE
370
    25
100
AcDbText
 10
-33.625
 20
1.750946969696965
 30
0.0
 40
2.5
  1
Massstab/Scale:
100
AcDbText
1001
AcDbBlockRepETag
1070
     1
1071
       26
1005
1D3B
  0
LINE
  5
1D3C
330
1D24
100
AcDbEntity
  8
92000_TITLE
370
    25
100
AcDbLine
 10
-85.0
 20
18.0
 30
0.0
 11
-85.0
 21
0.0
 31
0.0
1001
GENIUS_GENREC_14
1002
{
1000
PYDIR
1011
-135.0
1021
18.0
1031
0.0
1002
}
1002
{
1000
PXDIR
1011
0.0
1021
0.0
1031
0.0
1002
}
1002
{
1000
PORI
1011
-135.0
1021
0.0
1031
0.0
1002
}
1002
{
1000
PINS
1011
-135.0
1021
0.0
1031
0.0
1002
}
1002
{
1000
HVAL
1000
18
1002
}
1002
{
1000
H
1070
     2
1002
}
1002
{
1000
WVAL
1000
135
1002
}
1002
{
1000
W
1070
     2
1002
}
1002
{
1000
C
1070
     1
1002
}
1001
GENIUS_GENOBJ-N-REC_13
1002
{
1000
OWNER
1000
GEN
1002
}
1001
GENIUS_GENODEF_13
1002
{
1000
HIER
1070
     0
1002
}
1002
{
1000
MANEDIT
1070
     0
1002
}
1002
{
1000
NOSEL
1070
     0
1002
}
1002
{
1000
BEHIND
1070
     0
1002
}
1002
{
1000
OTHER
1070
     0
1002
}
1002
{
1000
REACTOR
1002
}
1001
AcDbBlockRepETag
1070
     1
1071
       12
1005
1D3C
  0
LINE
  5
1D3D
330
1D24
100
AcDbEntity
  8
92000_TITLE
370
    25
100
AcDbLine
 10
-37.5
 20
0.0
 30
0.0
 11
-37.5
 21
6.0
 31
0.0
1001
GENIUS_GENREC_14
1002
{
1000
PYDIR
1011
-130.0
1021
18.0
1031
0.0
1002
}
1002
{
1000
PXDIR
1011
5.0
1021
0.0
1031
0.0
1002
}
1002
{
1000
PORI
1011
-130.0
1021
0.0
1031
0.0
1002
}
1002
{
1000
PINS
1011
-130.0
1021
0.0
1031
0.0
1002
}
1002
{
1000
HVAL
1000
18
1002
}
1002
{
1000
H
1070
     2
1002
}
1002
{
1000
WVAL
1000
135
1002
}
1002
{
1000
W
1070
     2
1002
}
1002
{
1000
C
1070
     1
1002
}
1001
GENIUS_GENOBJ-N-REC_13
1002
{
1000
OWNER
1000
GEN
1002
}
1001
GENIUS_GENODEF_13
1002
{
1000
HIER
1070
     0
1002
}
1002
{
1000
MANEDIT
1070
     0
1002
}
1002
{
1000
NOSEL
1070
     0
1002
}
1002
{
1000
BEHIND
1070
     0
1002
}
1002
{
1000
OTHER
1070
     0
1002
}
1002
{
1000
REACTOR
1002
}
1001
AcDbBlockRepETag
1070
     1
1071
       27
1005
1D3D
  0
ATTDEF
  5
1D3E
330
1D24
100
AcDbEntity
  8
92000_TITLE
370
    25
100
AcDbText
 10
-8.009136915777162
 20
1.844905181593389
 30
0.0
 40
2.5
  1
1:1
 72
     1
 11
-6.384136915777162
 21
3.094905181593389
 31
0.0
100
AcDbAttributeDefinition
  3
Massstab
  2
MASSSTAB/SCALE:
 70
     0
 74
     2
1001
AcDbBlockRepETag
1070
     1
1071
       13
1005
0
  0
ATTDEF
  5
1D3F
330
1D24
100
AcDbEntity
  8
92000_TITLE
370
    35
100
AcDbText
 10
-42.49999999999952
 20
12.25000000000011
 30
0.0
 40
3.5
  1

 72
     1
 11
-42.49999999999952
 21
14.00000000000011
 31
0.0
100
AcDbAttributeDefinition
  3
Z-Name
  2
ZEICHNUNGSNAME
 70
     0
 74
     2
1001
AcDbBlockRepETag
1070
     1
1071
       14
1005
0
  0
ATTDEF
  5
1D40
330
1D24
100
AcDbEntity
  8
92000_TITLE
370
    25
100
AcDbText
 10
-42.49999999999952
 20
7.22778333016015
 30
0.0
 40
2.5
  1

 72
     1
 11
-42.49999999999952
 21
8.47778333016015
 31
0.0
100
AcDbAttributeDefinition
  3
A-Name
  2
ARTIKELNAME
 70
     0
 74
     2
1001
AcDbBlockRepETag
1070
     1
1071
       28
1005
0
  0
ATTDEF
  5
1D41
330
1D24
100
AcDbEntity
  8
92000_TITLE
370
    25
100
AcDbText
 10
-116.9999999999995
 20
1.75
 30
0.0
 40
2.5
  1

 72
     1
 11
-116.9999999999995
 21
3.0
 31
0.0
100
AcDbAttributeDefinition
  3
Datum
  2
DATUM
 70
     0
 74
     2
1001
AcDbBlockRepETag
1070
     1
1071
       16
1005
0
  0
ATTDEF
  5
1D42
330
1D24
100
AcDbEntity
  8
92000_TITLE
370
    25
100
AcDbText
 10
-91.99999999999954
 20
1.75
 30
0.0
 40
2.5
  1

 72
     1
 11
-91.99999999999954
 21
3.0
 31
0.0
100
AcDbAttributeDefinition
  3
Name
  2
NAME
 70
     0
 74
     2
1001
AcDbBlockRepETag
1070
     1
1071
       15
1005
0
  0
ENDBLK
  5
1D26
330
1D24
100
AcDbEntity
  8
0
100
AcDbBlockEnd
  0
BLOCK
  5
4434
330
4433
100
AcDbEntity
  8
0
100
AcDbBlockBegin
  2
*D13
 70
     1
 10
0.0
 20
0.0
 30
0.0
  3
*D13
  1

  0
LINE
  5
4436
330
4433
100
AcDbEntity
  8
10100_FRONT_DIM
100
AcDbLine
 10
1266.603376204293
 20
332.9460058303098
 30
0.0
 11
1266.603376204293
 21
356.8576810074305
 31
0.0
  0
LINE
  5
4437
330
4433
100
AcDbEntity
  8
10100_FRONT_DIM
100
AcDbLine
 10
1338.609736538495
 20
332.9460058303098
 30
0.0
 11
1338.609736538495
 21
356.8576810074305
 31
0.0
  0
LINE
  5
4438
330
4433
100
AcDbEntity
  8
10100_FRONT_DIM
100
AcDbLine
 10
1270.103376204293
 20
355.8576810074305
 30
0.0
 11
1335.109736538495
 21
355.8576810074305
 31
0.0
  0
SOLID
  5
4439
330
4433
100
AcDbEntity
  8
10100_FRONT_DIM
100
AcDbTrace
 10
1270.103376204293
 20
356.4410143407638
 30
0.0
 11
1270.103376204293
 21
355.2743476740972
 31
0.0
 12
1266.603376204293
 22
355.8576810074305
 32
0.0
 13
1266.603376204293
 23
355.8576810074305
 33
0.0
  0
SOLID
  5
443A
330
4433
100
AcDbEntity
  8
10100_FRONT_DIM
100
AcDbTrace
 10
1335.109736538495
 20
356.4410143407638
 30
0.0
 11
1335.109736538495
 21
355.2743476740972
 31
0.0
 12
1338.609736538495
 22
355.8576810074305
 32
0.0
 13
1338.609736538495
 23
355.8576810074305
 33
0.0
  0
MTEXT
  5
443B
330
4433
100
AcDbEntity
  8
10100_FRONT_DIM
370
    13
100
AcDbMText
 10
1302.606556371394
 20
359.4576810074305
 30
0.0
 40
3.5
 41
0.0
 71
     5
 72
     1
  1
72,01
 73
     1
 44
1.0
1001
ACAD
1000
MTEXTBEGIN
1070
    73
1070
     1
1070
    44
1040
1.0
1070
    74
1070
     0
1000
MTEXTEND
  0
POINT
  5
443C
330
4433
100
AcDbEntity
  8
Defpoints
 62
     0
100
AcDbPoint
 10
1266.603376204293
 20
332.9460058303098
 30
0.0
  0
POINT
  5
443D
330
4433
100
AcDbEntity
  8
Defpoints
 62
     0
100
AcDbPoint
 10
1338.609736538495
 20
332.9460058303098
 30
0.0
  0
POINT
  5
443E
330
4433
100
AcDbEntity
  8
Defpoints
 62
     0
100
AcDbPoint
 10
1338.609736538495
 20
355.8576810074305
 30
0.0
  0
ENDBLK
  5
4435
330
4433
100
AcDbEntity
  8
0
100
AcDbBlockEnd
  0
BLOCK
  5
47D2
330
47D1
100
AcDbEntity
  8
0
100
AcDbBlockBegin
  2
*D14
 70
     1
 10
0.0
 20
0.0
 30
0.0
  3
*D14
  1

  0
LINE
  5
488D
330
47D1
100
AcDbEntity
  8
11100_LEFT_DIM
100
AcDbLine
 10
1259.886840267027
 20
156.7617461219344
 30
0.0
 11
1259.886840267027
 21
172.3117500081343
 31
0.0
  0
LINE
  5
488E
330
47D1
100
AcDbEntity
  8
11100_LEFT_DIM
100
AcDbLine
 10
1304.686838669627
 20
156.7617461219344
 30
0.0
 11
1304.686838669627
 21
172.3117500081343
 31
0.0
  0
LINE
  5
488F
330
47D1
100
AcDbEntity
  8
11100_LEFT_DIM
100
AcDbLine
 10
1263.386840267027
 20
171.3117500081343
 30
0.0
 11
1301.186838669627
 21
171.3117500081343
 31
0.0
  0
SOLID
  5
4890
330
47D1
100
AcDbEntity
  8
11100_LEFT_DIM
100
AcDbTrace
 10
1263.386840267027
 20
171.8950833414677
 30
0.0
 11
1263.386840267027
 21
170.728416674801
 31
0.0
 12
1259.886840267027
 22
171.3117500081343
 32
0.0
 13
1259.886840267027
 23
171.3117500081343
 33
0.0
  0
SOLID
  5
4891
330
47D1
100
AcDbEntity
  8
11100_LEFT_DIM
100
AcDbTrace
 10
1301.186838669627
 20
171.8950833414677
 30
0.0
 11
1301.186838669627
 21
170.728416674801
 31
0.0
 12
1304.686838669627
 22
171.3117500081343
 32
0.0
 13
1304.686838669627
 23
171.3117500081343
 33
0.0
  0
MTEXT
  5
4892
330
47D1
100
AcDbEntity
  8
11100_LEFT_DIM
370
    13
100
AcDbMText
 10
1282.286839468327
 20
174.9117500081343
 30
0.0
 40
3.5
 41
0.0
 71
     5
 72
     1
  1
44,8
 73
     1
 44
1.0
1001
ACAD
1000
MTEXTBEGIN
1070
    73
1070
     1
1070
    44
1040
1.0
1070
    74
1070
     0
1000
MTEXTEND
  0
POINT
  5
4893
330
47D1
100
AcDbEntity
  8
Defpoints
 62
     0
100
AcDbPoint
 10
1259.886840267027
 20
156.7617461219344
 30
0.0
  0
POINT
  5
4894
330
47D1
100
AcDbEntity
  8
Defpoints
 62
     0
100
AcDbPoint
 10
1304.686838669627
 20
156.7617461219344
 30
0.0
  0
POINT
  5
4895
330
47D1
100
AcDbEntity
  8
Defpoints
 62
     0
100
AcDbPoint
 10
1304.686838669627
 20
171.3117500081343
 30
0.0
  0
ENDBLK
  5
47D3
330
47D1
100
AcDbEntity
  8
0
100
AcDbBlockEnd
  0
BLOCK
  5
47FC
330
47FB
100
AcDbEntity
  8
0
100
AcDbBlockBegin
  2
*D15
 70
     1
 10
0.0
 20
0.0
 30
0.0
  3
*D15
  1

  0
LINE
  5
48FF
330
47FB
100
AcDbEntity
  8
10100_FRONT_DIM
100
AcDbLine
 10
1270.000882087886
 20
158.0625429883644
 30
0.0
 11
1245.886840267027
 21
158.0625429883644
 31
0.0
  0
LINE
  5
4900
330
47FB
100
AcDbEntity
  8
10100_FRONT_DIM
100
AcDbLine
 10
1271.571656138676
 20
75.21174926249
 30
0.0
 11
1245.886840267027
 21
75.21174926249002
 31
0.0
  0
LINE
  5
4901
330
47FB
100
AcDbEntity
  8
10100_FRONT_DIM
100
AcDbLine
 10
1246.886840267027
 20
154.5625429883644
 30
0.0
 11
1246.886840267027
 21
78.71174926249001
 31
0.0
  0
SOLID
  5
4902
330
47FB
100
AcDbEntity
  8
10100_FRONT_DIM
100
AcDbTrace
 10
1246.303506933694
 20
154.5625429883644
 30
0.0
 11
1247.47017360036
 21
154.5625429883644
 31
0.0
 12
1246.886840267027
 22
158.0625429883644
 32
0.0
 13
1246.886840267027
 23
158.0625429883644
 33
0.0
  0
SOLID
  5
4903
330
47FB
100
AcDbEntity
  8
10100_FRONT_DIM
100
AcDbTrace
 10
1246.303506933694
 20
78.71174926249001
 30
0.0
 11
1247.47017360036
 21
78.71174926249001
 31
0.0
 12
1246.886840267027
 22
75.21174926249002
 32
0.0
 13
1246.886840267027
 23
75.21174926249002
 33
0.0
  0
MTEXT
  5
4904
330
47FB
100
AcDbEntity
  8
10100_FRONT_DIM
370
    13
100
AcDbMText
 10
1243.636840267027
 20
116.6371461254274
 30
0.0
 40
3.5
 41
0.0
 71
     5
 72
     1
  1
83
 11
0.0000000000000001
 21
1.0
 31
0.0
 73
     1
 44
1.0
1001
ACAD
1000
MTEXTBEGIN
1070
    73
1070
     1
1070
    44
1040
1.0
1070
    74
1070
     0
1000
MTEXTEND
  0
POINT
  5
4905
330
47FB
100
AcDbEntity
  8
Defpoints
 62
     0
100
AcDbPoint
 10
1270.000882087886
 20
158.0625429883644
 30
0.0
  0
POINT
  5
4906
330
47FB
100
AcDbEntity
  8
Defpoints
 62
     0
100
AcDbPoint
 10
1271.571656138676
 20
75.21174926249
 30
0.0
  0
POINT
  5
4907
330
47FB
100
AcDbEntity
  8
Defpoints
 62
     0
100
AcDbPoint
 10
1246.886840267027
 20
75.21174926249002
 30
0.0
  0
ENDBLK
  5
47FD
330
47FB
100
AcDbEntity
  8
0
100
AcDbBlockEnd
  0
BLOCK
  5
4826
330
4825
100
AcDbEntity
  8
0
100
AcDbBlockBegin
  2
*D16
 70
     1
 10
0.0
 20
0.0
 30
0.0
  3
*D16
  1

  0
LINE
  5
4896
330
4825
100
AcDbEntity
  8
11100_LEFT_DIM
100
AcDbLine
 10
1376.489917187627
 20
156.7617461219344
 30
0.0
 11
1376.489917187627
 21
172.3117500081229
 31
0.0
  0
LINE
  5
4897
330
4825
100
AcDbEntity
  8
11100_LEFT_DIM
100
AcDbLine
 10
1421.789918298827
 20
134.3617506459344
 30
0.0
 11
1421.789918298827
 21
172.3117500081229
 31
0.0
  0
LINE
  5
4898
330
4825
100
AcDbEntity
  8
11100_LEFT_DIM
100
AcDbLine
 10
1379.989917187627
 20
171.3117500081229
 30
0.0
 11
1418.289918298827
 21
171.3117500081229
 31
0.0
  0
SOLID
  5
4899
330
4825
100
AcDbEntity
  8
11100_LEFT_DIM
100
AcDbTrace
 10
1379.989917187627
 20
171.8950833414561
 30
0.0
 11
1379.989917187627
 21
170.7284166747895
 31
0.0
 12
1376.489917187627
 22
171.3117500081229
 32
0.0
 13
1376.489917187627
 23
171.3117500081229
 33
0.0
  0
SOLID
  5
489A
330
4825
100
AcDbEntity
  8
11100_LEFT_DIM
100
AcDbTrace
 10
1418.289918298827
 20
171.8950833414561
 30
0.0
 11
1418.289918298827
 21
170.7284166747895
 31
0.0
 12
1421.789918298827
 22
171.3117500081229
 32
0.0
 13
1421.789918298827
 23
171.3117500081229
 33
0.0
  0
MTEXT
  5
489B
330
4825
100
AcDbEntity
  8
11100_LEFT_DIM
370
    13
100
AcDbMText
 10
1399.139917743227
 20
174.9117500081229
 30
0.0
 40
3.5
 41
0.0
 71
     5
 72
     1
  1
45,3
 73
     1
 44
1.0
1001
ACAD
1000
MTEXTBEGIN
1070
    73
1070
     1
1070
    44
1040
1.0
1070
    74
1070
     0
1000
MTEXTEND
  0
POINT
  5
489C
330
4825
100
AcDbEntity
  8
Defpoints
 62
     0
100
AcDbPoint
 10
1376.489917187627
 20
156.7617461219344
 30
0.0
  0
POINT
  5
489D
330
4825
100
AcDbEntity
  8
Defpoints
 62
     0
100
AcDbPoint
 10
1421.789918298827
 20
134.3617506459344
 30
0.0
  0
POINT
  5
489E
330
4825
100
AcDbEntity
  8
Defpoints
 62
     0
100
AcDbPoint
 10
1421.789918298827
 20
171.3117500081229
 30
0.0
  0
ENDBLK
  5
4827
330
4825
100
AcDbEntity
  8
0
100
AcDbBlockEnd
  0
ENDSEC
  0
SECTION
  2
ENTITIES
  0
LWPOLYLINE
  5
17FD
330
37
100
AcDbEntity
  8
90200_FRAME_SIZE
100
AcDbPolyline
 90
        4
 70
     1
 43
0.0
 10
1185.556762984221
 20
-15.0
 10
1515.556762984221
 20
-15.0
 10
1515.556762984221
 20
225.0
 10
1185.556762984221
 20
225.0
1001
GENIUS_GENREC_14
1002
{
1000
PYDIR
1011
1185.556762984221
1021
225.0
1031
0.0
1002
}
1002
{
1000
PXDIR
1011
1515.556762984221
1021
-15.0
1031
0.0
1002
}
1002
{
1000
PORI
1011
1185.556762984221
1021
-15.0
1031
0.0
1002
}
1002
{
1000
PINS
1011
1185.556762984221
1021
-15.0
1031
0.0
1002
}
1002
{
1000
HVAL
1000
240
1002
}
1002
{
1000
H
1070
     2
1002
}
1002
{
1000
WVAL
1000
330
1002
}
1002
{
1000
W
1070
     2
1002
}
1002
{
1000
C
1070
     1
1002
}
1001
GENIUS_GENOBJ-N-REC_13
1002
{
1000
OWNER
1000
GEN
1002
}
1001
GENIUS_GENODEF_13
1002
{
1000
HIER
1070
     0
1002
}
1002
{
1000
MANEDIT
1070
     0
1002
}
1002
{
1000
NOSEL
1070
     0
1002
}
1002
{
1000
BEHIND
1070
     0
1002
}
1002
{
1000
OTHER
1070
     0
1002
}
1002
{
1000
REACTOR
1002
}
1001
AcDbBlockRepETag
1070
     1
1071
        4
1005
17FD
  0
LWPOLYLINE
  5
1804
330
37
100
AcDbEntity
  8
90100_FRAME_THICK
100
AcDbPolyline
 90
        4
 70
     1
 43
0.0
 10
1202.056762984222
 20
0.0
 10
1499.056762984222
 20
0.0
 10
1499.056762984222
 20
210.0
 10
1202.056762984222
 20
210.0
1001
GENIUS_GENREC_14
1002
{
1000
PYDIR
1011
1202.056762984222
1021
210.0
1031
0.0
1002
}
1002
{
1000
PXDIR
1011
1499.056762984222
1021
0.0
1031
0.0
1002
}
1002
{
1000
PORI
1011
1202.056762984222
1021
0.0
1031
0.0
1002
}
1002
{
1000
PINS
1011
1202.056762984222
1021
0.0
1031
0.0
1002
}
1002
{
1000
HVAL
1000
210
1002
}
1002
{
1000
H
1070
     2
1002
}
1002
{
1000
WVAL
1000
297
1002
}
1002
{
1000
W
1070
     2
1002
}
1002
{
1000
C
1070
     1
1002
}
1001
GENIUS_GENODEF_13
1002
{
1000
HIER
1070
     0
1002
}
1002
{
1000
MANEDIT
1070
     0
1002
}
1002
{
1000
NOSEL
1070
     0
1002
}
1002
{
1000
BEHIND
1070
     0
1002
}
1002
{
1000
OTHER
1070
     0
1002
}
1002
{
1000
REACTOR
1002
}
1001
GENIUS_GENOBJ-N-REC_13
1002
{
1000
OWNER
1000
GEN
1002
}
1001
AcDbBlockRepETag
1070
     1
1071
       12
1005
1804
  0
LWPOLYLINE
  5
1807
330
37
100
AcDbEntity
  8
90000_FRAME_THIN
100
AcDbPolyline
 90
        4
 70
     1
 43
0.0
 10
1207.056762984221
 20
5.0
 10
1494.056762984222
 20
5.0
 10
1494.056762984222
 20
205.0
 10
1207.056762984221
 20
205.0
1001
GENIUS_GENREC_14
1002
{
1000
PYDIR
1011
1202.056762984222
1021
210.0
1031
0.0
1002
}
1002
{
1000
PXDIR
1011
1499.056762984222
1021
0.0
1031
0.0
1002
}
1002
{
1000
PORI
1011
1202.056762984222
1021
0.0
1031
0.0
1002
}
1002
{
1000
PINS
1011
1202.056762984222
1021
0.0
1031
0.0
1002
}
1002
{
1000
HVAL
1000
210
1002
}
1002
{
1000
H
1070
     2
1002
}
1002
{
1000
WVAL
1000
297
1002
}
1002
{
1000
W
1070
     2
1002
}
1002
{
1000
C
1070
     1
1002
}
1001
GENIUS_GENODEF_13
1002
{
1000
HIER
1070
     0
1002
}
1002
{
1000
MANEDIT
1070
     0
1002
}
1002
{
1000
NOSEL
1070
     0
1002
}
1002
{
1000
BEHIND
1070
     0
1002
}
1002
{
1000
OTHER
1070
     0
1002
}
1002
{
1000
REACTOR
1002
}
1001
GENIUS_GENOBJ-N-REC_13
1002
{
1000
OWNER
1000
GEN
1002
}
1001
AcDbBlockRepETag
1070
     1
1071
       16
1005
1807
  0
MTEXT
  5
195B
330
37
100
AcDbEntity
  8
92000_TITLE
100
AcDbMText
 10
1425.306762984221
 20
13.0
 30
0.0
 40
2.5
 41
42.5
 71
     5
 72
     5
  1
Format/Size: DIN A4
 73
     1
 44
1.0
1001
ACAD
1000
MTEXTBEGIN
1070
    73
1070
     1
1070
    44
1040
1.0
1070
    74
1070
     0
1000
MTEXTEND
  0
MTEXT
  5
195C
330
37
100
AcDbEntity
  8
92000_TITLE
370
    13
100
AcDbMText
 10
1425.306762984221
 20
13.0
 30
0.0
 40
2.5
 41
42.5
 71
     5
 72
     5
  1
Format/Size: DIN A4
 73
     1
 44
1.0
1001
ACAD
1000
MTEXTBEGIN
1070
    73
1070
     1
1070
    44
1040
1.0
1070
    74
1070
     0
1000
MTEXTEND
  0
INSERT
  5
195D
102
{ACAD_XDICTIONARY
360
1B6C
102
}
330
37
100
AcDbEntity
  8
92000_TITLE
370
    18
100
AcDbBlockReference
 66
     1
  2
*U12
 10
1489.056762984222
 20
10.0
 30
0.0
  0
ATTRIB
  5
195E
330
195D
100
AcDbEntity
  8
92000_TITLE
370
    13
100
AcDbText
 10
1481.047626068444
 20
11.84490518159339
 30
0.0
 40
2.5
  1
1:1
 72
     1
 11
1482.672626068444
 21
13.09490518159339
 31
0.0
100
AcDbAttribute
  2
MASSSTAB/SCALE:
 70
     0
 74
     2
1001
AcDbBlockRepETag
1070
     1
1071
       13
1005
0
  0
ATTRIB
  5
195F
330
195D
100
AcDbEntity
  8
92000_TITLE
370
    25
100
AcDbText
 10
1415.931762984222
 20
22.25000000000011
 30
0.0
 40
3.5
  1
3UF7100_00000280_002_ALL
 72
     1
 11
1446.556762984222
 21
24.00000000000011
 31
0.0
100
AcDbAttribute
  2
ZEICHNUNGSNAME
 70
     0
 74
     2
1001
AcDbBlockRepETag
1070
     1
1071
       14
1005
0
  0
ATTRIB
  5
1960
330
195D
100
AcDbEntity
  8
92000_TITLE
370
    13
100
AcDbText
 10
1446.556762984222
 20
17.22778333016014
 30
0.0
 40
2.5
  1

 72
     1
 11
1446.556762984222
 21
18.47778333016014
 31
0.0
100
AcDbAttribute
  2
ARTIKELNAME
 70
     0
 74
     2
1001
AcDbBlockRepETag
1070
     1
1071
       13
1005
0
  0
ATTRIB
  5
1961
330
195D
100
AcDbEntity
  8
92000_TITLE
370
    13
100
AcDbText
 10
1372.056762984222
 20
11.75
 30
0.0
 40
2.5
  1

 72
     1
 11
1372.056762984222
 21
13.0
 31
0.0
100
AcDbAttribute
  2
DATUM
 70
     0
 74
     2
1001
AcDbBlockRepETag
1070
     1
1071
       16
1005
0
  0
ATTRIB
  5
1962
330
195D
100
AcDbEntity
  8
92000_TITLE
370
    13
100
AcDbText
 10
1397.056762984222
 20
11.75
 30
0.0
 40
2.5
  1

 72
     1
 11
1397.056762984222
 21
13.0
 31
0.0
100
AcDbAttribute
  2
NAME
 70
     0
 74
     2
1001
AcDbBlockRepETag
1070
     1
1071
       15
1005
0
  0
SEQEND
  5
1963
330
195D
100
AcDbEntity
  8
92000_TITLE
370
    18
  0
ARC
  5
46A4
330
37
100
AcDbEntity
  8
10000_FRONT
  6
Continuous
370
    25
100
AcDbCircle
 10
1277.341624595627
 20
158.0117494327344
 30
0.0
 40
0.3000000000000171
100
AcDbArc
 50
90.0
 51
170.5376777919995
  0
ARC
  5
46A5
330
37
100
AcDbEntity
  8
10000_FRONT
  6
Continuous
370
    25
100
AcDbCircle
 10
1287.232056000327
 20
158.0117494327344
 30
0.0
 40
0.3000000000000031
100
AcDbArc
 50
9.462322208000454
 51
90.0
  0
ARC
  5
46A6
330
37
100
AcDbEntity
  8
10000_FRONT
  6
Continuous
370
    25
100
AcDbCircle
 10
1287.226005506327
 20
75.51174926903442
 30
0.0
 40
0.3000000000000114
100
AcDbArc
 50
270.0
 51
351.8698976457989
  0
ARC
  5
46A7
330
37
100
AcDbEntity
  8
10000_FRONT
  6
Continuous
370
    25
100
AcDbCircle
 10
1277.347675089627
 20
75.51174926903442
 30
0.0
 40
0.3000000000000114
100
AcDbArc
 50
188.1301023542011
 51
270.0
  0
ARC
  5
46A8
330
37
100
AcDbEntity
  8
10000_FRONT
  6
Continuous
370
    25
100
AcDbCircle
 10
1276.632695121627
 20
158.0117445334344
 30
0.0
 40
0.3000054746577674
100
AcDbArc
 50
10.00133859359929
 51
90.00013090420337
  0
ARC
  5
46A9
330
37
100
AcDbEntity
  8
10000_FRONT
  6
Continuous
370
    25
100
AcDbCircle
 10
1266.540977753227
 20
158.0117525458344
 30
0.0
 40
0.2999974623625141
100
AcDbArc
 50
89.99923898149461
 51
170.2527089078999
  0
ARC
  5
46AA
330
37
100
AcDbEntity
  8
10000_FRONT
  6
Continuous
370
    25
100
AcDbCircle
 10
1276.626649371427
 20
75.51174766543438
 30
0.0
 40
0.2999984029991759
100
AcDbArc
 50
269.9990819776981
 51
351.1488624302992
  0
ARC
  5
46AB
330
37
100
AcDbEntity
  8
10000_FRONT
  6
Continuous
370
    25
100
AcDbCircle
 10
1266.547029895127
 20
75.5117490479344
 30
0.0
 40
0.2999997854016215
100
AcDbArc
 50
188.5071231561006
 51
270.000505249294
  0
ARC
  5
46AC
330
37
100
AcDbEntity
  8
10000_FRONT
  6
Continuous
370
    25
100
AcDbCircle
 10
1288.041624571127
 20
158.0117494327344
 30
0.0
 40
0.2999999999999891
100
AcDbArc
 50
90.0
 51
170.5376777919995
  0
ARC
  5
46AD
330
37
100
AcDbEntity
  8
10000_FRONT
  6
Continuous
370
    25
100
AcDbCircle
 10
1297.932055967727
 20
158.0117494327344
 30
0.0
 40
0.3000000000000171
100
AcDbArc
 50
9.462322208000454
 51
90.0
  0
ARC
  5
46AE
330
37
100
AcDbEntity
  8
10000_FRONT
  6
Continuous
370
    13
100
AcDbCircle
 10
1302.123331940127
 20
104.9617492690344
 30
0.0
 40
2.000000000000003
100
AcDbArc
 50
194.477512185901
 51
225.0000000000046
  0
LINE
  5
46AF
330
37
100
AcDbEntity
  8
10000_FRONT
  6
Continuous
370
    13
100
AcDbLine
 10
1300.186840726027
 20
104.4617492839344
 30
0.0
 11
1300.186840726027
 21
129.0617503359344
 31
0.0
  0
ARC
  5
46B0
330
37
100
AcDbEntity
  8
10000_FRONT
  6
Continuous
370
    13
100
AcDbCircle
 10
1302.123331940127
 20
128.5617492690344
 30
0.0
 40
2.000000000000015
100
AcDbArc
 50
134.9999999999954
 51
165.5224878140989
  0
LWPOLYLINE
  5
46B1
330
37
100
AcDbEntity
  8
10000_FRONT
  6
Continuous
370
    13
100
AcDbPolyline
 90
        5
 70
   128
 43
0.0
 10
1302.123332304827
 20
131.3901759817344
 10
1301.733152849527
 20
130.9999965265344
 10
1301.357963962427
 20
130.6248113646343
 10
1301.012189967527
 20
130.2790373697343
 10
1300.709118975327
 20
129.9759626522344
  0
LINE
  5
46B2
330
37
100
AcDbEntity
  8
10000_FRONT
  6
Continuous
370
    13
100
AcDbLine
 10
1302.123332304827
 20
131.3901759817344
 30
0.0
 11
1302.123332304827
 21
102.1333217754344
 31
0.0
  0
LWPOLYLINE
  5
46B3
330
37
100
AcDbEntity
  8
10000_FRONT
  6
Continuous
370
    13
100
AcDbPolyline
 90
        5
 70
   128
 43
0.0
 10
1300.709118975327
 20
103.5475351050344
 10
1301.012189967527
 20
103.2444622501344
 10
1301.357963962427
 20
102.8986882552344
 10
1301.733152849527
 20
102.5235030933344
 10
1302.123332304827
 20
102.1333217754344
  0
LINE
  5
46B4
330
37
100
AcDbEntity
  8
10000_FRONT
  6
Continuous
370
    13
100
AcDbLine
 10
1286.586839614427
 20
130.9617489710344
 30
0.0
 11
1277.986841184927
 21
130.9617489710344
 31
0.0
  0
LINE
  5
46B5
330
37
100
AcDbEntity
  8
10000_FRONT
  6
Continuous
370
    13
100
AcDbLine
 10
1277.986841184927
 20
130.9617489710344
 30
0.0
 11
1277.986841184927
 21
129.9759626522344
 31
0.0
  0
LWPOLYLINE
  5
46B6
330
37
100
AcDbEntity
  8
10000_FRONT
  6
Continuous
370
    13
100
AcDbPolyline
 90
        5
 70
   128
 43
0.0
 10
1262.450348494527
 20
131.3901759817344
 10
1262.840529346827
 20
130.9999965265344
 10
1263.215715439927
 20
130.6248113646343
 10
1263.561488969227
 20
130.2790373697343
 10
1263.864562289727
 20
129.9759626522344
  0
LINE
  5
46B7
330
37
100
AcDbEntity
  8
10000_FRONT
  6
Continuous
370
    13
100
AcDbLine
 10
1262.450348494527
 20
131.3901759817344
 30
0.0
 11
1302.123332304827
 21
131.3901759817344
 31
0.0
  0
LINE
  5
46B8
330
37
100
AcDbEntity
  8
10000_FRONT
  6
Continuous
370
    13
100
AcDbLine
 10
1286.586839614427
 20
129.9759626522344
 30
0.0
 11
1286.586839614427
 21
130.9617489710344
 31
0.0
  0
ARC
  5
46B9
330
37
100
AcDbEntity
  8
10000_FRONT
  6
Continuous
370
    13
100
AcDbCircle
 10
1262.450348593927
 20
128.5617492690344
 30
0.0
 40
2.000000000000015
100
AcDbArc
 50
14.47751218599893
 51
45.0000000000046
  0
LINE
  5
46BA
330
37
100
AcDbEntity
  8
10000_FRONT
  6
Continuous
370
    13
100
AcDbLine
 10
1264.386840073327
 20
129.0617503359344
 30
0.0
 11
1264.386840073327
 21
104.4617492839344
 31
0.0
  0
ARC
  5
46BB
330
37
100
AcDbEntity
  8
10000_FRONT
  6
Continuous
370
    13
100
AcDbCircle
 10
1262.450348593927
 20
104.9617492690344
 30
0.0
 40
1.999999999999974
100
AcDbArc
 50
314.9999999999954
 51
345.5224878140012
  0
LWPOLYLINE
  5
46BC
330
37
100
AcDbEntity
  8
10000_FRONT
  6
Continuous
370
    13
100
AcDbPolyline
 90
        5
 70
   128
 43
0.0
 10
1263.864562289727
 20
103.5475351050344
 10
1263.561488969227
 20
103.2444622501344
 10
1263.215715439927
 20
102.8986882552344
 10
1262.840529346827
 20
102.5235030933344
 10
1262.450348494527
 20
102.1333217754344
  0
LINE
  5
46BD
330
37
100
AcDbEntity
  8
10000_FRONT
  6
Continuous
370
    13
100
AcDbLine
 10
1262.450348494527
 20
102.1333217754344
 30
0.0
 11
1262.450348494527
 21
131.3901759817344
 31
0.0
  0
LINE
  5
46BE
330
37
100
AcDbEntity
  8
10000_FRONT
  6
Continuous
370
    13
100
AcDbLine
 10
1302.123332304827
 20
102.1333217754344
 30
0.0
 11
1262.450348494527
 21
102.1333217754344
 31
0.0
  0
LINE
  5
46BF
330
37
100
AcDbEntity
  8
10000_FRONT
  6
Continuous
370
    13
100
AcDbLine
 10
1302.886841727327
 20
99.16174897393441
 30
0.0
 11
1261.686840236127
 21
99.16174897393441
 31
0.0
  0
LINE
  5
46C0
330
37
100
AcDbEntity
  8
10000_FRONT
  6
Continuous
370
    13
100
AcDbLine
 10
1302.886841727327
 20
134.3617506459344
 30
0.0
 11
1261.686840236127
 21
134.3617506459344
 31
0.0
  0
LINE
  5
46C1
330
37
100
AcDbEntity
  8
10000_FRONT
  6
Continuous
370
    13
100
AcDbLine
 10
1261.686840236127
 20
99.16174897393441
 30
0.0
 11
1261.686840236127
 21
134.3617506459344
 31
0.0
  0
LINE
  5
46C2
330
37
100
AcDbEntity
  8
10000_FRONT
  6
Continuous
370
    13
100
AcDbLine
 10
1302.886841727327
 20
99.16174897393441
 30
0.0
 11
1302.886841727327
 21
134.3617506459344
 31
0.0
  0
LINE
  5
46C3
330
37
100
AcDbEntity
  8
10000_FRONT
  6
Continuous
370
    13
100
AcDbLine
 10
1300.186840726027
 20
129.0617503359344
 30
0.0
 11
1286.586839614427
 21
129.0617503359344
 31
0.0
  0
LINE
  5
46C4
330
37
100
AcDbEntity
  8
10000_FRONT
  6
Continuous
370
    13
100
AcDbLine
 10
1286.586839614427
 20
129.0617503359344
 30
0.0
 11
1286.586839614427
 21
129.9759626522344
 31
0.0
  0
LINE
  5
46C5
330
37
100
AcDbEntity
  8
10000_FRONT
  6
Continuous
370
    13
100
AcDbLine
 10
1277.986841184927
 20
129.0617503359344
 30
0.0
 11
1264.386840073327
 21
129.0617503359344
 31
0.0
  0
LINE
  5
46C6
330
37
100
AcDbEntity
  8
10000_FRONT
  6
Continuous
370
    13
100
AcDbLine
 10
1277.986841184927
 20
129.9759626522344
 30
0.0
 11
1277.986841184927
 21
129.0617503359344
 31
0.0
  0
LINE
  5
46C7
330
37
100
AcDbEntity
  8
10000_FRONT
  6
Continuous
370
    13
100
AcDbLine
 10
1264.386840073327
 20
104.4617492839344
 30
0.0
 11
1300.186840726027
 21
104.4617492839344
 31
0.0
  0
LINE
  5
46C8
330
37
100
AcDbEntity
  8
10000_FRONT
  6
Continuous
370
    13
100
AcDbLine
 10
1280.083004293927
 20
130.9617489710344
 30
0.0
 11
1280.586840493527
 21
121.3479928806343
 31
0.0
  0
LINE
  5
46C9
330
37
100
AcDbEntity
  8
10000_FRONT
  6
Continuous
370
    13
100
AcDbLine
 10
1280.586840493527
 20
121.3479928806343
 30
0.0
 11
1283.986840305827
 21
121.3479928806343
 31
0.0
  0
LINE
  5
46CA
330
37
100
AcDbEntity
  8
10000_FRONT
  6
Continuous
370
    13
100
AcDbLine
 10
1283.986840305827
 20
121.3479928806343
 30
0.0
 11
1284.490676505427
 21
130.9617489710344
 31
0.0
  0
LINE
  5
46CB
330
37
100
AcDbEntity
  8
10000_FRONT
  6
Continuous
370
    13
100
AcDbLine
 10
1271.766840388927
 20
126.1117488279344
 30
0.0
 11
1271.766840388927
 21
124.3117481603344
 31
0.0
  0
LINE
  5
46CC
330
37
100
AcDbEntity
  8
10000_FRONT
  6
Continuous
370
    13
100
AcDbLine
 10
1271.766840388927
 20
124.3117481603344
 30
0.0
 11
1273.566840125227
 21
124.3117481603344
 31
0.0
  0
LINE
  5
46CD
330
37
100
AcDbEntity
  8
10000_FRONT
  6
Continuous
370
    13
100
AcDbLine
 10
1273.566840125227
 20
124.3117481603344
 30
0.0
 11
1273.566840125227
 21
126.1117488279344
 31
0.0
  0
LINE
  5
46CE
330
37
100
AcDbEntity
  8
10000_FRONT
  6
Continuous
370
    13
100
AcDbLine
 10
1273.566840125227
 20
126.1117488279344
 30
0.0
 11
1271.766840388927
 21
126.1117488279344
 31
0.0
  0
LINE
  5
46CF
330
37
100
AcDbEntity
  8
10000_FRONT
  6
Continuous
370
    13
100
AcDbLine
 10
1271.766840388927
 20
123.5617503657344
 30
0.0
 11
1271.766840388927
 21
121.7617496981343
 31
0.0
  0
LINE
  5
46D0
330
37
100
AcDbEntity
  8
10000_FRONT
  6
Continuous
370
    13
100
AcDbLine
 10
1271.766840388927
 20
121.7617496981343
 30
0.0
 11
1273.566840125227
 21
121.7617496981343
 31
0.0
  0
LINE
  5
46D1
330
37
100
AcDbEntity
  8
10000_FRONT
  6
Continuous
370
    13
100
AcDbLine
 10
1273.566840125227
 20
121.7617496981343
 30
0.0
 11
1273.566840125227
 21
123.5617503657344
 31
0.0
  0
LINE
  5
46D2
330
37
100
AcDbEntity
  8
10000_FRONT
  6
Continuous
370
    13
100
AcDbLine
 10
1273.566840125227
 20
123.5617503657344
 30
0.0
 11
1271.766840388927
 21
123.5617503657344
 31
0.0
  0
LINE
  5
46D3
330
37
100
AcDbEntity
  8
10000_FRONT
  6
Continuous
370
    13
100
AcDbLine
 10
1271.766840388927
 20
121.0117481782344
 30
0.0
 11
1271.766840388927
 21
119.2117475107344
 31
0.0
  0
LINE
  5
46D4
330
37
100
AcDbEntity
  8
10000_FRONT
  6
Continuous
370
    13
100
AcDbLine
 10
1271.766840388927
 20
119.2117475107344
 30
0.0
 11
1273.566840125227
 21
119.2117475107344
 31
0.0
  0
LINE
  5
46D5
330
37
100
AcDbEntity
  8
10000_FRONT
  6
Continuous
370
    13
100
AcDbLine
 10
1273.566840125227
 20
119.2117475107344
 30
0.0
 11
1273.566840125227
 21
121.0117481782344
 31
0.0
  0
LINE
  5
46D6
330
37
100
AcDbEntity
  8
10000_FRONT
  6
Continuous
370
    13
100
AcDbLine
 10
1273.566840125227
 20
121.0117481782344
 30
0.0
 11
1271.766840388927
 21
121.0117481782344
 31
0.0
  0
LINE
  5
46D7
330
37
100
AcDbEntity
  8
10000_FRONT
  6
Continuous
370
    13
100
AcDbLine
 10
1271.766840388927
 20
118.4617497160344
 30
0.0
 11
1271.766840388927
 21
116.6617490485343
 31
0.0
  0
LINE
  5
46D8
330
37
100
AcDbEntity
  8
10000_FRONT
  6
Continuous
370
    13
100
AcDbLine
 10
1271.766840388927
 20
116.6617490485343
 30
0.0
 11
1273.566840125227
 21
116.6617490485343
 31
0.0
  0
LINE
  5
46D9
330
37
100
AcDbEntity
  8
10000_FRONT
  6
Continuous
370
    13
100
AcDbLine
 10
1273.566840125227
 20
116.6617490485343
 30
0.0
 11
1273.566840125227
 21
118.4617497160344
 31
0.0
  0
LINE
  5
46DA
330
37
100
AcDbEntity
  8
10000_FRONT
  6
Continuous
370
    13
100
AcDbLine
 10
1273.566840125227
 20
118.4617497160344
 30
0.0
 11
1271.766840388927
 21
118.4617497160344
 31
0.0
  0
LINE
  5
46DB
330
37
100
AcDbEntity
  8
10000_FRONT
  6
Continuous
370
    13
100
AcDbLine
 10
1271.766840388927
 20
115.9117475285344
 30
0.0
 11
1271.766840388927
 21
114.1117505863344
 31
0.0
  0
LINE
  5
46DC
330
37
100
AcDbEntity
  8
10000_FRONT
  6
Continuous
370
    13
100
AcDbLine
 10
1271.766840388927
 20
114.1117505863344
 30
0.0
 11
1273.566840125227
 21
114.1117505863344
 31
0.0
  0
LINE
  5
46DD
330
37
100
AcDbEntity
  8
10000_FRONT
  6
Continuous
370
    13
100
AcDbLine
 10
1273.566840125227
 20
114.1117505863344
 30
0.0
 11
1273.566840125227
 21
115.9117475285344
 31
0.0
  0
LINE
  5
46DE
330
37
100
AcDbEntity
  8
10000_FRONT
  6
Continuous
370
    13
100
AcDbLine
 10
1273.566840125227
 20
115.9117475285344
 30
0.0
 11
1271.766840388927
 21
115.9117475285344
 31
0.0
  0
LINE
  5
46DF
330
37
100
AcDbEntity
  8
10000_FRONT
  6
Continuous
370
    13
100
AcDbLine
 10
1271.766840388927
 20
113.3617490663344
 30
0.0
 11
1271.766840388927
 21
111.5617483988344
 31
0.0
  0
LINE
  5
46E0
330
37
100
AcDbEntity
  8
10000_FRONT
  6
Continuous
370
    13
100
AcDbLine
 10
1271.766840388927
 20
111.5617483988344
 30
0.0
 11
1273.566840125227
 21
111.5617483988344
 31
0.0
  0
LINE
  5
46E1
330
37
100
AcDbEntity
  8
10000_FRONT
  6
Continuous
370
    13
100
AcDbLine
 10
1273.566840125227
 20
111.5617483988344
 30
0.0
 11
1273.566840125227
 21
113.3617490663344
 31
0.0
  0
LINE
  5
46E2
330
37
100
AcDbEntity
  8
10000_FRONT
  6
Continuous
370
    13
100
AcDbLine
 10
1273.566840125227
 20
113.3617490663344
 30
0.0
 11
1271.766840388927
 21
113.3617490663344
 31
0.0
  0
LINE
  5
46E3
330
37
100
AcDbEntity
  8
10000_FRONT
  6
Continuous
370
    13
100
AcDbLine
 10
1269.216840064127
 20
126.1117488279344
 30
0.0
 11
1269.216840064127
 21
124.3117481603344
 31
0.0
  0
LINE
  5
46E4
330
37
100
AcDbEntity
  8
10000_FRONT
  6
Continuous
370
    13
100
AcDbLine
 10
1269.216840064127
 20
124.3117481603344
 30
0.0
 11
1271.016840731627
 21
124.3117481603344
 31
0.0
  0
LINE
  5
46E5
330
37
100
AcDbEntity
  8
10000_FRONT
  6
Continuous
370
    13
100
AcDbLine
 10
1271.016840731627
 20
124.3117481603344
 30
0.0
 11
1271.016840731627
 21
126.1117488279344
 31
0.0
  0
LINE
  5
46E6
330
37
100
AcDbEntity
  8
10000_FRONT
  6
Continuous
370
    13
100
AcDbLine
 10
1271.016840731627
 20
126.1117488279344
 30
0.0
 11
1269.216840064127
 21
126.1117488279344
 31
0.0
  0
LINE
  5
46E7
330
37
100
AcDbEntity
  8
10000_FRONT
  6
Continuous
370
    13
100
AcDbLine
 10
1269.216840064127
 20
123.5617503657344
 30
0.0
 11
1269.216840064127
 21
121.7617496981343
 31
0.0
  0
LINE
  5
46E8
330
37
100
AcDbEntity
  8
10000_FRONT
  6
Continuous
370
    13
100
AcDbLine
 10
1269.216840064127
 20
121.7617496981343
 30
0.0
 11
1271.016840731627
 21
121.7617496981343
 31
0.0
  0
LINE
  5
46E9
330
37
100
AcDbEntity
  8
10000_FRONT
  6
Continuous
370
    13
100
AcDbLine
 10
1271.016840731627
 20
121.7617496981343
 30
0.0
 11
1271.016840731627
 21
123.5617503657344
 31
0.0
  0
LINE
  5
46EA
330
37
100
AcDbEntity
  8
10000_FRONT
  6
Continuous
370
    13
100
AcDbLine
 10
1271.016840731627
 20
123.5617503657344
 30
0.0
 11
1269.216840064127
 21
123.5617503657344
 31
0.0
  0
LINE
  5
46EB
330
37
100
AcDbEntity
  8
10000_FRONT
  6
Continuous
370
    13
100
AcDbLine
 10
1269.216840064127
 20
121.0117481782344
 30
0.0
 11
1269.216840064127
 21
119.2117475107344
 31
0.0
  0
LINE
  5
46EC
330
37
100
AcDbEntity
  8
10000_FRONT
  6
Continuous
370
    13
100
AcDbLine
 10
1269.216840064127
 20
119.2117475107344
 30
0.0
 11
1271.016840731627
 21
119.2117475107344
 31
0.0
  0
LINE
  5
46ED
330
37
100
AcDbEntity
  8
10000_FRONT
  6
Continuous
370
    13
100
AcDbLine
 10
1271.016840731627
 20
119.2117475107344
 30
0.0
 11
1271.016840731627
 21
121.0117481782344
 31
0.0
  0
LINE
  5
46EE
330
37
100
AcDbEntity
  8
10000_FRONT
  6
Continuous
370
    13
100
AcDbLine
 10
1271.016840731627
 20
121.0117481782344
 30
0.0
 11
1269.216840064127
 21
121.0117481782344
 31
0.0
  0
LINE
  5
46EF
330
37
100
AcDbEntity
  8
10000_FRONT
  6
Continuous
370
    13
100
AcDbLine
 10
1269.216840064127
 20
118.4617497160344
 30
0.0
 11
1269.216840064127
 21
116.6617490485343
 31
0.0
  0
LINE
  5
46F0
330
37
100
AcDbEntity
  8
10000_FRONT
  6
Continuous
370
    13
100
AcDbLine
 10
1269.216840064127
 20
116.6617490485343
 30
0.0
 11
1271.016840731627
 21
116.6617490485343
 31
0.0
  0
LINE
  5
46F1
330
37
100
AcDbEntity
  8
10000_FRONT
  6
Continuous
370
    13
100
AcDbLine
 10
1271.016840731627
 20
116.6617490485343
 30
0.0
 11
1271.016840731627
 21
118.4617497160344
 31
0.0
  0
LINE
  5
46F2
330
37
100
AcDbEntity
  8
10000_FRONT
  6
Continuous
370
    13
100
AcDbLine
 10
1271.016840731627
 20
118.4617497160344
 30
0.0
 11
1269.216840064127
 21
118.4617497160344
 31
0.0
  0
LINE
  5
46F3
330
37
100
AcDbEntity
  8
10000_FRONT
  6
Continuous
370
    13
100
AcDbLine
 10
1269.216840064127
 20
113.3617490663344
 30
0.0
 11
1269.216840064127
 21
111.5617483988344
 31
0.0
  0
LINE
  5
46F4
330
37
100
AcDbEntity
  8
10000_FRONT
  6
Continuous
370
    13
100
AcDbLine
 10
1269.216840064127
 20
111.5617483988344
 30
0.0
 11
1271.016840731627
 21
111.5617483988344
 31
0.0
  0
LINE
  5
46F5
330
37
100
AcDbEntity
  8
10000_FRONT
  6
Continuous
370
    13
100
AcDbLine
 10
1271.016840731627
 20
111.5617483988344
 30
0.0
 11
1271.016840731627
 21
113.3617490663344
 31
0.0
  0
LINE
  5
46F6
330
37
100
AcDbEntity
  8
10000_FRONT
  6
Continuous
370
    13
100
AcDbLine
 10
1271.016840731627
 20
113.3617490663344
 30
0.0
 11
1269.216840064127
 21
113.3617490663344
 31
0.0
  0
LINE
  5
46F7
330
37
100
AcDbEntity
  8
10000_FRONT
  6
Continuous
370
    13
100
AcDbLine
 10
1269.216840064127
 20
115.9117475285344
 30
0.0
 11
1269.216840064127
 21
114.1117505863344
 31
0.0
  0
LINE
  5
46F8
330
37
100
AcDbEntity
  8
10000_FRONT
  6
Continuous
370
    13
100
AcDbLine
 10
1269.216840064127
 20
114.1117505863344
 30
0.0
 11
1271.016840731627
 21
114.1117505863344
 31
0.0
  0
LINE
  5
46F9
330
37
100
AcDbEntity
  8
10000_FRONT
  6
Continuous
370
    13
100
AcDbLine
 10
1271.016840731627
 20
114.1117505863344
 30
0.0
 11
1271.016840731627
 21
115.9117475285344
 31
0.0
  0
LINE
  5
46FA
330
37
100
AcDbEntity
  8
10000_FRONT
  6
Continuous
370
    13
100
AcDbLine
 10
1271.016840731627
 20
115.9117475285344
 30
0.0
 11
1269.216840064127
 21
115.9117475285344
 31
0.0
  0
LINE
  5
46FB
330
37
100
AcDbEntity
  8
10000_FRONT
  6
Continuous
370
    13
100
AcDbLine
 10
1277.986841184927
 20
118.3617480233343
 30
0.0
 11
1286.586839614427
 21
118.3617480233343
 31
0.0
  0
LINE
  5
46FC
330
37
100
AcDbEntity
  8
10000_FRONT
  6
Continuous
370
    13
100
AcDbLine
 10
1286.586839614427
 20
118.3617480233343
 30
0.0
 11
1286.586839614427
 21
129.0617503359344
 31
0.0
  0
LINE
  5
46FD
330
37
100
AcDbEntity
  8
10000_FRONT
  6
Continuous
370
    13
100
AcDbLine
 10
1277.986841184927
 20
129.0617503359344
 30
0.0
 11
1277.986841184927
 21
118.3617480233343
 31
0.0
  0
LINE
  5
46FE
330
37
100
AcDbEntity
  8
10000_FRONT
  6
Continuous
370
    13
100
AcDbLine
 10
1278.286840675327
 20
134.3735858931344
 30
0.0
 11
1286.286840124027
 21
134.3735858931344
 31
0.0
  0
LINE
  5
46FF
330
37
100
AcDbEntity
  8
10000_FRONT
  6
Continuous
370
    13
100
AcDbLine
 10
1278.286840675327
 20
134.3735858931344
 30
0.0
 11
1278.286840675327
 21
134.3617506459344
 31
0.0
  0
LINE
  5
4700
330
37
100
AcDbEntity
  8
10000_FRONT
  6
Continuous
370
    13
100
AcDbLine
 10
1286.286840124027
 20
134.3735858931344
 30
0.0
 11
1286.286840124027
 21
134.3617506459344
 31
0.0
  0
LINE
  5
4701
330
37
100
AcDbEntity
  8
10000_FRONT
  6
Continuous
370
    13
100
AcDbLine
 10
1280.119689090127
 20
130.2617482974344
 30
0.0
 11
1284.453989846627
 21
130.2617482974344
 31
0.0
  0
LINE
  5
4702
330
37
100
AcDbEntity
  8
10000_FRONT
  6
Continuous
370
    13
100
AcDbLine
 10
1261.386840280127
 20
132.7617496385343
 30
0.0
 11
1261.386840280127
 21
78.46174921313442
 31
0.0
  0
LINE
  5
4703
330
37
100
AcDbEntity
  8
10000_FRONT
  6
Continuous
370
    13
100
AcDbLine
 10
1261.386840280127
 20
132.7617496385343
 30
0.0
 11
1261.686840236127
 21
132.7617496385343
 31
0.0
  0
LINE
  5
4704
330
37
100
AcDbEntity
  8
10000_FRONT
  6
Continuous
370
    13
100
AcDbLine
 10
1261.386840280127
 20
150.0617519154344
 30
0.0
 11
1261.386840280127
 21
132.8617513313344
 31
0.0
  0
LINE
  5
4705
330
37
100
AcDbEntity
  8
10000_FRONT
  6
Continuous
370
    13
100
AcDbLine
 10
1303.186839355127
 20
150.0617519154344
 30
0.0
 11
1261.386840280127
 21
150.0617519154344
 31
0.0
  0
LINE
  5
4706
330
37
100
AcDbEntity
  8
10000_FRONT
  6
Continuous
370
    13
100
AcDbLine
 10
1303.186839355127
 20
132.8617513313344
 30
0.0
 11
1303.186839355127
 21
150.0617519154344
 31
0.0
  0
LINE
  5
4707
330
37
100
AcDbEntity
  8
10000_FRONT
  6
Continuous
370
    13
100
AcDbLine
 10
1303.186839355127
 20
132.7617496385343
 30
0.0
 11
1302.886841727327
 21
132.7617496385343
 31
0.0
  0
LINE
  5
4708
330
37
100
AcDbEntity
  8
10000_FRONT
  6
Continuous
370
    13
100
AcDbLine
 10
1303.186839355127
 20
78.46174921313442
 30
0.0
 11
1303.186839355127
 21
132.7617496385343
 31
0.0
  0
LINE
  5
4709
330
37
100
AcDbEntity
  8
10000_FRONT
  6
Continuous
370
    13
100
AcDbLine
 10
1303.186839355127
 20
78.46174921313442
 30
0.0
 11
1261.386840280127
 21
78.46174921313442
 31
0.0
  0
LINE
  5
470A
330
37
100
AcDbEntity
  8
10000_FRONT
  6
Continuous
370
    25
100
AcDbLine
 10
1266.186840275253
 20
75.9617492690344
 30
0.0
 11
1261.386840280127
 21
75.9617492690344
 31
0.0
  0
LINE
  5
470B
330
37
100
AcDbEntity
  8
10000_FRONT
  6
Continuous
370
    13
100
AcDbLine
 10
1303.186839355127
 20
75.9617492690344
 30
0.0
 11
1303.186839355127
 21
78.46174921313442
 31
0.0
  0
LINE
  5
470C
330
37
100
AcDbEntity
  8
10000_FRONT
  6
Continuous
370
    13
100
AcDbLine
 10
1261.386840280127
 20
78.46174921313442
 30
0.0
 11
1261.386840280127
 21
75.9617492690344
 31
0.0
  0
LINE
  5
470D
330
37
100
AcDbEntity
  8
10000_FRONT
  6
Continuous
370
    13
100
AcDbLine
 10
1303.186839355127
 20
151.5617475047343
 30
0.0
 11
1261.386840280127
 21
151.5617475047343
 31
0.0
  0
LINE
  5
470E
330
37
100
AcDbEntity
  8
10000_FRONT
  6
Continuous
370
    13
100
AcDbLine
 10
1261.386840280127
 20
151.5617475047343
 30
0.0
 11
1261.386840280127
 21
150.0617519154344
 31
0.0
  0
LINE
  5
470F
330
37
100
AcDbEntity
  8
10000_FRONT
  6
Continuous
370
    13
100
AcDbLine
 10
1303.186839355127
 20
150.0617519154344
 30
0.0
 11
1303.186839355127
 21
151.5617475047343
 31
0.0
  0
ARC
  5
4710
330
37
100
AcDbEntity
  8
10000_FRONT
  6
Continuous
370
    25
100
AcDbCircle
 10
1260.686840267027
 20
76.76174926903442
 30
0.0
 40
0.8000000000000111
100
AcDbArc
 50
180.0
 51
270.0
  0
LINE
  5
4711
330
37
100
AcDbEntity
  8
10000_FRONT
  6
Continuous
370
    25
100
AcDbLine
 10
1259.886840267027
 20
76.7617492488344
 30
0.0
 11
1259.886840267027
 21
132.7617496385343
 31
0.0
  0
LINE
  5
4712
330
37
100
AcDbEntity
  8
10000_FRONT
  6
Continuous
370
    25
100
AcDbLine
 10
1260.686840246827
 20
75.9617492690344
 30
0.0
 11
1261.386840280127
 21
75.9617492690344
 31
0.0
  0
LINE
  5
4713
330
37
100
AcDbEntity
  8
10000_FRONT
  6
Continuous
370
    13
100
AcDbLine
 10
1261.386840280127
 20
132.7617496385343
 30
0.0
 11
1259.886840267027
 21
132.7617496385343
 31
0.0
  0
LINE
  5
4714
330
37
100
AcDbEntity
  8
10000_FRONT
  6
Continuous
370
    25
100
AcDbLine
 10
1259.886840267027
 20
132.8617513313344
 30
0.0
 11
1259.886840267027
 21
151.5617475047343
 31
0.0
  0
LINE
  5
4715
330
37
100
AcDbEntity
  8
10000_FRONT
  6
Continuous
370
    13
100
AcDbLine
 10
1259.886840267027
 20
151.5617475047343
 30
0.0
 11
1261.386840280127
 21
151.5617475047343
 31
0.0
  0
LINE
  5
4716
330
37
100
AcDbEntity
  8
10000_FRONT
  6
Continuous
370
    25
100
AcDbLine
 10
1304.686838669627
 20
76.7617492488344
 30
0.0
 11
1304.686838669627
 21
132.7617496385343
 31
0.0
  0
ARC
  5
4717
330
37
100
AcDbEntity
  8
10000_FRONT
  6
Continuous
370
    25
100
AcDbCircle
 10
1303.886840267027
 20
76.76174926903442
 30
0.0
 40
0.8000000000000111
100
AcDbArc
 50
270.0
 51
0.0
  0
LINE
  5
4718
330
37
100
AcDbEntity
  8
10000_FRONT
  6
Continuous
370
    25
100
AcDbLine
 10
1303.186839355127
 20
75.9617492690344
 30
0.0
 11
1303.886840028627
 21
75.9617492690344
 31
0.0
  0
LINE
  5
4719
330
37
100
AcDbEntity
  8
10000_FRONT
  6
Continuous
370
    13
100
AcDbLine
 10
1303.186839355127
 20
132.7617496385343
 30
0.0
 11
1304.686838669627
 21
132.7617496385343
 31
0.0
  0
LINE
  5
471A
330
37
100
AcDbEntity
  8
10000_FRONT
  6
Continuous
370
    25
100
AcDbLine
 10
1304.686838669627
 20
132.8617513313344
 30
0.0
 11
1304.686838669627
 21
151.5617475047343
 31
0.0
  0
LINE
  5
471B
330
37
100
AcDbEntity
  8
10000_FRONT
  6
Continuous
370
    13
100
AcDbLine
 10
1303.186839355127
 20
151.5617475047343
 30
0.0
 11
1304.686838669627
 21
151.5617475047343
 31
0.0
  0
LINE
  5
471C
330
37
100
AcDbEntity
  8
10000_FRONT
  6
Continuous
370
    13
100
AcDbLine
 10
1298.286193890447
 20
157.5617522135344
 30
0.0
 11
1287.687485946293
 21
157.5617522134935
 31
0.0
  0
LINE
  5
471D
330
37
100
AcDbEntity
  8
10000_FRONT
  6
Continuous
370
    13
100
AcDbLine
 10
1285.886840803527
 20
157.5617522135344
 30
0.0
 11
1285.886840803527
 21
151.5617475047343
 31
0.0
  0
ARC
  5
471E
330
37
100
AcDbEntity
  8
10000_FRONT
  6
Continuous
370
    25
100
AcDbCircle
 10
1303.886840267027
 20
156.7617494327344
 30
0.0
 40
0.8000000000000111
100
AcDbArc
 50
0.0
 51
90.0
  0
LINE
  5
471F
102
{ACAD_REACTORS
330
47DE
102
}
330
37
100
AcDbEntity
  8
10000_FRONT
  6
Continuous
370
    25
100
AcDbLine
 10
1304.686838669627
 20
156.7617461219344
 30
0.0
 11
1304.686838669627
 21
151.5617475047343
 31
0.0
  0
LINE
  5
4720
330
37
100
AcDbEntity
  8
10000_FRONT
  6
Continuous
370
    13
100
AcDbLine
 10
1264.886840155327
 20
151.5617475047343
 30
0.0
 11
1264.886840155327
 21
157.5617522135344
 31
0.0
  0
ARC
  5
4721
330
37
100
AcDbEntity
  8
10000_FRONT
  6
Continuous
370
    25
100
AcDbCircle
 10
1260.686840267027
 20
156.7617494327344
 30
0.0
 40
0.8000000000000111
100
AcDbArc
 50
90.0
 51
180.0
  0
LINE
  5
4722
330
37
100
AcDbEntity
  8
10000_FRONT
  6
Continuous
370
    25
100
AcDbLine
 10
1266.186840275253
 20
157.5617522134935
 30
0.0
 11
1260.686840246827
 21
157.5617522135344
 31
0.0
  0
LINE
  5
4723
102
{ACAD_REACTORS
330
47DE
102
}
330
37
100
AcDbEntity
  8
10000_FRONT
  6
Continuous
370
    25
100
AcDbLine
 10
1259.886840267027
 20
151.5617475047343
 30
0.0
 11
1259.886840267027
 21
156.7617461219344
 31
0.0
  0
LINE
  5
4724
330
37
100
AcDbEntity
  8
10000_FRONT
  6
Continuous
370
    13
100
AcDbLine
 10
1280.886839983927
 20
151.5617475047343
 30
0.0
 11
1280.886839983927
 21
157.5617522135344
 31
0.0
  0
LINE
  5
4725
330
37
100
AcDbEntity
  8
10000_FRONT
  6
Continuous
370
    13
100
AcDbLine
 10
1285.886840803527
 20
157.5617522135344
 30
0.0
 11
1280.886839983927
 21
157.5617522135344
 31
0.0
  0
LINE
  5
4726
330
37
100
AcDbEntity
  8
10000_FRONT
  6
Continuous
370
    25
100
AcDbLine
 10
1259.886840267027
 20
132.7617496385343
 30
0.0
 11
1259.886840267027
 21
132.8617513313344
 31
0.0
  0
LINE
  5
4727
330
37
100
AcDbEntity
  8
10000_FRONT
  6
Continuous
370
    25
100
AcDbLine
 10
1304.686838669627
 20
132.7617496385343
 30
0.0
 11
1304.686838669627
 21
132.8617513313344
 31
0.0
  0
LINE
  5
4728
330
37
100
AcDbEntity
  8
10000_FRONT
  6
Continuous
370
    13
100
AcDbLine
 10
1264.886840155327
 20
157.0919260516344
 30
0.0
 11
1264.945615923027
 21
157.0259288087344
 31
0.0
  0
LINE
  5
4729
330
37
100
AcDbEntity
  8
10000_FRONT
  6
Continuous
370
    13
100
AcDbLine
 10
1264.945615923027
 20
157.0259288087344
 30
0.0
 11
1265.469862522527
 21
156.4011603727344
 31
0.0
  0
ARC
  5
472A
330
37
100
AcDbEntity
  8
10000_FRONT
  6
Continuous
370
    13
100
AcDbCircle
 10
1265.086840257127
 20
156.0797644088344
 30
0.0
 40
0.5000000000015114
100
AcDbArc
 50
0.0
 51
40.00000000000009
  0
LINE
  5
472B
330
37
100
AcDbEntity
  8
10000_FRONT
  6
Continuous
370
    13
100
AcDbLine
 10
1265.586840363127
 20
156.0797646775344
 30
0.0
 11
1265.586840363127
 21
155.7617515459344
 31
0.0
  0
ARC
  5
472C
330
37
100
AcDbEntity
  8
10000_FRONT
  6
Continuous
370
    13
100
AcDbCircle
 10
1265.386840257127
 20
155.7617495259344
 30
0.0
 40
0.2000000000049482
100
AcDbArc
 50
234.9999999994958
 51
0.0
  0
LINE
  5
472D
330
37
100
AcDbEntity
  8
10000_FRONT
  6
Continuous
370
    13
100
AcDbLine
 10
1265.272125044827
 20
155.5979207291344
 30
0.0
 11
1264.886840155327
 21
155.8676988020344
 31
0.0
  0
LINE
  5
472E
330
37
100
AcDbEntity
  8
10000_FRONT
  6
Continuous
370
    13
100
AcDbLine
 10
1280.886839983927
 20
155.8676988020344
 30
0.0
 11
1280.501555560127
 21
155.5979207291344
 31
0.0
  0
ARC
  5
472F
330
37
100
AcDbEntity
  8
10000_FRONT
  6
Continuous
370
    13
100
AcDbCircle
 10
1280.386840259027
 20
155.7617495247344
 30
0.0
 40
0.1999999999993065
100
AcDbArc
 50
179.9999999999006
 51
304.999999999804
  0
LINE
  5
4730
330
37
100
AcDbEntity
  8
10000_FRONT
  6
Continuous
370
    13
100
AcDbLine
 10
1280.186841173027
 20
155.7617515459344
 30
0.0
 11
1280.186841173027
 21
156.0797646775344
 31
0.0
  0
ARC
  5
4731
330
37
100
AcDbEntity
  8
10000_FRONT
  6
Continuous
370
    13
100
AcDbCircle
 10
1280.686840259027
 20
156.0797644076344
 30
0.0
 40
0.5000000000012395
100
AcDbArc
 50
140.0000000001003
 51
180.0
  0
LINE
  5
4732
330
37
100
AcDbEntity
  8
10000_FRONT
  6
Continuous
370
    13
100
AcDbLine
 10
1280.303817151027
 20
156.4011603727344
 30
0.0
 11
1280.828064216227
 21
157.0259288087344
 31
0.0
  0
LINE
  5
4733
330
37
100
AcDbEntity
  8
10000_FRONT
  6
Continuous
370
    13
100
AcDbLine
 10
1280.828064216227
 20
157.0259288087344
 30
0.0
 11
1280.886839983927
 21
157.0919260516344
 31
0.0
  0
LINE
  5
4734
330
37
100
AcDbEntity
  8
10000_FRONT
  6
Continuous
370
    13
100
AcDbLine
 10
1270.686840547227
 20
152.1117493644344
 30
0.0
 11
1270.686840547227
 21
151.5617475047343
 31
0.0
  0
LINE
  5
4735
330
37
100
AcDbEntity
  8
10000_FRONT
  6
Continuous
370
    13
100
AcDbLine
 10
1270.686840547227
 20
152.1117493644344
 30
0.0
 11
1271.326839832527
 21
152.1117493644344
 31
0.0
  0
LINE
  5
4736
330
37
100
AcDbEntity
  8
10000_FRONT
  6
Continuous
370
    13
100
AcDbLine
 10
1271.326839832527
 20
152.1117493644344
 30
0.0
 11
1271.326839832527
 21
151.5617475047343
 31
0.0
  0
LINE
  5
4737
330
37
100
AcDbEntity
  8
10000_FRONT
  6
Continuous
370
    13
100
AcDbLine
 10
1273.886840699227
 20
152.1117493644344
 30
0.0
 11
1273.886840699227
 21
151.5617475047343
 31
0.0
  0
LINE
  5
4738
330
37
100
AcDbEntity
  8
10000_FRONT
  6
Continuous
370
    13
100
AcDbLine
 10
1273.886840699227
 20
152.1117493644344
 30
0.0
 11
1274.526839984527
 21
152.1117493644344
 31
0.0
  0
LINE
  5
4739
330
37
100
AcDbEntity
  8
10000_FRONT
  6
Continuous
370
    13
100
AcDbLine
 10
1274.526839984527
 20
152.1117493644344
 30
0.0
 11
1274.526839984527
 21
151.5617475047343
 31
0.0
  0
LINE
  5
473A
330
37
100
AcDbEntity
  8
10000_FRONT
  6
Continuous
370
    13
100
AcDbLine
 10
1277.726840136527
 20
152.1117493644344
 30
0.0
 11
1277.726840136527
 21
151.5617475047343
 31
0.0
  0
LINE
  5
473B
330
37
100
AcDbEntity
  8
10000_FRONT
  6
Continuous
370
    13
100
AcDbLine
 10
1277.086840851227
 20
152.1117493644344
 30
0.0
 11
1277.726840136527
 21
152.1117493644344
 31
0.0
  0
LINE
  5
473C
330
37
100
AcDbEntity
  8
10000_FRONT
  6
Continuous
370
    13
100
AcDbLine
 10
1277.086840851227
 20
152.1117493644344
 30
0.0
 11
1277.086840851227
 21
151.5617475047343
 31
0.0
  0
LINE
  5
473D
330
37
100
AcDbEntity
  8
10000_FRONT
  6
Continuous
370
    13
100
AcDbLine
 10
1267.486840395227
 20
152.1117493644344
 30
0.0
 11
1267.486840395227
 21
151.5617475047343
 31
0.0
  0
LINE
  5
473E
330
37
100
AcDbEntity
  8
10000_FRONT
  6
Continuous
370
    13
100
AcDbLine
 10
1267.486840395227
 20
152.1117493644344
 30
0.0
 11
1268.126840611827
 21
152.1117493644344
 31
0.0
  0
LINE
  5
473F
330
37
100
AcDbEntity
  8
10000_FRONT
  6
Continuous
370
    13
100
AcDbLine
 10
1268.126840611827
 20
152.1117493644344
 30
0.0
 11
1268.126840611827
 21
151.5617475047343
 31
0.0
  0
LINE
  5
4740
330
37
100
AcDbEntity
  8
10000_FRONT
  6
Continuous
370
    13
100
AcDbLine
 10
1264.886840155327
 20
153.2617464795344
 30
0.0
 11
1265.854363704027
 21
153.2617464795344
 31
0.0
  0
LINE
  5
4741
330
37
100
AcDbEntity
  8
10000_FRONT
  6
Continuous
370
    13
100
AcDbLine
 10
1268.895370794427
 20
153.2617464795344
 30
0.0
 11
1268.895370794427
 21
156.7617461219344
 31
0.0
  0
ARC
  5
4742
330
37
100
AcDbEntity
  8
10000_FRONT
  6
Continuous
370
    13
100
AcDbCircle
 10
1268.118277824927
 20
156.7847034935344
 30
0.0
 40
0.7774320061370336
100
AcDbArc
 50
358.3078240450993
 51
88.20077339849456
  0
LINE
  5
4743
330
37
100
AcDbEntity
  8
10000_FRONT
  6
Continuous
370
    13
100
AcDbLine
 10
1266.186840275253
 20
157.5617522134935
 30
0.0
 11
1268.142687065527
 21
157.5617522135344
 31
0.0
  0
LINE
  5
4744
330
37
100
AcDbEntity
  8
10000_FRONT
  6
Continuous
370
    13
100
AcDbLine
 10
1280.247231854027
 20
153.2617464795344
 30
0.0
 11
1280.886839983927
 21
153.2617464795344
 31
0.0
  0
LINE
  5
4745
330
37
100
AcDbEntity
  8
10000_FRONT
  6
Continuous
370
    13
100
AcDbLine
 10
1277.206225229427
 20
153.2617464795344
 30
0.0
 11
1277.206225229427
 21
157.1732863917344
 31
0.0
  0
LINE
  5
4746
330
37
100
AcDbEntity
  8
10000_FRONT
  6
Continuous
370
    13
100
AcDbLine
 10
1277.300918383427
 20
157.5617522135344
 30
0.0
 11
1280.374472869527
 21
157.5617522135344
 31
0.0
  0
LINE
  5
4747
330
37
100
AcDbEntity
  8
10000_FRONT
  6
Continuous
370
    13
100
AcDbLine
 10
1280.374472869527
 20
157.5617522135344
 30
0.0
 11
1280.886839983927
 21
157.5617522135344
 31
0.0
  0
ARC
  5
4748
330
37
100
AcDbEntity
  8
10000_FRONT
  6
Continuous
370
    13
100
AcDbCircle
 10
1278.045765114727
 20
157.1744127825344
 30
0.0
 40
0.8395406409531954
100
AcDbArc
 50
152.5244100170969
 51
180.0768723434991
  0
LINE
  5
4749
330
37
100
AcDbEntity
  8
10000_FRONT
  6
Continuous
370
    13
100
AcDbLine
 10
1277.014212591527
 20
157.5617522135344
 30
0.0
 11
1277.300918383427
 21
157.5617522135344
 31
0.0
  0
LINE
  5
474A
330
37
100
AcDbEntity
  8
10000_FRONT
  6
Continuous
370
    25
100
AcDbLine
 10
1281.491979865327
 20
158.3117500081343
 30
0.0
 11
1287.232056168827
 21
158.3117500081343
 31
0.0
  0
LINE
  5
474B
330
37
100
AcDbEntity
  8
10000_FRONT
  6
Continuous
370
    25
100
AcDbLine
 10
1277.341624630527
 20
158.3117500081343
 30
0.0
 11
1281.491979865327
 21
158.3117500081343
 31
0.0
  0
LINE
  5
474C
330
37
100
AcDbEntity
  8
10000_FRONT
  6
Continuous
370
    25
100
AcDbLine
 10
1287.226006297327
 20
75.21174926253441
 30
0.0
 11
1277.347674502027
 21
75.21174926253441
 31
0.0
  0
LINE
  5
474D
330
37
100
AcDbEntity
  8
10000_FRONT
  6
Continuous
370
    13
100
AcDbLine
 10
1280.247231854027
 20
153.2617464795344
 30
0.0
 11
1265.854363704027
 21
153.2617464795344
 31
0.0
  0
LINE
  5
474E
330
37
100
AcDbEntity
  8
10000_FRONT
  6
Continuous
370
    13
100
AcDbLine
 10
1269.836225455627
 20
157.5617522135344
 30
0.0
 11
1269.836225455627
 21
156.7617461219344
 31
0.0
  0
LINE
  5
474F
330
37
100
AcDbEntity
  8
10000_FRONT
  6
Continuous
370
    13
100
AcDbLine
 10
1268.142687065527
 20
157.5617522135344
 30
0.0
 11
1269.836225455627
 21
157.5617522135344
 31
0.0
  0
LINE
  5
4750
330
37
100
AcDbEntity
  8
10000_FRONT
  6
Continuous
370
    13
100
AcDbLine
 10
1269.836225455627
 20
153.2617464795344
 30
0.0
 11
1269.836225455627
 21
156.7617461219344
 31
0.0
  0
LINE
  5
4751
330
37
100
AcDbEntity
  8
10000_FRONT
  6
Continuous
370
    13
100
AcDbLine
 10
1276.265369636927
 20
153.2617464795344
 30
0.0
 11
1276.265369636927
 21
156.7617461219344
 31
0.0
  0
LINE
  5
4752
330
37
100
AcDbEntity
  8
10000_FRONT
  6
Continuous
370
    13
100
AcDbLine
 10
1276.265369636927
 20
157.5617522135344
 30
0.0
 11
1276.265369636927
 21
156.7617461219344
 31
0.0
  0
LINE
  5
4753
330
37
100
AcDbEntity
  8
10000_FRONT
  6
Continuous
370
    13
100
AcDbLine
 10
1276.265369636927
 20
157.5617522135344
 30
0.0
 11
1277.014212591527
 21
157.5617522135344
 31
0.0
  0
LINE
  5
4754
330
37
100
AcDbEntity
  8
10000_FRONT
  6
Continuous
370
    13
100
AcDbLine
 10
1269.836225455627
 20
157.5617522135344
 30
0.0
 11
1276.265369636927
 21
157.5617522135344
 31
0.0
  0
LINE
  5
4755
330
37
100
AcDbEntity
  8
10000_FRONT
  6
Continuous
370
    25
100
AcDbLine
 10
1298.186195922927
 20
75.21174926253441
 30
0.0
 11
1287.787485776427
 21
75.21174926253441
 31
0.0
  0
LINE
  5
4756
330
37
100
AcDbEntity
  8
10000_FRONT
  6
Continuous
370
    25
100
AcDbLine
 10
1288.041625080627
 20
158.3117500081343
 30
0.0
 11
1297.932056618827
 21
158.3117500081343
 31
0.0
  0
ARC
  5
4757
330
37
100
AcDbEntity
  8
11000_LEFT
  6
Continuous
370
    25
100
AcDbCircle
 10
1383.344055211627
 20
158.0117494327344
 30
0.0
 40
0.3000000000000058
100
AcDbArc
 50
89.99999876500108
 51
170.5530897344
  0
ARC
  5
4758
330
37
100
AcDbEntity
  8
11000_LEFT
  6
Continuous
370
    25
100
AcDbCircle
 10
1393.435780357427
 20
158.0117494327344
 30
0.0
 40
0.300000000000002
100
AcDbArc
 50
9.450890770000116
 51
90.00001241709391
  0
ARC
  5
4759
330
37
100
AcDbEntity
  8
11000_LEFT
  6
Continuous
370
    25
100
AcDbCircle
 10
1393.429728664727
 20
75.51174926903442
 30
0.0
 40
0.3000000000000115
100
AcDbArc
 50
269.9999983761938
 51
351.8886609124
  0
ARC
  5
475A
330
37
100
AcDbEntity
  8
11000_LEFT
  6
Continuous
370
    25
100
AcDbCircle
 10
1383.350104543127
 20
75.51174926903442
 30
0.0
 40
0.3000000000000114
100
AcDbArc
 50
188.1010240289987
 51
270.0000005237988
  0
ARC
  5
475B
330
37
100
AcDbEntity
  8
11000_LEFT
  6
Continuous
370
    25
100
AcDbCircle
 10
1394.294701494527
 20
158.0117494327344
 30
0.0
 40
0.2999999999999998
100
AcDbArc
 50
90.0
 51
170.5376777919995
  0
ARC
  5
475C
330
37
100
AcDbEntity
  8
11000_LEFT
  6
Continuous
370
    25
100
AcDbCircle
 10
1404.185132899227
 20
158.0117494327344
 30
0.0
 40
0.2999999999999996
100
AcDbArc
 50
9.462322208000454
 51
90.0
  0
ARC
  5
475D
330
37
100
AcDbEntity
  8
11000_LEFT
  6
Continuous
370
    25
100
AcDbCircle
 10
1404.179082405227
 20
75.51174926903442
 30
0.0
 40
0.3000000000000114
100
AcDbArc
 50
270.0
 51
351.8698976457989
  0
ARC
  5
475E
330
37
100
AcDbEntity
  8
11000_LEFT
  6
Continuous
370
    25
100
AcDbCircle
 10
1394.300751988527
 20
75.51174926903442
 30
0.0
 40
0.3000000000000114
100
AcDbArc
 50
188.1301023542011
 51
270.0
  0
LINE
  5
475F
330
37
100
AcDbEntity
  8
11000_LEFT
  6
Continuous
370
    25
100
AcDbLine
 10
1412.789918686227
 20
151.5617475047343
 30
0.0
 11
1413.089916313927
 21
151.5617475047343
 31
0.0
  0
LINE
  5
4760
330
37
100
AcDbEntity
  8
11000_LEFT
  6
Continuous
370
    13
100
AcDbLine
 10
1413.089916313927
 20
132.8617513313344
 30
0.0
 11
1413.089916313927
 21
150.0617519154344
 31
0.0
  0
LINE
  5
4761
330
37
100
AcDbEntity
  8
11000_LEFT
  6
Continuous
370
    13
100
AcDbLine
 10
1411.489919031926
 20
132.8617513313344
 30
0.0
 11
1413.089916313927
 21
132.8617513313344
 31
0.0
  0
LINE
  5
4762
330
37
100
AcDbEntity
  8
11000_LEFT
  6
Continuous
370
    13
100
AcDbLine
 10
1397.821458260427
 20
116.2033148243344
 30
0.0
 11
1411.489919031926
 21
132.8617513313344
 31
0.0
  0
ARC
  5
4763
330
37
100
AcDbEntity
  8
11000_LEFT
  6
Continuous
370
    13
100
AcDbCircle
 10
1398.439917190127
 20
115.6958622003344
 30
0.0
 40
0.7999999999947775
100
AcDbArc
 50
140.6306827576022
 51
180.0
  0
LINE
  5
4764
330
37
100
AcDbEntity
  8
11000_LEFT
  6
Continuous
370
    13
100
AcDbLine
 10
1397.639917413627
 20
108.1820607319344
 30
0.0
 11
1397.639917413627
 21
115.6958632304344
 31
0.0
  0
LINE
  5
4765
330
37
100
AcDbEntity
  8
11000_LEFT
  6
Continuous
370
    13
100
AcDbLine
 10
1391.239917109627
 20
108.1820607319344
 30
0.0
 11
1397.639917413627
 21
108.1820607319344
 31
0.0
  0
LINE
  5
4766
330
37
100
AcDbEntity
  8
11000_LEFT
  6
Continuous
370
    13
100
AcDbLine
 10
1382.689917198327
 20
97.76174948953439
 30
0.0
 11
1391.239917109627
 21
108.1820607319344
 31
0.0
  0
LINE
  5
4767
330
37
100
AcDbEntity
  8
11000_LEFT
  6
Continuous
370
    13
100
AcDbLine
 10
1382.689917198327
 20
97.76174948953439
 30
0.0
 11
1376.489917187627
 21
97.76174948953439
 31
0.0
  0
LINE
  5
4768
330
37
100
AcDbEntity
  8
11000_LEFT
  6
Continuous
370
    25
100
AcDbLine
 10
1376.489917187627
 20
97.76174948953439
 30
0.0
 11
1376.489917187627
 21
99.26174880413441
 31
0.0
  0
LINE
  5
4769
330
37
100
AcDbEntity
  8
11000_LEFT
  6
Continuous
370
    25
100
AcDbLine
 10
1376.489917187627
 20
99.26174880413441
 30
0.0
 11
1378.839917219227
 21
100.6617501511344
 31
0.0
  0
LINE
  5
476A
330
37
100
AcDbEntity
  8
11000_LEFT
  6
Continuous
370
    25
100
AcDbLine
 10
1378.839917219227
 20
100.6617501511344
 30
0.0
 11
1380.064788245527
 21
100.6617501511344
 31
0.0
  0
LINE
  5
476B
330
37
100
AcDbEntity
  8
11000_LEFT
  6
Continuous
370
    25
100
AcDbLine
 10
1380.064788245527
 20
100.6617501511344
 30
0.0
 11
1380.439917295227
 21
99.26174880413441
 31
0.0
  0
LINE
  5
476C
330
37
100
AcDbEntity
  8
11000_LEFT
  6
Continuous
370
    25
100
AcDbLine
 10
1380.439917295227
 20
99.26174880413441
 30
0.0
 11
1381.489917374127
 21
99.26174880413441
 31
0.0
  0
LINE
  5
476D
330
37
100
AcDbEntity
  8
11000_LEFT
  6
Continuous
370
    25
100
AcDbLine
 10
1381.489917374127
 20
99.26174880413441
 30
0.0
 11
1381.489917374127
 21
134.7617499664344
 31
0.0
  0
LINE
  5
476E
330
37
100
AcDbEntity
  8
11000_LEFT
  6
Continuous
370
    25
100
AcDbLine
 10
1381.489917374127
 20
134.7617499664344
 30
0.0
 11
1378.989917197227
 21
134.7617499664344
 31
0.0
  0
LINE
  5
476F
330
37
100
AcDbEntity
  8
11000_LEFT
  6
Continuous
370
    13
100
AcDbLine
 10
1378.989917197227
 20
134.7617499664344
 30
0.0
 11
1376.489917187627
 21
135.5617486074343
 31
0.0
  0
LINE
  5
4770
330
37
100
AcDbEntity
  8
11000_LEFT
  6
Continuous
370
    25
100
AcDbLine
 10
1376.489917187627
 20
134.7000274113633
 30
0.0
 11
1376.489917187627
 21
156.7617461219344
 31
0.0
  0
LINE
  5
4771
102
{ACAD_REACTORS
330
4832
102
}
330
37
100
AcDbEntity
  8
11000_LEFT
  6
Continuous
370
    13
100
AcDbLine
 10
1412.439916486827
 20
156.7617461219344
 30
0.0
 11
1376.489917187627
 21
156.7617461219344
 31
0.0
  0
LINE
  5
4772
330
37
100
AcDbEntity
  8
11000_LEFT
  6
Continuous
370
    13
100
AcDbLine
 10
1393.940562586247
 20
157.5617522135345
 30
0.0
 11
1404.539270530403
 21
157.5617522134935
 31
0.0
  0
LINE
  5
4773
330
37
100
AcDbEntity
  8
11000_LEFT
  6
Continuous
370
    13
100
AcDbLine
 10
1412.439916486827
 20
157.5617522135344
 30
0.0
 11
1412.439916486827
 21
156.7617461219344
 31
0.0
  0
ARC
  5
4774
330
37
100
AcDbEntity
  8
11000_LEFT
  6
Continuous
370
    25
100
AcDbCircle
 10
1377.289917190127
 20
156.7617494327344
 30
0.0
 40
0.7999999999999972
100
AcDbArc
 50
90.0
 51
180.0
  0
LINE
  5
4775
330
37
100
AcDbEntity
  8
11000_LEFT
  6
Continuous
370
    13
100
AcDbLine
 10
1413.089916313927
 20
76.7617492488344
 30
0.0
 11
1413.089916313927
 21
132.8617513313344
 31
0.0
  0
LINE
  5
4776
330
37
100
AcDbEntity
  8
11000_LEFT
  6
Continuous
370
    13
100
AcDbLine
 10
1376.489917187627
 20
76.7617492488344
 30
0.0
 11
1413.089916313927
 21
76.7617492488344
 31
0.0
  0
LINE
  5
4777
330
37
100
AcDbEntity
  8
11000_LEFT
  6
Continuous
370
    25
100
AcDbLine
 10
1376.489917187627
 20
76.7617492488344
 30
0.0
 11
1376.489917187627
 21
97.66174965943438
 31
0.0
  0
LINE
  5
4778
330
37
100
AcDbEntity
  8
11000_LEFT
  6
Continuous
370
    25
100
AcDbLine
 10
1382.990026803489
 20
75.96174926902403
 30
0.0
 11
1377.289917174627
 21
75.9617492690344
 31
0.0
  0
ARC
  5
4779
330
37
100
AcDbEntity
  8
11000_LEFT
  6
Continuous
370
    25
100
AcDbCircle
 10
1377.289917190127
 20
76.76174926903442
 30
0.0
 40
0.8000000000000111
100
AcDbArc
 50
180.0
 51
270.0
  0
LINE
  5
477A
330
37
100
AcDbEntity
  8
11000_LEFT
  6
Continuous
370
    13
100
AcDbLine
 10
1413.089916313927
 20
76.7617492488344
 30
0.0
 11
1413.089916313927
 21
75.9617492690344
 31
0.0
  0
LINE
  5
477B
330
37
100
AcDbEntity
  8
11000_LEFT
  6
Continuous
370
    25
100
AcDbLine
 10
1414.789919014027
 20
78.46174921313442
 30
0.0
 11
1414.120044763127
 21
75.9617492690344
 31
0.0
  0
LINE
  5
477C
330
37
100
AcDbEntity
  8
11000_LEFT
  6
Continuous
370
    13
100
AcDbLine
 10
1414.789919014027
 20
132.7617496385343
 30
0.0
 11
1414.789919014027
 21
100.1617491378938
 31
0.0
  0
LINE
  5
477D
330
37
100
AcDbEntity
  8
11000_LEFT
  6
Continuous
370
    25
100
AcDbLine
 10
1413.089916313927
 20
75.9617492690344
 30
0.0
 11
1414.120044763127
 21
75.9617492690344
 31
0.0
  0
LINE
  5
477E
330
37
100
AcDbEntity
  8
11000_LEFT
  6
Continuous
370
    25
100
AcDbLine
 10
1413.089916313927
 20
150.0617519154344
 30
0.0
 11
1414.789919014027
 21
150.0617519154344
 31
0.0
  0
LINE
  5
477F
330
37
100
AcDbEntity
  8
11000_LEFT
  6
Continuous
370
    25
100
AcDbLine
 10
1414.789919014027
 20
150.0617519154344
 30
0.0
 11
1414.789919014027
 21
134.3735858931344
 31
0.0
  0
LINE
  5
4780
330
37
100
AcDbEntity
  8
11000_LEFT
  6
Continuous
370
    13
100
AcDbLine
 10
1413.089916313927
 20
132.8617513313344
 30
0.0
 11
1414.789919014027
 21
132.8617513313344
 31
0.0
  0
LINE
  5
4781
330
37
100
AcDbEntity
  8
11000_LEFT
  6
Continuous
370
    25
100
AcDbLine
 10
1421.789918298827
 20
99.16174897393441
 30
0.0
 11
1421.789918298827
 21
134.3617506459344
 31
0.0
  0
LINE
  5
4782
330
37
100
AcDbEntity
  8
11000_LEFT
  6
Continuous
370
    25
100
AcDbLine
 10
1420.373827422927
 20
99.16174897393441
 30
0.0
 11
1421.789918298827
 21
99.16174897393441
 31
0.0
  0
LINE
  5
4783
102
{ACAD_REACTORS
330
4832
102
}
330
37
100
AcDbEntity
  8
11000_LEFT
  6
Continuous
370
    25
100
AcDbLine
 10
1421.789918298827
 20
134.3617506459344
 30
0.0
 11
1420.789916272227
 21
134.3617506459344
 31
0.0
  0
LINE
  5
4784
330
37
100
AcDbEntity
  8
11000_LEFT
  6
Continuous
370
    13
100
AcDbLine
 10
1420.789916272227
 20
134.3617506459344
 30
0.0
 11
1420.373827422927
 21
99.16174897393441
 31
0.0
  0
LINE
  5
4785
330
37
100
AcDbEntity
  8
11000_LEFT
  6
Continuous
370
    13
100
AcDbLine
 10
1419.654350931727
 20
102.7662225201344
 30
0.0
 11
1420.113589697069
 21
100.1617491378938
 31
0.0
  0
ARC
  5
4786
330
37
100
AcDbEntity
  8
11000_LEFT
  6
Continuous
370
    13
100
AcDbCircle
 10
1418.540335019227
 20
101.7617492690344
 30
0.0
 40
1.499999999999715
100
AcDbArc
 50
42.04000573080301
 51
90.0
  0
LINE
  5
4787
330
37
100
AcDbEntity
  8
11000_LEFT
  6
Continuous
370
    13
100
AcDbLine
 10
1418.540336395527
 20
103.2617494597344
 30
0.0
 11
1414.789919014027
 21
103.2617494597344
 31
0.0
  0
LINE
  5
4788
330
37
100
AcDbEntity
  8
11000_LEFT
  6
Continuous
370
    13
100
AcDbLine
 10
1418.540336395527
 20
130.2617482974344
 30
0.0
 11
1414.789919014027
 21
130.2617482974344
 31
0.0
  0
ARC
  5
4789
330
37
100
AcDbEntity
  8
11000_LEFT
  6
Continuous
370
    13
100
AcDbCircle
 10
1418.540335019227
 20
131.7617492690343
 30
0.0
 40
1.499999999999784
100
AcDbArc
 50
270.0
 51
345.0000000000009
  0
LINE
  5
478A
330
37
100
AcDbEntity
  8
11000_LEFT
  6
Continuous
370
    13
100
AcDbLine
 10
1420.493652670944
 20
133.2560765367395
 30
0.0
 11
1419.989224727227
 21
131.3735202088344
 31
0.0
  0
ARC
  5
478B
330
37
100
AcDbEntity
  8
11000_LEFT
  6
Continuous
370
    25
100
AcDbCircle
 10
1420.373827153227
 20
99.26174926903442
 30
0.0
 40
0.1000000000006336
100
AcDbArc
 50
190.0000000000998
 51
269.9999999994008
  0
LINE
  5
478C
330
37
100
AcDbEntity
  8
11000_LEFT
  6
Continuous
370
    13
100
AcDbLine
 10
1418.540336395527
 20
130.2617482974344
 30
0.0
 11
1414.789919014027
 21
130.2617482974344
 31
0.0
  0
LWPOLYLINE
  5
478D
330
37
100
AcDbEntity
  8
11000_LEFT
  6
Continuous
370
    13
100
AcDbPolyline
 90
        2
 70
   128
 43
0.0
 10
1418.540336395527
 20
130.2617482974344
 10
1418.540336395527
 20
130.2617482974344
  0
LINE
  5
478E
330
37
100
AcDbEntity
  8
11000_LEFT
  6
Continuous
370
    13
100
AcDbLine
 10
1414.789919014027
 20
132.7617496385343
 30
0.0
 11
1414.789919014027
 21
132.8617513313344
 31
0.0
  0
LINE
  5
478F
330
37
100
AcDbEntity
  8
11000_LEFT
  6
Continuous
370
    25
100
AcDbLine
 10
1379.409917135627
 20
134.7617499664344
 30
0.0
 11
1379.409917135627
 21
134.2617489531344
 31
0.0
  0
LINE
  5
4790
330
37
100
AcDbEntity
  8
11000_LEFT
  6
Continuous
370
    25
100
AcDbLine
 10
1379.409917135627
 20
134.2617489531344
 30
0.0
 11
1380.389917380127
 21
134.2617489531344
 31
0.0
  0
LINE
  5
4791
330
37
100
AcDbEntity
  8
11000_LEFT
  6
Continuous
370
    25
100
AcDbLine
 10
1380.389917380127
 20
134.2617489531344
 30
0.0
 11
1380.039917276227
 21
133.0117501452344
 31
0.0
  0
LINE
  5
4792
330
37
100
AcDbEntity
  8
11000_LEFT
  6
Continuous
370
    25
100
AcDbLine
 10
1380.039917276227
 20
133.0117501452344
 30
0.0
 11
1378.178195882527
 21
133.0117501452344
 31
0.0
  0
LINE
  5
4793
330
37
100
AcDbEntity
  8
11000_LEFT
  6
Continuous
370
    25
100
AcDbLine
 10
1378.178195882527
 20
133.0117501452344
 30
0.0
 11
1376.489917187627
 21
134.7000274113633
 31
0.0
  0
LINE
  5
4794
330
37
100
AcDbEntity
  8
11000_LEFT
  6
Continuous
370
    25
100
AcDbLine
 10
1404.120834748227
 20
158.3117500081343
 30
0.0
 11
1404.185133258727
 21
158.3117500081343
 31
0.0
  0
LINE
  5
4795
330
37
100
AcDbEntity
  8
11000_LEFT
  6
Continuous
370
    25
100
AcDbLine
 10
1394.294701720527
 20
158.3117500081343
 30
0.0
 11
1404.120834748227
 21
158.3117500081343
 31
0.0
  0
LINE
  5
4796
330
37
100
AcDbEntity
  8
11000_LEFT
  6
Continuous
370
    25
100
AcDbLine
 10
1394.300751592027
 20
75.21174926253441
 30
0.0
 11
1404.179081524627
 21
75.21174926253441
 31
0.0
  0
LINE
  5
4797
330
37
100
AcDbEntity
  8
11000_LEFT
  6
Continuous
370
    25
100
AcDbLine
 10
1414.789919014027
 20
134.3735858931344
 30
0.0
 11
1420.063566620427
 21
133.4437012806343
 31
0.0
  0
ARC
  5
4798
330
37
100
AcDbEntity
  8
11000_LEFT
  6
Continuous
370
    25
100
AcDbCircle
 10
1419.889917190127
 20
132.4588918221344
 30
0.0
 40
0.9999999999988467
100
AcDbArc
 50
52.8620730594007
 51
79.99999999999499
  0
LINE
  5
4799
330
37
100
AcDbEntity
  8
11000_LEFT
  6
Continuous
370
    25
100
AcDbLine
 10
1412.789918686227
 20
157.5617522135344
 30
0.0
 11
1412.789918686227
 21
151.5617475047343
 31
0.0
  0
LINE
  5
479A
330
37
100
AcDbEntity
  8
11000_LEFT
  6
Continuous
370
    25
100
AcDbLine
 10
1412.789918686227
 20
157.5617522135344
 30
0.0
 11
1412.439916486827
 21
157.5617522135344
 31
0.0
  0
LINE
  5
479B
330
37
100
AcDbEntity
  8
11000_LEFT
370
    13
100
AcDbLine
 10
1382.990026803489
 20
75.96174926902403
 30
0.0
 11
1393.789917434514
 21
75.96174926902403
 31
0.0
  0
LINE
  5
479C
330
37
100
AcDbEntity
  8
11000_LEFT
370
    25
100
AcDbLine
 10
1393.789917434514
 20
75.96174926902403
 30
0.0
 11
1393.940562586247
 21
75.96174926902403
 31
0.0
  0
LINE
  5
479D
330
37
100
AcDbEntity
  8
11000_LEFT
370
    13
100
AcDbLine
 10
1393.940562586247
 20
75.96174926902403
 30
0.0
 11
1404.539270530403
 21
75.96174926902403
 31
0.0
  0
LINE
  5
479E
330
37
100
AcDbEntity
  8
11000_LEFT
370
    25
100
AcDbLine
 10
1404.539270530403
 20
75.96174926902403
 30
0.0
 11
1413.089916313927
 21
75.96174926902403
 31
0.0
  0
LINE
  5
479F
330
37
100
AcDbEntity
  8
11000_LEFT
370
    25
100
AcDbLine
 10
1383.350105694443
 20
75.21174926250481
 30
0.0
 11
1393.429728664921
 21
75.2117492690343
 31
0.0
  0
LINE
  5
47A0
330
37
100
AcDbEntity
  8
11000_LEFT
370
    25
100
AcDbLine
 10
1393.726332317054
 20
75.4666605166649
 30
0.0
 11
1393.789917434514
 21
75.96174926902403
 31
0.0
  0
LINE
  5
47A1
330
37
100
AcDbEntity
  8
11000_LEFT
370
    25
100
AcDbLine
 10
1393.940562586247
 20
75.96174926902403
 30
0.0
 11
1394.003767140429
 21
75.46932286216303
 31
0.0
  0
LINE
  5
47A2
330
37
100
AcDbEntity
  8
11000_LEFT
370
    25
100
AcDbLine
 10
1383.053499943525
 20
75.4666605166649
 30
0.0
 11
1382.990026803489
 21
75.96174926902403
 31
0.0
  0
LINE
  5
47A3
330
37
100
AcDbEntity
  8
11000_LEFT
370
    25
100
AcDbLine
 10
1404.476067255199
 20
75.46932287686741
 30
0.0
 11
1404.539270530403
 21
75.96174926902403
 31
0.0
  0
LINE
  5
47A4
330
37
100
AcDbEntity
  8
11000_LEFT
370
    25
100
AcDbLine
 10
1414.789919014027
 20
100.1617491378938
 30
0.0
 11
1420.113589818537
 21
100.1617491378938
 31
0.0
  0
LINE
  5
47A5
330
37
100
AcDbEntity
  8
11000_LEFT
370
    25
100
AcDbLine
 10
1404.481051693618
 20
158.0610677733575
 30
0.0
 11
1404.539270530403
 21
157.5617522135344
 31
0.0
  0
LINE
  5
47A6
330
37
100
AcDbEntity
  8
11000_LEFT
370
    25
100
AcDbLine
 10
1393.998783317377
 20
158.0610691289258
 30
0.0
 11
1393.940562586247
 21
157.5617522135344
 31
0.0
  0
LINE
  5
47A7
330
37
100
AcDbEntity
  8
11000_LEFT
370
    25
100
AcDbLine
 10
1393.731348420441
 20
158.0631762876663
 30
0.0
 11
1393.789917434514
 21
157.5617522135344
 31
0.0
  0
LINE
  5
47A8
330
37
100
AcDbEntity
  8
11000_LEFT
370
    25
100
AcDbLine
 10
1393.435778300226
 20
158.3117500081216
 30
0.0
 11
1383.343009847245
 21
158.3117500081234
 31
0.0
  0
LINE
  5
47A9
330
37
100
AcDbEntity
  8
11000_LEFT
370
    25
100
AcDbLine
 10
1383.04812377872
 20
158.0609895283669
 30
0.0
 11
1382.989917154372
 21
157.5617522135344
 31
0.0
  0
LINE
  5
47AA
330
37
100
AcDbEntity
  8
10000_FRONT
370
    25
100
AcDbLine
 10
1276.632695121627
 20
158.3117500080922
 30
0.0
 11
1266.540977753227
 21
158.3117500081969
 31
0.0
  0
LINE
  5
47AB
330
37
100
AcDbEntity
  8
10000_FRONT
370
    25
100
AcDbLine
 10
1266.245311034823
 20
158.0625429883644
 30
0.0
 11
1266.186840275253
 21
157.5617522135344
 31
0.0
  0
LINE
  5
47AC
330
37
100
AcDbEntity
  8
10000_FRONT
370
    25
100
AcDbLine
 10
1276.928268281694
 20
158.0631762876663
 30
0.0
 11
1276.981747617877
 21
157.5540632143344
 31
0.0
  0
LINE
  5
47AD
330
37
100
AcDbEntity
  8
10000_FRONT
370
    25
100
AcDbLine
 10
1277.045706195707
 20
158.0610677733575
 30
0.0
 11
1276.987487358923
 21
157.5617522135344
 31
0.0
  0
LINE
  5
47AE
330
37
100
AcDbEntity
  8
10000_FRONT
370
    25
100
AcDbLine
 10
1287.527974177477
 20
158.0610691289258
 30
0.0
 11
1287.586193440433
 21
157.5617522134935
 31
0.0
  0
LINE
  5
47AF
330
37
100
AcDbEntity
  8
10000_FRONT
370
    25
100
AcDbLine
 10
1287.745706645722
 20
158.0610677733575
 30
0.0
 11
1287.687485946293
 21
157.5617522134935
 31
0.0
  0
LINE
  5
47B0
330
37
100
AcDbEntity
  8
10000_FRONT
370
    25
100
AcDbLine
 10
1298.227975053663
 20
158.0610677733575
 30
0.0
 11
1298.286193890447
 21
157.5617522135344
 31
0.0
  0
LINE
  5
47B1
330
37
100
AcDbEntity
  8
10000_FRONT
370
    25
100
AcDbLine
 10
1266.250423995729
 20
75.4666605166649
 30
0.0
 11
1266.186840275253
 21
75.9617492690344
 31
0.0
  0
LINE
  5
47B2
330
37
100
AcDbEntity
  8
10000_FRONT
370
    25
100
AcDbLine
 10
1266.547032540604
 20
75.21174926254444
 30
0.0
 11
1276.626649371427
 21
75.21174926243523
 31
0.0
  0
LINE
  5
47B3
330
37
100
AcDbEntity
  8
10000_FRONT
370
    25
100
AcDbLine
 10
1276.923255903597
 20
75.4666605166649
 30
0.0
 11
1276.987487358923
 21
75.9617492690344
 31
0.0
  0
LINE
  5
47B4
330
37
100
AcDbEntity
  8
10000_FRONT
370
    25
100
AcDbLine
 10
1277.050690634127
 20
75.46932287686741
 30
0.0
 11
1276.987487358923
 21
75.9617492690344
 31
0.0
  0
LINE
  5
47B5
330
37
100
AcDbEntity
  8
10000_FRONT
370
    25
100
AcDbLine
 10
1287.522990165229
 20
75.46932287686741
 30
0.0
 11
1287.586193440433
 21
75.96174926902403
 31
0.0
  0
LINE
  5
47B6
330
37
100
AcDbEntity
  8
10000_FRONT
370
    25
100
AcDbLine
 10
1287.78748577642
 20
75.21174926250481
 30
0.0
 11
1287.687485946293
 21
75.9617492690344
 31
0.0
  0
LINE
  5
47B7
330
37
100
AcDbEntity
  8
10000_FRONT
370
    25
100
AcDbLine
 10
1298.186195922966
 20
75.21174926250481
 30
0.0
 11
1298.286193890447
 21
75.9617492690344
 31
0.0
  0
LINE
  5
47B8
330
37
100
AcDbEntity
  8
10000_FRONT
370
    25
100
AcDbLine
 10
1287.687485946293
 20
157.5617522135344
 30
0.0
 11
1287.586193440433
 21
157.5617522134935
 31
0.0
  0
LINE
  5
47B9
330
37
100
AcDbEntity
  8
10000_FRONT
370
    13
100
AcDbLine
 10
1287.586193440433
 20
157.5617522134935
 30
0.0
 11
1285.886840803527
 21
157.5617522134935
 31
0.0
  0
LINE
  5
47BA
330
37
100
AcDbEntity
  8
10000_FRONT
370
    25
100
AcDbLine
 10
1298.286193890447
 20
157.5617522134935
 30
0.0
 11
1303.886840664232
 21
157.5617494327343
 31
0.0
  0
LINE
  5
47BB
330
37
100
AcDbEntity
  8
10000_FRONT
370
    13
100
AcDbLine
 10
1266.186840275253
 20
75.9617492690344
 30
0.0
 11
1276.987487358923
 21
75.9617492690344
 31
0.0
  0
LINE
  5
47BC
330
37
100
AcDbEntity
  8
10000_FRONT
370
    13
100
AcDbLine
 10
1276.987487358923
 20
75.9617492690344
 30
0.0
 11
1287.586193440434
 21
75.9617492690344
 31
0.0
  0
LINE
  5
47BD
330
37
100
AcDbEntity
  8
10000_FRONT
370
    25
100
AcDbLine
 10
1287.586193440434
 20
75.9617492690344
 30
0.0
 11
1287.687485946293
 21
75.9617492690344
 31
0.0
  0
LINE
  5
47BE
330
37
100
AcDbEntity
  8
10000_FRONT
370
    13
100
AcDbLine
 10
1287.687485946293
 20
75.9617492690344
 30
0.0
 11
1298.286193890447
 21
75.9617492690344
 31
0.0
  0
LINE
  5
47BF
330
37
100
AcDbEntity
  8
10000_FRONT
370
    25
100
AcDbLine
 10
1298.286193890447
 20
75.9617492690344
 30
0.0
 11
1303.186839355127
 21
75.9617492690344
 31
0.0
  0
LINE
  5
47C0
330
37
100
AcDbEntity
  8
11000_LEFT
370
    25
100
AcDbLine
 10
1420.49365300635
 20
133.2560762827254
 30
0.0
 11
1420.789916272227
 21
134.3617506459344
 31
0.0
  0
LINE
  5
47C1
330
37
100
AcDbEntity
  8
11000_LEFT
370
    13
100
AcDbLine
 10
1414.789919014027
 20
134.3735858931344
 30
0.0
 11
1414.789919014027
 21
132.8617513313344
 31
0.0
  0
LINE
  5
47C2
330
37
100
AcDbEntity
  8
11000_LEFT
370
    25
100
AcDbLine
 10
1413.089916313927
 20
151.5617475047343
 30
0.0
 11
1413.089916313927
 21
150.0617519154344
 31
0.0
  0
LINE
  5
47C3
330
37
100
AcDbEntity
  8
11000_LEFT
370
    25
100
AcDbLine
 10
1404.539270530408
 20
157.5617522134935
 30
0.0
 11
1412.439916486827
 21
157.5617522135344
 31
0.0
  0
LINE
  5
47C4
330
37
100
AcDbEntity
  8
11000_LEFT
370
    25
100
AcDbLine
 10
1393.940562586247
 20
157.5617522134935
 30
0.0
 11
1393.789917434514
 21
157.5617522134935
 31
0.0
  0
LINE
  5
47C5
330
37
100
AcDbEntity
  8
11000_LEFT
370
    13
100
AcDbLine
 10
1393.789917434514
 20
157.5617522134935
 30
0.0
 11
1382.989917154372
 21
157.5617522135344
 31
0.0
  0
LINE
  5
47C6
330
37
100
AcDbEntity
  8
11000_LEFT
370
    25
100
AcDbLine
 10
1382.989917154372
 20
157.5617522135344
 30
0.0
 11
1377.289916799839
 21
157.5617494327343
 31
0.0
  0
LINE
  5
47C7
330
37
100
AcDbEntity
  8
11000_LEFT
370
    25
100
AcDbLine
 10
1414.789919014027
 20
100.1617491378938
 30
0.0
 11
1414.789919014027
 21
78.46174921313442
 31
0.0
  0
LINE
  5
47C8
330
37
100
AcDbEntity
  8
11000_LEFT
370
    25
100
AcDbLine
 10
1420.113589818537
 20
100.1617491378938
 30
0.0
 11
1420.275346377925
 21
99.24438445126741
 31
0.0
  0
DIMENSION
  5
47D0
102
{ACAD_XDICTIONARY
360
47DD
102
}
102
{ACAD_REACTORS
330
47DE
102
}
330
37
100
AcDbEntity
  8
11100_LEFT_DIM
370
    13
100
AcDbDimension
  2
*D14
 10
1304.686838669627
 20
171.3117500081343
 30
0.0
 11
1282.286839468327
 21
174.9117500081343
 31
0.0
 70
    32
 71
     5
 42
44.79999840260005
  3
DIN_3.5$0
100
AcDbAlignedDimension
 13
1259.886840267027
 23
156.7617461219344
 33
0.0
 14
1304.686838669627
 24
156.7617461219344
 34
0.0
100
AcDbRotatedDimension
1001
ACAD_DSTYLE_DIMINSPECT
1070
   396
1000
100%
1070
   395
1000

1070
   394
1070
    33
1070
   393
1070
     0
1001
ACAD
1000
DSTYLE
1002
{
1070
    50
1040
1.570796326794896
1070
   271
1070
     2
1070
   272
1070
     0
1002
}
  0
DIMENSION
  5
47FA
330
37
100
AcDbEntity
  8
10100_FRONT_DIM
370
    13
100
AcDbDimension
  2
*D15
 10
1246.886840267027
 20
75.21174926249002
 30
0.0
 11
1243.636840267027
 21
116.6371461254274
 31
0.0
 70
    32
 71
     5
 42
82.85079372587441
  3
DIN_3.5$0
100
AcDbAlignedDimension
 13
1270.000882087886
 23
158.0625429883644
 33
0.0
 14
1271.571656138676
 24
75.21174926249
 34
0.0
 50
90.0
100
AcDbRotatedDimension
1001
ACAD_DSTYLE_DIMINSPECT
1070
   396
1000
100%
1070
   395
1000

1070
   394
1070
    33
1070
   393
1070
     0
1001
ACAD
1000
DSTYLE
1002
{
1070
    50
1040
1.570796326794896
1070
   271
1070
     0
1070
   272
1070
     0
1002
}
  0
DIMENSION
  5
4824
102
{ACAD_XDICTIONARY
360
4831
102
}
102
{ACAD_REACTORS
330
4832
102
}
330
37
100
AcDbEntity
  8
11100_LEFT_DIM
370
    13
100
AcDbDimension
  2
*D16
 10
1421.789918298827
 20
171.3117500081229
 30
0.0
 11
1399.139917743227
 21
174.9117500081229
 31
0.0
 70
    32
 71
     5
 42
45.30000111119989
  3
DIN_3.5$0
100
AcDbAlignedDimension
 13
1376.489917187627
 23
156.7617461219344
 33
0.0
 14
1421.789918298827
 24
134.3617506459344
 34
0.0
100
AcDbRotatedDimension
1001
ACAD_DSTYLE_DIMINSPECT
1070
   396
1000
100%
1070
   395
1000

1070
   394
1070
    33
1070
   393
1070
     0
1001
ACAD
1000
DSTYLE
1002
{
1070
    50
1040
1.570796326794896
1070
   271
1070
     2
1070
   272
1070
     0
1002
}
  0
VIEWPORT
  5
BB8
102
{ACAD_XDICTIONARY
360
4934
102
}
330
33
100
AcDbEntity
 67
     1
  8
0
100
AcDbViewport
 10
162.1580601414336
 20
46.14692072291194
 30
0.0
 40
32.72362048490675
 41
17.71490880439728
 68
     1
 69
     1
 12
162.1580601414336
 22
46.14692072291194
 13
0.0
 23
0.0
 14
10.0
 24
10.0
 15
10.0
 25
10.0
 16
0.0
 26
0.0
 36
1.0
 17
0.0
 27
0.0
 37
0.0
 42
50.0
 43
0.0
 44
0.0
 45
17.71490880439728
 50
0.0
 51
0.0
 72
  1000
 90
   819232
  1

281
     0
 71
     1
 74
     0
110
0.0
120
0.0
130
0.0
111
1.0
121
0.0
131
0.0
112
0.0
122
1.0
132
0.0
 79
     0
146
0.0
1001
GENIUS_GENODEF_13
1002
{
1000
HIER
1070
     0
1002
}
1002
{
1000
MANEDIT
1070
     0
1002
}
1002
{
1000
NOSEL
1070
     0
1002
}
1002
{
1000
BEHIND
1070
     0
1002
}
1002
{
1000
OTHER
1070
     0
1002
}
1002
{
1000
REACTOR
1002
}
1001
GENIUS_GENOBJ-N-SDF_13
1002
{
1000
OWNER
1000
GEN
1002
}
1001
GENIUS_GENSCREG_15
1000
PF
1040
1.0
1000
DF
1040
1.0
1000
MIN
1011
145.7962498989802
1021
37.2894663207133
1031
0.0
1000
MAX
1011
178.519870383887
1021
55.0043751251106
1031
0.0
1000
FLAGS
1070
     4
  0
VIEWPORT
  5
BBB
102
{ACAD_XDICTIONARY
360
4936
102
}
330
33
100
AcDbEntity
 67
     1
  8
0
100
AcDbViewport
 10
135.887842408874
 20
108.5470639919251
 30
0.0
 40
273.7630223349524
 41
176.3694630573212
 68
     2
 69
     2
 12
1151.572995521891
 22
746.7373056200671
 13
0.0
 23
0.0
 14
10.0
 24
10.0
 15
10.0
 25
10.0
 16
0.0
 26
0.0
 36
1.0
 17
0.0
 27
0.0
 37
0.0
 42
50.0
 43
0.0
 44
0.0
 45
1673.565958332362
 50
0.0
 51
0.0
 72
  1000
 90
   819296
  1

281
     0
 71
     1
 74
     0
110
0.0
120
0.0
130
0.0
111
1.0
121
0.0
131
0.0
112
0.0
122
1.0
132
0.0
 79
     0
146
0.0
1001
GENIUS_GENOBJ-N-SDF_13
1002
{
1000
OWNER
1000
GEN
1002
}
1001
GENIUS_GENODEF_13
1002
{
1000
HIER
1070
     0
1002
}
1002
{
1000
MANEDIT
1070
     0
1002
}
1002
{
1000
NOSEL
1070
     0
1002
}
1002
{
1000
BEHIND
1070
     0
1002
}
1002
{
1000
OTHER
1070
     0
1002
}
1002
{
1000
REACTOR
1002
}
1001
GENIUS_GENSCREG_15
1000
PF
1040
0.0
1000
DF
1040
0.0
1000
MIN
1011
-0.9936687586021546
1021
20.3623324632645
1031
0.0
1000
MAX
1011
272.7693535763502
1021
196.7317955205857
1031
0.0
1000
FLAGS
1070
     4
  0
ENDSEC
  0
SECTION
  2
OBJECTS
  0
DICTIONARY
  5
C
330
0
100
AcDbDictionary
281
     1
  3
ACAD_2007HEADERVARS_RT
350
4928
  3
ACAD_BACKGROUND
350
AA1
  3
ACAD_COLOR
350
30
  3
ACAD_GROUP
350
D
  3
ACAD_LAYOUT
350
2F
  3
ACAD_MATERIAL
350
10
  3
ACAD_MLEADERSTYLE
350
4409
  3
ACAD_MLINESTYLE
350
2C
  3
ACAD_PLOTSETTINGS
350
2E
  3
ACAD_PLOTSTYLENAME
350
E
  3
ACAD_SCALELIST
350
43F7
  3
ACAD_TABLESTYLE
350
31
  3
ACAD_VISUALSTYLE
350
14
  3
ACDB_RECOMPOSE_DATA
350
44AF
  3
AcDbVariableDictionary
350
1BD
  3
AcmDictionary
350
4518
  3
AMG
350
44C3
  3
AMGSNAPSETTINGS
350
469C
  3
ASE_INDEX_DICTIONARY
350
1D94
  3
DWGPROPS
350
4927
  0
DICTIONARY
  5
B73
330
2
100
AcDbDictionary
280
     1
281
     1
  3
ACAD_LAYERFILTERS
360
1D92
  3
ACAD_LAYERSTATES
360
BBF
  3
ACLYDICTIONARY
360
1D91
  0
DICTIONARY
  5
443F
330
25
100
AcDbDictionary
280
     1
281
     1
  3
ADSK_XREC_LAYER_RECONCILED
360
4440
  0
DICTIONARY
  5
4441
330
1791
100
AcDbDictionary
280
     1
281
     1
  3
ADSK_XREC_LAYER_RECONCILED
360
4442
  0
DICTIONARY
  5
4443
330
1792
100
AcDbDictionary
280
     1
281
     1
  3
ADSK_XREC_LAYER_RECONCILED
360
4444
  0
DICTIONARY
  5
4445
330
1793
100
AcDbDictionary
280
     1
281
     1
  3
ADSK_XREC_LAYER_RECONCILED
360
4446
  0
DICTIONARY
  5
4447
330
1794
100
AcDbDictionary
280
     1
281
     1
  3
ADSK_XREC_LAYER_RECONCILED
360
4448
  0
DICTIONARY
  5
4449
330
1795
100
AcDbDictionary
280
     1
281
     1
  3
ADSK_XREC_LAYER_RECONCILED
360
444A
  0
DICTIONARY
  5
444B
330
1796
100
AcDbDictionary
280
     1
281
     1
  3
ADSK_XREC_LAYER_RECONCILED
360
444C
  0
DICTIONARY
  5
444D
330
1797
100
AcDbDictionary
280
     1
281
     1
  3
ADSK_XREC_LAYER_RECONCILED
360
444E
  0
DICTIONARY
  5
444F
330
1798
100
AcDbDictionary
280
     1
281
     1
  3
ADSK_XREC_LAYER_RECONCILED
360
4450
  0
DICTIONARY
  5
4451
330
1799
100
AcDbDictionary
280
     1
281
     1
  3
ADSK_XREC_LAYER_RECONCILED
360
4452
  0
DICTIONARY
  5
4453
330
179A
100
AcDbDictionary
280
     1
281
     1
  3
ADSK_XREC_LAYER_RECONCILED
360
4454
  0
DICTIONARY
  5
4455
330
179B
100
AcDbDictionary
280
     1
281
     1
  3
ADSK_XREC_LAYER_RECONCILED
360
4456
  0
DICTIONARY
  5
4457
330
179C
100
AcDbDictionary
280
     1
281
     1
  3
ADSK_XREC_LAYER_RECONCILED
360
4458
  0
DICTIONARY
  5
4459
330
179D
100
AcDbDictionary
280
     1
281
     1
  3
ADSK_XREC_LAYER_RECONCILED
360
445A
  0
DICTIONARY
  5
445B
330
179E
100
AcDbDictionary
280
     1
281
     1
  3
ADSK_XREC_LAYER_RECONCILED
360
445C
  0
DICTIONARY
  5
445D
330
179F
100
AcDbDictionary
280
     1
281
     1
  3
ADSK_XREC_LAYER_RECONCILED
360
445E
  0
DICTIONARY
  5
445F
330
17A0
100
AcDbDictionary
280
     1
281
     1
  3
ADSK_XREC_LAYER_RECONCILED
360
4460
  0
DICTIONARY
  5
4461
330
17A1
100
AcDbDictionary
280
     1
281
     1
  3
ADSK_XREC_LAYER_RECONCILED
360
4462
  0
DICTIONARY
  5
4463
330
17A2
100
AcDbDictionary
280
     1
281
     1
  3
ADSK_XREC_LAYER_RECONCILED
360
4464
  0
DICTIONARY
  5
4465
330
17A3
100
AcDbDictionary
280
     1
281
     1
  3
ADSK_XREC_LAYER_RECONCILED
360
4466
  0
DICTIONARY
  5
4467
330
17A4
100
AcDbDictionary
280
     1
281
     1
  3
ADSK_XREC_LAYER_RECONCILED
360
4468
  0
DICTIONARY
  5
4469
330
17A5
100
AcDbDictionary
280
     1
281
     1
  3
ADSK_XREC_LAYER_RECONCILED
360
446A
  0
DICTIONARY
  5
446B
330
17A6
100
AcDbDictionary
280
     1
281
     1
  3
ADSK_XREC_LAYER_RECONCILED
360
446C
  0
DICTIONARY
  5
446D
330
17A7
100
AcDbDictionary
280
     1
281
     1
  3
ADSK_XREC_LAYER_RECONCILED
360
446E
  0
DICTIONARY
  5
446F
330
17A8
100
AcDbDictionary
280
     1
281
     1
  3
ADSK_XREC_LAYER_RECONCILED
360
4470
  0
DICTIONARY
  5
4471
330
17A9
100
AcDbDictionary
280
     1
281
     1
  3
ADSK_XREC_LAYER_RECONCILED
360
4472
  0
DICTIONARY
  5
4473
330
17AA
100
AcDbDictionary
280
     1
281
     1
  3
ADSK_XREC_LAYER_RECONCILED
360
4474
  0
DICTIONARY
  5
4475
330
17AB
100
AcDbDictionary
280
     1
281
     1
  3
ADSK_XREC_LAYER_RECONCILED
360
4476
  0
DICTIONARY
  5
4477
330
17AC
100
AcDbDictionary
280
     1
281
     1
  3
ADSK_XREC_LAYER_RECONCILED
360
4478
  0
DICTIONARY
  5
4479
330
17AD
100
AcDbDictionary
280
     1
281
     1
  3
ADSK_XREC_LAYER_RECONCILED
360
447A
  0
DICTIONARY
  5
447B
330
17AE
100
AcDbDictionary
280
     1
281
     1
  3
ADSK_XREC_LAYER_RECONCILED
360
447C
  0
DICTIONARY
  5
447D
330
17AF
100
AcDbDictionary
280
     1
281
     1
  3
ADSK_XREC_LAYER_RECONCILED
360
447E
  0
DICTIONARY
  5
447F
330
17B0
100
AcDbDictionary
280
     1
281
     1
  3
ADSK_XREC_LAYER_RECONCILED
360
4480
  0
DICTIONARY
  5
4481
330
17B1
100
AcDbDictionary
280
     1
281
     1
  3
ADSK_XREC_LAYER_RECONCILED
360
4482
  0
DICTIONARY
  5
4483
330
17B2
100
AcDbDictionary
280
     1
281
     1
  3
ADSK_XREC_LAYER_RECONCILED
360
4484
  0
DICTIONARY
  5
4485
330
17B3
100
AcDbDictionary
280
     1
281
     1
  3
ADSK_XREC_LAYER_RECONCILED
360
4486
  0
DICTIONARY
  5
4487
330
17B4
100
AcDbDictionary
280
     1
281
     1
  3
ADSK_XREC_LAYER_RECONCILED
360
4488
  0
DICTIONARY
  5
4489
330
17B5
100
AcDbDictionary
280
     1
281
     1
  3
ADSK_XREC_LAYER_RECONCILED
360
448A
  0
DICTIONARY
  5
448B
330
17B6
100
AcDbDictionary
280
     1
281
     1
  3
ADSK_XREC_LAYER_RECONCILED
360
448C
  0
DICTIONARY
  5
448D
330
17B7
100
AcDbDictionary
280
     1
281
     1
  3
ADSK_XREC_LAYER_RECONCILED
360
448E
  0
DICTIONARY
  5
448F
330
17B8
100
AcDbDictionary
280
     1
281
     1
  3
ADSK_XREC_LAYER_RECONCILED
360
4490
  0
DICTIONARY
  5
4491
330
17B9
100
AcDbDictionary
280
     1
281
     1
  3
ADSK_XREC_LAYER_RECONCILED
360
4492
  0
DICTIONARY
  5
4493
330
17BA
100
AcDbDictionary
280
     1
281
     1
  3
ADSK_XREC_LAYER_RECONCILED
360
4494
  0
DICTIONARY
  5
4495
330
17BB
100
AcDbDictionary
280
     1
281
     1
  3
ADSK_XREC_LAYER_RECONCILED
360
4496
  0
DICTIONARY
  5
4497
330
17BC
100
AcDbDictionary
280
     1
281
     1
  3
ADSK_XREC_LAYER_RECONCILED
360
4498
  0
DICTIONARY
  5
4499
330
17BD
100
AcDbDictionary
280
     1
281
     1
  3
ADSK_XREC_LAYER_RECONCILED
360
449A
  0
DICTIONARY
  5
449B
330
17BE
100
AcDbDictionary
280
     1
281
     1
  3
ADSK_XREC_LAYER_RECONCILED
360
449C
  0
DICTIONARY
  5
449D
330
17BF
100
AcDbDictionary
280
     1
281
     1
  3
ADSK_XREC_LAYER_RECONCILED
360
449E
  0
DICTIONARY
  5
449F
330
17C0
100
AcDbDictionary
280
     1
281
     1
  3
ADSK_XREC_LAYER_RECONCILED
360
44A0
  0
DICTIONARY
  5
44A1
330
17C1
100
AcDbDictionary
280
     1
281
     1
  3
ADSK_XREC_LAYER_RECONCILED
360
44A2
  0
DICTIONARY
  5
44A3
330
17C2
100
AcDbDictionary
280
     1
281
     1
  3
ADSK_XREC_LAYER_RECONCILED
360
44A4
  0
DICTIONARY
  5
44A5
330
17C3
100
AcDbDictionary
280
     1
281
     1
  3
ADSK_XREC_LAYER_RECONCILED
360
44A6
  0
DICTIONARY
  5
44A7
330
17C4
100
AcDbDictionary
280
     1
281
     1
  3
ADSK_XREC_LAYER_RECONCILED
360
44A8
  0
DICTIONARY
  5
44A9
330
17C5
100
AcDbDictionary
280
     1
281
     1
  3
ADSK_XREC_LAYER_RECONCILED
360
44AA
  0
DICTIONARY
  5
44AB
330
17C6
100
AcDbDictionary
280
     1
281
     1
  3
ADSK_XREC_LAYER_RECONCILED
360
44AC
  0
DICTIONARY
  5
4CA
330
37
100
AcDbDictionary
280
     1
281
     1
  3
ACAD_SORTENTS
360
4CB
  0
DICTIONARY
  5
1759
330
1758
100
AcDbDictionary
280
     1
281
     1
  0
DICTIONARY
  5
1D18
330
1765
100
AcDbDictionary
280
     1
281
     1
  3
ACAD_ENHANCEDBLOCK
360
1D19
  3
AcDbDynamicBlockRoundTripPurgePreventer
360
1D23
  0
DICTIONARY
  5
177C
330
177B
100
AcDbDictionary
280
     1
281
     1
  0
DICTIONARY
  5
17F0
330
17CE
100
AcDbDictionary
280
     1
281
     1
  3
ACAD_SORTENTS
360
17F1
  0
DICTIONARY
  5
1D43
330
1D24
100
AcDbDictionary
280
     1
281
     1
  0
DICTIONARY
  5
1B24
330
1720
100
AcDbDictionary
280
     1
281
     1
  3
AcDbBlockRepresentation
360
1B25
  0
DICTIONARY
  5
1B2A
330
172C
100
AcDbDictionary
280
     1
281
     1
  3
AcDbBlockRepresentation
360
1B2B
  0
DICTIONARY
  5
1B30
330
1738
100
AcDbDictionary
280
     1
281
     1
  3
AcDbBlockRepresentation
360
1B31
  0
DICTIONARY
  5
1B5A
330
1942
100
AcDbDictionary
280
     1
281
     1
  3
AcDbBlockRepresentation
360
1B5B
  0
DICTIONARY
  5
1B36
330
1750
100
AcDbDictionary
280
     1
281
     1
  3
AcDbBlockRepresentation
360
1B37
  0
DICTIONARY
  5
1B6C
330
195D
100
AcDbDictionary
280
     1
281
     1
  3
AcDbBlockRepresentation
360
1B6D
  0
DICTIONARY
  5
47DD
330
47D0
100
AcDbDictionary
280
     1
281
     1
  3
ACAD_DIMASSOC
360
47DE
  0
DICTIONARY
  5
4831
330
4824
100
AcDbDictionary
280
     1
281
     1
  3
ACAD_DIMASSOC
360
4832
  0
DICTIONARY
  5
4934
330
BB8
100
AcDbDictionary
280
     1
281
     1
  3
ACAD_XREC_ROUNDTRIP
360
4935
  0
DICTIONARY
  5
4936
330
BBB
100
AcDbDictionary
280
     1
281
     1
  3
ACAD_XREC_ROUNDTRIP
360
4937
  0
DICTIONARY
  5
4928
102
{ACAD_REACTORS
330
C
102
}
330
C
100
AcDbDictionary
281
     1
  3
DIMARCSYM
350
4929
  3
DIMJOGANG
350
492A
  3
DIMLTEX1
350
492C
  3
DIMLTEX2
350
492D
  3
DIMLTYPE
350
492B
  0
DICTIONARY
  5
AA1
102
{ACAD_REACTORS
330
C
102
}
330
C
100
AcDbDictionary
281
     1
  0
DICTIONARY
  5
30
102
{ACAD_REACTORS
330
C
102
}
330
C
100
AcDbDictionary
281
     1
  0
DICTIONARY
  5
D
102
{ACAD_REACTORS
330
C
102
}
330
C
100
AcDbDictionary
281
     1
  0
DICTIONARY
  5
2F
102
{ACAD_REACTORS
330
C
102
}
330
C
100
AcDbDictionary
281
     1
  3
Layout1
350
36
  3
Layout2
350
3E
  3
Model
350
3A
  0
DICTIONARY
  5
10
102
{ACAD_REACTORS
330
C
102
}
330
C
100
AcDbDictionary
281
     1
  3
ByBlock
350
12
  3
ByLayer
350
11
  3
Global
350
13
  0
DICTIONARY
  5
4409
102
{ACAD_REACTORS
330
C
102
}
330
C
100
AcDbDictionary
281
     1
  3
Standard
350
440A
  0
DICTIONARY
  5
2C
102
{ACAD_REACTORS
330
C
102
}
330
C
100
AcDbDictionary
281
     1
  3
Standard
350
2D
  0
DICTIONARY
  5
2E
102
{ACAD_REACTORS
330
C
102
}
330
C
100
AcDbDictionary
281
     1
  0
ACDBDICTIONARYWDFLT
  5
E
102
{ACAD_REACTORS
330
C
102
}
330
C
100
AcDbDictionary
281
     1
  3
Normal
350
F
100
AcDbDictionaryWithDefault
340
F
  0
DICTIONARY
  5
43F7
102
{ACAD_REACTORS
330
C
102
}
330
C
100
AcDbDictionary
281
     1
  3
A0
350
43F8
  3
A1
350
43F9
  3
A2
350
43FA
  3
A3
350
43FB
  3
A4
350
43FC
  3
A5
350
43FD
  3
A6
350
43FE
  3
A7
350
43FF
  3
A8
350
4400
  3
A9
350
4401
  3
B0
350
4402
  3
B1
350
4403
  3
B2
350
4404
  3
B3
350
4405
  3
B4
350
4406
  3
B5
350
4407
  3
B6
350
4408
  0
DICTIONARY
  5
31
102
{ACAD_REACTORS
330
C
102
}
330
C
100
AcDbDictionary
281
     1
  3
Standard
350
32
  0
DICTIONARY
  5
14
102
{ACAD_REACTORS
330
C
102
}
330
C
100
AcDbDictionary
281
     1
  3
2dWireframe
350
1A
  3
3D Hidden
350
1C
  3
3dWireframe
350
1B
  3
Basic
350
19
  3
Brighten
350
20
  3
ColorChange
350
24
  3
Conceptual
350
1D
  3
Dim
350
1F
  3
Facepattern
350
23
  3
Flat
350
15
  3
FlatWithEdges
350
16
  3
Gouraud
350
17
  3
GouraudWithEdges
350
18
  3
Linepattern
350
22
  3
Realistic
350
1E
  3
Thicken
350
21
  0
XRECORD
  5
44AF
102
{ACAD_REACTORS
330
C
102
}
330
C
100
AcDbXrecord
280
     1
 90
        1
330
32
  0
DICTIONARY
  5
1BD
102
{ACAD_REACTORS
330
C
102
}
330
C
100
AcDbDictionary
281
     1
  3
CANNOSCALE
350
44B2
  3
CMLEADERSTYLE
350
44B0
  3
CTABLESTYLE
350
1BE
  3
DIMASSOC
350
1DA4
  3
HIDETEXT
350
1DA3
  3
INDEXCTL
350
1DA2
  3
LAYEREVAL
350
44B4
  3
LAYERNOTIFY
350
44B5
  3
LIGHTINGUNITS
350
44B3
  3
MSLTSCALE
350
44B1
  3
SORTENTS
350
1DA1
  0
DICTIONARY
  5
4518
102
{ACAD_REACTORS
330
C
102
}
330
C
100
AcDbDictionary
281
     1
  3
AcmStdDictionary
350
4521
  0
DICTIONARY
  5
44C3
102
{ACAD_REACTORS
330
C
102
}
330
C
100
AcDbDictionary
281
     1
  0
DICTIONARY
  5
469C
102
{ACAD_REACTORS
330
C
102
}
330
C
100
AcDbDictionary
281
     1
  0
DICTIONARY
  5
1D94
102
{ACAD_REACTORS
330
C
102
}
330
C
100
AcDbDictionary
281
     1
  3
ASEBlockHierarchyIndexRecord
350
1D95
1001
DCO15
1040
1618547951.5
  0
XRECORD
  5
4927
102
{ACAD_REACTORS
330
C
102
}
330
C
100
AcDbXrecord
280
     1
  1
DWGPROPS COOKIE
  2

  3

  4

  6

  7

  8
adscjo58
  9

300
=
301
=
302
=
303
=
304
=
305
=
306
=
307
=
308
=
309
=
 40
0.1583586111111111
 41
2454508.700060162
 42
2454865.71056162
  1

 90
        0
  0
DICTIONARY
  5
1D92
102
{ACAD_REACTORS
330
B73
102
}
330
B73
100
AcDbDictionary
281
     1
  0
DICTIONARY
  5
BBF
102
{ACAD_REACTORS
330
B73
102
}
330
B73
100
AcDbDictionary
281
     1
  0
DICTIONARY
  5
1D91
102
{ACAD_REACTORS
330
B73
102
}
330
B73
100
AcDbDictionary
281
     1
1001
ACAD
1000
<All
  0
XRECORD
  5
4440
102
{ACAD_REACTORS
330
443F
102
}
330
443F
100
AcDbXrecord
280
     1
290
     1
  0
XRECORD
  5
4442
102
{ACAD_REACTORS
330
4441
102
}
330
4441
100
AcDbXrecord
280
     1
290
     1
  0
XRECORD
  5
4444
102
{ACAD_REACTORS
330
4443
102
}
330
4443
100
AcDbXrecord
280
     1
290
     1
  0
XRECORD
  5
4446
102
{ACAD_REACTORS
330
4445
102
}
330
4445
100
AcDbXrecord
280
     1
290
     1
  0
XRECORD
  5
4448
102
{ACAD_REACTORS
330
4447
102
}
330
4447
100
AcDbXrecord
280
     1
290
     1
  0
XRECORD
  5
444A
102
{ACAD_REACTORS
330
4449
102
}
330
4449
100
AcDbXrecord
280
     1
290
     1
  0
XRECORD
  5
444C
102
{ACAD_REACTORS
330
444B
102
}
330
444B
100
AcDbXrecord
280
     1
290
     1
  0
XRECORD
  5
444E
102
{ACAD_REACTORS
330
444D
102
}
330
444D
100
AcDbXrecord
280
     1
290
     1
  0
XRECORD
  5
4450
102
{ACAD_REACTORS
330
444F
102
}
330
444F
100
AcDbXrecord
280
     1
290
     1
  0
XRECORD
  5
4452
102
{ACAD_REACTORS
330
4451
102
}
330
4451
100
AcDbXrecord
280
     1
290
     1
  0
XRECORD
  5
4454
102
{ACAD_REACTORS
330
4453
102
}
330
4453
100
AcDbXrecord
280
     1
290
     1
  0
XRECORD
  5
4456
102
{ACAD_REACTORS
330
4455
102
}
330
4455
100
AcDbXrecord
280
     1
290
     1
  0
XRECORD
  5
4458
102
{ACAD_REACTORS
330
4457
102
}
330
4457
100
AcDbXrecord
280
     1
290
     1
  0
XRECORD
  5
445A
102
{ACAD_REACTORS
330
4459
102
}
330
4459
100
AcDbXrecord
280
     1
290
     1
  0
XRECORD
  5
445C
102
{ACAD_REACTORS
330
445B
102
}
330
445B
100
AcDbXrecord
280
     1
290
     1
  0
XRECORD
  5
445E
102
{ACAD_REACTORS
330
445D
102
}
330
445D
100
AcDbXrecord
280
     1
290
     1
  0
XRECORD
  5
4460
102
{ACAD_REACTORS
330
445F
102
}
330
445F
100
AcDbXrecord
280
     1
290
     1
  0
XRECORD
  5
4462
102
{ACAD_REACTORS
330
4461
102
}
330
4461
100
AcDbXrecord
280
     1
290
     1
  0
XRECORD
  5
4464
102
{ACAD_REACTORS
330
4463
102
}
330
4463
100
AcDbXrecord
280
     1
290
     1
  0
XRECORD
  5
4466
102
{ACAD_REACTORS
330
4465
102
}
330
4465
100
AcDbXrecord
280
     1
290
     1
  0
XRECORD
  5
4468
102
{ACAD_REACTORS
330
4467
102
}
330
4467
100
AcDbXrecord
280
     1
290
     1
  0
XRECORD
  5
446A
102
{ACAD_REACTORS
330
4469
102
}
330
4469
100
AcDbXrecord
280
     1
290
     1
  0
XRECORD
  5
446C
102
{ACAD_REACTORS
330
446B
102
}
330
446B
100
AcDbXrecord
280
     1
290
     1
  0
XRECORD
  5
446E
102
{ACAD_REACTORS
330
446D
102
}
330
446D
100
AcDbXrecord
280
     1
290
     1
  0
XRECORD
  5
4470
102
{ACAD_REACTORS
330
446F
102
}
330
446F
100
AcDbXrecord
280
     1
290
     1
  0
XRECORD
  5
4472
102
{ACAD_REACTORS
330
4471
102
}
330
4471
100
AcDbXrecord
280
     1
290
     1
  0
XRECORD
  5
4474
102
{ACAD_REACTORS
330
4473
102
}
330
4473
100
AcDbXrecord
280
     1
290
     1
  0
XRECORD
  5
4476
102
{ACAD_REACTORS
330
4475
102
}
330
4475
100
AcDbXrecord
280
     1
290
     1
  0
XRECORD
  5
4478
102
{ACAD_REACTORS
330
4477
102
}
330
4477
100
AcDbXrecord
280
     1
290
     1
  0
XRECORD
  5
447A
102
{ACAD_REACTORS
330
4479
102
}
330
4479
100
AcDbXrecord
280
     1
290
     1
  0
XRECORD
  5
447C
102
{ACAD_REACTORS
330
447B
102
}
330
447B
100
AcDbXrecord
280
     1
290
     1
  0
XRECORD
  5
447E
102
{ACAD_REACTORS
330
447D
102
}
330
447D
100
AcDbXrecord
280
     1
290
     1
  0
XRECORD
  5
4480
102
{ACAD_REACTORS
330
447F
102
}
330
447F
100
AcDbXrecord
280
     1
290
     1
  0
XRECORD
  5
4482
102
{ACAD_REACTORS
330
4481
102
}
330
4481
100
AcDbXrecord
280
     1
290
     1
  0
XRECORD
  5
4484
102
{ACAD_REACTORS
330
4483
102
}
330
4483
100
AcDbXrecord
280
     1
290
     1
  0
XRECORD
  5
4486
102
{ACAD_REACTORS
330
4485
102
}
330
4485
100
AcDbXrecord
280
     1
290
     1
  0
XRECORD
  5
4488
102
{ACAD_REACTORS
330
4487
102
}
330
4487
100
AcDbXrecord
280
     1
290
     1
  0
XRECORD
  5
448A
102
{ACAD_REACTORS
330
4489
102
}
330
4489
100
AcDbXrecord
280
     1
290
     1
  0
XRECORD
  5
448C
102
{ACAD_REACTORS
330
448B
102
}
330
448B
100
AcDbXrecord
280
     1
290
     1
  0
XRECORD
  5
448E
102
{ACAD_REACTORS
330
448D
102
}
330
448D
100
AcDbXrecord
280
     1
290
     1
  0
XRECORD
  5
4490
102
{ACAD_REACTORS
330
448F
102
}
330
448F
100
AcDbXrecord
280
     1
290
     1
  0
XRECORD
  5
4492
102
{ACAD_REACTORS
330
4491
102
}
330
4491
100
AcDbXrecord
280
     1
290
     1
  0
XRECORD
  5
4494
102
{ACAD_REACTORS
330
4493
102
}
330
4493
100
AcDbXrecord
280
     1
290
     1
  0
XRECORD
  5
4496
102
{ACAD_REACTORS
330
4495
102
}
330
4495
100
AcDbXrecord
280
     1
290
     1
  0
XRECORD
  5
4498
102
{ACAD_REACTORS
330
4497
102
}
330
4497
100
AcDbXrecord
280
     1
290
     1
  0
XRECORD
  5
449A
102
{ACAD_REACTORS
330
4499
102
}
330
4499
100
AcDbXrecord
280
     1
290
     1
  0
XRECORD
  5
449C
102
{ACAD_REACTORS
330
449B
102
}
330
449B
100
AcDbXrecord
280
     1
290
     1
  0
XRECORD
  5
449E
102
{ACAD_REACTORS
330
449D
102
}
330
449D
100
AcDbXrecord
280
     1
290
     1
  0
XRECORD
  5
44A0
102
{ACAD_REACTORS
330
449F
102
}
330
449F
100
AcDbXrecord
280
     1
290
     1
  0
XRECORD
  5
44A2
102
{ACAD_REACTORS
330
44A1
102
}
330
44A1
100
AcDbXrecord
280
     1
290
     1
  0
XRECORD
  5
44A4
102
{ACAD_REACTORS
330
44A3
102
}
330
44A3
100
AcDbXrecord
280
     1
290
     1
  0
XRECORD
  5
44A6
102
{ACAD_REACTORS
330
44A5
102
}
330
44A5
100
AcDbXrecord
280
     1
290
     1
  0
XRECORD
  5
44A8
102
{ACAD_REACTORS
330
44A7
102
}
330
44A7
100
AcDbXrecord
280
     1
290
     1
  0
XRECORD
  5
44AA
102
{ACAD_REACTORS
330
44A9
102
}
330
44A9
100
AcDbXrecord
280
     1
290
     1
  0
XRECORD
  5
44AC
102
{ACAD_REACTORS
330
44AB
102
}
330
44AB
100
AcDbXrecord
280
     1
290
     1
  0
SORTENTSTABLE
  5
4CB
102
{ACAD_REACTORS
330
4CA
102
}
330
4CA
100
AcDbSortentsTable
330
37
331
17FD
  5
17FD
331
195D
  5
195D
331
195B
  5
195B
331
1804
  5
1804
331
1807
  5
1807
331
195C
  5
195C
  0
ACAD_EVALUATION_GRAPH
  5
1D19
102
{ACAD_REACTORS
330
1D18
102
}
330
1D18
100
AcDbEvalGraph
 96
        2
 97
        2
 91
        0
 93
       32
 95
        2
360
1D1A
 92
       -1
 92
       -1
 92
       -1
 92
       -1
  0
ACDB_DYNAMICBLOCKPURGEPREVENTER_VERSION
  5
1D23
102
{ACAD_REACTORS
330
1D18
102
}
330
1D18
100
AcDbDynamicBlockPurgePreventer
 70
     1
  0
SORTENTSTABLE
  5
17F1
102
{ACAD_REACTORS
330
17F0
102
}
330
17F0
100
AcDbSortentsTable
330
17CE
  0
DICTIONARY
  5
1B25
102
{ACAD_REACTORS
330
1B24
102
}
330
1B24
100
AcDbDictionary
280
     1
281
     1
  3
AcDbRepData
360
1B26
  3
AppDataCache
360
1B27
  0
DICTIONARY
  5
1B2B
102
{ACAD_REACTORS
330
1B2A
102
}
330
1B2A
100
AcDbDictionary
280
     1
281
     1
  3
AcDbRepData
360
1B2C
  3
AppDataCache
360
1D46
  0
DICTIONARY
  5
1B31
102
{ACAD_REACTORS
330
1B30
102
}
330
1B30
100
AcDbDictionary
280
     1
281
     1
  3
AcDbRepData
360
1B32
  3
AppDataCache
360
1D49
  0
DICTIONARY
  5
1B5B
102
{ACAD_REACTORS
330
1B5A
102
}
330
1B5A
100
AcDbDictionary
280
     1
281
     1
  3
AcDbRepData
360
1B5C
  3
AppDataCache
360
1D5E
  0
DICTIONARY
  5
1B37
102
{ACAD_REACTORS
330
1B36
102
}
330
1B36
100
AcDbDictionary
280
     1
281
     1
  3
AcDbRepData
360
1B38
  3
AppDataCache
360
1D4C
  0
DICTIONARY
  5
1B6D
102
{ACAD_REACTORS
330
1B6C
102
}
330
1B6C
100
AcDbDictionary
280
     1
281
     1
  3
AcDbRepData
360
1B6E
  3
AppDataCache
360
1D67
  0
DIMASSOC
  5
47DE
102
{ACAD_REACTORS
330
47DD
102
}
330
47DD
100
AcDbDimAssoc
330
47D0
 90
        3
 70
     0
 71
     0
  1
AcDbOsnapPointRef
 72
     1
331
4723
 73
     0
 91
        0
 40
0.0
 10
0.0
 20
0.0
 30
2.000000000000000E+50
 75
     0
  1
AcDbOsnapPointRef
 72
    13
331
471F
 73
     0
 91
        0
 40
0.0
 10
0.0
 20
0.0
 30
2.000000000000000E+50
 75
     0
  0
DIMASSOC
  5
4832
102
{ACAD_REACTORS
330
4831
102
}
330
4831
100
AcDbDimAssoc
330
4824
 90
        3
 70
     0
 71
     0
  1
AcDbOsnapPointRef
 72
     1
331
4771
 73
     0
 91
        0
 40
0.0
 10
0.0
 20
0.0
 30
2.000000000000000E+50
 75
     0
  1
AcDbOsnapPointRef
 72
    13
331
4783
 73
     0
 91
        0
 40
0.0
 10
0.0
 20
0.0
 30
2.000000000000000E+50
 75
     0
  0
XRECORD
  5
4935
102
{ACAD_REACTORS
330
4934
102
}
330
4934
100
AcDbXrecord
280
     1
102
SHADEPLOT
 70
     0
  0
XRECORD
  5
4937
102
{ACAD_REACTORS
330
4936
102
}
330
4936
100
AcDbXrecord
280
     1
102
SHADEPLOT
 70
     0
  0
XRECORD
  5
4929
102
{ACAD_REACTORS
330
4928
102
}
330
4928
100
AcDbXrecord
280
     1
 70
     1
  0
XRECORD
  5
492A
102
{ACAD_REACTORS
330
4928
102
}
330
4928
100
AcDbXrecord
280
     1
 40
1.570796326794896
  0
XRECORD
  5
492C
102
{ACAD_REACTORS
330
4928
102
}
330
4928
100
AcDbXrecord
280
     1
340
29
  0
XRECORD
  5
492D
102
{ACAD_REACTORS
330
4928
102
}
330
4928
100
AcDbXrecord
280
     1
340
29
  0
XRECORD
  5
492B
102
{ACAD_REACTORS
330
4928
102
}
330
4928
100
AcDbXrecord
280
     1
340
29
  0
LAYOUT
  5
36
102
{ACAD_XDICTIONARY
360
BC1
102
}
102
{ACAD_REACTORS
330
2F
102
}
330
2F
100
AcDbPlotSettings
  1

  2
Microsoft Office Document Image Writer
  4
A4
  6

 40
3.174999952316281
 41
3.174999952316281
 42
3.175003051757812
 43
3.17498779296875
 44
209.9733276367186
 45
297.0106506347656
 46
0.0
 47
0.0
 48
0.0
 49
0.0
140
0.0
141
0.0
142
1.0
143
1.0
 70
   688
 72
     1
 73
     1
 74
     5
  7

 75
    16
147
1.0
148
0.0
149
0.0
100
AcDbLayout
  1
Layout1
 70
     1
 71
     1
 10
-3.17498779296875
 20
-3.174999952316281
 11
293.8356628417969
 21
206.7983276844024
 12
0.0
 22
0.0
 32
0.0
 14
-0.9936687586021831
 24
20.36233246326448
 34
0.0
 15
272.7693535763502
 25
196.7317955205857
 35
0.0
146
0.0
 13
0.0
 23
0.0
 33
0.0
 16
1.0
 26
0.0
 36
0.0
 17
0.0
 27
1.0
 37
0.0
 76
     0
330
33
331
BB8
1001
ACAD_PSEXT
1000
Microsoft Office Document Image Writer
1000
Microsoft Office Document Image Writer Driver
1000
Microsoft Document Imaging Writer Port:
1000

1070
     0
  0
LAYOUT
  5
3E
102
{ACAD_XDICTIONARY
360
4932
102
}
102
{ACAD_REACTORS
330
2F
102
}
330
2F
100
AcDbPlotSettings
  1

  2
Microsoft Office Document Image Writer
  4

  6

 40
0.0
 41
0.0
 42
0.0
 43
0.0
 44
0.0
 45
0.0
 46
0.0
 47
0.0
 48
0.0
 49
0.0
140
0.0
141
0.0
142
1.0
143
1.0
 70
   688
 72
     0
 73
     0
 74
     5
  7

 75
    16
147
1.0
148
0.0
149
0.0
100
AcDbLayout
  1
Layout2
 70
     1
 71
     2
 10
0.0
 20
0.0
 11
12.0
 21
9.0
 12
0.0
 22
0.0
 32
0.0
 14
0.0
 24
0.0
 34
0.0
 15
0.0
 25
0.0
 35
0.0
146
0.0
 13
0.0
 23
0.0
 33
0.0
 16
1.0
 26
0.0
 36
0.0
 17
0.0
 27
1.0
 37
0.0
 76
     0
330
3B
  0
LAYOUT
  5
3A
102
{ACAD_XDICTIONARY
360
4930
102
}
102
{ACAD_REACTORS
330
2F
102
}
330
2F
100
AcDbPlotSettings
  1

  2
Microsoft Office Document Image Writer
  4

  6

 40
0.0
 41
0.0
 42
0.0
 43
0.0
 44
0.0
 45
0.0
 46
0.0
 47
0.0
 48
0.0
 49
0.0
140
0.0
141
0.0
142
1.0
143
1.0
 70
  1712
 72
     0
 73
     0
 74
     0
  7

 75
     0
147
1.0
148
0.0
149
0.0
100
AcDbLayout
  1
Model
 70
     1
 71
     0
 10
0.0
 20
0.0
 11
12.0
 21
9.0
 12
0.0
 22
0.0
 32
0.0
 14
0.0
 24
0.0
 34
0.0
 15
0.0
 25
0.0
 35
0.0
146
0.0
 13
0.0
 23
0.0
 33
0.0
 16
1.0
 26
0.0
 36
0.0
 17
0.0
 27
1.0
 37
0.0
 76
     0
330
37
331
28
  0
MATERIAL
  5
12
102
{ACAD_XDICTIONARY
360
1DA8
102
}
102
{ACAD_REACTORS
330
10
102
}
330
10
100
AcDbMaterial
  1
ByBlock
  0
MATERIAL
  5
11
102
{ACAD_XDICTIONARY
360
1DA6
102
}
102
{ACAD_REACTORS
330
10
102
}
330
10
100
AcDbMaterial
  1
ByLayer
  0
MATERIAL
  5
13
102
{ACAD_XDICTIONARY
360
1DAA
102
}
102
{ACAD_REACTORS
330
10
102
}
330
10
100
AcDbMaterial
  1
Global
  0
MLEADERSTYLE
  5
440A
102
{ACAD_REACTORS
330
4409
102
}
330
4409
100
AcDbMLeaderStyle
170
     2
171
     1
172
     0
 90
        2
 40
0.0
 41
0.0
173
     1
 91
-1056964608
340
29
 92
       -2
290
     1
 42
2.0
291
     1
 43
0.36
  3
Standard
 44
4.0
300

342
26
174
     1
178
     6
175
     1
176
     0
 93
-1056964608
 45
4.0
292
     0
297
     0
 46
4.0
 94
-1056964608
 47
1.0
 49
1.0
140
1.0
293
     1
141
0.0
294
     1
177
     0
142
1.0
295
     0
296
     0
143
0.125
1001
ACAD_MLEADERVER
1070
     2
1001
ACAD
1000
AcRTDxfName
1000
MLEADERSTYLE
  0
MLINESTYLE
  5
2D
102
{ACAD_REACTORS
330
2C
102
}
330
2C
100
AcDbMlineStyle
  2
STANDARD
 70
     0
  3

 62
   256
 51
90.0
 52
90.0
 71
     2
 49
0.5
 62
   256
  6
BYLAYER
 49
-0.5
 62
   256
  6
BYLAYER
  0
ACDBPLACEHOLDER
  5
F
102
{ACAD_REACTORS
330
E
102
}
330
E
  0
SCALE
  5
43F8
102
{ACAD_REACTORS
330
43F7
102
}
330
43F7
100
AcDbScale
 70
     0
300
1:1
140
1.0
141
1.0
290
     1
1001
ACAD
1000
AcRTDxfName
1000
SCALE
  0
SCALE
  5
43F9
102
{ACAD_REACTORS
330
43F7
102
}
330
43F7
100
AcDbScale
 70
     0
300
1:2
140
1.0
141
2.0
290
     0
1001
ACAD
1000
AcRTDxfName
1000
SCALE
  0
SCALE
  5
43FA
102
{ACAD_REACTORS
330
43F7
102
}
330
43F7
100
AcDbScale
 70
     0
300
1:4
140
1.0
141
4.0
290
     0
1001
ACAD
1000
AcRTDxfName
1000
SCALE
  0
SCALE
  5
43FB
102
{ACAD_REACTORS
330
43F7
102
}
330
43F7
100
AcDbScale
 70
     0
300
1:5
140
1.0
141
5.0
290
     0
1001
ACAD
1000
AcRTDxfName
1000
SCALE
  0
SCALE
  5
43FC
102
{ACAD_REACTORS
330
43F7
102
}
330
43F7
100
AcDbScale
 70
     0
300
1:8
140
1.0
141
8.0
290
     0
1001
ACAD
1000
AcRTDxfName
1000
SCALE
  0
SCALE
  5
43FD
102
{ACAD_REACTORS
330
43F7
102
}
330
43F7
100
AcDbScale
 70
     0
300
1:10
140
1.0
141
10.0
290
     0
1001
ACAD
1000
AcRTDxfName
1000
SCALE
  0
SCALE
  5
43FE
102
{ACAD_REACTORS
330
43F7
102
}
330
43F7
100
AcDbScale
 70
     0
300
1:16
140
1.0
141
16.0
290
     0
1001
ACAD
1000
AcRTDxfName
1000
SCALE
  0
SCALE
  5
43FF
102
{ACAD_REACTORS
330
43F7
102
}
330
43F7
100
AcDbScale
 70
     0
300
1:20
140
1.0
141
20.0
290
     0
1001
ACAD
1000
AcRTDxfName
1000
SCALE
  0
SCALE
  5
4400
102
{ACAD_REACTORS
330
43F7
102
}
330
43F7
100
AcDbScale
 70
     0
300
1:30
140
1.0
141
30.0
290
     0
1001
ACAD
1000
AcRTDxfName
1000
SCALE
  0
SCALE
  5
4401
102
{ACAD_REACTORS
330
43F7
102
}
330
43F7
100
AcDbScale
 70
     0
300
1:40
140
1.0
141
40.0
290
     0
1001
ACAD
1000
AcRTDxfName
1000
SCALE
  0
SCALE
  5
4402
102
{ACAD_REACTORS
330
43F7
102
}
330
43F7
100
AcDbScale
 70
     0
300
1:50
140
1.0
141
50.0
290
     0
1001
ACAD
1000
AcRTDxfName
1000
SCALE
  0
SCALE
  5
4403
102
{ACAD_REACTORS
330
43F7
102
}
330
43F7
100
AcDbScale
 70
     0
300
1:100
140
1.0
141
100.0
290
     0
1001
ACAD
1000
AcRTDxfName
1000
SCALE
  0
SCALE
  5
4404
102
{ACAD_REACTORS
330
43F7
102
}
330
43F7
100
AcDbScale
 70
     0
300
2:1
140
2.0
141
1.0
290
     0
1001
ACAD
1000
AcRTDxfName
1000
SCALE
  0
SCALE
  5
4405
102
{ACAD_REACTORS
330
43F7
102
}
330
43F7
100
AcDbScale
 70
     0
300
4:1
140
4.0
141
1.0
290
     0
1001
ACAD
1000
AcRTDxfName
1000
SCALE
  0
SCALE
  5
4406
102
{ACAD_REACTORS
330
43F7
102
}
330
43F7
100
AcDbScale
 70
     0
300
8:1
140
8.0
141
1.0
290
     0
1001
ACAD
1000
AcRTDxfName
1000
SCALE
  0
SCALE
  5
4407
102
{ACAD_REACTORS
330
43F7
102
}
330
43F7
100
AcDbScale
 70
     0
300
10:1
140
10.0
141
1.0
290
     0
1001
ACAD
1000
AcRTDxfName
1000
SCALE
  0
SCALE
  5
4408
102
{ACAD_REACTORS
330
43F7
102
}
330
43F7
100
AcDbScale
 70
     0
300
100:1
140
100.0
141
1.0
290
     0
1001
ACAD
1000
AcRTDxfName
1000
SCALE
  0
TABLESTYLE
  5
32
102
{ACAD_XDICTIONARY
360
44AD
102
}
102
{ACAD_REACTORS
330
31
102
}
330
31
100
AcDbTableStyle
  3
Standard
 70
     0
 71
     0
 40
1.5
 41
1.5
280
     0
281
     0
  7
Standard
140
4.5
170
     2
 62
     0
 63
     7
283
     0
274
    -2
284
     1
 64
     0
275
    -2
285
     1
 65
     0
276
    -2
286
     1
 66
     0
277
    -2
287
     1
 67
     0
278
    -2
288
     1
 68
     0
279
    -2
289
     1
 69
     0
  7
Standard
140
6.0
170
     5
 62
     0
 63
     7
283
     0
274
    -2
284
     1
 64
     0
275
    -2
285
     1
 65
     0
276
    -2
286
     1
 66
     0
277
    -2
287
     1
 67
     0
278
    -2
288
     1
 68
     0
279
    -2
289
     1
 69
     0
  7
Standard
140
4.5
170
     5
 62
     0
 63
     7
283
     0
274
    -2
284
     1
 64
     0
275
    -2
285
     1
 65
     0
276
    -2
286
     1
 66
     0
277
    -2
287
     1
 67
     0
278
    -2
288
     1
 68
     0
279
    -2
289
     1
 69
     0
  0
VISUALSTYLE
  5
1A
102
{ACAD_REACTORS
330
14
102
}
330
14
100
AcDbVisualStyle
  2
2dWireframe
 70
     4
 71
     0
 72
     2
 73
     0
 90
        0
 40
-0.6
 41
-30.0
 62
     5
 63
     7
 74
     1
 91
        4
 64
     7
 65
   257
 75
     1
175
     1
 42
1.0
 92
        0
 66
   257
 43
1.0
 76
     1
 77
     6
 78
     2
 67
     7
 79
     5
170
     0
171
     0
290
     0
174
     0
 93
        1
 44
0.0
173
     0
291
     0
 45
0.0
1001
ACAD
1000
AcDbSavedByObjectVersion
1070
     0
1000
AcDbSavedByObjectVersion
1070
     0
1000
AcDbSavedByObjectVersion
1070
     0
  0
VISUALSTYLE
  5
1C
102
{ACAD_REACTORS
330
14
102
}
330
14
100
AcDbVisualStyle
  2
3D Hidden
 70
     6
 71
     1
 72
     2
 73
     2
 90
        0
 40
-0.6
 41
-30.0
 62
     5
 63
     7
 74
     2
 91
        2
 64
     7
 65
   257
 75
     2
175
     1
 42
40.0
 92
        0
 66
   257
 43
1.0
 76
     1
 77
     6
 78
     2
 67
     7
 79
     3
170
     0
171
     0
290
     0
174
     0
 93
        1
 44
0.0
173
     0
291
     0
 45
0.0
1001
ACAD
1000
AcDbSavedByObjectVersion
1070
     0
1000
AcDbSavedByObjectVersion
1070
     0
1000
AcDbSavedByObjectVersion
1070
     0
  0
VISUALSTYLE
  5
1B
102
{ACAD_REACTORS
330
14
102
}
330
14
100
AcDbVisualStyle
  2
3dWireframe
 70
     5
 71
     0
 72
     2
 73
     0
 90
        0
 40
-0.6
 41
-30.0
 62
     5
 63
     7
 74
     1
 91
        4
 64
     7
 65
   257
 75
     1
175
     1
 42
1.0
 92
        0
 66
   257
 43
1.0
 76
     1
 77
     6
 78
     2
 67
     7
 79
     5
170
     0
171
     0
290
     0
174
     0
 93
        1
 44
0.0
173
     0
291
     0
 45
0.0
1001
ACAD
1000
AcDbSavedByObjectVersion
1070
     0
1000
AcDbSavedByObjectVersion
1070
     0
1000
AcDbSavedByObjectVersion
1070
     0
  0
VISUALSTYLE
  5
19
102
{ACAD_REACTORS
330
14
102
}
330
14
100
AcDbVisualStyle
  2
Basic
 70
     7
 71
     1
 72
     0
 73
     1
 90
        0
 40
-0.6
 41
-30.0
 62
     5
 63
     7
 74
     0
 91
        4
 64
     7
 65
   257
 75
     1
175
     1
 42
1.0
 92
        8
 66
     7
 43
1.0
 76
     1
 77
     6
 78
     2
 67
     7
 79
     5
170
     0
171
     0
290
     0
174
     0
 93
        1
 44
0.0
173
     0
291
     1
 45
0.0
1001
ACAD
1000
AcDbSavedByObjectVersion
1070
     0
1000
AcDbSavedByObjectVersion
1070
     0
1000
AcDbSavedByObjectVersion
1070
     0
  0
VISUALSTYLE
  5
20
102
{ACAD_REACTORS
330
14
102
}
330
14
100
AcDbVisualStyle
  2
Brighten
 70
    12
 71
     2
 72
     2
 73
     0
 90
        0
 40
-0.6
 41
-30.0
 62
     5
 63
     7
 74
     1
 91
        4
 64
     7
 65
   257
 75
     1
175
     1
 42
1.0
 92
        8
 66
     7
 43
1.0
 76
     1
 77
     6
 78
     2
 67
     7
 79
     5
170
     0
171
     0
290
     0
174
     0
 93
        1
 44
50.0
173
     0
291
     1
 45
0.0
1001
ACAD
1000
AcDbSavedByObjectVersion
1070
     0
1000
AcDbSavedByObjectVersion
1070
     0
1000
AcDbSavedByObjectVersion
1070
     0
  0
VISUALSTYLE
  5
24
102
{ACAD_REACTORS
330
14
102
}
330
14
100
AcDbVisualStyle
  2
ColorChange
 70
    16
 71
     2
 72
     2
 73
     3
 90
        0
 40
-0.6
 41
-30.0
 62
     5
 63
     8
 74
     1
 91
        4
 64
     7
 65
   257
 75
     1
175
     1
 42
1.0
 92
        8
 66
     8
 43
1.0
 76
     1
 77
     6
 78
     2
 67
     7
 79
     5
170
     0
171
     0
290
     0
174
     0
 93
        1
 44
0.0
173
     0
291
     1
 45
0.0
1001
ACAD
1000
AcDbSavedByObjectVersion
1070
     0
1000
AcDbSavedByObjectVersion
1070
     0
1000
AcDbSavedByObjectVersion
1070
     0
  0
VISUALSTYLE
  5
1D
102
{ACAD_REACTORS
330
14
102
}
330
14
100
AcDbVisualStyle
  2
Conceptual
 70
     9
 71
     3
 72
     2
 73
     0
 90
        0
 40
-0.6
 41
-30.0
 62
     5
 63
     7
 74
     2
 91
        2
 64
     7
 65
   257
 75
     1
175
     1
 42
40.0
 92
        8
 66
     7
 43
1.0
 76
     1
 77
     6
 78
     2
 67
     7
 79
     3
170
     0
171
     0
290
     0
174
     0
 93
        1
 44
0.0
173
     0
291
     0
 45
0.0
1001
ACAD
1000
AcDbSavedByObjectVersion
1070
     0
1000
AcDbSavedByObjectVersion
1070
     0
1000
AcDbSavedByObjectVersion
1070
     0
  0
VISUALSTYLE
  5
1F
102
{ACAD_REACTORS
330
14
102
}
330
14
100
AcDbVisualStyle
  2
Dim
 70
    11
 71
     2
 72
     2
 73
     0
 90
        0
 40
-0.6
 41
-30.0
 62
     5
 63
     7
 74
     1
 91
        4
 64
     7
 65
   257
 75
     1
175
     1
 42
1.0
 92
        8
 66
     7
 43
1.0
 76
     1
 77
     6
 78
     2
 67
     7
 79
     5
170
     0
171
     0
290
     0
174
     0
 93
        1
 44
-50.0
173
     0
291
     1
 45
0.0
1001
ACAD
1000
AcDbSavedByObjectVersion
1070
     0
1000
AcDbSavedByObjectVersion
1070
     0
1000
AcDbSavedByObjectVersion
1070
     0
  0
VISUALSTYLE
  5
23
102
{ACAD_REACTORS
330
14
102
}
330
14
100
AcDbVisualStyle
  2
Facepattern
 70
    15
 71
     2
 72
     2
 73
     0
 90
        0
 40
-0.6
 41
-30.0
 62
     5
 63
     7
 74
     1
 91
        4
 64
     7
 65
   257
 75
     1
175
     1
 42
1.0
 92
        8
 66
     7
 43
1.0
 76
     1
 77
     6
 78
     2
 67
     7
 79
     5
170
     0
171
     0
290
     0
174
     0
 93
        1
 44
0.0
173
     0
291
     1
 45
0.0
1001
ACAD
1000
AcDbSavedByObjectVersion
1070
     0
1000
AcDbSavedByObjectVersion
1070
     0
1000
AcDbSavedByObjectVersion
1070
     0
  0
VISUALSTYLE
  5
15
102
{ACAD_REACTORS
330
14
102
}
330
14
100
AcDbVisualStyle
  2
Flat
 70
     0
 71
     2
 72
     1
 73
     1
 90
        2
 40
-0.6
 41
30.0
 62
     5
 63
     7
 74
     0
 91
        4
 64
     7
 65
   257
 75
     1
175
     1
 42
1.0
 92
        8
 66
     7
 43
1.0
 76
     1
 77
     6
 78
     2
 67
     7
 79
     5
170
     0
171
     0
290
     0
174
     0
 93
       13
 44
0.0
173
     0
291
     1
 45
0.0
1001
ACAD
1000
AcDbSavedByObjectVersion
1070
     0
1000
AcDbSavedByObjectVersion
1070
     0
1000
AcDbSavedByObjectVersion
1070
     0
  0
VISUALSTYLE
  5
16
102
{ACAD_REACTORS
330
14
102
}
330
14
100
AcDbVisualStyle
  2
FlatWithEdges
 70
     1
 71
     2
 72
     1
 73
     1
 90
        2
 40
-0.6
 41
30.0
 62
     5
 63
     7
 74
     1
 91
        4
 64
     7
 65
   257
 75
     1
175
     1
 42
1.0
 92
        0
 66
   257
 43
1.0
 76
     1
 77
     6
 78
     2
 67
     7
 79
     5
170
     0
171
     0
290
     0
174
     0
 93
       13
 44
0.0
173
     0
291
     1
 45
0.0
1001
ACAD
1000
AcDbSavedByObjectVersion
1070
     0
1000
AcDbSavedByObjectVersion
1070
     0
1000
AcDbSavedByObjectVersion
1070
     0
  0
VISUALSTYLE
  5
17
102
{ACAD_REACTORS
330
14
102
}
330
14
100
AcDbVisualStyle
  2
Gouraud
 70
     2
 71
     2
 72
     2
 73
     1
 90
        2
 40
-0.6
 41
30.0
 62
     5
 63
     7
 74
     0
 91
        4
 64
     7
 65
   257
 75
     1
175
     1
 42
1.0
 92
        0
 66
     7
 43
1.0
 76
     1
 77
     6
 78
     2
 67
     7
 79
     5
170
     0
171
     0
290
     0
174
     0
 93
       13
 44
0.0
173
     0
291
     1
 45
0.0
1001
ACAD
1000
AcDbSavedByObjectVersion
1070
     0
1000
AcDbSavedByObjectVersion
1070
     0
1000
AcDbSavedByObjectVersion
1070
     0
  0
VISUALSTYLE
  5
18
102
{ACAD_REACTORS
330
14
102
}
330
14
100
AcDbVisualStyle
  2
GouraudWithEdges
 70
     3
 71
     2
 72
     2
 73
     1
 90
        2
 40
-0.6
 41
30.0
 62
     5
 63
     7
 74
     1
 91
        4
 64
     7
 65
   257
 75
     1
175
     1
 42
1.0
 92
        0
 66
   257
 43
1.0
 76
     1
 77
     6
 78
     2
 67
     7
 79
     5
170
     0
171
     0
290
     0
174
     0
 93
       13
 44
0.0
173
     0
291
     1
 45
0.0
1001
ACAD
1000
AcDbSavedByObjectVersion
1070
     0
1000
AcDbSavedByObjectVersion
1070
     0
1000
AcDbSavedByObjectVersion
1070
     0
  0
VISUALSTYLE
  5
22
102
{ACAD_REACTORS
330
14
102
}
330
14
100
AcDbVisualStyle
  2
Linepattern
 70
    14
 71
     2
 72
     2
 73
     0
 90
        0
 40
-0.6
 41
-30.0
 62
     5
 63
     7
 74
     1
 91
        4
 64
     7
 65
   257
 75
     7
175
     7
 42
1.0
 92
        8
 66
     7
 43
1.0
 76
     1
 77
     6
 78
     2
 67
     7
 79
     5
170
     0
171
     0
290
     0
174
     0
 93
        1
 44
0.0
173
     0
291
     1
 45
0.0
1001
ACAD
1000
AcDbSavedByObjectVersion
1070
     0
1000
AcDbSavedByObjectVersion
1070
     0
1000
AcDbSavedByObjectVersion
1070
     0
  0
VISUALSTYLE
  5
1E
102
{ACAD_REACTORS
330
14
102
}
330
14
100
AcDbVisualStyle
  2
Realistic
 70
     8
 71
     2
 72
     2
 73
     0
 90
        0
 40
-0.6
 41
-30.0
 62
     5
 63
     7
 74
     1
 91
        0
 64
     7
 65
   257
 75
     1
175
     1
 42
1.0
 92
        8
 66
     8
 43
1.0
 76
     1
 77
     6
 78
     2
 67
     7
 79
     5
170
     0
171
     0
290
     0
174
     0
 93
       13
 44
0.0
173
     0
291
     0
 45
0.0
1001
ACAD
1000
AcDbSavedByObjectVersion
1070
     0
1000
AcDbSavedByObjectVersion
1070
     0
1000
AcDbSavedByObjectVersion
1070
     0
  0
VISUALSTYLE
  5
21
102
{ACAD_REACTORS
330
14
102
}
330
14
100
AcDbVisualStyle
  2
Thicken
 70
    13
 71
     2
 72
     2
 73
     0
 90
        0
 40
-0.6
 41
-30.0
 62
     5
 63
     7
 74
     1
 91
        4
 64
     7
 65
   257
 75
     1
175
     1
 42
1.0
 92
       12
 66
     7
 43
1.0
 76
     1
 77
     6
 78
     2
 67
     7
 79
     5
170
     0
171
     0
290
     0
174
     0
 93
        1
 44
0.0
173
     0
291
     1
 45
0.0
1001
ACAD
1000
AcDbSavedByObjectVersion
1070
     0
1000
AcDbSavedByObjectVersion
1070
     0
1000
AcDbSavedByObjectVersion
1070
     0
  0
DICTIONARYVAR
  5
44B2
102
{ACAD_REACTORS
330
1BD
102
}
330
1BD
100
DictionaryVariables
280
     0
  1
1:1
  0
DICTIONARYVAR
  5
44B0
102
{ACAD_REACTORS
330
1BD
102
}
330
1BD
100
DictionaryVariables
280
     0
  1
STANDARD
  0
DICTIONARYVAR
  5
1BE
102
{ACAD_REACTORS
330
1BD
102
}
330
1BD
100
DictionaryVariables
280
     0
  1
STANDARD
  0
DICTIONARYVAR
  5
1DA4
102
{ACAD_REACTORS
330
1BD
102
}
330
1BD
100
DictionaryVariables
280
     0
  1
2
  0
DICTIONARYVAR
  5
1DA3
102
{ACAD_REACTORS
330
1BD
102
}
330
1BD
100
DictionaryVariables
280
     0
  1
1
  0
DICTIONARYVAR
  5
1DA2
102
{ACAD_REACTORS
330
1BD
102
}
330
1BD
100
DictionaryVariables
280
     0
  1
0
  0
DICTIONARYVAR
  5
44B4
102
{ACAD_REACTORS
330
1BD
102
}
330
1BD
100
DictionaryVariables
280
     0
  1
1
  0
DICTIONARYVAR
  5
44B5
102
{ACAD_REACTORS
330
1BD
102
}
330
1BD
100
DictionaryVariables
280
     0
  1
15
  0
DICTIONARYVAR
  5
44B3
102
{ACAD_REACTORS
330
1BD
102
}
330
1BD
100
DictionaryVariables
280
     0
  1
0
  0
DICTIONARYVAR
  5
44B1
102
{ACAD_REACTORS
330
1BD
102
}
330
1BD
100
DictionaryVariables
280
     0
  1
0
  0
DICTIONARYVAR
  5
1DA1
102
{ACAD_REACTORS
330
1BD
102
}
330
1BD
100
DictionaryVariables
280
     0
  1
127
  0
DICTIONARY
  5
4521
102
{ACAD_REACTORS
330
4518
102
}
330
4518
100
AcDbDictionary
281
     1
  0
XRECORD
  5
1D95
102
{ACAD_REACTORS
330
1D94
102
}
330
1D94
100
AcDbXrecord
280
     1
330
18CD
330
18CF
330
18D7
330
18D8
330
18DF
330
18E1
330
18E8
330
18EA
330
190D
330
194B
330
1954
330
195D
330
1965
330
1966
330
196D
330
196F
330
1977
330
197E
330
1980
330
1859
330
171E
330
1720
330
172B
330
172C
330
1736
330
1738
330
1942
330
174E
330
1750
330
1D07
330
17E4
330
17E5
330
17E6
330
17E7
330
17E8
330
17E9
330
17EA
330
17EB
330
17EC
330
17ED
330
17EE
330
17EF
330
1D32
  0
BLOCKBASEPOINTPARAMETER
  5
1D1A
330
1D19
100
AcDbEvalExpr
 90
        2
 98
       27
 99
        2
100
AcDbBlockElement
300
Basispunkt
 98
       25
 99
      104
1071
        0
100
AcDbBlockParameter
280
     1
281
     0
100
AcDbBlock1PtParameter
1010
0.0
1020
0.0
1030
0.0
 93
        0
170
     0
171
     0
100
AcDbBlockBasepointParameter
1011
0.0
1021
0.0
1031
0.0
1012
0.0
1022
0.0
1032
0.0
  0
ACDB_BLOCKREPRESENTATION_DATA
  5
1B26
102
{ACAD_REACTORS
330
1B25
102
}
330
1B25
100
AcDbBlockRepresentationData
 70
     1
340
1765
  0
DICTIONARY
  5
1B27
102
{ACAD_REACTORS
330
1B25
102
}
330
1B25
100
AcDbDictionary
280
     1
281
     1
  3
ACAD_ENHANCEDBLOCKDATA
360
1D44
  0
ACDB_BLOCKREPRESENTATION_DATA
  5
1B2C
102
{ACAD_REACTORS
330
1B2B
102
}
330
1B2B
100
AcDbBlockRepresentationData
 70
     1
340
1765
  0
DICTIONARY
  5
1D46
102
{ACAD_REACTORS
330
1B2B
102
}
330
1B2B
100
AcDbDictionary
280
     1
281
     1
  3
ACAD_ENHANCEDBLOCKDATA
360
1D47
  0
ACDB_BLOCKREPRESENTATION_DATA
  5
1B32
102
{ACAD_REACTORS
330
1B31
102
}
330
1B31
100
AcDbBlockRepresentationData
 70
     1
340
1765
  0
DICTIONARY
  5
1D49
102
{ACAD_REACTORS
330
1B31
102
}
330
1B31
100
AcDbDictionary
280
     1
281
     1
  3
ACAD_ENHANCEDBLOCKDATA
360
1D4A
  0
ACDB_BLOCKREPRESENTATION_DATA
  5
1B5C
102
{ACAD_REACTORS
330
1B5B
102
}
330
1B5B
100
AcDbBlockRepresentationData
 70
     1
340
1765
  0
DICTIONARY
  5
1D5E
102
{ACAD_REACTORS
330
1B5B
102
}
330
1B5B
100
AcDbDictionary
280
     1
281
     1
  3
ACAD_ENHANCEDBLOCKDATA
360
1D5F
  0
ACDB_BLOCKREPRESENTATION_DATA
  5
1B38
102
{ACAD_REACTORS
330
1B37
102
}
330
1B37
100
AcDbBlockRepresentationData
 70
     1
340
1765
  0
DICTIONARY
  5
1D4C
102
{ACAD_REACTORS
330
1B37
102
}
330
1B37
100
AcDbDictionary
280
     1
281
     1
  3
ACAD_ENHANCEDBLOCKDATA
360
1D4D
  0
ACDB_BLOCKREPRESENTATION_DATA
  5
1B6E
102
{ACAD_REACTORS
330
1B6D
102
}
330
1B6D
100
AcDbBlockRepresentationData
 70
     1
340
1765
  0
DICTIONARY
  5
1D67
102
{ACAD_REACTORS
330
1B6D
102
}
330
1B6D
100
AcDbDictionary
280
     1
281
     1
  3
ACAD_ENHANCEDBLOCKDATA
360
1D68
  0
DICTIONARY
  5
BC1
330
36
100
AcDbDictionary
280
     1
281
     1
  3
ACAD_XREC_ROUNDTRIP
360
492F
  3
ADSK_XREC_LAYOUTTHUMBNAIL
360
BC2
  0
DICTIONARY
  5
4932
330
3E
100
AcDbDictionary
280
     1
281
     1
  3
ACAD_XREC_ROUNDTRIP
360
4933
  0
DICTIONARY
  5
4930
330
3A
100
AcDbDictionary
280
     1
281
     1
  3
ACAD_XREC_ROUNDTRIP
360
4931
  0
DICTIONARY
  5
1DA8
330
12
100
AcDbDictionary
280
     1
281
     1
  3
ACAD_XREC_ROUNDTRIP
360
1DA9
  0
DICTIONARY
  5
1DA6
330
11
100
AcDbDictionary
280
     1
281
     1
  3
ACAD_XREC_ROUNDTRIP
360
1DA7
  0
DICTIONARY
  5
1DAA
330
13
100
AcDbDictionary
280
     1
281
     1
  3
ACAD_XREC_ROUNDTRIP
360
1DAB
  0
DICTIONARY
  5
44AD
330
32
100
AcDbDictionary
280
     1
281
     1
  3
ACAD_ROUNDTRIP_2008_TABLESTYLE_CELLSTYLEMAP
360
4908
  3
ACAD_XREC_ROUNDTRIP
360
492E
  0
DICTIONARY
  5
1D44
102
{ACAD_REACTORS
330
1B27
102
}
330
1B27
100
AcDbDictionary
280
     1
281
     1
  3
2
360
1D45
  0
DICTIONARY
  5
1D47
102
{ACAD_REACTORS
330
1D46
102
}
330
1D46
100
AcDbDictionary
280
     1
281
     1
  3
2
360
1D48
  0
DICTIONARY
  5
1D4A
102
{ACAD_REACTORS
330
1D49
102
}
330
1D49
100
AcDbDictionary
280
     1
281
     1
  3
2
360
1D4B
  0
DICTIONARY
  5
1D5F
102
{ACAD_REACTORS
330
1D5E
102
}
330
1D5E
100
AcDbDictionary
280
     1
281
     1
  3
2
360
1D60
  0
DICTIONARY
  5
1D4D
102
{ACAD_REACTORS
330
1D4C
102
}
330
1D4C
100
AcDbDictionary
280
     1
281
     1
  3
2
360
1D4E
  0
DICTIONARY
  5
1D68
102
{ACAD_REACTORS
330
1D67
102
}
330
1D67
100
AcDbDictionary
280
     1
281
     1
  3
2
360
1D69
  0
XRECORD
  5
492F
102
{ACAD_REACTORS
330
BC1
102
}
330
BC1
100
AcDbXrecord
280
     1
102
SHADEPLOT
 70
     0
102
SHADEPLOTRESLEVEL
 70
     2
102
SHADEPLOTCUSTOMDPI
 70
   300
  0
XRECORD
  5
BC2
102
{ACAD_REACTORS
330
BC1
102
}
330
BC1
100
AcDbXrecord
280
     1
310
28000000B40000007F00000001000800000000004C59000000000000000000000001000000000000FFFFFF0000000000FFFFFF000000000000000000000000000000000000000000000000000000000000000000330000006600000099000000CC000000FF00000000330000333300006633000099330000CC330000FF3300
310
0000660000336600006666000099660000CC660000FF66000000990000339900006699000099990000CC990000FF99000000CC000033CC000066CC000099CC0000CCCC0000FFCC000000FF000033FF000066FF000099FF0000CCFF0000FFFF000000003300330033006600330099003300CC003300FF003300003333003333
310
33006633330099333300CC333300FF33330000663300336633006666330099663300CC663300FF66330000993300339933006699330099993300CC993300FF99330000CC330033CC330066CC330099CC3300CCCC3300FFCC330000FF330033FF330066FF330099FF3300CCFF3300FFFF330000006600330066006600660099
310
006600CC006600FF00660000336600333366006633660099336600CC336600FF33660000666600336666006666660099666600CC666600FF66660000996600339966006699660099996600CC996600FF99660000CC660033CC660066CC660099CC6600CCCC6600FFCC660000FF660033FF660066FF660099FF6600CCFF6600
310
FFFF660000009900330099006600990099009900CC009900FF00990000339900333399006633990099339900CC339900FF33990000669900336699006666990099669900CC669900FF66990000999900339999006699990099999900CC999900FF99990000CC990033CC990066CC990099CC9900CCCC9900FFCC990000FF99
310
0033FF990066FF990099FF9900CCFF9900FFFF99000000CC003300CC006600CC009900CC00CC00CC00FF00CC000033CC003333CC006633CC009933CC00CC33CC00FF33CC000066CC003366CC006666CC009966CC00CC66CC00FF66CC000099CC003399CC006699CC009999CC00CC99CC00FF99CC0000CCCC0033CCCC0066CC
310
CC0099CCCC00CCCCCC00FFCCCC0000FFCC0033FFCC0066FFCC0099FFCC00CCFFCC00FFFFCC000000FF003300FF006600FF009900FF00CC00FF00FF00FF000033FF003333FF006633FF009933FF00CC33FF00FF33FF000066FF003366FF006666FF009966FF00CC66FF00FF66FF000099FF003399FF006699FF009999FF00CC
310
99FF00FF99FF0000CCFF0033CCFF0066CCFF0099CCFF00CCCCFF00FFCCFF0000FFFF0033FFFF0066FFFF0099FFFF00CCFFFF00FFFFFF00000000000D0D0D001A1A1A00282828003535350043434300505050005D5D5D006B6B6B00787878008686860093939300A1A1A100AEAEAE00BBBBBB00C9C9C900D6D6D600E4E4E400
310
F1F1F100FFFFFF0000000000000000000000000000000000000000000000000000000000000000000000000000000000E2E2E2E2E2E2E2E2E2E2E2E2E2E2E2E2E2E2E2E2E2E2E2E2E2E2E2E2E2E2E2E2E2E2E2E2E2E2E2E2E2E2E2E2E2E2E2E2E2E2E2E2E2E2E2E2E2E2E2E2E2E2E2E2E2E2E2E2E2E2E2E2E2E2E2E2E2E2E2
310
E2E2E2E2E2E2E2E2E2E2E2E2E2E2E2E2E2E2E2E2E2E2E2E2E2E2E2E2E2E2E2E2E2E2E2E2E2E2E2E2E2E2E2E2E2E2E2E2E2E2E2E2E2E2E2E2E2E2E2E2E2E2E2E2E2E2E2E2E2E2E2E2E2E2E2E2E2E2E2E2E2E2E2E2E2E2E2E2E2E2E2E2E2E2E2E2E2E2E2E2E2E2F5F5F5F5F5F5F5F5F5F5F5F5F5F5F5F5F5F5F5F5F5F5F5F5F5
310
F5F5F5F5F5F5F5F5F5F5F5F5F5F5F5F5F5F5F5F5F5F5F5F5F5F5F5F5F5F5F5F5F5F5F5F5F5F5F5F5F5F5F5F5F5F5F5F5F5F5F5F5F5F5F5F5F5F5F5F5F5F5F5F5F5F5F5F5F5F5F5F5F5F5F5F5F5F5F5F5F5F5F5F5F5F5F5F5F5F5F5F5F5F5F5F5F5F5F5F5F5F5F5F5F5F5F5F5F5F5F5F5F5F5F5F5F5F5F5F5F5F5F5F5F5F5F5
310
F5F5F5F5F5F5F5F5F5F5F5F5F5F5F5F5F5F5F5F5F5F5F5F5F5E2E2E2F5E2E2E2E2E2E2E2E2F5F5F5F5F5F5F5F5F5E2E2E2E2E2E2E2E2E2E2E2E2E2E2E2E2F5F5F5F5F5F5F5F5F5E2E2E2E2E2E2E2E2E2E2E2E2E2E2E2E2F5F5F5F5F5F5F5F5F5E2E2E2E2E2E2E2E2E2E2E2E2E2E2E2E2F5F5F5F5F5F5F5F5F5E2E2E2E2E2E2
310
E2E2E2E2E2E2E2E2E2E2F5F5F5F5F5F5F5F5F5E2E2E2E2E2E2E2E2E2E2E2E2E2E2E2E2F5F5F5F5F5F5F5F5F5E2E2E2E2E2E2E2E2E2E2E2E2E2E2E2E2F5F5F5F5F5F5F5F5F5E2E2E2E2E2E2E2E2F5E2E2E2F5E2F5F5F5F5F5F5F5F5F5F5F5F5F5F5F5F5F5F5F5F5F5F5F5F5F5F5F5F5F5F5F5F5F5F5F5F5F5F5F5F5F5F5F5F5
310
F5F5F5F5F5F5F5F5F5F5F5F5F5F5F5F5F5F5F5F5F5F5F5F5F5F5F5F5F5F5F5F5F5F5F5F5F5F5F5F5F5F5F5F5F5F5F5F5F5F5F5F5F5F5F5F5F5F5F5F5F5F5F5F5F5F5F5F5F5F5F5F5F5F5F5F5F5F5F5F5F5F5F5F5F5F5F5F5F5F5F5F5F5F5F5F5F5F5F5F5F5F5F5F5F5F5F5F5F5F5F5F5F5F5F5F5F5F5F5F5F5F5F5F5F5F5F5
310
F5F5E2F5E2E2E2F5E2F5F5F5F5F5F5F5F5F5F5F5F5F5F5F5F5F5F5F5F5F5F5F5F5F5F5F5F5F5F5F5F5F5F5F5F5F5F5F5F5F5F5F5F5F5F5F5F5F5F5F5F5F5F5F5F5F5F5F5F5F5F5F5F5F5F5F5F5F5F5F5F5F5F5F5F5F5F5F5F5F5F5F5F5F5F5F5F5F5F5F5F5F5F5F5F5F5F5F5F5F5F5F5F5F5F5F5F5F5F5F5F5F5F5F5F5F5F5
310
F5F5F5F5F5F5F5F5F5F5F5F5F5F5F5F5F5F5F5F5F5F5F5F5F5F5F5F5F5F5F5F5F5F5F5F5F5F5F5F5F5F5F5F5F5F5F5F5F5F5F5F5F5F5F5E2F5E2E2E2F5E2F5F5F5F5F5F5F5F5F5F5F5F5F5F5F5F5F5F5F5F5F5F5F5F5F5F5F5F5F5F5F5F5F5F5F5F5F5F5F5F5F5F5F5F5F5F5F5F5F5F5F5F5F5F5F5F5F5F5F5F5F5F5F5F5F5
310
F5F5F5F5F5F5F5F5F5F5F5F5F5F5F5F5F5F5F5F5F5F5F5F5F5F5F5F5F5F5F5F5F5F5F5F5F5F5F5F5F5F5F5F5F5F5F5F5F5F5F5F5F5F5F5F5F5F5F5F5F5F5F5F5F5F5F5F5F5F5F5F5F5F5F5F5F5F5F5F5F5F5F5F5F5F5F5F5F5F5F5F5F5F5F5F5F5F5F5F5F5F5F5F5F5F5F5F5E2F5E2E2E2F5E2F5F5F5F5F5F5F5F5F5F5F5F5
310
F5F5F5F5F5F5F5F5F5F5F5F5F5F5F5F5F5F5F5F5F5F5F5F5F5F5F5F5F5F5F5F5F5F5F5F5F5F5F5F5F5F5F5F5F5F5F5F5F5F5F5F5F5F5F5F5F5F5F5F5F5F5F5F5F5F5F5F5F5F5F5F5F5F5F5F5F5F5F5F5F5F5F5F5F5F5F5F5F5F5F5F5F5F5F5F5F5F5F5F5F5F5F5F5F5F5F5F5F5F5F5F5F5F5F5F5F5F5F5F5F5F5F5F5F5F5F5
310
F5F5F5F5F5F5F5F5F5F5F5F5F5F5F5F5F5F5F5F5F5F5F5F5F5F5F5F5F5F5F5F5F5F5E2F5E2E2E2F5E2F5F5F5F5F5F5F5F5F5F5F5F5F5F5F5F5F5F5F5F5F5F5F5F5F5F5F5F5F5F5F5F5F5F5F5F5F5F5F5F5F5F5F5F5F5F5F5F5F5F5F5F5F5F5F5F5F5F5F5F5F5F5F5F5F5F5F5F5F5F5F5F5F5F5F5F5F5F5F5F5F5F5F5F5F5F5
310
F5F5F5F5F5F5F5F5F5F5F5F5F5F5F5F5F5F5F5F5F5F5F5F5F5F5F5F5F5F5F5F5F5F5F5F5F5F5F5F5F5F5F5F5F5F5F5F5F5F5F5F5F5F5F5F5F5F5F5F5F5F5F5F5F5F5F5F5F5F5F5F5F5F5F5F5F5F5F5F5F5F5F5F5F5F5F5E2F5E2E2E2F5E2F5F5F5F5F5F5F5F5F5F5F5F5F5F5F5F5F5F5F5F5F5F5F5F5F5F5F5F5F5F5F5F5F5
310
F5F5F5F5F5F5F5F5F5F5F5F5F5F5F5F5F5F5F5F5F5F5F5F5F5F5F5F5F5F5F5F5F5F5F5F5F5F5F5F5F5F5F5F5F5F5F5F5F5F5F5F5F5F5F5F5F5F5F5F5F5F5F5F5F5F5F5F5F5F5F5F5F5F5F5F5F5F5F5F5F5F5F5F5F5F5F5F5F5F5F5F5F5F5F5F5F5F5F5F5F5F5F5F5F5F5F5F5F5F5F5F5F5F5F5F5F5F5F5F5F5F5F5F5F5F5F5
310
F5F5F5F5F5F5F5F5F5F5F5F5F5E2F5E2E2E2F5E2F5F5F5F5F5F5F5F5F5F5F5F5F5F5F5F5F5F5F5F5F5F5F5F5F5F5F5F5F5F5F5F5F5F5F5F5F5F5F5F5F5F5F5F5F5F5F5F5F5F5F5F5F5F5F5F5F5F5F5F5F5F5F5F5F5F5F5F5F5F5F5F5F5F5F5F5F5F5F5F5F5F5F5F5F5F5F5F5F5F5F5F5F5F5F5F5F5F5F5F5F5F5F5F5F5F5F5
310
F5F5F5F5F5F5F5F5F5F5F5F5F5F5F5F5F5F5F5F5F5F5F5F5F5F5F5F5F5F5F5F5F5F5F5F5F5F5F5F5F5F5F5F5F5F5F5F5F5F5F5F5F5F5F5F5F5F5F5F5F5F5F5F5F5F5E2F5E2E2E2F5F5F5F5F5F5F5F5F5F5F5F5F5F5F5F5F5F5F5F5F5F5F5F5F5F5F5F5F5F5F5F5F5F5F5F5F5F5F5F5F5F5F5F5F5F5F5F5F5F5F5F5F5F5F5F5
310
F5F5F5F5F5F5F5F5F5F5F5F5F5F5F5F5F5F5F5F5F5F5F5F5F5F5F5F5F5F5F5F5F5F5F5F5F5F5F5F5F5F5F5F5F5F5F5F5F5F5F5F5F5F5F5F5F5F5F5F5F5F5F5F5F5F5F5F5F5F5F5F5F5F5F5F5F5F5F5F5F5F5F5F5F5F5F5F5F5F5F5F5F5F5F5F5F5F5F5F5F5F5F5F5F5F5F5F5F5F5F5F5F5F5F5F5F5F5F5F5F5E2E2E2F5F5F5
310
F5F5F5F5F5F5F5F5F5F5F5F5F5F5F5F5F5F5F5F5F5F5F5F5F5F5F5F5F5F5F5F5F5F5F5F5F5F5F5F5F5F5F5F5F5F5F5F5F5F5F5F5F5F5F5F5F5F5F5F5F5F5F5F5F5F5F5F5F5F5F5F5F5F5F5F5F5F5F5F5F5F5F5F5F5F5F5F5F5F5F5F5F5F5F5F5F5F5F5F5F5F5F5F5F5F5F5F5F5F5F5F5F5F5F5F5F5F5F5F5F5F5F5F5F5F5F5
310
F5F5F5F5F5F5F5F5F5F5F5F5F5F5F5F5F5F5F5F5F5F5F5F5F5F5F5F5F5F5F5F5F5F5F5F5F5F5F5F5F5F5F5F5F5F5F5E2E2E2F5F5F5F5F5F5F5F5F5F5F5F5F5F5F5F5F5F5F5F5F5F5F5F5F5F5F5F5F5F5F5F5F5F5F5F5F5F5F5F5F5F5F5F5F5F5F5F5F5F5F5F5F5F5F5F5F5F5F5F5F5F5F5F5F5F5F5F5F5F5F5F5F5F5F5F5F5
310
F5F5F5F5F5F5F5F5F5F5F5F5F5F5F5F5F5F5F5F5F5F5F5F5F5F5F5F5F5F5F5F5F5F5F5F5F5F5F5F5F5F5F5F5F5F5F5F5F5F5F5F5F5F5F5F5F5F5F5F5F5F5F5F5F5F5F5F5F5F5F5F5F5F5F5F5F5F5F5F5F5F5F5F5F5F5F5F5F5F5F5F5F5F5F5F5F5F5F5F5E2E2E2F5F5F5F5F5F5F5F5F5F5F5F5F5F5F5F5F5F5F5F5F5F5F5F5
310
F5F5F5F5F5F5F5F5F5F5F5F5F5F5F5F5F5F5F5F5F5F5F5F5F5F5F5F5F5F5F5F5F5F5F5F5F5F5F5F5F5F5F5F5F5F5F5F5F5F5F5F5F5F5F5F5F5F5F5F5F5F5F5F5F5F5F5F5F5F5F5F5F5F5F5F5F5F5F5F5F5F5F5F5F5F5F5F5F5F5F5F5F5F5F5F5F5F5F5F5F5F5F5F5F5F5F5F5F5F5F5F5F5F5F5F5F5F5F5F5F5F5F5F5F5F5F5
310
F5F5F5F5F5F5F5F5F5F5F5F5F5F5F5F5F5F5F5F5F5F5F5F5F5F5E2E2E2E2E2E2E2E2E2E2E2E2E2E2E2E2E2E2E2E2E2E2E2E2E2E2E2E2E2E2E2E2E2E2E2E2E2E2E2E2E2E2E2E2E2E2E2E2E2E2E2E2E2E2E2E2E2E2E2E2E2E2E2E2E2E2E2E2E2E2E2E2E2E2E2E2E2E2E2E2E2E2E2E2E2E2E2E2E2E2E2E2E2E2E2E2E2E2E2E2E2
310
E2E2E2E2E2E2E2E2E2E2E2E2E2E2E2E2E2E2E2E2E2E2E2E2E2E2E2E2E2E2E2E2E2E2E2E2E2E2E2E2E2E2E2E2E2E2E2E2E2E2E2E2E2E2E2E2E2E2E2E2E2E2E2E2E2E2E2F5F5F5F5F5F5F5F5F5F5F5F5E2E2E2E2F5F5F5F5F5F5F5F5F5F5F5F5F5F5F5F5F5F5F5F5F5F5F5F5F5F5F5F5F5F5F5F5F5F5F5F5F5F5F5F5F5F5F5F5
310
F5F5F5F5F5F5F5F5F5F5F5F5F5F5F5F5F5F5F5F5F5F5F5F5F5F5F5F5F5F5F5F5F5F5F5F5F5F5F5F5F5F5F5F5F5F5F5F5F5F5F5F5F5F5F5F5F5F5F5F5F5F5F5F5F5F5F5F5F5F5F5F5F5F5F5F5F5F5F5F5F5F5F5F5F5F5F5F5F5F5F5F5F5F5F5F5F5F5F5F5F5F5F5F5F5F5F5F5F5F5F5F5F5F5F5F5F5F5F5E2F5F5F5F5F5F5F5
310
F5F5F5F5F5E2E2E2E2F5F5F5F5F5F5F5F5F5F5F5F5F5F5F5F5F5F5F5F5F5F5F5F5F5F5F5F5F5F5F5F5F5F5F5F5F5F5F5F5F5F5F5F5F5F5F5F5F5F5F5F5F5F5F5F5F5F5F5F5F5F5F5F5F5F5F5F5F5F5F5F5F5F5F5F5F5F5F5F5F5F5F5F5F5F5F5F5F5F5F5F5F5F5F5F5F5F5F5F5F5F5F5F5F5F5F5F5F5F5F5F5F5F5F5F5F5F5
310
F5F5F5F5F5F5F5F5F5F5F5F5F5F5F5F5F5F5F5F5F5F5F5F5F5F5F5F5F5F5F5F5F5F5F5F5F5F5F5F5F5F5F5F5F5E2F5F5F5F5F5F5F5F5F5F5F5F5E2E2E2E2F5F5F5F5F5F5F5F5F5F5F5F5F5F5F5F5F5F5F5F5F5F5F5F5F5F5F5F5F5F5F5F5F5F5F5F5F5F5F5F5F5F5F5F5F5F5F5F5F5F5F5F5F5F5F5F5F5F5F5F5F5F5F5F5F5
310
F5F5F5F5F5F5F5F5F5F5F5F5F5F5F5F5F5F5F5F5F5F5F5F5F5F5F5F5F5F5F5F5F5F5F5F5F5F5F5F5F5F5F5F5F5F5F5F5F5F5F5F5F5F5F5F5F5F5F5F5F5F5F5F5F5F5F5F5F5F5F5F5F5F5F5F5F5F5F5F5F5F5F5F5F5F5F5F5F5F5F5F5F5F5F5F5F5F5E2F5F5F5F5F5F5F5F5F5F5F5F5E2E2E2E2F5F5F5F5F5F5F5F5F5F5F5F5
310
F5F5F5F5F5F5F5F5F5F5F5F5F5F5F5F5F5F5F5F5F5F5F5F5F5F5F5F5F5F5F5F5F5F5F5F5F5F5F5F5F5F5F5F5F5F5F5F5F5F5F5F5F5F5F5F5F5F5F5F5F5F5F5F5F5F5F5F5F5F5F5F5F5F5F5F5F5F5F5F5F5F5F5F5F5F5F5F5F5F5F5F5F5F5F5F5F5F5F5F5F5F5F5F5F5F5F5F5F5F5F5F5F5F5F5F5F5F5F5F5F5F5F5F5F5F5F5
310
F5F5F5F5F5F5F5F5F5F5F5F5F5F5F5F5F5F5F5F5F5F5F5F5E2F5F5F5F5F5F5F5F5F5F5F5F5E2E2E2E2E2F5F5F5F5F5F5F5F5F5F5F5F5F5F5F5F5F5F5F5F5F5F5F5F5F5F5F5F5F5F5F5F5F5F5F5F5F5F5F5F5F5F5F5F5F5F5F5F5F5F5F5F5F5F5F5F5F5F5F5F5F5F5F5F5F5F5F5F5F5F5F5F5F5F5F5F5F5F5F5F5F5F5F52828
310
28282828282828282828282828282828282828F5F5F5F5F5F5F5F5F5F5F5F5F5F5F5F5F5F5F5F5F5F5F5F5F5F5F5F5F5F5F5F5F5F5F5F5F5F5F5F5F5F5F5F5F5F5F5F5F5F5F5F5F5F5F5F5F5F5E2F5F5F5F5F5F5F5F5F5F5E2F5E2E2E2E2E2F5F5F5F5F5F5F5F5F5F5F5F5F5F5F5F5F5F5F5F5F5F5F5F5F5F5F5F5F5F5F5F5
310
F5F5F5F5F5F5F5F5F5F5F5F5F5F5F5F5F5F5F5F5F5F5F5F5F5F5F5F5F5F5F5F5F5F5F5F5F5F5F5F5F5F5F5F5F5F5F5F5F5F5F528E2E2E2E2E2E2E2E2E2E2E2E2E2E2E2E2E2E2E228F5F5F5F5F5F5F5F5F5F5F5F5F5F5F5F5F5F5F5F5F5F5F5F5F5F5F5F5F5F5F5F5F5F5F5F5F5F5F5F5F5F5F5F5F5F5F5F5F5F5F5F5F5F5F5
310
F5F5F5E2F5F5F5F5F5F5F5F5F5F5E2F5E2E2E2E2E2F5F5F5F5F5F5F5F5F5F5F5F5F5F5F5F5F5F5F5F5F5F5F5F5F5F5F5F5F5F5F5F5F5F5F5F5F5F5F5F5F5F5F5F5F5F5F5F5F5F5F5F5F5F5F5F5F5F5F5F5F5F5F5F5F5F5F5F5F5F5F5F5F5F5F5F5F5F5F5F5F5F5F528E2F5F5F5F5F5F5E2E2E2E2E2E2E2E2E2E2E2E228F5F5
310
F5F5F5F5F5F5F5F5F5F5F5F5F5F5F5F5F5F5F5F5F5F5F5F5F5F5F5F5F5F5F5F5F5F5F5F5F5F5F5F5F5F5F5F5F5F5F5F5F5F5F5F5F5F5F5F5E2F5F5F5F5F5F5F5F5F5F5E2F5E2E2E2E2E2F5F5F5F5F5F5F5F5F5F5F5F5F5F5F5F5F5F5F5F5F5F5F5F5F5F5F5F5F5F5F5F5F5F5F5F5F5F5F5F5F5F5F5F5F5F5F5F5F5F5F5F5F5
310
F5F5F5F5F5F5F5F5F5F5F5F5F5F5F5F5F5F5F5F5F5F5F5F5F5F5F5F5F5F528E2F5F5F5F5F5F5F5F5F5F5F5F5F5F5F5F5F5E228F5F5F5F5F5F5F5F5F5F5F5F5F5F5F5F5F5F5F5F5F5F5F5F5F5F5F5F5F5F5F5F5F5F5F5F5F5F5F5F5F5F5F5F5F5F5F5F5F5F5F5F5F5F5F5F5F5F5E2F5F5F5F5F5F5F5F5F5F5E2F5E2E2E2E2E2
310
F5F5F5F5F5F5F5F5F5F5F5F5F5F5F5F5F5F5F5F5F5F5F5F5F5F5F5F5F5F5F5F5F5F5F5F5F5F5F5F5F5F5F5F5F5F5F5F5F5F5F5F5F5F5F5F5F5F5F5F5F5F5F5F5F5F5F5F5F5F5F5F5F5F5F5F5F5F5F5F5F5F5F528E2F5F5F5F5F5F5F5F5F5F5F5F5F5F5F5F5F5E228F5F5F5F5F5F5F5F5F5F5F5F5F5F5F5F5F5F5F5F5F5F5F5
310
F5F5F5F5F5F5F5F5F5F5F5F5F5F5F5F5F5F5F5F5F5F5F5F5F5F5F5F5F5F5F5F5F5F5F5E2F5F5F5F5F5F5F5F5F5F5E2F5E2E2E2E2E2F5F5F5F5F5F5F5F5F5F5F5F5F5F5F5F5F5F5F5F5F5F5F5F5F5F5F5F5F5F5F5F5F5F5F5F5F5F5F5F5F5F5F5F5F5F5F5F5F5F5F5F5F5F5F5F5F5F5F5F5F5F5F5F5F5F5F5F5F5F5F5F5F5F5
310
F5F5F5F5F5F5F5F5F528E2F5E2E2E2E2E2F5F5F5F5E2E2E2F5F5F5F5E228F5F5F5F5F5F5F5F5F5F5F5F5F5F5F5F5F5F5F5F5F5F5F5F5F5F5F5F5F5F5F5F5F5F5F5F5F5F5F5F5F5F5F5F5F5F5F5F5F5F5F5F5F5F5F5F5F5F5E2F5F5F5F5F5F5F5F5F5F5E2F5E2E2E2E2E2F5F5F5F5F5F5F5F5F5F5F5F5F5F5F5F5F5F5F5F5F5
310
F5F5F5F5F5F5F5F5F5F5F5F5F5F5F5F5F5F5F5F5F5F5F5F5F5F5F5F5F5F5F5F5F5F5F5F5F5F5F5F5F5F5F5F5F5F5F5F5F5F5F5F5F5F5F5F5F5F5F5F5F5F528E2F5E2E2E2E2E2F5F5F5F5E2F5E2F5F5F5F5E228F5F5F5F5F5F5F5F5F5F5F5F5F5F5F5F5F5F5F5F5F5F5F5F5F5F5F5F5F5F5F5F5F5F5F5F5F5F5F5F5F5F5F5F5
310
F5F5F5F5F5F5F5F5F5F5F5F5F5F5E2F5F5F5F5F5F5F5F5F5F5E2F5E2E2E2E2E2F5F5F5F5F5F5F5F5F5F5F5F5F5F5F5F5F5F5F5F5F5F5F5F5F5F5F5F5F5F5F5F5F5F5F5F5F5F5F5F5F5F5F5F5F5F5F5F5F5F5F5F5F5F5F5F5F5F5F5F5F5F5F5F5F5F5F5F5F5F5F5F5F5F5F5F5F5F5F5F5F5F5F528E2F5E2E2E2E2E2F5F5F5F5
310
E2E2E2F5F5F5F5E228F5F5F5F5F5F5F5F5F5F5F5F5F5F5F5F5F5F5F5F5F5F5F5F5F5F5F5F5F5F5F5F5F5F5F5F5F5F5F5F5F5F5F5F5F5F5F5F5F5F5F5F5F5F5F5F5F5F5E2F5F5F5F5F5F5F5F5F5F5E2F5E2E2E2E2E2F5F5F5F5F5F5F5F5F5F5F5F5F5F5F5F5F5F5F5F5F5F5F5F5F5F5F5F5F5F5F5F5F5F5F5F5F5F5F5F5F5F5
310
F5F5F5F5F5F5F5F5F5F5F5F5F5F5F5F5F5F5F5F5F5F5F5F5F5F5F5F5F5F5F5F5F5F5F5F5F5F5F5F5F528E2F5E2E2E2E2E2F5F5F5F5E2E2E2F5F5F5F5E228F5F5F5F5F5F5F5F5F5F5F5F5F5F5F5F5F5F5F5F5F5F5F5F5F5F5F5F5F5F5F5F5F5F5F5F5F5F5F5F5F5F5F5F5F5F5F5F5F5F5F5F5F5F5F5F5F5F5E2F5F5F5F5F5F5
310
F5F5F5F5E2F5E2E2E2E2E2F5F5F5F5F5F5F5F5F5F5F5F5F5F5F5F5F5F5F5F5F5F5F5F5F5F5F5F5F5F5F5F5F5F5F5F5F5F5F5F5F5F5F5F5F5F5F5F5F5F5F5F5F5F5F5F5F5F5F5F5F5F5F5F5F5F5F5F5F5F5F5F5F5F5F5F5F5F5F5F5F5F5F528E2F5E2E2E2E2E2F5F5F5F5E2F5E2F5F5F5F5E228F5F5F5F5F5F5F5F5F5F5F5F5
310
F5F5F5F5F5F5F5F5F5F5F5F5F5F5F5F5F5F5F5F5F5F5F5F5F5F5F5F5F5F5F5F5F5F5F5F5F5F5F5F5F5F5F5F5F5F5E2F5F5F5F5F5F5F5F5F5F5E2F5E2E2E2E2E2F5F5F5F5F5F5F5F5F5F5F5F5F5F5F5F5F5F5F5F5F5F5F5F5F5F5F5F5F5F5F5F5F5F5F5F5F5F5F5F5F5F5F5F5F5F5F5F5F5F5F5F5F5F5F5F5F5F5F5F5F5F5F5
310
F5F5F5F5F5F5F5F5F5F5F5F5F5F5F5F5F5F5F5F528E2F5E2E2E2E2E2F5F5F5F5E2F5E2F5F5F5F5E228F5F5F5F5F5F5F5F5F5F5F5F5F5F5F5F5F5F5F5F5F5F5F5F5F5F5F5F5F5F5F5F5F5F5F5F5F5F5F5F5F5F5F5F5F5F5F5F5F5F5F5F5F5F5F5F5F5F5E2F5F5F5F5F5F5F5F5F5F5E2F5E2E2E2E2E2F5F5F5F5F5F5F5F5F5F5
310
F5F5F5F5F5F5F5F5F5F5F5F5F5F5F5F5F5F5F5F5F5F5F5F5F5F5F5F5F5F5F5F5F5F5F5F5F5F5F5F5F5F5F5F5F5F5F5F5F5F5F5F5F5F5F5F5F5F5F5F5F5F5F5F5F5F5F5F5F5F5F5F5F528E2F5E2E2E2E2E2F5F5F5F5E2E2E2F5F5F5F5E228F5F5F5F5F5F5F5F5F5F5F5F5F5F5F5F5F5F5F5F5F5F5F5F5F5F5F5F5F5F5F5F5F5
310
F5F5F5F5F5F5F5F5F5F5F5F5F5F5F5F5F5F5F5F5F5F5F5F5F5E2F5F5F5F5F5F5F5F5F5F5E2F5E2E2E2E2E2F5F5F5F5F5F5F5F5F5F5F5F5F5F5F5F5F5F5F5F5F5F5F5F5F5F5F5F5F5F5F5F5F5F5F5F5F5F5F5F5F5F5F5F5F5F5F5F5F5F5F5F5F5F5F5F5F5F5F5F5F5F5F5F5F5F5F5F5F5F5F5F5F5F5F5F5F5F5F5F5F5F5F528
310
E2F5F5E2F5F5E2F5F5F5F5E2F5E2F5F5F5F5E228F5F5F5F5F5F5F5F5F5F5F5F5F5F5F5F5F5F5F5F5F5F5F5F5F5F5F5F5F5F5F5F5F5F5F5F5F5F5F5F5F5F5F5F5F5F5F5F5F5F5F5F5F5F5F5F5F5F5E2F5F5F5F5F5F5F5F5F5F5E2F5E2E2E2E2E2F5F5F5F5F5F5F5F5F5F5F5F5F5F5F5F5F5F5F5F5F5F5F5F5F5F5F5F5F5F5F5
310
F5F5F5F5F5F5F5F5F5F5F5F5F5F5F5F5F5F5F5F5F5F5F5F5F5F5F5F5F5F5F5F5F5F5F5F5F5F5F5F5F5F5F5F5F5F5F5F5F5F5F5F528E2F5F5F5F5F5F5F5F5F5F5F5F5F5F5F5F5F5E228F5F5F5F5F5F5F5F5F5F5F5F5F5F5F5F5F5F5F5F5F5F5F5F5F5F5F5F5F5F5F5F5F5F5F5F5F5F5F5F5F5F5F5F5F5F5F5F5F5F5F5F5F5F5
310
F5F5F5F5E2F5F5F5F5F5F5F5F5F5F5E2F5E2E2E2E2E2F5F5F5F5F5F5F5F5F5F5F5F5F5F5F5F5F5F5F5F5F5F5F5F5F5F5F5F5F5F5F5F5F5F5F5F5F5F5F5F5F5F5F5F5F5F5F5F5F5F5F5F5F5F5F5F5F5F5F5F5F5F5F5F5F5F5F5F5F5F5F5F5F5F5F5F5F5F5F5F5F5F5F528E2E2E2E2E2E2E2E2E2E2E2E2E2E2E2E2E2E2E228F5
310
F5F5F5F5F5F5F5F5F5F5F5F5F5F5F5F5F5F5F5F5F5F5F5F5F5F5F5F5F5F5F5F5F5F5F5F5F5F5F5F5F5F5F5F5F5F5F5F5F5F5F5F5F5F5F5F5F5E2F5F5F5F5F5F5F5F5F5F5E2F5E2E2E2E2E2F5F5F5F5F5F5F5F5F5F5F5F5F5F5F5F5F5F5F5F5F5F5F5F5F5F5F5F5F5F5F5F5F5F5F5F5F5F5F5F5F5F5F5F5F5F5F5F5F5F5F5F5
310
F5F5F5F5F5F5F5F5F5F5F5F5F5F5F5F5F5F5F5F5F5F5F5F5F5F5F5F5F5F5F5282828282828282828282828282828282828282828F5F5F5F5F5F5F5F5F5F5F5F5F5F5F5F5F5F5F5F5F5F5F5F5F5F5F5F5F5F5F5F5F5F5F5F5F5F5F5F5F5F5F5F5F5F5F5F5F5F5F5F5F5F5F5F5F5F5E2F5F5F5F5F5F5F5F5F5F5E2F5E2E2E2E2
310
F5F5F5F5F5F5F5F5F5F5F5F5F5F5F5F5F5F5F5F5F5F5F5F5F5F5F5F5F5F5F5F5F5F5F5F5F5F5F5F5F5F5F5F5F5F5F5F5F5F5F5F5F5F5F5F5F5F5F5F5F5F5F5F5F5F5F5F5F5F5F5F5F5F5F5F5F5F5F5F5F5F5F5F5F5F5F5F5F5F5F5F5F5F5F5F5F5F5F5F5F5F5F5F5F5F5F5F5F5F5F5F5F5F5F5F5F5F5F5F5F5F5F5F5F5F5F5
310
F5F5F5F5F5F5F5F5F5F5F5F5F5F5F5F5F5F5F5F5F5F5F5F5F5F5F5F5F5F5F5F5F5F5F5F5E2F5F5F5F5F5F5F5F5F5F5F5F5E2E2E2E2F5F5F5F5F5F5F5F5F5F5F5F5F5F5F5F5F5F5F5F5F5F5F5F5F5F5F5F5F5F5F5F5F5F5F5F5F5F5F5F5F5F5F5F5F5F5F5F5F5F5F5F5F5F5F5F5F5F5F5F5F5F5F5F5F5F5F5F5F5F5F5F5F5F5
310
F5F5F5F5F5F5F5F5F5F5F5F5F5F5F5F5F5F5F5F5F5F5F5F5F5F5F5F5F5F5F5F5F5F5F5F5F5F5F5F5F5F5F5F5F5F5F5F5F5F5F5F5F5F5F5F5F5F5F5F5F5F5F5F5F5F5F5F5F5F5F5F5F5F5F5F5F5F5F5F5F5F5F5F5F5F5F5F5F5E2F5F5F5F5F5F5F5F5F5F5F5F5E2E2E2E2F5F5F5F5F5F5F5F5F5F5F5F5F5F5F5F5F5F5F5F5F5
310
F5F5F5F5F5F5F5F5F5F5F5F5F5F5F5F5F5F5F5F5F5F5F5F5F5F5F5F5F5F5F5F5F5F5F5F5F5F5F5F5F5F5F5F5F5F5F5F5F5F5F5F5F5F5F5F5F5F5F5F5F5F5F5F5F5F5F5F5F5F5F5F5F5F5F5F5F5F5F5F5F5F5F5F5F5F5F5F5F5F5F5F5F5F5F5F5F5F5F5F5F5F5F5F5F5F5F5F5F5F5F5F5F5F5F5F5F5F5F5F5F5F5F5F5F5F5F5
310
F5F5F5F5F5F5F5F5F5F5F5F5F5F5F5E2F5F5F5F5F5F5F5F5F5F5F5F5E2E2E2E2F5F5F5F5F5F5F5F5F5F5F5F5F5F5F5F5F5F5F5F5F5F5F5F5F5F5F5F5F5F5F5F5F5F5F5F5F5F5F5F5F5F5F5F5F5F5F5F5F5F5F5F5F5F5F5F5F5F5F5F5F5F5F5F5F5F5F5F5F5F5F5F5F5F5F5F5F5F5F5F5F5F5F5F5F5F5F5F5F5F5F5F5F5F5F5
310
F5F5F5F5F5F5F5F5F5F5F5F5F5F5F5F5F5F5F5F5F5F5F5F5F5F5F5F5F5F5F5F5F5F5F5F5F5F5F5F5F5F5F5F5F5F5F5F5F5F5F5F5F5F5F5F5F5F5F5F5F5F5F5F5F5F5F5F5E2F5F5F5F5F5F5F5F5F5F5F5F5E2E2E2E2F5F5F5F5F5F5F5F5F5F5F5F5F5F5F5F5F5F5F5F5F5F5F5F5F5F5F5F5F5F5F5F5F5F5F5F5F5F5F5F5F5F5
310
F5F5F5F5F5F5F5F5F5F5F5F5F5F5F5F5F5F5F5F5F5F5F5F5F5F5F5F5F5F5F5F5F5F5F5F5F5F5F5F5F5F5F5F5F5F5F5F5F5F5F5F5F5F5F5F5F5F5F5F5F5F5F5F5F5F5F5F5F5F5F5F5F5F5F5F5F5F5F5F5F5F5F5F5F5F5F5F5F5F5F5F5F5F5F5F5F5F5F5F5F5F5F5F5F5F5F5F5F5F5F5F5F5F5F5F5F5F5F5F5F5E2F5F5F5F5F5
310
F5F5F5F5F5F5F5E2E2E2E2F5F5F5F5F5F5F5F5F5F5F5F5F5F5F5F5F5F5F5F5F5F5F5F5F5F5F5F5F5F5F5F5F5F5F5F5F5F5F5F5F5F5F5F5F5F5F5F5F5F5F5F5F5F5F5F5F5F5F5F5F5F5F5F5F5F5F5F5F5F5F5F5F5F5F5F5F5F5F5F5F5F5F5F5F5F5F5F5F5F5F5F5F5F5F5F5F5F5F5F5F5F5F5F5F5F5F5F5F5F5F5F5F5F5F5F5
310
F5F5F5F5F5F5F5F5F5F5F5F5F5F5F5F5F5F5F5F5F5F5F5F5F5F5F5F5F5F5F5F5F5F5F5F5F5F5F5F5F5F5F5F5F5F5F5E2F5F5F5F5F5F5F5F5F5F5F5F5E2E2E2E2F5F5F5F5F5F5F5F5F5F5F5F5F5F5F5F5F5F5F5F5F5F5F5F5F5F5F5F5F5F5F5F5F5F5F5F5F5F5F5F5F5F5F5F5F5F5F5F5F5F5F5F5F5F5F5F5F5F5F5F5F5F5F5
310
F5F5F5F5F5F5F5F5F5F5F5F5F5F5F5F5F5F5F5F5F5F5F5F5F5F5F5F5F5F5F5F5F5F5F5F5F5F5F5F5F5F5F5F5F5F5F5F5F5F5F5F5F5F5F5F5F5F5F5F5F5F5F5F5F5F5F5F5F5F5F5F5F5F5F5F5F5F5F5F5F5F5F5F5F5F5F5F5F5F5F5F5F5F5F5F5F5F5F5F5E2F5F5F5F5F5F5F5F5F5F5F5F5E2E2E2E2F5F5F5F5F5F5F5F5F5F5
310
F5F5F5F5F5F5F5F5F5F5F5F5F5F5F5F5F5F5F5F5F5F5F5F5F5F5F5F5F5F5F5F5F5F5F5F5F5F5F5F5F5F5F5F5F5F5F5F5F5F5F5F5F5F5F5F5F5F5F5F5F5F5F5F5F5F5F5F5F5F5F5F5F5F5F5F5F5F5F5F5F5F5F5F5F5F5F5F5F5F5F5F5F5F5F5F5F5F5F5F5F5F5F5F5F5F5F5F5F5F5F5F5F5F5F5F5F5F5F5F5F5F5F5F5F5F5F5
310
F5F5F5F5F5F5F5F5F5F5F5F5F5F5F5F5F5F5F5F5F5F5F5F5F5F5E2F5F5F5F5F5F5F5F5F5F5F5F5E2E2E2E2E2F5F5F5F5F5F5F5F5F5F5F5F5F5F5F5F5F5F5F5F5F5F5F5F5F5F5F5F5F5F5F5F5F5F5F5F5F5F5F5F5F5F5F5F5F5F5F5F5F5F5F5F5F5F5F5F5F5F5F5F5F5F5F5F5F5F5F5F5F5F5F5F5F5F5F5F5F5F5F5F5F5F5F5
310
F5F5F5F5F5F5F5F5F5F5F5F5F5F5F5F5F5F5F5F5F5F5F5F5F5F5F5F5F5F5F5F5F5F5F5F5F5F5F5F5F5F5F5F5F5F5F5F5F5F5F5F5F5F5F5F5F5F5F5F5F5F5F5F5F5F5F5F5F5F5F5F5F5F5F5F5F5F5F5E2F5F5F5F5F5F5F5F5F5F5E2F5E2E2E2E2E2F5F5F5F5F5F5F5F5F5F5F5F5F5F5F5F5F5F5F5F5F5F5F5F5F5F5F5F5F5F5
310
F5F5F5F5F5F5F5F5F5F5F5F5F5F5F5F5F5F5F5F5F5F5F5F5F5F5F5F5F5F5F5F5F5F5F5F5F5F5F5F5F5F5F5F5F5F5F5F5F5F5F5F5F5F5F5F5F5F5F5F5F5F5F5F5F5F5F5F5F5F5F5F5F5F5F5F5F5F5F5F5F5F5F5F5F5F5F5F5F5F5F5F5F5F5F5F5F5F5F5F5F5F5F5F5F5F5F5F5F5F5F5F5F5F5F5F5F5F5F5F5F5F5F5F5F5F5F5
310
F5F5F5F5F5E2F5F5F5F5F5F5F5F5F5F5E2F5E2E2E2E2E2F5F5F5F5F5F5F5F5F5F5F5F5F5F5F5F5F5F5F5F5F5F5F5F5F5F5F5F5F5F5F5F5F5F5F5F5F5F5F5F5F5F5F5F5F5F5F5F5F5F5F5F5F5F5F5F5F5F5F5F5F5F5F5F5F5F5F5F5F5F5F5F5F5F5F5F5F5F5F5F5F5F5F5F5F5F5F5F5F5F5F5F5F5F5F5F5F5F5F5F5F5F5F5F5
310
F5F5F5F5F5F5F5F5F5F5F5F5F5F5F5F5F5F5F5F5F5F5F5F5F5F5F5F5F5F5F5F5F5F5F5F5F5F5F5F5F5F5F5F5F5F5F5F5F5F5F5F5F5F5F5F5F5F5E2F5F5F5F5F5F5F5F5F5F5E2F5E2E2E2E2E2F5F5F5F5F5F5F5F5F5F5F5F5F5F5F5F5F5F5F5F5F5F5F5F5F5F5F5F5F5F5F5F5F5F5F5F5F5F5F5F5F5F5F5F5F5F5F5F5F5F5F5
310
F5F5F5F5F5F5F5F5F5F5F5F5F5F5F5F5F5F5F5F5F5F5F5F5F5F5F5F5F5F5F5F5F5F5F5F5F5F5F5F5F5F5F5F5F5F5F5F5F5F5F5F5F5F5F5F5F5F5F5F5F5F5F5F5F5F5F5F5F5F5F5F5F5F5F5F5F5F5F5F5F5F5F5F5F5F5F5F5F5F5F5F5F5F5F5F5F5F5F5F5F5F5F5F5F5F5F5F5F5F5F5E2F5F5F5F5F5F5F5F5F5F5E2F5E2E2E2
310
E2E2F5F5F5F5F5F5F5F5F5F5F5F5F5F5F5F5F5F5F5F5F5F5F5F5F5F5F5F5F5F5F5F5F5F5F5F5F5F5F5F5F5F5F5F5F5F5F5F5F5F5F5F5F5F5F5F5F5F5F5F5F5F5F5F5F5F5F5F5F5F5F5F5F5F5F5F5F5F5F5F5F5F5F5F5F5F5F5F5F5F5F5F5F5F5F5F5F5F5F5F5F5F5F5F5F5F5F5F5F5F5F5F5F5F5F5F5F5F5F5F5F5F5F5F5F5
310
F5F5F5F5F5F5F5F5F5F5F5F5F5F5F5F5F5F5F5F5F5F5F5F5F5F5F5F5F5F5F5F5F5F5F5F5F5E2F5F5F5F5F5F5F5F5F5F5E2F5E2E2E2E2E2F5F5F5F5F5F5F5F5F5F5F5F5F5F5F5F5F5F5F5F5F5F5F5F5F5F5F5F5F5F5F5F5F5F5F5F5F5F5F5F5F5F5F5F5F5F5F5F5F5F5F5F5F5F5F5F5F5F5F5F5F5F5F5F5F5F5F5F5F5F5F5F5
310
F5F5F5F5F5F5F5F5F5F5F5F5F5F5F5F5F5F5F5F5F5F5F5F5F5F5F5F5F5F5F5F5F5F5F5F5F5F5F5F5F5F5F5F5F5F5F5F5F5F5F5F5F5F5F5F5F5F5F5F5F5F5F5F5F5F5F5F5F5F5F5F5F5F5F5F5F5F5F5F5F5F5F5F5F5F5F5F5F5F5E2F5F5F5F5F5F5F5F5F5F5E2F5E2E2E2E2E2F5F5F5F5F5F5F5F5F5F5F5F5F5F5F5F5F5F5F5
310
F5F5F5F5F5F5F5F5F5F5F5F5F5F5F5F5F5F5F5F5F5F5F5F5F5F5F5F5F5F5F5F5F5F5F5F5F5F5F5F5F5F5F5F5F5F5F5F5F5F5F5F5F5F5F5F5F5F5F5F5F5F5F5F5F5F5F5F5F5F5F5F5F5F5F5F5F5F5F5F5F5F5F5F5F5F5F5F5F5F5F5F5F5F5F5F5F5F5F5F5F5F5F5F5F5F5F5F5F5F5F5F5F5F5F5F5F5F5F5F5F5F5F5F5F5F5F5
310
F5F5F5F5F5F5F5F5F5F5F5F5F5F5F5F5E2F5F5F5F5F5F5F5F5F5F5E2F5E2E2E2E2E2F5F5F5F5F5F5F5F5F5F5F5F5F5F5F5F5F5F5F5F5F5F5F5F5F5F5F5F5F5F5F5F5F5F5F5F5F5F5F5F5F5F5F5F5F5F5F5F5F5F5F5F5F5F5F5F5F5F5F5F5F5F5F5F5F5F5F5F5F5F5F5F5F5F5F5F5F5F5F5F5F5F5F5F5F5F5F5F5F5F5F5F5F5
310
F5F5F5F5F5F5F5F5F5F5F5F5F5F5F5F5F5F5F5F5F5F5F5F5F5F5F5F5F5F5F5F5F5F5F5F5F5F5F5F5F5F5F5F5F5F5F5F5F5F5F5F5F5F5F5F5F5F5F5F5F5F5F5F5F5F5F5F5F5E2F5F5F5F5F5F5F5F5F5F5E2F5E2E2E2E2E2F5F5F5F5F5F5F5F5F5F5F5F5F5F5F5F5F5F5F5F5F5F5F5F5F5F5F5F5F5F5F5F5F5F5F5F5F5F5F5F5
310
F5F5F5F5F5F5F5F5F5F5F5F5F5F5F5F5F5F5F5F5F5F5F5F5F5F5F5F5F5F5F5F5F5F5F5F5F5F5F5F5F5F5F5F5F5F5F5F5F5F5F5F5F5F5F5F5F5F5F5F5F5F5F5F5F5F5F5F5F5F5F5F5F5F5F5F5F5F5F5F5F5F5F5F5F5F5F5F5F5F5F5F5F5F5F5F5F5F5F5F5F5F5F5F5F5F5F5F5F5F5F5F5F5F5F5F5F5F5F5F5F5F5E2F5F5F5F5
310
F5F5F5F5F5F5E2F5E2E2E2E2E2F5F5F5F5F5F5F5F5F5F5F5F5F5F5F5F5F5F5F5F5F5F5F5F5F5F5F5F5F5F5F5F5F5F5F5F5F5F5F5F5F5F5F5F5F5F5F5F5F5F5F5F5F5F5F5F5F5F5F5F5F5F5F5F5F5F5F5F5F5F5F5F5F5F5F5F5F5F5F5F5F5F5F5F5F5F5F5F5F5F5F5F5F5F5F5F5F5F5F5F5F5F5F5F5F5F5F5F5F5F5F5F5F5F5
310
F5F5F5F5F5F5F5F5F5F5F5F5F5F5F5F5F5F5F5F5F5F5F5F5F5F5F5F5F5F5F5F5F5F5F5F5F5F5F5F5F5F5F5F5F5F5F5F5E2F5F5F5F5F5F5F5F5F5F5E2F5E2E2E2E2E2F5F5F5F5F5F5F5F5F5F5F5F5F5F5F5F5F5F5F5F5F5F5F5F5F5F5F5F5F5F5F5F5F5F5F5F5F5F5F5F5F5F5F5F5F5F5F5F5F5F5F5F5F5F5F5F5F5F5F5F5F5
310
F5F5F5F5F5F5F5F5F5F5F5F5F5F5F5F5F5F5F5F5F5F5F5F5F5F5F5F5F5F5F5F5F5F5F5F5F5F5F5F5F5F5F5F5F5F5F5F5F5F5F5F5F5F5F5F5F5F5F5F5F5F5F5F5F5F5F5F5F5F5F5F5F5F5F5F5F5F5F5F5F5F5F5F5F5F5F5F5F5F5F5F5F5F5F5F5F5F5F5F5F5E2F5F5F5F5F5F5F5F5F5F5E2F5E2E2E2E2E2F5F5F5F5F5F5F5F5
310
F5F5F5F5F5F5F5F5F5F5F5F5F5F5F5F5F5F5F5F5F5F5F5F5F5F5F5F5F5F5F5F5F5F5F5F5F5F5F5F5F5F5F5F5F5F5F5F5F5F5F5F5F5F5F5F5F5F5F5F5F5F5F5F5F5F5F5F5F5F5F5F5F5F5F5F5F5F5F5F5F5F5F5F5F5F5F5F5F5F5F5F5F5F5F5F5F5F5F5F5F5F5F5F5F5F5F5F5F5F5F5F5F5F5F5F5F5F5F5F5F5F5F5F5F5F5F5
310
F5F5F5F5F5F5F5F5F5F5F5F5F5F5F5F5F5F5F5F5F5F5F5F5F5F5F5E2F5F5F5F5F5F5F5F5F5F5E2F5E2E2E2E2E2F5F5F5F5F5F5F5F5F5F5F5F5F5F5F5F5F5F5F5F5F5F5F5F5F5F5F5F5F5F5F5F5F5F5F5F5F5F5F5F5F5F5F5F5F5F5F5F5F5F5F5F5F5F5F5F5F5F5F5F5F5F5F5F5F5F5F5F5F5F5F5F5F5F5F5F5F5F5F5F5F5F5
310
F5F5F5F5F5F5F5F5F5F5F5F5F5F5F5F5F5F5F5F5F5F5F5F5F5F5F5F5F5F5F5F5F5F5F5F5F5F5F5F5F5F5F5F5F5F5F5F5F5F5F5F5F5F5F5F5F5F5F5F5F5F5F5F5F5F5F5F5F5F5F5F5F5F5F5F5F5F5F5F5E2F5F5F5F5F5F5F5F5F5F5E2F5E2E2E2E2E2F5F5F5F5F5F5F5F5F5F5F5F5F5F5F5F5F5F5F5F5F5F5F5F5F5F5F5F5F5
310
F5F5F5F5F5F5F5F5F5F5F5F5F5F5F5F5F5F5F5F5F5F5F5F5F5F5F5F5F5F5F5F5F5F5F5F5F5F5F5F5F5F5F5F5F5F5F5F5F5F5F5F5F5F5F5F5F5F5F5F5F5F5F5F5F5F5F5F5F5F5F5F5F5F5F5F5F5F5F5F5F5F5F5F5F5F5F5F5F5F5F5F5F5F5F5F5F5F5F5F5F5F5F5F5F5F5F5F5F5F5F5F5F5F5F5F5F5F5F5F5F5F5F5F5F5F5F5
310
F5F5F5F5F5F5E2F5F5F5F5F5F5F5F5F5F5E2F5E2E2E2E2E2F5F5F5F5F5F5F5F5F5F5F5F5F5F5F5F5F5F5F5F5F5F5F5F5F5F5F5F5F5F5F5F5F5F5F5F5F5F5F5F5F5F5F5F5F5F5F5F5F5F5F5F5F5F5F5F5F5F5F5F5F5F5F5F5F5F5F5F5F5F5F5F5F5F5F5F5F5F5F5F5F5F5F5F5F5F5F5F5F5F5F5F5F5F5F5F5F5F5F5F5F5F5F5
310
F5F5F5F5F5F5F5F5F5F5F5F5F5F5F5F5F5F5F5F5F5F5F5F5F5F5F5F5F5F5F5F5F5F5F5F5F5F5F5F5F5F5F5F5F5F5F5F5F5F5F5F5F5F5F5F5F5F5F5E2F5F5F5F5F5F5F5F5F5F5E2F5E2E2E2E2E2F5F5F5F5F5F5F5F5F5F5F5F5F5F5F5F5F5F5F5F5F5F5F5F5F5F5F5F5F5F5F5F5F5F5F5F5F5F5F5F5F5F5F5F5F5F5F5F5F5F5
310
F5F5F5F5F5F5F5F5F5F5F5F5F5F5F5F5F5F5F5F5F5F5F5F5F5F5F5F5F5F5F5F5F5F5F5F5F5F5F5F5F5F5F5F5F5F5F5F5F5F5F5F5F5F5F5F5F5F5F5F5F5F5F5F5F5F5F5F5F5F5F5F5F5F5F5F5F5F5F5F5F5F5F5F5F5F5F5F5F5F5F5F5F5F5F5F5F5F5F5F5F5F5F5F5F5F5F5F5F5F5F5F5E2F5F5F5F5F5F5F5F5F5F5E2F5E2E2
310
E2E2F5F5F5F5F5F5F5F5F5F5F5F5F5F5F5F5F5F5F5F5F5F5F5F5F5F5F5F5F5F5F5F5F5F5F5F5F5F5F5F5F5F5F5F5F5F5F5F5F5F5F5F5F5F5F5F5F5F5F5F5F5F5F5F5F5F5F5F5F5F5F5F5F5F5F5F5F5F5F5F5F5F5F5F5F5F5F5F5F5F5F5F5F5F5F5F5F5F5F5F5F5F5F5F5F5F5F5F5F5F5F5F5F5F5F5F5F5F5F5F5F5F5F5F5F5
310
F5F5F5F5F5F5F5F5F5F5F5F5F5F5F5F5F5F5F5F5F5F5F5F5F5F5F5F5F5F5F5F5F5F5F5F5F5F5E2F5F5F5F5F5F5F5F5F5F5F5F5E2E2E2E2F5F5F5F5F5F5F5F5F5F5F5F5F5F5F5F5F5F5F5F5F5F5F5F5F5F5F5F5F5F5F5F5F5F5F5F5F5F5F5F5F5F5F5F5F5F5F5F5F5F5F5F5F5F5F5F5F5F5F5F5F5F5F5F5F5F5F5F5F5F5F5F5
310
F5F5F5F5F5F5F5F5F5F5F5F5F5F5F5F5F5F5F5F5F5F5F5F5F5F5F5F5F5F5F5F5F5F5F5F5F5F5F5F5F5F5F5F5F5F5F5F5F5F5F5F5F5F5F5F5F5F5F5F5F5F5F5F5F5F5F5F5F5F5F5F5F5F5F5F5F5F5F5F5F5F5F5F5F5F5F5F5F5F5F5E2F5F5F5F5F5F5F5F5F5F5F5F5E2E2E2E2F5F5F5F5F5F5F5F5F5F5F5F5F5F5F5F5F5F5F5
310
F5F5F5F5F5F5F5F5F5F5F5F5F5F5F5F5F5F5F5F5F5F5F5F5F5F5F5F5F5F5F5F5F5F5F5F5F5F5F5F5F5F5F5F5F5F5F5F5F5F5F5F5F5F5F5F5F5F5F5F5F5F5F5F5F5F5F5F5F5F5F5F5F5F5F5F5F5F5F5F5F5F5F5F5F5F5F5F5F5F5F5F5F5F5F5F5F5F5F5F5F5F5F5F5F5F5F5F5F5F5F5F5F5F5F5F5F5F5F5F5F5F5F5F5F5F5F5
310
F5F5F5F5F5F5F5F5F5F5F5F5F5F5F5F5F5E2F5F5F5F5F5F5F5F5F5F5F5F5E2E2E2E2F5F5F5F5F5F5F5F5F5F5F5F5F5F5F5F5F5F5F5F5F5F5F5F5F5F5F5F5F5F5F5F5F5F5F5F5F5F5F5F5F5F5F5F5F5F5F5F5F5F5F5F5F5F5F5F5F5F5F5F5F5F5F5F5F5F5F5F5F5F5F5F5F5F5F5F5F5F5F5F5F5F5F5F5F5F5F5F5F5F5F5F5F5
310
F5F5F5F5F5F5F5F5F5F5F5F5F5F5F5F5F5F5F5F5F5F5F5F5F5F5F5F5F5F5F5F5F5F5F5F5F5F5F5F5F5F5F5F5F5F5F5F5F5F5F5F5F5F5F5F5F5F5F5F5F5F5F5F5F5F5F5F5F5F5E2F5F5F5F5F5F5F5F5F5F5F5F5E2E2E2E2F5F5F5F5F5F5F5F5F5F5F5F5F5F5F5F5F5F5F5F5F5F5F5F5F5F5F5F5F5F5F5F5F5F5F5F5F5F5F5F5
310
F5F5F5F5F5F5F5F5F5F5F5F5F5F5F5F5F5F5F5F5F5F5F5F5F5F5F5F5F5F5F5F5F5F5F5F5F5F5F5F5F5F5F5F5F5F5F5F5F5F5F5F5F5F5F5F5F5F5F5F5F5F5F5F5F5F5F5F5F5F5F5F5F5F5F5F5F5F5F5F5F5F5F5F5F5F5F5F5F5F5F5F5F5F5F5F5F5F5F5F5F5F5F5F5F5F5F5F5F5F5F5F5F5F5F5F5F5F5F5F5F5F5F5E2F5F5F5
310
F5F5F5F5F5F5F5F5F5E2E2E2E2F5F5F5F5F5F5F5F5F5F5F5F5F5F5F5F5F5F5F5F5F5F5F5F5F5F5F5F5F5F5F5F5F5F5F5F5F5F5F5F5F5F5F5F5F5F5F5F5F5F5F5F5F5F5F5F5F5F5F5F5F5F5F5F5F5F5F5F5F5F5F5F5F5F5F5F5F5F5F5F5F5F5F5F5F5F5F5F5F5F5F5F5F5F5F5F5F5F5F5F5F5F5F5F5F5F5F5F5F5F5F5F5F5F5
310
F5F5F5F5F5F5F5F5F5F5F5F5F5F5F5F5F5F5F5F5F5F5F5F5F5F5F5F5F5F5F5F5F5F5F5F5F5F5F5F5F5F5F5F5F5F5F5F5F5E2F5F5F5F5F5F5F5F5F5F5F5F5E2E2E2E2F5F5F5F5F5F5F5F5F5F5F5F5F5F5F5F5F5F5F5F5F5F5F5F5F5F5F5F5F5F5F5F5F5F5F5F5F5F5F5F5F5F5F5F5F5F5F5F5F5F5F5F5F5F5F5F5F5F5F5F5F5
310
F5F5F5F5F5F5F5F5F5F5F5F5F5F5F5F5F5F5F5F5F5F5F5F5F5F5F5F5F5F5F5F5F5F5F5F5F5F5F5F5F5F5F5F5F5F5F5F5F5F5F5F5F5F5F5F5F5F5F5F5F5F5F5F5F5F5F5F5F5F5F5F5F5F5F5F5F5F5F5F5F5F5F5F5F5F5F5F5F5F5F5F5F5F5F5F5F5F5F5F5F5F5E2F5F5F5F5F5F5F5F5F5F5F5F5E2E2E2E2F5F5F5F5F5F5F5F5
310
F5F5F5F5F5F5F5F5F5F5F5F5F5F5F5F5F5F5F5F5F5F5F5F5F5F5F5F5F5F5F5F5F5F5F5F5F5F5F5F5F5F5F5F5F5F5F5F5F5F5F5F5F5F5F5F5F5F5F5F5F5F5F5F5F5F5F5F5F5F5F5F5F5F5F5F5F5F5F5F5F5F5F5F5F5F5F5F5F5F5F5F5F5F5F5F5F5F5F5F5F5F5F5F5F5F5F5F5F5F5F5F5F5F5F5F5F5F5F5F5F5F5F5F5F5F5F5
310
F5F5F5F5F5F5F5F5F5F5F5F5F5F5F5F5F5F5F5F5F5F5F5F5F5F5F5F5E2F5F5F5F5F5F5F5F5F5F5F5F5E2E2E2E2F5F5F5F5F5F5F5F5F5F5F5F5F5F5F5F5F5F5F5F5F5F5F5F5F5F5F5F5F5F5F5F5F5F5F5F5F5F5F5F5F5F5F5F5F5F5F5F5F5F5F5F5F5F5F5F5F5F5F5F5F5F5F5F5F5F5F5F5F5F5F5F5F5F5F5F5F5F5F5F5F5F5
310
F5F5F5F5F5F5F5F5F5F5F5F5F5F5F5F5F5F5F5F5F5F5F5F5F5F5F5F5F5F5F5F5F5F5F5F5F5F5F5F5F5F5F5F5F5F5F5F5F5F5F5F5F5F5F5F5F5F5F5F5F5F5F5F5F5F5F5F5F5F5F5F5F5F5F5F5F5F5F5F5F5E2F5F5F5F5F5F5F5F5F5F5F5F5E2E2E2E2E2F5F5F5F5F5F5F5F5F5F5F5F5F5F5F5F5F5F5F5F5F5F5F5F5F5F5F5F5
310
F5F5F5F5F5F5F5F5F5F5F5F5F5F5F5F5F5F5F5F5F5F5F5F5F5F5F5F5F5F5F5F5F5F5F5F5F5F5F5F5F5F5F5F5F5F5F5F5F5F5F5F5F5F5F5F5F5F5F5F5F5F5F5F5F5F5F5F5F5F5F5F5F5F5F5F5F5F5F5F5F5F5F5F5F5F5F5F5F5F5F5F5F5F5F5F5F5F5F5F5F5F5F5F5F5F5F5F5F5F5F5F5F5F5F5F5F5F5F5F5F5F5F5F5F5F5F5
310
F5F5F5F5F5F5F5E2F5F5F5F5F5F5F5F5F5F5E2F5E2E2E2E2E2F5F5F5F5F5F5F5F5F5F5F5F5F5F5F5F5F5F5F5F5F5F5F5F5F5F5F5F5F5F5F5F5F5F5F5F5F5F5F5F5F5F5F5F5F5F5F5F5F5F5F5F5F5F5F5F5F5F5F5F5F5F5F5F5F5F5F5F5F5F5F5F5F5F5F5F5F5F5F5F5F5F5F5F5F5F5F5F5F5F5F5F5F5F5F5F5F5F5F5F5F5F5
310
F5F5F5F5F5F5F5F5F5F5F5F5F5F5F5F5F5F5F5F5F5F5F5F5F5F5F5F5F5F5F5F5F5F5F5F5F5F5F5F5F5F5F5F5F5F5F5F5F5F5F5F5F5F5F5F5F5F5F5F5E2F5F5F5F5F5F5F5F5F5F5E2F5E2E2E2E2E2F5F5F5F5F5F5F5F5F5F5F5F5F5F5F5F5F5F5F5F5F5F5F5F5F5F5F5F5F5F5F5F5F5F5F5F5F5F5F5F5F5F5F5F5F5F5F5F5F5
310
F5F5F5F5F5F5F5F5F5F5F5F5F5F5F5F5F5F5F5F5F5F5F5F5F5F5F5F5F5F5F5F5F5F5F5F5F5F5F5F5F5F5F5F5F5F5F5F5F5F5F5F5F5F5F5F5F5F5F5F5F5F5F5F5F5F5F5F5F5F5F5F5F5F5F5F5F5F5F5F5F5F5F5F5F5F5F5F5F5F5F5F5F5F5F5F5F5F5F5F5F5F5F5F5F5F5F5F5F5F5F5F5F5E2F5F5F5F5F5F5F5F5F5F5E2F5E2
310
E2E2E2E2F5F5F5F5F5F5F5F5F5F5F5F5F5F5F5F5F5F5F5F5F5F5F5F5F5F5F5F5F5F5F5F5F5F5F5F5F5F5F5F5F5F5F5F5F5F5F5F5F5F5F5F5F5F5F5F5F5F5F5F5F5F5F5F5F5F5F5F5F5F5F5F5F5F5F5F5F5F5F5F5F5F5F5F5F5F5F5F5F5F5F5F5F5F5F5F5F5F5F5F5F5F5F5F5F5F5F5F5F5F5F5F5F5F5F5F5F5F5F5F5F5F5F5
310
F5F5F5F5F5F5F5F5F5F5F5F5F5F5F5F5F5F5F5F5F5F5F5F5F5F5F5F5F5F5F5F5F5F5F5F5F5F5F5E2F5F5F5F5F5F5F5F5F5F5E2F5E2E2E2E2E2F5F5F5F5F5F5F5F5F5F5F5F5F5F5F5F5F5F5F5F5F5F5F5F5F5F5F5F5F5F5F5F5F5F5F5F5F5F5F5F5F5F5F5F5F5F5F5F5F5F5F5F5F5F5F5F5F5F5F5F5F5F5F5F5F5F5F5F5F5F5
310
F5F5F5F5F5F5F5F5F5F5F5F5F5F5F5F5F5F5F5F5F5F5F5F5F5F5F5F5F5F5F5F5F5F5F5F5F5F5F5F5F5F5F5F5F5F5F5F5F5F5F5F5F5F5F5F5F5F5F5F5F5F5F5F5F5F5F5F5F5F5F5F5F5F5F5F5F5F5F5F5F5F5F5F5F5F5F5F5F5F5F5F5E2F5F5F5F5F5F5F5F5F5F5E2F5E2E2E2E2E2F5F5F5F5F5F5F5F5F5F5F5F5F5F5F5F5F5
310
F5F5F5F5F5F5F5F5F5F5F5F5F5F5F5F5F5F5F5F5F5F5F5F5F5F5F5F5F5F5F5F5F5F5F5F5F5F5F5F5F5F5F5F5F5F5F5F5F5F5F5F5F5F5F5F5F5F5F5F5F5F5F5F5F5F5F5F5F5F5F5F5F5F5F5F5F5F5F5F5F5F5F5F5F5F5F5F5F5F5F5F5F5F5F5F5F5F5F5F5F5F5F5F5F5F5F5F5F5F5F5F5F5F5F5F5F5F5F5F5F5F5F5F5F5F5F5
310
F5F5F5F5F5F5F5F5F5F5F5F5F5F5F5F5F5F5E2F5F5F5F5F5F5F5F5F5F5E2F5E2E2E2E2E2F5F5F5F5F5F5F5F5F5F5F5F5F5F5F5F5F5F5F5F5F5F5F5F5F5F5F5F5F5F5F5F5F5F5F5F5F5F5F5F5F5F5F5F5F5F5F5F5F5F5F5F5F5F5F5F5F5F5F5F5F5F5F5F5F5F5F5F5F5F5F5F5F5F5F5F5F5F5F5F5F5F5F5F5F5F5F5F5F5F5F5
310
F5F5F5F5F5F5F5F5F5F5F5F5F5F5F5F5F5F5F5F5F5F5F5F5F5F5F5F5F5F5F5F5F5F5F5F5F5F5F5F5F5F5F5F5F5F5F5F5F5F5F5F5F5F5F5F5F5F5F5F5F5F5F5F5F5F5F5F5F5F5F5E2F5F5F5F5F5F5F5F5F5F5E2F5E2E2E2E2E2F5F5F5F5F5F5F5F5F5F5F5F5F5F5F5F5F5F5F5F5F5F5F5F5F5F5F5F5F5F5F5F5F5F5F5F5F5F5
310
F5F5F5F5F5F5F5F5F5F5F5F5F5F5F5F5F5F5F5F5F5F5F5F5F5F5F5F5F5F5F5F5F5F5F5F5F5F5F5F5F5F5F5F5F5F5F5F5F5F5F5F5F5F5F5F5F5F5F5F5F5F5F5F5F5F5F5F5F5F5F5F5F5F5F5F5F5F5F5F5F5F5F5F5F5F5F5F5F5F5F5F5F5F5F5F5F5F5F5F5F5F5F5F5F5F5F5F5F5F5F5F5F5F5F5F5F5F5F5F5F5F5F5F5E2F5F5
310
F5F5F5F5F5F5F5F5E2F5E2E2E2E2E2F5F5F5F5F5F5F5F5F5F5F5F5F5F5F5F5F5F5F5F5F5F5F5F5F5F5F5F5F5F5F5F5F5F5F5F5F5F5F5F5F5F5F5F5F5F5F5F5F5F5F5F5F5F5F5F5F5F5F5F5F5F5F5F5F5F5F5F5F5F5F5F5F5F5F5F5F5F5F5F5F5F5F5F5F5F5F5F5F5F5F5F5F5F5F5F5F5F5F5F5F5F5F5F5F5F5F5F5F5F5F5F5
310
F5F5F5F5F5F5F5F5F5F5F5F5F5F5F5F5F5F5F5F5F5F5F5F5F5F5F5F5F5F5F5F5F5F5F5F5F5F5F5F5F5F5F5F5F5F5F5F5F5F5E2F5F5F5F5F5F5F5F5F5F5E2F5E2E2E2E2E2F5F5F5F5F5F5F5F5F5F5F5F5F5F5F5F5F5F5F5F5F5F5F5F5F5F5F5F5F5F5F5F5F5F5F5F5F5F5F5F5F5F5F5F5F5F5F5F5F5F5F5F5F5F5F5F5F5F5F5
310
F5F5F5F5F5F5F5F5F5F5F5F5F5F5F5F5F5F5F5F5F5F5F5F5F5F5F5F5F5F5F5F5F5F5F5F5F5F5F5F5F5F5F5F5F5F5F5F5F5F5F5F5F5F5F5F5F5F5F5F5F5F5F5F5F5F5F5F5F5F5F5F5F5F5F5F5F5F5F5F5F5F5F5F5F5F5F5F5F5F5F5F5F5F5F5F5F5F5F5F5F5F5F5E2F5F5F5F5F5F5F5F5F5F5E2F5E2E2E2E2E2F5F5F5F5F5F5
310
F5F5F5F5F5F5F5F5F5F5F5F5F5F5F5F5F5F5F5F5F5F5F5F5F5F5F5F5F5F5F5F5F5F5F5F5F5F5F5F5F5F5F5F5F5F5F5F5F5F5F5F5F5F5F5F5F5F5F5F5F5F5F5F5F5F5F5F5F5F5F5F5F5F5F5F5F5F5F5F5F5F5F5F5F5F5F5F5F5F5F5F5F5F5F5F5F5F5F5F5F5F5F5F5F5F5F5F5F5F5F5F5F5F5F5F5F5F5F5F5F5F5F5F5F5F5F5
310
F5F5F5F5F5F5F5F5F5F5F5F5F5F5F5F5F5F5F5F5F5F5F5F5F5F5F5F5F5E2F5F5F5F5F5F5F5F5F5F5E2F5E2E2E2E2E2F5F5F5F5F5F5F5F5F5F5F5F5F5F5F5F5F5F5F5F5F5F5F5F5F5F5F5F5F5F5F5F5F5F5F5F5F5F5F5F5F5F5F5F5F5F5F5F5F5F5F5F5F5F5F5F5F5F5F5F5F5F5F5F5F5F5F5F5F5F5F5F5F5F5F5F5F5F5F5F5
310
F5F5F5F5F5F5F5F5F5F5F5F5F5F5F5F5F5F5F5F5F5F5F5F5F5F5F5F5F5F5F5F5F5F5F5F5F5F5F5F5F5F5F5F5F5F5F5F5F5F5F5F5F5F5F5F5F5F5F5F5F5F5F5F5F5F5F5F5F5F5F5F5F5F5F5F5F5F5F5F5F5F5E2F5F5F5F5F5F5F5F5F5F5E2F5E2E2E2E2E2F5F5F5F5F5F5F5F5F5F5F5F5F5F5F5F5F5F5F5F5F5F5F5F5F5F5F5
310
F5F5F5F5F5F5F5F5F5F5F5F5F5F5F5F5F5F5F5F5F5F5F5F5F5F5F5F5F5F5F5F5F5F5F5F5F5F5F5F5F5F5F5F5F5F5F5F5F5F5F5F5F5F5F5F5F5F5F5F5F5F5F5F5F5F5F5F5F5F5F5F5F5F5F5F5F5F5F5F5F5F5F5F5F5F5F5F5F5F5F5F5F5F5F5F5F5F5F5F5F5F5F5F5F5F5F5F5F5F5F5F5F5F5F5F5F5F5F5F5F5F5F5F5F5F5F5
310
F5F5F5F5F5F5F5F5E2F5F5F5F5F5F5F5F5F5F5E2F5E2E2E2E2E2F5F5F5F5F5F5F5F5F5F5F5F5F5F5F5F5F5F5F5F5F5F5F5F5F5F5F5F5F5F5F5F5F5F5F5F5F5F5F5F5F5F5F5F5F5F5F5F5F5F5F5F5F5F5F5F5F5F5F5F5F5F5F5F5F5F5F5F5F5F5F5F5F5F5F5F5F5F5F5F5F5F5F5F5F5F5F5F5F5F5F5F5F5F5F5F5F5F5F5F5F5
310
F5F5F5F5F5F5F5F5F5F5F5F5F5F5F5F5F5F5F5F5F5F5F5F5F5F5F5F5F5F5F5F5F5F5F5F5F5F5F5F5F5F5F5F5F5F5F5F5F5F5F5F5F5F5F5F5F5F5F5F5F5E2F5F5F5F5F5F5F5F5F5F5E2F5E2E2E2E2E2F5F5F5F5F5F5F5F5F5F5F5F5F5F5F5F5F5F5F5F5F5F5F5F5F5F5F5F5F5F5F5F5F5F5F5F5F5F5F5F5F5F5F5F5F5F5F5F5
310
F5F5F5F5F5F5F5F5F5F5F5F5F5F5F5F5F5F5F5F5F5F5F5F5F5F5F5F5F5F5F5F5F5F5F5F5F5F5F5F5F5F5F5F5F5F5F5F5F5F5F5F5F5F5F5F5F5F5F5F5F5F5F5F5F5F5F5F5F5F5F5F5F5F5F5F5F5F5F5F5F5F5F5F5F5F5F5F5F5F5F5F5F5F5F5F5F5F5F5F5F5F5F5F5F5F5F5F5F5F5F5F5F5F5E2F5F5F5F5F5F5F5F5F5F5E2F5
310
E2E2E2E2E2F5F5F5F5F5F5F5F5F5F5F5F5F5F5F5F5F5F5F5F5F5F5F5F5F5F5F5F5F5F5F5F5F5F5F5F5F5F5F5F5F5F5F5F5F5F5F5F5F5F5F5F5F5F5F5F5F5F5F5F5F5F5F5F5F5F5F5F5F5F5F5F5F5F5F5F5F5F5F5F5F5F5F5F5F5F5F5F5F5F5F5F5F5F5F5F5F5F5F5F5F5F5F5F5F5F5F5F5F5F5F5F5F5F5F5F5F5F5F5F5F5F5
310
F5F5F5F5F5F5F5F5F5F5F5F5F5F5F5F5F5F5F5F5F5F5F5F5F5F5F5F5F5F5F5F5F5F5F5F5F5F5F5F5E2F5F5F5F5F5F5F5F5F5F5E2F5E2E2E2E2F5F5F5F5F5F5F5F5F5F5F5F5F5F5F5F5F5F5F5F5F5F5F5F5F5F5F5F5F5F5F5F5F5F5F5F5F5F5F5F5F5F5F5F5F5F5F5F5F5F5F5F5F5F5F5F5F5F5F5F5F5F5F5F5F5F5F5F5F5F5
310
F5F5F5F5F5F5F5F5F5F5F5F5F5F5F5F5F5F5F5F5F5F5F5F5F5F5F5F5F5F5F5F5F5F5F5F5F5F5F5F5F5F5F5F5F5F5F5F5F5F5F5F5F5F5F5F5F5F5F5F5F5F5F5F5F5F5F5F5F5F5F5F5F5F5F5F5F5F5F5F5F5F5F5F5F5F5F5F5F5F5F5F5F5E2F5F5F5F5F5F5F5F5F5F5F5F5E2E2E2E2F5F5F5F5F5F5F5F5F5F5F5F5F5F5F5F5F5
310
F5F5F5F5F5F5F5F5F5F5F5F5F5F5F5F5F5F5F5F5F5F5F5F5F5F5F5F5F5F5F5F5F5F5F5F5F5F5F5F5F5F5F5F5F5F5F5F5F5F5F5F5F5F5F5F5F5F5F5F5F5F5F5F5F5F5F5F5F5F5F5F5F5F5F5F5F5F5F5F5F5F5F5F5F5F5F5F5F5F5F5F5F5F5F5F5F5F5F5F5F5F5F5F5F5F5F5F5F5F5F5F5F5F5F5F5F5F5F5F5F5F5F5F5F5F5F5
310
F5F5F5F5F5F5F5F5F5F5F5F5F5F5F5F5F5F5F5E2F5F5F5F5F5F5F5F5F5F5F5F5E2E2E2E2F5F5F5F5F5F5F5F5F5F5F5F5F5F5F5F5F5F5F5F5F5F5F5F5F5F5F5F5F5F5F5F5F5F5F5F5F5F5F5F5F5F5F5F5F5F5F5F5F5F5F5F5F5F5F5F5F5F5F5F5F5F5F5F5F5F5F5F5F5F5F5F5F5F5F5F5F5F5F5F5F5F5F5F5F5F5F5F5F5F5F5
310
F5F5F5F5F5F5F5F5F5F5F5F5F5F5F5F5F5F5F5F5F5F5F5F5F5F5F5F5F5F5F5F5F5F5F5F5F5F5F5F5F5F5F5F5F5F5F5F5F5F5F5F5F5F5F5F5F5F5F5F5F5F5F5F5F5F5F5F5F5F5F5F5E2F5F5F5F5F5F5F5F5F5F5F5F5E2E2E2E2F5F5F5F5F5F5F5F5F5F5F5F5F5F5F5F5F5F5F5F5F5F5F5F5F5F5F5F5F5F5F5F5F5F5F5F5F5F5
310
F5F5F5F5F5F5F5F5F5F5F5F5F5F5F5F5F5F5F5F5F5F5F5F5F5F5F5F5F5F5F5F5F5F5F5F5F5F5F5F5F5F5F5F5F5F5F5F5F5F5F5F5F5F5F5F5F5F5F5F5F5F5F5F5F5F5F5F5F5F5F5F5F5F5F5F5F5F5F5F5F5F5F5F5F5F5F5F5F5F5F5F5F5F5F5F5F5F5F5F5F5F5F5F5F5F5F5F5F5F5F5F5F5F5F5F5F5F5F5F5F5F5F5F5F5E2F5
310
F5F5F5F5F5F5F5F5F5F5F5E2E2E2E2F5F5F5F5F5F5F5F5F5F5F5F5F5F5F5F5F5F5F5F5F5F5F5F5F5F5F5F5F5F5F5F5F5F5F5F5F5F5F5F5F5F5F5F5F5F5F5F5F5F5F5F5F5F5F5F5F5F5F5F5F5F5F5F5F5F5F5F5F5F5F5F5F5F5F5F5F5F5F5F5F5F5F5F5F5F5F5F5F5F5F5F5F5F5F5F5F5F5F5F5F5F5F5F5F5F5F5F5F5F5F5F5
310
F5F5F5F5F5F5F5F5F5F5F5F5F5F5F5F5F5F5F5F5F5F5F5F5F5F5F5F5F5F5F5F5F5F5F5F5F5F5F5F5F5F5F5F5F5F5F5F5F5F5F5E2F5F5F5F5F5F5F5F5F5F5F5F5E2E2E2E2F5F5F5F5F5F5F5F5F5F5F5F5F5F5F5F5F5F5F5F5F5F5F5F5F5F5F5F5F5F5F5F5F5F5F5F5F5F5F5F5F5F5F5F5F5F5F5F5F5F5F5F5F5F5F5F5F5F5F5
310
F5F5F5F5F5F5F5F5F5F5F5F5F5F5F5F5F5F5F5F5F5F5F5F5F5F5F5F5F5F5F5F5F5F5F5F5F5F5F5F5F5F5F5F5F5F5F5F5F5F5F5F5F5F5F5F5F5F5F5F5F5F5F5F5F5F5F5F5F5F5F5F5F5F5F5F5F5F5F5F5F5F5F5F5F5F5F5F5F5F5F5F5F5F5F5F5F5F5F5F5F5F5F5F5E2F5F5F5F5F5F5F5F5F5F5F5F5E2E2E2E2F5F5F5F5F5F5
310
F5F5F5F5F5F5F5F5F5F5F5F5F5F5F5F5F5F5F5F5F5F5F5F5F5F5F5F5F5F5F5F5F5F5F5F5F5F5F5F5F5F5F5F5F5F5F5F5F5F5F5F5F5F5F5F5F5F5F5F5F5F5F5F5F5F5F5F5F5F5F5F5F5F5F5F5F5F5F5F5F5F5F5F5F5F5F5F5F5F5F5F5F5F5F5F5F5F5F5F5F5F5F5F5F5F5F5F5F5F5F5F5F5F5F5F5F5F5F5F5F5F5F5F5F5F5F5
310
F5F5F5F5F5F5F5F5F5F5F5F5F5F5F5F5F5F5F5F5F5F5F5F5F5F5F5F5F5F5E2F5F5F5F5F5F5F5F5F5F5F5F5E2E2E2E2F5F5F5F5F5F5F5F5F5F5F5F5F5F5F5F5F5F5F5F5F5F5F5F5F5F5F5F5F5F5F5F5F5F5F5F5F5F5F5F5F5F5F5F5F5F5F5F5F5F5F5F5F5F5F5F5F5F5F5F5F5F5F5F5F5F5F5F5F5F5F5F5F5F5F5F5F5F5F5F5
310
F5F5F5F5F5F5F5F5F5F5F5F5F5F5F5F5F5F5F5F5F5F5F5F5F5F5F5F5F5F5F5F5F5F5F5F5F5F5F5F5F5F5F5F5F5F5F5F5F5F5F5F5F5F5F5F5F5F5F5F5F5F5F5F5F5F5F5F5F5F5F5F5F5F5F5F5F5F5F5F5F5F5F5E2F5F5F5F5F5F5F5F5F5F5F5F5E2E2E2E2E2F5F5F5F5F5F5F5F5F5F5F5F5F5F5F5F5F5F5F5F5F5F5F5F5F5F5
310
F5F5F5F5F5F5F5F5F5F5F5F5F5F5F5F5F5F5F5F5F5F5F5F5F5F5F5F5F5F5F5F5F5F5F5F5F5F5F5F5F5F5F5F5F5F5F5F5F5F5F5F5F5F5F5F5F5F5F5F5F5F5F5F5F5F5F5F5F5F5F5F5F5F5F5F5F5F5F5F5F5F5F5F5F5F5F5F5F5F5F5F5F5F5F5F5F5F5F5F5F5F5F5F5F5F5F5F5F5F5F5F5F5F5F5F5F5F5F5F5F5F5F5F5F5F5F5
310
F5F5F5F5F5F5F5F5F5E2F5F5F5F5F5F5F5F5F5F5E2F5E2E2E2E2E2F5F5F5F5F5F5F5F5F5F5F5F5F5F5F5F5F5F5F5F5F5F5F5F5F5F5F5F5F5F5F5F5F5F5F5F5F5F5F5F5F5F5F5F5F5F5F5F5F5F5F5F5F5F5F5F5F5F5F5F5F5F5F5F5F5F5F5F5F5F5F5F5F5F5F5F5F5F5F5F5F5F5F5F5F5F5F5F5F5F5F5F5F5F5F5F5F5F5F5F5
310
F5F5F5F5F5F5F5F5F5F5F5F5F5F5F5F5F5F5F5F5F5F5F5F5F5F5F5F5F5F5F5F5F5F5F5F5F5F5F5F5F5F5F5F5F5F5F5F5F5F5F5F5F5F5F5F5F5F5F5F5F5F5E2F5F5F5F5F5F5F5F5F5F5E2F5E2E2E2E2E2F5F5F5F5F5F5F5F5F5F5F5F5F5F5F5F5F5F5F5F5F5F5F5F5F5F5F5F5F5F5F5F5F5F5F5F5F5F5F5F5F5F5F5F5F5F5F5
310
F5F5F5F5F5F5F5F5F5F5F5F5F5F5F5F5F5F5F5F5F5F5F5F5F5F5F5F5F5F5F5F5F5F5F5F5F5F5F5F5F5F5F5F5F5F5F5F5F5F5F5F5F5F5F5F5F5F5F5F5F5F5F5F5F5F5F5F5F5F5F5F5F5F5F5F5F5F5F5F5F5F5F5F5F5F5F5F5F5F5F5F5F5F5F5F5F5F5F5F5F5F5F5F5F5F5F5F5F5F5F5F5F5F5F5E2F5F5F5F5F5F5F5F5F5F5E2
310
F5E2E2E2E2E2F5F5F5F5F5F5F5F5F5F5F5F5F5F5F5F5F5F5F5F5F5F5F5F5F5F5F5F5F5F5F5F5F5F5F5F5F5F5F5F5F5F5F5F5F5F5F5F5F5F5F5F5F5F5F5F5F5F5F5F5F5F5F5F5F5F5F5F5F5F5F5F5F5F5F5F5F5F5F5F5F5F5F5F5F5F5F5F5F5F5F5F5F5F5F5F5F5F5F5F5F5F5F5F5F5F5F5F5F5F5F5F5F5F5F5F5F5F5F5F5F5
310
F5F5F5F5F5F5F5F5F5F5F5F5F5F5F5F5F5F5F5F5F5F5F5F5F5F5F5F5F5F5F5F5F5F5F5F5F5F5F5F5F5E2F5F5F5F5F5F5F5F5F5F5E2F5E2E2E2E2E2F5F5F5F5F5F5F5F5F5F5F5F5F5F5F5F5F5F5F5F5F5F5F5F5F5F5F5F5F5F5F5F5F5F5F5F5F5F5F5F5F5F5F5F5F5F5F5F5F5F5F5F5F5F5F5F5F5F5F5F5F5F5F5F5F5F5F5F5
310
F5F5F5F5F5F5F5F5F5F5F5F5F5F5F5F5F5F5F5F5F5F5F5F5F5F5F5F5F5F5F5F5F5F5F5F5F5F5F5F5F5F5F5F5F5F5F5F5F5F5F5F5F5F5F5F5F5F5F5F5F5F5F5F5F5F5F5F5F5F5F5F5F5F5F5F5F5F5F5F5F5F5F5F5F5F5F5F5F5F5F5F5F5F5E2F5F5F5F5F5F5F5F5F5F5E2F5E2E2E2E2E2F5F5F5F5F5F5F5F5F5F5F5F5F5F5F5
310
F5F5F5F5F5F5F5F5F5F5F5F5F5F5F5F5F5F5F5F5F5F5F5F5F5F5F5F5F5F5F5F5F5F5F5F5F5F5F5F5F5F5F5F5F5F5F5F5F5F5F5F5F5F5F5F5F5F5F5F5F5F5F5F5F5F5F5F5F5F5F5F5F5F5F5F5F5F5F5F5F5F5F5F5F5F5F5F5F5F5F5F5F5F5F5F5F5F5F5F5F5F5F5F5F5F5F5F5F5F5F5F5F5F5F5F5F5F5F5F5F5F5F5F5F5F5F5
310
F5F5F5F5F5F5F5F5F5F5F5F5F5F5F5F5F5F5F5F5E2F5F5F5F5F5F5F5F5F5F5E2F5E2E2E2E2E2F5F5F5F5F5F5F5F5F5F5F5F5F5F5F5F5F5F5F5F5F5F5F5F5F5F5F5F5F5F5F5F5F5F5F5F5F5F5F5F5F5F5F5F5F5F5F5F5F5F5F5F5F5F5F5F5F5F5F5F5F5F5F5F5F5F5F5F5F5F5F5F5F5F5F5F5F5F5F5F5F5F5F5F5F5F5F5F5F5
310
F5F5F5F5F5F5F5F5F5F5F5F5F5F5F5F5F5F5F5F5F5F5F5F5F5F5F5F5F5F5F5F5F5F5F5F5F5F5F5F5F5F5F5F5F5F5F5F5F5F5F5F5F5F5F5F5F5F5F5F5F5F5F5F5F5F5F5F5F5F5F5F5F5E2F5F5F5F5F5F5F5F5F5F5E2F5E2E2E2E2E2F5F5F5F5F5F5F5F5F5F5F5F5F5F5F5F5F5F5F5F5F5F5F5F5F5F5F5F5F5F5F5F5F5F5F5F5
310
F5F5F5F5F5F5F5F5F5F5F5F5F5F5F5F5F5F5F5F5F5F5F5F5F5F5F5F5F5F5F5F5F5F5F5F5F5F5F5F5F5F5F5F5F5F5F5F5F5F5F5F5F5F5F5F5F5F5F5F5F5F5F5F5F5F5F5F5F5F5F5F5F5F5F5F5F5F5F5F5F5F5F5F5F5F5F5F5F5F5F5F5F5F5F5F5F5F5F5F5F5F5F5F5F5F5F5F5F5F5F5F5F5F5F5F5F5F5F5F5F5F5F5F5F5F5E2
310
F5F5F5F5F5F5F5F5F5F5E2F5E2E2E2E2E2F5F5F5F5F5F5F5F5F5F5F5F5F5F5F5F5F5F5F5F5F5F5F5F5F5F5F5F5F5F5F5F5F5F5F5F5F5F5F5F5F5F5F5F5F5F5F5F5F5F5F5F5F5F5F5F5F5F5F5F5F5F5F5F5F5F5F5F5F5F5F5F5F5F5F5F5F5F5F5F5F5F5F5F5F5F5F5F5F5F5F5F5F5F5F5F5F5F5F5F5F5F5F5F5F5F5F5F5F5F5
310
F5F5F5F5F5F5F5F5F5F5F5F5F5F5F5F5F5F5F5F5F5F5F5F5F5F5F5F5F5F5F5F5F5F5F5F5F5F5F5F5F5F5F5F5F5F5F5F5F5F5F5F5E2F5F5F5F5F5F5F5F5F5F5E2F5E2E2E2E2E2F5F5F5F5F5F5F5F5F5F5F5F5F5F5F5F5F5F5F5F5F5F5F5F5F5F5F5F5F5F5F5F5F5F5F5F5F5F5F5F5F5F5F5F5F5F5F5F5F5F5F5F5F5F5F5F5F5
310
F5F5F5F5F5F5F5F5F5F5F5F5F5F5F5F5F5F5F5F5F5F5F5F5F5F5F5F5F5F5F5F5F5F5F5F5F5F5F5F5F5F5F5F5F5F5F5F5F5F5F5F5F5F5F5F5F5F5F5F5F5F5F5F5F5F5F5F5F5F5F5F5F5F5F5F5F5F5F5F5F5F5F5F5F5F5F5F5F5F5F5F5F5F5F5F5F5F5F5F5F5F5F5F5F5E2F5F5F5F5F5F5F5F5F5F5E2F5E2E2E2E2E2F5F5F5F5
310
F5F5F5F5F5F5F5F5F5F5F5F5F5F5F5F5F5F5F5F5F5F5F5F5F5F5F5F5F5F5F5F5F5F5F5F5F5F5F5F5F5F5F5F5F5F5F5F5F5F5F5F5F5F5F5F5F5F5F5F5F5F5F5F5F5F5F5F5F5F5F5F5F5F5F5F5F5F5F5F5F5F5F5F5F5F5F5F5F5F5F5F5F5F5F5F5F5F5F5F5F5F5F5F5F5F5F5F5F5F5F5F5F5F5F5F5F5F5F5F5F5F5F5F5F5F5F5
310
F5F5F5F5F5F5F5F5F5F5F5F5F5F5F5F5F5F5F5F5F5F5F5F5F5F5F5F5F5F5F5E2F5F5F5F5F5F5F5F5F5F5E2F5E2E2E2E2E2F5F5F5F5F5F5F5F5F5F5F5F5F5F5F5F5F5F5F5F5F5F5F5F5F5F5F5F5F5F5F5F5F5F5F5F5F5F5F5F5F5F5F5F5F5F5F5F5F5F5F5F5F5F5F5F5F5F5F5F5F5F5F5F5F5F5F5F5F5F5F5F5F5F5F5F5F5F5
310
F5F5F5F5F5F5F5F5F5F5F5F5F5F5F5F5F5F5F5F5F5F5F5F5F5F5F5F5F5F5F5F5F5F5F5F5F5F5F5F5F5F5F5F5F5F5F5F5F5F5F5F5F5F5F5F5F5F5F5F5F5F5F5F5F5F5F5F5F5F5F5F5F5F5F5F5F5F5F5F5F5F5F5F5E2F5F5F5F5F5F5F5F5F5F5E2F5E2E2E2E2E2F5F5F5F5F5F5F5F5F5F5F5F5F5F5F5F5F5F5F5F5F5F5F5F5F5
310
F5F5F5F5F5F5F5F5F5F5F5F5F5F5F5F5F5F5F5F5F5F5F5F5F5F5F5F5F5F5F5F5F5F5F5F5F5F5F5F5F5F5F5F5F5F5F5F5F5F5F5F5F5F5F5F5F5F5F5F5F5F5F5F5F5F5F5F5F5F5F5F5F5F5F5F5F5F5F5F5F5F5F5F5F5F5F5F5F5F5F5F5F5F5F5F5F5F5F5F5F5F5F5F5F5F5F5F5F5F5F5F5F5F5F5F5F5F5F5F5F5F5F5F5F5F5F5
310
F5F5F5F5F5F5F5F5F5F5E2F5F5F5F5F5F5F5F5F5F5E2F5E2E2E2E2E2F5F5F5F5F5F5F5F5F5F5F5F5F5F5F5F5F5F5F5F5F5F5F5F5F5F5F5F5F5F5F5F5F5F5F5F5F5F5F5F5F5F5F5F5F5F5F5F5F5F5F5F5F5F5F5F5F5F5F5F5F5F5F5F5F5F5F5F5F5F5F5F5F5F5F5F5F5F5F5F5F5F5F5F5F5F5F5F5F5F5F5F5F5F5F5F5F5F5F5
310
F5F5F5F5F5F5F5F5F5F5F5F5F5F5F5F5F5F5F5F5F5F5F5F5F5F5F5F5F5F5F5F5F5F5F5F5F5F5F5F5F5F5F5F5F5F5F5F5F5F5F5F5F5F5F5F5F5F5F5F5F5F5F5E2F5F5F5F5F5F5F5F5F5F5E2F5E2E2E2E2E2F5F5F5F5F5F5F5F5F5F5F5F5F5F5F5F5F5F5F5F5F5F5F5F5F5F5F5F5F5F5F5F5F5F5F5F5F5F5F5F5F5F5F5F5F5F5
310
F5F5F5F5F5F5F5F5F5F5F5F5F5F5F5F5F5F5F5F5F5F5F5F5F5F5F5F5F5F5F5F5F5F5F5F5F5F5F5F5F5F5F5F5F5F5F5F5F5F5F5F5F5F5F5F5F5F5F5F5F5F5F5F5F5F5F5F5F5F5F5F5F5F5F5F5F5F5F5F5F5F5F5F5F5F5F5F5F5F5F5F5F5F5F5F5F5F5F5F5F5F5F5F5F5F5F5F5F5F5F5F5F5F5F5F5E2F5F5F5F5F5F5F5F5F5F5
310
E2F5E2E2E2E2E2F5F5F5F5F5F5F5F5F5F5F5F5F5F5F5F5F5F5F5F5F5F5F5F5F5F5F5F5F5F5F5F5F5F5F5F5F5F5F5F5F5F5F5F5F5F5F5F5F5F5F5F5F5F5F5F5F5F5F5F5F5F5F5F5F5F5F5F5F5F5F5F5F5F5F5F5F5F5F5F5F5F5F5F5F5F5F5F5F5F5F5F5F5F5F5F5F5F5F5F5F5F5F5F5F5F5F5F5F5F5F5F5F5F5F5F5F5F5F5F5
310
F5F5F5F5F5F5F5F5F5F5F5F5F5F5F5F5F5F5F5F5F5F5F5F5F5F5F5F5F5F5F5F5F5F5F5F5F5F5F5F5F5F5E2F5F5F5F5F5F5F5F5F5F5E2F5E2E2E2E2F5F5F5F5F5F5F5F5F5F5F5F5F5F5F5F5F5F5F5F5F5F5F5F5F5F5F5F5F5F5F5F5F5F5F5F5F5F5F5F5F5F5F5F5F5F5F5F5F5F5F5F5F5F5F5F5F5F5F5F5F5F5F5F5F5F5F5F5
310
F5F5F5F5F5F5F5F5F5F5F5F5F5F5F5F5F5F5F5F5F5F5F5F5F5F5F5F5F5F5F5F5F5F5F5F5F5F5F5F5F5F5F5F5F5F5F5F5F5F5F5F5F5F5F5F5F5F5F5F5F5F5F5F5F5F5F5F5F5F5F5F5F5F5F5F5F5F5F5F5F5F5F5F5F5F5F5F5F5F5F5F5F5F5F5E2F5F5F5F5F5F5F5F5F5F5F5F5E2E2E2E2F5F5F5F5F5F5F5F5F5F5F5F5F5F5F5
310
F5F5F5F5F5F5F5F5F5F5F5F5F5F5F5F5F5F5F5F5F5F5F5F5F5F5F5F5F5F5F5F5F5F5F5F5F5F5F5F5F5F5F5F5F5F5F5F5F5F5F5F5F5F5F5F5F5F5F5F5F5F5F5F5F5F5F5F5F5F5F5F5F5F5F5F5F5F5F5F5F5F5F5F5F5F5F5F5F5F5F5F5F5F5F5F5F5F5F5F5F5F5F5F5F5F5F5F5F5F5F5F5F5F5F5F5F5F5F5F5F5F5F5F5F5F5F5
310
F5F5F5F5F5F5F5F5F5F5F5F5F5F5F5F5F5F5F5F5F5E2F5F5F5F5F5F5F5F5F5F5F5F5E2E2E2E2F5F5F5F5F5F5F5F5F5F5F5F5F5F5F5F5F5F5F5F5F5F5F5F5F5F5F5F5F5F5F5F5F5F5F5F5F5F5F5F5F5F5F5F5F5F5F5F5F5F5F5F5F5F5F5F5F5F5F5F5F5F5F5F5F5F5F5F5F5F5F5F5F5F5F5F5F5F5F5F5F5F5F5F5F5F5F5F5F5
310
F5F5F5F5F5F5F5F5F5F5F5F5F5F5F5F5F5F5F5F5F5F5F5F5F5F5F5F5F5F5F5F5F5F5F5F5F5F5F5F5F5F5F5F5F5F5F5F5F5F5F5F5F5F5F5F5F5F5F5F5F5F5F5F5F5F5F5F5F5F5F5F5F5F5E2F5F5F5F5F5F5F5F5F5F5F5F5E2E2E2E2F5F5F5F5F5F5F5F5F5F5F5F5F5F5F5F5F5F5F5F5F5F5F5F5F5F5F5F5F5F5F5F5F5F5F5F5
310
F5F5F5F5F5F5F5F5F5F5F5F5F5F5F5F5F5F5F5F5F5F5F5F5F5F5F5F5F5F5F5F5F5F5F5F5F5F5F5F5F5F5F5F5F5F5F5F5F5F5F5F5F5F5F5F5F5F5F5F5F5F5F5F5F5F5F5F5F5F5F5F5F5F5F5F5F5F5F5F5F5F5F5F5F5F5F5F5F5F5F5F5F5F5F5F5F5F5F5F5F5F5F5F5F5F5F5F5F5F5F5F5F5F5F5F5F5F5F5F5F5F5F5F5F5F5F5
310
E2F5F5F5F5F5F5F5F5F5F5F5F5E2E2E2E2F5F5F5F5F5F5F5F5F5F5F5F5F5F5F5F5F5F5F5F5F5F5F5F5F5F5F5F5F5F5F5F5F5F5F5F5F5F5F5F5F5F5F5F5F5F5F5F5F5F5F5F5F5F5F5F5F5F5F5F5F5F5F5F5F5F5F5F5F5F5F5F5F5F5F5F5F5F5F5F5F5F5F5F5F5F5F5F5F5F5F5F5F5F5F5F5F5F5F5F5F5F5F5F5F5F5F5F5F5F5
310
F5F5F5F5F5F5F5F5F5F5F5F5F5F5F5F5F5F5F5F5F5F5F5F5F5F5F5F5F5F5F5F5F5F5F5F5F5F5F5F5F5F5F5F5F5F5F5F5F5F5F5F5F5E2F5F5F5F5F5F5F5F5F5F5F5F5E2E2E2E2F5F5F5F5F5F5F5F5F5F5F5F5F5F5F5F5F5F5F5F5F5F5F5F5F5F5F5F5F5F5F5F5F5F5F5F5F5F5F5F5F5F5F5F5F5F5F5F5F5F5F5F5F5F5F5F5F5
310
F5F5F5F5F5F5F5F5F5F5F5F5F5F5F5F5F5F5F5F5F5F5F5F5F5F5F5F5F5F5F5F5F5F5F5F5F5F5F5F5F5F5F5F5F5F5F5F5F5F5F5F5F5F5F5F5F5F5F5F5F5F5F5F5F5F5F5F5F5F5F5F5F5F5F5F5F5F5F5F5F5F5F5F5F5F5F5F5F5F5F5F5F5F5F5F5F5F5F5F5F5F5F5F5F5F5E2F5F5F5F5F5F5F5F5F5F5F5F5E2E2E2E2F5F5F5F5
310
F5F5F5F5F5F5F5F5F5F5F5F5F5F5F5F5F5F5F5F5F5F5F5F5F5F5F5F5F5F5F5F5F5F5F5F5F5F5F5F5F5F5F5F5F5F5F5F5F5F5F5F5F5F5F5F5F5F5F5F5F5F5F5F5F5F5F5F5F5F5F5F5F5F5F5F5F5F5F5F5F5F5F5F5F5F5F5F5F5F5F5F5F5F5F5F5F5F5F5F5F5F5F5F5F5F5F5F5F5F5F5F5F5F5F5F5F5F5F5F5F5F5F5F5F5F5F5
310
F5F5F5F5F5F5F5F5F5F5F5F5F5F5F5F5F5F5F5F5F5F5F5F5F5F5F5F5F5F5F5F5E2F5F5F5F5F5F5F5F5F5F5F5F5E2E2E2E2F5F5F5F5F5F5F5F5F5F5F5F5F5F5F5F5F5F5F5F5F5F5F5F5F5F5F5F5F5F5F5F5F5F5F5F5F5F5F5F5F5F5F5F5F5F5F5F5F5F5F5F5F5F5F5F5F5F5F5F5F5F5F5F5F5F5F5F5F5F5F5F5F5F5F5F5F5F5
310
F5F5F5F5F5F5F5F5F5F5F5F5F5F5F5F5F5F5F5F5F5F5F5F5F5F5F5F5F5F5F5F5F5F5F5F5F5F5F5F5F5F5F5F5F5F5F5F5F5F5F5F5F5F5F5F5F5F5F5F5F5F5F5F5F5F5F5F5F5F5F5F5F5F5F5F5F5F5F5F5F5F5F5F5F5E2F5F5F5F5F5F5F5F5F5F5F5F5E2E2E2E2F5F5F5F5F5F5F5F5F5F5F5F5F5F5F5F5F5F5F5F5F5F5F5F5F5
310
F5F5F5F5F5F5F5F5F5F5F5F5F5F5F5F5F5F5F5F5F5F5F5F5F5F5F5F5F5F5F5F5F5F5F5F5F5F5F5F5F5F5F5F5F5F5F5F5F5F5F5F5F5F5F5F5F5F5F5F5F5F5F5F5F5F5F5F5F5F5F5F5F5F5F5F5F5F5F5F5F5F5F5F5F5F5F5F5F5F5F5F5F5F5F5F5F5F5F5F5F5F5F5F5F5F5F5F5F5F5F5F5F5F5F5F5F5F5F5F5F5F5F5F5F5F5F5
310
F5F5F5F5F5F5F5F5F5F5F5E2F5F5F5F5F5F5F5F5F5F5F5F5E2E2E2E2E2F5F5F5F5F5F5F5F5F5F5F5F5F5F5F5F5F5F5F5F5F5F5F5F5F5F5F5F5F5F5F5F5F5F5F5F5F5F5F5F5F5F5F5F5F5F5F5F5F5F5F5F5F5F5F5F5F5F5F5F5F5F5F5F5F5F5F5F5F5F5F5F5F5F5F5F5F5F5F5F5F5F5F5F5F5F5F5F5F5F5F5F5F5F5F5F5F5F5
310
F5F5F5F5F5F5F5F5F5F5F5F5F5F5F5F5F5F5F5F5F5F5F5F5F5F5F5F5F5F5F5F5F5F5F5F5F5F5F5F5F5F5F5F5F5F5F5F5F5F5F5F5F5F5F5F5F5F5F5F5F5F5F5F5E2F5F5F5F5F5F5F5F5F5F5E2F5E2E2E2E2E2F5F5F5F5F5F5F5F5F5F5F5F5F5F5F5F5F5F5F5F5F5F5F5F5F5F5F5F5F5F5F5F5F5F5F5F5F5F5F5F5F5F5F5F5F5
310
F5F5F5F5F5F5F5F5F5F5F5F5F5F5F5F5F5F5F5F5F5F5F5F5F5F5F5F5F5F5F5F5F5F5F5F5F5F5F5F5F5F5F5F5F5F5F5F5F5F5F5F5F5F5F5F5F5F5F5F5F5F5F5F5F5F5F5F5F5F5F5F5F5F5F5F5F5F5F5F5F5F5F5F5F5F5F5F5F5F5F5F5F5F5F5F5F5F5F5F5F5F5F5F5F5F5F5F5F5F5F5F5F5F5F5F5F5E2F5F5F5F5F5F5F5F5F5
310
F5E2F5E2E2E2E2E2F5F5F5F5F5F5F5F5F5F5F5F5F5F5F5F5F5F5F5F5F5F5F5F5F5F5F5F5F5F5F5F5F5F5F5F5F5F5F5F5F5F5F5F5F5F5F5F5F5F5F5F5F5F5F5F5F5F5F5F5F5F5F5F5F5F5F5F5F5F5F5F5F5F5F5F5F5F5F5F5F5F5F5F5F5F5F5F5F5F5F5F5F5F5F5F5F5F5F5F5F5F5F5F5F5F5F5F5F5F5F5F5F5F5F5F5F5F5F5
310
F5F5F5F5F5F5F5F5F5F5F5F5F5F5F5F5F5F5F5F5F5F5F5F5F5F5F5F5F5F5F5F5F5F5F5F5F5F5F5F5F5F5F5E2F5F5F5F5F5F5F5F5F5F5E2F5E2E2E2E2E2E2E2E2E2E2E2E2E2E2E2E2E2E2E2E2E2E2E2E2E2E2E2E2E2E2E2E2E2E2E2E2E2E2E2E2E2E2E2E2E2E2E2E2E2E2E2E2E2E2E2E2E2E2E2E2E2E2E2E2E2E2E2E2E2E2E2
310
E2E2E2E2E2E2E2E2E2E2E2E2E2E2E2E2E2E2E2E2E2E2E2E2E2E2E2E2E2E2E2E2E2E2E2E2E2E2E2E2E2E2E2E2E2E2E2E2E2E2E2E2E2E2E2E2E2E2E2E2E2E2E2E2E2E2E2E2E2E2E2E2E2E2E2E2E2E2E2E2E2E2E2E2E2E2E2E2E2E2E2E2E2E2E2E2E2F5F5F5F5F5F5F5F5F5F5E2F5E2E2E2F5E2F5F5F5F5F5F5F5F5F5F5F5F5F5
310
F5F5F5F5F5F5F5F5F5F5F5F5F5F5F5F5F5F5F5F5F5F5F5F5F5F5F5F5F5F5F5F5F5F5F5F5F5F5F5F5F5F5F5F5F5F5F5F5F5F5F5F5F5F5F5F5F5F5F5F5F5F5F5F5F5F5F5F5F5F5F5F5F5F5F5F5F5F5F5F5F5F5F5F5F5F5F5F5F5F5F5F5F5F5F5F5F5F5F5F5F5F5F5F5F5F5F5F5F5F5F5F5F5F5F5F5F5F5F5F5F5F5F5F5F5F5F5
310
F5F5F5F5F5F5F5F5F5F5F5F5F5F5F5F5F5F5F5F5F5F5F5F5F5F5F5F5F5F5F5F5F5E2F5E2E2E2F5E2F5F5F5F5F5F5F5F5F5F5F5F5F5F5F5F5F5F5F5F5F5F5F5F5F5F5F5F5F5F5F5F5F5F5F5F5F5F5F5F5F5F5F5F5F5F5F5F5F5F5F5F5F5F5F5F5F5F5F5F5F5F5F5F5F5F5F5F5F5F5F5F5F5F5F5F5F5F5F5F5F5F5F5F5F5F5F5
310
F5F5F5F5F5F5F5F5F5F5F5F5F5F5F5F5F5F5F5F5F5F5F5F5F5F5F5F5F5F5F5F5F5F5F5F5F5F5F5F5F5F5F5F5F5F5F5F5F5F5F5F5F5F5F5F5F5F5F5F5F5F5F5F5F5F5F5F5F5F5F5F5F5F5F5F5F5F5F5F5F5F5F5F5F5F5E2F5E2E2E2F5E2F5F5F5F5F5F5F5F5F5F5F5F5F5F5F5F5F5F5F5F5F5F5F5F5F5F5F5F5F5F5F5F5F5F5
310
F5F5F5F5F5F5F5F5F5F5F5F5F5F5F5F5F5F5F5F5F5F5F5F5F5F5F5F5F5F5F5F5F5F5F5F5F5F5F5F5F5F5F5F5F5F5F5F5F5F5F5F5F5F5F5F5F5F5F5F5F5F5F5F5F5F5F5F5F5F5F5F5F5F5F5F5F5F5F5F5F5F5F5F5F5F5F5F5F5F5F5F5F5F5F5F5F5F5F5F5F5F5F5F5F5F5F5F5F5F5F5F5F5F5F5F5F5F5F5F5F5F5F5F5F5F5F5
310
F5F5F5F5F5F5F5F5F5F5F5F5E2F5E2E2E2F5E2E2E2E2E2E2E2E2F5F5F5F5F5F5F5F5F5E2E2E2E2E2E2E2E2E2E2E2E2E2E2E2E2F5F5F5F5F5F5F5F5F5E2E2E2E2E2E2E2E2E2E2E2E2E2E2E2E2F5F5F5F5F5F5F5F5F5E2E2E2E2E2E2E2E2E2E2E2E2E2E2E2E2F5F5F5F5F5F5F5F5F5E2E2E2E2E2E2E2E2E2E2E2E2E2E2E2E2F5
310
F5F5F5F5F5F5F5F5E2E2E2E2E2E2E2E2E2E2E2E2E2E2E2E2F5F5F5F5F5F5F5F5F5E2E2E2E2E2E2E2E2E2E2E2E2E2E2E2E2F5F5F5F5F5F5F5F5F5E2E2E2E2E2E2E2E2F5E2E2E2F5F5F5F5F5F5F5F5F5F5F5F5F5F5F5F5F5F5F5F5F5F5F5F5F5F5F5F5F5F5F5F5F5F5F5F5F5F5F5F5F5F5F5F5F5F5F5F5F5F5F5F5F5F5F5F5F5
310
F5F5F5F5F5F5F5F5F5F5F5F5F5F5F5F5F5F5F5F5F5F5F5F5F5F5F5F5F5F5F5F5F5F5F5F5F5F5F5F5F5F5F5F5F5F5F5F5F5F5F5F5F5F5F5F5F5F5F5F5F5F5F5F5F5F5F5F5F5F5F5F5F5F5F5F5F5F5F5F5F5F5F5F5F5F5F5F5F5F5F5F5F5F5F5F5F5F5F5F5F5F5F5F5F5F5F5F5F5F5F5F5F5F5F5F5F5F5F5F5E2EFE2E2E2E2E2
310
E2E2E2E2E2E2E2E2E2E2E2E2E2E2E2E2E2E2E2E2E2E2E2E2E2E2E2E2E2E2E2E2E2E2E2E2E2E2E2E2E2E2E2E2E2E2E2E2E2E2E2E2E2E2E2E2E2E2E2E2E2E2E2E2E2E2E2E2E2E2E2E2E2E2E2E2E2E2E2E2E2E2E2E2E2E2E2E2E2E2E2E2E2E2E2E2E2E2E2E2E2E2E2E2E2E2E2E2E2E2E2E2E2E2E2E2E2E2E2E2E2E2E2E2E2E2E2
310
E2E2E2E2E2E2E2E2E2E2E2E2E2E2E2E2E2E2E2E2E2E2E2E2E2E2E2E2E2E2E2E2E2E2E2E2E2E2E2E2E2E2E2E2E2E2E2EF
  0
XRECORD
  5
4933
102
{ACAD_REACTORS
330
4932
102
}
330
4932
100
AcDbXrecord
280
     1
102
SHADEPLOT
 70
     0
102
SHADEPLOTRESLEVEL
 70
     2
102
SHADEPLOTCUSTOMDPI
 70
   300
  0
XRECORD
  5
4931
102
{ACAD_REACTORS
330
4930
102
}
330
4930
100
AcDbXrecord
280
     1
102
SHADEPLOT
 70
     0
102
SHADEPLOTRESLEVEL
 70
     2
102
SHADEPLOTCUSTOMDPI
 70
   300
  0
XRECORD
  5
1DA9
102
{ACAD_REACTORS
330
1DA8
102
}
330
1DA8
100
AcDbXrecord
280
     1
102
MATERIAL
148
0.0
149
0.0
149
0.0
 93
        0
 94
       63
282
     0
 72
     1
 77
     1
171
     1
175
     1
179
     1
273
     0
  0
XRECORD
  5
1DA7
102
{ACAD_REACTORS
330
1DA6
102
}
330
1DA6
100
AcDbXrecord
280
     1
102
MATERIAL
148
0.0
149
0.0
149
0.0
 93
        0
 94
       63
282
     0
 72
     1
 77
     1
171
     1
175
     1
179
     1
273
     0
  0
XRECORD
  5
1DAB
102
{ACAD_REACTORS
330
1DAA
102
}
330
1DAA
100
AcDbXrecord
280
     1
102
MATERIAL
148
0.0
149
0.0
149
0.0
 93
        0
 94
       63
282
     0
 72
     1
 77
     1
171
     1
175
     1
179
     1
273
     0
  0
CELLSTYLEMAP
  5
4908
102
{ACAD_REACTORS
330
44AD
102
}
330
44AD
100
AcDbCellStyleMap
 90
        3
300
CELLSTYLE
  1
TABLEFORMAT_BEGIN
 90
        5
170
     1
 91
        0
 92
    32768
 62
   257
 93
        1
300
CONTENTFORMAT
  1
CONTENTFORMAT_BEGIN
 90
        0
 91
        0
 92
      512
 93
        0
300

 40
0.0
140
1.0
 94
        5
 62
     0
340
26
144
6.0
309
CONTENTFORMAT_END
171
     1
301
MARGIN
  1
CELLMARGIN_BEGIN
 40
1.5
 40
1.5
 40
1.5
 40
1.5
 40
0.18
 40
0.18
309
CELLMARGIN_END
 94
        6
 95
        1
302
GRIDFORMAT
  1
GRIDFORMAT_BEGIN
 90
        0
 91
        1
 62
     0
 92
       -2
340
0
 93
        0
 40
0.045
309
GRIDFORMAT_END
 95
        2
302
GRIDFORMAT
  1
GRIDFORMAT_BEGIN
 90
        0
 91
        1
 62
     0
 92
       -2
340
0
 93
        0
 40
0.045
309
GRIDFORMAT_END
 95
        4
302
GRIDFORMAT
  1
GRIDFORMAT_BEGIN
 90
        0
 91
        1
 62
     0
 92
       -2
340
0
 93
        0
 40
0.045
309
GRIDFORMAT_END
 95
        8
302
GRIDFORMAT
  1
GRIDFORMAT_BEGIN
 90
        0
 91
        1
 62
     0
 92
       -2
340
0
 93
        0
 40
0.045
309
GRIDFORMAT_END
 95
       16
302
GRIDFORMAT
  1
GRIDFORMAT_BEGIN
 90
        0
 91
        1
 62
     0
 92
       -2
340
0
 93
        0
 40
0.045
309
GRIDFORMAT_END
 95
       32
302
GRIDFORMAT
  1
GRIDFORMAT_BEGIN
 90
        0
 91
        1
 62
     0
 92
       -2
340
0
 93
        0
 40
0.045
309
GRIDFORMAT_END
309
TABLEFORMAT_END
  1
CELLSTYLE_BEGIN
 90
        1
 91
        1
300
_TITLE
309
CELLSTYLE_END
300
CELLSTYLE
  1
TABLEFORMAT_BEGIN
 90
        5
170
     1
 91
        0
 92
        0
 62
   257
 93
        1
300
CONTENTFORMAT
  1
CONTENTFORMAT_BEGIN
 90
        0
 91
        0
 92
      512
 93
        0
300

 40
0.0
140
1.0
 94
        5
 62
     0
340
26
144
4.5
309
CONTENTFORMAT_END
171
     1
301
MARGIN
  1
CELLMARGIN_BEGIN
 40
1.5
 40
1.5
 40
1.5
 40
1.5
 40
0.18
 40
0.18
309
CELLMARGIN_END
 94
        6
 95
        1
302
GRIDFORMAT
  1
GRIDFORMAT_BEGIN
 90
        0
 91
        1
 62
     0
 92
       -2
340
0
 93
        0
 40
0.045
309
GRIDFORMAT_END
 95
        2
302
GRIDFORMAT
  1
GRIDFORMAT_BEGIN
 90
        0
 91
        1
 62
     0
 92
       -2
340
0
 93
        0
 40
0.045
309
GRIDFORMAT_END
 95
        4
302
GRIDFORMAT
  1
GRIDFORMAT_BEGIN
 90
        0
 91
        1
 62
     0
 92
       -2
340
0
 93
        0
 40
0.045
309
GRIDFORMAT_END
 95
        8
302
GRIDFORMAT
  1
GRIDFORMAT_BEGIN
 90
        0
 91
        1
 62
     0
 92
       -2
340
0
 93
        0
 40
0.045
309
GRIDFORMAT_END
 95
       16
302
GRIDFORMAT
  1
GRIDFORMAT_BEGIN
 90
        0
 91
        1
 62
     0
 92
       -2
340
0
 93
        0
 40
0.045
309
GRIDFORMAT_END
 95
       32
302
GRIDFORMAT
  1
GRIDFORMAT_BEGIN
 90
        0
 91
        1
 62
     0
 92
       -2
340
0
 93
        0
 40
0.045
309
GRIDFORMAT_END
309
TABLEFORMAT_END
  1
CELLSTYLE_BEGIN
 90
        2
 91
        1
300
_HEADER
309
CELLSTYLE_END
300
CELLSTYLE
  1
TABLEFORMAT_BEGIN
 90
        5
170
     1
 91
        0
 92
        0
 62
   257
 93
        1
300
CONTENTFORMAT
  1
CONTENTFORMAT_BEGIN
 90
        0
 91
        0
 92
      512
 93
        0
300

 40
0.0
140
1.0
 94
        2
 62
     0
340
26
144
4.5
309
CONTENTFORMAT_END
171
     1
301
MARGIN
  1
CELLMARGIN_BEGIN
 40
1.5
 40
1.5
 40
1.5
 40
1.5
 40
0.18
 40
0.18
309
CELLMARGIN_END
 94
        6
 95
        1
302
GRIDFORMAT
  1
GRIDFORMAT_BEGIN
 90
        0
 91
        1
 62
     0
 92
       -2
340
0
 93
        0
 40
0.045
309
GRIDFORMAT_END
 95
        2
302
GRIDFORMAT
  1
GRIDFORMAT_BEGIN
 90
        0
 91
        1
 62
     0
 92
       -2
340
0
 93
        0
 40
0.045
309
GRIDFORMAT_END
 95
        4
302
GRIDFORMAT
  1
GRIDFORMAT_BEGIN
 90
        0
 91
        1
 62
     0
 92
       -2
340
0
 93
        0
 40
0.045
309
GRIDFORMAT_END
 95
        8
302
GRIDFORMAT
  1
GRIDFORMAT_BEGIN
 90
        0
 91
        1
 62
     0
 92
       -2
340
0
 93
        0
 40
0.045
309
GRIDFORMAT_END
 95
       16
302
GRIDFORMAT
  1
GRIDFORMAT_BEGIN
 90
        0
 91
        1
 62
     0
 92
       -2
340
0
 93
        0
 40
0.045
309
GRIDFORMAT_END
 95
       32
302
GRIDFORMAT
  1
GRIDFORMAT_BEGIN
 90
        0
 91
        1
 62
     0
 92
       -2
340
0
 93
        0
 40
0.045
309
GRIDFORMAT_END
309
TABLEFORMAT_END
  1
CELLSTYLE_BEGIN
 90
        3
 91
        2
300
_DATA
309
CELLSTYLE_END
1001
ACAD
1000
AcRTDxfName
1000
CELLSTYLEMAP
  0
XRECORD
  5
492E
102
{ACAD_REACTORS
330
44AD
102
}
330
44AD
100
AcDbXrecord
280
     1
102
ACAD_ROUNDTRIP_PRE2007_TABLESTYLE
 90
      512
 91
        0
  1

 92
      512
 93
        0
  2

 94
      512
 95
        0
  3

  0
XRECORD
  5
1D45
102
{ACAD_REACTORS
330
1D44
102
}
330
1D44
100
AcDbXrecord
280
     1
1071
 82437801
1071
112294725
 70
    25
 70
   104
 10
0.0
 20
0.0
 30
0.0
  0
XRECORD
  5
1D48
102
{ACAD_REACTORS
330
1D47
102
}
330
1D47
100
AcDbXrecord
280
     1
1071
 82437801
1071
112294725
 70
    25
 70
   104
 10
0.0
 20
0.0
 30
0.0
  0
XRECORD
  5
1D4B
102
{ACAD_REACTORS
330
1D4A
102
}
330
1D4A
100
AcDbXrecord
280
     1
1071
 82437801
1071
112294725
 70
    25
 70
   104
 10
0.0
 20
0.0
 30
0.0
  0
XRECORD
  5
1D60
102
{ACAD_REACTORS
330
1D5F
102
}
330
1D5F
100
AcDbXrecord
280
     1
1071
 82437801
1071
112294725
 70
    25
 70
   104
 10
0.0
 20
0.0
 30
0.0
  0
XRECORD
  5
1D4E
102
{ACAD_REACTORS
330
1D4D
102
}
330
1D4D
100
AcDbXrecord
280
     1
1071
 82437801
1071
112294725
 70
    25
 70
   104
 10
0.0
 20
0.0
 30
0.0
  0
XRECORD
  5
1D69
102
{ACAD_REACTORS
330
1D68
102
}
330
1D68
100
AcDbXrecord
280
     1
1071
 82437801
1071
112294725
 70
    25
 70
   104
 10
0.0
 20
0.0
 30
0.0
  0
ENDSEC
  0
EOF
