  0
SECTION
  2
HEADER
  9
$ACADVER
  1
AC1014
  9
$ACADMAINTVER
 70
     9
  9
$DWGCODEPAGE
  3
ANSI_1252
  9
$INSBASE
 10
0.0
 20
0.0
 30
0.0
  9
$EXTMIN
 10
27.92774288273017
 20
1.898677041314456
 30
0.0
  9
$EXTMAX
 10
227.9277798827302
 20
288.8988600413144
 30
0.0
  9
$LIMMIN
 10
0.0
 20
0.0
  9
$LIMMAX
 10
210.0
 20
296.0
  9
$ORTHOMODE
 70
     0
  9
$REGENMODE
 70
     1
  9
$FILLMODE
 70
     1
  9
$QTEXTMODE
 70
     0
  9
$MIRRTEXT
 70
     1
  9
$DRAGMODE
 70
     2
  9
$LTSCALE
 40
0.5
  9
$OSMODE
 70
    39
  9
$ATTMODE
 70
     1
  9
$TEXTSIZE
 40
0.2
  9
$TRACEWID
 40
0.05
  9
$TEXTSTYLE
  7
FINDER
  9
$CLAYER
  8
DIM
  9
$CELTYPE
  6
CONTINUOUS
  9
$CECOLOR
 62
   256
  9
$CELTSCALE
 40
1.0
  9
$DELOBJ
 70
     1
  9
$DISPSILH
 70
     0
  9
$DIMSCALE
 40
1.0
  9
$DIMASZ
 40
2.5
  9
$DIMEXO
 40
2.0
  9
$DIMDLI
 40
6.5
  9
$DIMRND
 40
0.0
  9
$DIMDLE
 40
0.0
  9
$DIMEXE
 40
1.25
  9
$DIMTP
 40
0.0
  9
$DIMTM
 40
0.0
  9
$DIMTXT
 40
3.5
  9
$DIMCEN
 40
2.5
  9
$DIMTSZ
 40
0.0
  9
$DIMTOL
 70
     0
  9
$DIMLIM
 70
     0
  9
$DIMTIH
 70
     0
  9
$DIMTOH
 70
     0
  9
$DIMSE1
 70
     0
  9
$DIMSE2
 70
     0
  9
$DIMTAD
 70
     1
  9
$DIMZIN
 70
     8
  9
$DIMBLK
  1

  9
$DIMASO
 70
     1
  9
$DIMSHO
 70
     1
  9
$DIMPOST
  1

  9
$DIMAPOST
  1

  9
$DIMALT
 70
     0
  9
$DIMALTD
 70
     3
  9
$DIMALTF
 40
0.03937
  9
$DIMLFAC
 40
1.0
  9
$DIMTOFL
 70
     1
  9
$DIMTVP
 40
0.0
  9
$DIMTIX
 70
     0
  9
$DIMSOXD
 70
     0
  9
$DIMSAH
 70
     0
  9
$DIMBLK1
  1

  9
$DIMBLK2
  1

  9
$DIMSTYLE
  2
FINDER
  9
$DIMCLRD
 70
   256
  9
$DIMCLRE
 70
   256
  9
$DIMCLRT
 70
     2
  9
$DIMTFAC
 40
1.0
  9
$DIMGAP
 40
0.625
  9
$DIMJUST
 70
     0
  9
$DIMSD1
 70
     0
  9
$DIMSD2
 70
     0
  9
$DIMTOLJ
 70
     0
  9
$DIMTZIN
 70
     8
  9
$DIMALTZ
 70
     0
  9
$DIMALTTZ
 70
     0
  9
$DIMFIT
 70
     3
  9
$DIMUPT
 70
     0
  9
$DIMUNIT
 70
     2
  9
$DIMDEC
 70
     2
  9
$DIMTDEC
 70
     2
  9
$DIMALTU
 70
     2
  9
$DIMALTTD
 70
     3
  9
$DIMTXSTY
  7
FINDER
  9
$DIMAUNIT
 70
     0
  9
$LUNITS
 70
     2
  9
$LUPREC
 70
     4
  9
$SKETCHINC
 40
0.1
  9
$FILLETRAD
 40
0.2
  9
$AUNITS
 70
     0
  9
$AUPREC
 70
     3
  9
$MENU
  1
acad
  9
$ELEVATION
 40
0.0
  9
$PELEVATION
 40
0.0
  9
$THICKNESS
 40
0.0
  9
$LIMCHECK
 70
     0
  9
$BLIPMODE
 70
     0
  9
$CHAMFERA
 40
0.0
  9
$CHAMFERB
 40
0.0
  9
$CHAMFERC
 40
0.0
  9
$CHAMFERD
 40
0.0
  9
$SKPOLY
 70
     0
  9
$TDCREATE
 40
2451901.420981018
  9
$TDUPDATE
 40
2454263.411422697
  9
$TDINDWG
 40
0.8595795833
  9
$TDUSRTIMER
 40
0.8595795833
  9
$USRTIMER
 70
     1
  9
$ANGBASE
 50
0.0
  9
$ANGDIR
 70
     0
  9
$PDMODE
 70
     0
  9
$PDSIZE
 40
0.0
  9
$PLINEWID
 40
0.0
  9
$COORDS
 70
     1
  9
$SPLFRAME
 70
     0
  9
$SPLINETYPE
 70
     6
  9
$SPLINESEGS
 70
     8
  9
$ATTDIA
 70
     0
  9
$ATTREQ
 70
     1
  9
$HANDLING
 70
 22529
  9
$HANDSEED
  5
54B6
  9
$SURFTAB1
 70
     6
  9
$SURFTAB2
 70
     6
  9
$SURFTYPE
 70
     6
  9
$SURFU
 70
     6
  9
$SURFV
 70
     6
  9
$UCSNAME
  2

  9
$UCSORG
 10
0.0
 20
0.0
 30
0.0
  9
$UCSXDIR
 10
1.0
 20
0.0
 30
0.0
  9
$UCSYDIR
 10
0.0
 20
1.0
 30
0.0
  9
$PUCSNAME
  2

  9
$PUCSORG
 10
0.0
 20
0.0
 30
0.0
  9
$PUCSXDIR
 10
1.0
 20
0.0
 30
0.0
  9
$PUCSYDIR
 10
0.0
 20
1.0
 30
0.0
  9
$USERI1
 70
     0
  9
$USERI2
 70
     0
  9
$USERI3
 70
     0
  9
$USERI4
 70
     0
  9
$USERI5
 70
     0
  9
$USERR1
 40
0.0
  9
$USERR2
 40
0.0
  9
$USERR3
 40
0.0
  9
$USERR4
 40
0.0
  9
$USERR5
 40
0.0
  9
$WORLDVIEW
 70
     1
  9
$SHADEDGE
 70
     3
  9
$SHADEDIF
 70
    70
  9
$TILEMODE
 70
     1
  9
$MAXACTVP
 70
    16
  9
$PINSBASE
 10
0.0
 20
0.0
 30
0.0
  9
$PLIMCHECK
 70
     0
  9
$PEXTMIN
 10
1.000000000000000E+20
 20
1.000000000000000E+20
 30
1.000000000000000E+20
  9
$PEXTMAX
 10
-1.000000000000000E+20
 20
-1.000000000000000E+20
 30
-1.000000000000000E+20
  9
$PLIMMIN
 10
0.0
 20
0.0
  9
$PLIMMAX
 10
100.0
 20
100.0
  9
$UNITMODE
 70
     0
  9
$VISRETAIN
 70
     0
  9
$PLINEGEN
 70
     1
  9
$PSLTSCALE
 70
     0
  9
$TREEDEPTH
 70
  3020
  9
$PICKSTYLE
 70
     1
  9
$CMLSTYLE
  2
STANDARD
  9
$CMLJUST
 70
     0
  9
$CMLSCALE
 40
1.0
  9
$PROXYGRAPHICS
 70
     1
  9
$MEASUREMENT
 70
     0
  0
ENDSEC
  0
SECTION
  2
CLASSES
  0
CLASS
  1
LWPOLYLINE
  2
AcDbPolyline
  3
AutoCAD 2000
 90
        0
280
     0
281
     1
  0
CLASS
  1
IMAGE
  2
AcDbRasterImage
  3
ISM
 90
      127
280
     0
281
     1
  0
CLASS
  1
OLE2FRAME
  2
AcDbOle2Frame
  3
AutoCAD 2000
 90
        0
280
     0
281
     1
  0
CLASS
  1
HATCH
  2
AcDbHatch
  3
AutoCAD 2000
 90
        0
280
     0
281
     1
  0
CLASS
  1
DICTIONARYVAR
  2
AcDbDictionaryVar
  3
AutoCAD 2000
 90
        0
280
     0
281
     0
  0
CLASS
  1
RASTERVARIABLES
  2
AcDbRasterVariables
  3
ISM
 90
        0
280
     0
281
     0
  0
CLASS
  1
IMAGEDEF
  2
AcDbRasterImageDef
  3
ISM
 90
        0
280
     0
281
     0
  0
CLASS
  1
IMAGEDEF_REACTOR
  2
AcDbRasterImageDefReactor
  3
ISM
 90
        1
280
     0
281
     0
  0
CLASS
  1
SPATIAL_FILTER
  2
AcDbSpatialFilter
  3
AutoCAD 2000
 90
        0
280
     0
281
     0
  0
CLASS
  1
XRECORD
  2
AcDbXrecord
  3
AutoCAD 2000
 90
        0
280
     0
281
     0
  0
CLASS
  1
SORTENTSTABLE
  2
AcDbSortentsTable
  3
AutoCAD 2000
 90
        0
280
     0
281
     0
  0
CLASS
  1
LAYER_INDEX
  2
AcDbLayerIndex
  3
AutoCAD 2000
 90
        0
280
     0
281
     0
  0
CLASS
  1
SPATIAL_INDEX
  2
AcDbSpatialIndex
  3
AutoCAD 2000
 90
        0
280
     0
281
     0
  0
CLASS
  1
OBJECT_PTR
  2
CAseDLPNTableRecord
  3
ASE-LPNTableRecord
 90
        1
280
     0
281
     0
  0
CLASS
  1
LAYOUT
  2
AcDbLayout
  3
AutoCAD 2000
 90
        0
280
     0
281
     0
  0
CLASS
  1
PLOTSETTINGS
  2
AcDbPlotSettings
  3
AutoCAD 2000
 90
        0
280
     0
281
     0
  0
CLASS
  1
ACDBDICTIONARYWDFLT
  2
AcDbDictionaryWithDefault
  3
AutoCAD 2000
 90
        0
280
     0
281
     0
  0
CLASS
  1
ACDBPLACEHOLDER
  2
AcDbPlaceHolder
  3
AutoCAD 2000
 90
        0
280
     0
281
     0
  0
CLASS
  1
VBA_PROJECT
  2
AcDbVbaProject
  3
"acadvba"
 90
        1
280
     0
281
     0
  0
CLASS
  1
WIPEOUT
  2
AcDbWipeout
  3
WipeOut|AutoCAD Express Tool|expresstools@autodesk.com
 90
      127
280
     0
281
     1
  0
CLASS
  1
WIPEOUTVARIABLES
  2
AcDbWipeoutVariables
  3
WipeOut|AutoCAD Express Tool|expresstools@autodesk.com
 90
        0
280
     0
281
     0
  0
CLASS
  1
RTEXT
  2
RText
  3
RText|AutoCAD Express Tool|expresstools@autodesk.com
 90
        0
280
     0
281
     1
  0
CLASS
  1
ARCALIGNEDTEXT
  2
AcDbArcAlignedText
  3
ATEXT|AutoCAD Express Tool|expresstools@autodesk.com
 90
        0
280
     0
281
     1
  0
CLASS
  1
LONG_TRANSACTION
  2
AcDbLongTransaction
  3
AutoCAD 2000
 90
        0
280
     0
281
     0
  0
CLASS
  1
LWPOLYLINE
  2
AcDbPolyline
  3
AutoCAD 2000
 90
        0
280
     0
281
     1
  0
CLASS
  1
HATCH
  2
AcDbHatch
  3
AutoCAD 2000
 90
        0
280
     0
281
     1
  0
CLASS
  1
XRECORD
  2
AcDbXrecord
  3
AutoCAD 2000
 90
        0
280
     0
281
     0
  0
CLASS
  1
LONG_TRANSACTION
  2
AcDbLongTransaction
  3
AutoCAD 2000
 90
        0
280
     0
281
     0
  0
CLASS
  1
LWPOLYLINE
  2
AcDbPolyline
  3
AutoCAD 2000
 90
        0
280
     0
281
     1
  0
CLASS
  1
HATCH
  2
AcDbHatch
  3
AutoCAD 2000
 90
        0
280
     0
281
     1
  0
CLASS
  1
XRECORD
  2
AcDbXrecord
  3
AutoCAD 2000
 90
        0
280
     0
281
     0
  0
CLASS
  1
LONG_TRANSACTION
  2
AcDbLongTransaction
  3
AutoCAD 2000
 90
        0
280
     0
281
     0
  0
CLASS
  1
LWPOLYLINE
  2
AcDbPolyline
  3
AutoCAD 2000
 90
        0
280
     0
281
     1
  0
CLASS
  1
HATCH
  2
AcDbHatch
  3
AutoCAD 2000
 90
        0
280
     0
281
     1
  0
CLASS
  1
XRECORD
  2
AcDbXrecord
  3
AutoCAD 2000
 90
        0
280
     0
281
     0
  0
ENDSEC
  0
SECTION
  2
TABLES
  0
TABLE
  2
VPORT
  5
7
330
0
100
AcDbSymbolTable
 70
     2
  0
VPORT
  5
5493
330
7
100
AcDbSymbolTableRecord
100
AcDbViewportTableRecord
  2
*ACTIVE
 70
     0
 10
0.0
 20
0.0
 11
1.0
 21
1.0
 12
148.5642565809757
 22
144.4530516676927
 13
0.0
 23
0.0
 14
1.0
 24
1.0
 15
2.0
 25
2.0
 16
0.0
 26
0.0
 36
1.0
 17
0.0
 27
0.0
 37
0.0
 40
518.689170639169
 41
1.626849894291754
 42
50.0
 43
0.0
 44
0.0
 50
0.0
 51
0.0
 71
     0
 72
   100
 73
     1
 74
     1
 75
     0
 76
     0
 77
     0
 78
     0
  0
ENDTAB
  0
TABLE
  2
LTYPE
  5
4
330
0
100
AcDbSymbolTable
 70
     1
  0
LTYPE
  5
11
330
4
100
AcDbSymbolTableRecord
100
AcDbLinetypeTableRecord
  2
BYBLOCK
 70
     0
  3

 72
    65
 73
     0
 40
0.0
  0
LTYPE
  5
12
330
4
100
AcDbSymbolTableRecord
100
AcDbLinetypeTableRecord
  2
BYLAYER
 70
     0
  3

 72
    65
 73
     0
 40
0.0
  0
LTYPE
  5
13
330
4
100
AcDbSymbolTableRecord
100
AcDbLinetypeTableRecord
  2
CONTINUOUS
 70
     0
  3
Solid line
 72
    65
 73
     0
 40
0.0
  0
ENDTAB
  0
TABLE
  2
LAYER
  5
2
330
0
100
AcDbSymbolTable
 70
    11
  0
LAYER
  5
14
330
2
100
AcDbSymbolTableRecord
100
AcDbLayerTableRecord
  2
0
 70
     0
 62
     7
  6
CONTINUOUS
  0
LAYER
  5
B1
330
2
100
AcDbSymbolTableRecord
100
AcDbLayerTableRecord
  2
DIM
 70
     0
 62
     3
  6
CONTINUOUS
  0
LAYER
  5
B2
330
2
100
AcDbSymbolTableRecord
100
AcDbLayerTableRecord
  2
DRAW
 70
     0
 62
     7
  6
CONTINUOUS
  0
LAYER
  5
B3
330
2
100
AcDbSymbolTableRecord
100
AcDbLayerTableRecord
  2
CARTOUCHE
 70
     0
 62
     7
  6
CONTINUOUS
  0
LAYER
  5
B4
330
2
100
AcDbSymbolTableRecord
100
AcDbLayerTableRecord
  2
DRAW-TEXT
 70
     0
 62
     1
  6
CONTINUOUS
  0
LAYER
  5
433F
330
2
100
AcDbSymbolTableRecord
100
AcDbLayerTableRecord
  2
DEFPOINTS
 70
     0
 62
     7
  6
CONTINUOUS
  0
LAYER
  5
5021
330
2
100
AcDbSymbolTableRecord
100
AcDbLayerTableRecord
  2
1
 70
     0
 62
     1
  6
CONTINUOUS
  0
LAYER
  5
5022
330
2
100
AcDbSymbolTableRecord
100
AcDbLayerTableRecord
  2
2
 70
     0
 62
     1
  6
CONTINUOUS
  0
LAYER
  5
5023
330
2
100
AcDbSymbolTableRecord
100
AcDbLayerTableRecord
  2
3
 70
     0
 62
     1
  6
CONTINUOUS
  0
LAYER
  5
5024
330
2
100
AcDbSymbolTableRecord
100
AcDbLayerTableRecord
  2
5
 70
     0
 62
     1
  6
CONTINUOUS
  0
LAYER
  5
5025
330
2
100
AcDbSymbolTableRecord
100
AcDbLayerTableRecord
  2
255
 70
     0
 62
     1
  6
CONTINUOUS
  0
ENDTAB
  0
TABLE
  2
STYLE
  5
3
330
0
100
AcDbSymbolTable
 70
     9
  0
STYLE
  5
17
330
3
100
AcDbSymbolTableRecord
100
AcDbTextStyleTableRecord
  2
STANDARD
 70
     0
 40
0.0
 41
1.0
 50
0.0
 71
     0
 42
0.2
  3
txt
  4

  0
STYLE
  5
BE
330
3
100
AcDbSymbolTableRecord
100
AcDbTextStyleTableRecord
  2
FINDER
 70
     0
 40
1.8
 41
1.0
 50
0.0
 71
     0
 42
0.2
  3
ARIAL.TTF
  4

1001
ACAD
1000
Arial
1071
       34
  0
STYLE
  5
5026
330
3
100
AcDbSymbolTableRecord
100
AcDbTextStyleTableRecord
  2
TSTYLE1
 70
     0
 40
1.8
 41
0.4600000000000001
 50
0.0
 71
     0
 42
0.2
  3
ARIAL.TTF
  4

1001
ACAD
1000
Arial
1071
    32000
  0
STYLE
  5
5027
330
3
100
AcDbSymbolTableRecord
100
AcDbTextStyleTableRecord
  2
TSTYLE2
 70
     0
 40
1.8
 41
0.6
 50
0.0
 71
     0
 42
0.2
  3
ARIAL.TTF
  4

1001
ACAD
1000
Arial
1071
    32000
  0
STYLE
  5
5028
330
3
100
AcDbSymbolTableRecord
100
AcDbTextStyleTableRecord
  2
TSTYLE3
 70
     0
 40
2.1
 41
0.4600000000000001
 50
0.0
 71
     0
 42
0.2
  3
ARIAL.TTF
  4

1001
ACAD
1000
Arial
1071
    32000
  0
STYLE
  5
5029
330
3
100
AcDbSymbolTableRecord
100
AcDbTextStyleTableRecord
  2
TSTYLE4
 70
     0
 40
3.0
 41
0.4600000000000001
 50
0.0
 71
     0
 42
0.2
  3
ARIAL.TTF
  4

1001
ACAD
1000
Arial
1071
    32000
  0
STYLE
  5
502A
330
3
100
AcDbSymbolTableRecord
100
AcDbTextStyleTableRecord
  2
TSTYLE5
 70
     0
 40
1.399999999999999
 41
1.000004
 50
0.0
 71
     0
 42
0.2
  3
ARIAL.TTF
  4

1001
ACAD
1000
Arial
1071
    32000
  0
STYLE
  5
502B
330
3
100
AcDbSymbolTableRecord
100
AcDbTextStyleTableRecord
  2
TSTYLE6
 70
     0
 40
1.399999999999999
 41
0.95
 50
0.0
 71
     0
 42
0.2
  3
ARIAL.TTF
  4

1001
ACAD
1000
Arial
1071
    32000
  0
STYLE
  5
502C
330
3
100
AcDbSymbolTableRecord
100
AcDbTextStyleTableRecord
  2
TSTYLE7
 70
     0
 40
3.0
 41
0.95
 50
0.0
 71
     0
 42
0.2
  3
ARIAL.TTF
  4

1001
ACAD
1000
Arial
1071
    32000
  0
ENDTAB
  0
TABLE
  2
VIEW
  5
5
330
0
100
AcDbSymbolTable
 70
     0
  0
ENDTAB
  0
TABLE
  2
UCS
  5
6
330
0
100
AcDbSymbolTable
 70
     0
  0
ENDTAB
  0
TABLE
  2
APPID
  5
8
330
0
100
AcDbSymbolTable
 70
     1
  0
APPID
  5
16
330
8
100
AcDbSymbolTableRecord
100
AcDbRegAppTableRecord
  2
ACAD
 70
     0
  0
ENDTAB
  0
TABLE
  2
DIMSTYLE
  5
9
330
0
100
AcDbSymbolTable
 70
     9
  0
DIMSTYLE
105
18
330
9
100
AcDbSymbolTableRecord
100
AcDbDimStyleTableRecord
  2
STANDARD
 70
     0
  3

  4

  5

  6

  7

 40
1.0
 41
0.18
 42
0.0625
 43
0.38
 44
0.18
 45
0.0
 46
0.0
 47
0.0
 48
0.0
140
0.18
141
0.09
142
0.0
143
25.4
144
1.0
145
0.0
146
1.0
147
0.09
 71
     0
 72
     0
 73
     1
 74
     1
 75
     0
 76
     0
 77
     0
 78
     0
170
     0
171
     2
172
     0
173
     0
174
     0
175
     0
176
     0
177
     0
178
     0
270
     2
271
     4
272
     4
273
     2
274
     2
340
17
275
     0
280
     0
281
     0
282
     0
283
     1
284
     0
285
     0
286
     0
287
     3
288
     0
  0
DIMSTYLE
105
D1
330
9
100
AcDbSymbolTableRecord
100
AcDbDimStyleTableRecord
  2
FINDER
 70
     0
  3

  4

  5

  6

  7

 40
1.0
 41
2.5
 42
2.0
 43
6.5
 44
1.25
 45
0.0
 46
0.0
 47
0.0
 48
0.0
140
3.5
141
2.5
142
0.0
143
0.03937
144
1.0
145
0.0
146
1.0
147
0.625
 71
     0
 72
     0
 73
     0
 74
     0
 75
     0
 76
     0
 77
     1
 78
     8
170
     0
171
     3
172
     1
173
     0
174
     0
175
     0
176
   256
177
   256
178
     2
270
     2
271
     2
272
     2
273
     2
274
     3
340
BE
275
     0
280
     0
281
     0
282
     0
283
     0
284
     8
285
     0
286
     0
287
     3
288
     0
  0
DIMSTYLE
105
7F2
330
9
100
AcDbSymbolTableRecord
100
AcDbDimStyleTableRecord
  2
FINDER1
 70
     0
  3

  4

  5

  6
DOTSMALL
  7
DOTSMALL
 40
1.0
 41
2.5
 42
2.0
 43
6.5
 44
1.25
 45
0.0
 46
0.0
 47
0.0
 48
0.0
140
3.5
141
2.5
142
0.0
143
0.03937
144
1.0
145
0.0
146
1.0
147
0.625
 71
     0
 72
     0
 73
     0
 74
     0
 75
     0
 76
     0
 77
     1
 78
     8
170
     0
171
     3
172
     1
173
     1
174
     0
175
     0
176
   256
177
   256
178
     2
270
     2
271
     2
272
     2
273
     2
274
     3
340
BE
275
     0
280
     0
281
     0
282
     0
283
     0
284
     8
285
     0
286
     0
287
     3
288
     0
  0
DIMSTYLE
105
502D
102
{ACAD_REACTORS
330
51A9
102
}
330
9
100
AcDbSymbolTableRecord
100
AcDbDimStyleTableRecord
  2
DSTYLE1
 70
     0
  3

  4

  5

  6

  7

 40
1.0
 41
2.5
 42
37.578152
 43
0.38
 44
1.0
 45
0.0
 46
0.0
 47
0.0
 48
0.0
140
3.0
141
0.09
142
0.0
143
25.4
144
1.0
145
0.7
146
0.6
147
0.0
 71
     0
 72
     0
 73
     0
 74
     0
 75
     0
 76
     0
 77
     0
 78
     8
170
     0
171
     2
172
     0
173
     0
174
     1
175
     0
176
     0
177
     0
178
     4
270
     2
271
     2
272
     4
273
     2
274
     2
340
502C
275
     0
280
     0
281
     0
282
     0
283
     1
284
     0
285
     0
286
     0
287
     3
288
     0
  0
DIMSTYLE
105
502E
102
{ACAD_REACTORS
330
51A8
102
}
330
9
100
AcDbSymbolTableRecord
100
AcDbDimStyleTableRecord
  2
DSTYLE2
 70
     0
  3

  4

  5

  6

  7

 40
1.0
 41
2.5
 42
36.83044
 43
0.38
 44
1.0
 45
0.0
 46
0.0
 47
0.0
 48
0.0
140
3.0
141
0.09
142
0.0
143
25.4
144
1.0
145
0.7
146
0.6
147
0.0
 71
     0
 72
     0
 73
     0
 74
     0
 75
     0
 76
     0
 77
     0
 78
     8
170
     0
171
     2
172
     0
173
     0
174
     1
175
     0
176
     0
177
     0
178
     4
270
     2
271
     2
272
     4
273
     2
274
     2
340
502C
275
     0
280
     0
281
     0
282
     0
283
     1
284
     0
285
     0
286
     0
287
     3
288
     0
  0
DIMSTYLE
105
502F
102
{ACAD_REACTORS
330
522B
102
}
330
9
100
AcDbSymbolTableRecord
100
AcDbDimStyleTableRecord
  2
DSTYLE3
 70
     0
  3

  4

  5

  6

  7

 40
1.0
 41
2.5
 42
1.224858
 43
0.38
 44
1.0
 45
0.0
 46
0.0
 47
0.0
 48
0.0
140
3.0
141
0.09
142
0.0
143
25.4
144
1.0
145
0.7
146
0.6
147
0.0
 71
     0
 72
     0
 73
     0
 74
     0
 75
     0
 76
     0
 77
     0
 78
     8
170
     0
171
     2
172
     0
173
     0
174
     0
175
     0
176
     0
177
     0
178
     4
270
     2
271
     2
272
     4
273
     2
274
     2
340
502C
275
     0
280
     0
281
     0
282
     0
283
     1
284
     0
285
     0
286
     0
287
     3
288
     0
  0
DIMSTYLE
105
5030
102
{ACAD_REACTORS
330
51A7
102
}
330
9
100
AcDbSymbolTableRecord
100
AcDbDimStyleTableRecord
  2
DSTYLE4
 70
     0
  3

  4

  5

  6

  7

 40
1.0
 41
2.5
 42
2.10467
 43
0.38
 44
1.0
 45
0.0
 46
0.0
 47
0.0
 48
0.0
140
3.0
141
0.09
142
0.0
143
25.4
144
1.0
145
0.7
146
0.6
147
0.0
 71
     0
 72
     0
 73
     0
 74
     0
 75
     0
 76
     0
 77
     0
 78
     8
170
     0
171
     2
172
     0
173
     0
174
     1
175
     0
176
     0
177
     0
178
     4
270
     2
271
     2
272
     4
273
     2
274
     2
340
502C
275
     0
280
     0
281
     0
282
     0
283
     1
284
     0
285
     0
286
     0
287
     3
288
     0
  0
DIMSTYLE
105
5031
102
{ACAD_REACTORS
330
5270
102
}
330
9
100
AcDbSymbolTableRecord
100
AcDbDimStyleTableRecord
  2
DSTYLE5
 70
     0
  3

  4

  5

  6

  7

 40
1.0
 41
2.5
 42
1.78919
 43
0.38
 44
1.0
 45
0.0
 46
0.0
 47
0.0
 48
0.0
140
3.0
141
0.09
142
0.0
143
25.4
144
1.0
145
0.7
146
0.6
147
0.0
 71
     0
 72
     0
 73
     0
 74
     0
 75
     0
 76
     0
 77
     0
 78
     8
170
     0
171
     2
172
     0
173
     0
174
     0
175
     0
176
     0
177
     0
178
     4
270
     2
271
     2
272
     4
273
     2
274
     2
340
502C
275
     0
280
     0
281
     0
282
     0
283
     1
284
     0
285
     0
286
     0
287
     3
288
     0
  0
DIMSTYLE
105
5032
102
{ACAD_REACTORS
330
51B4
102
}
330
9
100
AcDbSymbolTableRecord
100
AcDbDimStyleTableRecord
  2
DSTYLE6
 70
     0
  3

  4

  5

  6

  7

 40
1.0
 41
2.5
 42
4.181098
 43
0.38
 44
1.0
 45
0.0
 46
0.0
 47
0.0
 48
0.0
140
3.0
141
0.09
142
0.0
143
25.4
144
1.0
145
0.7
146
0.6
147
0.0
 71
     0
 72
     0
 73
     0
 74
     0
 75
     0
 76
     0
 77
     0
 78
     8
170
     0
171
     2
172
     0
173
     0
174
     0
175
     0
176
     0
177
     0
178
     4
270
     2
271
     2
272
     4
273
     2
274
     2
340
502C
275
     0
280
     0
281
     0
282
     0
283
     1
284
     0
285
     0
286
     0
287
     3
288
     0
  0
ENDTAB
  0
TABLE
  2
BLOCK_RECORD
  5
1
330
0
100
AcDbSymbolTable
 70
    69
  0
BLOCK_RECORD
  5
A
102
{ACAD_XDICTIONARY
360
4F57
102
}
330
1
100
AcDbSymbolTableRecord
100
AcDbBlockTableRecord
  2
*MODEL_SPACE
  0
BLOCK_RECORD
  5
B
102
{ACAD_XDICTIONARY
360
4F59
102
}
330
1
100
AcDbSymbolTableRecord
100
AcDbBlockTableRecord
  2
*PAPER_SPACE
  0
BLOCK_RECORD
  5
7A1
330
1
100
AcDbSymbolTableRecord
100
AcDbBlockTableRecord
  2
_DOTSMALL
  0
BLOCK_RECORD
  5
4337
330
1
100
AcDbSymbolTableRecord
100
AcDbBlockTableRecord
  2
*D1
  0
BLOCK_RECORD
  5
4345
330
1
100
AcDbSymbolTableRecord
100
AcDbBlockTableRecord
  2
*D2
  0
BLOCK_RECORD
  5
4356
330
1
100
AcDbSymbolTableRecord
100
AcDbBlockTableRecord
  2
*D3
  0
BLOCK_RECORD
  5
4363
330
1
100
AcDbSymbolTableRecord
100
AcDbBlockTableRecord
  2
*D4
  0
BLOCK_RECORD
  5
4374
330
1
100
AcDbSymbolTableRecord
100
AcDbBlockTableRecord
  2
*D5
  0
BLOCK_RECORD
  5
4432
330
1
100
AcDbSymbolTableRecord
100
AcDbBlockTableRecord
  2
*D6
  0
BLOCK_RECORD
  5
443F
330
1
100
AcDbSymbolTableRecord
100
AcDbBlockTableRecord
  2
*D7
  0
BLOCK_RECORD
  5
471C
330
1
100
AcDbSymbolTableRecord
100
AcDbBlockTableRecord
  2
*D8
  0
BLOCK_RECORD
  5
4728
330
1
100
AcDbSymbolTableRecord
100
AcDbBlockTableRecord
  2
*D9
  0
BLOCK_RECORD
  5
4740
330
1
100
AcDbSymbolTableRecord
100
AcDbBlockTableRecord
  2
*D10
  0
BLOCK_RECORD
  5
4815
330
1
100
AcDbSymbolTableRecord
100
AcDbBlockTableRecord
  2
*D11
  0
BLOCK_RECORD
  5
487A
330
1
100
AcDbSymbolTableRecord
100
AcDbBlockTableRecord
  2
*D12
  0
BLOCK_RECORD
  5
4937
330
1
100
AcDbSymbolTableRecord
100
AcDbBlockTableRecord
  2
*D13
  0
BLOCK_RECORD
  5
4944
330
1
100
AcDbSymbolTableRecord
100
AcDbBlockTableRecord
  2
*D14
  0
BLOCK_RECORD
  5
4955
330
1
100
AcDbSymbolTableRecord
100
AcDbBlockTableRecord
  2
*D15
  0
BLOCK_RECORD
  5
498F
330
1
100
AcDbSymbolTableRecord
100
AcDbBlockTableRecord
  2
*D16
  0
BLOCK_RECORD
  5
49D5
330
1
100
AcDbSymbolTableRecord
100
AcDbBlockTableRecord
  2
*D17
  0
BLOCK_RECORD
  5
4A70
330
1
100
AcDbSymbolTableRecord
100
AcDbBlockTableRecord
  2
*D18
  0
BLOCK_RECORD
  5
4D15
330
1
100
AcDbSymbolTableRecord
100
AcDbBlockTableRecord
  2
*X19
  0
BLOCK_RECORD
  5
4DA6
330
1
100
AcDbSymbolTableRecord
100
AcDbBlockTableRecord
  2
*X20
  0
BLOCK_RECORD
  5
4DC6
330
1
100
AcDbSymbolTableRecord
100
AcDbBlockTableRecord
  2
*X21
  0
BLOCK_RECORD
  5
4DD3
330
1
100
AcDbSymbolTableRecord
100
AcDbBlockTableRecord
  2
*X22
  0
BLOCK_RECORD
  5
4DEA
330
1
100
AcDbSymbolTableRecord
100
AcDbBlockTableRecord
  2
*X23
  0
BLOCK_RECORD
  5
4E14
330
1
100
AcDbSymbolTableRecord
100
AcDbBlockTableRecord
  2
*X24
  0
BLOCK_RECORD
  5
4E43
330
1
100
AcDbSymbolTableRecord
100
AcDbBlockTableRecord
  2
*X25
  0
BLOCK_RECORD
  5
4E76
330
1
100
AcDbSymbolTableRecord
100
AcDbBlockTableRecord
  2
*X26
  0
BLOCK_RECORD
  5
4EFF
330
1
100
AcDbSymbolTableRecord
100
AcDbBlockTableRecord
  2
*D27
  0
BLOCK_RECORD
  5
4F0C
330
1
100
AcDbSymbolTableRecord
100
AcDbBlockTableRecord
  2
*D28
  0
BLOCK_RECORD
  5
4F1B
330
1
100
AcDbSymbolTableRecord
100
AcDbBlockTableRecord
  2
*D29
  0
BLOCK_RECORD
  5
4F6B
330
1
100
AcDbSymbolTableRecord
100
AcDbBlockTableRecord
  2
_G_T_1
  0
BLOCK_RECORD
  5
4F6F
330
1
100
AcDbSymbolTableRecord
100
AcDbBlockTableRecord
  2
_G_T_10
  0
BLOCK_RECORD
  5
4F73
330
1
100
AcDbSymbolTableRecord
100
AcDbBlockTableRecord
  2
_G_T_11
  0
BLOCK_RECORD
  5
4F77
330
1
100
AcDbSymbolTableRecord
100
AcDbBlockTableRecord
  2
_G_T_12
  0
BLOCK_RECORD
  5
4F7B
330
1
100
AcDbSymbolTableRecord
100
AcDbBlockTableRecord
  2
_G_T_13
  0
BLOCK_RECORD
  5
4F7F
330
1
100
AcDbSymbolTableRecord
100
AcDbBlockTableRecord
  2
_G_T_14
  0
BLOCK_RECORD
  5
4F83
330
1
100
AcDbSymbolTableRecord
100
AcDbBlockTableRecord
  2
_G_T_15
  0
BLOCK_RECORD
  5
4F87
330
1
100
AcDbSymbolTableRecord
100
AcDbBlockTableRecord
  2
_G_T_16
  0
BLOCK_RECORD
  5
4F8B
330
1
100
AcDbSymbolTableRecord
100
AcDbBlockTableRecord
  2
_G_T_17
  0
BLOCK_RECORD
  5
4F8F
330
1
100
AcDbSymbolTableRecord
100
AcDbBlockTableRecord
  2
_G_T_18
  0
BLOCK_RECORD
  5
4F93
330
1
100
AcDbSymbolTableRecord
100
AcDbBlockTableRecord
  2
_G_T_19
  0
BLOCK_RECORD
  5
4F97
330
1
100
AcDbSymbolTableRecord
100
AcDbBlockTableRecord
  2
_G_T_2
  0
BLOCK_RECORD
  5
4F9B
330
1
100
AcDbSymbolTableRecord
100
AcDbBlockTableRecord
  2
_G_T_20
  0
BLOCK_RECORD
  5
4F9F
330
1
100
AcDbSymbolTableRecord
100
AcDbBlockTableRecord
  2
_G_T_21
  0
BLOCK_RECORD
  5
4FA3
330
1
100
AcDbSymbolTableRecord
100
AcDbBlockTableRecord
  2
_G_T_22
  0
BLOCK_RECORD
  5
4FA7
330
1
100
AcDbSymbolTableRecord
100
AcDbBlockTableRecord
  2
_G_T_23
  0
BLOCK_RECORD
  5
4FAB
330
1
100
AcDbSymbolTableRecord
100
AcDbBlockTableRecord
  2
_G_T_24
  0
BLOCK_RECORD
  5
4FAF
330
1
100
AcDbSymbolTableRecord
100
AcDbBlockTableRecord
  2
_G_T_25
  0
BLOCK_RECORD
  5
4FB3
330
1
100
AcDbSymbolTableRecord
100
AcDbBlockTableRecord
  2
_G_T_26
  0
BLOCK_RECORD
  5
4FB7
330
1
100
AcDbSymbolTableRecord
100
AcDbBlockTableRecord
  2
_G_T_3
  0
BLOCK_RECORD
  5
4FBB
330
1
100
AcDbSymbolTableRecord
100
AcDbBlockTableRecord
  2
_G_T_4
  0
BLOCK_RECORD
  5
4FBF
330
1
100
AcDbSymbolTableRecord
100
AcDbBlockTableRecord
  2
_G_T_5
  0
BLOCK_RECORD
  5
4FC3
330
1
100
AcDbSymbolTableRecord
100
AcDbBlockTableRecord
  2
_G_T_6
  0
BLOCK_RECORD
  5
4FC7
330
1
100
AcDbSymbolTableRecord
100
AcDbBlockTableRecord
  2
_G_T_7
  0
BLOCK_RECORD
  5
4FCB
330
1
100
AcDbSymbolTableRecord
100
AcDbBlockTableRecord
  2
_G_T_8
  0
BLOCK_RECORD
  5
4FCF
330
1
100
AcDbSymbolTableRecord
100
AcDbBlockTableRecord
  2
_G_T_9
  0
BLOCK_RECORD
  5
4FD3
330
1
100
AcDbSymbolTableRecord
100
AcDbBlockTableRecord
  2
LW_POLYLINE_9
  0
BLOCK_RECORD
  5
4FDE
330
1
100
AcDbSymbolTableRecord
100
AcDbBlockTableRecord
  2
*D57
  0
BLOCK_RECORD
  5
4FE8
330
1
100
AcDbSymbolTableRecord
100
AcDbBlockTableRecord
  2
*D58
  0
BLOCK_RECORD
  5
4FF2
330
1
100
AcDbSymbolTableRecord
100
AcDbBlockTableRecord
  2
*D59
  0
BLOCK_RECORD
  5
4FFE
330
1
100
AcDbSymbolTableRecord
100
AcDbBlockTableRecord
  2
*D60
  0
BLOCK_RECORD
  5
5008
330
1
100
AcDbSymbolTableRecord
100
AcDbBlockTableRecord
  2
*D61
  0
BLOCK_RECORD
  5
5015
330
1
100
AcDbSymbolTableRecord
100
AcDbBlockTableRecord
  2
*D62
  0
BLOCK_RECORD
  5
5316
330
1
100
AcDbSymbolTableRecord
100
AcDbBlockTableRecord
  2
*D63
  0
BLOCK_RECORD
  5
5322
330
1
100
AcDbSymbolTableRecord
100
AcDbBlockTableRecord
  2
*D64
  0
BLOCK_RECORD
  5
532E
330
1
100
AcDbSymbolTableRecord
100
AcDbBlockTableRecord
  2
*D65
  0
BLOCK_RECORD
  5
533A
330
1
100
AcDbSymbolTableRecord
100
AcDbBlockTableRecord
  2
*D66
  0
BLOCK_RECORD
  5
5347
330
1
100
AcDbSymbolTableRecord
100
AcDbBlockTableRecord
  2
*D67
  0
BLOCK_RECORD
  5
5354
330
1
100
AcDbSymbolTableRecord
100
AcDbBlockTableRecord
  2
*D68
  0
ENDTAB
  0
ENDSEC
  0
SECTION
  2
BLOCKS
  0
BLOCK
  5
D
330
A
100
AcDbEntity
  8
0
100
AcDbBlockBegin
  2
*MODEL_SPACE
 70
     0
 10
0.0
 20
0.0
 30
0.0
  3
*MODEL_SPACE
  1

  0
ENDBLK
  5
E
330
A
100
AcDbEntity
  8
0
100
AcDbBlockEnd
  0
BLOCK
  5
F
330
B
100
AcDbEntity
 67
     1
  8
0
100
AcDbBlockBegin
  2
*PAPER_SPACE
 70
     0
 10
0.0
 20
0.0
 30
0.0
  3
*PAPER_SPACE
  1

  0
ENDBLK
  5
10
330
B
100
AcDbEntity
 67
     1
  8
0
100
AcDbBlockEnd
  0
BLOCK
  5
7A2
330
7A1
100
AcDbEntity
  8
0
100
AcDbBlockBegin
  2
_DOTSMALL
 70
     0
 10
0.0
 20
0.0
 30
0.0
  3
_DOTSMALL
  1

  0
LWPOLYLINE
  5
7A3
330
7A1
100
AcDbEntity
  8
0
  6
BYBLOCK
 62
     0
100
AcDbPolyline
 90
        2
 70
     1
 43
0.5
 10
-0.0625
 20
0.0
 42
1.0
 10
0.0625
 20
0.0
 42
1.0
  0
ENDBLK
  5
7A7
330
7A1
100
AcDbEntity
  8
0
100
AcDbBlockEnd
  0
BLOCK
  5
4338
330
4337
100
AcDbEntity
  8
0
100
AcDbBlockBegin
  2
*D1
 70
     1
 10
0.0
 20
0.0
 30
0.0
  3
*D1
  1

  0
LINE
  5
4339
330
4337
100
AcDbEntity
  8
0
  6
BYBLOCK
100
AcDbLine
 10
19.0
 20
203.197232
 30
0.0
 11
19.0
 21
206.25
 31
0.0
  0
LINE
  5
433A
330
4337
100
AcDbEntity
  8
0
  6
BYBLOCK
100
AcDbLine
 10
57.2
 20
203.197232
 30
0.0
 11
57.2
 21
206.25
 31
0.0
  0
LINE
  5
433B
330
4337
100
AcDbEntity
  8
0
  6
BYBLOCK
100
AcDbLine
 10
21.49999999999999
 20
205.0
 30
0.0
 11
54.7
 21
205.0
 31
0.0
  0
SOLID
  5
433C
330
4337
100
AcDbEntity
  8
0
  6
BYBLOCK
100
AcDbTrace
 10
21.49999999999999
 20
205.4166669999999
 30
0.0
 11
21.49999999999999
 21
204.583333
 31
0.0
 12
19.0
 22
205.0
 32
0.0
 13
19.0
 23
205.0
 33
0.0
  0
SOLID
  5
433D
330
4337
100
AcDbEntity
  8
0
  6
BYBLOCK
100
AcDbTrace
 10
54.7
 20
205.4166669999999
 30
0.0
 11
54.7
 21
204.583333
 31
0.0
 12
57.2
 22
205.0
 32
0.0
 13
57.2
 23
205.0
 33
0.0
  0
MTEXT
  5
433E
330
4337
100
AcDbEntity
  8
0
  6
BYBLOCK
 62
     2
100
AcDbMText
 10
38.1
 20
206.544645
 30
0.0
 40
1.8
 41
0.0
 71
     5
 72
     5
  1
38.2
  7
FINDER
1001
ACAD
1000
MTEXTBEGIN
1070
    73
1070
     1
1070
    44
1040
1.0
1070
    74
1070
     0
1000
MTEXTEND
1000
MTEXTBEGIN
1070
    73
1070
     1
1070
    44
1040
1.0
1070
    74
1070
     0
1000
MTEXTEND
1000
MTEXTBEGIN
1070
    73
1070
     1
1070
    44
1040
1.0
1070
    74
1070
     0
1000
MTEXTEND
  0
POINT
  5
4340
330
4337
100
AcDbEntity
  8
DEFPOINTS
  6
BYBLOCK
 62
     0
100
AcDbPoint
 10
19.0
 20
201.197232
 30
0.0
  0
POINT
  5
4341
330
4337
100
AcDbEntity
  8
DEFPOINTS
  6
BYBLOCK
 62
     0
100
AcDbPoint
 10
57.2
 20
201.197232
 30
0.0
  0
POINT
  5
4342
330
4337
100
AcDbEntity
  8
DEFPOINTS
  6
BYBLOCK
 62
     0
100
AcDbPoint
 10
57.2
 20
205.0
 30
0.0
  0
ENDBLK
  5
4343
330
4337
100
AcDbEntity
  8
0
100
AcDbBlockEnd
  0
BLOCK
  5
4346
330
4345
100
AcDbEntity
  8
0
100
AcDbBlockBegin
  2
*D2
 70
     1
 10
0.0
 20
0.0
 30
0.0
  3
*D2
  1

  0
LINE
  5
4347
330
4345
100
AcDbEntity
  8
0
  6
BYBLOCK
100
AcDbLine
 10
17.0
 20
201.197232
 30
0.0
 11
13.75
 21
201.197232
 31
0.0
  0
LINE
  5
4348
330
4345
100
AcDbEntity
  8
0
  6
BYBLOCK
100
AcDbLine
 10
17.0
 20
165.397232
 30
0.0
 11
13.75
 21
165.397232
 31
0.0
  0
LINE
  5
4349
330
4345
100
AcDbEntity
  8
0
  6
BYBLOCK
100
AcDbLine
 10
15.0
 20
198.697232
 30
0.0
 11
15.0
 21
167.8972319999999
 31
0.0
  0
SOLID
  5
434A
330
4345
100
AcDbEntity
  8
0
  6
BYBLOCK
100
AcDbTrace
 10
14.58333299999999
 20
198.697232
 30
0.0
 11
15.416667
 21
198.697232
 31
0.0
 12
15.0
 22
201.197232
 32
0.0
 13
15.0
 23
201.197232
 33
0.0
  0
SOLID
  5
434B
330
4345
100
AcDbEntity
  8
0
  6
BYBLOCK
100
AcDbTrace
 10
14.58333299999999
 20
167.8972319999999
 30
0.0
 11
15.416667
 21
167.8972319999999
 31
0.0
 12
15.0
 22
165.397232
 32
0.0
 13
15.0
 23
165.397232
 33
0.0
  0
MTEXT
  5
434C
330
4345
100
AcDbEntity
  8
0
  6
BYBLOCK
 62
     2
100
AcDbMText
 10
13.45535499999999
 20
183.297232
 30
0.0
 40
1.8
 41
0.0
 71
     5
 72
     5
  1
35.8
  7
FINDER
 11
0.0
 21
1.0
 31
0.0
1001
ACAD
1000
MTEXTBEGIN
1070
    73
1070
     1
1070
    44
1040
1.0
1070
    74
1070
     0
1000
MTEXTEND
1000
MTEXTBEGIN
1070
    73
1070
     1
1070
    44
1040
1.0
1070
    74
1070
     0
1000
MTEXTEND
1000
MTEXTBEGIN
1070
    73
1070
     1
1070
    44
1040
1.0
1070
    74
1070
     0
1000
MTEXTEND
  0
POINT
  5
434D
330
4345
100
AcDbEntity
  8
DEFPOINTS
  6
BYBLOCK
 62
     0
100
AcDbPoint
 10
19.0
 20
201.197232
 30
0.0
  0
POINT
  5
434E
330
4345
100
AcDbEntity
  8
DEFPOINTS
  6
BYBLOCK
 62
     0
100
AcDbPoint
 10
19.0
 20
165.397232
 30
0.0
  0
POINT
  5
434F
330
4345
100
AcDbEntity
  8
DEFPOINTS
  6
BYBLOCK
 62
     0
100
AcDbPoint
 10
15.0
 20
165.397232
 30
0.0
  0
ENDBLK
  5
4350
330
4345
100
AcDbEntity
  8
0
100
AcDbBlockEnd
  0
BLOCK
  5
4A2E
330
4356
100
AcDbEntity
  8
0
100
AcDbBlockBegin
  2
*D3
 70
     1
 10
0.0
 20
0.0
 30
0.0
  3
*D3
  1

  0
LINE
  5
4A2F
330
4356
100
AcDbEntity
  8
0
  6
BYBLOCK
100
AcDbLine
 10
88.05560699999999
 20
202.995906
 30
0.0
 11
88.05560699999999
 21
209.25
 31
0.0
  0
LINE
  5
4A30
330
4356
100
AcDbEntity
  8
0
  6
BYBLOCK
100
AcDbLine
 10
135.655607
 20
201.197232
 30
0.0
 11
135.655607
 21
209.25
 31
0.0
  0
LINE
  5
4A31
330
4356
100
AcDbEntity
  8
0
  6
BYBLOCK
100
AcDbLine
 10
90.55560699999999
 20
208.0
 30
0.0
 11
133.1556069999999
 21
208.0
 31
0.0
  0
SOLID
  5
4A32
330
4356
100
AcDbEntity
  8
0
  6
BYBLOCK
100
AcDbTrace
 10
90.55560699999999
 20
208.416667
 30
0.0
 11
90.55560699999999
 21
207.583333
 31
0.0
 12
88.05560699999999
 22
208.0
 32
0.0
 13
88.05560699999999
 23
208.0
 33
0.0
  0
SOLID
  5
4A33
330
4356
100
AcDbEntity
  8
0
  6
BYBLOCK
100
AcDbTrace
 10
133.1556069999999
 20
208.416667
 30
0.0
 11
133.1556069999999
 21
207.583333
 31
0.0
 12
135.655607
 22
208.0
 32
0.0
 13
135.655607
 23
208.0
 33
0.0
  0
MTEXT
  5
4A34
330
4356
100
AcDbEntity
  8
0
  6
BYBLOCK
 62
     2
100
AcDbMText
 10
111.855607
 20
209.544031
 30
0.0
 40
1.8
 41
0.0
 71
     5
 72
     5
  1
47.6
  7
FINDER
1001
ACAD
1000
MTEXTBEGIN
1070
    73
1070
     1
1070
    44
1040
1.0
1070
    74
1070
     0
1000
MTEXTEND
1000
MTEXTBEGIN
1070
    73
1070
     1
1070
    44
1040
1.0
1070
    74
1070
     0
1000
MTEXTEND
1000
MTEXTBEGIN
1070
    73
1070
     1
1070
    44
1040
1.0
1070
    74
1070
     0
1000
MTEXTEND
  0
POINT
  5
4A35
330
4356
100
AcDbEntity
  8
DEFPOINTS
  6
BYBLOCK
 62
     0
100
AcDbPoint
 10
88.05560699999999
 20
200.995906
 30
0.0
  0
POINT
  5
4A36
330
4356
100
AcDbEntity
  8
DEFPOINTS
  6
BYBLOCK
 62
     0
100
AcDbPoint
 10
135.655607
 20
199.197232
 30
0.0
  0
POINT
  5
4A37
330
4356
100
AcDbEntity
  8
DEFPOINTS
  6
BYBLOCK
 62
     0
100
AcDbPoint
 10
135.655607
 20
208.0
 30
0.0
  0
ENDBLK
  5
4A38
330
4356
100
AcDbEntity
  8
0
100
AcDbBlockEnd
  0
BLOCK
  5
4C9B
330
4363
100
AcDbEntity
  8
0
100
AcDbBlockBegin
  2
*D4
 70
     1
 10
0.0
 20
0.0
 30
0.0
  3
*D4
  1

  0
LINE
  5
4C9C
330
4363
100
AcDbEntity
  8
0
  6
BYBLOCK
100
AcDbLine
 10
84.55560699999997
 20
201.697232
 30
0.0
 11
84.55560699999997
 21
209.25
 31
0.0
  0
LINE
  5
4C9D
330
4363
100
AcDbEntity
  8
0
  6
BYBLOCK
100
AcDbLine
 10
90.55560699999999
 20
208.0
 30
0.0
 11
93.05560699999999
 21
208.0
 31
0.0
  0
LINE
  5
4C9E
330
4363
100
AcDbEntity
  8
0
  6
BYBLOCK
100
AcDbLine
 10
82.05560699999997
 20
208.0
 30
0.0
 11
79.55560699999998
 21
208.0
 31
0.0
  0
LINE
  5
4C9F
330
4363
100
AcDbEntity
  8
0
  6
BYBLOCK
100
AcDbLine
 10
86.305607
 20
208.0
 30
0.0
 11
87.23775100000002
 21
211.107145
 31
0.0
  0
LINE
  5
4CA0
330
4363
100
AcDbEntity
  8
0
  6
BYBLOCK
100
AcDbLine
 10
87.23775100000002
 20
211.107145
 30
0.0
 11
91.77710899999999
 21
211.107145
 31
0.0
  0
MTEXT
  5
4CA1
330
4363
100
AcDbEntity
  8
0
  6
BYBLOCK
 62
     2
100
AcDbMText
 10
87.86275100000002
 20
212.651791
 30
0.0
 40
1.8
 41
0.0
 71
     4
 72
     5
  1
3.5
  7
FINDER
1001
ACAD
1000
MTEXTBEGIN
1070
    73
1070
     1
1070
    44
1040
1.0
1070
    74
1070
     0
1000
MTEXTEND
1000
MTEXTBEGIN
1070
    73
1070
     1
1070
    44
1040
1.0
1070
    74
1070
     0
1000
MTEXTEND
1000
MTEXTBEGIN
1070
    73
1070
     1
1070
    44
1040
1.0
1070
    74
1070
     0
1000
MTEXTEND
  0
LINE
  5
4CA2
330
4363
100
AcDbEntity
  8
0
  6
BYBLOCK
100
AcDbLine
 10
88.05560699999999
 20
208.0
 30
0.0
 11
84.55560699999997
 21
208.0
 31
0.0
  0
LINE
  5
4CA3
330
4363
100
AcDbEntity
  8
0
  6
BYBLOCK
100
AcDbLine
 10
88.05560699999999
 20
208.0
 30
0.0
 11
84.55560699999997
 21
208.0
 31
0.0
  0
SOLID
  5
4CA4
330
4363
100
AcDbEntity
  8
0
  6
BYBLOCK
100
AcDbTrace
 10
90.55560699999999
 20
208.416667
 30
0.0
 11
90.55560699999999
 21
207.583333
 31
0.0
 12
88.05560699999999
 22
208.0
 32
0.0
 13
88.05560699999999
 23
208.0
 33
0.0
  0
SOLID
  5
4CA5
330
4363
100
AcDbEntity
  8
0
  6
BYBLOCK
100
AcDbTrace
 10
82.05560699999997
 20
208.416667
 30
0.0
 11
82.05560699999997
 21
207.583333
 31
0.0
 12
84.55560699999997
 22
208.0
 32
0.0
 13
84.55560699999997
 23
208.0
 33
0.0
  0
POINT
  5
4CA6
330
4363
100
AcDbEntity
  8
DEFPOINTS
  6
BYBLOCK
 62
     0
100
AcDbPoint
 10
88.05560699999999
 20
200.995906
 30
0.0
  0
POINT
  5
4CA7
330
4363
100
AcDbEntity
  8
DEFPOINTS
  6
BYBLOCK
 62
     0
100
AcDbPoint
 10
84.55560699999997
 20
199.697232
 30
0.0
  0
POINT
  5
4CA8
330
4363
100
AcDbEntity
  8
DEFPOINTS
  6
BYBLOCK
 62
     0
100
AcDbPoint
 10
84.55560699999997
 20
208.0
 30
0.0
  0
ENDBLK
  5
4CA9
330
4363
100
AcDbEntity
  8
0
100
AcDbBlockEnd
  0
BLOCK
  5
46F8
330
4374
100
AcDbEntity
  8
0
100
AcDbBlockBegin
  2
*D5
 70
     1
 10
0.0
 20
0.0
 30
0.0
  3
*D5
  1

  0
LINE
  5
46F9
330
4374
100
AcDbEntity
  8
0
  6
BYBLOCK
100
AcDbLine
 10
88.255607
 20
163.3972319999999
 30
0.0
 11
88.255607
 21
158.75
 31
0.0
  0
LINE
  5
46FA
330
4374
100
AcDbEntity
  8
0
  6
BYBLOCK
100
AcDbLine
 10
78.556929
 20
171.795902
 30
0.0
 11
78.556929
 21
158.75
 31
0.0
  0
LINE
  5
46FB
330
4374
100
AcDbEntity
  8
0
  6
BYBLOCK
100
AcDbLine
 10
85.755607
 20
160.0
 30
0.0
 11
81.05692899999999
 21
160.0
 31
0.0
  0
SOLID
  5
46FC
330
4374
100
AcDbEntity
  8
0
  6
BYBLOCK
100
AcDbTrace
 10
85.755607
 20
160.4166669999998
 30
0.0
 11
85.755607
 21
159.583333
 31
0.0
 12
88.255607
 22
160.0
 32
0.0
 13
88.255607
 23
160.0
 33
0.0
  0
SOLID
  5
46FD
330
4374
100
AcDbEntity
  8
0
  6
BYBLOCK
100
AcDbTrace
 10
81.05692899999999
 20
160.4166669999998
 30
0.0
 11
81.05692899999999
 21
159.583333
 31
0.0
 12
78.556929
 22
160.0
 32
0.0
 13
78.556929
 23
160.0
 33
0.0
  0
MTEXT
  5
46FE
330
4374
100
AcDbEntity
  8
0
  6
BYBLOCK
 62
     2
100
AcDbMText
 10
83.406268
 20
161.544031
 30
0.0
 40
1.8
 41
0.0
 71
     5
 72
     5
  1
9.7
  7
FINDER
1001
ACAD
1000
MTEXTBEGIN
1070
    73
1070
     1
1070
    44
1040
1.0
1070
    74
1070
     0
1000
MTEXTEND
1000
MTEXTBEGIN
1070
    73
1070
     1
1070
    44
1040
1.0
1070
    74
1070
     0
1000
MTEXTEND
1000
MTEXTBEGIN
1070
    73
1070
     1
1070
    44
1040
1.0
1070
    74
1070
     0
1000
MTEXTEND
  0
POINT
  5
46FF
330
4374
100
AcDbEntity
  8
DEFPOINTS
  6
BYBLOCK
 62
     0
100
AcDbPoint
 10
88.255607
 20
165.397232
 30
0.0
  0
POINT
  5
4700
330
4374
100
AcDbEntity
  8
DEFPOINTS
  6
BYBLOCK
 62
     0
100
AcDbPoint
 10
78.556929
 20
173.795902
 30
0.0
  0
POINT
  5
4701
330
4374
100
AcDbEntity
  8
DEFPOINTS
  6
BYBLOCK
 62
     0
100
AcDbPoint
 10
78.556929
 20
160.0
 30
0.0
  0
ENDBLK
  5
4702
330
4374
100
AcDbEntity
  8
0
100
AcDbBlockEnd
  0
BLOCK
  5
47B2
330
4432
100
AcDbEntity
  8
0
100
AcDbBlockBegin
  2
*D6
 70
     1
 10
0.0
 20
0.0
 30
0.0
  3
*D6
  1

  0
LINE
  5
47B3
330
4432
100
AcDbEntity
  8
0
  6
BYBLOCK
100
AcDbLine
 10
76.556929
 20
111.855185
 30
0.0
 11
67.75
 21
111.855185
 31
0.0
  0
LINE
  5
47B4
330
4432
100
AcDbEntity
  8
0
  6
BYBLOCK
100
AcDbLine
 10
76.556929
 20
122.955185
 30
0.0
 11
67.75
 21
122.955185
 31
0.0
  0
LINE
  5
47B5
330
4432
100
AcDbEntity
  8
0
  6
BYBLOCK
100
AcDbLine
 10
69.0
 20
114.355185
 30
0.0
 11
69.0
 21
120.455185
 31
0.0
  0
SOLID
  5
47B6
330
4432
100
AcDbEntity
  8
0
  6
BYBLOCK
100
AcDbTrace
 10
68.58333299999999
 20
114.355185
 30
0.0
 11
69.416667
 21
114.355185
 31
0.0
 12
69.0
 22
111.855185
 32
0.0
 13
69.0
 23
111.855185
 33
0.0
  0
SOLID
  5
47B7
330
4432
100
AcDbEntity
  8
0
  6
BYBLOCK
100
AcDbTrace
 10
68.58333299999999
 20
120.455185
 30
0.0
 11
69.416667
 21
120.455185
 31
0.0
 12
69.0
 22
122.955185
 32
0.0
 13
69.0
 23
122.955185
 33
0.0
  0
MTEXT
  5
47B8
330
4432
100
AcDbEntity
  8
0
  6
BYBLOCK
 62
     2
100
AcDbMText
 10
67.471317
 20
117.405185
 30
0.0
 40
1.8
 41
0.0
 71
     5
 72
     5
  1
11.1
  7
FINDER
 11
0.0
 21
1.0
 31
0.0
1001
ACAD
1000
MTEXTBEGIN
1070
    73
1070
     1
1070
    44
1040
1.0
1070
    74
1070
     0
1000
MTEXTEND
1000
MTEXTBEGIN
1070
    73
1070
     1
1070
    44
1040
1.0
1070
    74
1070
     0
1000
MTEXTEND
1000
MTEXTBEGIN
1070
    73
1070
     1
1070
    44
1040
1.0
1070
    74
1070
     0
1000
MTEXTEND
  0
POINT
  5
47B9
330
4432
100
AcDbEntity
  8
DEFPOINTS
  6
BYBLOCK
 62
     0
100
AcDbPoint
 10
78.556929
 20
111.855185
 30
0.0
  0
POINT
  5
47BA
330
4432
100
AcDbEntity
  8
DEFPOINTS
  6
BYBLOCK
 62
     0
100
AcDbPoint
 10
78.556929
 20
122.955185
 30
0.0
  0
POINT
  5
47BB
330
4432
100
AcDbEntity
  8
DEFPOINTS
  6
BYBLOCK
 62
     0
100
AcDbPoint
 10
69.0
 20
122.955185
 30
0.0
  0
ENDBLK
  5
47BC
330
4432
100
AcDbEntity
  8
0
100
AcDbBlockEnd
  0
BLOCK
  5
4CAA
330
443F
100
AcDbEntity
  8
0
100
AcDbBlockBegin
  2
*D7
 70
     1
 10
0.0
 20
0.0
 30
0.0
  3
*D7
  1

  0
LINE
  5
4CAB
330
443F
100
AcDbEntity
  8
0
  6
BYBLOCK
100
AcDbLine
 10
76.556929
 20
129.055185
 30
0.0
 11
67.75
 21
129.055185
 31
0.0
  0
LINE
  5
4CAC
330
443F
100
AcDbEntity
  8
0
  6
BYBLOCK
100
AcDbLine
 10
69.0
 20
120.455185
 30
0.0
 11
69.0
 21
126.555185
 31
0.0
  0
SOLID
  5
4CAD
330
443F
100
AcDbEntity
  8
0
  6
BYBLOCK
100
AcDbTrace
 10
68.58333299999999
 20
120.455185
 30
0.0
 11
69.416667
 21
120.455185
 31
0.0
 12
69.0
 22
117.955185
 32
0.0
 13
69.0
 23
117.955185
 33
0.0
  0
SOLID
  5
4CAE
330
443F
100
AcDbEntity
  8
0
  6
BYBLOCK
100
AcDbTrace
 10
68.58333299999999
 20
126.555185
 30
0.0
 11
69.416667
 21
126.555185
 31
0.0
 12
69.0
 22
129.055185
 32
0.0
 13
69.0
 23
129.055185
 33
0.0
  0
MTEXT
  5
4CAF
330
443F
100
AcDbEntity
  8
0
  6
BYBLOCK
 62
     2
100
AcDbMText
 10
67.471317
 20
123.505185
 30
0.0
 40
1.8
 41
0.0
 71
     5
 72
     5
  1
11.1
  7
FINDER
 11
0.0
 21
1.0
 31
0.0
1001
ACAD
1000
MTEXTBEGIN
1070
    73
1070
     1
1070
    44
1040
1.0
1070
    74
1070
     0
1000
MTEXTEND
1000
MTEXTBEGIN
1070
    73
1070
     1
1070
    44
1040
1.0
1070
    74
1070
     0
1000
MTEXTEND
1000
MTEXTBEGIN
1070
    73
1070
     1
1070
    44
1040
1.0
1070
    74
1070
     0
1000
MTEXTEND
  0
POINT
  5
4CB0
330
443F
100
AcDbEntity
  8
DEFPOINTS
  6
BYBLOCK
 62
     0
100
AcDbPoint
 10
78.556929
 20
117.955185
 30
0.0
  0
POINT
  5
4CB1
330
443F
100
AcDbEntity
  8
DEFPOINTS
  6
BYBLOCK
 62
     0
100
AcDbPoint
 10
78.556929
 20
129.055185
 30
0.0
  0
POINT
  5
4CB2
330
443F
100
AcDbEntity
  8
DEFPOINTS
  6
BYBLOCK
 62
     0
100
AcDbPoint
 10
69.0
 20
129.055185
 30
0.0
  0
ENDBLK
  5
4CB3
330
443F
100
AcDbEntity
  8
0
100
AcDbBlockEnd
  0
BLOCK
  5
4CB4
330
471C
100
AcDbEntity
  8
0
100
AcDbBlockBegin
  2
*D8
 70
     1
 10
0.0
 20
0.0
 30
0.0
  3
*D8
  1

  0
LINE
  5
4CB5
330
471C
100
AcDbEntity
  8
0
  6
BYBLOCK
100
AcDbLine
 10
76.556929
 20
174.1959019999999
 30
0.0
 11
67.75
 21
174.1959019999999
 31
0.0
  0
LINE
  5
4CB6
330
471C
100
AcDbEntity
  8
0
  6
BYBLOCK
100
AcDbLine
 10
76.556929
 20
181.795902
 30
0.0
 11
67.75
 21
181.795902
 31
0.0
  0
LINE
  5
4CB7
330
471C
100
AcDbEntity
  8
0
  6
BYBLOCK
100
AcDbLine
 10
69.0
 20
176.6959019999999
 30
0.0
 11
69.0
 21
181.795902
 31
0.0
  0
SOLID
  5
4CB8
330
471C
100
AcDbEntity
  8
0
  6
BYBLOCK
100
AcDbTrace
 10
68.58333299999999
 20
176.6959019999999
 30
0.0
 11
69.416667
 21
176.6959019999999
 31
0.0
 12
69.0
 22
174.1959019999999
 32
0.0
 13
69.0
 23
174.1959019999999
 33
0.0
  0
INSERT
  5
4CB9
330
471C
100
AcDbEntity
  8
0
  6
BYBLOCK
100
AcDbBlockReference
  2
_DOTSMALL
 10
69.0
 20
181.795902
 30
0.0
 41
2.5
 42
2.5
 43
2.5
 50
90.0
  0
MTEXT
  5
4CBA
330
471C
100
AcDbEntity
  8
0
  6
BYBLOCK
 62
     2
100
AcDbMText
 10
67.45596899999999
 20
179.245902
 30
0.0
 40
1.8
 41
0.0
 71
     5
 72
     5
  1
7.6
  7
FINDER
 11
0.0
 21
1.0
 31
0.0
1001
ACAD
1000
MTEXTBEGIN
1070
    73
1070
     1
1070
    44
1040
1.0
1070
    74
1070
     0
1000
MTEXTEND
1000
MTEXTBEGIN
1070
    73
1070
     1
1070
    44
1040
1.0
1070
    74
1070
     0
1000
MTEXTEND
1000
MTEXTBEGIN
1070
    73
1070
     1
1070
    44
1040
1.0
1070
    74
1070
     0
1000
MTEXTEND
  0
POINT
  5
4CBB
330
471C
100
AcDbEntity
  8
DEFPOINTS
  6
BYBLOCK
 62
     0
100
AcDbPoint
 10
78.556929
 20
174.1959019999999
 30
0.0
  0
POINT
  5
4CBC
330
471C
100
AcDbEntity
  8
DEFPOINTS
  6
BYBLOCK
 62
     0
100
AcDbPoint
 10
78.556929
 20
181.795902
 30
0.0
  0
POINT
  5
4CBD
330
471C
100
AcDbEntity
  8
DEFPOINTS
  6
BYBLOCK
 62
     0
100
AcDbPoint
 10
69.0
 20
181.795902
 30
0.0
  0
ENDBLK
  5
4CBE
330
471C
100
AcDbEntity
  8
0
100
AcDbBlockEnd
  0
BLOCK
  5
4CBF
330
4728
100
AcDbEntity
  8
0
100
AcDbBlockBegin
  2
*D9
 70
     1
 10
0.0
 20
0.0
 30
0.0
  3
*D9
  1

  0
LINE
  5
4CC0
330
4728
100
AcDbEntity
  8
0
  6
BYBLOCK
100
AcDbLine
 10
76.556929
 20
189.795902
 30
0.0
 11
67.75
 21
189.795902
 31
0.0
  0
LINE
  5
4CC1
330
4728
100
AcDbEntity
  8
0
  6
BYBLOCK
100
AcDbLine
 10
69.0
 20
181.795902
 30
0.0
 11
69.0
 21
189.795902
 31
0.0
  0
INSERT
  5
4CC2
330
4728
100
AcDbEntity
  8
0
  6
BYBLOCK
100
AcDbBlockReference
  2
_DOTSMALL
 10
69.0
 20
181.795902
 30
0.0
 41
2.5
 42
2.5
 43
2.5
 50
270.0
  0
INSERT
  5
4CC3
330
4728
100
AcDbEntity
  8
0
  6
BYBLOCK
100
AcDbBlockReference
  2
_DOTSMALL
 10
69.0
 20
189.795902
 30
0.0
 41
2.5
 42
2.5
 43
2.5
 50
90.0
  0
MTEXT
  5
4CC4
330
4728
100
AcDbEntity
  8
0
  6
BYBLOCK
 62
     2
100
AcDbMText
 10
67.45596899999999
 20
185.795902
 30
0.0
 40
1.8
 41
0.0
 71
     5
 72
     5
  1
8
  7
FINDER
 11
0.0
 21
1.0
 31
0.0
1001
ACAD
1000
MTEXTBEGIN
1070
    73
1070
     1
1070
    44
1040
1.0
1070
    74
1070
     0
1000
MTEXTEND
1000
MTEXTBEGIN
1070
    73
1070
     1
1070
    44
1040
1.0
1070
    74
1070
     0
1000
MTEXTEND
1000
MTEXTBEGIN
1070
    73
1070
     1
1070
    44
1040
1.0
1070
    74
1070
     0
1000
MTEXTEND
  0
POINT
  5
4CC5
330
4728
100
AcDbEntity
  8
DEFPOINTS
  6
BYBLOCK
 62
     0
100
AcDbPoint
 10
78.556929
 20
181.795902
 30
0.0
  0
POINT
  5
4CC6
330
4728
100
AcDbEntity
  8
DEFPOINTS
  6
BYBLOCK
 62
     0
100
AcDbPoint
 10
78.556929
 20
189.795902
 30
0.0
  0
POINT
  5
4CC7
330
4728
100
AcDbEntity
  8
DEFPOINTS
  6
BYBLOCK
 62
     0
100
AcDbPoint
 10
69.0
 20
189.795902
 30
0.0
  0
ENDBLK
  5
4CC8
330
4728
100
AcDbEntity
  8
0
100
AcDbBlockEnd
  0
BLOCK
  5
4CC9
330
4740
100
AcDbEntity
  8
0
100
AcDbBlockBegin
  2
*D10
 70
     1
 10
0.0
 20
0.0
 30
0.0
  3
*D10
  1

  0
LINE
  5
4CCA
330
4740
100
AcDbEntity
  8
0
  6
BYBLOCK
100
AcDbLine
 10
76.556929
 20
195.595902
 30
0.0
 11
67.75
 21
195.595902
 31
0.0
  0
LINE
  5
4CCB
330
4740
100
AcDbEntity
  8
0
  6
BYBLOCK
100
AcDbLine
 10
69.0
 20
189.795902
 30
0.0
 11
69.0
 21
195.595902
 31
0.0
  0
MTEXT
  5
4CCC
330
4740
100
AcDbEntity
  8
0
  6
BYBLOCK
 62
     2
100
AcDbMText
 10
67.45596899999999
 20
193.0
 30
0.0
 40
1.8
 41
0.0
 71
     5
 72
     5
  1
5.8
  7
FINDER
 11
0.0
 21
1.0
 31
0.0
1001
ACAD
1000
MTEXTBEGIN
1070
    73
1070
     1
1070
    44
1040
1.0
1070
    74
1070
     0
1000
MTEXTEND
1000
MTEXTBEGIN
1070
    73
1070
     1
1070
    44
1040
1.0
1070
    74
1070
     0
1000
MTEXTEND
1000
MTEXTBEGIN
1070
    73
1070
     1
1070
    44
1040
1.0
1070
    74
1070
     0
1000
MTEXTEND
  0
INSERT
  5
4CCD
330
4740
100
AcDbEntity
  8
0
  6
BYBLOCK
100
AcDbBlockReference
  2
_DOTSMALL
 10
69.0
 20
189.795902
 30
0.0
 41
2.5
 42
2.5
 43
2.5
 50
270.0
  0
INSERT
  5
4CCE
330
4740
100
AcDbEntity
  8
0
  6
BYBLOCK
100
AcDbBlockReference
  2
_DOTSMALL
 10
69.0
 20
195.595902
 30
0.0
 41
2.5
 42
2.5
 43
2.5
 50
90.0
  0
POINT
  5
4CCF
330
4740
100
AcDbEntity
  8
DEFPOINTS
  6
BYBLOCK
 62
     0
100
AcDbPoint
 10
78.556929
 20
189.795902
 30
0.0
  0
POINT
  5
4CD0
330
4740
100
AcDbEntity
  8
DEFPOINTS
  6
BYBLOCK
 62
     0
100
AcDbPoint
 10
78.556929
 20
195.595902
 30
0.0
  0
POINT
  5
4CD1
330
4740
100
AcDbEntity
  8
DEFPOINTS
  6
BYBLOCK
 62
     0
100
AcDbPoint
 10
69.0
 20
195.595902
 30
0.0
  0
ENDBLK
  5
4CD2
330
4740
100
AcDbEntity
  8
0
100
AcDbBlockEnd
  0
BLOCK
  5
4816
330
4815
100
AcDbEntity
  8
0
100
AcDbBlockBegin
  2
*D11
 70
     1
 10
0.0
 20
0.0
 30
0.0
  3
*D11
  1

  0
LINE
  5
4817
330
4815
100
AcDbEntity
  8
0
  6
BYBLOCK
100
AcDbLine
 10
143.355607
 20
119.755185
 30
0.0
 11
147.2499999999999
 21
119.755185
 31
0.0
  0
LINE
  5
4818
330
4815
100
AcDbEntity
  8
0
  6
BYBLOCK
100
AcDbLine
 10
143.355607
 20
116.155185
 30
0.0
 11
147.2499999999999
 21
116.155185
 31
0.0
  0
LINE
  5
4819
330
4815
100
AcDbEntity
  8
0
  6
BYBLOCK
100
AcDbLine
 10
146.0
 20
122.255185
 30
0.0
 11
146.0
 21
124.755185
 31
0.0
  0
LINE
  5
481A
330
4815
100
AcDbEntity
  8
0
  6
BYBLOCK
100
AcDbLine
 10
146.0
 20
113.655185
 30
0.0
 11
146.0
 21
106.6305599999999
 31
0.0
  0
LINE
  5
481B
330
4815
100
AcDbEntity
  8
0
  6
BYBLOCK
100
AcDbLine
 10
146.0
 20
119.755185
 30
0.0
 11
146.0
 21
116.155185
 31
0.0
  0
SOLID
  5
481C
330
4815
100
AcDbEntity
  8
0
  6
BYBLOCK
100
AcDbTrace
 10
145.583333
 20
122.255185
 30
0.0
 11
146.416667
 21
122.255185
 31
0.0
 12
146.0
 22
119.755185
 32
0.0
 13
146.0
 23
119.755185
 33
0.0
  0
SOLID
  5
481D
330
4815
100
AcDbEntity
  8
0
  6
BYBLOCK
100
AcDbTrace
 10
145.583333
 20
113.655185
 30
0.0
 11
146.416667
 21
113.655185
 31
0.0
 12
146.0
 22
116.155185
 32
0.0
 13
146.0
 23
116.155185
 33
0.0
  0
MTEXT
  5
481E
330
4815
100
AcDbEntity
  8
0
  6
BYBLOCK
 62
     2
100
AcDbMText
 10
144.455355
 20
108.8928729999999
 30
0.0
 40
1.8
 41
0.0
 71
     5
 72
     5
  1
3.6
  7
FINDER
 11
0.0
 21
1.0
 31
0.0
1001
ACAD
1000
MTEXTBEGIN
1070
    73
1070
     1
1070
    44
1040
1.0
1070
    74
1070
     0
1000
MTEXTEND
1000
MTEXTBEGIN
1070
    73
1070
     1
1070
    44
1040
1.0
1070
    74
1070
     0
1000
MTEXTEND
1000
MTEXTBEGIN
1070
    73
1070
     1
1070
    44
1040
1.0
1070
    74
1070
     0
1000
MTEXTEND
  0
POINT
  5
481F
330
4815
100
AcDbEntity
  8
DEFPOINTS
  6
BYBLOCK
 62
     0
100
AcDbPoint
 10
141.355607
 20
119.755185
 30
0.0
  0
POINT
  5
4820
330
4815
100
AcDbEntity
  8
DEFPOINTS
  6
BYBLOCK
 62
     0
100
AcDbPoint
 10
141.355607
 20
116.155185
 30
0.0
  0
POINT
  5
4821
330
4815
100
AcDbEntity
  8
DEFPOINTS
  6
BYBLOCK
 62
     0
100
AcDbPoint
 10
146.0
 20
116.155185
 30
0.0
  0
ENDBLK
  5
4822
330
4815
100
AcDbEntity
  8
0
100
AcDbBlockEnd
  0
BLOCK
  5
4CD3
330
487A
100
AcDbEntity
  8
0
100
AcDbBlockBegin
  2
*D12
 70
     1
 10
0.0
 20
0.0
 30
0.0
  3
*D12
  1

  0
LINE
  5
4CD4
330
487A
100
AcDbEntity
  8
0
  6
BYBLOCK
100
AcDbLine
 10
80.968833
 20
192.6959019999999
 30
0.0
 11
80.968833
 21
190.1959019999999
 31
0.0
  0
LINE
  5
4CD5
330
487A
100
AcDbEntity
  8
0
  6
BYBLOCK
100
AcDbLine
 10
80.968833
 20
198.4959019999999
 30
0.0
 11
80.968833
 21
206.5522029999999
 31
0.0
  0
LINE
  5
4CD6
330
487A
100
AcDbEntity
  8
0
  6
BYBLOCK
100
AcDbLine
 10
80.968833
 20
195.1959019999999
 30
0.0
 11
80.968833
 21
195.995902
 31
0.0
  0
SOLID
  5
4CD7
330
487A
100
AcDbEntity
  8
0
  6
BYBLOCK
100
AcDbTrace
 10
80.55216599999999
 20
192.6959019999999
 30
0.0
 11
81.38549899999999
 21
192.6959019999999
 31
0.0
 12
80.968833
 22
195.1959019999999
 32
0.0
 13
80.968833
 23
195.1959019999999
 33
0.0
  0
SOLID
  5
4CD8
330
487A
100
AcDbEntity
  8
0
  6
BYBLOCK
100
AcDbTrace
 10
80.55216599999999
 20
198.4959019999999
 30
0.0
 11
81.38549899999999
 21
198.4959019999999
 31
0.0
 12
80.968833
 22
195.995902
 32
0.0
 13
80.968833
 23
195.995902
 33
0.0
  0
MTEXT
  5
4CD9
330
487A
100
AcDbEntity
  8
0
  6
BYBLOCK
 62
     2
100
AcDbMText
 10
79.424801
 20
204.2868209999999
 30
0.0
 40
1.8
 41
0.0
 71
     5
 72
     5
  1
0.8
  7
FINDER
 11
0.0
 21
1.0
 31
0.0
1001
ACAD
1000
MTEXTBEGIN
1070
    73
1070
     1
1070
    44
1040
1.0
1070
    74
1070
     0
1000
MTEXTEND
1000
MTEXTBEGIN
1070
    73
1070
     1
1070
    44
1040
1.0
1070
    74
1070
     0
1000
MTEXTEND
1000
MTEXTBEGIN
1070
    73
1070
     1
1070
    44
1040
1.0
1070
    74
1070
     0
1000
MTEXTEND
  0
POINT
  5
4CDA
330
487A
100
AcDbEntity
  8
DEFPOINTS
  6
BYBLOCK
 62
     0
100
AcDbPoint
 10
84.55560699999997
 20
195.1959019999999
 30
0.0
  0
POINT
  5
4CDB
330
487A
100
AcDbEntity
  8
DEFPOINTS
  6
BYBLOCK
 62
     0
100
AcDbPoint
 10
84.55560699999997
 20
195.995902
 30
0.0
  0
POINT
  5
4CDC
330
487A
100
AcDbEntity
  8
DEFPOINTS
  6
BYBLOCK
 62
     0
100
AcDbPoint
 10
80.968833
 20
195.995902
 30
0.0
  0
ENDBLK
  5
4CDD
330
487A
100
AcDbEntity
  8
0
100
AcDbBlockEnd
  0
BLOCK
  5
49A7
330
4937
100
AcDbEntity
  8
0
100
AcDbBlockBegin
  2
*D13
 70
     1
 10
0.0
 20
0.0
 30
0.0
  3
*D13
  1

  0
LINE
  5
49A8
330
4937
100
AcDbEntity
  8
0
  6
BYBLOCK
100
AcDbLine
 10
76.05560699999998
 20
119.955185
 30
0.0
 11
76.05560699999998
 21
141.25
 31
0.0
  0
LINE
  5
49A9
330
4937
100
AcDbEntity
  8
0
  6
BYBLOCK
100
AcDbLine
 10
139.055607
 20
119.955185
 30
0.0
 11
139.055607
 21
141.25
 31
0.0
  0
LINE
  5
49AA
330
4937
100
AcDbEntity
  8
0
  6
BYBLOCK
100
AcDbLine
 10
78.55560699999998
 20
140.0
 30
0.0
 11
136.555607
 21
140.0
 31
0.0
  0
SOLID
  5
49AB
330
4937
100
AcDbEntity
  8
0
  6
BYBLOCK
100
AcDbTrace
 10
78.55560699999998
 20
140.4166669999999
 30
0.0
 11
78.55560699999998
 21
139.583333
 31
0.0
 12
76.05560699999998
 22
140.0
 32
0.0
 13
76.05560699999998
 23
140.0
 33
0.0
  0
SOLID
  5
49AC
330
4937
100
AcDbEntity
  8
0
  6
BYBLOCK
100
AcDbTrace
 10
136.555607
 20
140.4166669999999
 30
0.0
 11
136.555607
 21
139.583333
 31
0.0
 12
139.055607
 22
140.0
 32
0.0
 13
139.055607
 23
140.0
 33
0.0
  0
MTEXT
  5
49AD
330
4937
100
AcDbEntity
  8
0
  6
BYBLOCK
 62
     2
100
AcDbMText
 10
107.555607
 20
141.544645
 30
0.0
 40
1.8
 41
0.0
 71
     5
 72
     5
  1
63
  7
FINDER
1001
ACAD
1000
MTEXTBEGIN
1070
    73
1070
     1
1070
    44
1040
1.0
1070
    74
1070
     0
1000
MTEXTEND
1000
MTEXTBEGIN
1070
    73
1070
     1
1070
    44
1040
1.0
1070
    74
1070
     0
1000
MTEXTEND
1000
MTEXTBEGIN
1070
    73
1070
     1
1070
    44
1040
1.0
1070
    74
1070
     0
1000
MTEXTEND
  0
POINT
  5
49AE
330
4937
100
AcDbEntity
  8
DEFPOINTS
  6
BYBLOCK
 62
     0
100
AcDbPoint
 10
76.05560699999998
 20
117.955185
 30
0.0
  0
POINT
  5
49AF
330
4937
100
AcDbEntity
  8
DEFPOINTS
  6
BYBLOCK
 62
     0
100
AcDbPoint
 10
139.055607
 20
117.955185
 30
0.0
  0
POINT
  5
49B0
330
4937
100
AcDbEntity
  8
DEFPOINTS
  6
BYBLOCK
 62
     0
100
AcDbPoint
 10
139.055607
 20
140.0
 30
0.0
  0
ENDBLK
  5
49B1
330
4937
100
AcDbEntity
  8
0
100
AcDbBlockEnd
  0
BLOCK
  5
4CDE
330
4944
100
AcDbEntity
  8
0
100
AcDbBlockBegin
  2
*D14
 70
     1
 10
0.0
 20
0.0
 30
0.0
  3
*D14
  1

  0
LINE
  5
4CDF
330
4944
100
AcDbEntity
  8
0
  6
BYBLOCK
100
AcDbLine
 10
141.555607
 20
125.455185
 30
0.0
 11
141.555607
 21
141.25
 31
0.0
  0
LINE
  5
4CE0
330
4944
100
AcDbEntity
  8
0
  6
BYBLOCK
100
AcDbLine
 10
136.555607
 20
140.0
 30
0.0
 11
134.055607
 21
140.0
 31
0.0
  0
LINE
  5
4CE1
330
4944
100
AcDbEntity
  8
0
  6
BYBLOCK
100
AcDbLine
 10
144.055607
 20
140.0
 30
0.0
 11
146.555607
 21
140.0
 31
0.0
  0
LINE
  5
4CE2
330
4944
100
AcDbEntity
  8
0
  6
BYBLOCK
100
AcDbLine
 10
140.305607
 20
140.0
 30
0.0
 11
141.2375659999999
 21
143.106531
 31
0.0
  0
LINE
  5
4CE3
330
4944
100
AcDbEntity
  8
0
  6
BYBLOCK
100
AcDbLine
 10
141.2375659999999
 20
143.106531
 30
0.0
 11
145.808849
 21
143.106531
 31
0.0
  0
MTEXT
  5
4CE4
330
4944
100
AcDbEntity
  8
0
  6
BYBLOCK
 62
     2
100
AcDbMText
 10
141.8625659999999
 20
144.6505629999998
 30
0.0
 40
1.8
 41
0.0
 71
     4
 72
     5
  1
2.5
  7
FINDER
1001
ACAD
1000
MTEXTBEGIN
1070
    73
1070
     1
1070
    44
1040
1.0
1070
    74
1070
     0
1000
MTEXTEND
1000
MTEXTBEGIN
1070
    73
1070
     1
1070
    44
1040
1.0
1070
    74
1070
     0
1000
MTEXTEND
1000
MTEXTBEGIN
1070
    73
1070
     1
1070
    44
1040
1.0
1070
    74
1070
     0
1000
MTEXTEND
  0
LINE
  5
4CE5
330
4944
100
AcDbEntity
  8
0
  6
BYBLOCK
100
AcDbLine
 10
139.055607
 20
140.0
 30
0.0
 11
141.555607
 21
140.0
 31
0.0
  0
LINE
  5
4CE6
330
4944
100
AcDbEntity
  8
0
  6
BYBLOCK
100
AcDbLine
 10
139.055607
 20
140.0
 30
0.0
 11
141.555607
 21
140.0
 31
0.0
  0
SOLID
  5
4CE7
330
4944
100
AcDbEntity
  8
0
  6
BYBLOCK
100
AcDbTrace
 10
136.555607
 20
140.4166669999999
 30
0.0
 11
136.555607
 21
139.583333
 31
0.0
 12
139.055607
 22
140.0
 32
0.0
 13
139.055607
 23
140.0
 33
0.0
  0
SOLID
  5
4CE8
330
4944
100
AcDbEntity
  8
0
  6
BYBLOCK
100
AcDbTrace
 10
144.055607
 20
140.4166669999999
 30
0.0
 11
144.055607
 21
139.583333
 31
0.0
 12
141.555607
 22
140.0
 32
0.0
 13
141.555607
 23
140.0
 33
0.0
  0
POINT
  5
4CE9
330
4944
100
AcDbEntity
  8
DEFPOINTS
  6
BYBLOCK
 62
     0
100
AcDbPoint
 10
139.055607
 20
117.955185
 30
0.0
  0
POINT
  5
4CEA
330
4944
100
AcDbEntity
  8
DEFPOINTS
  6
BYBLOCK
 62
     0
100
AcDbPoint
 10
141.555607
 20
123.455185
 30
0.0
  0
POINT
  5
4CEB
330
4944
100
AcDbEntity
  8
DEFPOINTS
  6
BYBLOCK
 62
     0
100
AcDbPoint
 10
141.555607
 20
140.0
 30
0.0
  0
ENDBLK
  5
4CEC
330
4944
100
AcDbEntity
  8
0
100
AcDbBlockEnd
  0
BLOCK
  5
4CED
330
4955
100
AcDbEntity
  8
0
100
AcDbBlockBegin
  2
*D15
 70
     1
 10
0.0
 20
0.0
 30
0.0
  3
*D15
  1

  0
LINE
  5
4CEE
330
4955
100
AcDbEntity
  8
0
  6
BYBLOCK
100
AcDbLine
 10
73.55560699999998
 20
125.455185
 30
0.0
 11
73.55560699999998
 21
141.25
 31
0.0
  0
LINE
  5
4CEF
330
4955
100
AcDbEntity
  8
0
  6
BYBLOCK
100
AcDbLine
 10
78.55560699999998
 20
140.0
 30
0.0
 11
81.05560699999998
 21
140.0
 31
0.0
  0
LINE
  5
4CF0
330
4955
100
AcDbEntity
  8
0
  6
BYBLOCK
100
AcDbLine
 10
71.05560699999998
 20
140.0
 30
0.0
 11
68.55560699999999
 21
140.0
 31
0.0
  0
LINE
  5
4CF1
330
4955
100
AcDbEntity
  8
0
  6
BYBLOCK
100
AcDbLine
 10
74.80560699999998
 20
140.0
 30
0.0
 11
75.737566
 21
143.106531
 31
0.0
  0
LINE
  5
4CF2
330
4955
100
AcDbEntity
  8
0
  6
BYBLOCK
100
AcDbLine
 10
75.737566
 20
143.106531
 30
0.0
 11
80.308849
 21
143.106531
 31
0.0
  0
MTEXT
  5
4CF3
330
4955
100
AcDbEntity
  8
0
  6
BYBLOCK
 62
     2
100
AcDbMText
 10
76.362566
 20
144.6505629999998
 30
0.0
 40
1.8
 41
0.0
 71
     4
 72
     5
  1
2.5
  7
FINDER
1001
ACAD
1000
MTEXTBEGIN
1070
    73
1070
     1
1070
    44
1040
1.0
1070
    74
1070
     0
1000
MTEXTEND
1000
MTEXTBEGIN
1070
    73
1070
     1
1070
    44
1040
1.0
1070
    74
1070
     0
1000
MTEXTEND
1000
MTEXTBEGIN
1070
    73
1070
     1
1070
    44
1040
1.0
1070
    74
1070
     0
1000
MTEXTEND
  0
LINE
  5
4CF4
330
4955
100
AcDbEntity
  8
0
  6
BYBLOCK
100
AcDbLine
 10
76.05560699999998
 20
140.0
 30
0.0
 11
73.55560699999998
 21
140.0
 31
0.0
  0
LINE
  5
4CF5
330
4955
100
AcDbEntity
  8
0
  6
BYBLOCK
100
AcDbLine
 10
76.05560699999998
 20
140.0
 30
0.0
 11
73.55560699999998
 21
140.0
 31
0.0
  0
SOLID
  5
4CF6
330
4955
100
AcDbEntity
  8
0
  6
BYBLOCK
100
AcDbTrace
 10
78.55560699999998
 20
140.4166669999999
 30
0.0
 11
78.55560699999998
 21
139.583333
 31
0.0
 12
76.05560699999998
 22
140.0
 32
0.0
 13
76.05560699999998
 23
140.0
 33
0.0
  0
SOLID
  5
4CF7
330
4955
100
AcDbEntity
  8
0
  6
BYBLOCK
100
AcDbTrace
 10
71.05560699999998
 20
140.4166669999999
 30
0.0
 11
71.05560699999998
 21
139.583333
 31
0.0
 12
73.55560699999998
 22
140.0
 32
0.0
 13
73.55560699999998
 23
140.0
 33
0.0
  0
POINT
  5
4CF8
330
4955
100
AcDbEntity
  8
DEFPOINTS
  6
BYBLOCK
 62
     0
100
AcDbPoint
 10
76.05560699999998
 20
117.955185
 30
0.0
  0
POINT
  5
4CF9
330
4955
100
AcDbEntity
  8
DEFPOINTS
  6
BYBLOCK
 62
     0
100
AcDbPoint
 10
73.55560699999998
 20
123.455185
 30
0.0
  0
POINT
  5
4CFA
330
4955
100
AcDbEntity
  8
DEFPOINTS
  6
BYBLOCK
 62
     0
100
AcDbPoint
 10
73.55560699999998
 20
140.0
 30
0.0
  0
ENDBLK
  5
4CFB
330
4955
100
AcDbEntity
  8
0
100
AcDbBlockEnd
  0
BLOCK
  5
499C
330
498F
100
AcDbEntity
  8
0
100
AcDbBlockBegin
  2
*D16
 70
     1
 10
0.0
 20
0.0
 30
0.0
  3
*D16
  1

  0
LINE
  5
499D
330
498F
100
AcDbEntity
  8
0
  6
BYBLOCK
100
AcDbLine
 10
73.55560699999998
 20
125.455185
 30
0.0
 11
73.55560699999998
 21
148.2499999999999
 31
0.0
  0
LINE
  5
499E
330
498F
100
AcDbEntity
  8
0
  6
BYBLOCK
100
AcDbLine
 10
141.555607
 20
125.455185
 30
0.0
 11
141.555607
 21
148.2499999999999
 31
0.0
  0
LINE
  5
499F
330
498F
100
AcDbEntity
  8
0
  6
BYBLOCK
100
AcDbLine
 10
76.05560699999998
 20
147.0
 30
0.0
 11
139.055607
 21
147.0
 31
0.0
  0
SOLID
  5
49A0
330
498F
100
AcDbEntity
  8
0
  6
BYBLOCK
100
AcDbTrace
 10
76.05560699999998
 20
147.4166669999999
 30
0.0
 11
76.05560699999998
 21
146.583333
 31
0.0
 12
73.55560699999998
 22
147.0
 32
0.0
 13
73.55560699999998
 23
147.0
 33
0.0
  0
SOLID
  5
49A1
330
498F
100
AcDbEntity
  8
0
  6
BYBLOCK
100
AcDbTrace
 10
139.055607
 20
147.4166669999999
 30
0.0
 11
139.055607
 21
146.583333
 31
0.0
 12
141.555607
 22
147.0
 32
0.0
 13
141.555607
 23
147.0
 33
0.0
  0
MTEXT
  5
49A2
330
498F
100
AcDbEntity
  8
0
  6
BYBLOCK
 62
     2
100
AcDbMText
 10
107.555607
 20
148.544031
 30
0.0
 40
1.8
 41
0.0
 71
     5
 72
     5
  1
68
  7
FINDER
1001
ACAD
1000
MTEXTBEGIN
1070
    73
1070
     1
1070
    44
1040
1.0
1070
    74
1070
     0
1000
MTEXTEND
1000
MTEXTBEGIN
1070
    73
1070
     1
1070
    44
1040
1.0
1070
    74
1070
     0
1000
MTEXTEND
1000
MTEXTBEGIN
1070
    73
1070
     1
1070
    44
1040
1.0
1070
    74
1070
     0
1000
MTEXTEND
  0
POINT
  5
49A3
330
498F
100
AcDbEntity
  8
DEFPOINTS
  6
BYBLOCK
 62
     0
100
AcDbPoint
 10
73.55560699999998
 20
123.455185
 30
0.0
  0
POINT
  5
49A4
330
498F
100
AcDbEntity
  8
DEFPOINTS
  6
BYBLOCK
 62
     0
100
AcDbPoint
 10
141.555607
 20
123.455185
 30
0.0
  0
POINT
  5
49A5
330
498F
100
AcDbEntity
  8
DEFPOINTS
  6
BYBLOCK
 62
     0
100
AcDbPoint
 10
141.555607
 20
147.0
 30
0.0
  0
ENDBLK
  5
49A6
330
498F
100
AcDbEntity
  8
0
100
AcDbBlockEnd
  0
BLOCK
  5
4CFC
330
49D5
100
AcDbEntity
  8
0
100
AcDbBlockBegin
  2
*D17
 70
     1
 10
0.0
 20
0.0
 30
0.0
  3
*D17
  1

  0
LINE
  5
4CFD
330
49D5
100
AcDbEntity
  8
0
  6
BYBLOCK
100
AcDbLine
 10
83.0
 20
107.505185
 30
0.0
 11
83.0
 21
106.205185
 31
0.0
  0
LINE
  5
4CFE
330
49D5
100
AcDbEntity
  8
0
  6
BYBLOCK
100
AcDbLine
 10
83.0
 20
103.705185
 30
0.0
 11
83.0
 21
96.66828200000001
 31
0.0
  0
SOLID
  5
4CFF
330
49D5
100
AcDbEntity
  8
0
  6
BYBLOCK
100
AcDbTrace
 10
82.583333
 20
107.505185
 30
0.0
 11
83.41666700000002
 21
107.505185
 31
0.0
 12
83.0
 22
110.005185
 32
0.0
 13
83.0
 23
110.005185
 33
0.0
  0
SOLID
  5
4D00
330
49D5
100
AcDbEntity
  8
0
  6
BYBLOCK
100
AcDbTrace
 10
82.583333
 20
106.205185
 30
0.0
 11
83.41666700000002
 21
106.205185
 31
0.0
 12
83.0
 22
103.705185
 32
0.0
 13
83.0
 23
103.705185
 33
0.0
  0
MTEXT
  5
4D01
330
49D5
100
AcDbEntity
  8
0
  6
BYBLOCK
 62
     2
100
AcDbMText
 10
81.45535500000002
 20
98.936734
 30
0.0
 40
1.8
 41
0.0
 71
     5
 72
     5
  1
6.3
  7
FINDER
 11
0.0
 21
1.0
 31
0.0
1001
ACAD
1000
MTEXTBEGIN
1070
    73
1070
     1
1070
    44
1040
1.0
1070
    74
1070
     0
1000
MTEXTEND
1000
MTEXTBEGIN
1070
    73
1070
     1
1070
    44
1040
1.0
1070
    74
1070
     0
1000
MTEXTEND
1000
MTEXTBEGIN
1070
    73
1070
     1
1070
    44
1040
1.0
1070
    74
1070
     0
1000
MTEXTEND
  0
POINT
  5
4D02
330
49D5
100
AcDbEntity
  8
DEFPOINTS
  6
BYBLOCK
 62
     0
100
AcDbPoint
 10
79.55692899999998
 20
110.005185
 30
0.0
  0
POINT
  5
4D03
330
49D5
100
AcDbEntity
  8
DEFPOINTS
  6
BYBLOCK
 62
     0
100
AcDbPoint
 10
79.55692899999998
 20
103.705185
 30
0.0
  0
POINT
  5
4D04
330
49D5
100
AcDbEntity
  8
DEFPOINTS
  6
BYBLOCK
 62
     0
100
AcDbPoint
 10
83.0
 20
103.705185
 30
0.0
  0
ENDBLK
  5
4D05
330
49D5
100
AcDbEntity
  8
0
100
AcDbBlockEnd
  0
BLOCK
  5
4D06
330
4A70
100
AcDbEntity
  8
0
100
AcDbBlockBegin
  2
*D18
 70
     1
 10
0.0
 20
0.0
 30
0.0
  3
*D18
  1

  0
LINE
  5
4D07
330
4A70
100
AcDbEntity
  8
0
  6
BYBLOCK
100
AcDbLine
 10
86.256929
 20
201.1959019999999
 30
0.0
 11
67.75
 21
201.1959019999999
 31
0.0
  0
LINE
  5
4D08
330
4A70
100
AcDbEntity
  8
0
  6
BYBLOCK
100
AcDbLine
 10
69.0
 20
195.595902
 30
0.0
 11
69.0
 21
198.695902
 31
0.0
  0
MTEXT
  5
4D09
330
4A70
100
AcDbEntity
  8
0
  6
BYBLOCK
 62
     2
100
AcDbMText
 10
67.45596899999999
 20
198.695902
 30
0.0
 40
1.8
 41
0.0
 71
     5
 72
     5
  1
5.6
  7
FINDER
 11
0.0
 21
1.0
 31
0.0
1001
ACAD
1000
MTEXTBEGIN
1070
    73
1070
     1
1070
    44
1040
1.0
1070
    74
1070
     0
1000
MTEXTEND
1000
MTEXTBEGIN
1070
    73
1070
     1
1070
    44
1040
1.0
1070
    74
1070
     0
1000
MTEXTEND
1000
MTEXTBEGIN
1070
    73
1070
     1
1070
    44
1040
1.0
1070
    74
1070
     0
1000
MTEXTEND
  0
INSERT
  5
4D0A
330
4A70
100
AcDbEntity
  8
0
  6
BYBLOCK
100
AcDbBlockReference
  2
_DOTSMALL
 10
69.0
 20
195.595902
 30
0.0
 41
2.5
 42
2.5
 43
2.5
 50
270.0
  0
SOLID
  5
4D0B
330
4A70
100
AcDbEntity
  8
0
  6
BYBLOCK
100
AcDbTrace
 10
68.58333299999999
 20
198.695902
 30
0.0
 11
69.416667
 21
198.695902
 31
0.0
 12
69.0
 22
201.1959019999999
 32
0.0
 13
69.0
 23
201.1959019999999
 33
0.0
  0
POINT
  5
4D0C
330
4A70
100
AcDbEntity
  8
DEFPOINTS
  6
BYBLOCK
 62
     0
100
AcDbPoint
 10
78.556929
 20
195.595902
 30
0.0
  0
POINT
  5
4D0D
330
4A70
100
AcDbEntity
  8
DEFPOINTS
  6
BYBLOCK
 62
     0
100
AcDbPoint
 10
88.25692899999998
 20
201.1959019999999
 30
0.0
  0
POINT
  5
4D0E
330
4A70
100
AcDbEntity
  8
DEFPOINTS
  6
BYBLOCK
 62
     0
100
AcDbPoint
 10
69.0
 20
201.1959019999999
 30
0.0
  0
ENDBLK
  5
4D0F
330
4A70
100
AcDbEntity
  8
0
100
AcDbBlockEnd
  0
BLOCK
  5
4DA4
330
4D15
100
AcDbEntity
  8
0
100
AcDbBlockBegin
  2
*X19
 70
     1
 10
0.0
 20
0.0
 30
0.0
  3
*X19
  1

  0
LINE
  5
4D16
330
4D15
100
AcDbEntity
  8
0
  6
CONTINUOUS
 62
     0
100
AcDbLine
 10
14.989467
 20
20.308874
 30
0.0
 11
15.516193
 21
20.83559999999998
 31
0.0
  0
LINE
  5
4D17
330
4D15
100
AcDbEntity
  8
0
  6
CONTINUOUS
 62
     0
100
AcDbLine
 10
14.112517
 20
19.714767
 30
0.0
 11
16.11029999999999
 21
21.71254999999999
 31
0.0
  0
LINE
  5
4D18
330
4D15
100
AcDbEntity
  8
0
  6
CONTINUOUS
 62
     0
100
AcDbLine
 10
13.596595
 20
19.481687
 30
0.0
 11
16.34338
 21
22.228473
 31
0.0
  0
LINE
  5
4D19
330
4D15
100
AcDbEntity
  8
0
  6
CONTINUOUS
 62
     0
100
AcDbLine
 10
13.174894
 20
19.342829
 30
0.0
 11
16.482238
 21
22.650174
 31
0.0
  0
LINE
  5
4D1A
330
4D15
100
AcDbEntity
  8
0
  6
CONTINUOUS
 62
     0
100
AcDbLine
 10
12.804844
 20
19.25562199999999
 30
0.0
 11
16.569445
 21
23.020223
 31
0.0
  0
LINE
  5
4D1B
330
4D15
100
AcDbEntity
  8
0
  6
CONTINUOUS
 62
     0
100
AcDbLine
 10
14.79535199999999
 20
21.528973
 30
0.0
 11
16.62213299999999
 21
23.355754
 31
0.0
  0
LINE
  5
4D1C
330
4D15
100
AcDbEntity
  8
0
  6
CONTINUOUS
 62
     0
100
AcDbLine
 10
12.46931299999999
 20
19.202934
 30
0.0
 11
14.296095
 21
21.029715
 31
0.0
  0
LINE
  5
4D1D
330
4D15
100
AcDbEntity
  8
0
  6
CONTINUOUS
 62
     0
100
AcDbLine
 10
15.29353599999999
 20
22.309999
 30
0.0
 11
16.649275
 21
23.665738
 31
0.0
  0
LINE
  5
4D1E
330
4D15
100
AcDbEntity
  8
0
  6
CONTINUOUS
 62
     0
100
AcDbLine
 10
12.159329
 20
19.17579299999998
 30
0.0
 11
13.515068
 21
20.531532
 31
0.0
  0
LINE
  5
4D1F
330
4D15
100
AcDbEntity
  8
0
  6
CONTINUOUS
 62
     0
100
AcDbLine
 10
15.479088
 20
22.77839399999999
 30
0.0
 11
16.656273
 21
23.955579
 31
0.0
  0
LINE
  5
4D20
330
4D15
100
AcDbEntity
  8
0
  6
CONTINUOUS
 62
     0
100
AcDbLine
 10
11.869488
 20
19.168795
 30
0.0
 11
13.046674
 21
20.34597999999998
 31
0.0
  0
LINE
  5
4D21
330
4D15
100
AcDbEntity
  8
0
  6
CONTINUOUS
 62
     0
100
AcDbLine
 10
15.580082
 20
23.16223099999999
 30
0.0
 11
16.646682
 21
24.22883099999999
 31
0.0
  0
LINE
  5
4D22
330
4D15
100
AcDbEntity
  8
0
  6
CONTINUOUS
 62
     0
100
AcDbLine
 10
11.59623599999999
 20
19.178385
 30
0.0
 11
12.662836
 21
20.24498499999999
 31
0.0
  0
LINE
  5
4D23
330
4D15
100
AcDbEntity
  8
0
  6
CONTINUOUS
 62
     0
100
AcDbLine
 10
12.654531
 20
20.51952299999999
 30
0.0
 11
13.323223
 21
21.188215
 31
0.0
  0
LINE
  5
4D24
330
4D15
100
AcDbEntity
  8
0
  6
CONTINUOUS
 62
     0
100
AcDbLine
 10
15.634125
 20
23.499117
 30
0.0
 11
16.62298599999999
 21
24.48797799999999
 31
0.0
  0
LINE
  5
4D25
330
4D15
100
AcDbEntity
  8
0
  6
CONTINUOUS
 62
     0
100
AcDbLine
 10
11.33709
 20
19.202082
 30
0.0
 11
12.325951
 21
20.190943
 31
0.0
  0
LINE
  5
4D26
330
4D15
100
AcDbEntity
  8
0
  6
CONTINUOUS
 62
     0
100
AcDbLine
 10
12.404347
 20
20.552181
 30
0.0
 11
13.323223
 21
21.471057
 31
0.0
  0
LINE
  5
4D27
330
4D15
100
AcDbEntity
  8
0
  6
CONTINUOUS
 62
     0
100
AcDbLine
 10
15.656425
 20
23.804259
 30
0.0
 11
16.586997
 21
24.734832
 31
0.0
  0
LINE
  5
4D28
330
4D15
100
AcDbEntity
  8
0
  6
CONTINUOUS
 62
     0
100
AcDbLine
 10
11.090236
 20
19.23807
 30
0.0
 11
12.020808
 21
20.16864299999999
 31
0.0
  0
LINE
  5
4D29
330
4D15
100
AcDbEntity
  8
0
  6
CONTINUOUS
 62
     0
100
AcDbLine
 10
12.212553
 20
20.64322999999999
 30
0.0
 11
13.323223
 21
21.7539
 31
0.0
  0
LINE
  5
4D2A
330
4D15
100
AcDbEntity
  8
0
  6
CONTINUOUS
 62
     0
100
AcDbLine
 10
15.65496099999999
 20
24.085639
 30
0.0
 11
16.540085
 21
24.970762
 31
0.0
  0
LINE
  5
4D2B
330
4D15
100
AcDbEntity
  8
0
  6
CONTINUOUS
 62
     0
100
AcDbLine
 10
10.854306
 20
19.284983
 30
0.0
 11
11.73942899999999
 21
20.170106
 31
0.0
  0
LINE
  5
4D2C
330
4D15
100
AcDbEntity
  8
0
  6
CONTINUOUS
 62
     0
100
AcDbLine
 10
12.063213
 20
20.776733
 30
0.0
 11
13.323223
 21
22.03674299999998
 31
0.0
  0
LINE
  5
4D2D
330
4D15
100
AcDbEntity
  8
0
  6
CONTINUOUS
 62
     0
100
AcDbLine
 10
15.634541
 20
24.34806
 30
0.0
 11
16.48330599999999
 21
25.196826
 31
0.0
  0
LINE
  5
4D2E
330
4D15
100
AcDbEntity
  8
0
  6
CONTINUOUS
 62
     0
100
AcDbLine
 10
10.628242
 20
19.34176099999998
 30
0.0
 11
11.477007
 21
20.190527
 31
0.0
  0
LINE
  5
4D2F
330
4D15
100
AcDbEntity
  8
0
  6
CONTINUOUS
 62
     0
100
AcDbLine
 10
11.920447
 20
20.916809
 30
0.0
 11
13.323223
 21
22.319586
 31
0.0
  0
LINE
  5
4D30
330
4D15
100
AcDbEntity
  8
0
  6
CONTINUOUS
 62
     0
100
AcDbLine
 10
15.598315
 20
24.594678
 30
0.0
 11
16.41749599999998
 21
25.413858
 31
0.0
  0
LINE
  5
4D31
330
4D15
100
AcDbEntity
  8
0
  6
CONTINUOUS
 62
     0
100
AcDbLine
 10
10.41120899999999
 20
19.407572
 30
0.0
 11
11.23039
 21
20.22675199999997
 31
0.0
  0
LINE
  5
4D32
330
4D15
100
AcDbEntity
  8
0
  6
CONTINUOUS
 62
     0
100
AcDbLine
 10
11.77768
 20
21.056886
 30
0.0
 11
13.323223
 21
22.60242799999998
 31
0.0
  0
LINE
  5
4D33
330
4D15
100
AcDbEntity
  8
0
  6
CONTINUOUS
 62
     0
100
AcDbLine
 10
15.548478
 20
24.827684
 30
0.0
 11
16.34332099999999
 21
25.622526
 31
0.0
  0
LINE
  5
4D34
330
4D15
100
AcDbEntity
  8
0
  6
CONTINUOUS
 62
     0
100
AcDbLine
 10
10.202541
 20
19.481747
 30
0.0
 11
10.997384
 21
20.276589
 31
0.0
  0
LINE
  5
4D35
330
4D15
100
AcDbEntity
  8
0
  6
CONTINUOUS
 62
     0
100
AcDbLine
 10
12.362923
 20
21.924971
 30
0.0
 11
13.323223
 21
22.885271
 31
0.0
  0
LINE
  5
4D36
330
4D15
100
AcDbEntity
  8
0
  6
CONTINUOUS
 62
     0
100
AcDbLine
 10
11.634914
 20
21.19696199999999
 30
0.0
 11
12.307877
 21
21.869925
 31
0.0
  0
LINE
  5
4D37
330
4D15
100
AcDbEntity
  8
0
  6
CONTINUOUS
 62
     0
100
AcDbLine
 10
15.486619
 20
25.048667
 30
0.0
 11
16.26132099999999
 21
25.823369
 31
0.0
  0
LINE
  5
4D38
330
4D15
100
AcDbEntity
  8
0
  6
CONTINUOUS
 62
     0
100
AcDbLine
 10
10.001699
 20
19.56374699999998
 30
0.0
 11
10.77640099999999
 21
20.338449
 31
0.0
  0
LINE
  5
4D39
330
4D15
100
AcDbEntity
  8
0
  6
CONTINUOUS
 62
     0
100
AcDbLine
 10
12.362923
 20
22.207814
 30
0.0
 11
13.323223
 21
23.168114
 31
0.0
  0
LINE
  5
4D3A
330
4D15
100
AcDbEntity
  8
0
  6
CONTINUOUS
 62
     0
100
AcDbLine
 10
11.49214799999999
 20
21.33703899999998
 30
0.0
 11
12.172228
 21
22.017119
 31
0.0
  0
LINE
  5
4D3B
330
4D15
100
AcDbEntity
  8
0
  6
CONTINUOUS
 62
     0
100
AcDbLine
 10
15.41392
 20
25.25881099999999
 30
0.0
 11
16.171934
 21
26.016825
 31
0.0
  0
LINE
  5
4D3C
330
4D15
100
AcDbEntity
  8
0
  6
CONTINUOUS
 62
     0
100
AcDbLine
 10
9.808242999999999
 20
19.65313399999998
 30
0.0
 11
10.566257
 21
20.411147
 31
0.0
  0
LINE
  5
4D3D
330
4D15
100
AcDbEntity
  8
0
  6
CONTINUOUS
 62
     0
100
AcDbLine
 10
12.362923
 20
22.490656
 30
0.0
 11
13.323223
 21
23.450956
 31
0.0
  0
LINE
  5
4D3E
330
4D15
100
AcDbEntity
  8
0
  6
CONTINUOUS
 62
     0
100
AcDbLine
 10
14.38066
 20
24.508394
 30
0.0
 11
14.903943
 21
25.031677
 31
0.0
  0
LINE
  5
4D3F
330
4D15
100
AcDbEntity
  8
0
  6
CONTINUOUS
 62
     0
100
AcDbLine
 10
11.349382
 20
21.47711499999999
 30
0.0
 11
12.03658
 21
22.16431299999999
 31
0.0
  0
LINE
  5
4D40
330
4D15
100
AcDbEntity
  8
0
  6
CONTINUOUS
 62
     0
100
AcDbLine
 10
15.33128299999999
 20
25.459017
 30
0.0
 11
16.07551799999999
 21
26.203251
 31
0.0
  0
LINE
  5
4D41
330
4D15
100
AcDbEntity
  8
0
  6
CONTINUOUS
 62
     0
100
AcDbLine
 10
9.621817
 20
19.74954999999998
 30
0.0
 11
10.36605099999998
 21
20.49378399999997
 31
0.0
  0
LINE
  5
4D42
330
4D15
100
AcDbEntity
  8
0
  6
CONTINUOUS
 62
     0
100
AcDbLine
 10
12.362923
 20
22.77349899999999
 30
0.0
 11
13.323223
 21
23.73379899999999
 31
0.0
  0
LINE
  5
4D43
330
4D15
100
AcDbEntity
  8
0
  6
CONTINUOUS
 62
     0
100
AcDbLine
 10
14.097817
 20
24.508394
 30
0.0
 11
14.840413
 21
25.25098999999999
 31
0.0
  0
LINE
  5
4D44
330
4D15
100
AcDbEntity
  8
0
  6
CONTINUOUS
 62
     0
100
AcDbLine
 10
11.206616
 20
21.617192
 30
0.0
 11
11.900931
 21
22.311507
 31
0.0
  0
LINE
  5
4D45
330
4D15
100
AcDbEntity
  8
0
  6
CONTINUOUS
 62
     0
100
AcDbLine
 10
15.2394
 20
25.649976
 30
0.0
 11
15.972362
 21
26.382939
 31
0.0
  0
LINE
  5
4D46
330
4D15
100
AcDbEntity
  8
0
  6
CONTINUOUS
 62
     0
100
AcDbLine
 10
9.442128999999999
 20
19.852705
 30
0.0
 11
10.175091
 21
20.58566799999999
 31
0.0
  0
LINE
  5
4D47
330
4D15
100
AcDbEntity
  8
0
  6
CONTINUOUS
 62
     0
100
AcDbLine
 10
12.362923
 20
23.056342
 30
0.0
 11
13.323223
 21
24.016642
 31
0.0
  0
LINE
  5
4D48
330
4D15
100
AcDbEntity
  8
0
  6
CONTINUOUS
 62
     0
100
AcDbLine
 10
13.814975
 20
24.508394
 30
0.0
 11
14.709087
 21
25.402506
 31
0.0
  0
LINE
  5
4D49
330
4D15
100
AcDbEntity
  8
0
  6
CONTINUOUS
 62
     0
100
AcDbLine
 10
11.063849
 20
21.757268
 30
0.0
 11
11.765282
 21
22.458701
 31
0.0
  0
LINE
  5
4D4A
330
4D15
100
AcDbEntity
  8
0
  6
CONTINUOUS
 62
     0
100
AcDbLine
 10
15.13880499999999
 20
25.832223
 30
0.0
 11
15.86270299999999
 21
26.556122
 31
0.0
  0
LINE
  5
4D4B
330
4D15
100
AcDbEntity
  8
0
  6
CONTINUOUS
 62
     0
100
AcDbLine
 10
9.268945
 20
19.962364
 30
0.0
 11
9.992843999999999
 21
20.686263
 31
0.0
  0
LINE
  5
4D4C
330
4D15
100
AcDbEntity
  8
0
  6
CONTINUOUS
 62
     0
100
AcDbLine
 10
12.362923
 20
23.339185
 30
0.0
 11
13.323223
 21
24.299485
 31
0.0
  0
LINE
  5
4D4D
330
4D15
100
AcDbEntity
  8
0
  6
CONTINUOUS
 62
     0
100
AcDbLine
 10
13.532132
 20
24.508394
 30
0.0
 11
14.51689299999999
 21
25.493154
 31
0.0
  0
LINE
  5
4D4E
330
4D15
100
AcDbEntity
  8
0
  6
CONTINUOUS
 62
     0
100
AcDbLine
 10
10.921083
 20
21.897345
 30
0.0
 11
11.62963399999999
 21
22.605895
 31
0.0
  0
LINE
  5
4D4F
330
4D15
100
AcDbEntity
  8
0
  6
CONTINUOUS
 62
     0
100
AcDbLine
 10
15.029907
 20
26.006168
 30
0.0
 11
15.74672699999999
 21
26.722988
 31
0.0
  0
LINE
  5
4D50
330
4D15
100
AcDbEntity
  8
0
  6
CONTINUOUS
 62
     0
100
AcDbLine
 10
9.102078999999999
 20
20.078341
 30
0.0
 11
9.818899
 21
20.795161
 31
0.0
  0
LINE
  5
4D51
330
4D15
100
AcDbEntity
  8
0
  6
CONTINUOUS
 62
     0
100
AcDbLine
 10
12.362923
 20
23.622027
 30
0.0
 11
14.244239
 21
25.503344
 31
0.0
  0
LINE
  5
4D52
330
4D15
100
AcDbEntity
  8
0
  6
CONTINUOUS
 62
     0
100
AcDbLine
 10
10.77831699999999
 20
22.03742099999999
 30
0.0
 11
11.49398499999999
 21
22.753089
 31
0.0
  0
LINE
  5
4D53
330
4D15
100
AcDbEntity
  8
0
  6
CONTINUOUS
 62
     0
100
AcDbLine
 10
14.913014
 20
26.172119
 30
0.0
 11
15.62457699999999
 21
26.88368099999999
 31
0.0
  0
LINE
  5
4D54
330
4D15
100
AcDbEntity
  8
0
  6
CONTINUOUS
 62
     0
100
AcDbLine
 10
8.941385999999997
 20
20.200491
 30
0.0
 11
9.652948999999999
 21
20.91205299999999
 31
0.0
  0
LINE
  5
4D55
330
4D15
100
AcDbEntity
  8
0
  6
CONTINUOUS
 62
     0
100
AcDbLine
 10
12.362923
 20
23.90487
 30
0.0
 11
13.96139699999999
 21
25.503344
 31
0.0
  0
LINE
  5
4D56
330
4D15
100
AcDbEntity
  8
0
  6
CONTINUOUS
 62
     0
100
AcDbLine
 10
10.635551
 20
22.17749799999999
 30
0.0
 11
11.35833599999999
 21
22.90028299999999
 31
0.0
  0
LINE
  5
4D57
330
4D15
100
AcDbEntity
  8
0
  6
CONTINUOUS
 62
     0
100
AcDbLine
 10
14.78835
 20
26.33029699999999
 30
0.0
 11
15.49636
 21
27.038307
 31
0.0
  0
LINE
  5
4D58
330
4D15
100
AcDbEntity
  8
0
  6
CONTINUOUS
 62
     0
100
AcDbLine
 10
8.786760000000001
 20
20.328707
 30
0.0
 11
9.494771
 21
21.036718
 31
0.0
  0
LINE
  5
4D59
330
4D15
100
AcDbEntity
  8
0
  6
CONTINUOUS
 62
     0
100
AcDbLine
 10
12.362923
 20
24.187713
 30
0.0
 11
13.678554
 21
25.503344
 31
0.0
  0
LINE
  5
4D5A
330
4D15
100
AcDbEntity
  8
0
  6
CONTINUOUS
 62
     0
100
AcDbLine
 10
10.492785
 20
22.317574
 30
0.0
 11
11.222688
 21
23.047477
 31
0.0
  0
LINE
  5
4D5B
330
4D15
100
AcDbEntity
  8
0
  6
CONTINUOUS
 62
     0
100
AcDbLine
 10
14.65606
 20
26.48085
 30
0.0
 11
15.362148
 21
27.186938
 31
0.0
  0
LINE
  5
4D5C
330
4D15
100
AcDbEntity
  8
0
  6
CONTINUOUS
 62
     0
100
AcDbLine
 10
8.63813
 20
20.46291899999999
 30
0.0
 11
9.344217999999999
 21
21.16900799999998
 31
0.0
  0
LINE
  5
4D5D
330
4D15
100
AcDbEntity
  8
0
  6
CONTINUOUS
 62
     0
100
AcDbLine
 10
12.362923
 20
24.47055499999999
 30
0.0
 11
13.39571099999999
 21
25.503344
 31
0.0
  0
LINE
  5
4D5E
330
4D15
100
AcDbEntity
  8
0
  6
CONTINUOUS
 62
     0
100
AcDbLine
 10
10.35001799999998
 20
22.457651
 30
0.0
 11
11.087039
 21
23.194672
 31
0.0
  0
LINE
  5
4D5F
330
4D15
100
AcDbEntity
  8
0
  6
CONTINUOUS
 62
     0
100
AcDbLine
 10
14.51622399999999
 20
26.623856
 30
0.0
 11
15.221979
 21
27.329612
 31
0.0
  0
LINE
  5
4D60
330
4D15
100
AcDbEntity
  8
0
  6
CONTINUOUS
 62
     0
100
AcDbLine
 10
8.495455999999999
 20
20.603088
 30
0.0
 11
9.201211
 21
21.308844
 31
0.0
  0
LINE
  5
4D61
330
4D15
100
AcDbEntity
  8
0
  6
CONTINUOUS
 62
     0
100
AcDbLine
 10
11.020368
 20
23.410844
 30
0.0
 11
11.41387299999998
 21
23.804348
 31
0.0
  0
LINE
  5
4D62
330
4D15
100
AcDbEntity
  8
0
  6
CONTINUOUS
 62
     0
100
AcDbLine
 10
12.362923
 20
24.753398
 30
0.0
 11
13.323223
 21
25.713698
 31
0.0
  0
LINE
  5
4D63
330
4D15
100
AcDbEntity
  8
0
  6
CONTINUOUS
 62
     0
100
AcDbLine
 10
10.20725199999999
 20
22.597727
 30
0.0
 11
10.951391
 21
23.341866
 31
0.0
  0
LINE
  5
4D64
330
4D15
100
AcDbEntity
  8
0
  6
CONTINUOUS
 62
     0
100
AcDbLine
 10
14.368854
 20
26.75933
 30
0.0
 11
15.07586
 21
27.466336
 31
0.0
  0
LINE
  5
4D65
330
4D15
100
AcDbEntity
  8
0
  6
CONTINUOUS
 62
     0
100
AcDbLine
 10
8.358731999999998
 20
20.749207
 30
0.0
 11
9.065737999999999
 21
21.456213
 31
0.0
  0
LINE
  5
4D66
330
4D15
100
AcDbEntity
  8
0
  6
CONTINUOUS
 62
     0
100
AcDbLine
 10
12.362923
 20
25.036241
 30
0.0
 11
13.323223
 21
25.996541
 31
0.0
  0
LINE
  5
4D67
330
4D15
100
AcDbEntity
  8
0
  6
CONTINUOUS
 62
     0
100
AcDbLine
 10
10.064486
 20
22.737804
 30
0.0
 11
11.41387299999998
 21
24.087191
 31
0.0
  0
LINE
  5
4D68
330
4D15
100
AcDbEntity
  8
0
  6
CONTINUOUS
 62
     0
100
AcDbLine
 10
14.213901
 20
26.887219
 30
0.0
 11
14.923766
 21
27.597084
 31
0.0
  0
LINE
  5
4D69
330
4D15
100
AcDbEntity
  8
0
  6
CONTINUOUS
 62
     0
100
AcDbLine
 10
8.227983
 20
20.901301
 30
0.0
 11
8.937847999999997
 21
21.611166
 31
0.0
  0
LINE
  5
4D6A
330
4D15
100
AcDbEntity
  8
0
  6
CONTINUOUS
 62
     0
100
AcDbLine
 10
12.362923
 20
25.319084
 30
0.0
 11
13.323223
 21
26.279384
 31
0.0
  0
LINE
  5
4D6B
330
4D15
100
AcDbEntity
  8
0
  6
CONTINUOUS
 62
     0
100
AcDbLine
 10
9.92172
 20
22.87787999999999
 30
0.0
 11
11.41387299999998
 21
24.370034
 31
0.0
  0
LINE
  5
4D6C
330
4D15
100
AcDbEntity
  8
0
  6
CONTINUOUS
 62
     0
100
AcDbLine
 10
14.05124599999999
 20
27.007407
 30
0.0
 11
14.76563999999999
 21
27.7218
 31
0.0
  0
LINE
  5
4D6D
330
4D15
100
AcDbEntity
  8
0
  6
CONTINUOUS
 62
     0
100
AcDbLine
 10
8.103267
 20
21.059428
 30
0.0
 11
8.81766
 21
21.77382099999999
 31
0.0
  0
LINE
  5
4D6E
330
4D15
100
AcDbEntity
  8
0
  6
CONTINUOUS
 62
     0
100
AcDbLine
 10
12.362923
 20
25.601926
 30
0.0
 11
13.323223
 21
26.562226
 31
0.0
  0
LINE
  5
4D6F
330
4D15
100
AcDbEntity
  8
0
  6
CONTINUOUS
 62
     0
100
AcDbLine
 10
9.778953999999997
 20
23.017957
 30
0.0
 11
11.41387299999998
 21
24.652876
 31
0.0
  0
LINE
  5
4D70
330
4D15
100
AcDbEntity
  8
0
  6
CONTINUOUS
 62
     0
100
AcDbLine
 10
13.880701
 20
27.119704
 30
0.0
 11
14.601389
 21
27.840392
 31
0.0
  0
LINE
  5
4D71
330
4D15
100
AcDbEntity
  8
0
  6
CONTINUOUS
 62
     0
100
AcDbLine
 10
7.984675
 20
21.223678
 30
0.0
 11
8.705363999999999
 21
21.944367
 31
0.0
  0
LINE
  5
4D72
330
4D15
100
AcDbEntity
  8
0
  6
CONTINUOUS
 62
     0
100
AcDbLine
 10
12.362923
 20
25.88476899999999
 30
0.0
 11
13.323223
 21
26.845069
 31
0.0
  0
LINE
  5
4D73
330
4D15
100
AcDbEntity
  8
0
  6
CONTINUOUS
 62
     0
100
AcDbLine
 10
9.636186999999999
 20
23.158033
 30
0.0
 11
11.41387299999998
 21
24.935719
 31
0.0
  0
LINE
  5
4D74
330
4D15
100
AcDbEntity
  8
0
  6
CONTINUOUS
 62
     0
100
AcDbLine
 10
13.701993
 20
27.223839
 30
0.0
 11
14.430886
 21
27.952732
 31
0.0
  0
LINE
  5
4D75
330
4D15
100
AcDbEntity
  8
0
  6
CONTINUOUS
 62
     0
100
AcDbLine
 10
7.872335
 20
21.39418099999998
 30
0.0
 11
8.601228
 21
22.12307399999999
 31
0.0
  0
LINE
  5
4D76
330
4D15
100
AcDbEntity
  8
0
  6
CONTINUOUS
 62
     0
100
AcDbLine
 10
12.362923
 20
26.167612
 30
0.0
 11
13.323223
 21
27.12791199999999
 31
0.0
  0
LINE
  5
4D77
330
4D15
100
AcDbEntity
  8
0
  6
CONTINUOUS
 62
     0
100
AcDbLine
 10
9.493420999999999
 20
23.29811
 30
0.0
 11
11.41387299999998
 21
25.218562
 31
0.0
  0
LINE
  5
4D78
330
4D15
100
AcDbEntity
  8
0
  6
CONTINUOUS
 62
     0
100
AcDbLine
 10
13.51476
 20
27.31944799999999
 30
0.0
 11
14.253964
 21
28.058653
 31
0.0
  0
LINE
  5
4D79
330
4D15
100
AcDbEntity
  8
0
  6
CONTINUOUS
 62
     0
100
AcDbLine
 10
7.766414999999997
 20
21.571104
 30
0.0
 11
8.505618999999999
 21
22.310308
 31
0.0
  0
LINE
  5
4D7A
330
4D15
100
AcDbEntity
  8
0
  6
CONTINUOUS
 62
     0
100
AcDbLine
 10
10.46482299999998
 20
24.552354
 30
0.0
 11
11.41387299999998
 21
25.501404
 31
0.0
  0
LINE
  5
4D7B
330
4D15
100
AcDbEntity
  8
0
  6
CONTINUOUS
 62
     0
100
AcDbLine
 10
9.323311999999999
 20
23.410844
 30
0.0
 11
10.34121199999999
 21
24.428744
 31
0.0
  0
LINE
  5
4D7C
330
4D15
100
AcDbEntity
  8
0
  6
CONTINUOUS
 62
     0
100
AcDbLine
 10
12.362923
 20
26.45045399999998
 30
0.0
 11
14.07040799999998
 21
28.157939
 31
0.0
  0
LINE
  5
4D7D
330
4D15
100
AcDbEntity
  8
0
  6
CONTINUOUS
 62
     0
100
AcDbLine
 10
7.667127999999999
 20
21.75466
 30
0.0
 11
8.419014
 21
22.506545
 31
0.0
  0
LINE
  5
4D7E
330
4D15
100
AcDbEntity
  8
0
  6
CONTINUOUS
 62
     0
100
AcDbLine
 10
10.46482299999998
 20
24.835197
 30
0.0
 11
11.41387299999998
 21
25.784247
 31
0.0
  0
LINE
  5
4D7F
330
4D15
100
AcDbEntity
  8
0
  6
CONTINUOUS
 62
     0
100
AcDbLine
 10
9.040468999999999
 20
23.410844
 30
0.0
 11
10.058369
 21
24.428744
 31
0.0
  0
LINE
  5
4D80
330
4D15
100
AcDbEntity
  8
0
  6
CONTINUOUS
 62
     0
100
AcDbLine
 10
12.362923
 20
26.733297
 30
0.0
 11
13.87995199999999
 21
28.250326
 31
0.0
  0
LINE
  5
4D81
330
4D15
100
AcDbEntity
  8
0
  6
CONTINUOUS
 62
     0
100
AcDbLine
 10
7.574741
 20
21.94511599999999
 30
0.0
 11
8.342033999999998
 21
22.712408
 31
0.0
  0
LINE
  5
4D82
330
4D15
100
AcDbEntity
  8
0
  6
CONTINUOUS
 62
     0
100
AcDbLine
 10
10.46482299999998
 20
25.11804
 30
0.0
 11
11.41387299999998
 21
26.06709
 31
0.0
  0
LINE
  5
4D83
330
4D15
100
AcDbEntity
  8
0
  6
CONTINUOUS
 62
     0
100
AcDbLine
 10
8.757627000000001
 20
23.410844
 30
0.0
 11
9.775527
 21
24.428744
 31
0.0
  0
LINE
  5
4D84
330
4D15
100
AcDbEntity
  8
0
  6
CONTINUOUS
 62
     0
100
AcDbLine
 10
12.362923
 20
27.01614
 30
0.0
 11
13.682269
 21
28.335486
 31
0.0
  0
LINE
  5
4D85
330
4D15
100
AcDbEntity
  8
0
  6
CONTINUOUS
 62
     0
100
AcDbLine
 10
7.489582
 20
22.142799
 30
0.0
 11
8.275484
 21
22.928701
 31
0.0
  0
LINE
  5
4D86
330
4D15
100
AcDbEntity
  8
0
  6
CONTINUOUS
 62
     0
100
AcDbLine
 10
10.46482299999998
 20
25.400883
 30
0.0
 11
11.41387299999998
 21
26.349933
 31
0.0
  0
LINE
  5
4D87
330
4D15
100
AcDbEntity
  8
0
  6
CONTINUOUS
 62
     0
100
AcDbLine
 10
8.474783999999999
 20
23.410844
 30
0.0
 11
9.492683999999997
 21
24.428744
 31
0.0
  0
LINE
  5
4D88
330
4D15
100
AcDbEntity
  8
0
  6
CONTINUOUS
 62
     0
100
AcDbLine
 10
12.362923
 20
27.298983
 30
0.0
 11
13.47695599999999
 21
28.41301599999999
 31
0.0
  0
LINE
  5
4D89
330
4D15
100
AcDbEntity
  8
0
  6
CONTINUOUS
 62
     0
100
AcDbLine
 10
7.412052
 20
22.34811099999999
 30
0.0
 11
8.220416999999999
 21
23.15647699999999
 31
0.0
  0
LINE
  5
4D8A
330
4D15
100
AcDbEntity
  8
0
  6
CONTINUOUS
 62
     0
100
AcDbLine
 10
10.46482299999998
 20
25.683725
 30
0.0
 11
11.41387299999998
 21
26.63277499999999
 31
0.0
  0
LINE
  5
4D8B
330
4D15
100
AcDbEntity
  8
0
  6
CONTINUOUS
 62
     0
100
AcDbLine
 10
8.191940999999998
 20
23.410844
 30
0.0
 11
9.209841
 21
24.428744
 31
0.0
  0
LINE
  5
4D8C
330
4D15
100
AcDbEntity
  8
0
  6
CONTINUOUS
 62
     0
100
AcDbLine
 10
12.362923
 20
27.581825
 30
0.0
 11
13.26352
 21
28.48242299999999
 31
0.0
  0
LINE
  5
4D8D
330
4D15
100
AcDbEntity
  8
0
  6
CONTINUOUS
 62
     0
100
AcDbLine
 10
7.342645
 20
22.561547
 30
0.0
 11
8.178233
 21
23.397136
 31
0.0
  0
LINE
  5
4D8E
330
4D15
100
AcDbEntity
  8
0
  6
CONTINUOUS
 62
     0
100
AcDbLine
 10
10.46482299999998
 20
25.96656799999999
 30
0.0
 11
11.41387299999998
 21
26.915618
 31
0.0
  0
LINE
  5
4D8F
330
4D15
100
AcDbEntity
  8
0
  6
CONTINUOUS
 62
     0
100
AcDbLine
 10
12.17248399999999
 20
27.67422899999999
 30
0.0
 11
13.04135099999998
 21
28.543096
 31
0.0
  0
LINE
  5
4D90
330
4D15
100
AcDbEntity
  8
0
  6
CONTINUOUS
 62
     0
100
AcDbLine
 10
7.281971
 20
22.783716
 30
0.0
 11
8.926999
 21
24.428744
 31
0.0
  0
LINE
  5
4D91
330
4D15
100
AcDbEntity
  8
0
  6
CONTINUOUS
 62
     0
100
AcDbLine
 10
10.46482299999998
 20
26.249411
 30
0.0
 11
11.41387299999998
 21
27.19846099999999
 31
0.0
  0
LINE
  5
4D92
330
4D15
100
AcDbEntity
  8
0
  6
CONTINUOUS
 62
     0
100
AcDbLine
 10
11.899556
 20
27.684144
 30
0.0
 11
12.809691
 21
28.594279
 31
0.0
  0
LINE
  5
4D93
330
4D15
100
AcDbEntity
  8
0
  6
CONTINUOUS
 62
     0
100
AcDbLine
 10
7.230788
 20
23.015376
 30
0.0
 11
8.644156
 21
24.428744
 31
0.0
  0
LINE
  5
4D94
330
4D15
100
AcDbEntity
  8
0
  6
CONTINUOUS
 62
     0
100
AcDbLine
 10
10.46482299999998
 20
26.532253
 30
0.0
 11
11.41387299999998
 21
27.481303
 31
0.0
  0
LINE
  5
4D95
330
4D15
100
AcDbEntity
  8
0
  6
CONTINUOUS
 62
     0
100
AcDbLine
 10
11.605159
 20
27.672589
 30
0.0
 11
12.567584
 21
28.635015
 31
0.0
  0
LINE
  5
4D96
330
4D15
100
AcDbEntity
  8
0
  6
CONTINUOUS
 62
     0
100
AcDbLine
 10
7.190052
 20
23.25748299999998
 30
0.0
 11
8.361313
 21
24.428744
 31
0.0
  0
LINE
  5
4D97
330
4D15
100
AcDbEntity
  8
0
  6
CONTINUOUS
 62
     0
100
AcDbLine
 10
10.46482299999998
 20
26.815096
 30
0.0
 11
12.313807
 21
28.66407999999999
 31
0.0
  0
LINE
  5
4D98
330
4D15
100
AcDbEntity
  8
0
  6
CONTINUOUS
 62
     0
100
AcDbLine
 10
7.160988
 20
23.51126099999999
 30
0.0
 11
8.191864
 21
24.542137
 31
0.0
  0
LINE
  5
4D99
330
4D15
100
AcDbEntity
  8
0
  6
CONTINUOUS
 62
     0
100
AcDbLine
 10
10.46482299999998
 20
27.097939
 30
0.0
 11
12.046753
 21
28.679869
 31
0.0
  0
LINE
  5
4D9A
330
4D15
100
AcDbEntity
  8
0
  6
CONTINUOUS
 62
     0
100
AcDbLine
 10
7.145197999999997
 20
23.778314
 30
0.0
 11
8.270421
 21
24.903537
 31
0.0
  0
LINE
  5
4D9B
330
4D15
100
AcDbEntity
  8
0
  6
CONTINUOUS
 62
     0
100
AcDbLine
 10
10.46482299999998
 20
27.380782
 30
0.0
 11
11.76425899999999
 21
28.68021699999999
 31
0.0
  0
LINE
  5
4D9C
330
4D15
100
AcDbEntity
  8
0
  6
CONTINUOUS
 62
     0
100
AcDbLine
 10
7.144849999999999
 20
24.060809
 30
0.0
 11
8.412672
 21
25.328631
 31
0.0
  0
LINE
  5
4D9D
330
4D15
100
AcDbEntity
  8
0
  6
CONTINUOUS
 62
     0
100
AcDbLine
 10
9.92464
 20
27.12344099999999
 30
0.0
 11
11.463286
 21
28.66208699999999
 31
0.0
  0
LINE
  5
4D9E
330
4D15
100
AcDbEntity
  8
0
  6
CONTINUOUS
 62
     0
100
AcDbLine
 10
7.16298
 20
24.361781
 30
0.0
 11
8.701625999999999
 21
25.900428
 31
0.0
  0
LINE
  5
4D9F
330
4D15
100
AcDbEntity
  8
0
  6
CONTINUOUS
 62
     0
100
AcDbLine
 10
7.204077999999999
 20
24.685722
 30
0.0
 11
11.139345
 21
28.620989
 31
0.0
  0
LINE
  5
4DA0
330
4D15
100
AcDbEntity
  8
0
  6
CONTINUOUS
 62
     0
100
AcDbLine
 10
7.275296
 20
25.03978299999999
 30
0.0
 11
10.785285
 21
28.549771
 31
0.0
  0
LINE
  5
4DA1
330
4D15
100
AcDbEntity
  8
0
  6
CONTINUOUS
 62
     0
100
AcDbLine
 10
7.389392999999999
 20
25.436722
 30
0.0
 11
10.38834499999998
 21
28.435675
 31
0.0
  0
LINE
  5
4DA2
330
4D15
100
AcDbEntity
  8
0
  6
CONTINUOUS
 62
     0
100
AcDbLine
 10
7.574053999999997
 20
25.904226
 30
0.0
 11
9.920840999999999
 21
28.251013
 31
0.0
  0
LINE
  5
4DA3
330
4D15
100
AcDbEntity
  8
0
  6
CONTINUOUS
 62
     0
100
AcDbLine
 10
7.923914999999999
 20
26.53693
 30
0.0
 11
9.288138
 21
27.901153
 31
0.0
  0
ENDBLK
  5
4DA5
330
4D15
100
AcDbEntity
  8
0
100
AcDbBlockEnd
  0
BLOCK
  5
4DC4
330
4DA6
100
AcDbEntity
  8
0
100
AcDbBlockBegin
  2
*X20
 70
     1
 10
0.0
 20
0.0
 30
0.0
  3
*X20
  1

  0
LINE
  5
4DA7
330
4DA6
100
AcDbEntity
  8
0
  6
CONTINUOUS
 62
     0
100
AcDbLine
 10
20.403855
 20
20.63209399999998
 30
0.0
 11
20.470123
 21
20.69836099999998
 31
0.0
  0
LINE
  5
4DA8
330
4DA6
100
AcDbEntity
  8
0
  6
CONTINUOUS
 62
     0
100
AcDbLine
 10
20.121013
 20
20.63209399999998
 30
0.0
 11
20.470123
 21
20.981204
 31
0.0
  0
LINE
  5
4DA9
330
4DA6
100
AcDbEntity
  8
0
  6
CONTINUOUS
 62
     0
100
AcDbLine
 10
19.83817
 20
20.63209399999998
 30
0.0
 11
20.470123
 21
21.264047
 31
0.0
  0
LINE
  5
4DAA
330
4DA6
100
AcDbEntity
  8
0
  6
CONTINUOUS
 62
     0
100
AcDbLine
 10
19.555327
 20
20.63209399999998
 30
0.0
 11
20.470123
 21
21.546889
 31
0.0
  0
LINE
  5
4DAB
330
4DA6
100
AcDbEntity
  8
0
  6
CONTINUOUS
 62
     0
100
AcDbLine
 10
19.27248399999998
 20
20.63209399999998
 30
0.0
 11
20.470123
 21
21.829732
 31
0.0
  0
LINE
  5
4DAC
330
4DA6
100
AcDbEntity
  8
0
  6
CONTINUOUS
 62
     0
100
AcDbLine
 10
18.98964199999999
 20
20.63209399999998
 30
0.0
 11
20.470123
 21
22.11257499999998
 31
0.0
  0
LINE
  5
4DAD
330
4DA6
100
AcDbEntity
  8
0
  6
CONTINUOUS
 62
     0
100
AcDbLine
 10
18.706799
 20
20.63209399999998
 30
0.0
 11
20.470123
 21
22.395418
 31
0.0
  0
LINE
  5
4DAE
330
4DA6
100
AcDbEntity
  8
0
  6
CONTINUOUS
 62
     0
100
AcDbLine
 10
18.674623
 20
20.88276
 30
0.0
 11
20.470123
 21
22.67826
 31
0.0
  0
LINE
  5
4DAF
330
4DA6
100
AcDbEntity
  8
0
  6
CONTINUOUS
 62
     0
100
AcDbLine
 10
20.919864
 20
23.410844
 30
0.0
 11
21.087523
 21
23.578503
 31
0.0
  0
LINE
  5
4DB0
330
4DA6
100
AcDbEntity
  8
0
  6
CONTINUOUS
 62
     0
100
AcDbLine
 10
18.674623
 20
21.165603
 30
0.0
 11
20.470123
 21
22.961103
 31
0.0
  0
LINE
  5
4DB1
330
4DA6
100
AcDbEntity
  8
0
  6
CONTINUOUS
 62
     0
100
AcDbLine
 10
20.63702099999998
 20
23.410844
 30
0.0
 11
21.087523
 21
23.86134599999999
 31
0.0
  0
LINE
  5
4DB2
330
4DA6
100
AcDbEntity
  8
0
  6
CONTINUOUS
 62
     0
100
AcDbLine
 10
18.674623
 20
21.448446
 30
0.0
 11
20.470123
 21
23.24394599999999
 31
0.0
  0
LINE
  5
4DB3
330
4DA6
100
AcDbEntity
  8
0
  6
CONTINUOUS
 62
     0
100
AcDbLine
 10
18.674623
 20
21.731288
 30
0.0
 11
21.087523
 21
24.14418799999999
 31
0.0
  0
LINE
  5
4DB4
330
4DA6
100
AcDbEntity
  8
0
  6
CONTINUOUS
 62
     0
100
AcDbLine
 10
18.674623
 20
22.01413099999999
 30
0.0
 11
21.087523
 21
24.427031
 31
0.0
  0
LINE
  5
4DB5
330
4DA6
100
AcDbEntity
  8
0
  6
CONTINUOUS
 62
     0
100
AcDbLine
 10
18.674623
 20
22.296974
 30
0.0
 11
20.886043
 21
24.508394
 31
0.0
  0
LINE
  5
4DB6
330
4DA6
100
AcDbEntity
  8
0
  6
CONTINUOUS
 62
     0
100
AcDbLine
 10
21.02665
 20
24.931844
 30
0.0
 11
21.087523
 21
24.992717
 31
0.0
  0
LINE
  5
4DB7
330
4DA6
100
AcDbEntity
  8
0
  6
CONTINUOUS
 62
     0
100
AcDbLine
 10
18.674623
 20
22.579817
 30
0.0
 11
20.6032
 21
24.508394
 31
0.0
  0
LINE
  5
4DB8
330
4DA6
100
AcDbEntity
  8
0
  6
CONTINUOUS
 62
     0
100
AcDbLine
 10
20.743807
 20
24.931844
 30
0.0
 11
21.087523
 21
25.275559
 31
0.0
  0
LINE
  5
4DB9
330
4DA6
100
AcDbEntity
  8
0
  6
CONTINUOUS
 62
     0
100
AcDbLine
 10
18.674623
 20
22.862659
 30
0.0
 11
20.43397699999998
 21
24.622013
 31
0.0
  0
LINE
  5
4DBA
330
4DA6
100
AcDbEntity
  8
0
  6
CONTINUOUS
 62
     0
100
AcDbLine
 10
18.674623
 20
23.145502
 30
0.0
 11
21.087523
 21
25.558402
 31
0.0
  0
LINE
  5
4DBB
330
4DA6
100
AcDbEntity
  8
0
  6
CONTINUOUS
 62
     0
100
AcDbLine
 10
18.657122
 20
23.410844
 30
0.0
 11
21.08127199999997
 21
25.834994
 31
0.0
  0
LINE
  5
4DBC
330
4DA6
100
AcDbEntity
  8
0
  6
CONTINUOUS
 62
     0
100
AcDbLine
 10
18.374279
 20
23.410844
 30
0.0
 11
20.798429
 21
25.834994
 31
0.0
  0
LINE
  5
4DBD
330
4DA6
100
AcDbEntity
  8
0
  6
CONTINUOUS
 62
     0
100
AcDbLine
 10
18.137323
 20
23.45673
 30
0.0
 11
20.51558599999999
 21
25.834994
 31
0.0
  0
LINE
  5
4DBE
330
4DA6
100
AcDbEntity
  8
0
  6
CONTINUOUS
 62
     0
100
AcDbLine
 10
18.137323
 20
23.739573
 30
0.0
 11
20.232744
 21
25.834994
 31
0.0
  0
LINE
  5
4DBF
330
4DA6
100
AcDbEntity
  8
0
  6
CONTINUOUS
 62
     0
100
AcDbLine
 10
18.674623
 20
24.559716
 30
0.0
 11
19.949901
 21
25.834994
 31
0.0
  0
LINE
  5
4DC0
330
4DA6
100
AcDbEntity
  8
0
  6
CONTINUOUS
 62
     0
100
AcDbLine
 10
18.137323
 20
24.02241599999999
 30
0.0
 11
18.623301
 21
24.508394
 31
0.0
  0
LINE
  5
4DC1
330
4DA6
100
AcDbEntity
  8
0
  6
CONTINUOUS
 62
     0
100
AcDbLine
 10
18.674623
 20
24.842558
 30
0.0
 11
19.66705799999997
 21
25.834994
 31
0.0
  0
LINE
  5
4DC2
330
4DA6
100
AcDbEntity
  8
0
  6
CONTINUOUS
 62
     0
100
AcDbLine
 10
18.137323
 20
24.30525799999999
 30
0.0
 11
18.34045799999998
 21
24.508394
 31
0.0
  0
LINE
  5
4DC3
330
4DA6
100
AcDbEntity
  8
0
  6
CONTINUOUS
 62
     0
100
AcDbLine
 10
18.70280499999998
 20
25.15358299999999
 30
0.0
 11
19.356077
 21
25.80685499999999
 31
0.0
  0
ENDBLK
  5
4DC5
330
4DA6
100
AcDbEntity
  8
0
100
AcDbBlockEnd
  0
BLOCK
  5
4DD1
330
4DC6
100
AcDbEntity
  8
0
100
AcDbBlockBegin
  2
*X21
 70
     1
 10
0.0
 20
0.0
 30
0.0
  3
*X21
  1

  0
LINE
  5
4DC7
330
4DC6
100
AcDbEntity
  8
0
  6
CONTINUOUS
 62
     0
100
AcDbLine
 10
23.583484
 20
24.943094
 30
0.0
 11
23.625973
 21
24.985582
 31
0.0
  0
LINE
  5
4DC8
330
4DC6
100
AcDbEntity
  8
0
  6
CONTINUOUS
 62
     0
100
AcDbLine
 10
23.300642
 20
24.943094
 30
0.0
 11
23.625973
 21
25.268425
 31
0.0
  0
LINE
  5
4DC9
330
4DC6
100
AcDbEntity
  8
0
  6
CONTINUOUS
 62
     0
100
AcDbLine
 10
23.017799
 20
24.943094
 30
0.0
 11
23.625973
 21
25.551268
 31
0.0
  0
LINE
  5
4DCA
330
4DC6
100
AcDbEntity
  8
0
  6
CONTINUOUS
 62
     0
100
AcDbLine
 10
22.73495599999999
 20
24.943094
 30
0.0
 11
23.625973
 21
25.83410999999999
 31
0.0
  0
LINE
  5
4DCB
330
4DC6
100
AcDbEntity
  8
0
  6
CONTINUOUS
 62
     0
100
AcDbLine
 10
22.452114
 20
24.943094
 30
0.0
 11
23.344014
 21
25.834994
 31
0.0
  0
LINE
  5
4DCC
330
4DC6
100
AcDbEntity
  8
0
  6
CONTINUOUS
 62
     0
100
AcDbLine
 10
22.16927099999999
 20
24.943094
 30
0.0
 11
23.06117099999999
 21
25.834994
 31
0.0
  0
LINE
  5
4DCD
330
4DC6
100
AcDbEntity
  8
0
  6
CONTINUOUS
 62
     0
100
AcDbLine
 10
21.88642799999999
 20
24.943094
 30
0.0
 11
22.778328
 21
25.834994
 31
0.0
  0
LINE
  5
4DCE
330
4DC6
100
AcDbEntity
  8
0
  6
CONTINUOUS
 62
     0
100
AcDbLine
 10
21.807973
 20
25.147481
 30
0.0
 11
22.495485
 21
25.834994
 31
0.0
  0
LINE
  5
4DCF
330
4DC6
100
AcDbEntity
  8
0
  6
CONTINUOUS
 62
     0
100
AcDbLine
 10
21.807973
 20
25.43032399999999
 30
0.0
 11
22.212643
 21
25.834994
 31
0.0
  0
LINE
  5
4DD0
330
4DC6
100
AcDbEntity
  8
0
  6
CONTINUOUS
 62
     0
100
AcDbLine
 10
21.807973
 20
25.713167
 30
0.0
 11
21.92979999999999
 21
25.834994
 31
0.0
  0
ENDBLK
  5
4DD2
330
4DC6
100
AcDbEntity
  8
0
100
AcDbBlockEnd
  0
BLOCK
  5
4DE8
330
4DD3
100
AcDbEntity
  8
0
100
AcDbBlockBegin
  2
*X22
 70
     1
 10
0.0
 20
0.0
 30
0.0
  3
*X22
  1

  0
LINE
  5
4DD4
330
4DD3
100
AcDbEntity
  8
0
  6
CONTINUOUS
 62
     0
100
AcDbLine
 10
23.515125
 20
20.63209399999998
 30
0.0
 11
23.625973
 21
20.742941
 31
0.0
  0
LINE
  5
4DD5
330
4DD3
100
AcDbEntity
  8
0
  6
CONTINUOUS
 62
     0
100
AcDbLine
 10
23.232282
 20
20.63209399999998
 30
0.0
 11
23.625973
 21
21.025784
 31
0.0
  0
LINE
  5
4DD6
330
4DD3
100
AcDbEntity
  8
0
  6
CONTINUOUS
 62
     0
100
AcDbLine
 10
22.94944
 20
20.63209399999998
 30
0.0
 11
23.625973
 21
21.30862699999998
 31
0.0
  0
LINE
  5
4DD7
330
4DD3
100
AcDbEntity
  8
0
  6
CONTINUOUS
 62
     0
100
AcDbLine
 10
22.66659699999999
 20
20.63209399999998
 30
0.0
 11
23.625973
 21
21.59147
 31
0.0
  0
LINE
  5
4DD8
330
4DD3
100
AcDbEntity
  8
0
  6
CONTINUOUS
 62
     0
100
AcDbLine
 10
22.383754
 20
20.63209399999998
 30
0.0
 11
23.625973
 21
21.874312
 31
0.0
  0
LINE
  5
4DD9
330
4DD3
100
AcDbEntity
  8
0
  6
CONTINUOUS
 62
     0
100
AcDbLine
 10
22.100912
 20
20.63209399999998
 30
0.0
 11
23.625973
 21
22.15715499999999
 31
0.0
  0
LINE
  5
4DDA
330
4DD3
100
AcDbEntity
  8
0
  6
CONTINUOUS
 62
     0
100
AcDbLine
 10
21.818069
 20
20.63209399999998
 30
0.0
 11
23.625973
 21
22.439998
 31
0.0
  0
LINE
  5
4DDB
330
4DD3
100
AcDbEntity
  8
0
  6
CONTINUOUS
 62
     0
100
AcDbLine
 10
21.807973
 20
20.90484
 30
0.0
 11
23.625973
 21
22.72283999999999
 31
0.0
  0
LINE
  5
4DDC
330
4DD3
100
AcDbEntity
  8
0
  6
CONTINUOUS
 62
     0
100
AcDbLine
 10
21.807973
 20
21.187683
 30
0.0
 11
23.625973
 21
23.00568299999999
 31
0.0
  0
LINE
  5
4DDD
330
4DD3
100
AcDbEntity
  8
0
  6
CONTINUOUS
 62
     0
100
AcDbLine
 10
21.807973
 20
21.47052599999998
 30
0.0
 11
23.625973
 21
23.288526
 31
0.0
  0
LINE
  5
4DDE
330
4DD3
100
AcDbEntity
  8
0
  6
CONTINUOUS
 62
     0
100
AcDbLine
 10
21.807973
 20
21.753369
 30
0.0
 11
23.625973
 21
23.57136899999999
 31
0.0
  0
LINE
  5
4DDF
330
4DD3
100
AcDbEntity
  8
0
  6
CONTINUOUS
 62
     0
100
AcDbLine
 10
21.807973
 20
22.03621099999999
 30
0.0
 11
23.625973
 21
23.85421099999998
 31
0.0
  0
LINE
  5
4DE0
330
4DD3
100
AcDbEntity
  8
0
  6
CONTINUOUS
 62
     0
100
AcDbLine
 10
21.807973
 20
22.319054
 30
0.0
 11
23.625973
 21
24.137054
 31
0.0
  0
LINE
  5
4DE1
330
4DD3
100
AcDbEntity
  8
0
  6
CONTINUOUS
 62
     0
100
AcDbLine
 10
21.807973
 20
22.601897
 30
0.0
 11
23.625973
 21
24.419897
 31
0.0
  0
LINE
  5
4DE2
330
4DD3
100
AcDbEntity
  8
0
  6
CONTINUOUS
 62
     0
100
AcDbLine
 10
21.807973
 20
22.884739
 30
0.0
 11
23.431627
 21
24.508394
 31
0.0
  0
LINE
  5
4DE3
330
4DD3
100
AcDbEntity
  8
0
  6
CONTINUOUS
 62
     0
100
AcDbLine
 10
21.807973
 20
23.167582
 30
0.0
 11
23.148784
 21
24.508394
 31
0.0
  0
LINE
  5
4DE4
330
4DD3
100
AcDbEntity
  8
0
  6
CONTINUOUS
 62
     0
100
AcDbLine
 10
21.807973
 20
23.45042499999999
 30
0.0
 11
22.865942
 21
24.508394
 31
0.0
  0
LINE
  5
4DE5
330
4DD3
100
AcDbEntity
  8
0
  6
CONTINUOUS
 62
     0
100
AcDbLine
 10
21.807973
 20
23.733268
 30
0.0
 11
22.58309899999999
 21
24.508394
 31
0.0
  0
LINE
  5
4DE6
330
4DD3
100
AcDbEntity
  8
0
  6
CONTINUOUS
 62
     0
100
AcDbLine
 10
21.807973
 20
24.01611
 30
0.0
 11
22.300256
 21
24.508394
 31
0.0
  0
LINE
  5
4DE7
330
4DD3
100
AcDbEntity
  8
0
  6
CONTINUOUS
 62
     0
100
AcDbLine
 10
21.807973
 20
24.298953
 30
0.0
 11
22.017414
 21
24.508394
 31
0.0
  0
ENDBLK
  5
4DE9
330
4DD3
100
AcDbEntity
  8
0
100
AcDbBlockEnd
  0
BLOCK
  5
4E12
330
4DEA
100
AcDbEntity
  8
0
100
AcDbBlockBegin
  2
*X23
 70
     1
 10
0.0
 20
0.0
 30
0.0
  3
*X23
  1

  0
LINE
  5
4DEB
330
4DEA
100
AcDbEntity
  8
0
  6
CONTINUOUS
 62
     0
100
AcDbLine
 10
29.737665
 20
20.63209399999998
 30
0.0
 11
29.89222299999999
 21
20.786652
 31
0.0
  0
LINE
  5
4DEC
330
4DEA
100
AcDbEntity
  8
0
  6
CONTINUOUS
 62
     0
100
AcDbLine
 10
29.45482199999998
 20
20.63209399999998
 30
0.0
 11
29.89222299999999
 21
21.06949399999999
 31
0.0
  0
LINE
  5
4DED
330
4DEA
100
AcDbEntity
  8
0
  6
CONTINUOUS
 62
     0
100
AcDbLine
 10
29.17197899999999
 20
20.63209399999998
 30
0.0
 11
29.89222299999999
 21
21.352337
 31
0.0
  0
LINE
  5
4DEE
330
4DEA
100
AcDbEntity
  8
0
  6
CONTINUOUS
 62
     0
100
AcDbLine
 10
28.88913699999999
 20
20.63209399999998
 30
0.0
 11
29.89222299999999
 21
21.63517999999999
 31
0.0
  0
LINE
  5
4DEF
330
4DEA
100
AcDbEntity
  8
0
  6
CONTINUOUS
 62
     0
100
AcDbLine
 10
28.606294
 20
20.63209399999998
 30
0.0
 11
29.89222299999999
 21
21.918023
 31
0.0
  0
LINE
  5
4DF0
330
4DEA
100
AcDbEntity
  8
0
  6
CONTINUOUS
 62
     0
100
AcDbLine
 10
28.323451
 20
20.63209399999998
 30
0.0
 11
29.89222299999999
 21
22.200865
 31
0.0
  0
LINE
  5
4DF1
330
4DEA
100
AcDbEntity
  8
0
  6
CONTINUOUS
 62
     0
100
AcDbLine
 10
28.108423
 20
20.69990799999998
 30
0.0
 11
29.89222299999999
 21
22.483708
 31
0.0
  0
LINE
  5
4DF2
330
4DEA
100
AcDbEntity
  8
0
  6
CONTINUOUS
 62
     0
100
AcDbLine
 10
28.108423
 20
20.98275099999999
 30
0.0
 11
29.89222299999999
 21
22.766551
 31
0.0
  0
LINE
  5
4DF3
330
4DEA
100
AcDbEntity
  8
0
  6
CONTINUOUS
 62
     0
100
AcDbLine
 10
28.108423
 20
21.26559299999998
 30
0.0
 11
29.89222299999999
 21
23.049393
 31
0.0
  0
LINE
  5
4DF4
330
4DEA
100
AcDbEntity
  8
0
  6
CONTINUOUS
 62
     0
100
AcDbLine
 10
28.108423
 20
21.54843599999999
 30
0.0
 11
29.89184299999999
 21
23.33185599999999
 31
0.0
  0
LINE
  5
4DF5
330
4DEA
100
AcDbEntity
  8
0
  6
CONTINUOUS
 62
     0
100
AcDbLine
 10
28.108423
 20
21.831279
 30
0.0
 11
29.853268
 21
23.576124
 31
0.0
  0
LINE
  5
4DF6
330
4DEA
100
AcDbEntity
  8
0
  6
CONTINUOUS
 62
     0
100
AcDbLine
 10
28.108423
 20
22.114122
 30
0.0
 11
29.777815
 21
23.78351299999999
 31
0.0
  0
LINE
  5
4DF7
330
4DEA
100
AcDbEntity
  8
0
  6
CONTINUOUS
 62
     0
100
AcDbLine
 10
28.108423
 20
22.396964
 30
0.0
 11
29.67413
 21
23.962671
 31
0.0
  0
LINE
  5
4DF8
330
4DEA
100
AcDbEntity
  8
0
  6
CONTINUOUS
 62
     0
100
AcDbLine
 10
28.084087
 20
22.655471
 30
0.0
 11
29.54593
 21
24.117314
 31
0.0
  0
LINE
  5
4DF9
330
4DEA
100
AcDbEntity
  8
0
  6
CONTINUOUS
 62
     0
100
AcDbLine
 10
26.06071
 20
20.63209399999998
 30
0.0
 11
26.28997299999999
 21
20.861357
 31
0.0
  0
LINE
  5
4DFA
330
4DEA
100
AcDbEntity
  8
0
  6
CONTINUOUS
 62
     0
100
AcDbLine
 10
27.9938
 20
22.84802699999999
 30
0.0
 11
29.394359
 21
24.248585
 31
0.0
  0
LINE
  5
4DFB
330
4DEA
100
AcDbEntity
  8
0
  6
CONTINUOUS
 62
     0
100
AcDbLine
 10
25.777867
 20
20.63209399999998
 30
0.0
 11
26.28997299999999
 21
21.1442
 31
0.0
  0
LINE
  5
4DFC
330
4DEA
100
AcDbEntity
  8
0
  6
CONTINUOUS
 62
     0
100
AcDbLine
 10
27.856431
 20
22.993501
 30
0.0
 11
29.218545
 21
24.355614
 31
0.0
  0
LINE
  5
4DFD
330
4DEA
100
AcDbEntity
  8
0
  6
CONTINUOUS
 62
     0
100
AcDbLine
 10
25.495024
 20
20.63209399999998
 30
0.0
 11
26.28997299999999
 21
21.427042
 31
0.0
  0
LINE
  5
4DFE
330
4DEA
100
AcDbEntity
  8
0
  6
CONTINUOUS
 62
     0
100
AcDbLine
 10
27.673361
 20
23.09327399999999
 30
0.0
 11
29.008732
 21
24.428645
 31
0.0
  0
LINE
  5
4DFF
330
4DEA
100
AcDbEntity
  8
0
  6
CONTINUOUS
 62
     0
100
AcDbLine
 10
25.212181
 20
20.63209399999998
 30
0.0
 11
26.28997299999999
 21
21.70988499999999
 31
0.0
  0
LINE
  5
4E00
330
4DEA
100
AcDbEntity
  8
0
  6
CONTINUOUS
 62
     0
100
AcDbLine
 10
27.426682
 20
23.129436
 30
0.0
 11
28.78111099999999
 21
24.483866
 31
0.0
  0
LINE
  5
4E01
330
4DEA
100
AcDbEntity
  8
0
  6
CONTINUOUS
 62
     0
100
AcDbLine
 10
24.929339
 20
20.63209399999998
 30
0.0
 11
26.28997299999999
 21
21.992728
 31
0.0
  0
LINE
  5
4E02
330
4DEA
100
AcDbEntity
  8
0
  6
CONTINUOUS
 62
     0
100
AcDbLine
 10
27.09337899999999
 20
23.07897599999999
 30
0.0
 11
28.539658
 21
24.525255
 31
0.0
  0
LINE
  5
4E03
330
4DEA
100
AcDbEntity
  8
0
  6
CONTINUOUS
 62
     0
100
AcDbLine
 10
24.64649599999999
 20
20.63209399999998
 30
0.0
 11
26.28997299999999
 21
22.27557099999999
 31
0.0
  0
LINE
  5
4E04
330
4DEA
100
AcDbEntity
  8
0
  6
CONTINUOUS
 62
     0
100
AcDbLine
 10
24.494923
 20
20.763363
 30
0.0
 11
28.28214099999999
 21
24.550582
 31
0.0
  0
LINE
  5
4E05
330
4DEA
100
AcDbEntity
  8
0
  6
CONTINUOUS
 62
     0
100
AcDbLine
 10
24.494923
 20
21.046206
 30
0.0
 11
28.005321
 21
24.556604
 31
0.0
  0
LINE
  5
4E06
330
4DEA
100
AcDbEntity
  8
0
  6
CONTINUOUS
 62
     0
100
AcDbLine
 10
24.494923
 20
21.32904899999997
 30
0.0
 11
27.704195
 21
24.538321
 31
0.0
  0
LINE
  5
4E07
330
4DEA
100
AcDbEntity
  8
0
  6
CONTINUOUS
 62
     0
100
AcDbLine
 10
24.494923
 20
21.611891
 30
0.0
 11
27.370303
 21
24.487272
 31
0.0
  0
LINE
  5
4E08
330
4DEA
100
AcDbEntity
  8
0
  6
CONTINUOUS
 62
     0
100
AcDbLine
 10
24.494923
 20
21.894734
 30
0.0
 11
26.987035
 21
24.386846
 31
0.0
  0
LINE
  5
4E09
330
4DEA
100
AcDbEntity
  8
0
  6
CONTINUOUS
 62
     0
100
AcDbLine
 10
24.494923
 20
22.17757699999999
 30
0.0
 11
26.51056599999999
 21
24.19322
 31
0.0
  0
LINE
  5
4E0A
330
4DEA
100
AcDbEntity
  8
0
  6
CONTINUOUS
 62
     0
100
AcDbLine
 10
24.494923
 20
22.46042
 30
0.0
 11
26.28997299999999
 21
24.25547
 31
0.0
  0
LINE
  5
4E0B
330
4DEA
100
AcDbEntity
  8
0
  6
CONTINUOUS
 62
     0
100
AcDbLine
 10
24.494923
 20
22.74326199999999
 30
0.0
 11
26.26005399999999
 21
24.508394
 31
0.0
  0
LINE
  5
4E0C
330
4DEA
100
AcDbEntity
  8
0
  6
CONTINUOUS
 62
     0
100
AcDbLine
 10
24.494923
 20
23.02610499999999
 30
0.0
 11
25.977212
 21
24.508394
 31
0.0
  0
LINE
  5
4E0D
330
4DEA
100
AcDbEntity
  8
0
  6
CONTINUOUS
 62
     0
100
AcDbLine
 10
24.494923
 20
23.308948
 30
0.0
 11
25.694369
 21
24.508394
 31
0.0
  0
LINE
  5
4E0E
330
4DEA
100
AcDbEntity
  8
0
  6
CONTINUOUS
 62
     0
100
AcDbLine
 10
24.494923
 20
23.59179
 30
0.0
 11
25.411526
 21
24.508394
 31
0.0
  0
LINE
  5
4E0F
330
4DEA
100
AcDbEntity
  8
0
  6
CONTINUOUS
 62
     0
100
AcDbLine
 10
24.494923
 20
23.87463299999999
 30
0.0
 11
25.128683
 21
24.508394
 31
0.0
  0
LINE
  5
4E10
330
4DEA
100
AcDbEntity
  8
0
  6
CONTINUOUS
 62
     0
100
AcDbLine
 10
24.494923
 20
24.157476
 30
0.0
 11
24.845841
 21
24.508394
 31
0.0
  0
LINE
  5
4E11
330
4DEA
100
AcDbEntity
  8
0
  6
CONTINUOUS
 62
     0
100
AcDbLine
 10
24.494923
 20
24.440319
 30
0.0
 11
24.562998
 21
24.508394
 31
0.0
  0
ENDBLK
  5
4E13
330
4DEA
100
AcDbEntity
  8
0
100
AcDbBlockEnd
  0
BLOCK
  5
4E41
330
4E14
100
AcDbEntity
  8
0
100
AcDbBlockBegin
  2
*X24
 70
     1
 10
0.0
 20
0.0
 30
0.0
  3
*X24
  1

  0
LINE
  5
4E15
330
4E14
100
AcDbEntity
  8
0
  6
CONTINUOUS
 62
     0
100
AcDbLine
 10
35.94895499999999
 20
20.620844
 30
0.0
 11
35.986573
 21
20.658462
 31
0.0
  0
LINE
  5
4E16
330
4E14
100
AcDbEntity
  8
0
  6
CONTINUOUS
 62
     0
100
AcDbLine
 10
35.666112
 20
20.620844
 30
0.0
 11
35.986573
 21
20.94130499999999
 31
0.0
  0
LINE
  5
4E17
330
4E14
100
AcDbEntity
  8
0
  6
CONTINUOUS
 62
     0
100
AcDbLine
 10
35.38326899999999
 20
20.620844
 30
0.0
 11
35.986573
 21
21.22414699999997
 31
0.0
  0
LINE
  5
4E18
330
4E14
100
AcDbEntity
  8
0
  6
CONTINUOUS
 62
     0
100
AcDbLine
 10
35.100427
 20
20.620844
 30
0.0
 11
35.986573
 21
21.50698999999999
 31
0.0
  0
LINE
  5
4E19
330
4E14
100
AcDbEntity
  8
0
  6
CONTINUOUS
 62
     0
100
AcDbLine
 10
34.817584
 20
20.620844
 30
0.0
 11
35.986573
 21
21.789833
 31
0.0
  0
LINE
  5
4E1A
330
4E14
100
AcDbEntity
  8
0
  6
CONTINUOUS
 62
     0
100
AcDbLine
 10
34.53474099999999
 20
20.620844
 30
0.0
 11
35.986573
 21
22.07267499999999
 31
0.0
  0
LINE
  5
4E1B
330
4E14
100
AcDbEntity
  8
0
  6
CONTINUOUS
 62
     0
100
AcDbLine
 10
34.251898
 20
20.620844
 30
0.0
 11
35.986573
 21
22.355518
 31
0.0
  0
LINE
  5
4E1C
330
4E14
100
AcDbEntity
  8
0
  6
CONTINUOUS
 62
     0
100
AcDbLine
 10
34.19152299999999
 20
20.84331099999999
 30
0.0
 11
35.986573
 21
22.638361
 31
0.0
  0
LINE
  5
4E1D
330
4E14
100
AcDbEntity
  8
0
  6
CONTINUOUS
 62
     0
100
AcDbLine
 10
33.76930999999999
 20
20.703941
 30
0.0
 11
35.986573
 21
22.92120399999999
 31
0.0
  0
LINE
  5
4E1E
330
4E14
100
AcDbEntity
  8
0
  6
CONTINUOUS
 62
     0
100
AcDbLine
 10
33.39236599999999
 20
20.60983999999999
 30
0.0
 11
35.986573
 21
23.20404599999999
 31
0.0
  0
LINE
  5
4E1F
330
4E14
100
AcDbEntity
  8
0
  6
CONTINUOUS
 62
     0
100
AcDbLine
 10
33.081013
 20
20.58132999999997
 30
0.0
 11
35.986573
 21
23.486889
 31
0.0
  0
LINE
  5
4E20
330
4E14
100
AcDbEntity
  8
0
  6
CONTINUOUS
 62
     0
100
AcDbLine
 10
32.78812199999999
 20
20.57128099999999
 30
0.0
 11
35.986573
 21
23.769732
 31
0.0
  0
LINE
  5
4E21
330
4E14
100
AcDbEntity
  8
0
  6
CONTINUOUS
 62
     0
100
AcDbLine
 10
32.50752399999999
 20
20.57352499999999
 30
0.0
 11
35.986573
 21
24.05257399999999
 31
0.0
  0
LINE
  5
4E22
330
4E14
100
AcDbEntity
  8
0
  6
CONTINUOUS
 62
     0
100
AcDbLine
 10
34.178814
 20
22.52765899999999
 30
0.0
 11
35.986573
 21
24.335417
 31
0.0
  0
LINE
  5
4E23
330
4E14
100
AcDbEntity
  8
0
  6
CONTINUOUS
 62
     0
100
AcDbLine
 10
32.243083
 20
20.59192799999999
 30
0.0
 11
33.59479199999999
 21
21.94363599999999
 31
0.0
  0
LINE
  5
4E24
330
4E14
100
AcDbEntity
  8
0
  6
CONTINUOUS
 62
     0
100
AcDbLine
 10
34.181643
 20
22.81333
 30
0.0
 11
35.986573
 21
24.61826
 31
0.0
  0
LINE
  5
4E25
330
4E14
100
AcDbEntity
  8
0
  6
CONTINUOUS
 62
     0
100
AcDbLine
 10
32.000516
 20
20.632203
 30
0.0
 11
33.247555
 21
21.879242
 31
0.0
  0
LINE
  5
4E26
330
4E14
100
AcDbEntity
  8
0
  6
CONTINUOUS
 62
     0
100
AcDbLine
 10
34.100287
 20
23.014817
 30
0.0
 11
35.986573
 21
24.90110299999999
 31
0.0
  0
LINE
  5
4E27
330
4E14
100
AcDbEntity
  8
0
  6
CONTINUOUS
 62
     0
100
AcDbLine
 10
31.777522
 20
20.692051
 30
0.0
 11
32.988078
 21
21.90260799999999
 31
0.0
  0
LINE
  5
4E28
330
4E14
100
AcDbEntity
  8
0
  6
CONTINUOUS
 62
     0
100
AcDbLine
 10
33.96946099999999
 20
23.166833
 30
0.0
 11
35.986573
 21
25.183945
 31
0.0
  0
LINE
  5
4E29
330
4E14
100
AcDbEntity
  8
0
  6
CONTINUOUS
 62
     0
100
AcDbLine
 10
31.57735699999999
 20
20.774729
 30
0.0
 11
32.76916099999999
 21
21.96653299999999
 31
0.0
  0
LINE
  5
4E2A
330
4E14
100
AcDbEntity
  8
0
  6
CONTINUOUS
 62
     0
100
AcDbLine
 10
33.798691
 20
23.27890599999999
 30
0.0
 11
35.986573
 21
25.466788
 31
0.0
  0
LINE
  5
4E2B
330
4E14
100
AcDbEntity
  8
0
  6
CONTINUOUS
 62
     0
100
AcDbLine
 10
31.394628
 20
20.87484299999998
 30
0.0
 11
32.578781
 21
22.05899599999999
 31
0.0
  0
LINE
  5
4E2C
330
4E14
100
AcDbEntity
  8
0
  6
CONTINUOUS
 62
     0
100
AcDbLine
 10
33.595067
 20
23.358124
 30
0.0
 11
35.986573
 21
25.749631
 31
0.0
  0
LINE
  5
4E2D
330
4E14
100
AcDbEntity
  8
0
  6
CONTINUOUS
 62
     0
100
AcDbLine
 10
31.22313099999999
 20
20.986189
 30
0.0
 11
32.424733
 21
22.187791
 31
0.0
  0
LINE
  5
4E2E
330
4E14
100
AcDbEntity
  8
0
  6
CONTINUOUS
 62
     0
100
AcDbLine
 10
33.37303699999999
 20
23.41893699999999
 30
0.0
 11
35.77784299999999
 21
25.823744
 31
0.0
  0
LINE
  5
4E2F
330
4E14
100
AcDbEntity
  8
0
  6
CONTINUOUS
 62
     0
100
AcDbLine
 10
31.067037
 20
21.112937
 30
0.0
 11
32.307803
 21
22.353704
 31
0.0
  0
LINE
  5
4E30
330
4E14
100
AcDbEntity
  8
0
  6
CONTINUOUS
 62
     0
100
AcDbLine
 10
33.11599499999999
 20
23.444738
 30
0.0
 11
34.077945
 21
24.406688
 31
0.0
  0
LINE
  5
4E31
330
4E14
100
AcDbEntity
  8
0
  6
CONTINUOUS
 62
     0
100
AcDbLine
 10
34.19152299999999
 20
24.52026599999999
 30
0.0
 11
35.495
 21
25.823744
 31
0.0
  0
LINE
  5
4E32
330
4E14
100
AcDbEntity
  8
0
  6
CONTINUOUS
 62
     0
100
AcDbLine
 10
30.92289099999999
 20
21.25163399999999
 30
0.0
 11
32.23358499999999
 21
22.562329
 31
0.0
  0
LINE
  5
4E33
330
4E14
100
AcDbEntity
  8
0
  6
CONTINUOUS
 62
     0
100
AcDbLine
 10
32.74817399999999
 20
23.35976
 30
0.0
 11
33.885911
 21
24.49749699999999
 31
0.0
  0
LINE
  5
4E34
330
4E14
100
AcDbEntity
  8
0
  6
CONTINUOUS
 62
     0
100
AcDbLine
 10
34.19152299999999
 20
24.803109
 30
0.0
 11
35.212158
 21
25.823744
 31
0.0
  0
LINE
  5
4E35
330
4E14
100
AcDbEntity
  8
0
  6
CONTINUOUS
 62
     0
100
AcDbLine
 10
30.79573599999999
 20
21.40732199999998
 30
0.0
 11
32.26604099999998
 21
22.877627
 31
0.0
  0
LINE
  5
4E36
330
4E14
100
AcDbEntity
  8
0
  6
CONTINUOUS
 62
     0
100
AcDbLine
 10
34.19152299999999
 20
25.085952
 30
0.0
 11
34.929315
 21
25.823744
 31
0.0
  0
LINE
  5
4E37
330
4E14
100
AcDbEntity
  8
0
  6
CONTINUOUS
 62
     0
100
AcDbLine
 10
30.684862
 20
21.579291
 30
0.0
 11
33.65907999999999
 21
24.553509
 31
0.0
  0
LINE
  5
4E38
330
4E14
100
AcDbEntity
  8
0
  6
CONTINUOUS
 62
     0
100
AcDbLine
 10
34.19152299999999
 20
25.368794
 30
0.0
 11
34.64647199999999
 21
25.823744
 31
0.0
  0
LINE
  5
4E39
330
4E14
100
AcDbEntity
  8
0
  6
CONTINUOUS
 62
     0
100
AcDbLine
 10
30.59117899999999
 20
21.76845
 30
0.0
 11
33.418127
 21
24.595399
 31
0.0
  0
LINE
  5
4E3A
330
4E14
100
AcDbEntity
  8
0
  6
CONTINUOUS
 62
     0
100
AcDbLine
 10
34.19152299999999
 20
25.651637
 30
0.0
 11
34.36362899999998
 21
25.823744
 31
0.0
  0
LINE
  5
4E3B
330
4E14
100
AcDbEntity
  8
0
  6
CONTINUOUS
 62
     0
100
AcDbLine
 10
30.51714
 20
21.977254
 30
0.0
 11
33.172249
 21
24.632364
 31
0.0
  0
LINE
  5
4E3C
330
4E14
100
AcDbEntity
  8
0
  6
CONTINUOUS
 62
     0
100
AcDbLine
 10
30.459126
 20
22.20208299999999
 30
0.0
 11
32.905926
 21
24.648883
 31
0.0
  0
LINE
  5
4E3D
330
4E14
100
AcDbEntity
  8
0
  6
CONTINUOUS
 62
     0
100
AcDbLine
 10
30.423694
 20
22.449493
 30
0.0
 11
32.62147499999999
 21
24.647275
 31
0.0
  0
LINE
  5
4E3E
330
4E14
100
AcDbEntity
  8
0
  6
CONTINUOUS
 62
     0
100
AcDbLine
 10
30.424318
 20
22.732961
 30
0.0
 11
32.321114
 21
24.629756
 31
0.0
  0
LINE
  5
4E3F
330
4E14
100
AcDbEntity
  8
0
  6
CONTINUOUS
 62
     0
100
AcDbLine
 10
30.48455999999999
 20
23.076045
 30
0.0
 11
31.97893099999999
 21
24.570416
 31
0.0
  0
LINE
  5
4E40
330
4E14
100
AcDbEntity
  8
0
  6
CONTINUOUS
 62
     0
100
AcDbLine
 10
30.667096
 20
23.541423
 30
0.0
 11
31.51624099999999
 21
24.390569
 31
0.0
  0
ENDBLK
  5
4E42
330
4E14
100
AcDbEntity
  8
0
100
AcDbBlockEnd
  0
BLOCK
  5
4E74
330
4E43
100
AcDbEntity
  8
0
100
AcDbBlockBegin
  2
*X25
 70
     1
 10
0.0
 20
0.0
 30
0.0
  3
*X25
  1

  0
LINE
  5
4E44
330
4E43
100
AcDbEntity
  8
0
  6
CONTINUOUS
 62
     0
100
AcDbLine
 10
41.23382399999999
 20
20.814544
 30
0.0
 11
42.038521
 21
21.61924099999999
 31
0.0
  0
LINE
  5
4E45
330
4E43
100
AcDbEntity
  8
0
  6
CONTINUOUS
 62
     0
100
AcDbLine
 10
40.761924
 20
20.625487
 30
0.0
 11
41.99208099999998
 21
21.855644
 31
0.0
  0
LINE
  5
4E46
330
4E43
100
AcDbEntity
  8
0
  6
CONTINUOUS
 62
     0
100
AcDbLine
 10
42.109364
 20
22.25577
 30
0.0
 11
42.234688
 21
22.381093
 31
0.0
  0
LINE
  5
4E47
330
4E43
100
AcDbEntity
  8
0
  6
CONTINUOUS
 62
     0
100
AcDbLine
 10
40.38714399999999
 20
20.53354899999998
 30
0.0
 11
41.70923799999999
 21
21.855644
 31
0.0
  0
LINE
  5
4E48
330
4E43
100
AcDbEntity
  8
0
  6
CONTINUOUS
 62
     0
100
AcDbLine
 10
41.825433
 20
22.25468199999999
 30
0.0
 11
42.248624
 21
22.677873
 31
0.0
  0
LINE
  5
4E49
330
4E43
100
AcDbEntity
  8
0
  6
CONTINUOUS
 62
     0
100
AcDbLine
 10
40.05277999999999
 20
20.482029
 30
0.0
 11
41.426395
 21
21.855644
 31
0.0
  0
LINE
  5
4E4A
330
4E43
100
AcDbEntity
  8
0
  6
CONTINUOUS
 62
     0
100
AcDbLine
 10
41.541502
 20
22.253593
 30
0.0
 11
42.21409
 21
22.92618099999998
 31
0.0
  0
LINE
  5
4E4B
330
4E43
100
AcDbEntity
  8
0
  6
CONTINUOUS
 62
     0
100
AcDbLine
 10
39.74394
 20
20.456031
 30
0.0
 11
41.143553
 21
21.855644
 31
0.0
  0
LINE
  5
4E4C
330
4E43
100
AcDbEntity
  8
0
  6
CONTINUOUS
 62
     0
100
AcDbLine
 10
41.25757199999998
 20
22.252505
 30
0.0
 11
42.156032
 21
23.15096599999999
 31
0.0
  0
LINE
  5
4E4D
330
4E43
100
AcDbEntity
  8
0
  6
CONTINUOUS
 62
     0
100
AcDbLine
 10
39.448788
 20
20.443722
 30
0.0
 11
40.86070999999999
 21
21.855644
 31
0.0
  0
LINE
  5
4E4E
330
4E43
100
AcDbEntity
  8
0
  6
CONTINUOUS
 62
     0
100
AcDbLine
 10
40.973641
 20
22.251417
 30
0.0
 11
42.08269699999998
 21
23.360473
 31
0.0
  0
LINE
  5
4E4F
330
4E43
100
AcDbEntity
  8
0
  6
CONTINUOUS
 62
     0
100
AcDbLine
 10
39.16676599999997
 20
20.444542
 30
0.0
 11
40.577867
 21
21.855644
 31
0.0
  0
LINE
  5
4E50
330
4E43
100
AcDbEntity
  8
0
  6
CONTINUOUS
 62
     0
100
AcDbLine
 10
40.68971
 20
22.25032899999999
 30
0.0
 11
41.992262
 21
23.552881
 31
0.0
  0
LINE
  5
4E51
330
4E43
100
AcDbEntity
  8
0
  6
CONTINUOUS
 62
     0
100
AcDbLine
 10
38.902535
 20
20.463154
 30
0.0
 11
40.17887199999999
 21
21.739491
 31
0.0
  0
LINE
  5
4E52
330
4E43
100
AcDbEntity
  8
0
  6
CONTINUOUS
 62
     0
100
AcDbLine
 10
40.40577899999997
 20
22.249241
 30
0.0
 11
41.885758
 21
23.729219
 31
0.0
  0
LINE
  5
4E53
330
4E43
100
AcDbEntity
  8
0
  6
CONTINUOUS
 62
     0
100
AcDbLine
 10
38.650769
 20
20.49423099999998
 30
0.0
 11
39.71113499999999
 21
21.55459599999999
 31
0.0
  0
LINE
  5
4E54
330
4E43
100
AcDbEntity
  8
0
  6
CONTINUOUS
 62
     0
100
AcDbLine
 10
40.12184799999999
 20
22.24815199999999
 30
0.0
 11
41.763132
 21
23.889436
 31
0.0
  0
LINE
  5
4E55
330
4E43
100
AcDbEntity
  8
0
  6
CONTINUOUS
 62
     0
100
AcDbLine
 10
38.407693
 20
20.533998
 30
0.0
 11
39.411545
 21
21.53785
 31
0.0
  0
LINE
  5
4E56
330
4E43
100
AcDbEntity
  8
0
  6
CONTINUOUS
 62
     0
100
AcDbLine
 10
39.83791699999999
 20
22.247064
 30
0.0
 11
41.62484899999999
 21
24.033997
 31
0.0
  0
LINE
  5
4E57
330
4E43
100
AcDbEntity
  8
0
  6
CONTINUOUS
 62
     0
100
AcDbLine
 10
38.180128
 20
20.589276
 30
0.0
 11
39.162324
 21
21.57147099999999
 31
0.0
  0
LINE
  5
4E58
330
4E43
100
AcDbEntity
  8
0
  6
CONTINUOUS
 62
     0
100
AcDbLine
 10
39.553986
 20
22.245976
 30
0.0
 11
41.470496
 21
24.16248599999999
 31
0.0
  0
LINE
  5
4E59
330
4E43
100
AcDbEntity
  8
0
  6
CONTINUOUS
 62
     0
100
AcDbLine
 10
37.96719
 20
20.65917999999999
 30
0.0
 11
38.94359
 21
21.63557999999999
 31
0.0
  0
LINE
  5
4E5A
330
4E43
100
AcDbEntity
  8
0
  6
CONTINUOUS
 62
     0
100
AcDbLine
 10
39.27005499999999
 20
22.244888
 30
0.0
 11
40.10436099999997
 21
23.079194
 31
0.0
  0
LINE
  5
4E5B
330
4E43
100
AcDbEntity
  8
0
  6
CONTINUOUS
 62
     0
100
AcDbLine
 10
40.296756
 20
23.271589
 30
0.0
 11
41.30607499999999
 21
24.280908
 31
0.0
  0
LINE
  5
4E5C
330
4E43
100
AcDbEntity
  8
0
  6
CONTINUOUS
 62
     0
100
AcDbLine
 10
37.762127
 20
20.736959
 30
0.0
 11
38.75166699999999
 21
21.7265
 31
0.0
  0
LINE
  5
4E5D
330
4E43
100
AcDbEntity
  8
0
  6
CONTINUOUS
 62
     0
100
AcDbLine
 10
38.986768
 20
22.244444
 30
0.0
 11
39.821518
 21
23.079194
 31
0.0
  0
LINE
  5
4E5E
330
4E43
100
AcDbEntity
  8
0
  6
CONTINUOUS
 62
     0
100
AcDbLine
 10
40.18585499999999
 20
23.443531
 30
0.0
 11
41.127162
 21
24.384837
 31
0.0
  0
LINE
  5
4E5F
330
4E43
100
AcDbEntity
  8
0
  6
CONTINUOUS
 62
     0
100
AcDbLine
 10
37.567077
 20
20.824752
 30
0.0
 11
38.58724199999999
 21
21.844917
 31
0.0
  0
LINE
  5
4E60
330
4E43
100
AcDbEntity
  8
0
  6
CONTINUOUS
 62
     0
100
AcDbLine
 10
38.703926
 20
22.244444
 30
0.0
 11
39.538676
 21
23.079194
 31
0.0
  0
LINE
  5
4E61
330
4E43
100
AcDbEntity
  8
0
  6
CONTINUOUS
 62
     0
100
AcDbLine
 10
40.03559899999999
 20
23.576117
 30
0.0
 11
40.93254199999999
 21
24.47306
 31
0.0
  0
LINE
  5
4E62
330
4E43
100
AcDbEntity
  8
0
  6
CONTINUOUS
 62
     0
100
AcDbLine
 10
37.386162
 20
20.92667999999997
 30
0.0
 11
38.458814
 21
21.99933199999999
 31
0.0
  0
LINE
  5
4E63
330
4E43
100
AcDbEntity
  8
0
  6
CONTINUOUS
 62
     0
100
AcDbLine
 10
38.421083
 20
22.244444
 30
0.0
 11
39.255833
 21
23.079194
 31
0.0
  0
LINE
  5
4E64
330
4E43
100
AcDbEntity
  8
0
  6
CONTINUOUS
 62
     0
100
AcDbLine
 10
39.85366199999999
 20
23.677023
 30
0.0
 11
40.721945
 21
24.545306
 31
0.0
  0
LINE
  5
4E65
330
4E43
100
AcDbEntity
  8
0
  6
CONTINUOUS
 62
     0
100
AcDbLine
 10
37.22185
 20
21.04521099999999
 30
0.0
 11
38.375638
 21
22.198999
 31
0.0
  0
LINE
  5
4E66
330
4E43
100
AcDbEntity
  8
0
  6
CONTINUOUS
 62
     0
100
AcDbLine
 10
39.63845399999997
 20
23.744657
 30
0.0
 11
40.501236
 21
24.607439
 31
0.0
  0
LINE
  5
4E67
330
4E43
100
AcDbEntity
  8
0
  6
CONTINUOUS
 62
     0
100
AcDbLine
 10
37.07656
 20
21.182763
 30
0.0
 11
38.97299
 21
23.079194
 31
0.0
  0
LINE
  5
4E68
330
4E43
100
AcDbEntity
  8
0
  6
CONTINUOUS
 62
     0
100
AcDbLine
 10
39.38487999999999
 20
23.77392599999998
 30
0.0
 11
40.269576
 21
24.658623
 31
0.0
  0
LINE
  5
4E69
330
4E43
100
AcDbEntity
  8
0
  6
CONTINUOUS
 62
     0
100
AcDbLine
 10
36.946052
 20
21.335098
 30
0.0
 11
38.69014699999999
 21
23.079194
 31
0.0
  0
LINE
  5
4E6A
330
4E43
100
AcDbEntity
  8
0
  6
CONTINUOUS
 62
     0
100
AcDbLine
 10
39.069245
 20
23.741134
 30
0.0
 11
40.026103
 21
24.697992
 31
0.0
  0
LINE
  5
4E6B
330
4E43
100
AcDbEntity
  8
0
  6
CONTINUOUS
 62
     0
100
AcDbLine
 10
36.825922
 20
21.49781099999999
 30
0.0
 11
38.407305
 21
23.079194
 31
0.0
  0
LINE
  5
4E6C
330
4E43
100
AcDbEntity
  8
0
  6
CONTINUOUS
 62
     0
100
AcDbLine
 10
36.722045
 20
21.676776
 30
0.0
 11
39.76916899999999
 21
24.723901
 31
0.0
  0
LINE
  5
4E6D
330
4E43
100
AcDbEntity
  8
0
  6
CONTINUOUS
 62
     0
100
AcDbLine
 10
36.63367199999999
 20
21.871247
 30
0.0
 11
39.492393
 21
24.729967
 31
0.0
  0
LINE
  5
4E6E
330
4E43
100
AcDbEntity
  8
0
  6
CONTINUOUS
 62
     0
100
AcDbLine
 10
36.558727
 20
22.07914399999999
 30
0.0
 11
39.21488899999999
 21
24.735306
 31
0.0
  0
LINE
  5
4E6F
330
4E43
100
AcDbEntity
  8
0
  6
CONTINUOUS
 62
     0
100
AcDbLine
 10
36.503475
 20
22.30673499999999
 30
0.0
 11
38.910338
 21
24.713597
 31
0.0
  0
LINE
  5
4E70
330
4E43
100
AcDbEntity
  8
0
  6
CONTINUOUS
 62
     0
100
AcDbLine
 10
36.47892399999999
 20
22.56502699999999
 30
0.0
 11
38.59996399999999
 21
24.686067
 31
0.0
  0
LINE
  5
4E71
330
4E43
100
AcDbEntity
  8
0
  6
CONTINUOUS
 62
     0
100
AcDbLine
 10
36.497306
 20
22.866251
 30
0.0
 11
38.252546
 21
24.62149099999999
 31
0.0
  0
LINE
  5
4E72
330
4E43
100
AcDbEntity
  8
0
  6
CONTINUOUS
 62
     0
100
AcDbLine
 10
36.58207
 20
23.233858
 30
0.0
 11
37.861674
 21
24.513462
 31
0.0
  0
LINE
  5
4E73
330
4E43
100
AcDbEntity
  8
0
  6
CONTINUOUS
 62
     0
100
AcDbLine
 10
36.878958
 20
23.813588
 30
0.0
 11
37.289934
 21
24.224564
 31
0.0
  0
ENDBLK
  5
4E75
330
4E43
100
AcDbEntity
  8
0
100
AcDbBlockEnd
  0
BLOCK
  5
4E97
330
4E76
100
AcDbEntity
  8
0
100
AcDbBlockBegin
  2
*X26
 70
     1
 10
0.0
 20
0.0
 30
0.0
  3
*X26
  1

  0
LINE
  5
4E77
330
4E76
100
AcDbEntity
  8
0
  6
CONTINUOUS
 62
     0
100
AcDbLine
 10
47.249714
 20
22.58779399999999
 30
0.0
 11
47.287957
 21
22.62603599999999
 31
0.0
  0
LINE
  5
4E78
330
4E76
100
AcDbEntity
  8
0
  6
CONTINUOUS
 62
     0
100
AcDbLine
 10
46.96687199999998
 20
22.58779399999999
 30
0.0
 11
47.307662
 21
22.928584
 31
0.0
  0
LINE
  5
4E79
330
4E76
100
AcDbEntity
  8
0
  6
CONTINUOUS
 62
     0
100
AcDbLine
 10
46.68402899999999
 20
22.58779399999999
 30
0.0
 11
47.29611499999999
 21
23.19987999999999
 31
0.0
  0
LINE
  5
4E7A
330
4E76
100
AcDbEntity
  8
0
  6
CONTINUOUS
 62
     0
100
AcDbLine
 10
46.401186
 20
22.58779399999999
 30
0.0
 11
47.261533
 21
23.448141
 31
0.0
  0
LINE
  5
4E7B
330
4E76
100
AcDbEntity
  8
0
  6
CONTINUOUS
 62
     0
100
AcDbLine
 10
44.445486
 20
20.63209399999998
 30
0.0
 11
44.459623
 21
20.64623
 31
0.0
  0
LINE
  5
4E7C
330
4E76
100
AcDbEntity
  8
0
  6
CONTINUOUS
 62
     0
100
AcDbLine
 10
46.11834299999999
 20
22.58779399999999
 30
0.0
 11
47.209214
 21
23.67866499999999
 31
0.0
  0
LINE
  5
4E7D
330
4E76
100
AcDbEntity
  8
0
  6
CONTINUOUS
 62
     0
100
AcDbLine
 10
44.162643
 20
20.63209399999998
 30
0.0
 11
44.459623
 21
20.929073
 31
0.0
  0
LINE
  5
4E7E
330
4E76
100
AcDbEntity
  8
0
  6
CONTINUOUS
 62
     0
100
AcDbLine
 10
45.835501
 20
22.58779399999999
 30
0.0
 11
47.132011
 21
23.884304
 31
0.0
  0
LINE
  5
4E7F
330
4E76
100
AcDbEntity
  8
0
  6
CONTINUOUS
 62
     0
100
AcDbLine
 10
43.879801
 20
20.63209399999998
 30
0.0
 11
44.459623
 21
21.21191599999999
 31
0.0
  0
LINE
  5
4E80
330
4E76
100
AcDbEntity
  8
0
  6
CONTINUOUS
 62
     0
100
AcDbLine
 10
45.55265799999999
 20
22.58779399999999
 30
0.0
 11
47.02930300000001
 21
24.06443799999999
 31
0.0
  0
LINE
  5
4E81
330
4E76
100
AcDbEntity
  8
0
  6
CONTINUOUS
 62
     0
100
AcDbLine
 10
43.59695799999999
 20
20.63209399999998
 30
0.0
 11
44.459623
 21
21.494759
 31
0.0
  0
LINE
  5
4E82
330
4E76
100
AcDbEntity
  8
0
  6
CONTINUOUS
 62
     0
100
AcDbLine
 10
45.45457299999998
 20
22.772551
 30
0.0
 11
46.900895
 21
24.218874
 31
0.0
  0
LINE
  5
4E83
330
4E76
100
AcDbEntity
  8
0
  6
CONTINUOUS
 62
     0
100
AcDbLine
 10
43.314115
 20
20.63209399999998
 30
0.0
 11
44.459623
 21
21.77760099999999
 31
0.0
  0
LINE
  5
4E84
330
4E76
100
AcDbEntity
  8
0
  6
CONTINUOUS
 62
     0
100
AcDbLine
 10
45.418199
 20
23.01902
 30
0.0
 11
46.74470999999999
 21
24.345531
 31
0.0
  0
LINE
  5
4E85
330
4E76
100
AcDbEntity
  8
0
  6
CONTINUOUS
 62
     0
100
AcDbLine
 10
43.03127299999998
 20
20.63209399999998
 30
0.0
 11
44.459623
 21
22.060444
 31
0.0
  0
LINE
  5
4E86
330
4E76
100
AcDbEntity
  8
0
  6
CONTINUOUS
 62
     0
100
AcDbLine
 10
45.294614
 20
23.17827799999999
 30
0.0
 11
46.558784
 21
24.442448
 31
0.0
  0
LINE
  5
4E87
330
4E76
100
AcDbEntity
  8
0
  6
CONTINUOUS
 62
     0
100
AcDbLine
 10
42.74842999999999
 20
20.63209399999998
 30
0.0
 11
44.459623
 21
22.343287
 31
0.0
  0
LINE
  5
4E88
330
4E76
100
AcDbEntity
  8
0
  6
CONTINUOUS
 62
     0
100
AcDbLine
 10
45.10254699999999
 20
23.26905299999999
 30
0.0
 11
46.34635699999999
 21
24.512863
 31
0.0
  0
LINE
  5
4E89
330
4E76
100
AcDbEntity
  8
0
  6
CONTINUOUS
 62
     0
100
AcDbLine
 10
42.732973
 20
20.89947899999998
 30
0.0
 11
44.459623
 21
22.626129
 31
0.0
  0
LINE
  5
4E8A
330
4E76
100
AcDbEntity
  8
0
  6
CONTINUOUS
 62
     0
100
AcDbLine
 10
44.79762199999998
 20
23.24697099999999
 30
0.0
 11
46.11516599999998
 21
24.564515
 31
0.0
  0
LINE
  5
4E8B
330
4E76
100
AcDbEntity
  8
0
  6
CONTINUOUS
 62
     0
100
AcDbLine
 10
42.732973
 20
21.182322
 30
0.0
 11
44.492506
 21
22.941855
 31
0.0
  0
LINE
  5
4E8C
330
4E76
100
AcDbEntity
  8
0
  6
CONTINUOUS
 62
     0
100
AcDbLine
 10
42.732973
 20
21.465165
 30
0.0
 11
45.85771499999999
 21
24.58990599999999
 31
0.0
  0
LINE
  5
4E8D
330
4E76
100
AcDbEntity
  8
0
  6
CONTINUOUS
 62
     0
100
AcDbLine
 10
42.732973
 20
21.74800799999999
 30
0.0
 11
45.563093
 21
24.57812699999999
 31
0.0
  0
LINE
  5
4E8E
330
4E76
100
AcDbEntity
  8
0
  6
CONTINUOUS
 62
     0
100
AcDbLine
 10
42.732973
 20
22.03085
 30
0.0
 11
45.22227700000001
 21
24.52015499999999
 31
0.0
  0
LINE
  5
4E8F
330
4E76
100
AcDbEntity
  8
0
  6
CONTINUOUS
 62
     0
100
AcDbLine
 10
42.732973
 20
22.313693
 30
0.0
 11
44.777089
 21
24.357809
 31
0.0
  0
LINE
  5
4E90
330
4E76
100
AcDbEntity
  8
0
  6
CONTINUOUS
 62
     0
100
AcDbLine
 10
42.732973
 20
22.59653599999999
 30
0.0
 11
44.459623
 21
24.323186
 31
0.0
  0
LINE
  5
4E91
330
4E76
100
AcDbEntity
  8
0
  6
CONTINUOUS
 62
     0
100
AcDbLine
 10
42.732973
 20
22.87937799999999
 30
0.0
 11
44.361988
 21
24.508394
 31
0.0
  0
LINE
  5
4E92
330
4E76
100
AcDbEntity
  8
0
  6
CONTINUOUS
 62
     0
100
AcDbLine
 10
42.732973
 20
23.162221
 30
0.0
 11
44.079145
 21
24.508394
 31
0.0
  0
LINE
  5
4E93
330
4E76
100
AcDbEntity
  8
0
  6
CONTINUOUS
 62
     0
100
AcDbLine
 10
42.732973
 20
23.445064
 30
0.0
 11
43.796303
 21
24.508394
 31
0.0
  0
LINE
  5
4E94
330
4E76
100
AcDbEntity
  8
0
  6
CONTINUOUS
 62
     0
100
AcDbLine
 10
42.732973
 20
23.727907
 30
0.0
 11
43.51345999999998
 21
24.508394
 31
0.0
  0
LINE
  5
4E95
330
4E76
100
AcDbEntity
  8
0
  6
CONTINUOUS
 62
     0
100
AcDbLine
 10
42.732973
 20
24.010749
 30
0.0
 11
43.23061699999999
 21
24.508394
 31
0.0
  0
LINE
  5
4E96
330
4E76
100
AcDbEntity
  8
0
  6
CONTINUOUS
 62
     0
100
AcDbLine
 10
42.732973
 20
24.293592
 30
0.0
 11
42.947775
 21
24.508394
 31
0.0
  0
ENDBLK
  5
4E98
330
4E76
100
AcDbEntity
  8
0
100
AcDbBlockEnd
  0
BLOCK
  5
4F09
330
4EFF
100
AcDbEntity
  8
0
100
AcDbBlockBegin
  2
*D27
 70
     1
 10
0.0
 20
0.0
 30
0.0
  3
*D27
  1

  0
LINE
  5
4F5B
330
4EFF
100
AcDbEntity
  8
DIM
  6
CONTINUOUS
100
AcDbLine
 10
76.556929
 20
189.795902
 30
0.0
 11
67.75
 21
189.795902
 31
0.0
  0
LINE
  5
4F5C
330
4EFF
100
AcDbEntity
  8
DIM
  6
CONTINUOUS
100
AcDbLine
 10
86.256929
 20
201.1959019999999
 30
0.0
 11
67.75
 21
201.1959019999999
 31
0.0
  0
LINE
  5
4F5D
330
4EFF
100
AcDbEntity
  8
DIM
  6
CONTINUOUS
100
AcDbLine
 10
69.0
 20
192.295902
 30
0.0
 11
69.0
 21
198.695902
 31
0.0
  0
SOLID
  5
4F5E
330
4EFF
100
AcDbEntity
  8
DIM
  6
CONTINUOUS
100
AcDbTrace
 10
68.58333333333333
 20
192.295902
 30
0.0
 11
69.41666666666667
 21
192.295902
 31
0.0
 12
69.0
 22
189.795902
 32
0.0
 13
69.0
 23
189.795902
 33
0.0
  0
SOLID
  5
4F5F
330
4EFF
100
AcDbEntity
  8
DIM
  6
CONTINUOUS
100
AcDbTrace
 10
68.58333333333333
 20
198.695902
 30
0.0
 11
69.41666666666667
 21
198.695902
 31
0.0
 12
69.0
 22
201.1959019999999
 32
0.0
 13
69.0
 23
201.1959019999999
 33
0.0
  0
MTEXT
  5
4F60
330
4EFF
100
AcDbEntity
  8
DIM
  6
CONTINUOUS
 62
     2
100
AcDbMText
 10
67.47131650750339
 20
195.495902
 30
0.0
 40
1.8
 41
0.0
 71
     5
 72
     1
  1
11.4
  7
FINDER
 11
0.0000000000000001
 21
1.0
 31
0.0
1001
ACAD
1000
MTEXTBEGIN
1070
    73
1070
     1
1070
    44
1040
1.0
1070
    74
1070
     0
1000
MTEXTEND
1000
MTEXTBEGIN
1070
    73
1070
     1
1070
    44
1040
1.0
1070
    74
1070
     0
1000
MTEXTEND
  0
POINT
  5
4F61
330
4EFF
100
AcDbEntity
  8
DEFPOINTS
  6
CONTINUOUS
 62
     0
100
AcDbPoint
 10
78.556929
 20
189.795902
 30
0.0
  0
POINT
  5
4F62
330
4EFF
100
AcDbEntity
  8
DEFPOINTS
  6
CONTINUOUS
 62
     0
100
AcDbPoint
 10
88.25692899999998
 20
201.1959019999999
 30
0.0
  0
POINT
  5
4F63
330
4EFF
100
AcDbEntity
  8
DEFPOINTS
  6
CONTINUOUS
 62
     0
100
AcDbPoint
 10
69.0
 20
201.1959019999999
 30
0.0
  0
ENDBLK
  5
4F0A
330
4EFF
100
AcDbEntity
  8
0
100
AcDbBlockEnd
  0
BLOCK
  5
4F18
330
4F0C
100
AcDbEntity
  8
0
100
AcDbBlockBegin
  2
*D28
 70
     1
 10
0.0
 20
0.0
 30
0.0
  3
*D28
  1

  0
LINE
  5
4F0D
330
4F0C
100
AcDbEntity
  8
DIM
  6
CONTINUOUS
100
AcDbLine
 10
79.55626799999997
 20
190.1959019999999
 30
0.0
 11
79.96483731493595
 21
190.1959019999999
 31
0.0
  0
LINE
  5
4F0E
330
4F0C
100
AcDbEntity
  8
DIM
  6
CONTINUOUS
100
AcDbLine
 10
79.55626799999997
 20
189.395902
 30
0.0
 11
79.96483731493595
 21
189.395902
 31
0.0
  0
LINE
  5
4F0F
330
4F0C
100
AcDbEntity
  8
DIM
  6
CONTINUOUS
100
AcDbLine
 10
81.21483731493595
 20
192.6959019999999
 30
0.0
 11
81.21483731493595
 21
195.1959019999999
 31
0.0
  0
LINE
  5
4F10
330
4F0C
100
AcDbEntity
  8
DIM
  6
CONTINUOUS
100
AcDbLine
 10
81.21483731493595
 20
186.895902
 30
0.0
 11
81.21483731493595
 21
179.8651380163708
 31
0.0
  0
LINE
  5
4F11
330
4F0C
100
AcDbEntity
  8
DIM
  6
CONTINUOUS
100
AcDbLine
 10
81.21483731493595
 20
190.1959019999999
 30
0.0
 11
81.21483731493595
 21
189.395902
 31
0.0
  0
SOLID
  5
4F12
330
4F0C
100
AcDbEntity
  8
DIM
  6
CONTINUOUS
100
AcDbTrace
 10
80.79817064826928
 20
192.6959019999999
 30
0.0
 11
81.63150398160262
 21
192.6959019999999
 31
0.0
 12
81.21483731493595
 22
190.1959019999999
 32
0.0
 13
81.21483731493595
 23
190.1959019999999
 33
0.0
  0
SOLID
  5
4F13
330
4F0C
100
AcDbEntity
  8
DIM
  6
CONTINUOUS
100
AcDbTrace
 10
80.79817064826928
 20
186.895902
 30
0.0
 11
81.63150398160262
 21
186.895902
 31
0.0
 12
81.21483731493595
 22
189.395902
 32
0.0
 13
81.21483731493595
 23
189.395902
 33
0.0
  0
MTEXT
  5
4F14
330
4F0C
100
AcDbEntity
  8
DIM
  6
CONTINUOUS
 62
     2
100
AcDbMText
 10
79.67080593703688
 20
182.1305200081854
 30
0.0
 40
1.8
 41
0.0
 71
     5
 72
     1
  1
0.8
  7
FINDER
 11
0.0000000000000001
 21
1.0
 31
0.0
1001
ACAD
1000
MTEXTBEGIN
1070
    73
1070
     1
1070
    44
1040
1.0
1070
    74
1070
     0
1000
MTEXTEND
1000
MTEXTBEGIN
1070
    73
1070
     1
1070
    44
1040
1.0
1070
    74
1070
     0
1000
MTEXTEND
1000
MTEXTBEGIN
1070
    73
1070
     1
1070
    44
1040
1.0
1070
    74
1070
     0
1000
MTEXTEND
  0
POINT
  5
4F15
330
4F0C
100
AcDbEntity
  8
DEFPOINTS
  6
CONTINUOUS
 62
     0
100
AcDbPoint
 10
81.55626799999998
 20
190.1959019999999
 30
0.0
  0
POINT
  5
4F16
330
4F0C
100
AcDbEntity
  8
DEFPOINTS
  6
CONTINUOUS
 62
     0
100
AcDbPoint
 10
81.55626799999998
 20
189.395902
 30
0.0
  0
POINT
  5
4F17
330
4F0C
100
AcDbEntity
  8
DEFPOINTS
  6
CONTINUOUS
 62
     0
100
AcDbPoint
 10
81.21483731493595
 20
189.395902
 30
0.0
  0
ENDBLK
  5
4F19
330
4F0C
100
AcDbEntity
  8
0
100
AcDbBlockEnd
  0
BLOCK
  5
4F27
330
4F1B
100
AcDbEntity
  8
0
100
AcDbBlockBegin
  2
*D29
 70
     1
 10
0.0
 20
0.0
 30
0.0
  3
*D29
  1

  0
LINE
  5
4F29
330
4F1B
100
AcDbEntity
  8
DIM
  6
CONTINUOUS
100
AcDbLine
 10
80.556929
 20
190.1959019999999
 30
0.0
 11
81.87382929354773
 21
190.1959019999999
 31
0.0
  0
LINE
  5
4F2A
330
4F1B
100
AcDbEntity
  8
DIM
  6
CONTINUOUS
100
AcDbLine
 10
80.556929
 20
189.395902
 30
0.0
 11
81.87382929354773
 21
189.395902
 31
0.0
  0
LINE
  5
4F2B
330
4F1B
100
AcDbEntity
  8
DIM
  6
CONTINUOUS
100
AcDbLine
 10
80.62382929354773
 20
186.895902
 30
0.0
 11
80.62382929354773
 21
184.3959019999999
 31
0.0
  0
LINE
  5
4F2C
330
4F1B
100
AcDbEntity
  8
DIM
  6
CONTINUOUS
100
AcDbLine
 10
80.62382929354773
 20
192.6959019999999
 30
0.0
 11
80.62382929354773
 21
199.7266659836289
 31
0.0
  0
LINE
  5
4F2D
330
4F1B
100
AcDbEntity
  8
DIM
  6
CONTINUOUS
100
AcDbLine
 10
80.62382929354773
 20
189.395902
 30
0.0
 11
80.62382929354773
 21
190.1959019999999
 31
0.0
  0
SOLID
  5
4F2E
330
4F1B
100
AcDbEntity
  8
DIM
  6
CONTINUOUS
100
AcDbTrace
 10
80.20716262688107
 20
186.895902
 30
0.0
 11
81.0404959602144
 21
186.895902
 31
0.0
 12
80.62382929354773
 22
189.395902
 32
0.0
 13
80.62382929354773
 23
189.395902
 33
0.0
  0
SOLID
  5
4F2F
330
4F1B
100
AcDbEntity
  8
DIM
  6
CONTINUOUS
100
AcDbTrace
 10
80.20716262688107
 20
192.6959019999999
 30
0.0
 11
81.0404959602144
 21
192.6959019999999
 31
0.0
 12
80.62382929354773
 22
190.1959019999999
 32
0.0
 13
80.62382929354773
 23
190.1959019999999
 33
0.0
  0
MTEXT
  5
4F30
330
4F1B
100
AcDbEntity
  8
DIM
  6
CONTINUOUS
 62
     2
100
AcDbMText
 10
79.07979791564867
 20
197.4612839918144
 30
0.0
 40
1.8
 41
0.0
 71
     5
 72
     1
  1
0.8
  7
FINDER
 11
0.0000000000000001
 21
1.0
 31
0.0
1001
ACAD
1000
MTEXTBEGIN
1070
    73
1070
     1
1070
    44
1040
1.0
1070
    74
1070
     0
1000
MTEXTEND
1000
MTEXTBEGIN
1070
    73
1070
     1
1070
    44
1040
1.0
1070
    74
1070
     0
1000
MTEXTEND
1000
MTEXTBEGIN
1070
    73
1070
     1
1070
    44
1040
1.0
1070
    74
1070
     0
1000
MTEXTEND
  0
POINT
  5
4F31
330
4F1B
100
AcDbEntity
  8
DEFPOINTS
  6
CONTINUOUS
 62
     0
100
AcDbPoint
 10
78.556929
 20
190.1959019999999
 30
0.0
  0
POINT
  5
4F32
330
4F1B
100
AcDbEntity
  8
DEFPOINTS
  6
CONTINUOUS
 62
     0
100
AcDbPoint
 10
78.556929
 20
189.395902
 30
0.0
  0
POINT
  5
4F33
330
4F1B
100
AcDbEntity
  8
DEFPOINTS
  6
CONTINUOUS
 62
     0
100
AcDbPoint
 10
80.62382929354773
 20
189.395902
 30
0.0
  0
ENDBLK
  5
4F28
330
4F1B
100
AcDbEntity
  8
0
100
AcDbBlockEnd
  0
BLOCK
  5
4F6D
330
4F6B
100
AcDbEntity
  8
0
100
AcDbBlockBegin
  2
_G_T_1
 70
     0
 10
0.0
 20
0.0
 30
0.0
  3
_G_T_1
  1

  0
TEXT
  5
4F6C
330
4F6B
100
AcDbEntity
  8
5
  6
CONTINUOUS
 62
     1
100
AcDbText
 10
609.752869
 20
190.711258
 30
0.0
 40
1.399999999999999
  1
2
 41
1.000004
  7
TSTYLE5
100
AcDbText
  0
ENDBLK
  5
4F6E
330
4F6B
100
AcDbEntity
  8
0
100
AcDbBlockEnd
  0
BLOCK
  5
4F71
330
4F6F
100
AcDbEntity
  8
0
100
AcDbBlockBegin
  2
_G_T_10
 70
     0
 10
0.0
 20
0.0
 30
0.0
  3
_G_T_10
  1

  0
TEXT
  5
4F70
330
4F6F
100
AcDbEntity
  8
5
  6
CONTINUOUS
 62
     1
100
AcDbText
 10
633.249451
 20
190.0403139999999
 30
0.0
 40
1.399999999999999
  1
42
 50
90.0
 41
1.000004
  7
TSTYLE5
100
AcDbText
  0
ENDBLK
  5
4F72
330
4F6F
100
AcDbEntity
  8
0
100
AcDbBlockEnd
  0
BLOCK
  5
4F75
330
4F73
100
AcDbEntity
  8
0
100
AcDbBlockBegin
  2
_G_T_11
 70
     0
 10
0.0
 20
0.0
 30
0.0
  3
_G_T_11
  1

  0
TEXT
  5
4F74
330
4F73
100
AcDbEntity
  8
5
  6
CONTINUOUS
 62
     1
100
AcDbText
 10
629.752869
 20
185.961258
 30
0.0
 40
1.399999999999999
  1
8
 41
1.000004
  7
TSTYLE5
100
AcDbText
  0
ENDBLK
  5
4F76
330
4F73
100
AcDbEntity
  8
0
100
AcDbBlockEnd
  0
BLOCK
  5
4F79
330
4F77
100
AcDbEntity
  8
0
100
AcDbBlockBegin
  2
_G_T_12
 70
     0
 10
0.0
 20
0.0
 30
0.0
  3
_G_T_12
  1

  0
TEXT
  5
4F78
330
4F77
100
AcDbEntity
  8
5
  6
CONTINUOUS
 62
     1
100
AcDbText
 10
633.249451
 20
185.290314
 30
0.0
 40
1.399999999999999
  1
44
 50
90.0
 41
1.000004
  7
TSTYLE5
100
AcDbText
  0
ENDBLK
  5
4F7A
330
4F77
100
AcDbEntity
  8
0
100
AcDbBlockEnd
  0
BLOCK
  5
4F7D
330
4F7B
100
AcDbEntity
  8
0
100
AcDbBlockBegin
  2
_G_T_13
 70
     0
 10
0.0
 20
0.0
 30
0.0
  3
_G_T_13
  1

  0
TEXT
  5
4F7C
330
4F7B
100
AcDbEntity
  8
5
  6
CONTINUOUS
 62
     1
100
AcDbText
 10
623.194458
 20
190.01651
 30
0.0
 40
1.399999999999999
  1
32
 50
90.0
 41
1.000004
  7
TSTYLE5
100
AcDbText
  0
ENDBLK
  5
4F7E
330
4F7B
100
AcDbEntity
  8
0
100
AcDbBlockEnd
  0
BLOCK
  5
4F81
330
4F7F
100
AcDbEntity
  8
0
100
AcDbBlockBegin
  2
_G_T_14
 70
     0
 10
0.0
 20
0.0
 30
0.0
  3
_G_T_14
  1

  0
TEXT
  5
4F80
330
4F7F
100
AcDbEntity
  8
5
  6
CONTINUOUS
 62
     1
100
AcDbText
 10
619.4315799999998
 20
190.711258
 30
0.0
 40
1.399999999999999
  1
3
 41
1.000004
  7
TSTYLE5
100
AcDbText
  0
ENDBLK
  5
4F82
330
4F7F
100
AcDbEntity
  8
0
100
AcDbBlockEnd
  0
BLOCK
  5
4F85
330
4F83
100
AcDbEntity
  8
0
100
AcDbBlockBegin
  2
_G_T_15
 70
     0
 10
0.0
 20
0.0
 30
0.0
  3
_G_T_15
  1

  0
TEXT
  5
4F84
330
4F83
100
AcDbEntity
  8
5
  6
CONTINUOUS
 62
     1
100
AcDbText
 10
619.4315799999998
 20
185.961258
 30
0.0
 40
1.399999999999999
  1
7
 41
1.000004
  7
TSTYLE5
100
AcDbText
  0
ENDBLK
  5
4F86
330
4F83
100
AcDbEntity
  8
0
100
AcDbBlockEnd
  0
BLOCK
  5
4F89
330
4F87
100
AcDbEntity
  8
0
100
AcDbBlockBegin
  2
_G_T_16
 70
     0
 10
0.0
 20
0.0
 30
0.0
  3
_G_T_16
  1

  0
TEXT
  5
4F88
330
4F87
100
AcDbEntity
  8
5
  6
CONTINUOUS
 62
     1
100
AcDbText
 10
623.194458
 20
185.26651
 30
0.0
 40
1.399999999999999
  1
34
 50
90.0
 41
1.000004
  7
TSTYLE5
100
AcDbText
  0
ENDBLK
  5
4F8A
330
4F87
100
AcDbEntity
  8
0
100
AcDbBlockEnd
  0
BLOCK
  5
4F8D
330
4F8B
100
AcDbEntity
  8
0
100
AcDbBlockBegin
  2
_G_T_17
 70
     0
 10
0.0
 20
0.0
 30
0.0
  3
_G_T_17
  1

  0
TEXT
  5
4F8C
330
4F8B
100
AcDbEntity
  8
5
  6
CONTINUOUS
 62
     1
100
AcDbText
 10
602.65332
 20
175.2592009999999
 30
0.0
 40
1.399999999999999
  1
13
 41
1.000004
  7
TSTYLE5
100
AcDbText
  0
ENDBLK
  5
4F8E
330
4F8B
100
AcDbEntity
  8
0
100
AcDbBlockEnd
  0
BLOCK
  5
4F91
330
4F8F
100
AcDbEntity
  8
0
100
AcDbBlockBegin
  2
_G_T_18
 70
     0
 10
0.0
 20
0.0
 30
0.0
  3
_G_T_18
  1

  0
TEXT
  5
4F90
330
4F8F
100
AcDbEntity
  8
5
  6
CONTINUOUS
 62
     1
100
AcDbText
 10
628.5645139999997
 20
175.325012
 30
0.0
 40
1.399999999999999
  1
14
 41
1.000004
  7
TSTYLE5
100
AcDbText
  0
ENDBLK
  5
4F92
330
4F8F
100
AcDbEntity
  8
0
100
AcDbBlockEnd
  0
BLOCK
  5
4F95
330
4F93
100
AcDbEntity
  8
0
100
AcDbBlockBegin
  2
_G_T_19
 70
     0
 10
0.0
 20
0.0
 30
0.0
  3
_G_T_19
  1

  0
TEXT
  5
4F94
330
4F93
100
AcDbEntity
  8
5
  6
CONTINUOUS
 62
     1
100
AcDbText
 10
608.653503
 20
180.087448
 30
0.0
 40
1.399999999999999
  1
10
 41
1.000004
  7
TSTYLE5
100
AcDbText
  0
ENDBLK
  5
4F96
330
4F93
100
AcDbEntity
  8
0
100
AcDbBlockEnd
  0
BLOCK
  5
4F99
330
4F97
100
AcDbEntity
  8
0
100
AcDbBlockBegin
  2
_G_T_2
 70
     0
 10
0.0
 20
0.0
 30
0.0
  3
_G_T_2
  1

  0
TEXT
  5
4F98
330
4F97
100
AcDbEntity
  8
5
  6
CONTINUOUS
 62
     1
100
AcDbText
 10
613.249451
 20
190.0403139999999
 30
0.0
 40
1.399999999999999
  1
22
 50
90.0
 41
1.000004
  7
TSTYLE5
100
AcDbText
  0
ENDBLK
  5
4F9A
330
4F97
100
AcDbEntity
  8
0
100
AcDbBlockEnd
  0
BLOCK
  5
4F9D
330
4F9B
100
AcDbEntity
  8
0
100
AcDbBlockBegin
  2
_G_T_20
 70
     0
 10
0.0
 20
0.0
 30
0.0
  3
_G_T_20
  1

  0
TEXT
  5
4F9C
330
4F9B
100
AcDbEntity
  8
5
  6
CONTINUOUS
 62
     1
100
AcDbText
 10
613.249451
 20
179.39032
 30
0.0
 40
1.399999999999999
  1
21
 50
90.0
 41
1.000004
  7
TSTYLE5
100
AcDbText
  0
ENDBLK
  5
4F9E
330
4F9B
100
AcDbEntity
  8
0
100
AcDbBlockEnd
  0
BLOCK
  5
4FA1
330
4F9F
100
AcDbEntity
  8
0
100
AcDbBlockBegin
  2
_G_T_21
 70
     0
 10
0.0
 20
0.0
 30
0.0
  3
_G_T_21
  1

  0
TEXT
  5
4FA0
330
4F9F
100
AcDbEntity
  8
5
  6
CONTINUOUS
 62
     1
100
AcDbText
 10
599.4315799999998
 20
180.0612639999999
 30
0.0
 40
1.399999999999999
  1
9
 41
1.000004
  7
TSTYLE5
100
AcDbText
  0
ENDBLK
  5
4FA2
330
4F9F
100
AcDbEntity
  8
0
100
AcDbBlockEnd
  0
BLOCK
  5
4FA5
330
4FA3
100
AcDbEntity
  8
0
100
AcDbBlockBegin
  2
_G_T_22
 70
     0
 10
0.0
 20
0.0
 30
0.0
  3
_G_T_22
  1

  0
TEXT
  5
4FA4
330
4FA3
100
AcDbEntity
  8
5
  6
CONTINUOUS
 62
     1
100
AcDbText
 10
603.1944580000001
 20
179.3665159999999
 30
0.0
 40
1.399999999999999
  1
11
 50
90.0
 41
1.000004
  7
TSTYLE5
100
AcDbText
  0
ENDBLK
  5
4FA6
330
4FA3
100
AcDbEntity
  8
0
100
AcDbBlockEnd
  0
BLOCK
  5
4FA9
330
4FA7
100
AcDbEntity
  8
0
100
AcDbBlockBegin
  2
_G_T_23
 70
     0
 10
0.0
 20
0.0
 30
0.0
  3
_G_T_23
  1

  0
TEXT
  5
4FA8
330
4FA7
100
AcDbEntity
  8
5
  6
CONTINUOUS
 62
     1
100
AcDbText
 10
633.249451
 20
179.39032
 30
0.0
 40
1.399999999999999
  1
41
 50
90.0
 41
1.000004
  7
TSTYLE5
100
AcDbText
  0
ENDBLK
  5
4FAA
330
4FA7
100
AcDbEntity
  8
0
100
AcDbBlockEnd
  0
BLOCK
  5
4FAD
330
4FAB
100
AcDbEntity
  8
0
100
AcDbBlockBegin
  2
_G_T_24
 70
     0
 10
0.0
 20
0.0
 30
0.0
  3
_G_T_24
  1

  0
TEXT
  5
4FAC
330
4FAB
100
AcDbEntity
  8
5
  6
CONTINUOUS
 62
     1
100
AcDbText
 10
623.194458
 20
179.3665159999999
 30
0.0
 40
1.399999999999999
  1
31
 50
90.0
 41
1.000004
  7
TSTYLE5
100
AcDbText
  0
ENDBLK
  5
4FAE
330
4FAB
100
AcDbEntity
  8
0
100
AcDbBlockEnd
  0
BLOCK
  5
4FB1
330
4FAF
100
AcDbEntity
  8
0
100
AcDbBlockBegin
  2
_G_T_25
 70
     0
 10
0.0
 20
0.0
 30
0.0
  3
_G_T_25
  1

  0
TEXT
  5
4FB0
330
4FAF
100
AcDbEntity
  8
5
  6
CONTINUOUS
 62
     1
100
AcDbText
 10
618.731628
 20
180.0612639999999
 30
0.0
 40
1.399999999999999
  1
11
 41
1.000004
  7
TSTYLE5
100
AcDbText
  0
ENDBLK
  5
4FB2
330
4FAF
100
AcDbEntity
  8
0
100
AcDbBlockEnd
  0
BLOCK
  5
4FB5
330
4FB3
100
AcDbEntity
  8
0
100
AcDbBlockBegin
  2
_G_T_26
 70
     0
 10
0.0
 20
0.0
 30
0.0
  3
_G_T_26
  1

  0
TEXT
  5
4FB4
330
4FB3
100
AcDbEntity
  8
5
  6
CONTINUOUS
 62
     1
100
AcDbText
 10
628.9528809999998
 20
180.0612639999999
 30
0.0
 40
1.399999999999999
  1
12
 41
1.000004
  7
TSTYLE5
100
AcDbText
  0
ENDBLK
  5
4FB6
330
4FB3
100
AcDbEntity
  8
0
100
AcDbBlockEnd
  0
BLOCK
  5
4FB9
330
4FB7
100
AcDbEntity
  8
0
100
AcDbBlockBegin
  2
_G_T_3
 70
     0
 10
0.0
 20
0.0
 30
0.0
  3
_G_T_3
  1

  0
TEXT
  5
4FB8
330
4FB7
100
AcDbEntity
  8
5
  6
CONTINUOUS
 62
     1
100
AcDbText
 10
609.752869
 20
185.961258
 30
0.0
 40
1.399999999999999
  1
6
 41
1.000004
  7
TSTYLE5
100
AcDbText
  0
ENDBLK
  5
4FBA
330
4FB7
100
AcDbEntity
  8
0
100
AcDbBlockEnd
  0
BLOCK
  5
4FBD
330
4FBB
100
AcDbEntity
  8
0
100
AcDbBlockBegin
  2
_G_T_4
 70
     0
 10
0.0
 20
0.0
 30
0.0
  3
_G_T_4
  1

  0
TEXT
  5
4FBC
330
4FBB
100
AcDbEntity
  8
5
  6
CONTINUOUS
 62
     1
100
AcDbText
 10
613.249451
 20
185.290314
 30
0.0
 40
1.399999999999999
  1
24
 50
90.0
 41
1.000004
  7
TSTYLE5
100
AcDbText
  0
ENDBLK
  5
4FBE
330
4FBB
100
AcDbEntity
  8
0
100
AcDbBlockEnd
  0
BLOCK
  5
4FC1
330
4FBF
100
AcDbEntity
  8
0
100
AcDbBlockBegin
  2
_G_T_5
 70
     0
 10
0.0
 20
0.0
 30
0.0
  3
_G_T_5
  1

  0
TEXT
  5
4FC0
330
4FBF
100
AcDbEntity
  8
5
  6
CONTINUOUS
 62
     1
100
AcDbText
 10
603.1944580000001
 20
190.01651
 30
0.0
 40
1.399999999999999
  1
12
 50
90.0
 41
1.000004
  7
TSTYLE5
100
AcDbText
  0
ENDBLK
  5
4FC2
330
4FBF
100
AcDbEntity
  8
0
100
AcDbBlockEnd
  0
BLOCK
  5
4FC5
330
4FC3
100
AcDbEntity
  8
0
100
AcDbBlockBegin
  2
_G_T_6
 70
     0
 10
0.0
 20
0.0
 30
0.0
  3
_G_T_6
  1

  0
TEXT
  5
4FC4
330
4FC3
100
AcDbEntity
  8
5
  6
CONTINUOUS
 62
     1
100
AcDbText
 10
599.4315799999998
 20
190.711258
 30
0.0
 40
1.399999999999999
  1
1
 41
1.000004
  7
TSTYLE5
100
AcDbText
  0
ENDBLK
  5
4FC6
330
4FC3
100
AcDbEntity
  8
0
100
AcDbBlockEnd
  0
BLOCK
  5
4FC9
330
4FC7
100
AcDbEntity
  8
0
100
AcDbBlockBegin
  2
_G_T_7
 70
     0
 10
0.0
 20
0.0
 30
0.0
  3
_G_T_7
  1

  0
TEXT
  5
4FC8
330
4FC7
100
AcDbEntity
  8
5
  6
CONTINUOUS
 62
     1
100
AcDbText
 10
599.4315799999998
 20
185.961258
 30
0.0
 40
1.399999999999999
  1
5
 41
1.000004
  7
TSTYLE5
100
AcDbText
  0
ENDBLK
  5
4FCA
330
4FC7
100
AcDbEntity
  8
0
100
AcDbBlockEnd
  0
BLOCK
  5
4FCD
330
4FCB
100
AcDbEntity
  8
0
100
AcDbBlockBegin
  2
_G_T_8
 70
     0
 10
0.0
 20
0.0
 30
0.0
  3
_G_T_8
  1

  0
TEXT
  5
4FCC
330
4FCB
100
AcDbEntity
  8
5
  6
CONTINUOUS
 62
     1
100
AcDbText
 10
603.1944580000001
 20
185.26651
 30
0.0
 40
1.399999999999999
  1
14
 50
90.0
 41
1.000004
  7
TSTYLE5
100
AcDbText
  0
ENDBLK
  5
4FCE
330
4FCB
100
AcDbEntity
  8
0
100
AcDbBlockEnd
  0
BLOCK
  5
4FD1
330
4FCF
100
AcDbEntity
  8
0
100
AcDbBlockBegin
  2
_G_T_9
 70
     0
 10
0.0
 20
0.0
 30
0.0
  3
_G_T_9
  1

  0
TEXT
  5
4FD0
330
4FCF
100
AcDbEntity
  8
5
  6
CONTINUOUS
 62
     1
100
AcDbText
 10
629.752869
 20
190.711258
 30
0.0
 40
1.399999999999999
  1
4
 41
1.000004
  7
TSTYLE5
100
AcDbText
  0
ENDBLK
  5
4FD2
330
4FCF
100
AcDbEntity
  8
0
100
AcDbBlockEnd
  0
BLOCK
  5
4FDC
330
4FD3
100
AcDbEntity
  8
0
100
AcDbBlockBegin
  2
LW_POLYLINE_9
 70
     0
 10
0.0
 20
0.0
 30
0.0
  3
LW_POLYLINE_9
  1

  0
LINE
  5
4FD4
330
4FD3
100
AcDbEntity
  8
2
  6
CONTINUOUS
 62
     4
100
AcDbLine
 10
596.9635799999998
 20
168.899176
 30
0.0
 11
635.9635799999998
 21
168.899176
 31
0.0
  0
LINE
  5
4FD5
330
4FD3
100
AcDbEntity
  8
2
  6
CONTINUOUS
 62
     4
100
AcDbLine
 10
635.9635799999998
 20
168.899176
 30
0.0
 11
636.96358
 21
169.899176
 31
0.0
  0
LINE
  5
4FD6
330
4FD3
100
AcDbEntity
  8
2
  6
CONTINUOUS
 62
     4
100
AcDbLine
 10
636.96358
 20
169.899176
 30
0.0
 11
636.96358
 21
195.699176
 31
0.0
  0
LINE
  5
4FD7
330
4FD3
100
AcDbEntity
  8
2
  6
CONTINUOUS
 62
     4
100
AcDbLine
 10
636.96358
 20
195.699176
 30
0.0
 11
635.9635799999998
 21
196.6991759999999
 31
0.0
  0
LINE
  5
4FD8
330
4FD3
100
AcDbEntity
  8
2
  6
CONTINUOUS
 62
     4
100
AcDbLine
 10
635.9635799999998
 20
196.6991759999999
 30
0.0
 11
596.9635799999998
 21
196.6991759999999
 31
0.0
  0
LINE
  5
4FD9
330
4FD3
100
AcDbEntity
  8
2
  6
CONTINUOUS
 62
     4
100
AcDbLine
 10
596.9635799999998
 20
196.6991759999999
 30
0.0
 11
595.96358
 21
195.699176
 31
0.0
  0
LINE
  5
4FDA
330
4FD3
100
AcDbEntity
  8
2
  6
CONTINUOUS
 62
     4
100
AcDbLine
 10
595.96358
 20
195.699176
 30
0.0
 11
595.96358
 21
169.899176
 31
0.0
  0
LINE
  5
4FDB
330
4FD3
100
AcDbEntity
  8
2
  6
CONTINUOUS
 62
     4
100
AcDbLine
 10
595.96358
 20
169.899176
 30
0.0
 11
596.9635799999998
 21
168.899176
 31
0.0
  0
ENDBLK
  5
4FDD
330
4FD3
100
AcDbEntity
  8
0
100
AcDbBlockEnd
  0
BLOCK
  5
4FE6
330
4FDE
100
AcDbEntity
  8
0
100
AcDbBlockBegin
  2
*D57
 70
     1
 10
0.0
 20
0.0
 30
0.0
  3
*D57
  1

  0
LINE
  5
4FDF
330
4FDE
100
AcDbEntity
  8
1
  6
CONTINUOUS
 62
     3
100
AcDbLine
 10
597.1705309999999
 20
138.708582
 30
0.0
 11
597.1705309999999
 21
142.878328
 31
0.0
  0
LINE
  5
4FE0
330
4FDE
100
AcDbEntity
  8
1
  6
CONTINUOUS
 62
     3
100
AcDbLine
 10
597.1705309999999
 20
141.878328
 30
0.0
 11
637.9705309999998
 21
141.878328
 31
0.0
  0
TEXT
  5
4FE1
330
4FDE
100
AcDbEntity
  8
1
  6
CONTINUOUS
 62
     4
100
AcDbText
 10
613.038635
 20
142.8783259999999
 30
0.0
 40
3.0
  1
40.8
 41
0.9399999999999998
 72
     1
 11
617.033635
 21
144.3783259999999
 31
0.0
100
AcDbText
 73
     2
  0
LINE
  5
4FE2
330
4FDE
100
AcDbEntity
  8
1
  6
CONTINUOUS
 62
     3
100
AcDbLine
 10
637.9705309999998
 20
138.7792589999999
 30
0.0
 11
637.9705309999998
 21
142.878328
 31
0.0
  0
POINT
  5
4FE3
330
4FDE
100
AcDbEntity
  8
DEFPOINTS
 62
     3
100
AcDbPoint
 10
597.1705309999999
 20
101.13043
 30
0.0
  0
POINT
  5
4FE4
330
4FDE
100
AcDbEntity
  8
DEFPOINTS
 62
     3
100
AcDbPoint
 10
637.9705309999998
 20
101.13043
 30
0.0
  0
POINT
  5
4FE5
330
4FDE
100
AcDbEntity
  8
DEFPOINTS
 62
     3
100
AcDbPoint
 10
637.9705309999998
 20
141.878328
 30
0.0
  0
ENDBLK
  5
4FE7
330
4FDE
100
AcDbEntity
  8
0
100
AcDbBlockEnd
  0
BLOCK
  5
4FF0
330
4FE8
100
AcDbEntity
  8
0
100
AcDbBlockBegin
  2
*D58
 70
     1
 10
0.0
 20
0.0
 30
0.0
  3
*D58
  1

  0
LINE
  5
4FE9
330
4FE8
100
AcDbEntity
  8
1
  6
CONTINUOUS
 62
     3
100
AcDbLine
 10
645.2274899999999
 20
138.804787
 30
0.0
 11
645.226762
 21
142.876642
 31
0.0
  0
LINE
  5
4FEA
330
4FE8
100
AcDbEntity
  8
1
  6
CONTINUOUS
 62
     3
100
AcDbLine
 10
645.226941
 20
141.876642
 30
0.0
 11
672.926889
 21
141.8815969999999
 31
0.0
  0
TEXT
  5
4FEB
330
4FE8
100
AcDbEntity
  8
1
  6
CONTINUOUS
 62
     4
100
AcDbText
 10
654.8467164120593
 20
142.8783612928765
 30
0.0
 40
3.0
  1
27.7
 50
0.01025
 41
0.9399999999999998
 72
     1
 11
659.076448
 21
144.379118
 31
0.0
100
AcDbText
 73
     2
  0
LINE
  5
4FEC
330
4FE8
100
AcDbEntity
  8
1
  6
CONTINUOUS
 62
     3
100
AcDbLine
 10
672.9275
 20
138.4658249999999
 30
0.0
 11
672.9267099999998
 21
142.881597
 31
0.0
  0
POINT
  5
4FED
330
4FE8
100
AcDbEntity
  8
DEFPOINTS
 62
     3
100
AcDbPoint
 10
645.234141
 20
101.63043
 30
0.0
  0
POINT
  5
4FEE
330
4FE8
100
AcDbEntity
  8
DEFPOINTS
 62
     3
100
AcDbPoint
 10
672.9340889999998
 20
101.635385
 30
0.0
  0
POINT
  5
4FEF
330
4FE8
100
AcDbEntity
  8
DEFPOINTS
 62
     3
100
AcDbPoint
 10
672.926889
 20
141.8815969999999
 30
0.0
  0
ENDBLK
  5
4FF1
330
4FE8
100
AcDbEntity
  8
0
100
AcDbBlockEnd
  0
BLOCK
  5
4FFC
330
4FF2
100
AcDbEntity
  8
0
100
AcDbBlockBegin
  2
*D59
 70
     1
 10
0.0
 20
0.0
 30
0.0
  3
*D59
  1

  0
LINE
  5
4FF3
330
4FF2
100
AcDbEntity
  8
1
  6
CONTINUOUS
 62
     3
100
AcDbLine
 10
658.68414
 20
95.57300600000001
 30
0.0
 11
658.68414
 21
89.15947
 31
0.0
  0
LINE
  5
4FF4
330
4FF2
100
AcDbEntity
  8
1
  6
CONTINUOUS
 62
     3
100
AcDbLine
 10
662.43414
 20
90.15947
 30
0.0
 11
658.68414
 21
90.15947
 31
0.0
  0
LINE
  5
4FF5
330
4FF2
100
AcDbEntity
  8
1
  6
CONTINUOUS
 62
     3
100
AcDbLine
 10
658.68414
 20
90.15947
 30
0.0
 11
658.18414
 21
90.15947
 31
0.0
  0
LINE
  5
4FF6
330
4FF2
100
AcDbEntity
  8
1
  6
CONTINUOUS
 62
     3
100
AcDbLine
 10
658.18414
 20
90.15947
 30
0.0
 11
644.352397
 21
90.15947
 31
0.0
  0
TEXT
  5
4FF7
330
4FF2
100
AcDbEntity
  8
1
  6
CONTINUOUS
 62
     4
100
AcDbText
 10
648.4173779999999
 20
91.15947
 30
0.0
 40
3.0
  1
0.5
 50
360.0
 41
0.9399999999999998
 72
     1
 11
651.002378
 21
92.65947
 31
0.0
100
AcDbText
 73
     2
  0
LINE
  5
4FF8
330
4FF2
100
AcDbEntity
  8
1
  6
CONTINUOUS
 62
     3
100
AcDbLine
 10
658.18414
 20
95.60557199999999
 30
0.0
 11
658.18414
 21
89.15947
 31
0.0
  0
POINT
  5
4FF9
330
4FF2
100
AcDbEntity
  8
DEFPOINTS
 62
     3
100
AcDbPoint
 10
658.68414
 20
96.83043000000001
 30
0.0
  0
POINT
  5
4FFA
330
4FF2
100
AcDbEntity
  8
DEFPOINTS
 62
     3
100
AcDbPoint
 10
658.18414
 20
96.83043000000001
 30
0.0
  0
POINT
  5
4FFB
330
4FF2
100
AcDbEntity
  8
DEFPOINTS
 62
     3
100
AcDbPoint
 10
658.18414
 20
90.15947
 30
0.0
  0
ENDBLK
  5
4FFD
330
4FF2
100
AcDbEntity
  8
0
100
AcDbBlockEnd
  0
BLOCK
  5
5006
330
4FFE
100
AcDbEntity
  8
0
100
AcDbBlockBegin
  2
*D60
 70
     1
 10
0.0
 20
0.0
 30
0.0
  3
*D60
  1

  0
LINE
  5
4FFF
330
4FFE
100
AcDbEntity
  8
1
  6
CONTINUOUS
 62
     3
100
AcDbLine
 10
672.788811
 20
138.23043
 30
0.0
 11
681.1520999999998
 21
138.23043
 31
0.0
  0
LINE
  5
5000
330
4FFE
100
AcDbEntity
  8
1
  6
CONTINUOUS
 62
     3
100
AcDbLine
 10
680.1521
 20
138.23043
 30
0.0
 11
680.1521
 21
101.13043
 31
0.0
  0
TEXT
  5
5001
330
4FFE
100
AcDbEntity
  8
1
  6
CONTINUOUS
 62
     4
100
AcDbText
 10
679.1520969999997
 20
116.5651119999999
 30
0.0
 40
3.0
  1
37.1
 50
90.0
 41
0.9399999999999998
 72
     1
 11
677.6520969999998
 21
120.325112
 31
0.0
100
AcDbText
 73
     2
  0
LINE
  5
5002
330
4FFE
100
AcDbEntity
  8
1
  6
CONTINUOUS
 62
     3
100
AcDbLine
 10
675.1829129999999
 20
101.13043
 30
0.0
 11
681.1520999999998
 21
101.13043
 31
0.0
  0
POINT
  5
5003
330
4FFE
100
AcDbEntity
  8
DEFPOINTS
 62
     3
100
AcDbPoint
 10
670.68414
 20
138.23043
 30
0.0
  0
POINT
  5
5004
330
4FFE
100
AcDbEntity
  8
DEFPOINTS
 62
     3
100
AcDbPoint
 10
672.23414
 20
101.13043
 30
0.0
  0
POINT
  5
5005
330
4FFE
100
AcDbEntity
  8
DEFPOINTS
 62
     3
100
AcDbPoint
 10
680.1521
 20
101.13043
 30
0.0
  0
ENDBLK
  5
5007
330
4FFE
100
AcDbEntity
  8
0
100
AcDbBlockEnd
  0
BLOCK
  5
5013
330
5008
100
AcDbEntity
  8
0
100
AcDbBlockBegin
  2
*D61
 70
     1
 10
0.0
 20
0.0
 30
0.0
  3
*D61
  1

  0
LINE
  5
5009
330
5008
100
AcDbEntity
  8
1
  6
CONTINUOUS
 62
     3
100
AcDbLine
 10
674.0233299999998
 20
101.13043
 30
0.0
 11
681.1520999999998
 21
101.13043
 31
0.0
  0
LINE
  5
500A
330
5008
100
AcDbEntity
  8
1
  6
CONTINUOUS
 62
     3
100
AcDbLine
 10
680.1521
 20
104.88043
 30
0.0
 11
680.1521
 21
101.13043
 31
0.0
  0
LINE
  5
500B
330
5008
100
AcDbEntity
  8
1
  6
CONTINUOUS
 62
     3
100
AcDbLine
 10
680.1521
 20
101.13043
 30
0.0
 11
680.1521
 21
96.83043000000001
 31
0.0
  0
LINE
  5
500C
330
5008
100
AcDbEntity
  8
1
  6
CONTINUOUS
 62
     3
100
AcDbLine
 10
680.1521
 20
96.83043000000001
 30
0.0
 11
680.1521
 21
83.60759200000002
 31
0.0
  0
TEXT
  5
500D
330
5008
100
AcDbEntity
  8
1
  6
CONTINUOUS
 62
     4
100
AcDbText
 10
679.1521
 20
87.437576
 30
0.0
 40
3.0
  1
4.3
 50
90.0
 41
0.9399999999999998
 72
     1
 11
677.6521
 21
90.257576
 31
0.0
100
AcDbText
 73
     2
  0
LINE
  5
500E
330
5008
100
AcDbEntity
  8
1
  6
CONTINUOUS
 62
     3
100
AcDbLine
 10
671.1976519999998
 20
96.83043000000001
 30
0.0
 11
675.4620980000002
 21
96.83043000000001
 31
0.0
  0
LINE
  5
500F
330
5008
100
AcDbEntity
  8
1
  6
CONTINUOUS
 62
     3
100
AcDbLine
 10
679.1521
 20
96.83043000000001
 30
0.0
 11
681.1520999999998
 21
96.83043000000001
 31
0.0
  0
POINT
  5
5010
330
5008
100
AcDbEntity
  8
DEFPOINTS
 62
     3
100
AcDbPoint
 10
672.23414
 20
101.13043
 30
0.0
  0
POINT
  5
5011
330
5008
100
AcDbEntity
  8
DEFPOINTS
 62
     3
100
AcDbPoint
 10
669.33414
 20
96.83043000000001
 30
0.0
  0
POINT
  5
5012
330
5008
100
AcDbEntity
  8
DEFPOINTS
 62
     3
100
AcDbPoint
 10
680.1521
 20
96.83043000000001
 30
0.0
  0
ENDBLK
  5
5014
330
5008
100
AcDbEntity
  8
0
100
AcDbBlockEnd
  0
BLOCK
  5
501F
330
5015
100
AcDbEntity
  8
0
100
AcDbBlockBegin
  2
*D62
 70
     1
 10
0.0
 20
0.0
 30
0.0
  3
*D62
  1

  0
LINE
  5
5016
330
5015
100
AcDbEntity
  8
1
  6
CONTINUOUS
 62
     3
100
AcDbLine
 10
601.5705309999998
 20
95.449332
 30
0.0
 11
601.5705309999998
 21
89.15947
 31
0.0
  0
LINE
  5
5017
330
5015
100
AcDbEntity
  8
1
  6
CONTINUOUS
 62
     3
100
AcDbLine
 10
597.8205309999998
 20
90.15947
 30
0.0
 11
601.5705309999998
 21
90.15947
 31
0.0
  0
LINE
  5
5018
330
5015
100
AcDbEntity
  8
1
  6
CONTINUOUS
 62
     3
100
AcDbLine
 10
601.5705309999998
 20
90.15947
 30
0.0
 11
603.5705309999998
 21
90.15947
 31
0.0
  0
LINE
  5
5019
330
5015
100
AcDbEntity
  8
1
  6
CONTINUOUS
 62
     3
100
AcDbLine
 10
603.5705309999998
 20
90.15947
 30
0.0
 11
613.692474
 21
90.15947
 31
0.0
  0
TEXT
  5
501A
330
5015
100
AcDbEntity
  8
1
  6
CONTINUOUS
 62
     4
100
AcDbText
 10
608.837409
 20
91.15946599999999
 30
0.0
 40
3.0
  1
2
 41
0.9399999999999998
 72
     1
 11
609.777409
 21
92.65946599999999
 31
0.0
100
AcDbText
 73
     2
  0
LINE
  5
501B
330
5015
100
AcDbEntity
  8
1
  6
CONTINUOUS
 62
     3
100
AcDbLine
 10
603.5705309999998
 20
95.449332
 30
0.0
 11
603.5705309999998
 21
89.15947
 31
0.0
  0
POINT
  5
501C
330
5015
100
AcDbEntity
  8
DEFPOINTS
 62
     3
100
AcDbPoint
 10
601.5705309999998
 20
99.63043
 30
0.0
  0
POINT
  5
501D
330
5015
100
AcDbEntity
  8
DEFPOINTS
 62
     3
100
AcDbPoint
 10
603.5705309999998
 20
99.63043
 30
0.0
  0
POINT
  5
501E
330
5015
100
AcDbEntity
  8
DEFPOINTS
 62
     3
100
AcDbPoint
 10
603.5705309999998
 20
90.15947
 30
0.0
  0
ENDBLK
  5
5020
330
5015
100
AcDbEntity
  8
0
100
AcDbBlockEnd
  0
BLOCK
  5
5320
330
5316
100
AcDbEntity
  8
0
100
AcDbBlockBegin
  2
*D63
 70
     1
 10
0.0
 20
0.0
 30
0.0
  3
*D63
  1

  0
LINE
  5
5441
330
5316
100
AcDbEntity
  8
DIM
  6
CONTINUOUS
 62
     0
100
AcDbLine
 10
158.4525908827302
 20
170.1455140413144
 30
0.0
 11
163.9708798827301
 21
170.1455140413144
 31
0.0
  0
LINE
  5
5442
330
5316
100
AcDbEntity
  8
DIM
  6
CONTINUOUS
 62
     0
100
AcDbLine
 10
160.0025908827301
 20
133.0455140413144
 30
0.0
 11
163.9708798827301
 21
133.0455140413144
 31
0.0
  0
LINE
  5
5443
330
5316
100
AcDbEntity
  8
DIM
  6
CONTINUOUS
 62
     0
100
AcDbLine
 10
162.9708798827301
 20
167.6455140413144
 30
0.0
 11
162.9708798827301
 21
135.5455140413144
 31
0.0
  0
SOLID
  5
5444
330
5316
100
AcDbEntity
  8
DIM
  6
CONTINUOUS
 62
     0
100
AcDbTrace
 10
162.5542132160634
 20
167.6455140413144
 30
0.0
 11
163.3875465493968
 21
167.6455140413144
 31
0.0
 12
162.9708798827301
 22
170.1455140413144
 32
0.0
 13
162.9708798827301
 23
170.1455140413144
 33
0.0
  0
SOLID
  5
5445
330
5316
100
AcDbEntity
  8
DIM
  6
CONTINUOUS
 62
     0
100
AcDbTrace
 10
162.5542132160634
 20
135.5455140413144
 30
0.0
 11
163.3875465493968
 21
135.5455140413144
 31
0.0
 12
162.9708798827301
 22
133.0455140413144
 32
0.0
 13
162.9708798827301
 23
133.0455140413144
 33
0.0
  0
MTEXT
  5
5446
330
5316
100
AcDbEntity
  8
DIM
  6
CONTINUOUS
 62
     4
100
AcDbMText
 10
160.8250408649948
 20
152.2401950413144
 30
0.0
 40
3.0
 41
0.0
 71
     5
 72
     1
  1
\A1;37.1
  7
TSTYLE7
 11
0.0000000000000001
 21
1.0
 31
0.0
1001
ACAD
1000
MTEXTBEGIN
1070
    73
1070
     1
1070
    44
1040
1.0
1070
    74
1070
     0
1000
MTEXTEND
1000
MTEXTBEGIN
1070
    73
1070
     1
1070
    44
1040
1.0
1070
    74
1070
     0
1000
MTEXTEND
  0
POINT
  5
5447
330
5316
100
AcDbEntity
  8
DEFPOINTS
  6
CONTINUOUS
 62
     0
100
AcDbPoint
 10
156.3479208827301
 20
170.1455140413144
 30
0.0
  0
POINT
  5
5448
330
5316
100
AcDbEntity
  8
DEFPOINTS
  6
CONTINUOUS
 62
     0
100
AcDbPoint
 10
157.8979208827301
 20
133.0455140413144
 30
0.0
  0
POINT
  5
5449
330
5316
100
AcDbEntity
  8
DEFPOINTS
  6
CONTINUOUS
 62
     0
100
AcDbPoint
 10
162.9708798827301
 20
133.0455140413144
 30
0.0
  0
ENDBLK
  5
5321
330
5316
100
AcDbEntity
  8
0
100
AcDbBlockEnd
  0
BLOCK
  5
532C
330
5322
100
AcDbEntity
  8
0
100
AcDbBlockBegin
  2
*D64
 70
     1
 10
0.0
 20
0.0
 30
0.0
  3
*D64
  1

  0
LINE
  5
5438
330
5322
100
AcDbEntity
  8
DIM
  6
CONTINUOUS
 62
     0
100
AcDbLine
 10
130.8913336094497
 20
170.3759534520553
 30
0.0
 11
130.8900347936331
 21
177.6367265254569
 31
0.0
  0
LINE
  5
5439
330
5322
100
AcDbEntity
  8
DIM
  6
CONTINUOUS
 62
     0
100
AcDbLine
 10
158.5912816094495
 20
170.3809084520553
 30
0.0
 11
158.5899827936331
 21
177.6416815254569
 31
0.0
  0
LINE
  5
543A
330
5322
100
AcDbEntity
  8
DIM
  6
CONTINUOUS
 62
     0
100
AcDbLine
 10
133.3902136348344
 20
176.6371737444545
 30
0.0
 11
156.0901617148306
 21
176.6412343384577
 31
0.0
  0
SOLID
  5
543B
330
5322
100
AcDbEntity
  8
DIM
  6
CONTINUOUS
 62
     0
100
AcDbTrace
 10
133.3901391010014
 20
177.0538404044549
 30
0.0
 11
133.3902881686674
 21
176.2205070844543
 31
0.0
 12
130.8902136748324
 22
176.6367265414562
 32
0.0
 13
130.8902136748324
 23
176.6367265414562
 33
0.0
  0
SOLID
  5
543C
330
5322
100
AcDbEntity
  8
DIM
  6
CONTINUOUS
 62
     0
100
AcDbTrace
 10
156.0900871809975
 20
177.0579009984581
 30
0.0
 11
156.0902362486635
 21
176.2245676784574
 31
0.0
 12
158.5901616748325
 22
176.6416815414562
 32
0.0
 13
158.5901616748325
 23
176.6416815414562
 33
0.0
  0
MTEXT
  5
543D
330
5322
100
AcDbEntity
  8
DIM
  6
CONTINUOUS
 62
     4
100
AcDbMText
 10
144.7398096947604
 20
178.7477988234039
 30
0.0
 40
3.0
 41
0.0
 71
     5
 72
     1
  1
\A1;27.7
  7
TSTYLE7
 11
0.9999999840007582
 21
0.0001788811993696
 31
0.0
1001
ACAD
1000
MTEXTBEGIN
1070
    73
1070
     1
1070
    44
1040
1.0
1070
    74
1070
     0
1000
MTEXTEND
1000
MTEXTBEGIN
1070
    73
1070
     1
1070
    44
1040
1.0
1070
    74
1070
     0
1000
MTEXTEND
  0
POINT
  5
543E
330
5322
100
AcDbEntity
  8
DEFPOINTS
  6
CONTINUOUS
 62
     0
100
AcDbPoint
 10
130.8979218827301
 20
133.5455140413144
 30
0.0
  0
POINT
  5
543F
330
5322
100
AcDbEntity
  8
DEFPOINTS
  6
CONTINUOUS
 62
     0
100
AcDbPoint
 10
158.59786988273
 20
133.5504690413144
 30
0.0
  0
POINT
  5
5440
330
5322
100
AcDbEntity
  8
DEFPOINTS
  6
CONTINUOUS
 62
     0
100
AcDbPoint
 10
158.5901616748325
 20
176.6416815414562
 30
0.0
  0
ENDBLK
  5
532D
330
5322
100
AcDbEntity
  8
0
100
AcDbBlockEnd
  0
BLOCK
  5
5338
330
532E
100
AcDbEntity
  8
0
100
AcDbBlockBegin
  2
*D65
 70
     1
 10
0.0
 20
0.0
 30
0.0
  3
*D65
  1

  0
LINE
  5
542F
330
532E
100
AcDbEntity
  8
DIM
  6
CONTINUOUS
 62
     0
100
AcDbLine
 10
82.83431188273016
 20
170.6236660413144
 30
0.0
 11
82.83431188273016
 21
177.6384100413143
 31
0.0
  0
LINE
  5
5430
330
532E
100
AcDbEntity
  8
DIM
  6
CONTINUOUS
 62
     0
100
AcDbLine
 10
123.6343118827301
 20
170.6236660413144
 30
0.0
 11
123.6343118827301
 21
177.6384100413143
 31
0.0
  0
LINE
  5
5431
330
532E
100
AcDbEntity
  8
DIM
  6
CONTINUOUS
 62
     0
100
AcDbLine
 10
85.33431188273016
 20
176.6384100413143
 30
0.0
 11
121.13431188273
 21
176.6384100413143
 31
0.0
  0
SOLID
  5
5432
330
532E
100
AcDbEntity
  8
DIM
  6
CONTINUOUS
 62
     0
100
AcDbTrace
 10
85.33431188273016
 20
177.0550767079811
 30
0.0
 11
85.33431188273016
 21
176.2217433746478
 31
0.0
 12
82.83431188273016
 22
176.6384100413143
 32
0.0
 13
82.83431188273016
 23
176.6384100413143
 33
0.0
  0
SOLID
  5
5433
330
532E
100
AcDbEntity
  8
DIM
  6
CONTINUOUS
 62
     0
100
AcDbTrace
 10
121.13431188273
 20
177.0550767079811
 30
0.0
 11
121.13431188273
 21
176.2217433746478
 31
0.0
 12
123.6343118827301
 22
176.6384100413143
 32
0.0
 13
123.6343118827301
 23
176.6384100413143
 33
0.0
  0
MTEXT
  5
5434
330
532E
100
AcDbEntity
  8
DIM
  6
CONTINUOUS
 62
     4
100
AcDbMText
 10
102.6974108827301
 20
178.7828165897455
 30
0.0
 40
3.0
 41
0.0
 71
     5
 72
     1
  1
\A1;40.8
  7
TSTYLE7
1001
ACAD
1000
MTEXTBEGIN
1070
    73
1070
     1
1070
    44
1040
1.0
1070
    74
1070
     0
1000
MTEXTEND
1000
MTEXTBEGIN
1070
    73
1070
     1
1070
    44
1040
1.0
1070
    74
1070
     0
1000
MTEXTEND
  0
POINT
  5
5435
330
532E
100
AcDbEntity
  8
DEFPOINTS
  6
CONTINUOUS
 62
     0
100
AcDbPoint
 10
82.83431188273016
 20
133.0455140413144
 30
0.0
  0
POINT
  5
5436
330
532E
100
AcDbEntity
  8
DEFPOINTS
  6
CONTINUOUS
 62
     0
100
AcDbPoint
 10
123.6343118827301
 20
133.0455140413144
 30
0.0
  0
POINT
  5
5437
330
532E
100
AcDbEntity
  8
DEFPOINTS
  6
CONTINUOUS
 62
     0
100
AcDbPoint
 10
123.6343118827301
 20
176.6384100413143
 30
0.0
  0
ENDBLK
  5
5339
330
532E
100
AcDbEntity
  8
0
100
AcDbBlockEnd
  0
BLOCK
  5
5345
330
533A
100
AcDbEntity
  8
0
100
AcDbBlockBegin
  2
*D66
 70
     1
 10
0.0
 20
0.0
 30
0.0
  3
*D66
  1

  0
LINE
  5
5454
330
533A
100
AcDbEntity
  8
DIM
  6
CONTINUOUS
 62
     0
100
AcDbLine
 10
87.23431188273014
 20
127.3644160413144
 30
0.0
 11
87.23431188273014
 21
123.9195510413144
 31
0.0
  0
LINE
  5
5455
330
533A
100
AcDbEntity
  8
DIM
  6
CONTINUOUS
 62
     0
100
AcDbLine
 10
89.23431188273012
 20
127.3644160413144
 30
0.0
 11
89.23431188273012
 21
123.9195510413144
 31
0.0
  0
LINE
  5
5456
330
533A
100
AcDbEntity
  8
DIM
  6
CONTINUOUS
 62
     0
100
AcDbLine
 10
84.73431188273014
 20
124.9195510413144
 30
0.0
 11
82.23431188273014
 21
124.9195510413144
 31
0.0
  0
LINE
  5
5457
330
533A
100
AcDbEntity
  8
DIM
  6
CONTINUOUS
 62
     0
100
AcDbLine
 10
91.73431188273012
 20
124.9195510413144
 30
0.0
 11
96.38502967536311
 21
124.9195510413144
 31
0.0
  0
SOLID
  5
5458
330
533A
100
AcDbEntity
  8
DIM
  6
CONTINUOUS
 62
     0
100
AcDbTrace
 10
84.73431188273014
 20
125.336217707981
 30
0.0
 11
84.73431188273014
 21
124.5028843746478
 31
0.0
 12
87.23431188273014
 22
124.9195510413144
 32
0.0
 13
87.23431188273014
 23
124.9195510413144
 33
0.0
  0
SOLID
  5
5459
330
533A
100
AcDbEntity
  8
DIM
  6
CONTINUOUS
 62
     0
100
AcDbTrace
 10
91.73431188273012
 20
125.336217707981
 30
0.0
 11
91.73431188273012
 21
124.5028843746478
 31
0.0
 12
89.23431188273012
 22
124.9195510413144
 32
0.0
 13
89.23431188273012
 23
124.9195510413144
 33
0.0
  0
MTEXT
  5
545A
330
533A
100
AcDbEntity
  8
DIM
  6
CONTINUOUS
 62
     4
100
AcDbMText
 10
95.44118588273013
 20
127.0281458571397
 30
0.0
 40
3.0
 41
0.0
 71
     5
 72
     1
  1
\A1;2
  7
TSTYLE7
1001
ACAD
1000
MTEXTBEGIN
1070
    73
1070
     1
1070
    44
1040
1.0
1070
    74
1070
     0
1000
MTEXTEND
1000
MTEXTBEGIN
1070
    73
1070
     1
1070
    44
1040
1.0
1070
    74
1070
     0
1000
MTEXTEND
  0
POINT
  5
545B
330
533A
100
AcDbEntity
  8
DEFPOINTS
  6
CONTINUOUS
 62
     0
100
AcDbPoint
 10
87.23431188273014
 20
131.5455140413144
 30
0.0
  0
POINT
  5
545C
330
533A
100
AcDbEntity
  8
DEFPOINTS
  6
CONTINUOUS
 62
     0
100
AcDbPoint
 10
89.23431188273012
 20
131.5455140413144
 30
0.0
  0
POINT
  5
545D
330
533A
100
AcDbEntity
  8
DEFPOINTS
  6
CONTINUOUS
 62
     0
100
AcDbPoint
 10
89.23431188273012
 20
124.9195510413144
 30
0.0
  0
ENDBLK
  5
5346
330
533A
100
AcDbEntity
  8
0
100
AcDbBlockEnd
  0
BLOCK
  5
5352
330
5347
100
AcDbEntity
  8
0
100
AcDbBlockBegin
  2
*D67
 70
     1
 10
0.0
 20
0.0
 30
0.0
  3
*D67
  1

  0
LINE
  5
545E
330
5347
100
AcDbEntity
  8
DIM
  6
CONTINUOUS
 62
     0
100
AcDbLine
 10
144.3479208827301
 20
127.5206560413144
 30
0.0
 11
144.3479208827301
 21
123.9195550413144
 31
0.0
  0
LINE
  5
545F
330
5347
100
AcDbEntity
  8
DIM
  6
CONTINUOUS
 62
     0
100
AcDbLine
 10
143.8479208827301
 20
127.5206560413144
 30
0.0
 11
143.8479208827301
 21
123.9195550413144
 31
0.0
  0
LINE
  5
5460
330
5347
100
AcDbEntity
  8
DIM
  6
CONTINUOUS
 62
     0
100
AcDbLine
 10
146.8479208827301
 20
124.9195550413144
 30
0.0
 11
149.3479208827301
 21
124.9195550413144
 31
0.0
  0
LINE
  5
5461
330
5347
100
AcDbEntity
  8
DIM
  6
CONTINUOUS
 62
     0
100
AcDbLine
 10
141.3479208827301
 20
124.9195550413144
 30
0.0
 11
133.6378253847765
 21
124.9195550413144
 31
0.0
  0
SOLID
  5
5462
330
5347
100
AcDbEntity
  8
DIM
  6
CONTINUOUS
 62
     0
100
AcDbTrace
 10
146.8479208827301
 20
125.336221707981
 30
0.0
 11
146.8479208827301
 21
124.5028883746476
 31
0.0
 12
144.3479208827301
 22
124.9195550413144
 32
0.0
 13
144.3479208827301
 23
124.9195550413144
 33
0.0
  0
SOLID
  5
5463
330
5347
100
AcDbEntity
  8
DIM
  6
CONTINUOUS
 62
     0
100
AcDbTrace
 10
141.3479208827301
 20
125.336221707981
 30
0.0
 11
141.3479208827301
 21
124.5028883746476
 31
0.0
 12
143.8479208827301
 22
124.9195550413144
 32
0.0
 13
143.8479208827301
 23
124.9195550413144
 33
0.0
  0
MTEXT
  5
5464
330
5347
100
AcDbEntity
  8
DIM
  6
CONTINUOUS
 62
     4
100
AcDbMText
 10
136.2428731337534
 20
127.0639615897455
 30
0.0
 40
3.0
 41
0.0
 71
     5
 72
     1
  1
\A1;0.5
  7
TSTYLE7
1001
ACAD
1000
MTEXTBEGIN
1070
    73
1070
     1
1070
    44
1040
1.0
1070
    74
1070
     0
1000
MTEXTEND
1000
MTEXTBEGIN
1070
    73
1070
     1
1070
    44
1040
1.0
1070
    74
1070
     0
1000
MTEXTEND
  0
POINT
  5
5465
330
5347
100
AcDbEntity
  8
DEFPOINTS
  6
CONTINUOUS
 62
     0
100
AcDbPoint
 10
144.3479208827301
 20
128.7455140413144
 30
0.0
  0
POINT
  5
5466
330
5347
100
AcDbEntity
  8
DEFPOINTS
  6
CONTINUOUS
 62
     0
100
AcDbPoint
 10
143.8479208827301
 20
128.7455140413144
 30
0.0
  0
POINT
  5
5467
330
5347
100
AcDbEntity
  8
DEFPOINTS
  6
CONTINUOUS
 62
     0
100
AcDbPoint
 10
143.8479208827301
 20
124.9195550413144
 30
0.0
  0
ENDBLK
  5
5353
330
5347
100
AcDbEntity
  8
0
100
AcDbBlockEnd
  0
BLOCK
  5
535F
330
5354
100
AcDbEntity
  8
0
100
AcDbBlockBegin
  2
*D68
 70
     1
 10
0.0
 20
0.0
 30
0.0
  3
*D68
  1

  0
LINE
  5
544A
330
5354
100
AcDbEntity
  8
DIM
  6
CONTINUOUS
 62
     0
100
AcDbLine
 10
159.6871108827301
 20
133.0455140413144
 30
0.0
 11
163.9708798827301
 21
133.0455140413144
 31
0.0
  0
LINE
  5
544B
330
5354
100
AcDbEntity
  8
DIM
  6
CONTINUOUS
 62
     0
100
AcDbLine
 10
156.7871108827301
 20
128.7455140413144
 30
0.0
 11
163.9708798827301
 21
128.7455140413144
 31
0.0
  0
LINE
  5
544C
330
5354
100
AcDbEntity
  8
DIM
  6
CONTINUOUS
 62
     0
100
AcDbLine
 10
162.9708798827301
 20
135.5455140413144
 30
0.0
 11
162.9708798827301
 21
138.0455140413144
 31
0.0
  0
LINE
  5
544D
330
5354
100
AcDbEntity
  8
DIM
  6
CONTINUOUS
 62
     0
100
AcDbLine
 10
162.9708798827301
 20
126.2455140413144
 30
0.0
 11
162.9708798827301
 21
118.4421034001139
 31
0.0
  0
SOLID
  5
544E
330
5354
100
AcDbEntity
  8
DIM
  6
CONTINUOUS
 62
     0
100
AcDbTrace
 10
162.5542132160634
 20
135.5455140413144
 30
0.0
 11
163.3875465493968
 21
135.5455140413144
 31
0.0
 12
162.9708798827301
 22
133.0455140413144
 32
0.0
 13
162.9708798827301
 23
133.0455140413144
 33
0.0
  0
SOLID
  5
544F
330
5354
100
AcDbEntity
  8
DIM
  6
CONTINUOUS
 62
     0
100
AcDbTrace
 10
162.5542132160634
 20
126.2455140413144
 30
0.0
 11
163.3875465493968
 21
126.2455140413144
 31
0.0
 12
162.9708798827301
 22
128.7455140413144
 32
0.0
 13
162.9708798827301
 23
128.7455140413144
 33
0.0
  0
MTEXT
  5
5450
330
5354
100
AcDbEntity
  8
DIM
  6
CONTINUOUS
 62
     4
100
AcDbMText
 10
160.8250408649948
 20
121.0938087207142
 30
0.0
 40
3.0
 41
0.0
 71
     5
 72
     1
  1
\A1;4.3
  7
TSTYLE7
 11
0.0000000000000001
 21
1.0
 31
0.0
1001
ACAD
1000
MTEXTBEGIN
1070
    73
1070
     1
1070
    44
1040
1.0
1070
    74
1070
     0
1000
MTEXTEND
1000
MTEXTBEGIN
1070
    73
1070
     1
1070
    44
1040
1.0
1070
    74
1070
     0
1000
MTEXTEND
  0
POINT
  5
5451
330
5354
100
AcDbEntity
  8
DEFPOINTS
  6
CONTINUOUS
 62
     0
100
AcDbPoint
 10
157.8979208827301
 20
133.0455140413144
 30
0.0
  0
POINT
  5
5452
330
5354
100
AcDbEntity
  8
DEFPOINTS
  6
CONTINUOUS
 62
     0
100
AcDbPoint
 10
154.9979208827301
 20
128.7455140413144
 30
0.0
  0
POINT
  5
5453
330
5354
100
AcDbEntity
  8
DEFPOINTS
  6
CONTINUOUS
 62
     0
100
AcDbPoint
 10
162.9708798827301
 20
128.7455140413144
 30
0.0
  0
ENDBLK
  5
5360
330
5354
100
AcDbEntity
  8
0
100
AcDbBlockEnd
  0
ENDSEC
  0
SECTION
  2
ENTITIES
  0
DIMENSION
  5
51A7
330
A
100
AcDbEntity
  8
DIM
  6
CONTINUOUS
100
AcDbDimension
  2
*D63
 10
162.9708798827301
 20
133.0455140413144
 30
0.0
 11
162.9708798827301
 21
152.2401950413144
 31
0.0
 70
   160
  1
<>
  3
DSTYLE4
100
AcDbAlignedDimension
 13
156.3479208827301
 23
170.1455140413144
 33
0.0
 14
157.8979208827301
 24
133.0455140413144
 34
0.0
 50
90.0
100
AcDbRotatedDimension
  0
DIMENSION
  5
51A8
330
A
100
AcDbEntity
  8
DIM
  6
CONTINUOUS
100
AcDbDimension
  2
*D64
 10
158.5901616748325
 20
176.6416815414562
 30
0.0
 11
144.7401868827301
 21
176.6392040413145
 31
0.0
 70
   161
  1
<>
  3
DSTYLE2
100
AcDbAlignedDimension
 13
130.8979218827301
 23
133.5455140413144
 33
0.0
 14
158.59786988273
 24
133.5504690413144
 34
0.0
  0
DIMENSION
  5
51A9
330
A
100
AcDbEntity
  8
DIM
  6
CONTINUOUS
100
AcDbDimension
  2
*D65
 10
123.6343118827301
 20
176.6384100413143
 30
0.0
 11
102.6974108827301
 21
176.6384100413143
 31
0.0
 70
   161
  1
<>
  3
DSTYLE1
100
AcDbAlignedDimension
 13
82.83431188273016
 23
133.0455140413144
 33
0.0
 14
123.6343118827301
 24
133.0455140413144
 34
0.0
  0
LINE
  5
51AA
330
A
100
AcDbEntity
  8
DRAW
  6
CONTINUOUS
100
AcDbLine
 10
132.8979218827301
 20
168.8495870413144
 30
0.0
 11
132.8979218827301
 21
139.9474650413144
 31
0.0
  0
LINE
  5
51AB
330
A
100
AcDbEntity
  8
DRAW
  6
CONTINUOUS
100
AcDbLine
 10
131.2676378827301
 20
168.8495870413144
 30
0.0
 11
130.9649648827301
 21
139.9474650413144
 31
0.0
  0
LINE
  5
51AC
330
A
100
AcDbEntity
  8
DRAW
  6
CONTINUOUS
100
AcDbLine
 10
158.2324358827301
 20
168.4455140413144
 30
0.0
 11
158.53087788273
 21
139.9474650413144
 31
0.0
  0
LINE
  5
51AD
330
A
100
AcDbEntity
  8
DRAW
  6
CONTINUOUS
100
AcDbLine
 10
156.79792188273
 20
168.4455140413144
 30
0.0
 11
156.79792188273
 21
139.9474650413144
 31
0.0
  0
LINE
  5
51AE
330
A
100
AcDbEntity
  8
DRAW
  6
CONTINUOUS
100
AcDbLine
 10
121.7915768827301
 20
168.8495870413144
 30
0.0
 11
121.8218468827301
 21
139.9474650413144
 31
0.0
  0
LINE
  5
51AF
330
A
100
AcDbEntity
  8
DRAW
  6
CONTINUOUS
100
AcDbLine
 10
123.2218598827302
 20
168.8495870413144
 30
0.0
 11
123.5548028827301
 21
139.9474650413144
 31
0.0
  0
LINE
  5
51B0
330
A
100
AcDbEntity
  8
DRAW
  6
CONTINUOUS
100
AcDbLine
 10
84.67662288273016
 20
168.4455140413144
 30
0.0
 11
84.64677588273024
 21
139.9474650413144
 31
0.0
  0
LINE
  5
51B1
330
A
100
AcDbEntity
  8
DRAW
  6
CONTINUOUS
100
AcDbLine
 10
83.24210788273012
 20
168.4455140413144
 30
0.0
 11
82.91381988273021
 21
139.9474650413144
 31
0.0
  0
LINE
  5
51B2
330
A
100
AcDbEntity
  8
CARTOUCHE
  6
CONTINUOUS
100
AcDbLine
 10
27.92774288273017
 20
1.898677041314456
 30
0.0
 11
27.92774288273017
 21
288.8986770413144
 31
0.0
  0
LINE
  5
51B3
330
A
100
AcDbEntity
  8
CARTOUCHE
  6
CONTINUOUS
100
AcDbLine
 10
227.9277798827302
 20
288.8988600413144
 30
0.0
 11
227.9277798827302
 21
1.89886004131446
 31
0.0
  0
DIMENSION
  5
51B4
330
A
100
AcDbEntity
  8
DIM
  6
CONTINUOUS
100
AcDbDimension
  2
*D66
 10
89.23431188273012
 20
124.9195510413144
 30
0.0
 11
95.44118588273013
 21
124.9195510413144
 31
0.0
 70
   161
  1
<>
  3
DSTYLE6
100
AcDbAlignedDimension
 13
87.23431188273014
 23
131.5455140413144
 33
0.0
 14
89.23431188273012
 24
131.5455140413144
 34
0.0
  0
LINE
  5
51B5
330
A
100
AcDbEntity
  8
DRAW
  6
CONTINUOUS
100
AcDbLine
 10
89.23431188273012
 20
129.7455140413144
 30
0.0
 11
88.23431188273014
 21
128.7455140413144
 31
0.0
  0
LINE
  5
51B6
330
A
100
AcDbEntity
  8
DRAW
  6
CONTINUOUS
100
AcDbLine
 10
83.74001188273018
 20
133.5455140413144
 30
0.0
 11
93.88431188273012
 21
133.5455140413144
 31
0.0
  0
LINE
  5
51B7
330
A
100
AcDbEntity
  8
CARTOUCHE
  6
CONTINUOUS
100
AcDbLine
 10
227.9277798827302
 20
1.89886004131446
 30
0.0
 11
27.92774288273017
 21
1.898677041314456
 31
0.0
  0
LINE
  5
51B8
330
A
100
AcDbEntity
  8
CARTOUCHE
  6
CONTINUOUS
100
AcDbLine
 10
227.9277798827302
 20
33.74383304131446
 30
0.0
 11
27.92774288273017
 21
33.74413904131444
 31
0.0
  0
LINE
  5
51B9
330
A
100
AcDbEntity
  8
CARTOUCHE
  6
CONTINUOUS
100
AcDbLine
 10
227.9277508827301
 20
16.90148504131444
 30
0.0
 11
72.92771588273012
 21
16.90172204131445
 31
0.0
  0
LINE
  5
51BA
330
A
100
AcDbEntity
  8
CARTOUCHE
  6
CONTINUOUS
100
AcDbLine
 10
227.9277798827302
 20
6.899470041314454
 30
0.0
 11
27.92774288273017
 21
6.899745041314456
 31
0.0
  0
TEXT
  5
51BB
330
A
100
AcDbEntity
  8
CARTOUCHE
  6
CONTINUOUS
100
AcDbText
 10
39.41604588273026
 20
11.20745804131445
 30
0.0
 40
1.8
  1
www.findernet.com
 50
359.9999079999998
 41
0.6
  7
TSTYLE2
100
AcDbText
  0
LINE
  5
51BC
330
A
100
AcDbEntity
  8
CARTOUCHE
  6
CONTINUOUS
100
AcDbLine
 10
72.92774388273016
 20
33.74407004131446
 30
0.0
 11
72.92774388273016
 21
1.898718041314458
 31
0.0
  0
TEXT
  5
51BD
330
A
100
AcDbEntity
  8
CARTOUCHE
  6
CONTINUOUS
100
AcDbText
 10
42.71903388273017
 20
3.499652041314458
 30
0.0
 40
1.8
  1
MOD. UT 902
 50
359.9999079999998
 41
0.6
  7
TSTYLE2
100
AcDbText
  0
HATCH
  5
51BE
330
A
100
AcDbEntity
  8
CARTOUCHE
  6
CONTINUOUS
100
AcDbHatch
 10
0.0
 20
0.0
 30
0.0
210
0.0
220
0.0
230
1.0
  2
ANSI31
 70
     0
 71
     0
 91
        1
 92
        1
 93
       50
 72
     1
 10
33.39256567472239
 20
24.2981831475843
 11
33.39256567472239
 21
21.32742114758428
 72
     1
 10
33.39256567472239
 20
21.32742114758428
 11
31.10251867472243
 21
21.32742114758428
 72
     1
 10
34.34161567472232
 20
24.55129814758429
 11
34.34161567472232
 21
20.66519114758428
 72
     1
 10
34.04416567472218
 20
20.30952114758429
 11
33.81556567472228
 21
20.30952114758429
 72
     1
 10
33.81556567472239
 20
20.30952114758429
 11
35.29066567472239
 21
18.70887114758428
 72
     1
 10
35.29066567472239
 20
18.70887114758428
 11
35.29066567472239
 21
24.55416214758429
 72
     1
 10
37.28139867472236
 20
22.40202114758429
 11
36.25096567472235
 21
22.40202114758429
 72
     1
 10
36.25096567472235
 20
22.40202114758429
 11
36.25096567472235
 21
24.30281114758429
 72
     1
 10
31.10405567472219
 20
20.30952114758429
 11
32.30626567472234
 21
20.30952114758429
 72
     1
 10
32.30626567472234
 20
20.30952114758429
 11
35.10144167472219
 21
17.56700514758429
 72
     1
 10
35.10144167472219
 20
17.56700514758429
 11
35.15635967472235
 21
17.5315301475843
 72
     1
 10
35.15635967472235
 20
17.53153014758428
 11
35.21375567472239
 21
17.50004014758428
 72
     1
 10
35.21375567472239
 20
17.50004014758428
 11
35.29374067472236
 21
17.46457814758428
 72
     1
 10
35.29374067472236
 20
17.46457814758428
 11
35.33474967472239
 21
17.44990614758428
 72
     1
 10
35.33474967472239
 20
17.44990614758428
 11
35.37647867472242
 21
17.43747414758429
 72
     1
 10
35.37647867472242
 20
17.43747414758429
 11
35.41879567472244
 21
17.42758414758428
 72
     1
 10
35.41879567472232
 20
17.42758414758428
 11
35.46157167472232
 21
17.42053714758428
 72
     1
 10
35.46157167472232
 20
17.42053714758428
 11
35.50467667472218
 21
17.41663714758429
 72
     1
 10
35.50467667472218
 20
17.41663714758429
 11
35.54793367472234
 21
17.41609314758428
 72
     1
 10
35.54793367472234
 20
17.41609314758428
 11
35.59119867472236
 21
17.41874714758428
 72
     1
 10
35.59119867472236
 20
17.41874714758428
 11
35.63428167472238
 21
17.42435514758428
 72
     1
 10
35.63428167472238
 20
17.42435514758428
 11
35.67699167472233
 21
17.43267114758428
 72
     1
 10
35.67699167472233
 20
17.43267114758428
 11
35.71914067472231
 21
17.44345214758428
 72
     1
 10
35.71914067472231
 20
17.44345214758428
 11
35.76114267472235
 21
17.45668714758428
 72
     1
 10
35.76114267472235
 20
17.45668714758428
 11
35.80229767472235
 21
17.47215614758428
 72
     1
 10
35.80229767472235
 20
17.47215614758428
 11
35.84252967472218
 21
17.48980614758429
 72
     1
 10
35.84252967472218
 20
17.48980614758429
 11
35.91992967472218
 21
17.53145214758428
 72
     1
 10
35.91992967472242
 20
17.53145214758428
 11
35.95661367472246
 21
17.55514414758428
 72
     1
 10
35.95661367472235
 20
17.55514414758428
 11
35.99193667472218
 21
17.58084114758428
 72
     1
 10
35.9919366747224
 20
17.58084114758428
 11
36.0256626747224
 21
17.60855114758428
 72
     1
 10
36.02566267472218
 20
17.60855114758428
 11
36.05755767472237
 21
17.63828214758428
 72
     1
 10
36.05755767472237
 20
17.63828214758428
 11
36.08738567472232
 21
17.67004214758428
 72
     1
 10
36.08738567472232
 20
17.67004214758428
 11
36.11505467472237
 21
17.70395514758428
 72
     1
 10
36.11505467472237
 20
17.70395514758428
 11
36.1403506747224
 21
17.73972214758428
 72
     1
 10
36.1403506747224
 20
17.73972214758428
 11
36.1632226747224
 21
17.77714314758428
 72
     1
 10
36.1632226747224
 20
17.77714314758428
 11
36.18361967472242
 21
17.81601714758428
 72
     1
 10
36.18361967472242
 20
17.81601714758428
 11
36.20149267472243
 21
17.85614514758429
 72
     1
 10
36.20149267472243
 20
17.85614514758429
 11
36.21677167472238
 21
17.89728214758429
 72
     1
 10
36.21677167472238
 20
17.89728214758429
 11
36.2294196747224
 21
17.93927914758428
 72
     1
 10
36.2294196747224
 20
17.93927914758428
 11
36.2393746747224
 21
17.98194514758428
 72
     1
 10
36.2393746747224
 20
17.98194514758428
 11
36.2465776747224
 21
18.02508914758428
 72
     1
 10
36.2465776747224
 20
18.02508914758428
 11
36.25096567472246
 21
18.06852114758428
 72
     1
 10
36.25096567472235
 20
18.06852114758428
 11
36.25096567472235
 21
21.40707114758428
 72
     1
 10
36.25096567472235
 20
21.40707114758428
 11
37.38316567472236
 21
21.40707114758428
 72
     2
 10
34.8273936747223
 20
20.82409414758428
 40
3.758726999999998
 50
112.441019
 51
172.304452
 73
     1
 72
     2
 10
33.87869667472239
 20
20.75017014758429
 40
0.4706070000000002
 50
290.581791
 51
349.597934
 73
     1
 72
     2
 10
34.8273936747223
 20
20.82409414758428
 40
3.758726999999998
 50
82.920171
 51
97.425686
 73
     1
 72
     2
 10
34.8273936747223
 20
20.82409414758428
 40
3.758726999999998
 50
187.868564
 51
427.744449
 73
     1
 72
     2
 10
37.33228167472236
 20
21.90454614758429
 40
0.5000710000000002
 50
275.8401029999999
 51
455.8401219999998
 73
     1
 72
     2
 10
34.82738867472233
 20
20.8240991475843
 40
4.756723
 50
0.0
 51
360.0
 73
     1
 97
        0
 75
     0
 76
     1
 52
315.0
 41
1.259843
 77
     0
 78
     1
 53
0.0
 43
-514.3362191172696
 44
31.91508404131445
 45
0.0
 46
4.0
 79
     0
 98
        1
 10
-514.3362191172696
 20
31.91508404131445
  0
ARC
  5
51BF
330
A
100
AcDbEntity
  8
CARTOUCHE
  6
CONTINUOUS
100
AcDbCircle
 10
34.82739388273012
 20
20.82409404131446
 30
0.0
 40
3.758726999999998
100
AcDbArc
 50
112.4410320000015
 51
172.3044699999999
  0
CIRCLE
  5
51C0
330
A
100
AcDbEntity
  8
CARTOUCHE
  6
CONTINUOUS
100
AcDbCircle
 10
34.82738888273013
 20
20.82409904131444
 30
0.0
 40
4.756723
  0
HATCH
  5
51C1
330
A
100
AcDbEntity
  8
CARTOUCHE
  6
CONTINUOUS
100
AcDbHatch
 10
0.0
 20
0.0
 30
0.0
210
0.0
220
0.0
230
1.0
  2
ANSI31
 70
     0
 71
     0
 91
        1
 92
        1
 93
      165
 72
     1
 10
61.97881567472235
 20
19.14312114758429
 11
62.08186567472228
 21
19.14312114758429
 72
     1
 10
62.08186567472228
 20
19.14312114758429
 11
65.13466567472232
 21
19.15482114758429
 72
     1
 10
65.13466567472232
 20
19.15482114758429
 11
65.16012067472229
 21
19.26452414758428
 72
     1
 10
65.16012067472229
 20
19.26452414758428
 11
65.17279067472225
 21
19.3481391475843
 72
     1
 10
65.17279067472225
 20
19.34813914758428
 11
65.1796166747223
 21
19.43238014758429
 72
     1
 10
65.1796166747223
 20
19.43238014758429
 11
65.17947767472231
 21
19.54564614758428
 72
     1
 10
65.17947767472231
 20
19.54564614758428
 11
65.16245267472243
 21
19.71477314758429
 72
     1
 10
65.16245267472232
 20
19.71477314758429
 11
65.1362076747223
 21
19.85489014758428
 72
     1
 10
65.1362076747223
 20
19.85489014758428
 11
65.10132167472227
 21
19.99304514758428
 72
     1
 10
65.10132167472227
 20
19.99304514758428
 11
65.05953767472249
 21
20.12782314758428
 72
     1
 10
65.05953767472249
 20
20.12782314758428
 11
65.01008467472229
 21
20.26009814758428
 72
     1
 10
65.01008467472229
 20
20.26009814758428
 11
64.96460467472229
 21
20.36339314758428
 72
     1
 10
64.96460467472229
 20
20.36339314758428
 11
64.91360367472225
 21
20.46421214758428
 72
     1
 10
64.91360367472225
 20
20.46421214758428
 11
64.85702267472243
 21
20.56200014758429
 72
     1
 10
64.85702267472243
 20
20.56200014758429
 11
64.79480367472229
 21
20.65620414758428
 72
     1
 10
64.79480367472229
 20
20.65620414758428
 11
64.72688767472232
 21
20.74627214758428
 72
     1
 10
64.72688767472232
 20
20.74627214758428
 11
64.65326667472232
 21
20.83180714758428
 72
     1
 10
64.65326667472232
 20
20.83180714758428
 11
64.57446167472233
 21
20.91268114758428
 72
     1
 10
64.57446167472243
 20
20.91268114758428
 11
64.49105167472248
 21
20.98893214758429
 72
     1
 10
64.49105167472225
 20
20.98893214758429
 11
64.31273867472225
 21
21.12770314758428
 72
     1
 10
64.31273867472225
 20
21.12770314758428
 11
64.19472867472234
 21
21.20528214758429
 72
     1
 10
64.19472867472234
 20
21.20528214758429
 11
64.07219267472226
 21
21.27511914758428
 72
     1
 10
64.07219267472226
 20
21.27511914758428
 11
63.94546167472231
 21
21.33666314758428
 72
     1
 10
63.94546167472231
 20
21.33666314758428
 11
63.81513867472232
 21
21.39032614758428
 72
     1
 10
63.81513867472246
 20
21.39032614758428
 11
63.54661467472249
 21
21.47741114758429
 72
     1
 10
63.54661467472249
 20
21.47741114758429
 11
63.27239467472224
 21
21.54432614758428
 72
     1
 10
63.27239467472224
 20
21.54432614758428
 11
62.99474767472226
 21
21.59230714758428
 72
     1
 10
62.99474767472226
 20
21.59230714758428
 11
62.71452067472228
 21
21.62219214758429
 72
     1
 10
62.71452067472228
 20
21.62219214758429
 11
62.15059767472222
 21
21.63455114758428
 72
     1
 10
62.15059767472222
 20
21.63455114758428
 11
61.58832867472233
 21
21.59447214758429
 72
     1
 10
61.58832867472233
 20
21.59447214758429
 11
61.31004267472224
 21
21.54981614758429
 72
     1
 10
61.31004267472224
 20
21.54981614758429
 11
61.03502567472229
 21
21.48697714758429
 72
     1
 10
61.03502567472229
 20
21.48697714758429
 11
60.81833567472243
 21
21.42275714758429
 72
     1
 10
60.81833567472243
 20
21.42275714758429
 11
60.65932867472247
 21
21.36437414758428
 72
     1
 10
60.65932867472223
 20
21.36437414758428
 11
60.50465267472225
 21
21.29530214758428
 72
     1
 10
60.50465267472225
 20
21.29530214758428
 11
60.40474867472243
 21
21.24265614758428
 72
     1
 10
60.40474867472243
 20
21.24265614758428
 11
60.30780967472231
 21
21.18454014758428
 72
     1
 10
60.30780967472231
 20
21.18454014758428
 11
60.21435567472224
 21
21.12098314758428
 72
     1
 10
60.21435567472224
 20
21.12098314758428
 11
60.12490767472229
 21
21.05201714758428
 72
     1
 10
60.12490767472229
 20
21.05201714758428
 11
60.03998567472229
 21
20.97767214758428
 72
     1
 10
60.03998567472229
 20
20.97767214758428
 11
59.96006267472228
 21
20.89809114758428
 72
     1
 10
59.96006267472228
 20
20.89809114758428
 11
59.88521167472232
 21
20.81365114758428
 72
     1
 10
59.88521167472232
 20
20.81365114758428
 11
59.81546567472229
 21
20.72484114758429
 72
     1
 10
59.81546567472229
 20
20.72484114758429
 11
59.75085567472229
 21
20.63214614758428
 72
     1
 10
59.75085567472229
 20
20.63214614758428
 11
59.6914116747223
 21
20.53605214758428
 72
     1
 10
59.6914116747223
 20
20.53605214758428
 11
59.58823367472234
 21
20.33516614758429
 72
     1
 10
59.58823367472234
 20
20.33516614758429
 11
59.54480367472228
 21
20.23097614758428
 72
     1
 10
59.54480367472228
 20
20.23097614758428
 11
59.50699967472225
 21
20.12462014758428
 72
     1
 10
59.50699967472225
 20
20.12462014758428
 11
59.47496467472229
 21
20.01635114758428
 72
     1
 10
59.47496467472229
 20
20.01635114758428
 11
59.44884667472229
 21
19.90646714758428
 72
     1
 10
59.44884667472229
 20
19.90646714758428
 11
59.42879367472233
 21
19.79529014758428
 72
     1
 10
59.42879367472233
 20
19.79529014758428
 11
59.41496567472235
 21
19.68318914758428
 72
     1
 10
59.41496567472235
 20
19.68318914758428
 11
59.40752067472249
 21
19.57053314758429
 72
     1
 10
59.40752067472249
 20
19.57053314758429
 11
59.4066186747225
 21
19.45769114758428
 72
     1
 10
59.4066186747225
 20
19.45769114758428
 11
59.41250067472231
 21
19.34474914758428
 72
     1
 10
59.41250067472231
 20
19.34474914758428
 11
59.43504567472245
 21
19.17692014758428
 72
     1
 10
59.43504567472235
 20
19.17692014758428
 11
59.45958467472222
 21
19.06704014758428
 72
     1
 10
59.45958467472222
 20
19.06704014758428
 11
59.50840367472233
 21
18.90503114758429
 72
     1
 10
59.50840367472233
 20
18.90503114758429
 11
59.59091867472228
 21
18.69472814758428
 72
     1
 10
59.59091867472228
 20
18.69472814758428
 11
59.66584467472228
 21
18.54292014758428
 72
     1
 10
59.66584467472228
 20
18.54292014758428
 11
59.7526186747225
 21
18.39796214758428
 72
     1
 10
59.7526186747225
 20
18.39796214758428
 11
59.83430767472225
 21
18.28289714758429
 72
     1
 10
59.83430767472225
 20
18.28289714758429
 11
59.92281767472229
 21
18.17279114758428
 72
     1
 10
59.92281767472229
 20
18.17279114758428
 11
59.99771867472225
 21
18.08790914758428
 72
     1
 10
59.99771867472225
 20
18.08790914758428
 11
60.1186486747223
 21
17.96908514758428
 72
     1
 10
60.1186486747223
 20
17.96908514758428
 11
60.20588267472248
 21
17.89805014758429
 72
     1
 10
60.20588267472248
 20
17.89805014758429
 11
60.3459496747223
 21
17.80379214758428
 72
     1
 10
60.3459496747223
 20
17.80379214758428
 11
60.46973467472231
 21
17.73543414758429
 72
     1
 10
60.46973467472231
 20
17.73543414758429
 11
60.59737367472222
 21
17.67435014758429
 72
     1
 10
60.59737367472222
 20
17.67435014758429
 11
60.80575067472228
 21
17.58713414758428
 72
     1
 10
60.80575067472228
 20
17.58713414758428
 11
61.1273486747225
 21
17.48155814758428
 72
     1
 10
61.1273486747225
 20
17.48155814758428
 11
61.34675767472231
 21
17.43001514758429
 72
     1
 10
61.34675767472231
 20
17.43001514758429
 11
61.68089567472225
 21
17.37651514758429
 72
     1
 10
61.68089567472225
 20
17.37651514758429
 11
61.96162267472232
 21
17.34892014758428
 72
     1
 10
61.96162267472232
 20
17.34892014758428
 11
62.24322467472235
 21
17.33683914758429
 72
     1
 10
62.24322467472235
 20
17.33683914758429
 11
62.80606667472227
 21
17.36031214758428
 72
     1
 10
62.80606667472227
 20
17.36031214758428
 11
63.08693467472243
 21
17.39314514758429
 72
     1
 10
63.08693467472243
 20
17.39314514758429
 11
63.36554667472251
 21
17.44091214758428
 72
     1
 10
63.36554667472228
 20
17.44091214758428
 11
63.63986067472229
 21
17.50702114758428
 72
     1
 10
63.63986067472229
 20
17.50702114758428
 11
63.90596467472231
 21
17.59861114758429
 72
     1
 10
63.90596467472231
 20
17.59861114758429
 11
64.16330667472232
 21
17.71400114758428
 72
     1
 10
64.16330667472244
 20
17.71400114758428
 11
64.28904167472251
 21
17.77786314758428
 72
     1
 10
64.28904167472229
 20
17.77786314758428
 11
64.41072267472225
 21
17.84892214758428
 72
     1
 10
64.41072267472225
 20
17.84892214758428
 11
64.50336067472242
 21
17.91345914758428
 72
     1
 10
64.50336067472242
 20
17.91345914758428
 11
64.56936367472223
 21
17.96657214758428
 72
     1
 10
64.56936367472223
 20
17.96657214758428
 11
64.63191867472231
 21
18.02362414758428
 72
     1
 10
64.63191867472231
 20
18.02362414758428
 11
64.70945267472234
 21
18.10549214758428
 72
     1
 10
64.70945267472234
 20
18.10549214758428
 11
64.81386767472224
 21
18.23876614758429
 72
     1
 10
64.81386767472224
 20
18.23876614758429
 11
64.87581067472229
 21
18.33327014758428
 72
     1
 10
64.87581067472229
 20
18.33327014758428
 11
64.91728867472227
 21
18.40706314758429
 72
     1
 10
64.91728867472227
 20
18.40706314758429
 11
64.95355267472234
 21
18.48350514758428
 72
     1
 10
64.95355267472234
 20
18.48350514758428
 11
64.99269567472243
 21
18.58948314758428
 72
     1
 10
64.99269567472243
 20
18.58948314758428
 11
65.0150926747225
 21
18.6712771475843
 72
     1
 10
65.0150926747225
 20
18.67127714758428
 11
65.03161567472227
 21
18.75432114758428
 72
     1
 10
65.03161567472227
 20
18.75432114758428
 11
63.2707656747225
 21
18.75432114758428
 72
     1
 10
63.2707656747225
 20
18.75432114758428
 11
63.16250267472231
 21
18.67381614758428
 72
     1
 10
63.16250267472231
 20
18.67381614758428
 11
63.0770846747223
 21
18.61933214758428
 72
     1
 10
63.0770846747223
 20
18.61933214758428
 11
62.9885186747223
 21
18.57011014758428
 72
     1
 10
62.9885186747223
 20
18.57011014758428
 11
62.91250067472231
 21
18.53345014758429
 72
     1
 10
62.91250067472231
 20
18.53345014758429
 11
62.83431867472245
 21
18.50198414758428
 72
     1
 10
62.83431867472234
 20
18.50198414758428
 11
62.77001967472235
 21
18.48131214758428
 72
     1
 10
62.77001967472235
 20
18.48131214758428
 11
62.67139367472225
 21
18.45776514758428
 72
     1
 10
62.67139367472225
 20
18.45776514758428
 11
62.53707967472222
 21
18.43921314758428
 72
     1
 10
62.53707967472222
 20
18.43921314758428
 11
62.43538167472229
 21
18.43433314758428
 72
     1
 10
62.43538167472229
 20
18.43433314758428
 11
62.33355167472235
 21
18.43665814758429
 72
     1
 10
62.33355167472235
 20
18.43665814758429
 11
62.19913467472224
 21
18.45017314758428
 72
     1
 10
62.19913467472224
 20
18.45017314758428
 11
62.09942367472229
 21
18.46786514758428
 72
     1
 10
62.09942367472229
 20
18.46786514758428
 11
62.00107167472243
 21
18.49186314758428
 72
     1
 10
62.00107167472243
 20
18.49186314758428
 11
61.87262667472225
 21
18.53371414758428
 72
     1
 10
61.87262667472225
 20
18.53371414758428
 11
61.77913767472228
 21
18.57297814758428
 72
     1
 10
61.77913767472228
 20
18.57297814758428
 11
61.6887236747225
 21
18.61952314758428
 72
     1
 10
61.6887236747225
 20
18.61952314758428
 11
61.63058267472229
 21
18.65481714758429
 72
     1
 10
61.63058267472229
 20
18.65481714758429
 11
61.57481967472232
 21
18.69378114758428
 72
     1
 10
61.57481967472246
 20
18.69378114758428
 11
61.52219267472229
 21
18.73664414758429
 72
     1
 10
61.52219267472229
 20
18.73664414758429
 11
61.47346167472243
 21
18.78363314758429
 72
     1
 10
61.47346167472233
 20
18.78363314758429
 11
61.4293846747223
 21
18.83497714758428
 72
     1
 10
61.4293846747223
 20
18.83497714758428
 11
61.3906196747223
 21
18.89072714758428
 72
     1
 10
61.3906196747223
 20
18.89072714758428
 11
61.35741167472224
 21
18.95023914758428
 72
     1
 10
61.35741167472224
 20
18.95023914758428
 11
61.32990367472235
 21
19.01269014758428
 72
     1
 10
61.32990367472235
 20
19.01269014758428
 11
61.30824067472224
 21
19.07725814758428
 72
     1
 10
61.30824067472224
 20
19.07725814758428
 11
61.29256567472225
 21
19.14312114758429
 72
     1
 10
61.29256567472225
 20
19.14312114758429
 11
61.97881567472235
 21
19.14312114758429
 72
     1
 10
61.29256567472225
 20
19.97787114758429
 11
62.08186567472228
 21
19.97787114758429
 72
     1
 10
62.08186567472228
 20
19.97787114758429
 11
63.2707656747225
 21
19.97787114758429
 72
     1
 10
63.2707656747225
 20
19.97787114758429
 11
63.2668416747223
 21
20.01509314758429
 72
     1
 10
63.2668416747223
 20
20.01509314758429
 11
63.26074467472245
 21
20.05210814758429
 72
     1
 10
63.26074467472245
 20
20.05210814758429
 11
63.25243467472251
 21
20.08872614758428
 72
     1
 10
63.25243467472228
 20
20.08872614758428
 11
63.24187467472235
 21
20.12475514758429
 72
     1
 10
63.24187467472235
 20
20.12475514758429
 11
63.22902767472226
 21
20.16000614758428
 72
     1
 10
63.22902767472226
 20
20.16000614758428
 11
63.21389867472226
 21
20.19428314758428
 72
     1
 10
63.21389867472226
 20
20.19428314758428
 11
63.19660667472248
 21
20.22752314758429
 72
     1
 10
63.19660667472248
 20
20.22752314758429
 11
63.17730967472243
 21
20.25965914758428
 72
     1
 10
63.17730967472243
 20
20.25965914758428
 11
63.15616767472249
 21
20.29062114758429
 72
     1
 10
63.15616767472249
 20
20.29062114758429
 11
63.1333376747225
 21
20.32034114758428
 72
     1
 10
63.1333376747225
 20
20.32034114758428
 11
63.08290067472228
 21
20.37621114758429
 72
     1
 10
63.08290067472228
 20
20.37621114758429
 11
63.04163067472234
 21
20.41473614758428
 72
     1
 10
63.04163067472234
 20
20.41473614758428
 11
62.99789167472249
 21
20.45044514758429
 72
     1
 10
62.99789167472249
 20
20.45044514758429
 11
62.9366396747223
 21
20.49361314758428
 72
     1
 10
62.9366396747223
 20
20.49361314758428
 11
62.88863667472231
 21
20.52282114758428
 72
     1
 10
62.88863667472231
 20
20.52282114758428
 11
62.83909367472245
 21
20.54932014758429
 72
     1
 10
62.83909367472233
 20
20.54932014758429
 11
62.77095567472224
 21
20.5804791475843
 72
     1
 10
62.77095567472224
 20
20.5804791475843
 11
62.6652056747223
 21
20.61848814758428
 72
     1
 10
62.6652056747223
 20
20.61848814758428
 11
62.59277667472225
 21
20.63822314758428
 72
     1
 10
62.59277667472225
 20
20.63822314758428
 11
62.48221767472228
 21
20.65948414758428
 72
     1
 10
62.48221767472228
 20
20.65948414758428
 11
62.40732467472231
 21
20.66821114758429
 72
     1
 10
62.40732467472231
 20
20.66821114758429
 11
62.29442067472234
 21
20.67344714758428
 72
     1
 10
62.29442067472234
 20
20.67344714758428
 11
62.2189716747223
 21
20.67190314758428
 72
     1
 10
62.2189716747223
 20
20.67190314758428
 11
62.10598667472232
 21
20.66147914758428
 72
     1
 10
62.10598667472232
 20
20.66147914758428
 11
62.03213067472232
 21
20.64850114758428
 72
     1
 10
62.03213067472232
 20
20.64850114758428
 11
61.99582767472225
 21
20.63952414758428
 72
     1
 10
61.99582767472225
 20
20.63952414758428
 11
61.96025667472224
 21
20.62848814758428
 72
     1
 10
61.96025667472224
 20
20.62848814758428
 11
61.92565467472229
 21
20.61509514758428
 72
     1
 10
61.92565467472229
 20
20.61509514758428
 11
61.89208667472222
 21
20.59918514758428
 72
     1
 10
61.89208667472222
 20
20.59918514758428
 11
61.76258567472235
 21
20.52435814758428
 72
     1
 10
61.76258567472235
 20
20.52435814758428
 11
61.59933667472228
 21
20.43425814758428
 72
     1
 10
61.59933667472228
 20
20.43425814758428
 11
61.56871867472228
 21
20.41283714758428
 72
     1
 10
61.56871867472228
 20
20.41283714758428
 11
61.53936767472226
 21
20.38955714758428
 72
     1
 10
61.53936767472226
 20
20.38955714758428
 11
61.51133367472244
 21
20.36458814758428
 72
     1
 10
61.51133367472244
 20
20.36458814758428
 11
61.4594236747223
 21
20.31026714758428
 72
     1
 10
61.4594236747223
 20
20.31026714758428
 11
61.4130836747223
 21
20.2507021475843
 72
     1
 10
61.41308367472244
 20
20.2507021475843
 11
61.38236367472245
 21
20.20322814758428
 72
     1
 10
61.38236367472234
 20
20.20322814758428
 11
61.35519967472227
 21
20.15360914758428
 72
     1
 10
61.35519967472227
 20
20.15360914758428
 11
61.32494267472225
 21
20.08515014758428
 72
     1
 10
61.32494267472225
 20
20.08515014758428
 11
61.30672267472231
 21
20.03207214758429
 72
     1
 10
61.30672267472231
 20
20.03207214758429
 11
61.29256567472225
 21
19.97787114758429
 97
        0
 75
     0
 76
     1
 52
315.0
 41
1.259843
 77
     0
 78
     1
 53
0.0
 43
-514.3362191172696
 44
31.91508404131445
 45
0.0
 46
4.0
 79
     0
 98
        1
 10
-514.3362191172696
 20
31.91508404131445
  0
SPLINE
  5
51C2
330
A
100
AcDbEntity
  8
CARTOUCHE
  6
CONTINUOUS
100
AcDbSpline
210
0.0
220
0.0
230
1.0
 70
     8
 71
     3
 72
    48
 73
    44
 74
    42
 42
0.0000000001
 43
0.0000000001
 44
0.000001
 12
0.2679235453443169
 22
0.963440176580846
 32
0.0
 13
0.1610223945671779
 23
0.9869507527976521
 33
0.0
 40
0.0
 40
0.0
 40
0.0
 40
0.0
 40
0.2818680440732486
 40
0.5637438622441833
 40
0.8456206423664102
 40
1.127487549250493
 40
1.41019523957087
 40
1.692701565213701
 40
1.975094154821124
 40
2.257824114950084
 40
2.539701857397905
 40
2.821572029861538
 40
3.103444310957269
 40
3.385316597162721
 40
3.949059070305079
 40
4.512801862640415
 40
5.076549211017903
 40
5.64028869883138
 40
6.204038075969387
 40
6.767777945536391
 40
7.331509982442067
 40
7.895250412814445
 40
8.458987271217131
 40
8.740857414631033
 40
9.022732806849782
 40
9.586464206115335
 40
9.868340449113055
 40
10.15021055202981
 40
10.43208121104799
 40
10.71395548681776
 40
11.2776991809366
 40
11.84144433135688
 40
12.40518731806548
 40
12.96893224997308
 40
13.53267745240209
 40
13.81454988463909
 40
14.09642160850193
 40
14.37829351861342
 40
14.66016601896493
 40
14.94203821121547
 40
15.22390966069217
 40
15.50578181462567
 40
15.78765328968325
 40
15.78765328968325
 40
15.78765328968325
 40
15.78765328968325
 10
65.13466565093493
 20
19.15482075470098
 30
0.0
 10
65.15983867949739
 20
19.24534175408579
 30
0.0
 10
65.1910972481666
 20
19.43279251935018
 30
0.0
 10
65.16929200107899
 20
19.71568860312026
 30
0.0
 10
65.10676459426615
 20
19.99103664211629
 30
0.0
 10
65.01698862599176
 20
20.25914212603898
 30
0.0
 10
64.89353704740702
 20
20.5140470609775
 30
0.0
 10
64.73462448107802
 20
20.74907794480499
 30
0.0
 10
64.53927949471737
 20
20.95483961343851
 30
0.0
 10
64.3177488903408
 20
21.13099331391356
 30
0.0
 10
64.07708565247293
 20
21.27974020840141
 30
0.0
 10
63.81877689968921
 20
21.39456101208987
 30
0.0
 10
63.54973291014625
 20
21.47976853795364
 30
0.0
 10
63.18452843995019
 20
21.56934134772979
 30
0.0
 10
62.71749930646091
 20
21.63342468804786
 30
0.0
 10
62.15312790812771
 20
21.64187400939001
 30
0.0
 10
61.58943008664053
 20
21.60676399706826
 30
0.0
 10
61.03457680619368
 20
21.49986431019919
 30
0.0
 10
60.49692124793626
 20
21.31945754103047
 30
0.0
 10
60.02024008700286
 20
21.00129399081466
 30
0.0
 10
59.67000404147134
 20
20.54882764789624
 30
0.0
 10
59.45025804688686
 20
20.02320990979145
 30
0.0
 10
59.39054927927801
 20
19.55043979955953
 30
0.0
 10
59.42688545644809
 20
19.1745836088119
 30
0.0
 10
59.5295190003179
 20
18.81205702683472
 30
0.0
 10
59.69033481262631
 20
18.46696566835906
 30
0.0
 10
59.92049211663102
 20
18.16898354332365
 30
0.0
 10
60.11282810970307
 20
17.96153293747847
 30
0.0
 10
60.34364087447986
 20
17.79627368225164
 30
0.0
 10
60.68094331610384
 20
17.62942042743788
 30
0.0
 10
61.12344053258325
 20
17.46479866371252
 30
0.0
 10
61.68072027464465
 20
17.36704404364899
 30
0.0
 10
62.24386475122379
 20
17.32551789349072
 30
0.0
 10
62.80812286397999
 20
17.35185391807078
 30
0.0
 10
63.27422716614655
 20
17.41666426207349
 30
0.0
 10
63.64060177632691
 20
17.50220602670463
 30
0.0
 10
63.90765303818666
 20
17.59430629977257
 30
0.0
 10
64.16389637212178
 20
17.71196046462579
 30
0.0
 10
64.41510244018193
 20
17.84112947069675
 30
0.0
 10
64.63892844214332
 20
18.01634217205726
 30
0.0
 10
64.81978318098524
 20
18.23435357835239
 30
0.0
 10
64.96478277609426
 20
18.47832167648073
 30
0.0
 10
65.01648644431023
 20
18.66158966653422
 30
0.0
 10
65.03161565093488
 20
18.75432075470098
 30
0.0
 11
65.13466565093493
 21
19.15482075470098
 31
0.0
 11
65.17964752257057
 21
19.43307693647598
 31
0.0
 11
65.16250411889268
 21
19.71443089523334
 31
0.0
 11
65.10223617137978
 21
19.98978936434164
 31
0.0
 11
65.01149360889495
 21
20.25665026491946
 31
0.0
 11
64.88760377130654
 21
20.51076627040552
 31
0.0
 11
64.72853050066976
 21
20.74423043178398
 31
0.0
 11
64.53496967104832
 21
20.94985089734826
 31
0.0
 11
64.31430222171434
 21
21.12660525972287
 31
0.0
 11
64.0741009651656
 21
21.27411260565519
 31
0.0
 11
63.8169871745497
 21
21.38962577992197
 31
0.0
 11
63.54892213335837
 21
21.47676428051724
 31
0.0
 11
63.27512652757707
 21
21.54375647396576
 31
0.0
 11
62.71684260585097
 21
21.62201660021068
 31
0.0
 11
62.15324058529086
 21
21.63461447758435
 31
0.0
 11
61.59090099347702
 21
21.59479911469684
 31
0.0
 11
61.0374449367929
 21
21.48761417204146
 31
0.0
 11
60.50707952186655
 21
21.29649666835834
 31
0.0
 11
60.04131091822636
 21
20.9789084531269
 31
0.0
 11
59.69175271234997
 21
20.53663827520229
 31
0.0
 11
59.47493948579358
 21
20.01625827445099
 31
0.0
 11
59.40664084083699
 21
19.45667397291144
 31
0.0
 11
59.43517143717896
 21
19.1762514440423
 31
0.0
 11
59.50870949048976
 21
18.90413767692544
 31
0.0
 11
59.75364902971556
 21
18.39639980136734
 31
0.0
 11
59.92377849242689
 21
18.17165508043346
 31
0.0
 11
60.11923981135566
 21
17.96856486957785
 31
0.0
 11
60.34733278998363
 21
17.80296092964853
 31
0.0
 11
60.59800877238945
 21
17.67406306072607
 31
0.0
 11
61.12781978626833
 21
17.48143065337773
 31
0.0
 11
61.68169737870903
 21
17.37641538512979
 31
0.0
 11
62.2440487060469
 21
17.33682827482619
 31
0.0
 11
62.80729950709336
 21
17.36042666182805
 31
0.0
 11
63.36527757541421
 21
17.44085755183418
 31
0.0
 11
63.63931277210031
 21
17.50686344530665
 31
0.0
 11
63.90585065712979
 21
17.59856526054907
 31
0.0
 11
64.16305562707794
 21
17.71387949926493
 31
0.0
 11
64.41053820154286
 21
17.8488034461603
 31
0.0
 11
64.63176576538001
 21
18.02347537571864
 31
0.0
 11
64.81380621994367
 21
18.23867940193863
 31
0.0
 11
64.95354119496425
 21
18.48347730597492
 31
0.0
 11
65.03161565093488
 21
18.75432075470098
 31
0.0
  0
ARC
  5
51C3
330
A
100
AcDbEntity
  8
CARTOUCHE
  6
CONTINUOUS
100
AcDbCircle
 10
37.33228188273017
 20
21.90454604131445
 30
0.0
 40
0.5000710000000002
100
AcDbArc
 50
275.8401250000003
 51
95.8401250000003
  0
ARC
  5
51C4
330
A
100
AcDbEntity
  8
CARTOUCHE
  6
CONTINUOUS
100
AcDbCircle
 10
34.82739388273012
 20
20.82409404131446
 30
0.0
 40
3.758726999999998
100
AcDbArc
 50
187.868554
 51
67.74447600000176
  0
ARC
  5
51C5
330
A
100
AcDbEntity
  8
CARTOUCHE
  6
CONTINUOUS
100
AcDbCircle
 10
42.50800188273013
 20
21.82807804131444
 30
0.0
 40
0.905639
100
AcDbArc
 50
90.0
 51
180.0
  0
LINE
  5
51C6
330
A
100
AcDbEntity
  8
CARTOUCHE
  6
CONTINUOUS
100
AcDbLine
 10
46.5537158827301
 20
22.73367104131446
 30
0.0
 11
46.5537158827301
 21
21.84177104131446
 31
0.0
  0
LINE
  5
51C7
330
A
100
AcDbEntity
  8
CARTOUCHE
  6
CONTINUOUS
100
AcDbLine
 10
44.73571588273012
 20
21.84177104131446
 30
0.0
 11
44.73571588273012
 21
22.73367104131446
 31
0.0
  0
LINE
  5
51C8
330
A
100
AcDbEntity
  8
CARTOUCHE
  6
CONTINUOUS
100
AcDbLine
 10
44.01526588273009
 20
21.83052104131444
 30
0.0
 11
44.01526588273009
 21
22.73367104131446
 31
0.0
  0
LINE
  5
51C9
330
A
100
AcDbEntity
  8
CARTOUCHE
  6
CONTINUOUS
100
AcDbLine
 10
57.11926588273013
 20
21.21858104131445
 30
0.0
 11
57.11926588273013
 21
22.72242104131446
 31
0.0
  0
LINE
  5
51CA
330
A
100
AcDbEntity
  8
CARTOUCHE
  6
CONTINUOUS
100
AcDbLine
 10
58.91431588273018
 20
22.72242104131446
 30
0.0
 11
58.91431588273018
 21
17.51952104131444
 31
0.0
  0
LINE
  5
51CB
330
A
100
AcDbEntity
  8
CARTOUCHE
  6
CONTINUOUS
100
AcDbLine
 10
33.39256588273019
 20
24.29818304131446
 30
0.0
 11
33.39256588273019
 21
21.32742104131446
 31
0.0
  0
LINE
  5
51CC
330
A
100
AcDbEntity
  8
CARTOUCHE
  6
CONTINUOUS
100
AcDbLine
 10
34.34161588273013
 20
20.66519104131445
 30
0.0
 11
34.34161588273013
 21
24.55129804131445
 31
0.0
  0
LINE
  5
51CD
330
A
100
AcDbEntity
  8
CARTOUCHE
  6
CONTINUOUS
100
AcDbLine
 10
35.29066588273019
 20
24.55416204131445
 30
0.0
 11
35.29066588273019
 21
18.70887104131446
 31
0.0
  0
HATCH
  5
51CE
330
A
100
AcDbEntity
  8
CARTOUCHE
  6
CONTINUOUS
100
AcDbHatch
 10
0.0
 20
0.0
 30
0.0
210
0.0
220
0.0
230
1.0
  2
ANSI31
 70
     0
 71
     0
 91
        1
 92
        1
 93
        4
 72
     1
 10
44.7357156747222
 20
21.40707114758428
 11
44.7357156747222
 21
17.53077114758428
 72
     1
 10
44.7357156747222
 20
17.53077114758428
 11
46.55371567472218
 21
17.53077114758428
 72
     1
 10
46.55371567472218
 20
17.53077114758428
 11
46.55371567472218
 21
21.40707114758428
 72
     1
 10
46.55371567472218
 20
21.40707114758428
 11
44.7357156747222
 21
21.40707114758428
 97
        0
 75
     0
 76
     1
 52
315.0
 41
1.259843
 77
     0
 78
     1
 53
0.0
 43
-514.3362191172696
 44
31.91508404131445
 45
0.0
 46
4.0
 79
     0
 98
        1
 10
-514.3362191172696
 20
31.91508404131445
  0
LINE
  5
51CF
330
A
100
AcDbEntity
  8
CARTOUCHE
  6
CONTINUOUS
100
AcDbLine
 10
46.5537158827301
 20
21.84177104131446
 30
0.0
 11
44.73571588273012
 21
21.84177104131446
 31
0.0
  0
LINE
  5
51D0
330
A
100
AcDbEntity
  8
CARTOUCHE
  6
CONTINUOUS
100
AcDbLine
 10
46.5537158827301
 20
17.53077104131445
 30
0.0
 11
44.73571588273012
 21
17.53077104131445
 31
0.0
  0
LINE
  5
51D1
330
A
100
AcDbEntity
  8
CARTOUCHE
  6
CONTINUOUS
100
AcDbLine
 10
44.73571588273012
 20
21.40707104131446
 30
0.0
 11
46.5537158827301
 21
21.40707104131446
 31
0.0
  0
SPLINE
  5
51D2
330
A
100
AcDbEntity
  8
CARTOUCHE
  6
CONTINUOUS
100
AcDbSpline
210
0.0
220
0.0
230
1.0
 70
     8
 71
     3
 72
    14
 73
    10
 74
     8
 42
0.0000000001
 43
0.0000000001
 44
0.000001
 12
-0.0678904074542076
 22
-0.9976927846665534
 32
0.0
 13
-0.8200536786282802
 23
0.5722866101598268
 33
0.0
 40
0.0
 40
0.0
 40
0.0
 40
0.0
 40
0.2176135355074934
 40
0.4352355907184446
 40
0.652840989777471
 40
0.8704569022321225
 40
1.088068224858218
 40
1.305663728345031
 40
1.523275238255815
 40
1.523275238255815
 40
1.523275238255815
 40
1.523275238255815
 10
36.25096565093485
 20
18.06852075470098
 30
0.0
 10
36.24604102707047
 20
17.99615026996044
 30
0.0
 10
36.2123237515628
 20
17.85221242468124
 30
0.0
 10
36.09777783470878
 20
17.66241395716149
 30
0.0
 10
35.92540209504978
 20
17.52356916246687
 30
0.0
 10
35.72477558862344
 20
17.43482095480151
 30
0.0
 10
35.50490093837892
 20
17.40204669141812
 30
0.0
 10
35.28989527468685
 20
17.4565067598464
 30
0.0
 10
35.1609260269025
 20
17.52549317006174
 30
0.0
 10
35.1014416538311
 20
17.56700522117461
 30
0.0
 11
36.25096565093485
 21
18.06852075470098
 31
0.0
 11
36.20166313694324
 21
17.85656491342107
 31
0.0
 11
36.08813624503818
 21
17.67090116819032
 31
0.0
 11
35.92069632603328
 21
17.53191904954618
 31
0.0
 11
35.72156558677272
 21
17.44414855760415
 31
0.0
 11
35.50570691933603
 21
17.4165847923683
 31
0.0
 11
35.29349174177957
 21
17.46467385968749
 31
0.0
 11
35.1014416538311
 21
17.56700522117461
 31
0.0
  0
ARC
  5
51D3
330
A
100
AcDbEntity
  8
CARTOUCHE
  6
CONTINUOUS
100
AcDbCircle
 10
33.87869688273019
 20
20.75017004131444
 30
0.0
 40
0.4706070000000002
100
AcDbArc
 50
290.5817910000001
 51
349.5979119999996
  0
LINE
  5
51D4
330
A
100
AcDbEntity
  8
CARTOUCHE
  6
CONTINUOUS
100
AcDbLine
 10
36.25096588273015
 20
21.40707104131446
 30
0.0
 11
37.38316588273017
 21
21.40707104131446
 31
0.0
  0
LINE
  5
51D5
330
A
100
AcDbEntity
  8
CARTOUCHE
  6
CONTINUOUS
100
AcDbLine
 10
36.25096588273015
 20
18.06852104131445
 30
0.0
 11
36.25096588273015
 21
21.40707104131446
 31
0.0
  0
LINE
  5
51D6
330
A
100
AcDbEntity
  8
CARTOUCHE
  6
CONTINUOUS
100
AcDbLine
 10
32.30626588273013
 20
20.30952104131445
 30
0.0
 11
35.10144188273021
 21
17.56700504131446
 31
0.0
  0
LINE
  5
51D7
330
A
100
AcDbEntity
  8
CARTOUCHE
  6
CONTINUOUS
100
AcDbLine
 10
31.10405588273021
 20
20.30952104131445
 30
0.0
 11
32.30626588273013
 21
20.30952104131445
 31
0.0
  0
LINE
  5
51D8
330
A
100
AcDbEntity
  8
CARTOUCHE
  6
CONTINUOUS
100
AcDbLine
 10
33.39256588273019
 20
21.32742104131446
 30
0.0
 11
31.10251888273012
 21
21.32742104131446
 31
0.0
  0
LINE
  5
51D9
330
A
100
AcDbEntity
  8
CARTOUCHE
  6
CONTINUOUS
100
AcDbLine
 10
33.81556588273019
 20
20.30952104131445
 30
0.0
 11
34.0441658827301
 21
20.30952104131445
 31
0.0
  0
LINE
  5
51DA
330
A
100
AcDbEntity
  8
CARTOUCHE
  6
CONTINUOUS
100
AcDbLine
 10
35.29066588273019
 20
18.70887104131446
 30
0.0
 11
33.81556588273019
 21
20.30952104131445
 31
0.0
  0
HATCH
  5
51DB
330
A
100
AcDbEntity
  8
CARTOUCHE
  6
CONTINUOUS
100
AcDbHatch
 10
0.0
 20
0.0
 30
0.0
210
0.0
220
0.0
230
1.0
  2
ANSI31
 70
     0
 71
     0
 91
        1
 92
        1
 93
       16
 72
     1
 10
43.60679567472243
 20
21.83052114758428
 11
44.01526567472239
 21
21.83052114758428
 72
     1
 10
44.01526567472239
 20
21.83052114758428
 11
44.01526567472239
 21
22.73367114758428
 72
     1
 10
44.01526567472239
 20
22.73367114758428
 11
42.50800167472243
 21
22.73367114758428
 72
     1
 10
41.60236567472236
 20
21.82807814758429
 11
41.60236567472236
 21
21.40707114758428
 72
     1
 10
41.60236567472236
 20
21.40707114758428
 11
41.0650656747224
 21
21.40707114758428
 72
     1
 10
41.0650656747224
 20
21.40707114758428
 11
41.0650656747224
 21
20.30952114758429
 72
     1
 10
41.0650656747224
 20
20.30952114758429
 11
41.60236567472236
 21
20.30952114758429
 72
     1
 10
41.60236567472236
 20
20.30952114758429
 11
41.60236567472236
 21
17.53077114758428
 72
     1
 10
41.60236567472236
 20
17.53077114758428
 11
43.39786567472242
 21
17.53077114758428
 72
     1
 10
43.39786567472242
 20
17.53077114758428
 11
43.39786567472242
 21
20.30952114758429
 72
     1
 10
43.39786567472242
 20
20.30952114758429
 11
44.01526567472239
 21
20.30952114758429
 72
     1
 10
44.01526567472239
 20
20.30952114758429
 11
44.01526567472239
 21
21.40707114758428
 72
     1
 10
44.01526567472239
 20
21.40707114758428
 11
43.34071567472232
 21
21.40707114758428
 72
     1
 10
43.34071567472232
 20
21.40707114758428
 11
43.38882167472217
 21
21.66729914758429
 72
     2
 10
42.50800167472243
 20
21.82807814758429
 40
0.905639
 50
89.999981
 51
180.00002
 73
     1
 72
     2
 10
43.63373067472219
 20
21.56739314758429
 40
0.264503
 50
95.844666
 51
157.8078169999999
 73
     1
 97
        0
 75
     0
 76
     1
 52
315.0
 41
1.259843
 77
     0
 78
     1
 53
0.0
 43
-514.3362191172696
 44
31.91508404131445
 45
0.0
 46
4.0
 79
     0
 98
        1
 10
-514.3362191172696
 20
31.91508404131445
  0
ARC
  5
51DC
330
A
100
AcDbEntity
  8
CARTOUCHE
  6
CONTINUOUS
100
AcDbCircle
 10
43.63373088273021
 20
21.56739304131444
 30
0.0
 40
0.264503
100
AcDbArc
 50
95.84467300000108
 51
157.807812
  0
LINE
  5
51DD
330
A
100
AcDbEntity
  8
CARTOUCHE
  6
CONTINUOUS
100
AcDbLine
 10
44.73571588273012
 20
17.53077104131445
 30
0.0
 11
44.73571588273012
 21
21.40707104131446
 31
0.0
  0
LINE
  5
51DE
330
A
100
AcDbEntity
  8
CARTOUCHE
  6
CONTINUOUS
100
AcDbLine
 10
43.60679588273025
 20
21.83052104131444
 30
0.0
 11
44.01526588273009
 21
21.83052104131444
 31
0.0
  0
LINE
  5
51DF
330
A
100
AcDbEntity
  8
CARTOUCHE
  6
CONTINUOUS
100
AcDbLine
 10
43.34071588273014
 20
21.40707104131446
 30
0.0
 11
43.38882188273021
 21
21.66729904131444
 31
0.0
  0
LINE
  5
51E0
330
A
100
AcDbEntity
  8
CARTOUCHE
  6
CONTINUOUS
100
AcDbLine
 10
44.01526588273009
 20
21.40707104131446
 30
0.0
 11
43.34071588273014
 21
21.40707104131446
 31
0.0
  0
LINE
  5
51E1
330
A
100
AcDbEntity
  8
CARTOUCHE
  6
CONTINUOUS
100
AcDbLine
 10
44.01526588273009
 20
20.30952104131445
 30
0.0
 11
44.01526588273009
 21
21.40707104131446
 31
0.0
  0
LINE
  5
51E2
330
A
100
AcDbEntity
  8
CARTOUCHE
  6
CONTINUOUS
100
AcDbLine
 10
43.3978658827301
 20
20.30952104131445
 30
0.0
 11
44.01526588273009
 21
20.30952104131445
 31
0.0
  0
LINE
  5
51E3
330
A
100
AcDbEntity
  8
CARTOUCHE
  6
CONTINUOUS
100
AcDbLine
 10
43.3978658827301
 20
17.53077104131445
 30
0.0
 11
43.3978658827301
 21
20.30952104131445
 31
0.0
  0
LINE
  5
51E4
330
A
100
AcDbEntity
  8
CARTOUCHE
  6
CONTINUOUS
100
AcDbLine
 10
41.60236588273018
 20
17.53077104131445
 30
0.0
 11
43.3978658827301
 21
17.53077104131445
 31
0.0
  0
LINE
  5
51E5
330
A
100
AcDbEntity
  8
CARTOUCHE
  6
CONTINUOUS
100
AcDbLine
 10
41.60236588273018
 20
20.30952104131445
 30
0.0
 11
41.60236588273018
 21
17.53077104131445
 31
0.0
  0
LINE
  5
51E6
330
A
100
AcDbEntity
  8
CARTOUCHE
  6
CONTINUOUS
100
AcDbLine
 10
41.06506588273009
 20
20.30952104131445
 30
0.0
 11
41.60236588273018
 21
20.30952104131445
 31
0.0
  0
LINE
  5
51E7
330
A
100
AcDbEntity
  8
CARTOUCHE
  6
CONTINUOUS
100
AcDbLine
 10
41.06506588273009
 20
21.40707104131446
 30
0.0
 11
41.06506588273009
 21
20.30952104131445
 31
0.0
  0
LINE
  5
51E8
330
A
100
AcDbEntity
  8
CARTOUCHE
  6
CONTINUOUS
100
AcDbLine
 10
41.60236588273018
 20
21.40707104131446
 30
0.0
 11
41.06506588273009
 21
21.40707104131446
 31
0.0
  0
LINE
  5
51E9
330
A
100
AcDbEntity
  8
CARTOUCHE
  6
CONTINUOUS
100
AcDbLine
 10
41.60236588273018
 20
21.83052104131444
 30
0.0
 11
41.60236588273018
 21
21.40707104131446
 31
0.0
  0
HATCH
  5
51EA
330
A
100
AcDbEntity
  8
CARTOUCHE
  6
CONTINUOUS
100
AcDbHatch
 10
0.0
 20
0.0
 30
0.0
210
0.0
220
0.0
230
1.0
  2
ANSI31
 70
     0
 71
     0
 91
        1
 92
        1
 93
       12
 72
     1
 10
51.0361656747225
 20
19.37771114758429
 11
51.0361656747225
 21
17.53077114758428
 72
     1
 10
51.0361656747225
 20
17.53077114758428
 11
52.81996567472242
 21
17.53077114758428
 72
     1
 10
52.81996567472242
 20
17.53077114758428
 11
52.81996567472242
 21
20.22323014758428
 72
     1
 10
49.21771567472227
 20
20.97282114758428
 11
49.21771567472227
 21
21.40707114758428
 72
     1
 10
49.21771567472227
 20
21.40707114758428
 11
47.42266567472234
 21
21.40707114758428
 72
     1
 10
47.42266567472234
 20
21.40707114758428
 11
47.42266567472234
 21
17.53077114758428
 72
     1
 10
47.42266567472234
 20
17.53077114758428
 11
49.21771567472227
 21
17.53077114758428
 72
     1
 10
49.21771567472227
 20
17.53077114758428
 11
49.21771567472227
 21
19.33217614758429
 72
     2
 10
50.38506667472233
 20
19.37771114758429
 40
0.6511239999999999
 50
0.0
 51
97.150666
 73
     1
 72
     2
 10
51.60277067472225
 20
20.16355014758429
 40
1.218658
 50
2.806977999999998
 51
66.54578199999999
 73
     1
 72
     2
 10
50.99514567472249
 20
17.94393814758428
 40
3.511892
 50
71.872399
 51
120.405534
 73
     1
 72
     2
 10
50.37155267472225
 20
18.71875614758428
 40
1.306761
 50
92.962517
 51
152.003297
 73
     1
 97
        0
 75
     0
 76
     1
 52
315.0
 41
1.259843
 77
     0
 78
     1
 53
0.0
 43
-514.3362191172696
 44
31.91508404131445
 45
0.0
 46
4.0
 79
     0
 98
        1
 10
-514.3362191172696
 20
31.91508404131445
  0
ARC
  5
51EB
330
A
100
AcDbEntity
  8
CARTOUCHE
  6
CONTINUOUS
100
AcDbCircle
 10
51.60277088273017
 20
20.16355004131444
 30
0.0
 40
1.218658
100
AcDbArc
 50
2.806997000000158
 51
66.54578099999715
  0
LINE
  5
51EC
330
A
100
AcDbEntity
  8
CARTOUCHE
  6
CONTINUOUS
100
AcDbLine
 10
51.03616588273019
 20
17.53077104131445
 30
0.0
 11
52.81996588273011
 21
17.53077104131445
 31
0.0
  0
ARC
  5
51ED
330
A
100
AcDbEntity
  8
CARTOUCHE
  6
CONTINUOUS
100
AcDbCircle
 10
50.37155288273016
 20
18.71875604131444
 30
0.0
 40
1.306761
100
AcDbArc
 50
92.96251300000223
 51
152.0033240000001
  0
ARC
  5
51EE
330
A
100
AcDbEntity
  8
CARTOUCHE
  6
CONTINUOUS
100
AcDbCircle
 10
50.38506688273026
 20
19.37771104131446
 30
0.0
 40
0.6511239999999999
100
AcDbArc
 50
0.0
 51
97.1506829999997
  0
ARC
  5
51EF
330
A
100
AcDbEntity
  8
CARTOUCHE
  6
CONTINUOUS
100
AcDbCircle
 10
50.99514588273017
 20
17.94393804131446
 30
0.0
 40
3.511892
100
AcDbArc
 50
71.87239199999805
 51
120.4055569999985
  0
LINE
  5
51F0
330
A
100
AcDbEntity
  8
CARTOUCHE
  6
CONTINUOUS
100
AcDbLine
 10
46.5537158827301
 20
21.40707104131446
 30
0.0
 11
46.5537158827301
 21
17.53077104131445
 31
0.0
  0
LINE
  5
51F1
330
A
100
AcDbEntity
  8
CARTOUCHE
  6
CONTINUOUS
100
AcDbLine
 10
49.21771588273009
 20
17.53077104131445
 30
0.0
 11
49.21771588273009
 21
19.33217604131445
 31
0.0
  0
LINE
  5
51F2
330
A
100
AcDbEntity
  8
CARTOUCHE
  6
CONTINUOUS
100
AcDbLine
 10
47.42266588273014
 20
17.53077104131445
 30
0.0
 11
49.21771588273009
 21
17.53077104131445
 31
0.0
  0
LINE
  5
51F3
330
A
100
AcDbEntity
  8
CARTOUCHE
  6
CONTINUOUS
100
AcDbLine
 10
47.42266588273014
 20
21.40707104131446
 30
0.0
 11
47.42266588273014
 21
17.53077104131445
 31
0.0
  0
LINE
  5
51F4
330
A
100
AcDbEntity
  8
CARTOUCHE
  6
CONTINUOUS
100
AcDbLine
 10
49.21771588273009
 20
21.40707104131446
 30
0.0
 11
47.42266588273014
 21
21.40707104131446
 31
0.0
  0
LINE
  5
51F5
330
A
100
AcDbEntity
  8
CARTOUCHE
  6
CONTINUOUS
100
AcDbLine
 10
49.21771588273009
 20
20.97282104131446
 30
0.0
 11
49.21771588273009
 21
21.40707104131446
 31
0.0
  0
LINE
  5
51F6
330
A
100
AcDbEntity
  8
CARTOUCHE
  6
CONTINUOUS
100
AcDbLine
 10
51.03616588273019
 20
19.37771104131446
 30
0.0
 11
51.03616588273019
 21
17.53077104131445
 31
0.0
  0
HATCH
  5
51F7
330
A
100
AcDbEntity
  8
CARTOUCHE
  6
CONTINUOUS
100
AcDbHatch
 10
0.0
 20
0.0
 30
0.0
210
0.0
220
0.0
230
1.0
  2
ANSI31
 70
     0
 71
     0
 91
        1
 92
        1
 93
      154
 72
     1
 10
57.11926567472232
 20
21.21858114758429
 11
57.06438167472231
 21
21.26414214758428
 72
     1
 10
57.06438167472242
 20
21.26414214758428
 11
57.02109567472246
 21
21.29562914758428
 72
     1
 10
57.02109567472234
 20
21.29562914758428
 11
56.97588867472235
 21
21.32419514758428
 72
     1
 10
56.97588867472235
 20
21.32419514758428
 11
56.9130576747225
 21
21.35692014758428
 72
     1
 10
56.9130576747225
 20
21.35692014758428
 11
56.86415767472249
 21
21.37786014758428
 72
     1
 10
56.86415767472249
 20
21.37786014758428
 11
56.81415667472244
 21
21.39602614758428
 72
     1
 10
56.81415667472244
 20
21.39602614758428
 11
56.7281116747223
 21
21.42134714758428
 72
     1
 10
56.7281116747223
 20
21.42134714758428
 11
56.64079867472231
 21
21.44181414758429
 72
     1
 10
56.64079867472231
 20
21.44181414758429
 11
56.46372767472222
 21
21.47584114758429
 72
     1
 10
56.46372767472222
 20
21.47584114758429
 11
56.11160367472234
 21
21.53032014758429
 72
     1
 10
56.11160367472234
 20
21.53032014758429
 11
55.75745667472233
 21
21.55228814758429
 72
     1
 10
55.75745667472233
 20
21.55228814758429
 11
55.40081767472226
 21
21.54143614758428
 72
     1
 10
55.40081767472226
 20
21.54143614758428
 11
55.22327767472233
 21
21.52624414758429
 72
     1
 10
55.22327767472233
 20
21.52624414758429
 11
55.04716467472224
 21
21.50059914758429
 72
     1
 10
55.04716467472224
 20
21.50059914758429
 11
54.9081356747223
 21
21.4695511475843
 72
     1
 10
54.9081356747223
 20
21.46955114758428
 11
54.70401167472243
 21
21.40559614758428
 72
     1
 10
54.70401167472232
 20
21.40559614758428
 11
54.57159967472228
 21
21.35211914758428
 72
     1
 10
54.57159967472228
 20
21.35211914758428
 11
54.47494167472246
 21
21.30615514758428
 72
     1
 10
54.47494167472235
 20
21.30615514758428
 11
54.38106067472233
 21
21.25487714758429
 72
     1
 10
54.38106067472233
 20
21.25487714758429
 11
54.26101867472231
 21
21.17821814758428
 72
     1
 10
54.26101867472244
 20
21.17821814758428
 11
54.09199367472229
 21
21.04736514758428
 72
     1
 10
54.09199367472229
 20
21.04736514758428
 11
53.98668067472249
 21
20.95103514758429
 72
     1
 10
53.98668067472249
 20
20.95103514758429
 11
53.84042567472249
 21
20.79479114758429
 72
     1
 10
53.84042567472249
 20
20.79479114758429
 11
53.75118767472224
 21
20.68360814758428
 72
     1
 10
53.75118767472224
 20
20.68360814758428
 11
53.63153567472227
 21
20.50649614758428
 72
     1
 10
53.63153567472227
 20
20.50649614758428
 11
53.56255867472225
 21
20.38169714758428
 72
     1
 10
53.56255867472225
 20
20.38169714758428
 11
53.51683867472228
 21
20.28498714758428
 72
     1
 10
53.51683867472228
 20
20.28498714758428
 11
53.47640367472229
 21
20.18596914758429
 72
     1
 10
53.47640367472229
 20
20.18596914758429
 11
53.43081967472244
 21
20.05080914758428
 72
     1
 10
53.43081967472233
 20
20.05080914758428
 11
53.38021567472231
 21
19.8428761475843
 72
     1
 10
53.38021567472231
 20
19.8428761475843
 11
53.35837467472242
 21
19.70182714758428
 72
     1
 10
53.35837467472242
 20
19.70182714758428
 11
53.3487896747223
 21
19.59526514758429
 72
     1
 10
53.3487896747223
 20
19.59526514758429
 11
53.34556267472247
 21
19.48840714758428
 72
     1
 10
53.34556267472226
 20
19.48840714758428
 11
53.35152567472231
 21
19.34603214758428
 72
     1
 10
53.35152567472231
 20
19.34603214758428
 11
53.37978967472224
 21
19.13394314758428
 72
     1
 10
53.37978967472224
 20
19.13394314758428
 11
53.40956567472233
 21
18.99436014758428
 72
     1
 10
53.40956567472233
 20
18.99436014758428
 11
53.47068367472228
 21
18.78941414758428
 72
     1
 10
53.47068367472228
 20
18.78941414758428
 11
53.52298767472234
 21
18.65682114758429
 72
     1
 10
53.52298767472234
 20
18.65682114758429
 11
53.56840567472227
 21
18.56000314758428
 72
     1
 10
53.56840567472227
 20
18.56000314758428
 11
53.61913867472231
 21
18.46584014758428
 72
     1
 10
53.61913867472231
 20
18.46584014758428
 11
53.69508367472224
 21
18.34497914758428
 72
     1
 10
53.69508367472224
 20
18.34497914758428
 11
53.75811367472248
 21
18.25845514758428
 72
     1
 10
53.75811367472248
 20
18.25845514758428
 11
53.82623267472229
 21
18.17592714758428
 72
     1
 10
53.82623267472229
 20
18.17592714758428
 11
53.92450967472246
 21
18.07275714758428
 72
     1
 10
53.92450967472234
 20
18.07275714758428
 11
54.08576767472232
 21
17.93244414758428
 72
     1
 10
54.08576767472232
 20
17.93244414758428
 11
54.20097467472226
 21
17.84825414758429
 72
     1
 10
54.20097467472226
 20
17.84825414758429
 11
54.38322567472233
 21
17.73605614758428
 72
     1
 10
54.38322567472233
 20
17.73605614758428
 11
54.51002767472232
 21
17.67087314758428
 72
     1
 10
54.51002767472232
 20
17.67087314758428
 11
54.60778067472233
 21
17.62762014758428
 72
     1
 10
54.60778067472233
 20
17.62762014758428
 11
54.7077126747223
 21
17.58980214758428
 72
     1
 10
54.7077126747223
 20
17.58980214758428
 11
54.84414867472231
 21
17.54841414758429
 72
     1
 10
54.84414867472231
 20
17.54841414758429
 11
55.05355667472224
 21
17.50475914758428
 72
     1
 10
55.05355667472224
 20
17.50475914758428
 11
55.23041967472249
 21
17.48341114758428
 72
     1
 10
55.23041967472249
 20
17.48341114758428
 11
55.40824667472225
 21
17.47241814758428
 72
     1
 10
55.40824667472225
 20
17.47241814758428
 11
55.76416267472235
 21
17.46957114758429
 72
     1
 10
55.76416267472235
 20
17.46957114758429
 11
56.12061267472235
 21
17.48477914758428
 72
     1
 10
56.12061267472235
 20
17.48477914758428
 11
56.26233967472227
 21
17.49867714758428
 72
     1
 10
56.26233967472227
 20
17.49867714758428
 11
56.47301367472243
 21
17.53456114758428
 72
     1
 10
56.47301367472231
 20
17.53456114758428
 11
56.61059567472229
 21
17.57169314758428
 72
     1
 10
56.61059567472229
 20
17.57169314758428
 11
56.74517567472229
 21
17.61983114758429
 72
     1
 10
56.74517567472229
 20
17.61983114758429
 11
56.87559067472228
 21
17.67849914758428
 72
     1
 10
56.87559067472228
 20
17.67849914758428
 11
57.00067567472228
 21
17.74722114758428
 72
     1
 10
57.00067567472228
 20
17.74722114758428
 11
57.11926567472243
 21
17.82552114758429
 72
     1
 10
57.11926567472232
 20
17.82552114758429
 11
57.11926567472232
 21
17.51952114758428
 72
     1
 10
57.11926567472232
 20
17.51952114758428
 11
58.91431567472228
 21
17.51952114758428
 72
     1
 10
58.91431567472228
 20
17.51952114758428
 11
58.91431567472228
 21
22.72242114758429
 72
     1
 10
58.91431567472228
 20
22.72242114758429
 11
57.11926567472232
 21
22.72242114758429
 72
     1
 10
57.11926567472232
 20
22.72242114758429
 11
57.11926567472232
 21
21.21858114758429
 72
     1
 10
57.11926567472232
 20
19.65792114758428
 11
57.11296667472232
 21
19.69610614758428
 72
     1
 10
57.11296667472243
 20
19.69610614758428
 11
57.10444667472234
 21
19.73393514758428
 72
     1
 10
57.10444667472234
 20
19.73393514758428
 11
57.09371467472249
 21
19.77124214758428
 72
     1
 10
57.09371467472249
 20
19.77124214758428
 11
57.08078367472229
 21
19.80786114758428
 72
     1
 10
57.08078367472229
 20
19.80786114758428
 11
57.06566167472249
 21
19.84362714758429
 72
     1
 10
57.06566167472249
 20
19.84362714758429
 11
57.04836467472228
 21
19.87840114758428
 72
     1
 10
57.04836467472228
 20
19.87840114758428
 11
57.02898367472243
 21
19.91204714758429
 72
     1
 10
57.02898367472243
 20
19.91204714758429
 11
57.00761367472228
 21
19.9444581475843
 72
     1
 10
57.00761367472228
 20
19.94445814758428
 11
56.98435267472246
 21
19.97552514758428
 72
     1
 10
56.98435267472234
 20
19.97552514758428
 11
56.95929667472228
 21
20.00514114758428
 72
     1
 10
56.95929667472228
 20
20.00514114758428
 11
56.93255067472228
 21
20.03321714758429
 72
     1
 10
56.93255067472228
 20
20.03321714758429
 11
56.90425567472243
 21
20.05973614758429
 72
     1
 10
56.90425567472243
 20
20.05973614758429
 11
56.85923967472229
 21
20.09659714758428
 72
     1
 10
56.85923967472229
 20
20.09659714758428
 11
56.81158167472244
 21
20.12996514758428
 72
     1
 10
56.81158167472233
 20
20.12996514758428
 11
56.74515067472225
 21
20.16893114758429
 72
     1
 10
56.74515067472225
 20
20.16893114758429
 11
56.64034267472243
 21
20.21738214758428
 72
     1
 10
56.64034267472243
 20
20.21738214758428
 11
56.45686867472227
 21
20.27891714758428
 72
     1
 10
56.45686867472227
 20
20.27891714758428
 11
56.26903767472242
 21
20.32548414758428
 72
     1
 10
56.26903767472231
 20
20.32548414758428
 11
56.19310967472235
 21
20.33739714758428
 72
     1
 10
56.19310967472235
 20
20.33739714758428
 11
56.13573467472225
 21
20.34286114758428
 72
     1
 10
56.13573467472225
 20
20.34286114758428
 11
56.07817567472228
 21
20.34486214758428
 72
     1
 10
56.07817567472228
 20
20.34486214758428
 11
56.00094867472228
 21
20.3416181475843
 72
     1
 10
56.00094867472228
 20
20.3416181475843
 11
55.9433026747223
 21
20.33494614758428
 72
     1
 10
55.9433026747223
 20
20.33494614758428
 11
55.88612567472228
 21
20.32492914758428
 72
     1
 10
55.88612567472228
 20
20.32492914758428
 11
55.81053367472225
 21
20.30662714758428
 72
     1
 10
55.81053367472225
 20
20.30662714758428
 11
55.75483567472224
 21
20.28936614758428
 72
     1
 10
55.75483567472224
 20
20.28936614758428
 11
55.70014367472231
 21
20.26915614758428
 72
     1
 10
55.70014367472231
 20
20.26915614758428
 11
55.62936567472228
 21
20.23784114758429
 72
     1
 10
55.62936567472228
 20
20.23784114758429
 11
55.57791867472224
 21
20.21092214758428
 72
     1
 10
55.57791867472224
 20
20.21092214758428
 11
55.52812067472235
 21
20.18097714758428
 72
     1
 10
55.52812067472235
 20
20.18097714758428
 11
55.46518367472231
 21
20.13665714758428
 72
     1
 10
55.46518367472231
 20
20.13665714758428
 11
55.40611467472229
 21
20.08709014758428
 72
     1
 10
55.40611467472229
 20
20.08709014758428
 11
55.35151167472225
 21
20.03245314758428
 72
     1
 10
55.35151167472225
 20
20.03245314758428
 11
55.30197267472249
 21
19.97292414758428
 72
     1
 10
55.30197267472249
 20
19.97292414758428
 11
55.25809567472244
 21
19.90868014758429
 72
     1
 10
55.25809567472244
 20
19.90868014758429
 11
55.22056067472249
 21
19.84007114758428
 72
     1
 10
55.22056067472249
 20
19.84007114758428
 11
55.19026367472225
 21
19.76792314758428
 72
     1
 10
55.19026367472225
 20
19.76792314758428
 11
55.17813867472227
 21
19.73083214758428
 72
     1
 10
55.17813867472227
 20
19.73083214758428
 11
55.16819167472249
 21
19.69322914758428
 72
     1
 10
55.16819167472249
 20
19.69322914758428
 11
55.16054767472224
 21
19.65523814758428
 72
     1
 10
55.16054767472224
 20
19.65523814758428
 11
55.15532867472234
 21
19.61698314758429
 72
     1
 10
55.15532867472234
 20
19.61698314758429
 11
55.15265967472226
 21
19.57858914758428
 72
     1
 10
55.15265967472226
 20
19.57858914758428
 11
55.15266167472225
 21
19.54018014758428
 72
     1
 10
55.15266167472225
 20
19.54018014758428
 11
55.1554356747223
 21
19.50161714758428
 72
     1
 10
55.1554356747223
 20
19.50161714758428
 11
55.16085367472249
 21
19.46329514758428
 72
     1
 10
55.16085367472249
 20
19.46329514758428
 11
55.16872367472227
 21
19.42534414758428
 72
     1
 10
55.16872367472227
 20
19.42534414758428
 11
55.17885667472228
 21
19.38789414758428
 72
     1
 10
55.17885667472228
 20
19.38789414758428
 11
55.19106067472228
 21
19.35107714758428
 72
     1
 10
55.19106067472228
 20
19.35107714758428
 11
55.22138767472235
 21
19.27910214758428
 72
     1
 10
55.22138767472235
 20
19.27910214758428
 11
55.24879067472227
 21
19.22738314758428
 72
     1
 10
55.24879067472227
 20
19.22738314758428
 11
55.2798966747223
 21
19.17777714758428
 72
     1
 10
55.2798966747223
 20
19.17777714758428
 11
55.32632867472226
 21
19.11579014758428
 72
     1
 10
55.32632867472226
 20
19.11579014758428
 11
55.36497767472224
 21
19.07244914758428
 72
     1
 10
55.36497767472224
 20
19.07244914758428
 11
55.40680867472224
 21
19.03223114758428
 72
     1
 10
55.40680867472224
 20
19.03223114758428
 11
55.46692867472234
 21
18.98416414758428
 72
     1
 10
55.46692867472234
 20
18.98416414758428
 11
55.51495467472228
 21
18.95203214758428
 72
     1
 10
55.51495467472228
 20
18.95203214758428
 11
55.56499967472245
 21
18.92315814758428
 72
     1
 10
55.56499967472234
 20
18.92315814758428
 11
55.63479067472224
 21
18.88919614758428
 72
     1
 10
55.63479067472224
 20
18.88919614758428
 11
55.74339067472249
 21
18.84725814758428
 72
     1
 10
55.74339067472249
 20
18.84725814758428
 11
55.8174056747223
 21
18.82437614758428
 72
     1
 10
55.8174056747223
 20
18.82437614758428
 11
55.93048067472228
 21
18.79784514758428
 72
     1
 10
55.93048067472228
 20
18.79784514758428
 11
56.00665667472231
 21
18.78592214758428
 72
     1
 10
56.00665667472231
 20
18.78592214758428
 11
56.12194167472228
 21
18.77732314758428
 72
     1
 10
56.12194167472228
 20
18.77732314758428
 11
56.19920567472229
 21
18.77818614758428
 72
     1
 10
56.19920567472229
 20
18.77818614758428
 11
56.31464467472245
 21
18.78957714758429
 72
     1
 10
56.31464467472233
 20
18.78957714758429
 11
56.39053267472228
 21
18.80380414758428
 72
     1
 10
56.39053267472228
 20
18.80380414758428
 11
56.46537367472229
 21
18.82323114758428
 72
     1
 10
56.46537367472229
 20
18.82323114758428
 11
56.53874467472224
 21
18.84772414758428
 72
     1
 10
56.53874467472224
 20
18.84772414758428
 11
56.61021967472243
 21
18.87715014758428
 72
     1
 10
56.61021967472243
 20
18.87715014758428
 11
56.67937667472243
 21
18.91137514758428
 72
     1
 10
56.67937667472235
 20
18.91137514758428
 11
56.74624167472234
 21
18.95052314758428
 72
     1
 10
56.74624167472234
 20
18.95052314758428
 11
56.8409526747223
 21
19.01780314758428
 72
     1
 10
56.8409526747223
 20
19.01780314758428
 11
56.89988867472232
 21
19.06827614758428
 72
     1
 10
56.89988867472243
 20
19.06827614758428
 11
56.94106767472248
 21
19.10934114758428
 72
     1
 10
56.94106767472248
 20
19.10934114758428
 11
56.97893967472225
 21
19.15341814758428
 72
     1
 10
56.97893967472225
 20
19.15341814758428
 11
57.00197967472229
 21
19.1844591475843
 72
     1
 10
57.00197967472229
 20
19.1844591475843
 11
57.02319267472228
 21
19.2168181475843
 72
     1
 10
57.02319267472228
 20
19.21681814758428
 11
57.04249467472243
 21
19.25037814758429
 72
     1
 10
57.04249467472232
 20
19.25037814758429
 11
57.05980267472227
 21
19.28502114758428
 72
     1
 10
57.05980267472227
 20
19.28502114758428
 11
57.07503167472225
 21
19.32063114758428
 72
     1
 10
57.07503167472225
 20
19.32063114758428
 11
57.08815367472244
 21
19.35720214758428
 72
     1
 10
57.08815367472244
 20
19.35720214758428
 11
57.09911967472248
 21
19.39447414758428
 72
     1
 10
57.09911967472226
 20
19.39447414758428
 11
57.10794767472226
 21
19.43229614758428
 72
     1
 10
57.10794767472226
 20
19.43229614758428
 11
57.11465667472225
 21
19.47051214758428
 72
     1
 10
57.11465667472225
 20
19.47051214758428
 11
57.11926567472232
 21
19.50897114758428
 72
     1
 10
57.11926567472232
 20
19.50897114758428
 11
57.11926567472232
 21
19.65792114758428
 97
        0
 75
     0
 76
     1
 52
315.0
 41
1.259843
 77
     0
 78
     1
 53
0.0
 43
-514.3362191172696
 44
31.91508404131445
 45
0.0
 46
4.0
 79
     0
 98
        1
 10
-514.3362191172696
 20
31.91508404131445
  0
LINE
  5
51F8
330
A
100
AcDbEntity
  8
CARTOUCHE
  6
CONTINUOUS
100
AcDbLine
 10
57.11926588273013
 20
17.51952104131444
 30
0.0
 11
57.11926588273013
 21
17.82552104131446
 31
0.0
  0
LINE
  5
51F9
330
A
100
AcDbEntity
  8
CARTOUCHE
  6
CONTINUOUS
100
AcDbLine
 10
57.11926588273013
 20
19.50897104131445
 30
0.0
 11
57.11926588273013
 21
19.65792104131446
 31
0.0
  0
SPLINE
  5
51FA
330
A
100
AcDbEntity
  8
CARTOUCHE
  6
CONTINUOUS
100
AcDbSpline
210
0.0
220
0.0
230
1.0
 70
     8
 71
     3
 72
    32
 73
    28
 74
    26
 42
0.0000000001
 43
0.0000000001
 44
0.000001
 12
-0.134108993271187
 22
0.9909665876929397
 32
0.0
 13
0.0921211275964532
 23
0.9957478083583001
 33
0.0
 40
0.0
 40
0.0
 40
0.0
 40
0.0
 40
0.1929417000059417
 40
0.385886002187403
 40
0.5788278186578761
 40
0.7717660881769357
 40
0.9647057414615945
 40
1.15764655494501
 40
1.350584760884527
 40
1.543523858803651
 40
1.736468012364912
 40
1.92940637601258
 40
2.315236575975166
 40
2.70099183625082
 40
2.893945905685628
 40
3.086891500294768
 40
3.279831070101764
 40
3.472768464172048
 40
3.665710755763085
 40
3.85865139281407
 40
4.051590391770168
 40
4.244531298888047
 40
4.630394313786911
 40
4.823335345994054
 40
5.016275838958817
 40
5.209216372248058
 40
5.402158865530689
 40
5.402158865530689
 40
5.402158865530689
 40
5.402158865530689
 10
57.11926565093495
 20
19.65792075470098
 30
0.0
 10
57.11064057855235
 20
19.72165368072716
 30
0.0
 10
57.07485648076183
 20
19.84753601187865
 30
0.0
 10
56.96688905853922
 20
20.01100194473893
 30
0.0
 10
56.81658952938285
 20
20.13571630959777
 30
0.0
 10
56.64257409772893
 20
20.22181871681544
 30
0.0
 10
56.45836967480839
 20
20.28001456829942
 30
0.0
 10
56.27180439352432
 20
20.32969623251412
 30
0.0
 10
56.07885419301005
 20
20.35216754628068
 30
0.0
 10
55.8856323284759
 20
20.33079425682342
 30
0.0
 10
55.69992592351535
 20
20.27515321829417
 30
0.0
 10
55.4689629617333
 20
20.15893023009545
 30
0.0
 10
55.23165049567949
 20
19.92785802846326
 30
0.0
 10
55.12655413888092
 20
19.60085506632852
 30
0.0
 10
55.1841716897247
 20
19.34542910563956
 30
0.0
 10
55.27408561671574
 20
19.17298447499891
 30
0.0
 10
55.40156733426613
 20
19.02532302429753
 30
0.0
 10
55.5633492820817
 20
18.91658606667813
 30
0.0
 10
55.74260079513638
 20
18.8432386977387
 30
0.0
 10
55.92943123810774
 20
18.79304920453437
 30
0.0
 10
56.12216572166926
 20
18.77171060559097
 30
0.0
 10
56.37988442145202
 20
18.78810256391785
 30
0.0
 10
56.62978380701766
 20
18.87165710354673
 30
0.0
 10
56.84505390478272
 20
19.01386774218151
 30
0.0
 10
56.98649791312766
 20
19.14778509712147
 30
0.0
 10
57.08423973987049
 20
19.31758724542028
 30
0.0
 10
57.11334095758722
 20
19.44493006642585
 30
0.0
 10
57.11926565093471
 20
19.50897075470098
 30
0.0
 11
57.11926565093495
 21
19.65792075470098
 31
0.0
 11
57.06580737171202
 21
19.84330947177832
 31
0.0
 11
56.9598320581307
 21
20.00454444526737
 31
0.0
 11
56.81263472594617
 21
20.12928208690105
 31
0.0
 11
56.64087534650821
 21
20.21716773702242
 31
0.0
 11
56.45797559072775
 21
20.2785956493401
 31
0.0
 11
56.27073838082754
 21
20.32516156766907
 31
0.0
 11
56.0788084244474
 21
20.34486038259152
 31
0.0
 11
55.88688559700506
 21
20.32508347548508
 31
0.0
 11
55.70200200016711
 21
20.26989736643038
 31
0.0
 11
55.530116454687
 21
20.18225845754761
 31
0.0
 11
55.2580786094203
 21
19.90865216947175
 31
0.0
 11
55.15276281079207
 21
19.53755140760033
 31
0.0
 11
55.19195404548009
 21
19.34861930726623
 31
0.0
 11
55.28034754124894
 21
19.1771124310371
 31
0.0
 11
55.4072836790683
 21
19.03180961728379
 31
0.0
 11
55.56625839802894
 21
18.92248493703144
 31
0.0
 11
55.74386341958723
 21
18.84709800102944
 31
0.0
 11
55.93041488448374
 21
18.79785731398096
 31
0.0
 11
56.12225728882435
 21
18.77731582009592
 31
0.0
 11
56.31480663655146
 21
18.78960176588694
 31
0.0
 11
56.68071051163053
 21
18.91209511428055
 31
0.0
 11
56.84171772005789
 21
19.01841029577345
 31
0.0
 11
56.9792132736353
 21
19.15376537200053
 31
0.0
 11
57.07522361954625
 21
19.32112140860989
 31
0.0
 11
57.11926565093471
 21
19.50897075470098
 31
0.0
  0
SPLINE
  5
51FB
330
A
100
AcDbEntity
  8
CARTOUCHE
  6
CONTINUOUS
100
AcDbSpline
210
0.0
220
0.0
230
1.0
 70
     8
 71
     3
 72
    36
 73
    32
 74
    30
 42
0.0000000001
 43
0.0000000001
 44
0.000001
 12
-0.7486966541785744
 22
0.6629127544570314
 32
0.0
 13
0.8109899424984657
 23
0.5850600936368293
 33
0.0
 40
0.0
 40
0.0
 40
0.0
 40
0.0
 40
0.1780452274969013
 40
0.3560877368949582
 40
0.5341342068234063
 40
0.7121796397817077
 40
1.068272485405866
 40
1.424362065622543
 40
1.780451368035623
 40
2.136547803889943
 40
2.49263391500111
 40
2.848730808850745
 40
3.204818200237179
 40
3.560910569289988
 40
3.917003179831337
 40
4.273094319389273
 40
4.629183609743245
 40
4.985281207724137
 40
5.341365789049549
 40
5.697461870205859
 40
6.053551079961883
 40
6.409645582314518
 40
6.765733947827917
 40
7.121824762951122
 40
7.477920130638656
 40
7.834009176229206
 40
8.190100012311441
 40
8.546191599297211
 40
8.902283648164397
 40
9.258369457089465
 40
9.970493285481587
 40
9.970493285481587
 40
9.970493285481587
 40
9.970493285481587
 10
57.11926565093495
 20
21.21858134471611
 30
0.0
 10
57.07483169556183
 20
21.25792416210874
 30
0.0
 10
56.97964444776308
 20
21.33062235079702
 30
0.0
 10
56.81449779350607
 20
21.40101179019336
 30
0.0
 10
56.64132461914793
 20
21.44349321972534
 30
0.0
 10
56.40785662138476
 20
21.48635517111503
 30
0.0
 10
56.11511616892741
 20
21.53641860650766
 30
0.0
 10
55.75883352061818
 20
21.5580557470163
 30
0.0
 10
55.40288567964961
 20
21.54498432064272
 30
0.0
 10
55.04737501123674
 20
21.51147173786971
 30
0.0
 10
54.70275220624797
 20
21.41497979094564
 30
0.0
 10
54.37711099159328
 20
21.26636685497723
 30
0.0
 10
54.08723490597025
 20
21.05586013780054
 30
0.0
 10
53.83535821111709
 20
20.80247488916415
 30
0.0
 10
53.62350580706386
 20
20.5142250771507
 30
0.0
 10
53.46724377617551
 20
20.19189784417133
 30
0.0
 10
53.37102841534028
 20
19.84744325277372
 30
0.0
 10
53.33289838817346
 20
19.49105764863556
 30
0.0
 10
53.37075881095184
 20
19.1349391553455
 30
0.0
 10
53.45990259343274
 20
18.78886119674596
 30
0.0
 10
53.60785545913626
 20
18.46273806996116
 30
0.0
 10
53.81498300964286
 20
18.17007140761236
 30
0.0
 10
54.07756381638044
 20
17.92628518380534
 30
0.0
 10
54.37604737042268
 20
17.72988991915296
 30
0.0
 10
54.70097649734793
 20
17.57972403846745
 30
0.0
 10
55.0492980855281
 20
17.49593053552031
 30
0.0
 10
55.40505702409447
 20
17.46797473387867
 30
0.0
 10
55.76122048235503
 20
17.46742670811341
 30
0.0
 10
56.1172771637431
 20
17.47945743466278
 30
0.0
 10
56.5896048397985
 20
17.53582826109171
 30
0.0
 10
56.92675723005465
 20
17.68664234346094
 30
0.0
 10
57.11926565093449
 20
17.82552075470098
 30
0.0
 11
57.11926565093495
 21
21.21858134471611
 31
0.0
 11
56.97591520081255
 21
21.32417952184038
 31
0.0
 11
56.81316039654848
 21
21.39635962772799
 31
0.0
 11
56.64100231062115
 21
21.44177029128448
 31
0.0
 11
56.46616268754645
 21
21.47540492925221
 31
0.0
 11
56.11428168351062
 21
21.53001195318502
 31
0.0
 11
55.75888844111943
 21
21.55227085395238
 31
0.0
 11
55.40295972658396
 21
21.54157753098303
 31
0.0
 11
55.04918568359471
 21
21.50097466803005
 31
0.0
 11
54.70591771518048
 21
21.40629408954196
 31
0.0
 11
54.38306842825205
 21
21.25604984841841
 31
0.0
 11
54.09356819209233
 21
21.04871473849522
 31
0.0
 11
53.84202813545903
 21
20.79666437695301
 31
0.0
 11
53.63276953675563
 21
20.50854495807317
 31
0.0
 11
53.47725038842952
 21
20.18820964594421
 31
0.0
 11
53.38070880918258
 21
19.84545707087453
 31
0.0
 11
53.34556244518058
 21
19.49109813388464
 31
0.0
 11
53.37930441801757
 21
19.13661578811395
 31
0.0
 11
53.46970372473833
 21
18.79218522955024
 31
0.0
 11
53.61771625291249
 21
18.46831513003473
 31
0.0
 11
53.82422554361539
 21
18.17821647605301
 31
0.0
 11
54.08354592444323
 21
17.93418393717742
 31
0.0
 11
54.38045265540278
 21
17.73759535076314
 31
0.0
 11
54.70487627261547
 21
17.59078515928742
 31
0.0
 11
55.05053628894848
 21
17.50523659986991
 31
0.0
 11
55.40512304661479
 21
17.4725425194058
 31
0.0
 11
55.76120181919577
 21
17.46952305177033
 31
0.0
 11
56.11697880813199
 21
17.48449901712155
 31
0.0
 11
56.46963551029955
 21
17.53379762524175
 31
0.0
 11
57.11926565093449
 21
17.82552075470098
 31
0.0
  0
LINE
  5
51FC
330
A
100
AcDbEntity
  8
CARTOUCHE
  6
CONTINUOUS
100
AcDbLine
 10
58.91431588273018
 20
17.51952104131444
 30
0.0
 11
57.11926588273013
 21
17.51952104131444
 31
0.0
  0
LINE
  5
51FD
330
A
100
AcDbEntity
  8
CARTOUCHE
  6
CONTINUOUS
100
AcDbLine
 10
52.81996588273011
 20
17.53077104131445
 30
0.0
 11
52.81996588273011
 21
20.22323004131445
 31
0.0
  0
LINE
  5
51FE
330
A
100
AcDbEntity
  8
CARTOUCHE
  6
CONTINUOUS
100
AcDbLine
 10
44.73571588273012
 20
22.73367104131446
 30
0.0
 11
46.5537158827301
 21
22.73367104131446
 31
0.0
  0
ARC
  5
51FF
330
A
100
AcDbEntity
  8
CARTOUCHE
  6
CONTINUOUS
100
AcDbCircle
 10
34.82739388273012
 20
20.82409404131446
 30
0.0
 40
3.758726999999998
100
AcDbArc
 50
82.92015399999781
 51
97.425676
  0
LINE
  5
5200
330
A
100
AcDbEntity
  8
CARTOUCHE
  6
CONTINUOUS
100
AcDbLine
 10
36.25096588273015
 20
22.40202104131444
 30
0.0
 11
36.25096588273015
 21
24.30281104131446
 31
0.0
  0
LINE
  5
5201
330
A
100
AcDbEntity
  8
CARTOUCHE
  6
CONTINUOUS
100
AcDbLine
 10
37.28139888273017
 20
22.40202104131444
 30
0.0
 11
36.25096588273015
 21
22.40202104131444
 31
0.0
  0
LINE
  5
5202
330
A
100
AcDbEntity
  8
CARTOUCHE
  6
CONTINUOUS
100
AcDbLine
 10
44.01526588273009
 20
22.73367104131446
 30
0.0
 11
42.51721588273015
 21
22.73367104131446
 31
0.0
  0
LINE
  5
5203
330
A
100
AcDbEntity
  8
CARTOUCHE
  6
CONTINUOUS
100
AcDbLine
 10
57.11926588273013
 20
22.72242104131446
 30
0.0
 11
58.91431588273018
 21
22.72242104131446
 31
0.0
  0
HATCH
  5
5204
330
A
100
AcDbEntity
  8
CARTOUCHE
  6
CONTINUOUS
100
AcDbHatch
 10
0.0
 20
0.0
 30
0.0
210
0.0
220
0.0
230
1.0
  2
ANSI31
 70
     0
 71
     0
 91
        1
 92
        1
 93
       78
 72
     1
 10
65.66071567472249
 20
21.40707114758428
 11
65.66071567472249
 21
17.53077114758428
 72
     1
 10
65.66071567472249
 20
17.53077114758428
 11
67.38736567472233
 21
17.53077114758428
 72
     1
 10
67.38736567472233
 20
17.53077114758428
 11
67.38736567472233
 21
19.6808711475843
 72
     1
 10
67.38736567472233
 20
19.68087114758428
 11
67.39123067472224
 21
19.72424014758429
 72
     1
 10
67.39123067472224
 20
19.72424014758429
 11
67.39868867472228
 21
19.76726314758428
 72
     1
 10
67.39868867472228
 20
19.76726314758428
 11
67.4096216747223
 21
19.80966814758428
 72
     1
 10
67.4096216747223
 20
19.80966814758428
 11
67.42391467472225
 21
19.8511811475843
 72
     1
 10
67.42391467472225
 20
19.8511811475843
 11
67.44144967472244
 21
19.89152814758428
 72
     1
 10
67.44144967472244
 20
19.89152814758428
 11
67.46212867472229
 21
19.93043214758428
 72
     1
 10
67.46212867472229
 20
19.93043214758428
 11
67.4858646747225
 21
19.96749114758428
 72
     1
 10
67.48586467472228
 20
19.96749114758428
 11
67.51258367472224
 21
20.00230114758428
 72
     1
 10
67.51258367472224
 20
20.00230114758428
 11
67.54221567472234
 21
20.03445714758429
 72
     1
 10
67.54221567472234
 20
20.03445714758429
 11
67.57468567472233
 21
20.06355514758428
 72
     1
 10
67.57468567472233
 20
20.06355514758428
 11
67.60985167472222
 21
20.08926414758428
 72
     1
 10
67.60985167472234
 20
20.08926414758428
 11
67.64736867472243
 21
20.11161014758428
 72
     1
 10
67.64736867472243
 20
20.11161014758428
 11
67.68682567472229
 21
20.13068914758429
 72
     1
 10
67.68682567472229
 20
20.13068914758429
 11
67.72780967472226
 21
20.14659714758428
 72
     1
 10
67.72780967472249
 20
20.14659714758428
 11
67.76990867472227
 21
20.15943214758428
 72
     1
 10
67.76990867472227
 20
20.15943214758428
 11
67.81319767472234
 21
20.1693321475843
 72
     1
 10
67.81319767472234
 20
20.1693321475843
 11
67.8569836747223
 21
20.17602114758428
 72
     1
 10
67.8569836747223
 20
20.17602114758428
 11
67.90104967472235
 21
20.17932614758428
 72
     1
 10
67.90104967472235
 20
20.17932614758428
 11
67.94517567472222
 21
20.1790781475843
 72
     1
 10
67.94517567472222
 20
20.1790781475843
 11
67.9891416747223
 21
20.17510514758428
 72
     1
 10
67.9891416747223
 20
20.17510514758428
 11
68.03206167472229
 21
20.16741314758428
 72
     1
 10
68.03206167472229
 20
20.16741314758428
 11
68.07421367472227
 21
20.15597114758429
 72
     1
 10
68.07421367472227
 20
20.15597114758429
 11
68.11519867472225
 21
20.14081314758429
 72
     1
 10
68.11519867472225
 20
20.14081314758429
 11
68.15461567472244
 21
20.1219701475843
 72
     1
 10
68.15461567472244
 20
20.12197014758429
 11
68.19206367472247
 21
20.09947414758428
 72
     1
 10
68.19206367472225
 20
20.09947414758428
 11
68.22724667472243
 21
20.07331914758429
 72
     1
 10
68.22724667472243
 20
20.07331914758429
 11
68.25968967472249
 21
20.04379614758428
 72
     1
 10
68.25968967472249
 20
20.04379614758428
 11
68.2890336747223
 21
20.01117614758428
 72
     1
 10
68.2890336747223
 20
20.01117614758428
 11
68.31492367472231
 21
19.97573114758428
 72
     1
 10
68.31492367472231
 20
19.97573114758428
 11
68.33699967472226
 21
19.93773314758429
 72
     1
 10
68.33699967472226
 20
19.93773314758429
 11
68.35487167472229
 21
19.89768814758428
 72
     1
 10
68.35487167472229
 20
19.89768814758428
 11
68.36847467472228
 21
19.8559541475843
 72
     1
 10
68.36847467472228
 20
19.8559541475843
 11
68.37767267472225
 21
19.81310014758428
 72
     1
 10
68.37767267472225
 20
19.81310014758428
 11
68.38233167472231
 21
19.76969914758428
 72
     1
 10
68.38233167472231
 20
19.76969914758428
 11
68.38291667472231
 21
19.74797114758428
 72
     1
 10
68.38291667472231
 20
19.74797114758428
 11
68.38231567472224
 21
19.72632114758428
 72
     1
 10
68.38231567472224
 20
19.72632114758428
 11
68.38231567472224
 21
19.48647114758428
 72
     1
 10
68.38231567472224
 20
19.48647114758428
 11
70.21156567472224
 21
19.48647114758428
 72
     1
 10
70.21156567472224
 20
19.48647114758428
 11
70.22822267472225
 21
19.64057814758429
 72
     1
 10
70.22822267472225
 20
19.64057814758429
 11
70.23577667472228
 21
19.79544114758428
 72
     1
 10
70.23577667472228
 20
19.79544114758428
 11
70.2339656747223
 21
19.95059814758428
 72
     1
 10
70.2339656747223
 20
19.95059814758428
 11
70.22339067472228
 21
20.10539314758428
 72
     1
 10
70.22339067472228
 20
20.10539314758428
 11
70.2046506747223
 21
20.25964914758428
 72
     1
 10
70.2046506747223
 20
20.25964914758428
 11
70.17764267472228
 21
20.41277414758428
 72
     1
 10
70.17764267472228
 20
20.41277414758428
 11
70.14961667472244
 21
20.53374914758428
 72
     1
 10
70.14961667472244
 20
20.53374914758428
 11
70.12366267472248
 21
20.62312214758428
 72
     1
 10
70.12366267472225
 20
20.62312214758428
 11
70.09242267472234
 21
20.71072614758429
 72
     1
 10
70.09242267472234
 20
20.71072614758429
 11
70.0412416747223
 21
20.82392714758428
 72
     1
 10
70.0412416747223
 20
20.82392714758428
 11
69.99560967472234
 21
20.90529214758428
 72
     1
 10
69.99560967472234
 20
20.90529214758428
 11
69.9437996747223
 21
20.98297714758428
 72
     1
 10
69.9437996747223
 20
20.98297714758428
 11
69.90576067472227
 21
21.03252514758428
 72
     1
 10
69.90576067472227
 20
21.03252514758428
 11
69.86502967472232
 21
21.07988514758428
 72
     1
 10
69.86502967472232
 20
21.07988514758428
 11
69.82165967472224
 21
21.12477414758428
 72
     1
 10
69.82165967472224
 20
21.12477414758428
 11
69.77570567472231
 21
21.16690714758429
 72
     1
 10
69.77570567472231
 20
21.16690714758429
 11
69.72721867472228
 21
21.2060031475843
 72
     1
 10
69.72721867472228
 20
21.20600314758428
 11
69.67658967472243
 21
21.24165814758428
 72
     1
 10
69.67658967472243
 20
21.24165814758428
 11
69.62382967472229
 21
21.27417414758428
 72
     1
 10
69.62382967472229
 20
21.27417414758428
 11
69.54139967472247
 21
21.31738014758429
 72
     1
 10
69.54139967472224
 20
21.31738014758429
 11
69.45598467472234
 21
21.35434114758429
 72
     1
 10
69.45598467472234
 20
21.35434114758429
 11
69.33802767472228
 21
21.39521114758428
 72
     1
 10
69.33802767472228
 20
21.39521114758428
 11
69.15662267472225
 21
21.44154914758428
 72
     1
 10
69.15662267472225
 20
21.44154914758428
 11
69.0347136747223
 21
21.46475214758428
 72
     1
 10
69.0347136747223
 20
21.46475214758428
 11
68.85012867472233
 21
21.48649814758428
 72
     1
 10
68.85012867472233
 20
21.48649814758428
 11
68.72624667472234
 21
21.49049314758429
 72
     1
 10
68.72624667472234
 20
21.49049314758429
 11
68.54031067472249
 21
21.48238014758429
 72
     1
 10
68.54031067472249
 20
21.48238014758429
 11
68.3856686747223
 21
21.46495114758428
 72
     1
 10
68.3856686747223
 20
21.46495114758428
 11
68.23245867472246
 21
21.43815914758428
 72
     1
 10
68.23245867472222
 20
21.43815914758428
 11
68.11154767472226
 21
21.40981214758428
 72
     1
 10
68.11154767472226
 20
21.40981214758428
 11
67.93354167472227
 21
21.35470714758429
 72
     1
 10
67.93354167472227
 20
21.35470714758429
 11
67.81817667472228
 21
21.30919514758428
 72
     1
 10
67.81817667472228
 20
21.30919514758428
 11
67.70555967472228
 21
21.25687514758428
 72
     1
 10
67.70555967472228
 20
21.25687514758428
 11
67.59600667472227
 21
21.19825714758428
 72
     1
 10
67.59600667472227
 20
21.19825714758428
 11
67.38736567472233
 21
21.06417114758428
 72
     1
 10
67.38736567472233
 20
21.06417114758428
 11
67.38736567472233
 21
21.40707114758428
 72
     1
 10
67.38736567472233
 20
21.40707114758428
 11
65.66071567472227
 21
21.40707114758428
 97
        0
 75
     0
 76
     1
 52
315.0
 41
1.259843
 77
     0
 78
     1
 53
0.0
 43
-514.3362191172696
 44
31.91508404131445
 45
0.0
 46
4.0
 79
     0
 98
        1
 10
-514.3362191172696
 20
31.91508404131445
  0
LINE
  5
5205
330
A
100
AcDbEntity
  8
CARTOUCHE
  6
CONTINUOUS
100
AcDbLine
 10
67.38736588273013
 20
17.53077104131445
 30
0.0
 11
65.66071588273017
 21
17.53077104131445
 31
0.0
  0
LINE
  5
5206
330
A
100
AcDbEntity
  8
CARTOUCHE
  6
CONTINUOUS
100
AcDbLine
 10
65.66071588273017
 20
21.40707104131446
 30
0.0
 11
67.38736588273013
 21
21.40707104131446
 31
0.0
  0
SPLINE
  5
5207
330
A
100
AcDbEntity
  8
CARTOUCHE
  6
CONTINUOUS
100
AcDbSpline
210
0.0
220
0.0
230
1.0
 70
     8
 71
     3
 72
    21
 73
    17
 74
    15
 42
0.0000000001
 43
0.0000000001
 44
0.000001
 12
-0.0762450288987748
 22
0.9970891111471559
 32
0.0
 13
-0.2154301143726971
 23
-0.9765192603432698
 33
0.0
 40
0.0
 40
0.0
 40
0.0
 40
0.0
 40
0.1872239767896052
 40
0.3744488814534375
 40
0.5616797665682304
 40
0.748907287482465
 40
0.9361354158715347
 40
1.123364231022115
 40
1.310595054581331
 40
1.497813820487214
 40
1.685063469726941
 40
1.872275753859726
 40
2.059506638347846
 40
2.246733387729892
 40
2.433965507953966
 40
2.621189713029891
 40
2.621189713029891
 40
2.621189713029891
 40
2.621189713029891
 10
63.27076565093488
 20
19.97787075470098
 30
0.0
 10
63.26600735176126
 20
20.04009708423517
 30
0.0
 10
63.23861503437795
 20
20.16441270171757
 30
0.0
 10
63.13916451260177
 20
20.32652061982433
 30
0.0
 10
63.00140330799481
 20
20.45567310524503
 30
0.0
 10
62.84115192955519
 20
20.55454277034388
 30
0.0
 10
62.66606731708705
 20
20.62331763735159
 30
0.0
 10
62.482645511382
 20
20.66407907169018
 30
0.0
 10
62.29513903021488
 20
20.67748695292543
 30
0.0
 10
62.10832922193364
 20
20.66661761029645
 30
0.0
 10
61.92186005687108
 20
20.62688714512391
 30
0.0
 10
61.76585401121274
 20
20.51970213198533
 30
0.0
 10
61.59428087901215
 20
20.44272491952745
 30
0.0
 10
61.45309222015743
 20
20.3149770437566
 30
0.0
 10
61.34882319678078
 20
20.15772169031302
 30
0.0
 10
61.30601022823893
 20
20.03881343545403
 30
0.0
 10
61.29256565093465
 20
19.97787075470099
 30
0.0
 11
63.27076565093488
 21
19.97787075470098
 31
0.0
 11
63.22888799184375
 21
20.16035212578628
 31
0.0
 11
63.13278017819129
 21
20.32102713489685
 31
0.0
 11
62.99765348321182
 21
20.45062723757494
 31
0.0
 11
62.8386790853616
 21
20.5495276374943
 31
0.0
 11
62.66467746653598
 21
20.61864931630914
 31
0.0
 11
62.48196421235036
 21
20.65952082413077
 31
0.0
 11
62.29525173105344
 21
20.67344170907829
 31
0.0
 11
62.10839485707447
 21
20.66180949362955
 31
0.0
 11
61.92692632363026
 21
20.61564095478751
 31
0.0
 11
61.76326422985494
 21
20.52473997864706
 31
0.0
 11
61.59934502297915
 21
20.4342638632568
 31
0.0
 11
61.45924651811549
 21
20.31006119165946
 31
0.0
 11
61.35549702367905
 21
20.15420255250579
 31
0.0
 11
61.29256565093465
 21
19.97787075470099
 31
0.0
  0
SPLINE
  5
5208
330
A
100
AcDbEntity
  8
CARTOUCHE
  6
CONTINUOUS
100
AcDbSpline
210
0.0
220
0.0
230
1.0
 70
     8
 71
     3
 72
    15
 73
    11
 74
     9
 42
0.0000000001
 43
0.0000000001
 44
0.000001
 12
0.1873467659218163
 22
-0.9822938406091308
 32
0.0
 13
0.777012928696381
 23
0.6294846373333291
 33
0.0
 40
0.0
 40
0.0
 40
0.0
 40
0.0
 40
0.3373811758008568
 40
0.6747694790311108
 40
1.012155313481037
 40
1.349542684605715
 40
1.686935956982668
 40
1.855630980301368
 40
2.024323584144545
 40
2.361710579467514
 40
2.361710579467514
 40
2.361710579467514
 40
2.361710579467514
 10
61.29256565093489
 20
19.14312075470098
 30
0.0
 10
61.31363474165794
 20
19.03265160439209
 30
0.0
 10
61.40695496192687
 20
18.8156614156033
 30
0.0
 10
61.6823869503862
 20
18.60494270376945
 30
0.0
 10
61.99826038518131
 20
18.4803291330971
 30
0.0
 10
62.33343835998757
 20
18.42424586880782
 30
0.0
 10
62.61721581001892
 20
18.43935185615836
 30
0.0
 10
62.83550789781156
 20
18.49742065749469
 30
0.0
 10
63.04079688640405
 20
18.5907544365689
 30
0.0
 10
63.18338096515489
 20
18.68352744457036
 30
0.0
 10
63.27076565093488
 20
18.75432075470098
 30
0.0
 11
61.29256565093489
 21
19.14312075470098
 31
0.0
 11
61.42952932805805
 21
18.83479030498303
 31
0.0
 11
61.68912853572384
 21
18.61929293938082
 31
0.0
 11
62.0014779952055
 21
18.49175073663706
 31
0.0
 11
62.33432958520984
 21
18.43661408626519
 31
0.0
 11
62.67106316025729
 21
18.45770075192486
 31
0.0
 11
62.83388431533693
 21
18.5018285138668
 31
0.0
 11
62.9882105181165
 21
18.56995057439053
 31
0.0
 11
63.27076565093488
 21
18.75432075470098
 31
0.0
  0
LINE
  5
5209
330
A
100
AcDbEntity
  8
CARTOUCHE
  6
CONTINUOUS
100
AcDbLine
 10
61.29256588273016
 20
19.97787104131445
 30
0.0
 11
62.0818658827302
 21
19.97787104131445
 31
0.0
  0
LINE
  5
520A
330
A
100
AcDbEntity
  8
CARTOUCHE
  6
CONTINUOUS
100
AcDbLine
 10
62.0818658827302
 20
19.97787104131445
 30
0.0
 11
63.27076588273019
 21
19.97787104131445
 31
0.0
  0
LINE
  5
520B
330
A
100
AcDbEntity
  8
CARTOUCHE
  6
CONTINUOUS
100
AcDbLine
 10
65.13466588273013
 20
19.15482104131444
 30
0.0
 11
62.0818658827302
 21
19.14312104131444
 31
0.0
  0
LINE
  5
520C
330
A
100
AcDbEntity
  8
CARTOUCHE
  6
CONTINUOUS
100
AcDbLine
 10
63.27076588273019
 20
18.75432104131444
 30
0.0
 11
65.0316158827302
 21
18.75432104131444
 31
0.0
  0
LINE
  5
520D
330
A
100
AcDbEntity
  8
CARTOUCHE
  6
CONTINUOUS
100
AcDbLine
 10
61.97881588273014
 20
19.14312104131444
 30
0.0
 11
61.29256588273016
 21
19.14312104131444
 31
0.0
  0
LINE
  5
520E
330
A
100
AcDbEntity
  8
CARTOUCHE
  6
CONTINUOUS
100
AcDbLine
 10
62.0818658827302
 20
19.14312104131444
 30
0.0
 11
61.97881588273014
 21
19.14312104131444
 31
0.0
  0
LINE
  5
520F
330
A
100
AcDbEntity
  8
CARTOUCHE
  6
CONTINUOUS
100
AcDbLine
 10
65.66071588273017
 20
17.53077104131445
 30
0.0
 11
65.66071588273017
 21
21.40707104131446
 31
0.0
  0
SPLINE
  5
5210
330
A
100
AcDbEntity
  8
CARTOUCHE
  6
CONTINUOUS
100
AcDbSpline
210
0.0
220
0.0
230
1.0
 70
     8
 71
     3
 72
    20
 73
    16
 74
    14
 42
0.0000000001
 43
0.0000000001
 44
0.000001
 12
0.1358608544272444
 22
0.9907279284618452
 32
0.0
 13
-0.8123777522852268
 23
-0.5831315354120395
 33
0.0
 40
0.0
 40
0.0
 40
0.0
 40
0.0
 40
0.3101716211153284
 40
0.6203441609814558
 40
0.9305169149356224
 40
1.240689339272308
 40
1.550861576564142
 40
1.861041752688864
 40
2.171205819844214
 40
2.481379890546657
 40
2.791555050226782
 40
3.101724851736102
 40
3.411899428548861
 40
3.722070615832142
 40
4.342400383922952
 40
4.342400383922952
 40
4.342400383922952
 40
4.342400383922952
 10
70.21156565093486
 20
19.48647075470098
 30
0.0
 10
70.22561237808947
 20
19.58890265058606
 30
0.0
 10
70.24217287930802
 20
19.79560867157873
 30
0.0
 10
70.22865859694757
 20
20.10619208372371
 30
0.0
 10
70.18340249801411
 20
20.41334260957778
 30
0.0
 10
70.10402461096386
 20
20.71492357692439
 30
0.0
 10
69.95523524771067
 20
20.99079809338376
 30
0.0
 10
69.73816273934956
 20
21.21928011971965
 30
0.0
 10
69.45931848602956
 20
21.36515712544937
 30
0.0
 10
69.15922737343627
 20
21.44661992810007
 30
0.0
 10
68.85181484437588
 20
21.49586960356442
 30
0.0
 10
68.54036657771266
 20
21.48847563594954
 30
0.0
 10
68.23268884994971
 20
21.44484494014283
 30
0.0
 10
67.83258579938911
 20
21.33565406837433
 30
0.0
 10
67.55534635182737
 20
21.18474870474384
 30
0.0
 10
67.38736565093495
 20
21.06417075470098
 30
0.0
 11
70.21156565093486
 21
19.48647075470098
 31
0.0
 11
70.2357811692392
 21
19.79569632503842
 31
0.0
 11
70.22336908054568
 21
20.10562044724929
 31
0.0
 11
70.17771627252455
 21
20.41241511692749
 31
0.0
 11
70.09245694905168
 21
20.7106395372201
 31
0.0
 11
69.94385659213651
 21
20.98289823748674
 31
0.0
 11
69.72786385397251
 21
21.20551660656123
 31
0.0
 11
69.45578076039192
 21
21.35442125037616
 31
0.0
 11
69.15800826896862
 21
21.44125176604514
 31
0.0
 11
68.85114088564228
 21
21.48643004278528
 31
0.0
 11
68.5409967448261
 21
21.48243722693447
 31
0.0
 11
68.23395434471115
 21
21.43846842487619
 31
0.0
 11
67.93514591856467
 21
21.35528355392004
 31
0.0
 11
67.38736565093495
 21
21.06417075470098
 31
0.0
  0
SPLINE
  5
5211
330
A
100
AcDbEntity
  8
CARTOUCHE
  6
CONTINUOUS
100
AcDbSpline
210
0.0
220
0.0
230
1.0
 70
     8
 71
     3
 72
    14
 73
    10
 74
     8
 42
0.0000000001
 43
0.0000000001
 44
0.000001
 12
0.0554704849902568
 22
0.9984603273515407
 32
0.0
 13
-0.0466631639365102
 23
-0.9989106812580565
 33
0.0
 40
0.0
 40
0.0
 40
0.0
 40
0.0
 40
0.2174460241478725
 40
0.4349107687474194
 40
0.6523648651332066
 40
0.8698754195832652
 40
1.087347445116321
 40
1.304824541147033
 40
1.522297871370066
 40
1.522297871370066
 40
1.522297871370066
 40
1.522297871370066
 10
68.38231565093486
 20
19.72632075470096
 30
0.0
 10
68.38633626307441
 20
19.79869116418496
 30
0.0
 10
68.35380509521377
 20
19.94846516503374
 30
0.0
 10
68.20065859178284
 20
20.11557224108744
 30
0.0
 10
67.98810796986792
 20
20.19130553776073
 30
0.0
 10
67.76686617197862
 20
20.17179584516821
 30
0.0
 10
67.56305480307218
 20
20.07788169174438
 30
0.0
 10
67.42842515238859
 20
19.89750818953418
 30
0.0
 10
67.39074831548784
 20
19.75328289885048
 30
0.0
 10
67.3873656509345
 20
19.68087075470096
 30
0.0
 11
68.38231565093486
 21
19.72632075470096
 31
0.0
 11
68.33641628589521
 21
19.93886827751012
 31
0.0
 11
68.19075807506374
 21
20.10034468768805
 31
0.0
 11
67.98667834254159
 21
20.17542985272235
 31
0.0
 11
67.76975975385778
 21
20.15939255066603
 31
0.0
 11
67.5745841169246
 21
20.0634728744084
 31
0.0
 11
67.44144336245779
 21
19.89151402956187
 31
0.0
 11
67.3873656509345
 21
19.68087075470096
 31
0.0
  0
LINE
  5
5212
330
A
100
AcDbEntity
  8
CARTOUCHE
  6
CONTINUOUS
100
AcDbLine
 10
67.38736588273013
 20
19.68087104131445
 30
0.0
 11
67.38736588273013
 21
17.53077104131445
 31
0.0
  0
LINE
  5
5213
330
A
100
AcDbEntity
  8
CARTOUCHE
  6
CONTINUOUS
100
AcDbLine
 10
68.38231588273015
 20
19.48647104131445
 30
0.0
 11
68.38231588273015
 21
19.72632104131444
 31
0.0
  0
LINE
  5
5214
330
A
100
AcDbEntity
  8
CARTOUCHE
  6
CONTINUOUS
100
AcDbLine
 10
70.21156588273015
 20
19.48647104131445
 30
0.0
 11
68.38231588273015
 21
19.48647104131445
 31
0.0
  0
LINE
  5
5215
330
A
100
AcDbEntity
  8
CARTOUCHE
  6
CONTINUOUS
100
AcDbLine
 10
67.38736588273013
 20
21.40707104131446
 30
0.0
 11
67.38736588273013
 21
21.06417104131446
 31
0.0
  0
LINE
  5
5216
330
A
100
AcDbEntity
  8
DRAW
  6
CONTINUOUS
100
AcDbLine
 10
82.84007088273019
 20
133.5455140413144
 30
0.0
 11
82.91383088273017
 21
139.9484070413144
 31
0.0
  0
POINT
  5
5217
330
A
100
AcDbEntity
  8
DRAW
  6
CONTINUOUS
100
AcDbPoint
 10
82.83431188273016
 20
133.0455140413144
 30
0.0
  0
ARC
  5
5218
330
A
100
AcDbEntity
  8
DRAW
  6
CONTINUOUS
100
AcDbCircle
 10
87.03431188273011
 20
133.3455140413144
 30
0.0
 40
0.2
100
AcDbArc
 50
0.0
 51
90.0
  0
LINE
  5
5219
330
A
100
AcDbEntity
  8
DRAW
  6
CONTINUOUS
100
AcDbLine
 10
87.23431188273014
 20
129.7455140413144
 30
0.0
 11
87.23431188273014
 21
133.3455140413144
 31
0.0
  0
LINE
  5
521A
330
A
100
AcDbEntity
  8
DRAW
  6
CONTINUOUS
100
AcDbLine
 10
87.23431188273014
 20
129.7455140413144
 30
0.0
 11
88.23431188273014
 21
128.7455140413144
 31
0.0
  0
LINE
  5
521B
330
A
100
AcDbEntity
  8
DRAW
  6
CONTINUOUS
100
AcDbLine
 10
83.74001188273018
 20
133.5455140413144
 30
0.0
 11
82.84007088273019
 21
133.5455140413144
 31
0.0
  0
LINE
  5
521C
330
A
100
AcDbEntity
  8
DRAW
  6
CONTINUOUS
100
AcDbLine
 10
83.73431188273015
 20
133.0455140413144
 30
0.0
 11
83.73867488273026
 21
133.5455140413144
 31
0.0
  0
LINE
  5
521D
330
A
100
AcDbEntity
  8
DRAW
  6
CONTINUOUS
100
AcDbLine
 10
83.73431188273015
 20
133.0455140413144
 30
0.0
 11
82.83431188273016
 21
133.0455140413144
 31
0.0
  0
LINE
  5
521E
330
A
100
AcDbEntity
  8
DRAW
  6
CONTINUOUS
100
AcDbLine
 10
82.83431188273016
 20
133.0455140413144
 30
0.0
 11
82.84007088273019
 21
133.5455140413144
 31
0.0
  0
LINE
  5
521F
330
A
100
AcDbEntity
  8
DRAW
  6
CONTINUOUS
100
AcDbLine
 10
83.81377088273017
 20
139.9474650413144
 30
0.0
 11
82.91381988273021
 21
139.9474650413144
 31
0.0
  0
LINE
  5
5220
330
A
100
AcDbEntity
  8
DRAW
  6
CONTINUOUS
100
AcDbLine
 10
84.64677588273024
 20
139.9474650413144
 30
0.0
 11
83.81377088273017
 21
139.9474650413144
 31
0.0
  0
TEXT
  5
5221
330
A
100
AcDbEntity
  8
DRAW-TEXT
  6
CONTINUOUS
100
AcDbText
 10
200.8153738827301
 20
8.674799041314456
 30
0.0
 40
2.1
  1
1:1
 50
359.9999079999998
 41
0.4600000000000001
  7
TSTYLE3
100
AcDbText
  0
TEXT
  5
5222
330
A
100
AcDbEntity
  8
DRAW-TEXT
  6
CONTINUOUS
100
AcDbText
 10
146.3541468827301
 20
8.67489804131446
 30
0.0
 40
2.1
  1
19/06/06
 50
359.9999079999998
 41
0.4600000000000001
  7
TSTYLE3
100
AcDbText
  0
LINE
  5
5223
330
A
100
AcDbEntity
  8
CARTOUCHE
  6
CONTINUOUS
100
AcDbLine
 10
176.2610728827301
 20
16.90156404131445
 30
0.0
 11
176.2610728827301
 21
6.899622041314456
 31
0.0
  0
LINE
  5
5224
330
A
100
AcDbEntity
  8
CARTOUCHE
  6
CONTINUOUS
100
AcDbLine
 10
124.5943938827301
 20
16.90164304131445
 30
0.0
 11
124.5943938827301
 21
6.899701041314456
 31
0.0
  0
TEXT
  5
5225
330
A
100
AcDbEntity
  8
DRAW-TEXT
  6
CONTINUOUS
100
AcDbText
 10
98.38048388273023
 20
8.674956041314459
 30
0.0
 40
2.1
  1
0
 50
359.9999079999998
 41
0.4600000000000001
  7
TSTYLE3
100
AcDbText
  0
TEXT
  5
5226
330
A
100
AcDbEntity
  8
DRAW-TEXT
  6
CONTINUOUS
100
AcDbText
 10
146.6995728827301
 20
21.48931204131444
 30
0.0
 40
3.0
  1
56.44
 50
359.9999079999998
 41
0.4600000000000001
  7
TSTYLE4
100
AcDbText
  0
TEXT
  5
5227
330
A
100
AcDbEntity
  8
CARTOUCHE
  6
CONTINUOUS
100
AcDbText
 10
142.8769628827301
 20
29.33464304131446
 30
0.0
 40
1.8
  1
PRODUCT TYPE
 50
359.9999079999998
 41
0.4600000000000001
  7
TSTYLE1
100
AcDbText
  0
TEXT
  5
5228
330
A
100
AcDbEntity
  8
CARTOUCHE
  6
CONTINUOUS
100
AcDbText
 10
96.64860688273018
 20
13.52298204131446
 30
0.0
 40
1.8
  1
REV.
 50
359.9999079999998
 41
0.4600000000000001
  7
TSTYLE1
100
AcDbText
  0
TEXT
  5
5229
330
A
100
AcDbEntity
  8
CARTOUCHE
  6
CONTINUOUS
100
AcDbText
 10
148.07410588273
 20
13.52290204131445
 30
0.0
 40
1.8
  1
DATE
 50
359.9999079999998
 41
0.4600000000000001
  7
TSTYLE1
100
AcDbText
  0
TEXT
  5
522A
330
A
100
AcDbEntity
  8
CARTOUCHE
  6
CONTINUOUS
100
AcDbText
 10
199.03158688273
 20
13.52282404131444
 30
0.0
 40
1.8
  1
SCALE
 50
359.9999079999998
 41
0.4600000000000001
  7
TSTYLE1
100
AcDbText
  0
DIMENSION
  5
522B
330
A
100
AcDbEntity
  8
DIM
  6
CONTINUOUS
100
AcDbDimension
  2
*D67
 10
143.8479208827301
 20
124.9195550413144
 30
0.0
 11
136.2428731337534
 21
124.9195550413144
 31
0.0
 70
   161
  1
<>
  3
DSTYLE3
100
AcDbAlignedDimension
 13
144.3479208827301
 23
128.7455140413144
 33
0.0
 14
143.8479208827301
 24
128.7455140413144
 34
0.0
  0
LINE
  5
522C
330
A
100
AcDbEntity
  8
DRAW
  6
CONTINUOUS
100
AcDbLine
 10
146.7479218827301
 20
133.0455140413144
 30
0.0
 11
142.7479218827301
 21
133.0455140413144
 31
0.0
  0
LINE
  5
522D
330
A
100
AcDbEntity
  8
DRAW
  6
CONTINUOUS
100
AcDbLine
 10
117.2343118827301
 20
129.7455140413144
 30
0.0
 11
118.2343118827301
 21
128.7455140413144
 31
0.0
  0
LINE
  5
522E
330
A
100
AcDbEntity
  8
DRAW
  6
CONTINUOUS
100
AcDbLine
 10
122.7286108827301
 20
133.5455140413144
 30
0.0
 11
112.5843118827301
 21
133.5455140413144
 31
0.0
  0
LINE
  5
522F
330
A
100
AcDbEntity
  8
DRAW
  6
CONTINUOUS
100
AcDbLine
 10
109.5843118827301
 20
133.5455140413144
 30
0.0
 11
96.88431188273012
 21
133.5455140413144
 31
0.0
  0
LINE
  5
5230
330
A
100
AcDbEntity
  8
DRAW
  6
CONTINUOUS
100
AcDbLine
 10
96.38431188273012
 20
133.0455140413144
 30
0.0
 11
94.38431188273012
 21
133.0455140413144
 31
0.0
  0
ARC
  5
5231
330
A
100
AcDbEntity
  8
DRAW
  6
CONTINUOUS
100
AcDbCircle
 10
89.43431188273018
 20
133.3455140413144
 30
0.0
 40
0.2
100
AcDbArc
 50
90.0
 51
180.0
  0
LINE
  5
5232
330
A
100
AcDbEntity
  8
DRAW
  6
CONTINUOUS
100
AcDbLine
 10
89.23431188273012
 20
133.3455140413144
 30
0.0
 11
89.23431188273012
 21
129.7455140413144
 31
0.0
  0
ARC
  5
5233
330
A
100
AcDbEntity
  8
DRAW
  6
CONTINUOUS
100
AcDbCircle
 10
94.38470288273014
 20
133.5462860413143
 30
0.0
 40
0.500666
100
AcDbArc
 50
203.464147999999
 51
216.0951520000009
  0
ARC
  5
5234
330
A
100
AcDbEntity
  8
DRAW
  6
CONTINUOUS
100
AcDbCircle
 10
94.37431188273013
 20
133.5355140413144
 30
0.0
 40
0.4900000000000002
100
AcDbArc
 50
180.0
 51
270.0
  0
ARC
  5
5235
330
A
100
AcDbEntity
  8
DRAW
  6
CONTINUOUS
100
AcDbCircle
 10
94.38403388273023
 20
133.5452370413144
 30
0.0
 40
0.499723
100
AcDbArc
 50
179.968193
 51
270.0318069999976
  0
ARC
  5
5236
330
A
100
AcDbEntity
  8
DRAW
  6
CONTINUOUS
100
AcDbCircle
 10
97.03431188273007
 20
133.3455140413144
 30
0.0
 40
0.2
100
AcDbArc
 50
0.0
 51
90.0
  0
LINE
  5
5237
330
A
100
AcDbEntity
  8
DRAW
  6
CONTINUOUS
100
AcDbLine
 10
97.23431188273014
 20
129.7455140413144
 30
0.0
 11
97.23431188273014
 21
133.3455140413144
 31
0.0
  0
ARC
  5
5238
330
A
100
AcDbEntity
  8
DRAW
  6
CONTINUOUS
100
AcDbCircle
 10
99.43431188273018
 20
133.3455140413144
 30
0.0
 40
0.2
100
AcDbArc
 50
90.0
 51
180.0
  0
LINE
  5
5239
330
A
100
AcDbEntity
  8
DRAW
  6
CONTINUOUS
100
AcDbLine
 10
99.23431188273013
 20
133.3455140413144
 30
0.0
 11
99.23431188273013
 21
129.7455140413144
 31
0.0
  0
LINE
  5
523A
330
A
100
AcDbEntity
  8
DRAW
  6
CONTINUOUS
100
AcDbLine
 10
97.23431188273014
 20
129.7455140413144
 30
0.0
 11
98.23431188273014
 21
128.7455140413144
 31
0.0
  0
LINE
  5
523B
330
A
100
AcDbEntity
  8
DRAW
  6
CONTINUOUS
100
AcDbLine
 10
99.23431188273013
 20
129.7455140413144
 30
0.0
 11
98.23431188273014
 21
128.7455140413144
 31
0.0
  0
ARC
  5
523C
330
A
100
AcDbEntity
  8
DRAW
  6
CONTINUOUS
100
AcDbCircle
 10
96.38402788273017
 20
133.5462240413144
 30
0.0
 40
0.5005430000000001
100
AcDbArc
 50
323.9034920000014
 51
336.5379350000003
  0
ARC
  5
523D
330
A
100
AcDbEntity
  8
DRAW
  6
CONTINUOUS
100
AcDbCircle
 10
96.39431188273013
 20
133.5355140413144
 30
0.0
 40
0.4900000000000002
100
AcDbArc
 50
270.0
 51
0.0
  0
ARC
  5
523E
330
A
100
AcDbEntity
  8
DRAW
  6
CONTINUOUS
100
AcDbCircle
 10
96.38458888273021
 20
133.5452370413144
 30
0.0
 40
0.499723
100
AcDbArc
 50
269.9681930000023
 51
0.0318069999999541
  0
LINE
  5
523F
330
A
100
AcDbEntity
  8
DRAW
  6
CONTINUOUS
100
AcDbLine
 10
112.09431188273
 20
133.0455140413144
 30
0.0
 11
110.0743118827301
 21
133.0455140413144
 31
0.0
  0
ARC
  5
5240
330
A
100
AcDbEntity
  8
DRAW
  6
CONTINUOUS
100
AcDbCircle
 10
107.03431188273
 20
133.3455140413144
 30
0.0
 40
0.2
100
AcDbArc
 50
0.0
 51
90.0
  0
LINE
  5
5241
330
A
100
AcDbEntity
  8
DRAW
  6
CONTINUOUS
100
AcDbLine
 10
107.23431188273
 20
129.7455140413144
 30
0.0
 11
107.23431188273
 21
133.3455140413144
 31
0.0
  0
ARC
  5
5242
330
A
100
AcDbEntity
  8
DRAW
  6
CONTINUOUS
100
AcDbCircle
 10
109.43431188273
 20
133.3455140413144
 30
0.0
 40
0.2
100
AcDbArc
 50
90.0
 51
180.0
  0
LINE
  5
5243
330
A
100
AcDbEntity
  8
DRAW
  6
CONTINUOUS
100
AcDbLine
 10
109.23431188273
 20
133.3455140413144
 30
0.0
 11
109.23431188273
 21
129.7455140413144
 31
0.0
  0
LINE
  5
5244
330
A
100
AcDbEntity
  8
DRAW
  6
CONTINUOUS
100
AcDbLine
 10
107.23431188273
 20
129.7455140413144
 30
0.0
 11
108.23431188273
 21
128.7455140413144
 31
0.0
  0
LINE
  5
5245
330
A
100
AcDbEntity
  8
DRAW
  6
CONTINUOUS
100
AcDbLine
 10
109.23431188273
 20
129.7455140413144
 30
0.0
 11
108.23431188273
 21
128.7455140413144
 31
0.0
  0
ARC
  5
5246
330
A
100
AcDbEntity
  8
DRAW
  6
CONTINUOUS
100
AcDbCircle
 10
110.0743118827301
 20
133.5355140413144
 30
0.0
 40
0.4900000000000002
100
AcDbArc
 50
180.0
 51
270.0
  0
LINE
  5
5247
330
A
100
AcDbEntity
  8
DRAW
  6
CONTINUOUS
100
AcDbLine
 10
109.5843118827301
 20
133.5455140413144
 30
0.0
 11
109.5843118827301
 21
133.5355140413144
 31
0.0
  0
ARC
  5
5248
330
A
100
AcDbEntity
  8
DRAW
  6
CONTINUOUS
100
AcDbCircle
 10
117.0343118827301
 20
133.3455140413144
 30
0.0
 40
0.2
100
AcDbArc
 50
0.0
 51
90.0
  0
LINE
  5
5249
330
A
100
AcDbEntity
  8
DRAW
  6
CONTINUOUS
100
AcDbLine
 10
117.2343118827301
 20
129.7455140413144
 30
0.0
 11
117.2343118827301
 21
133.3455140413144
 31
0.0
  0
ARC
  5
524A
330
A
100
AcDbEntity
  8
DRAW
  6
CONTINUOUS
100
AcDbCircle
 10
112.09431188273
 20
133.5355140413144
 30
0.0
 40
0.4900000000000002
100
AcDbArc
 50
270.0
 51
0.0
  0
LINE
  5
524B
330
A
100
AcDbEntity
  8
DRAW
  6
CONTINUOUS
100
AcDbLine
 10
112.5843118827301
 20
133.5455140413144
 30
0.0
 11
112.5843118827301
 21
133.5355140413144
 31
0.0
  0
LINE
  5
524C
330
A
100
AcDbEntity
  8
DRAW
  6
CONTINUOUS
100
AcDbLine
 10
130.9649648827301
 20
139.9474650413144
 30
0.0
 11
130.8979118827301
 21
133.5445720413144
 31
0.0
  0
LINE
  5
524D
330
A
100
AcDbEntity
  8
DRAW
  6
CONTINUOUS
100
AcDbLine
 10
123.5547918827301
 20
139.9484070413144
 30
0.0
 11
123.6285518827301
 21
133.5455140413144
 31
0.0
  0
LINE
  5
524E
330
A
100
AcDbEntity
  8
DRAW
  6
CONTINUOUS
100
AcDbLine
 10
142.2479218827301
 20
133.5455140413144
 30
0.0
 11
131.7978618827301
 21
133.5455140413144
 31
0.0
  0
POINT
  5
524F
330
A
100
AcDbEntity
  8
DRAW
  6
CONTINUOUS
100
AcDbPoint
 10
123.6343118827301
 20
133.0455140413144
 30
0.0
  0
ARC
  5
5250
330
A
100
AcDbEntity
  8
DRAW
  6
CONTINUOUS
100
AcDbCircle
 10
119.4343118827301
 20
133.3455140413144
 30
0.0
 40
0.2
100
AcDbArc
 50
90.0
 51
180.0
  0
LINE
  5
5251
330
A
100
AcDbEntity
  8
DRAW
  6
CONTINUOUS
100
AcDbLine
 10
119.2343118827301
 20
133.3455140413144
 30
0.0
 11
119.2343118827301
 21
129.7455140413144
 31
0.0
  0
LINE
  5
5252
330
A
100
AcDbEntity
  8
DRAW
  6
CONTINUOUS
100
AcDbLine
 10
119.2343118827301
 20
129.7455140413144
 30
0.0
 11
118.2343118827301
 21
128.7455140413144
 31
0.0
  0
LINE
  5
5253
330
A
100
AcDbEntity
  8
DRAW
  6
CONTINUOUS
100
AcDbLine
 10
122.7286108827301
 20
133.5455140413144
 30
0.0
 11
123.6285518827301
 21
133.5455140413144
 31
0.0
  0
LINE
  5
5254
330
A
100
AcDbEntity
  8
DRAW
  6
CONTINUOUS
100
AcDbLine
 10
122.7299478827301
 20
133.5455140413144
 30
0.0
 11
122.73431188273
 21
133.0455140413144
 31
0.0
  0
LINE
  5
5255
330
A
100
AcDbEntity
  8
DRAW
  6
CONTINUOUS
100
AcDbLine
 10
122.73431188273
 20
133.0455140413144
 30
0.0
 11
123.6343118827301
 21
133.0455140413144
 31
0.0
  0
LINE
  5
5256
330
A
100
AcDbEntity
  8
DRAW
  6
CONTINUOUS
100
AcDbLine
 10
123.6285518827301
 20
133.5455140413144
 30
0.0
 11
123.6343118827301
 21
133.0455140413144
 31
0.0
  0
POINT
  5
5257
330
A
100
AcDbEntity
  8
DRAW
  6
CONTINUOUS
100
AcDbPoint
 10
130.8979218827301
 20
133.5455140413144
 30
0.0
  0
LINE
  5
5258
330
A
100
AcDbEntity
  8
DRAW
  6
CONTINUOUS
100
AcDbLine
 10
130.8979208827302
 20
133.5455140413144
 30
0.0
 11
130.8979208827302
 21
133.5355140413144
 31
0.0
  0
ARC
  5
5259
330
A
100
AcDbEntity
  8
DRAW
  6
CONTINUOUS
100
AcDbCircle
 10
131.3879208827301
 20
133.5355140413144
 30
0.0
 40
0.4900000000000002
100
AcDbArc
 50
180.0
 51
270.0
  0
LINE
  5
525A
330
A
100
AcDbEntity
  8
DRAW
  6
CONTINUOUS
100
AcDbLine
 10
131.3879208827301
 20
133.0455140413144
 30
0.0
 11
131.7979208827301
 21
133.0455140413144
 31
0.0
  0
LINE
  5
525B
330
A
100
AcDbEntity
  8
DRAW
  6
CONTINUOUS
100
AcDbLine
 10
131.7979208827301
 20
133.5355140413144
 30
0.0
 11
131.7979208827301
 21
133.0455140413144
 31
0.0
  0
LINE
  5
525C
330
A
100
AcDbEntity
  8
DRAW
  6
CONTINUOUS
100
AcDbLine
 10
131.7979208827301
 20
133.5455140413144
 30
0.0
 11
131.7979208827301
 21
133.5355140413144
 31
0.0
  0
LINE
  5
525D
330
A
100
AcDbEntity
  8
DRAW
  6
CONTINUOUS
100
AcDbLine
 10
130.8979218827301
 20
133.5455140413144
 30
0.0
 11
131.7978618827301
 21
133.5455140413144
 31
0.0
  0
ARC
  5
525E
330
A
100
AcDbEntity
  8
DRAW
  6
CONTINUOUS
100
AcDbCircle
 10
135.6479218827302
 20
133.3455140413144
 30
0.0
 40
0.2
100
AcDbArc
 50
0.0
 51
90.0
  0
LINE
  5
525F
330
A
100
AcDbEntity
  8
DRAW
  6
CONTINUOUS
100
AcDbLine
 10
135.8479218827301
 20
133.3455140413144
 30
0.0
 11
135.8479218827301
 21
129.7455140413144
 31
0.0
  0
ARC
  5
5260
330
A
100
AcDbEntity
  8
DRAW
  6
CONTINUOUS
100
AcDbCircle
 10
138.04792188273
 20
133.3455140413144
 30
0.0
 40
0.2
100
AcDbArc
 50
90.0
 51
180.0
  0
LINE
  5
5261
330
A
100
AcDbEntity
  8
DRAW
  6
CONTINUOUS
100
AcDbLine
 10
137.8479218827301
 20
133.3455140413144
 30
0.0
 11
137.8479218827301
 21
129.7455140413144
 31
0.0
  0
LINE
  5
5262
330
A
100
AcDbEntity
  8
DRAW
  6
CONTINUOUS
100
AcDbLine
 10
137.8479218827301
 20
129.7455140413144
 30
0.0
 11
136.8479218827301
 21
128.7455140413144
 31
0.0
  0
LINE
  5
5263
330
A
100
AcDbEntity
  8
DRAW
  6
CONTINUOUS
100
AcDbLine
 10
135.8479218827301
 20
129.7455140413144
 30
0.0
 11
136.8479218827301
 21
128.7455140413144
 31
0.0
  0
POINT
  5
5264
330
A
100
AcDbEntity
  8
DRAW
  6
CONTINUOUS
100
AcDbPoint
 10
143.8479208827301
 20
128.7455140413144
 30
0.0
  0
POINT
  5
5265
330
A
100
AcDbEntity
  8
DRAW
  6
CONTINUOUS
100
AcDbPoint
 10
144.3479208827301
 20
128.7455140413144
 30
0.0
  0
LINE
  5
5266
330
A
100
AcDbEntity
  8
DRAW
  6
CONTINUOUS
100
AcDbLine
 10
144.3479208827301
 20
129.7455140413144
 30
0.0
 11
144.3479208827301
 21
133.0455140413144
 31
0.0
  0
LINE
  5
5267
330
A
100
AcDbEntity
  8
DRAW
  6
CONTINUOUS
100
AcDbLine
 10
143.8479208827301
 20
129.7455140413144
 30
0.0
 11
143.8479208827301
 21
133.0455140413144
 31
0.0
  0
LINE
  5
5268
330
A
100
AcDbEntity
  8
DRAW
  6
CONTINUOUS
100
AcDbLine
 10
143.8479208827301
 20
128.7455140413144
 30
0.0
 11
144.3479208827301
 21
128.7455140413144
 31
0.0
  0
LINE
  5
5269
330
A
100
AcDbEntity
  8
DRAW
  6
CONTINUOUS
100
AcDbLine
 10
144.3479208827301
 20
128.7455140413144
 30
0.0
 11
144.3479208827301
 21
129.7455140413144
 31
0.0
  0
LINE
  5
526A
330
A
100
AcDbEntity
  8
DRAW
  6
CONTINUOUS
100
AcDbLine
 10
143.8479208827301
 20
128.7455140413144
 30
0.0
 11
143.8479208827301
 21
129.7455140413144
 31
0.0
  0
ARC
  5
526B
330
A
100
AcDbEntity
  8
DRAW
  6
CONTINUOUS
100
AcDbCircle
 10
142.7479218827301
 20
133.5455140413144
 30
0.0
 40
0.5
100
AcDbArc
 50
180.0
 51
270.0
  0
LINE
  5
526C
330
A
100
AcDbEntity
  8
DRAW
  6
CONTINUOUS
100
AcDbLine
 10
132.8979218827301
 20
139.9474650413144
 30
0.0
 11
131.86491588273
 21
139.9474650413144
 31
0.0
  0
LINE
  5
526D
330
A
100
AcDbEntity
  8
DRAW
  6
CONTINUOUS
100
AcDbLine
 10
122.6548518827301
 20
139.9474650413144
 30
0.0
 11
123.5548028827301
 21
139.9474650413144
 31
0.0
  0
LINE
  5
526E
330
A
100
AcDbEntity
  8
DRAW
  6
CONTINUOUS
100
AcDbLine
 10
121.8218468827301
 20
139.9474650413144
 30
0.0
 11
122.6548518827301
 21
139.9474650413144
 31
0.0
  0
LINE
  5
526F
330
A
100
AcDbEntity
  8
DRAW
  6
CONTINUOUS
100
AcDbLine
 10
130.9649648827301
 20
139.9474650413144
 30
0.0
 11
131.86491588273
 21
139.9474650413144
 31
0.0
  0
DIMENSION
  5
5270
330
A
100
AcDbEntity
  8
DIM
  6
CONTINUOUS
100
AcDbDimension
  2
*D68
 10
162.9708798827301
 20
128.7455140413144
 30
0.0
 11
162.9708798827301
 21
121.0938087207142
 31
0.0
 70
   160
  1
<>
  3
DSTYLE5
100
AcDbAlignedDimension
 13
157.8979208827301
 23
133.0455140413144
 33
0.0
 14
154.9979208827301
 24
128.7455140413144
 34
0.0
 50
90.0
100
AcDbRotatedDimension
  0
LINE
  5
5271
330
A
100
AcDbEntity
  8
DRAW
  6
CONTINUOUS
100
AcDbLine
 10
158.5979308827301
 20
133.5445720413144
 30
0.0
 11
158.53087788273
 21
139.9474650413144
 31
0.0
  0
LINE
  5
5272
330
A
100
AcDbEntity
  8
DRAW
  6
CONTINUOUS
100
AcDbLine
 10
147.2479218827301
 20
133.5455140413144
 30
0.0
 11
157.6979808827301
 21
133.5455140413144
 31
0.0
  0
LINE
  5
5273
330
A
100
AcDbEntity
  8
DRAW
  6
CONTINUOUS
100
AcDbLine
 10
149.7479208827301
 20
133.3455140413144
 30
0.0
 11
149.7479208827301
 21
133.5455140413144
 31
0.0
  0
LINE
  5
5274
330
A
100
AcDbEntity
  8
DRAW
  6
CONTINUOUS
100
AcDbLine
 10
150.2479208827301
 20
133.3455140413144
 30
0.0
 11
150.2479208827301
 21
133.5455140413144
 31
0.0
  0
LINE
  5
5275
330
A
100
AcDbEntity
  8
DRAW
  6
CONTINUOUS
100
AcDbLine
 10
150.2479208827301
 20
133.3455140413144
 30
0.0
 11
150.2479208827301
 21
129.7455140413144
 31
0.0
  0
LINE
  5
5276
330
A
100
AcDbEntity
  8
DRAW
  6
CONTINUOUS
100
AcDbLine
 10
149.7479208827301
 20
133.3455140413144
 30
0.0
 11
149.7479208827301
 21
129.7455140413144
 31
0.0
  0
LINE
  5
5277
330
A
100
AcDbEntity
  8
DRAW
  6
CONTINUOUS
100
AcDbLine
 10
149.7479208827301
 20
128.7455140413144
 30
0.0
 11
150.2479208827301
 21
128.7455140413144
 31
0.0
  0
LINE
  5
5278
330
A
100
AcDbEntity
  8
DRAW
  6
CONTINUOUS
100
AcDbLine
 10
150.2479208827301
 20
129.7455140413144
 30
0.0
 11
150.2479208827301
 21
128.7455140413144
 31
0.0
  0
LINE
  5
5279
330
A
100
AcDbEntity
  8
DRAW
  6
CONTINUOUS
100
AcDbLine
 10
149.7479208827301
 20
129.7455140413144
 30
0.0
 11
149.7479208827301
 21
128.7455140413144
 31
0.0
  0
ARC
  5
527A
330
A
100
AcDbEntity
  8
DRAW
  6
CONTINUOUS
100
AcDbCircle
 10
146.7479218827301
 20
133.5455140413144
 30
0.0
 40
0.5
100
AcDbArc
 50
270.0
 51
0.0
  0
POINT
  5
527B
330
A
100
AcDbEntity
  8
DRAW
  6
CONTINUOUS
100
AcDbPoint
 10
154.9979208827301
 20
128.7455140413144
 30
0.0
  0
POINT
  5
527C
330
A
100
AcDbEntity
  8
DRAW
  6
CONTINUOUS
100
AcDbPoint
 10
157.8979208827301
 20
133.0455140413144
 30
0.0
  0
POINT
  5
527D
330
A
100
AcDbEntity
  8
DRAW
  6
CONTINUOUS
100
AcDbPoint
 10
157.8979208827301
 20
133.0455140413144
 30
0.0
  0
POINT
  5
527E
330
A
100
AcDbEntity
  8
DRAW
  6
CONTINUOUS
100
AcDbPoint
 10
158.59786988273
 20
133.5504690413144
 30
0.0
  0
LINE
  5
527F
330
A
100
AcDbEntity
  8
DRAW
  6
CONTINUOUS
100
AcDbLine
 10
154.4979208827301
 20
133.3455140413144
 30
0.0
 11
154.4979208827301
 21
133.5455140413144
 31
0.0
  0
LINE
  5
5280
330
A
100
AcDbEntity
  8
DRAW
  6
CONTINUOUS
100
AcDbLine
 10
154.9979208827301
 20
133.3455140413144
 30
0.0
 11
154.9979208827301
 21
133.5455140413144
 31
0.0
  0
LINE
  5
5281
330
A
100
AcDbEntity
  8
DRAW
  6
CONTINUOUS
100
AcDbLine
 10
154.9979208827301
 20
129.7455140413144
 30
0.0
 11
154.9979208827301
 21
133.3455140413144
 31
0.0
  0
LINE
  5
5282
330
A
100
AcDbEntity
  8
DRAW
  6
CONTINUOUS
100
AcDbLine
 10
154.4979208827301
 20
129.7455140413144
 30
0.0
 11
154.4979208827301
 21
133.3455140413144
 31
0.0
  0
LINE
  5
5283
330
A
100
AcDbEntity
  8
DRAW
  6
CONTINUOUS
100
AcDbLine
 10
154.4979208827301
 20
129.7455140413144
 30
0.0
 11
154.4979208827301
 21
128.7455140413144
 31
0.0
  0
LINE
  5
5284
330
A
100
AcDbEntity
  8
DRAW
  6
CONTINUOUS
100
AcDbLine
 10
154.9979208827301
 20
129.7455140413144
 30
0.0
 11
154.9979208827301
 21
128.7455140413144
 31
0.0
  0
LINE
  5
5285
330
A
100
AcDbEntity
  8
DRAW
  6
CONTINUOUS
100
AcDbLine
 10
154.9979208827301
 20
128.7455140413144
 30
0.0
 11
154.4979208827301
 21
128.7455140413144
 31
0.0
  0
ARC
  5
5286
330
A
100
AcDbEntity
  8
DRAW
  6
CONTINUOUS
100
AcDbCircle
 10
158.0976368827301
 20
133.5462240413144
 30
0.0
 40
0.5005430000000001
100
AcDbArc
 50
323.9034920000014
 51
336.5379350000003
  0
ARC
  5
5287
330
A
100
AcDbEntity
  8
DRAW
  6
CONTINUOUS
100
AcDbCircle
 10
158.0981988827301
 20
133.5452370413144
 30
0.0
 40
0.499723
100
AcDbArc
 50
269.9681930000023
 51
0.0318069999999541
  0
LINE
  5
5288
330
A
100
AcDbEntity
  8
DRAW
  6
CONTINUOUS
100
AcDbLine
 10
158.0979208827301
 20
133.0455140413144
 30
0.0
 11
157.6979208827301
 21
133.0455140413144
 31
0.0
  0
LINE
  5
5289
330
A
100
AcDbEntity
  8
DRAW
  6
CONTINUOUS
100
AcDbLine
 10
157.6979208827301
 20
133.5455140413144
 30
0.0
 11
157.6979208827301
 21
133.0455140413144
 31
0.0
  0
LINE
  5
528A
330
A
100
AcDbEntity
  8
DRAW
  6
CONTINUOUS
100
AcDbLine
 10
158.5979218827301
 20
133.5455140413144
 30
0.0
 11
157.6979808827301
 21
133.5455140413144
 31
0.0
  0
LINE
  5
528B
330
A
100
AcDbEntity
  8
DRAW
  6
CONTINUOUS
100
AcDbLine
 10
158.53087788273
 20
139.9474650413144
 30
0.0
 11
157.6309268827301
 21
139.9474650413144
 31
0.0
  0
LINE
  5
528C
330
A
100
AcDbEntity
  8
DRAW
  6
CONTINUOUS
100
AcDbLine
 10
157.6309268827301
 20
139.9474650413144
 30
0.0
 11
156.79792188273
 21
139.9474650413144
 31
0.0
  0
INSERT
  5
528D
330
A
100
AcDbEntity
  8
DRAW-TEXT
100
AcDbBlockReference
  2
_G_T_22
 10
-514.3362191172696
 20
31.91508404131445
 30
0.0
  0
TEXT
  5
528E
330
A
100
AcDbEntity
  8
DRAW-TEXT
  6
CONTINUOUS
100
AcDbText
 10
88.5911848827302
 20
205.2990720413144
 30
0.0
 40
1.399999999999999
  1
A1
 41
0.95
  7
TSTYLE6
100
AcDbText
  0
INSERT
  5
528F
330
A
100
AcDbEntity
  8
DRAW-TEXT
100
AcDbBlockReference
  2
_G_T_17
 10
-514.3362191172696
 20
31.91508404131445
 30
0.0
  0
INSERT
  5
5290
330
A
100
AcDbEntity
  8
DRAW-TEXT
100
AcDbBlockReference
  2
_G_T_8
 10
-514.3362191172696
 20
31.91508404131445
 30
0.0
  0
INSERT
  5
5291
330
A
100
AcDbEntity
  8
DRAW-TEXT
100
AcDbBlockReference
  2
_G_T_5
 10
-514.3362191172696
 20
31.91508404131445
 30
0.0
  0
INSERT
  5
5292
330
A
100
AcDbEntity
  8
DRAW
100
AcDbBlockReference
  2
LW_POLYLINE_9
 10
-514.3362191172696
 20
31.91508404131445
 30
0.0
  0
LINE
  5
5293
330
A
100
AcDbEntity
  8
DRAW
  6
CONTINUOUS
100
AcDbLine
 10
95.13431188273012
 20
168.4455140413144
 30
0.0
 11
84.67662288273016
 21
168.4455140413144
 31
0.0
  0
LINE
  5
5294
330
A
100
AcDbEntity
  8
DRAW
  6
CONTINUOUS
100
AcDbLine
 10
88.88431188273012
 20
170.1455140413144
 30
0.0
 11
87.38431188273009
 21
170.1455140413144
 31
0.0
  0
LINE
  5
5295
330
A
100
AcDbEntity
  8
CARTOUCHE
  6
CONTINUOUS
100
AcDbLine
 10
27.92774288273017
 20
288.8986770413144
 30
0.0
 11
227.92751688273
 21
288.8988600413144
 31
0.0
  0
LINE
  5
5296
330
A
100
AcDbEntity
  8
DRAW
  6
CONTINUOUS
100
AcDbLine
 10
85.13431188273012
 20
170.1455140413144
 30
0.0
 11
85.13431188273012
 21
169.3455140413144
 31
0.0
  0
LINE
  5
5297
330
A
100
AcDbEntity
  8
DRAW
  6
CONTINUOUS
100
AcDbLine
 10
86.63431188273012
 20
170.1455140413144
 30
0.0
 11
86.63431188273012
 21
169.3455140413144
 31
0.0
  0
LINE
  5
5298
330
A
100
AcDbEntity
  8
DRAW
  6
CONTINUOUS
100
AcDbLine
 10
87.38431188273009
 20
170.1455140413144
 30
0.0
 11
87.38431188273009
 21
169.3455140413144
 31
0.0
  0
LINE
  5
5299
330
A
100
AcDbEntity
  8
DRAW
  6
CONTINUOUS
100
AcDbLine
 10
86.63431188273012
 20
169.3455140413144
 30
0.0
 11
86.63431188273012
 21
168.4455130413144
 31
0.0
  0
ARC
  5
529A
330
A
100
AcDbEntity
  8
DRAW
  6
CONTINUOUS
100
AcDbCircle
 10
83.74674888273011
 20
168.8455140413144
 30
0.0
 40
0.5
100
AcDbArc
 50
90.0
 51
179.34
  0
LINE
  5
529B
330
A
100
AcDbEntity
  8
DRAW
  6
CONTINUOUS
100
AcDbLine
 10
83.24678288273014
 20
168.8512740413144
 30
0.0
 11
83.24210788273012
 21
168.4455140413144
 31
0.0
  0
LINE
  5
529C
330
A
100
AcDbEntity
  8
DRAW
  6
CONTINUOUS
100
AcDbLine
 10
83.74674888273011
 20
169.3455140413144
 30
0.0
 11
85.13431188273012
 21
169.3455140413144
 31
0.0
  0
LINE
  5
529D
330
A
100
AcDbEntity
  8
DRAW
  6
CONTINUOUS
100
AcDbLine
 10
86.63431188273012
 20
169.3455140413144
 30
0.0
 11
87.38431188273009
 21
169.3455140413144
 31
0.0
  0
LINE
  5
529E
330
A
100
AcDbEntity
  8
DRAW
  6
CONTINUOUS
100
AcDbLine
 10
83.24210788273012
 20
168.4455140413144
 30
0.0
 11
84.67662288273016
 21
168.4455140413144
 31
0.0
  0
LINE
  5
529F
330
A
100
AcDbEntity
  8
DRAW
  6
CONTINUOUS
100
AcDbLine
 10
87.38431188273009
 20
169.3455140413144
 30
0.0
 11
87.38431188273009
 21
168.4455130413144
 31
0.0
  0
LINE
  5
52A0
330
A
100
AcDbEntity
  8
DRAW
  6
CONTINUOUS
100
AcDbLine
 10
85.13431188273012
 20
169.3455140413144
 30
0.0
 11
85.13431188273012
 21
168.4455130413144
 31
0.0
  0
LINE
  5
52A1
330
A
100
AcDbEntity
  8
DRAW
  6
CONTINUOUS
100
AcDbLine
 10
86.63431188273012
 20
170.1455140413144
 30
0.0
 11
85.13431188273012
 21
170.1455140413144
 31
0.0
  0
INSERT
  5
52A2
330
A
100
AcDbEntity
  8
DRAW-TEXT
100
AcDbBlockReference
  2
_G_T_21
 10
-514.3362191172696
 20
31.91508404131445
 30
0.0
  0
LINE
  5
52A3
330
A
100
AcDbEntity
  8
DRAW
  6
CONTINUOUS
100
AcDbLine
 10
86.87736088273016
 20
207.6142600413144
 30
0.0
 11
86.87736088273016
 21
205.6142600413144
 31
0.0
  0
LINE
  5
52A4
330
A
100
AcDbEntity
  8
DRAW
  6
CONTINUOUS
100
AcDbLine
 10
87.37736088273015
 20
207.6142600413144
 30
0.0
 11
87.37736088273015
 21
205.6142600413144
 31
0.0
  0
LINE
  5
52A5
330
A
100
AcDbEntity
  8
DRAW
  6
CONTINUOUS
100
AcDbLine
 10
86.87736088273016
 20
205.6142600413144
 30
0.0
 11
87.37736088273015
 21
205.6142600413144
 31
0.0
  0
LINE
  5
52A6
330
A
100
AcDbEntity
  8
DRAW
  6
CONTINUOUS
100
AcDbLine
 10
86.87736088273016
 20
207.6142600413144
 30
0.0
 11
87.37736088273015
 21
207.6142600413144
 31
0.0
  0
INSERT
  5
52A7
330
A
100
AcDbEntity
  8
DRAW-TEXT
100
AcDbBlockReference
  2
_G_T_6
 10
-514.3362191172696
 20
31.91508404131445
 30
0.0
  0
INSERT
  5
52A8
330
A
100
AcDbEntity
  8
DRAW-TEXT
100
AcDbBlockReference
  2
_G_T_7
 10
-514.3362191172696
 20
31.91508404131445
 30
0.0
  0
LINE
  5
52A9
330
A
100
AcDbEntity
  8
DRAW
  6
CONTINUOUS
100
AcDbLine
 10
88.12736088273016
 20
214.1142600413143
 30
0.0
 11
88.12736088273016
 21
213.6142600413144
 31
0.0
  0
LINE
  5
52AA
330
A
100
AcDbEntity
  8
DRAW
  6
CONTINUOUS
100
AcDbLine
 10
86.12736088273015
 20
214.1142600413143
 30
0.0
 11
86.12736088273015
 21
213.6142600413144
 31
0.0
  0
LINE
  5
52AB
330
A
100
AcDbEntity
  8
DRAW
  6
CONTINUOUS
100
AcDbLine
 10
86.12736088273015
 20
214.1142600413143
 30
0.0
 11
88.12736088273016
 21
214.1142600413143
 31
0.0
  0
LINE
  5
52AC
330
A
100
AcDbEntity
  8
DRAW
  6
CONTINUOUS
100
AcDbLine
 10
86.12736088273015
 20
213.6142600413144
 30
0.0
 11
88.12736088273016
 21
213.6142600413144
 31
0.0
  0
LINE
  5
52AD
330
A
100
AcDbEntity
  8
DRAW
  6
CONTINUOUS
100
AcDbLine
 10
86.12736088273015
 20
220.0142600413144
 30
0.0
 11
86.12736088273015
 21
219.5142600413144
 31
0.0
  0
LINE
  5
52AE
330
A
100
AcDbEntity
  8
DRAW
  6
CONTINUOUS
100
AcDbLine
 10
88.12736088273016
 20
220.0142600413144
 30
0.0
 11
88.12736088273016
 21
219.5142600413144
 31
0.0
  0
LINE
  5
52AF
330
A
100
AcDbEntity
  8
DRAW
  6
CONTINUOUS
100
AcDbLine
 10
86.12736088273015
 20
219.5142600413144
 30
0.0
 11
88.12736088273016
 21
219.5142600413144
 31
0.0
  0
LINE
  5
52B0
330
A
100
AcDbEntity
  8
DRAW
  6
CONTINUOUS
100
AcDbLine
 10
86.12736088273015
 20
220.0142600413144
 30
0.0
 11
88.12736088273016
 21
220.0142600413144
 31
0.0
  0
LINE
  5
52B1
330
A
100
AcDbEntity
  8
DRAW
  6
CONTINUOUS
100
AcDbLine
 10
88.12736088273016
 20
224.7642600413144
 30
0.0
 11
88.12736088273016
 21
224.2642600413144
 31
0.0
  0
LINE
  5
52B2
330
A
100
AcDbEntity
  8
DRAW
  6
CONTINUOUS
100
AcDbLine
 10
86.12736088273015
 20
224.7642600413144
 30
0.0
 11
86.12736088273015
 21
224.2642600413144
 31
0.0
  0
LINE
  5
52B3
330
A
100
AcDbEntity
  8
DRAW
  6
CONTINUOUS
100
AcDbLine
 10
86.12736088273015
 20
224.2642600413144
 30
0.0
 11
88.12736088273016
 21
224.2642600413144
 31
0.0
  0
LINE
  5
52B4
330
A
100
AcDbEntity
  8
DRAW
  6
CONTINUOUS
100
AcDbLine
 10
86.12736088273015
 20
224.7642600413144
 30
0.0
 11
88.12736088273016
 21
224.7642600413144
 31
0.0
  0
LINE
  5
52B5
330
A
100
AcDbEntity
  8
DRAW
  6
CONTINUOUS
100
AcDbLine
 10
153.7479218827301
 20
169.3455140413144
 30
0.0
 11
133.10501888273
 21
169.3455140413144
 31
0.0
  0
LINE
  5
52B6
330
A
100
AcDbEntity
  8
DRAW
  6
CONTINUOUS
100
AcDbLine
 10
95.13431188273012
 20
169.3455140413144
 30
0.0
 11
121.5844778827301
 21
169.3455140413144
 31
0.0
  0
LINE
  5
52B7
330
A
100
AcDbEntity
  8
DRAW
  6
CONTINUOUS
100
AcDbLine
 10
88.88431188273012
 20
170.1455140413144
 30
0.0
 11
88.88431188273012
 21
169.3455140413144
 31
0.0
  0
LINE
  5
52B8
330
A
100
AcDbEntity
  8
DRAW
  6
CONTINUOUS
100
AcDbLine
 10
88.88431188273012
 20
169.3455140413144
 30
0.0
 11
88.88431188273012
 21
168.4455130413144
 31
0.0
  0
LINE
  5
52B9
330
A
100
AcDbEntity
  8
DRAW
  6
CONTINUOUS
100
AcDbLine
 10
95.13431188273012
 20
168.8507500413144
 30
0.0
 11
95.13431188273012
 21
169.3455140413144
 31
0.0
  0
LINE
  5
52BA
330
A
100
AcDbEntity
  8
DRAW
  6
CONTINUOUS
100
AcDbLine
 10
88.88431188273012
 20
169.3455140413144
 30
0.0
 11
93.23431188273014
 21
169.3455140413144
 31
0.0
  0
LINE
  5
52BB
330
A
100
AcDbEntity
  8
DRAW
  6
CONTINUOUS
100
AcDbLine
 10
95.13431188273012
 20
168.8507500413144
 30
0.0
 11
95.13431188273012
 21
168.4455140413144
 31
0.0
  0
LINE
  5
52BC
330
A
100
AcDbEntity
  8
DRAW
  6
CONTINUOUS
100
AcDbLine
 10
93.23431188273014
 20
169.3455140413144
 30
0.0
 11
95.13431188273012
 21
169.3455140413144
 31
0.0
  0
LINE
  5
52BD
330
A
100
AcDbEntity
  8
DRAW
  6
CONTINUOUS
100
AcDbLine
 10
106.4843118827301
 20
169.3455140413144
 30
0.0
 11
106.4843118827301
 21
169.6455140413144
 31
0.0
  0
LINE
  5
52BE
330
A
100
AcDbEntity
  8
DRAW
  6
CONTINUOUS
100
AcDbLine
 10
110.28431188273
 20
169.3455140413144
 30
0.0
 11
110.28431188273
 21
169.6455140413144
 31
0.0
  0
LINE
  5
52BF
330
A
100
AcDbEntity
  8
DRAW
  6
CONTINUOUS
100
AcDbLine
 10
106.4843118827301
 20
169.6455140413144
 30
0.0
 11
110.28431188273
 21
169.6455140413144
 31
0.0
  0
LINE
  5
52C0
330
A
100
AcDbEntity
  8
DRAW
  6
CONTINUOUS
100
AcDbLine
 10
131.7676228827301
 20
169.3455140413144
 30
0.0
 11
133.10501888273
 21
169.3455140413144
 31
0.0
  0
LINE
  5
52C1
330
A
100
AcDbEntity
  8
DRAW
  6
CONTINUOUS
100
AcDbLine
 10
122.7218738827301
 20
169.3455140413144
 30
0.0
 11
121.5844778827301
 21
169.3455140413144
 31
0.0
  0
SPLINE
  5
52C2
330
A
100
AcDbEntity
  8
DRAW
  6
CONTINUOUS
100
AcDbSpline
210
0.0
220
0.0
230
1.0
 70
     8
 71
     3
 72
    14
 73
    10
 74
     8
 42
0.0000000001
 43
0.0000000001
 44
0.000001
 12
1.0
 22
0.0
 32
0.0
 13
0.0043377520371218
 23
-0.9999905919093762
 33
0.0
 40
0.0
 40
0.0
 40
0.0
 40
0.0
 40
0.0456008852988584
 40
0.1002042076974176
 40
0.1684821551354404
 40
0.2518497442922543
 40
0.3495053224562721
 40
0.4581835345894382
 40
0.5730430572669154
 40
0.5730430572669154
 40
0.5730430572669154
 40
0.5730430572669154
 10
121.5844782654474
 20
169.3455142151883
 30
0.0
 10
121.599678560547
 20
169.3455142151883
 30
0.0
 10
121.6333148408805
 20
169.3358295324108
 30
0.0
 10
121.6762183580488
 20
169.29793498485
 30
0.0
 10
121.7143190218802
 20
169.2401239458133
 30
0.0
 10
121.7465939111458
 20
169.1631587211527
 30
0.0
 10
121.7715151968224
 20
169.069626516629
 30
0.0
 10
121.7875859459018
 20
168.9635883076009
 30
0.0
 10
121.7914076134616
 20
168.8890362546026
 30
0.0
 10
121.7915736908378
 20
168.8507501072463
 30
0.0
 11
121.5844782654474
 21
169.3455142151883
 31
0.0
 11
121.6286116778395
 21
169.3340368383866
 31
0.0
 11
121.6710398356574
 21
169.2996659325833
 31
0.0
 11
121.7098323325547
 21
169.2434786515169
 31
0.0
 11
121.743076308703
 21
169.167026142511
 31
0.0
 11
121.7689033794117
 21
169.0728477508519
 31
0.0
 11
121.7855360929644
 21
168.9654498769032
 31
0.0
 11
121.7915736908378
 21
168.8507501072463
 31
0.0
  0
LINE
  5
52C3
330
A
100
AcDbEntity
  8
DRAW
  6
CONTINUOUS
100
AcDbLine
 10
123.2218598827302
 20
168.8495870413144
 30
0.0
 11
123.2218408827301
 21
168.8512740413144
 31
0.0
  0
ARC
  5
52C4
330
A
100
AcDbEntity
  8
DRAW
  6
CONTINUOUS
100
AcDbCircle
 10
122.7218808827301
 20
168.8455210413144
 30
0.0
 40
0.499993
100
AcDbArc
 50
0.6592110000000239
 51
90.00078899999998
  0
LINE
  5
52C5
330
A
100
AcDbEntity
  8
DRAW
  6
CONTINUOUS
100
AcDbLine
 10
131.2676378827301
 20
168.8495870413144
 30
0.0
 11
131.2676508827302
 21
168.8507500413144
 31
0.0
  0
ARC
  5
52C6
330
A
100
AcDbEntity
  8
DRAW
  6
CONTINUOUS
100
AcDbCircle
 10
131.76761588273
 20
168.8455210413144
 30
0.0
 40
0.499993
100
AcDbArc
 50
89.99922500000014
 51
179.400776
  0
SPLINE
  5
52C7
330
A
100
AcDbEntity
  8
DRAW
  6
CONTINUOUS
100
AcDbSpline
210
0.0
220
0.0
230
1.0
 70
     8
 71
     3
 72
    14
 73
    10
 74
     8
 42
0.0000000001
 43
0.0000000001
 44
0.000001
 12
0.0047715539394555
 22
0.9999886160717046
 32
0.0
 13
1.0
 23
0.0000000000000001
 33
0.0
 40
0.0
 40
0.0
 40
0.0
 40
0.0
 40
0.1147475292770582
 40
0.2233871846231518
 40
0.3209178511799488
 40
0.4041413890663034
 40
0.4723472492130992
 40
0.5269294837882557
 40
0.5725091828878101
 40
0.5725091828878101
 40
0.5725091828878101
 40
0.5725091828878101
 10
132.8979254965328
 20
168.851273674346
 30
0.0
 10
132.8981080045413
 20
168.8895224153458
 30
0.0
 10
132.9019745653303
 20
168.9640206065591
 30
0.0
 10
132.9180273260443
 20
169.069968325314
 30
0.0
 10
132.9429694771958
 20
169.1633905327357
 30
0.0
 10
132.9752636147117
 20
169.2402261651718
 30
0.0
 10
133.0133496034511
 20
169.2979417864324
 30
0.0
 10
133.0561973476803
 20
169.3358442645674
 30
0.0
 10
133.0898252823451
 20
169.3455142151883
 30
0.0
 10
133.1050185153783
 20
169.3455142151883
 30
0.0
 11
132.8979254965328
 21
168.851273674346
 31
0.0
 11
132.904008682208
 21
168.9658588844511
 31
0.0
 11
132.920653599104
 21
169.073215850063
 31
0.0
 11
132.9464934076254
 21
169.1672612132668
 31
0.0
 11
132.9797344921323
 21
169.2435578763064
 31
0.0
 11
133.0185056858507
 21
169.2996722613725
 31
0.0
 11
133.0609047092438
 21
169.3340456232868
 31
0.0
 11
133.1050185153783
 21
169.3455142151883
 31
0.0
  0
LINE
  5
52C8
330
A
100
AcDbEntity
  8
DRAW
  6
CONTINUOUS
100
AcDbLine
 10
137.1979208827301
 20
169.3455140413144
 30
0.0
 11
137.1979208827301
 21
169.6455140413144
 31
0.0
  0
LINE
  5
52C9
330
A
100
AcDbEntity
  8
DRAW
  6
CONTINUOUS
100
AcDbLine
 10
133.3979208827302
 20
169.3455140413144
 30
0.0
 11
133.3979208827302
 21
169.6455140413144
 31
0.0
  0
LINE
  5
52CA
330
A
100
AcDbEntity
  8
DRAW
  6
CONTINUOUS
100
AcDbLine
 10
133.3979208827302
 20
169.6455140413144
 30
0.0
 11
137.1979208827301
 21
169.6455140413144
 31
0.0
  0
LINE
  5
52CB
330
A
100
AcDbEntity
  8
DRAW
  6
CONTINUOUS
100
AcDbLine
 10
153.7479218827301
 20
168.4455140413144
 30
0.0
 11
156.79792188273
 21
168.4455140413144
 31
0.0
  0
LINE
  5
52CC
330
A
100
AcDbEntity
  8
DRAW
  6
CONTINUOUS
100
AcDbLine
 10
154.8479208827301
 20
169.3455140413144
 30
0.0
 11
153.7479208827301
 21
169.3455140413144
 31
0.0
  0
LINE
  5
52CD
330
A
100
AcDbEntity
  8
DRAW
  6
CONTINUOUS
100
AcDbLine
 10
153.7479218827301
 20
168.8512740413144
 30
0.0
 11
153.7479218827301
 21
169.3455140413144
 31
0.0
  0
LINE
  5
52CE
330
A
100
AcDbEntity
  8
DRAW
  6
CONTINUOUS
100
AcDbLine
 10
153.7479218827301
 20
168.8512740413144
 30
0.0
 11
153.7479218827301
 21
168.4455140413144
 31
0.0
  0
POINT
  5
52CF
330
A
100
AcDbEntity
  8
DRAW
  6
CONTINUOUS
100
AcDbPoint
 10
156.3479208827301
 20
170.1455140413144
 30
0.0
  0
LINE
  5
52D0
330
A
100
AcDbEntity
  8
DRAW
  6
CONTINUOUS
100
AcDbLine
 10
156.3479208827301
 20
170.1455140413144
 30
0.0
 11
156.3479208827301
 21
169.2955130413144
 31
0.0
  0
LINE
  5
52D1
330
A
100
AcDbEntity
  8
DRAW
  6
CONTINUOUS
100
AcDbLine
 10
154.8479208827301
 20
170.1455140413144
 30
0.0
 11
154.8479208827301
 21
169.2955130413144
 31
0.0
  0
LINE
  5
52D2
330
A
100
AcDbEntity
  8
DRAW
  6
CONTINUOUS
100
AcDbLine
 10
154.8479208827301
 20
169.2955130413144
 30
0.0
 11
154.8479208827301
 21
168.4455130413144
 31
0.0
  0
LINE
  5
52D3
330
A
100
AcDbEntity
  8
DRAW
  6
CONTINUOUS
100
AcDbLine
 10
156.3479208827301
 20
169.2955130413144
 30
0.0
 11
156.3479208827301
 21
168.4455130413144
 31
0.0
  0
ARC
  5
52D4
330
A
100
AcDbEntity
  8
DRAW
  6
CONTINUOUS
100
AcDbCircle
 10
157.72821888273
 20
168.8455140413144
 30
0.0
 40
0.5
100
AcDbArc
 50
0.5999999999999141
 51
90.0
  0
LINE
  5
52D5
330
A
100
AcDbEntity
  8
DRAW
  6
CONTINUOUS
100
AcDbLine
 10
158.2281918827301
 20
168.8507500413144
 30
0.0
 11
158.2324358827301
 21
168.4455140413144
 31
0.0
  0
LINE
  5
52D6
330
A
100
AcDbEntity
  8
DRAW
  6
CONTINUOUS
100
AcDbLine
 10
156.3479208827301
 20
169.3455140413144
 30
0.0
 11
157.72821888273
 21
169.3455140413144
 31
0.0
  0
LINE
  5
52D7
330
A
100
AcDbEntity
  8
DRAW
  6
CONTINUOUS
100
AcDbLine
 10
156.79792188273
 20
168.4455140413144
 30
0.0
 11
158.2324358827301
 21
168.4455140413144
 31
0.0
  0
LINE
  5
52D8
330
A
100
AcDbEntity
  8
DRAW
  6
CONTINUOUS
100
AcDbLine
 10
155.5979218827301
 20
170.1455140413144
 30
0.0
 11
156.3479208827301
 21
170.1455140413144
 31
0.0
  0
LINE
  5
52D9
330
A
100
AcDbEntity
  8
DRAW
  6
CONTINUOUS
100
AcDbLine
 10
154.8479208827301
 20
170.1455140413144
 30
0.0
 11
155.5979218827301
 21
170.1455140413144
 31
0.0
  0
INSERT
  5
52DA
330
A
100
AcDbEntity
  8
DRAW-TEXT
100
AcDbBlockReference
  2
_G_T_26
 10
-514.3362191172696
 20
31.91508404131445
 30
0.0
  0
INSERT
  5
52DB
330
A
100
AcDbEntity
  8
DRAW-TEXT
100
AcDbBlockReference
  2
_G_T_25
 10
-514.3362191172696
 20
31.91508404131445
 30
0.0
  0
INSERT
  5
52DC
330
A
100
AcDbEntity
  8
DRAW-TEXT
100
AcDbBlockReference
  2
_G_T_24
 10
-514.3362191172696
 20
31.91508404131445
 30
0.0
  0
INSERT
  5
52DD
330
A
100
AcDbEntity
  8
DRAW-TEXT
100
AcDbBlockReference
  2
_G_T_23
 10
-514.3362191172696
 20
31.91508404131445
 30
0.0
  0
INSERT
  5
52DE
330
A
100
AcDbEntity
  8
DRAW-TEXT
100
AcDbBlockReference
  2
_G_T_20
 10
-514.3362191172696
 20
31.91508404131445
 30
0.0
  0
INSERT
  5
52DF
330
A
100
AcDbEntity
  8
DRAW-TEXT
100
AcDbBlockReference
  2
_G_T_19
 10
-514.3362191172696
 20
31.91508404131445
 30
0.0
  0
INSERT
  5
52E0
330
A
100
AcDbEntity
  8
DRAW-TEXT
100
AcDbBlockReference
  2
_G_T_18
 10
-514.3362191172696
 20
31.91508404131445
 30
0.0
  0
TEXT
  5
52E1
330
A
100
AcDbEntity
  8
DRAW-TEXT
  6
CONTINUOUS
100
AcDbText
 10
114.2763038827302
 20
205.3310240413143
 30
0.0
 40
1.399999999999999
  1
A2
 41
0.95
  7
TSTYLE6
100
AcDbText
  0
LINE
  5
52E2
330
A
100
AcDbEntity
  8
DRAW
  6
CONTINUOUS
100
AcDbLine
 10
116.8773608827301
 20
207.6142600413144
 30
0.0
 11
116.8773608827301
 21
205.6142600413144
 31
0.0
  0
LINE
  5
52E3
330
A
100
AcDbEntity
  8
DRAW
  6
CONTINUOUS
100
AcDbLine
 10
117.37736088273
 20
207.6142600413144
 30
0.0
 11
117.37736088273
 21
205.6142600413144
 31
0.0
  0
LINE
  5
52E4
330
A
100
AcDbEntity
  8
DRAW
  6
CONTINUOUS
100
AcDbLine
 10
116.8773608827301
 20
205.6142600413144
 30
0.0
 11
117.37736088273
 21
205.6142600413144
 31
0.0
  0
LINE
  5
52E5
330
A
100
AcDbEntity
  8
DRAW
  6
CONTINUOUS
100
AcDbLine
 10
116.8773608827301
 20
207.6142600413144
 30
0.0
 11
117.37736088273
 21
207.6142600413144
 31
0.0
  0
INSERT
  5
52E6
330
A
100
AcDbEntity
  8
DRAW-TEXT
100
AcDbBlockReference
  2
_G_T_12
 10
-514.3362191172696
 20
31.91508404131445
 30
0.0
  0
INSERT
  5
52E7
330
A
100
AcDbEntity
  8
DRAW-TEXT
100
AcDbBlockReference
  2
_G_T_10
 10
-514.3362191172696
 20
31.91508404131445
 30
0.0
  0
LINE
  5
52E8
330
A
100
AcDbEntity
  8
DRAW
  6
CONTINUOUS
100
AcDbLine
 10
116.1273608827301
 20
213.6142600413144
 30
0.0
 11
118.1273608827301
 21
213.6142600413144
 31
0.0
  0
LINE
  5
52E9
330
A
100
AcDbEntity
  8
DRAW
  6
CONTINUOUS
100
AcDbLine
 10
116.1273608827301
 20
214.1142600413143
 30
0.0
 11
118.1273608827301
 21
214.1142600413143
 31
0.0
  0
LINE
  5
52EA
330
A
100
AcDbEntity
  8
DRAW
  6
CONTINUOUS
100
AcDbLine
 10
116.1273608827301
 20
219.5142600413144
 30
0.0
 11
118.1273608827301
 21
219.5142600413144
 31
0.0
  0
LINE
  5
52EB
330
A
100
AcDbEntity
  8
DRAW
  6
CONTINUOUS
100
AcDbLine
 10
116.1273608827301
 20
220.0142600413144
 30
0.0
 11
118.1273608827301
 21
220.0142600413144
 31
0.0
  0
LINE
  5
52EC
330
A
100
AcDbEntity
  8
DRAW
  6
CONTINUOUS
100
AcDbLine
 10
116.1273608827301
 20
224.2642600413144
 30
0.0
 11
118.1273608827301
 21
224.2642600413144
 31
0.0
  0
LINE
  5
52ED
330
A
100
AcDbEntity
  8
DRAW
  6
CONTINUOUS
100
AcDbLine
 10
116.1273608827301
 20
224.7642600413144
 30
0.0
 11
118.1273608827301
 21
224.7642600413144
 31
0.0
  0
INSERT
  5
52EE
330
A
100
AcDbEntity
  8
DRAW-TEXT
100
AcDbBlockReference
  2
_G_T_14
 10
-514.3362191172696
 20
31.91508404131445
 30
0.0
  0
INSERT
  5
52EF
330
A
100
AcDbEntity
  8
DRAW-TEXT
100
AcDbBlockReference
  2
_G_T_13
 10
-514.3362191172696
 20
31.91508404131445
 30
0.0
  0
INSERT
  5
52F0
330
A
100
AcDbEntity
  8
DRAW-TEXT
100
AcDbBlockReference
  2
_G_T_9
 10
-514.3362191172696
 20
31.91508404131445
 30
0.0
  0
INSERT
  5
52F1
330
A
100
AcDbEntity
  8
DRAW-TEXT
100
AcDbBlockReference
  2
_G_T_2
 10
-514.3362191172696
 20
31.91508404131445
 30
0.0
  0
INSERT
  5
52F2
330
A
100
AcDbEntity
  8
DRAW-TEXT
100
AcDbBlockReference
  2
_G_T_1
 10
-514.3362191172696
 20
31.91508404131445
 30
0.0
  0
INSERT
  5
52F3
330
A
100
AcDbEntity
  8
DRAW-TEXT
100
AcDbBlockReference
  2
_G_T_4
 10
-514.3362191172696
 20
31.91508404131445
 30
0.0
  0
INSERT
  5
52F4
330
A
100
AcDbEntity
  8
DRAW-TEXT
100
AcDbBlockReference
  2
_G_T_3
 10
-514.3362191172696
 20
31.91508404131445
 30
0.0
  0
LINE
  5
52F5
330
A
100
AcDbEntity
  8
DRAW
  6
CONTINUOUS
100
AcDbLine
 10
96.12736088273017
 20
213.6142600413144
 30
0.0
 11
98.12736088273016
 21
213.6142600413144
 31
0.0
  0
LINE
  5
52F6
330
A
100
AcDbEntity
  8
DRAW
  6
CONTINUOUS
100
AcDbLine
 10
96.12736088273017
 20
214.1142600413143
 30
0.0
 11
98.12736088273016
 21
214.1142600413143
 31
0.0
  0
LINE
  5
52F7
330
A
100
AcDbEntity
  8
DRAW
  6
CONTINUOUS
100
AcDbLine
 10
98.12736088273016
 20
214.1142600413143
 30
0.0
 11
98.12736088273016
 21
213.6142600413144
 31
0.0
  0
LINE
  5
52F8
330
A
100
AcDbEntity
  8
DRAW
  6
CONTINUOUS
100
AcDbLine
 10
96.12736088273017
 20
214.1142600413143
 30
0.0
 11
96.12736088273017
 21
213.6142600413144
 31
0.0
  0
LINE
  5
52F9
330
A
100
AcDbEntity
  8
DRAW
  6
CONTINUOUS
100
AcDbLine
 10
96.12736088273017
 20
219.5142600413144
 30
0.0
 11
98.12736088273016
 21
219.5142600413144
 31
0.0
  0
LINE
  5
52FA
330
A
100
AcDbEntity
  8
DRAW
  6
CONTINUOUS
100
AcDbLine
 10
96.12736088273017
 20
220.0142600413144
 30
0.0
 11
98.12736088273016
 21
220.0142600413144
 31
0.0
  0
LINE
  5
52FB
330
A
100
AcDbEntity
  8
DRAW
  6
CONTINUOUS
100
AcDbLine
 10
96.12736088273017
 20
220.0142600413144
 30
0.0
 11
96.12736088273017
 21
219.5142600413144
 31
0.0
  0
LINE
  5
52FC
330
A
100
AcDbEntity
  8
DRAW
  6
CONTINUOUS
100
AcDbLine
 10
98.12736088273016
 20
220.0142600413144
 30
0.0
 11
98.12736088273016
 21
219.5142600413144
 31
0.0
  0
INSERT
  5
52FD
330
A
100
AcDbEntity
  8
DRAW-TEXT
100
AcDbBlockReference
  2
_G_T_16
 10
-514.3362191172696
 20
31.91508404131445
 30
0.0
  0
INSERT
  5
52FE
330
A
100
AcDbEntity
  8
DRAW-TEXT
100
AcDbBlockReference
  2
_G_T_15
 10
-514.3362191172696
 20
31.91508404131445
 30
0.0
  0
INSERT
  5
52FF
330
A
100
AcDbEntity
  8
DRAW-TEXT
100
AcDbBlockReference
  2
_G_T_11
 10
-514.3362191172696
 20
31.91508404131445
 30
0.0
  0
LINE
  5
5300
330
A
100
AcDbEntity
  8
DRAW
  6
CONTINUOUS
100
AcDbLine
 10
106.12736088273
 20
214.1142600413143
 30
0.0
 11
108.12736088273
 21
214.1142600413143
 31
0.0
  0
LINE
  5
5301
330
A
100
AcDbEntity
  8
DRAW
  6
CONTINUOUS
100
AcDbLine
 10
106.12736088273
 20
213.6142600413144
 30
0.0
 11
108.12736088273
 21
213.6142600413144
 31
0.0
  0
LINE
  5
5302
330
A
100
AcDbEntity
  8
DRAW
  6
CONTINUOUS
100
AcDbLine
 10
108.12736088273
 20
214.1142600413143
 30
0.0
 11
108.12736088273
 21
213.6142600413144
 31
0.0
  0
LINE
  5
5303
330
A
100
AcDbEntity
  8
DRAW
  6
CONTINUOUS
100
AcDbLine
 10
106.12736088273
 20
214.1142600413143
 30
0.0
 11
106.12736088273
 21
213.6142600413144
 31
0.0
  0
LINE
  5
5304
330
A
100
AcDbEntity
  8
DRAW
  6
CONTINUOUS
100
AcDbLine
 10
116.1273608827301
 20
214.1142600413143
 30
0.0
 11
116.1273608827301
 21
213.6142600413144
 31
0.0
  0
LINE
  5
5305
330
A
100
AcDbEntity
  8
DRAW
  6
CONTINUOUS
100
AcDbLine
 10
106.12736088273
 20
220.0142600413144
 30
0.0
 11
108.12736088273
 21
220.0142600413144
 31
0.0
  0
LINE
  5
5306
330
A
100
AcDbEntity
  8
DRAW
  6
CONTINUOUS
100
AcDbLine
 10
106.12736088273
 20
219.5142600413144
 30
0.0
 11
108.12736088273
 21
219.5142600413144
 31
0.0
  0
LINE
  5
5307
330
A
100
AcDbEntity
  8
DRAW
  6
CONTINUOUS
100
AcDbLine
 10
106.12736088273
 20
220.0142600413144
 30
0.0
 11
106.12736088273
 21
219.5142600413144
 31
0.0
  0
LINE
  5
5308
330
A
100
AcDbEntity
  8
DRAW
  6
CONTINUOUS
100
AcDbLine
 10
108.12736088273
 20
220.0142600413144
 30
0.0
 11
108.12736088273
 21
219.5142600413144
 31
0.0
  0
LINE
  5
5309
330
A
100
AcDbEntity
  8
DRAW
  6
CONTINUOUS
100
AcDbLine
 10
116.1273608827301
 20
220.0142600413144
 30
0.0
 11
116.1273608827301
 21
219.5142600413144
 31
0.0
  0
LINE
  5
530A
330
A
100
AcDbEntity
  8
DRAW
  6
CONTINUOUS
100
AcDbLine
 10
96.12736088273017
 20
224.2642600413144
 30
0.0
 11
98.12736088273016
 21
224.2642600413144
 31
0.0
  0
LINE
  5
530B
330
A
100
AcDbEntity
  8
DRAW
  6
CONTINUOUS
100
AcDbLine
 10
96.12736088273017
 20
224.7642600413144
 30
0.0
 11
98.12736088273016
 21
224.7642600413144
 31
0.0
  0
LINE
  5
530C
330
A
100
AcDbEntity
  8
DRAW
  6
CONTINUOUS
100
AcDbLine
 10
96.12736088273017
 20
224.7642600413144
 30
0.0
 11
96.12736088273017
 21
224.2642600413144
 31
0.0
  0
LINE
  5
530D
330
A
100
AcDbEntity
  8
DRAW
  6
CONTINUOUS
100
AcDbLine
 10
98.12736088273016
 20
224.7642600413144
 30
0.0
 11
98.12736088273016
 21
224.2642600413144
 31
0.0
  0
LINE
  5
530E
330
A
100
AcDbEntity
  8
DRAW
  6
CONTINUOUS
100
AcDbLine
 10
106.12736088273
 20
224.7642600413144
 30
0.0
 11
108.12736088273
 21
224.7642600413144
 31
0.0
  0
LINE
  5
530F
330
A
100
AcDbEntity
  8
DRAW
  6
CONTINUOUS
100
AcDbLine
 10
106.12736088273
 20
224.2642600413144
 30
0.0
 11
108.12736088273
 21
224.2642600413144
 31
0.0
  0
LINE
  5
5310
330
A
100
AcDbEntity
  8
DRAW
  6
CONTINUOUS
100
AcDbLine
 10
106.12736088273
 20
224.7642600413144
 30
0.0
 11
106.12736088273
 21
224.2642600413144
 31
0.0
  0
LINE
  5
5311
330
A
100
AcDbEntity
  8
DRAW
  6
CONTINUOUS
100
AcDbLine
 10
108.12736088273
 20
224.7642600413144
 30
0.0
 11
108.12736088273
 21
224.2642600413144
 31
0.0
  0
LINE
  5
5312
330
A
100
AcDbEntity
  8
DRAW
  6
CONTINUOUS
100
AcDbLine
 10
116.1273608827301
 20
224.7642600413144
 30
0.0
 11
116.1273608827301
 21
224.2642600413144
 31
0.0
  0
LINE
  5
5313
330
A
100
AcDbEntity
  8
DRAW
  6
CONTINUOUS
100
AcDbLine
 10
118.1273608827301
 20
214.1142600413143
 30
0.0
 11
118.1273608827301
 21
213.6142600413144
 31
0.0
  0
LINE
  5
5314
330
A
100
AcDbEntity
  8
DRAW
  6
CONTINUOUS
100
AcDbLine
 10
118.1273608827301
 20
220.0142600413144
 30
0.0
 11
118.1273608827301
 21
219.5142600413144
 31
0.0
  0
LINE
  5
5315
330
A
100
AcDbEntity
  8
DRAW
  6
CONTINUOUS
100
AcDbLine
 10
118.1273608827301
 20
224.7642600413144
 30
0.0
 11
118.1273608827301
 21
224.2642600413144
 31
0.0
  0
ENDSEC
  0
SECTION
  2
OBJECTS
  0
DICTIONARY
  5
19
330
0
100
AcDbDictionary
  3
ACAD_GROUP
350
1A
  3
ACAD_LAYOUT
350
4EF8
  3
ACAD_MLINESTYLE
350
1B
  3
ACAD_PLOTSETTINGS
350
4EF9
  3
ACAD_PLOTSTYLENAME
350
4EF6
  3
ACDBHEADERROUNDTRIPXREC
350
5494
  3
ACDBVARIABLEDICTIONARY
350
4F34
  0
DICTIONARY
  5
4F57
330
A
100
AcDbDictionary
280
     1
  3
ACAD_LAYOUTSELFREF
360
54B4
  0
DICTIONARY
  5
4F59
330
B
100
AcDbDictionary
280
     1
  3
ACAD_LAYOUTSELFREF
360
54B5
  0
DICTIONARY
  5
1A
102
{ACAD_REACTORS
330
19
102
}
330
19
100
AcDbDictionary
  0
DICTIONARY
  5
4EF8
102
{ACAD_REACTORS
330
19
102
}
330
19
100
AcDbDictionary
  0
DICTIONARY
  5
1B
102
{ACAD_REACTORS
330
19
102
}
330
19
100
AcDbDictionary
  3
STANDARD
350
1C
  0
DICTIONARY
  5
4EF9
102
{ACAD_REACTORS
330
19
102
}
330
19
100
AcDbDictionary
  0
ACDBDICTIONARYWDFLT
  5
4EF6
102
{ACAD_REACTORS
330
19
102
}
330
19
100
AcDbDictionary
281
     1
  3
Normal
350
4EF7
100
AcDbDictionaryWithDefault
340
4EF7
  0
DICTIONARY
  5
5494
102
{ACAD_REACTORS
330
19
102
}
330
19
100
AcDbDictionary
  3
CEPSNTYPE
350
549E
  3
FINGERPRINTGUID
350
549F
  3
HYPERLINKBASE
350
5497
  3
INSUNITS
350
549D
  3
LAYOUTDICT
350
5499
  3
LWETCUNION
350
549C
  3
PLOTSETDICT
350
549A
  3
PLOTSTYLNAMDICT
350
549B
  3
PSVPSCALE
350
54A1
  3
PUCSBASE
350
54A4
  3
PUCSORGBACK
350
54AA
  3
PUCSORGBOTTOM
350
54A6
  3
PUCSORGFRONT
350
54A9
  3
PUCSORGLEFT
350
54A7
  3
PUCSORGRIGHT
350
54A8
  3
PUCSORGTOP
350
54A5
  3
PUCSORTHOREF
350
54A2
  3
PUCSORTHOVIEW
350
54A3
  3
STYLESHEET
350
5498
  3
TSTACKALIGN
350
5495
  3
TSTACKSIZE
350
5496
  3
UCSBASE
350
54AD
  3
UCSORGBACK
350
54B3
  3
UCSORGBOTTOM
350
54AF
  3
UCSORGFRONT
350
54B2
  3
UCSORGLEFT
350
54B0
  3
UCSORGRIGHT
350
54B1
  3
UCSORGTOP
350
54AE
  3
UCSORTHOREF
350
54AB
  3
UCSORTHOVIEW
350
54AC
  3
VERSIONGUID
350
54A0
  0
DICTIONARY
  5
4F34
102
{ACAD_REACTORS
330
19
102
}
330
19
100
AcDbDictionary
  3
DIMASSOC
350
4F35
  0
XRECORD
  5
54B4
102
{ACAD_REACTORS
330
4F57
102
}
330
4F57
100
AcDbXrecord
340
A
  0
XRECORD
  5
54B5
102
{ACAD_REACTORS
330
4F59
102
}
330
4F59
100
AcDbXrecord
340
B
  0
MLINESTYLE
  5
1C
102
{ACAD_REACTORS
330
1B
102
}
330
1B
100
AcDbMlineStyle
  2
STANDARD
 70
     0
  3

 62
     0
 51
90.0
 52
90.0
 71
     2
 49
0.5
 62
   256
  6
BYLAYER
 49
-0.5
 62
   256
  6
BYLAYER
  0
ACDBPLACEHOLDER
  5
4EF7
102
{ACAD_REACTORS
330
4EF6
102
}
330
4EF6
100
AcDbPlaceHolder
280
     0
  0
XRECORD
  5
549E
102
{ACAD_REACTORS
330
5494
102
}
330
5494
100
AcDbXrecord
 90
        0
  0
XRECORD
  5
549F
102
{ACAD_REACTORS
330
5494
102
}
330
5494
100
AcDbXrecord
  1
{BB9255C5-B997-4A53-A53C-E982077E6E11}
  0
XRECORD
  5
5497
102
{ACAD_REACTORS
330
5494
102
}
330
5494
100
AcDbXrecord
  1

  0
XRECORD
  5
549D
102
{ACAD_REACTORS
330
5494
102
}
330
5494
100
AcDbXrecord
 90
        0
  0
XRECORD
  5
5499
102
{ACAD_REACTORS
330
5494
102
}
330
5494
100
AcDbXrecord
340
4EF8
  0
XRECORD
  5
549C
102
{ACAD_REACTORS
330
5494
102
}
330
5494
100
AcDbXrecord
 90
    10781
  0
XRECORD
  5
549A
102
{ACAD_REACTORS
330
5494
102
}
330
5494
100
AcDbXrecord
340
4EF9
  0
XRECORD
  5
549B
102
{ACAD_REACTORS
330
5494
102
}
330
5494
100
AcDbXrecord
340
4EF6
  0
XRECORD
  5
54A1
102
{ACAD_REACTORS
330
5494
102
}
330
5494
100
AcDbXrecord
 40
0.0
  0
XRECORD
  5
54A4
102
{ACAD_REACTORS
330
5494
102
}
330
5494
100
AcDbXrecord
340
0
  0
XRECORD
  5
54AA
102
{ACAD_REACTORS
330
5494
102
}
330
5494
100
AcDbXrecord
 10
0.0
 20
0.0
 30
0.0
  0
XRECORD
  5
54A6
102
{ACAD_REACTORS
330
5494
102
}
330
5494
100
AcDbXrecord
 10
0.0
 20
0.0
 30
0.0
  0
XRECORD
  5
54A9
102
{ACAD_REACTORS
330
5494
102
}
330
5494
100
AcDbXrecord
 10
0.0
 20
0.0
 30
0.0
  0
XRECORD
  5
54A7
102
{ACAD_REACTORS
330
5494
102
}
330
5494
100
AcDbXrecord
 10
0.0
 20
0.0
 30
0.0
  0
XRECORD
  5
54A8
102
{ACAD_REACTORS
330
5494
102
}
330
5494
100
AcDbXrecord
 10
0.0
 20
0.0
 30
0.0
  0
XRECORD
  5
54A5
102
{ACAD_REACTORS
330
5494
102
}
330
5494
100
AcDbXrecord
 10
0.0
 20
0.0
 30
0.0
  0
XRECORD
  5
54A2
102
{ACAD_REACTORS
330
5494
102
}
330
5494
100
AcDbXrecord
340
0
  0
XRECORD
  5
54A3
102
{ACAD_REACTORS
330
5494
102
}
330
5494
100
AcDbXrecord
 70
     0
  0
XRECORD
  5
5498
102
{ACAD_REACTORS
330
5494
102
}
330
5494
100
AcDbXrecord
  1

  0
XRECORD
  5
5495
102
{ACAD_REACTORS
330
5494
102
}
330
5494
100
AcDbXrecord
 90
        1
  0
XRECORD
  5
5496
102
{ACAD_REACTORS
330
5494
102
}
330
5494
100
AcDbXrecord
 90
       70
  0
XRECORD
  5
54AD
102
{ACAD_REACTORS
330
5494
102
}
330
5494
100
AcDbXrecord
340
0
  0
XRECORD
  5
54B3
102
{ACAD_REACTORS
330
5494
102
}
330
5494
100
AcDbXrecord
 10
0.0
 20
0.0
 30
0.0
  0
XRECORD
  5
54AF
102
{ACAD_REACTORS
330
5494
102
}
330
5494
100
AcDbXrecord
 10
0.0
 20
0.0
 30
0.0
  0
XRECORD
  5
54B2
102
{ACAD_REACTORS
330
5494
102
}
330
5494
100
AcDbXrecord
 10
0.0
 20
0.0
 30
0.0
  0
XRECORD
  5
54B0
102
{ACAD_REACTORS
330
5494
102
}
330
5494
100
AcDbXrecord
 10
0.0
 20
0.0
 30
0.0
  0
XRECORD
  5
54B1
102
{ACAD_REACTORS
330
5494
102
}
330
5494
100
AcDbXrecord
 10
0.0
 20
0.0
 30
0.0
  0
XRECORD
  5
54AE
102
{ACAD_REACTORS
330
5494
102
}
330
5494
100
AcDbXrecord
 10
0.0
 20
0.0
 30
0.0
  0
XRECORD
  5
54AB
102
{ACAD_REACTORS
330
5494
102
}
330
5494
100
AcDbXrecord
340
0
  0
XRECORD
  5
54AC
102
{ACAD_REACTORS
330
5494
102
}
330
5494
100
AcDbXrecord
 70
     0
  0
XRECORD
  5
54A0
102
{ACAD_REACTORS
330
5494
102
}
330
5494
100
AcDbXrecord
  1
{17C5E324-BC2B-4485-88C5-79BBA96781FD}
  0
DICTIONARYVAR
  5
4F35
102
{ACAD_REACTORS
330
4F34
102
}
330
4F34
100
DictionaryVariables
280
     0
  1
1
  0
ENDSEC
  0
EOF
