  0
SECTION
  2
HEADER
  9
$ACADVER
  1
AC1014
  9
$ACADMAINTVER
 70
     9
  9
$DWGCODEPAGE
  3
ANSI_1252
  9
$INSBASE
 10
0.0
 20
0.0
 30
0.0
  9
$EXTMIN
 10
1.000000E+20
 20
1.000000E+20
 30
1.000000E+20
  9
$EXTMAX
 10
-1.000000E+20
 20
-1.000000E+20
 30
-1.000000E+20
  9
$LIMMIN
 10
0.0
 20
0.0
  9
$LIMMAX
 10
420.0
 20
297.0
  9
$ORTHOMODE
 70
     0
  9
$REGENMODE
 70
     1
  9
$FILLMODE
 70
     1
  9
$QTEXTMODE
 70
     0
  9
$MIRRTEXT
 70
     1
  9
$DRAGMODE
 70
     2
  9
$LTSCALE
 40
1.0
  9
$OSMODE
 70
    37
  9
$ATTMODE
 70
     1
  9
$TEXTSIZE
 40
2.5
  9
$TRACEWID
 40
1.0
  9
$TEXTSTYLE
  7
STANDARD
  9
$CLAYER
  8
0
  9
$CELTYPE
  6
BYLAYER
  9
$CECOLOR
 62
   256
  9
$CELTSCALE
 40
1.0
  9
$DELOBJ
 70
     1
  9
$DISPSILH
 70
     0
  9
$DIMSCALE
 40
1.0
  9
$DIMASZ
 40
2.5
  9
$DIMEXO
 40
0.625
  9
$DIMDLI
 40
3.75
  9
$DIMRND
 40
0.0
  9
$DIMDLE
 40
0.0
  9
$DIMEXE
 40
1.25
  9
$DIMTP
 40
0.0
  9
$DIMTM
 40
0.0
  9
$DIMTXT
 40
2.5
  9
$DIMCEN
 40
2.5
  9
$DIMTSZ
 40
0.0
  9
$DIMTOL
 70
     0
  9
$DIMLIM
 70
     0
  9
$DIMTIH
 70
     0
  9
$DIMTOH
 70
     0
  9
$DIMSE1
 70
     0
  9
$DIMSE2
 70
     0
  9
$DIMTAD
 70
     1
  9
$DIMZIN
 70
     8
  9
$DIMBLK
  1

  9
$DIMASO
 70
     1
  9
$DIMSHO
 70
     1
  9
$DIMPOST
  1

  9
$DIMAPOST
  1

  9
$DIMALT
 70
     0
  9
$DIMALTD
 70
     3
  9
$DIMALTF
 40
0.03937
  9
$DIMLFAC
 40
1.0
  9
$DIMTOFL
 70
     1
  9
$DIMTVP
 40
0.0
  9
$DIMTIX
 70
     0
  9
$DIMSOXD
 70
     0
  9
$DIMSAH
 70
     0
  9
$DIMBLK1
  1

  9
$DIMBLK2
  1

  9
$DIMSTYLE
  2
ISO-25
  9
$DIMCLRD
 70
     0
  9
$DIMCLRE
 70
     0
  9
$DIMCLRT
 70
     0
  9
$DIMTFAC
 40
1.0
  9
$DIMGAP
 40
0.625
  9
$DIMJUST
 70
     0
  9
$DIMSD1
 70
     0
  9
$DIMSD2
 70
     0
  9
$DIMTOLJ
 70
     0
  9
$DIMTZIN
 70
     8
  9
$DIMALTZ
 70
     0
  9
$DIMALTTZ
 70
     0
  9
$DIMFIT
 70
     3
  9
$DIMUPT
 70
     0
  9
$DIMUNIT
 70
     2
  9
$DIMDEC
 70
     2
  9
$DIMTDEC
 70
     2
  9
$DIMALTU
 70
     2
  9
$DIMALTTD
 70
     3
  9
$DIMTXSTY
  7
STANDARD
  9
$DIMAUNIT
 70
     0
  9
$LUNITS
 70
     2
  9
$LUPREC
 70
     4
  9
$SKETCHINC
 40
1.0
  9
$FILLETRAD
 40
10.0
  9
$AUNITS
 70
     0
  9
$AUPREC
 70
     0
  9
$MENU
  1
.
  9
$ELEVATION
 40
0.0
  9
$PELEVATION
 40
0.0
  9
$THICKNESS
 40
0.0
  9
$LIMCHECK
 70
     0
  9
$CHAMFERA
 40
10.0
  9
$CHAMFERB
 40
10.0
  9
$CHAMFERC
 40
20.0
  9
$CHAMFERD
 40
0.0
  9
$SKPOLY
 70
     0
  9
$TDCREATE
 40
2455834.435078646
  9
$TDUPDATE
 40
2455834.435078657
  9
$TDINDWG
 40
0.0000000116
  9
$TDUSRTIMER
 40
0.0000000116
  9
$USRTIMER
 70
     1
  9
$ANGBASE
 50
0.0
  9
$ANGDIR
 70
     0
  9
$PDMODE
 70
     0
  9
$PDSIZE
 40
0.0
  9
$PLINEWID
 40
0.0
  9
$COORDS
 70
     1
  9
$SPLFRAME
 70
     0
  9
$SPLINETYPE
 70
     6
  9
$SPLINESEGS
 70
     8
  9
$ATTDIA
 70
     0
  9
$ATTREQ
 70
     1
  9
$HANDLING
 70
     1
  9
$HANDSEED
  5
3FF
  9
$SURFTAB1
 70
     6
  9
$SURFTAB2
 70
     6
  9
$SURFTYPE
 70
     6
  9
$SURFU
 70
     6
  9
$SURFV
 70
     6
  9
$UCSNAME
  2

  9
$UCSORG
 10
0.0
 20
0.0
 30
0.0
  9
$UCSXDIR
 10
1.0
 20
0.0
 30
0.0
  9
$UCSYDIR
 10
0.0
 20
1.0
 30
0.0
  9
$PUCSNAME
  2

  9
$PUCSORG
 10
0.0
 20
0.0
 30
0.0
  9
$PUCSXDIR
 10
1.0
 20
0.0
 30
0.0
  9
$PUCSYDIR
 10
0.0
 20
1.0
 30
0.0
  9
$USERI1
 70
     0
  9
$USERI2
 70
     0
  9
$USERI3
 70
     0
  9
$USERI4
 70
     0
  9
$USERI5
 70
     0
  9
$USERR1
 40
0.0
  9
$USERR2
 40
0.0
  9
$USERR3
 40
0.0
  9
$USERR4
 40
0.0
  9
$USERR5
 40
0.0
  9
$WORLDVIEW
 70
     1
  9
$SHADEDGE
 70
     3
  9
$SHADEDIF
 70
    70
  9
$TILEMODE
 70
     1
  9
$MAXACTVP
 70
    64
  9
$PINSBASE
 10
0.0
 20
0.0
 30
0.0
  9
$PLIMCHECK
 70
     0
  9
$PEXTMIN
 10
1.000000E+20
 20
1.000000E+20
 30
1.000000E+20
  9
$PEXTMAX
 10
-1.000000E+20
 20
-1.000000E+20
 30
-1.000000E+20
  9
$PLIMMIN
 10
0.0
 20
0.0
  9
$PLIMMAX
 10
420.0
 20
297.0
  9
$UNITMODE
 70
     0
  9
$VISRETAIN
 70
     1
  9
$PLINEGEN
 70
     0
  9
$PSLTSCALE
 70
     1
  9
$TREEDEPTH
 70
  3020
  9
$PICKSTYLE
 70
     1
  9
$CMLSTYLE
  2
STANDARD
  9
$CMLJUST
 70
     0
  9
$CMLSCALE
 40
20.0
  9
$PROXYGRAPHICS
 70
     1
  9
$MEASUREMENT
 70
     1
  0
ENDSEC
  0
SECTION
  2
CLASSES
  0
CLASS
  1
ACDBDICTIONARYWDFLT
  2
AcDbDictionaryWithDefault
  3
ObjectDBX Classes
 90
        0
280
     0
281
     0
  0
CLASS
  1
VISUALSTYLE
  2
AcDbVisualStyle
  3
ObjectDBX Classes
 90
     4095
280
     0
281
     0
  0
CLASS
  1
DICTIONARYVAR
  2
AcDbDictionaryVar
  3
ObjectDBX Classes
 90
        0
280
     0
281
     0
  0
CLASS
  1
XRECORD
  2
AcDbXrecord
  3
AutoCAD 2000
 90
        0
280
     0
281
     0
  0
CLASS
  1
LWPOLYLINE
  2
AcDbPolyline
  3
AutoCAD 2000
 90
        0
280
     0
281
     1
  0
CLASS
  1
HATCH
  2
AcDbHatch
  3
AutoCAD 2000
 90
        0
280
     0
281
     1
  0
CLASS
  1
ACDBPLACEHOLDER
  2
AcDbPlaceHolder
  3
ObjectDBX Classes
 90
        0
280
     0
281
     0
  0
CLASS
  1
LAYOUT
  2
AcDbLayout
  3
ObjectDBX Classes
 90
        0
280
     0
281
     0
  0
ENDSEC
  0
SECTION
  2
TABLES
  0
TABLE
  2
VPORT
  5
8
330
0
100
AcDbSymbolTable
 70
     1
  0
VPORT
  5
29
330
8
100
AcDbSymbolTableRecord
100
AcDbViewportTableRecord
  2
*ACTIVE
 70
     0
 10
0.0
 20
0.0
 11
1.0
 21
1.0
 12
344.186916
 22
148.5
 13
0.0
 23
0.0
 14
10.0
 24
10.0
 15
10.0
 25
10.0
 16
0.0
 26
0.0
 36
1.0
 17
0.0
 27
0.0
 37
0.0
 40
297.0
 41
1.972973
 42
50.0
 43
0.0
 44
0.0
 50
0.0
 51
0.0
 71
     0
 72
   100
 73
     1
 74
     3
 75
     0
 76
     0
 77
     0
 78
     0
  0
ENDTAB
  0
TABLE
  2
LTYPE
  5
5
330
0
100
AcDbSymbolTable
 70
     1
  0
LTYPE
  5
14
330
5
100
AcDbSymbolTableRecord
100
AcDbLinetypeTableRecord
  2
BYBLOCK
 70
     0
  3

 72
    65
 73
     0
 40
0.0
  0
LTYPE
  5
15
330
5
100
AcDbSymbolTableRecord
100
AcDbLinetypeTableRecord
  2
BYLAYER
 70
     0
  3

 72
    65
 73
     0
 40
0.0
  0
LTYPE
  5
16
330
5
100
AcDbSymbolTableRecord
100
AcDbLinetypeTableRecord
  2
CONTINUOUS
 70
     0
  3
Solid line
 72
    65
 73
     0
 40
0.0
  0
ENDTAB
  0
TABLE
  2
LAYER
  5
2
330
0
100
AcDbSymbolTable
 70
     6
  0
LAYER
  5
10
330
2
100
AcDbSymbolTableRecord
100
AcDbLayerTableRecord
  2
0
 70
     0
 62
     7
  6
CONTINUOUS
  0
LAYER
  5
3B
330
2
100
AcDbSymbolTableRecord
100
AcDbLayerTableRecord
  2
DIM
 70
     0
 62
     7
  6
CONTINUOUS
  0
LAYER
  5
3C
330
2
100
AcDbSymbolTableRecord
100
AcDbLayerTableRecord
  2
DRAW
 70
     0
 62
     7
  6
CONTINUOUS
  0
LAYER
  5
3D
330
2
100
AcDbSymbolTableRecord
100
AcDbLayerTableRecord
  2
CARTOUCHE
 70
     0
 62
     7
  6
CONTINUOUS
  0
LAYER
  5
3E
330
2
100
AcDbSymbolTableRecord
100
AcDbLayerTableRecord
  2
DRAW-TEXT
 70
     0
 62
     7
  6
CONTINUOUS
  0
LAYER
  5
3F
330
2
100
AcDbSymbolTableRecord
100
AcDbLayerTableRecord
  2
DEFPOINTS
 70
     0
 62
     7
  6
CONTINUOUS
  0
ENDTAB
  0
TABLE
  2
STYLE
  5
3
330
0
100
AcDbSymbolTable
 70
    17
  0
STYLE
  5
11
330
3
100
AcDbSymbolTableRecord
100
AcDbTextStyleTableRecord
  2
STANDARD
 70
     0
 40
0.0
 41
1.0
 50
0.0
 71
     0
 42
2.5
  3
txt
  4

1001
ACAD
1000
txt
1071
        0
  0
STYLE
  5
40
330
3
100
AcDbSymbolTableRecord
100
AcDbTextStyleTableRecord
  2
DEFAULT
 70
     0
 40
0.0
 41
1.0
 50
0.0
 71
     0
 42
0.2
  3

  4

1001
ACAD
1000
txt
1071
        0
  0
STYLE
  5
41
330
3
100
AcDbSymbolTableRecord
100
AcDbTextStyleTableRecord
  2
FINDER
 70
     0
 40
0.0
 41
1.0
 50
0.0
 71
     0
 42
0.2
  3

  4

1001
ACAD
1000
Arial
1071
        0
  0
STYLE
  5
42
330
3
100
AcDbSymbolTableRecord
100
AcDbTextStyleTableRecord
  2
ISO_FINDER
 70
     0
 40
0.0
 41
1.0
 50
0.0
 71
     0
 42
0.2
  3

  4

1001
ACAD
1000
Arial
1071
        0
  0
STYLE
  5
43
330
3
100
AcDbSymbolTableRecord
100
AcDbTextStyleTableRecord
  2
TSTYLE1
 70
     0
 40
0.0
 41
1.0
 50
0.0
 71
     0
 42
0.2
  3

  4

1001
ACAD
1000
Arial
1071
        0
  0
STYLE
  5
44
330
3
100
AcDbSymbolTableRecord
100
AcDbTextStyleTableRecord
  2
TSTYLE2
 70
     0
 40
0.0
 41
1.0
 50
0.0
 71
     0
 42
0.2
  3

  4

1001
ACAD
1000
Arial
1071
        0
  0
STYLE
  5
45
330
3
100
AcDbSymbolTableRecord
100
AcDbTextStyleTableRecord
  2
TSTYLE3
 70
     0
 40
0.0
 41
1.0
 50
0.0
 71
     0
 42
0.2
  3

  4

1001
ACAD
1000
Arial
1071
        0
  0
STYLE
  5
46
330
3
100
AcDbSymbolTableRecord
100
AcDbTextStyleTableRecord
  2
TSTYLE4
 70
     0
 40
0.0
 41
1.0
 50
0.0
 71
     0
 42
0.2
  3

  4

1001
ACAD
1000
Arial
1071
        0
  0
STYLE
  5
47
330
3
100
AcDbSymbolTableRecord
100
AcDbTextStyleTableRecord
  2
TSTYLE5
 70
     0
 40
0.0
 41
1.0
 50
0.0
 71
     0
 42
0.2
  3

  4

1001
ACAD
1000
Arial
1071
        0
  0
STYLE
  5
48
330
3
100
AcDbSymbolTableRecord
100
AcDbTextStyleTableRecord
  2
TSTYLE11
 70
     0
 40
0.0
 41
1.0
 50
0.0
 71
     0
 42
0.2
  3

  4

1001
ACAD
1000
Arial
1071
        0
  0
STYLE
  5
49
330
3
100
AcDbSymbolTableRecord
100
AcDbTextStyleTableRecord
  2
TSTYLE23
 70
     0
 40
0.0
 41
1.0
 50
0.0
 71
     0
 42
0.2
  3

  4

1001
ACAD
1000
Arial
1071
        0
  0
STYLE
  5
4A
330
3
100
AcDbSymbolTableRecord
100
AcDbTextStyleTableRecord
  2
TSTYLE22
 70
     0
 40
0.0
 41
1.0
 50
0.0
 71
     0
 42
0.2
  3

  4

1001
ACAD
1000
Arial
1071
        0
  0
STYLE
  5
4B
330
3
100
AcDbSymbolTableRecord
100
AcDbTextStyleTableRecord
  2
ISO
 70
     0
 40
0.0
 41
1.0
 50
0.0
 71
     0
 42
0.2
  3

  4

1001
ACAD
1000
ISOCP
1071
        0
  0
STYLE
  5
4C
330
3
100
AcDbSymbolTableRecord
100
AcDbTextStyleTableRecord
  2
HELVETICAR
 70
     0
 40
0.0
 41
1.0
 50
0.0
 71
     0
 42
0.2
  3

  4

1001
ACAD
1000
Swis721 Cn BT
1071
        0
  0
STYLE
  5
4D
330
3
100
AcDbSymbolTableRecord
100
AcDbTextStyleTableRecord
  2
ROMANS
 70
     0
 40
0.0
 41
1.0
 50
0.0
 71
     0
 42
0.2
  3

  4

1001
ACAD
1000
romans
1071
        0
  0
STYLE
  5
4E
330
3
100
AcDbSymbolTableRecord
100
AcDbTextStyleTableRecord
  2
STD
 70
     0
 40
0.0
 41
1.0
 50
0.0
 71
     0
 42
0.2
  3

  4

1001
ACAD
1000
txt
1071
        0
  0
STYLE
  5
4F
330
3
100
AcDbSymbolTableRecord
100
AcDbTextStyleTableRecord
  2
STYLE1
 70
     0
 40
0.0
 41
1.0
 50
0.0
 71
     0
 42
0.2
  3

  4

1001
ACAD
1000
Arial Black
1071
        0
  0
ENDTAB
  0
TABLE
  2
VIEW
  5
6
330
0
100
AcDbSymbolTable
 70
     0
  0
ENDTAB
  0
TABLE
  2
UCS
  5
7
330
0
100
AcDbSymbolTable
 70
     0
  0
ENDTAB
  0
TABLE
  2
APPID
  5
9
330
0
100
AcDbSymbolTable
 70
     1
  0
APPID
  5
12
330
9
100
AcDbSymbolTableRecord
100
AcDbRegAppTableRecord
  2
ACAD
 70
     0
  0
ENDTAB
  0
TABLE
  2
DIMSTYLE
  5
A
330
0
100
AcDbSymbolTable
 70
    12
  0
DIMSTYLE
105
27
330
A
100
AcDbSymbolTableRecord
100
AcDbDimStyleTableRecord
  2
ISO-25
 70
     0
  3

  4

  5

  6

  7

 40
1.0
 41
2.5
 42
0.625
 43
3.75
 44
1.25
 45
0.0
 46
0.0
 47
0.0
 48
0.0
140
2.5
141
2.5
142
0.0
143
0.03937
144
1.0
145
0.0
146
1.0
147
0.625
 71
     0
 72
     0
 73
     0
 74
     0
 75
     0
 76
     0
 77
     1
 78
     8
170
     0
171
     3
172
     1
173
     0
174
     0
175
     0
176
     0
177
     0
178
     0
270
     2
271
     2
272
     2
273
     2
274
     3
340
11
275
     0
280
     0
281
     0
282
     0
283
     0
284
     8
285
     0
286
     0
287
     3
288
     0
  0
DIMSTYLE
105
50
330
A
100
AcDbSymbolTableRecord
100
AcDbDimStyleTableRecord
  2
DEFAULT
 70
     0
  3
<>
  4

  5
CLOSED
  6

  7

 40
1.0
 41
4.375
 42
1.05
 43
0.38
 44
2.1
 45
0.0
 46
0.0
 47
0.0
 48
0.0
140
3.5
141
0.09
142
0.0
143
25.4
144
1.0
145
0.0
146
0.4
147
1.75
 71
     0
 72
     0
 73
     0
 74
     0
 75
     0
 76
     0
 77
     1
 78
     8
170
     0
171
     2
172
     0
173
     0
174
     0
175
     0
176
     0
177
     0
178
     2
270
     2
271
     2
272
     3
273
     2
274
     2
340
40
275
     0
280
     0
281
     0
282
     0
283
     1
284
     8
285
     0
286
     0
287
     3
288
     0
  0
DIMSTYLE
105
58
330
A
100
AcDbSymbolTableRecord
100
AcDbDimStyleTableRecord
  2
DEFAULTDIMENSIONSTYLE
 70
     0
  3
<>
  4

  5

  6

  7

 40
1.0
 41
2.5
 42
0.875
 43
0.38
 44
1.75
 45
0.0
 46
0.0
 47
0.0
 48
0.0
140
3.5
141
0.09
142
0.0
143
25.4
144
1.0
145
0.0
146
1.0
147
1.75
 71
     0
 72
     0
 73
     0
 74
     0
 75
     0
 76
     0
 77
     1
 78
     8
170
     0
171
     2
172
     0
173
     0
174
     0
175
     0
176
     0
177
     0
178
     2
270
     2
271
     2
272
     2
273
     2
274
     2
340
11
275
     0
280
     0
281
     0
282
     0
283
     1
284
     8
285
     0
286
     0
287
     3
288
     0
  0
DIMSTYLE
105
59
102
{ACAD_REACTORS
330
377
330
384
330
391
330
39E
330
3AB
330
3B8
330
3C5
102
}
330
A
100
AcDbSymbolTableRecord
100
AcDbDimStyleTableRecord
  2
FINDER
 70
     0
  3
<>
  4

  5

  6

  7

 40
1.0
 41
2.5
 42
3.888889
 43
0.38
 44
2.430556
 45
0.0
 46
0.0
 47
0.0
 48
0.0
140
3.5
141
0.09
142
0.0
143
25.4
144
1.0
145
0.0
146
1.0
147
2.430556
 71
     0
 72
     0
 73
     0
 74
     0
 75
     0
 76
     0
 77
     1
 78
     8
170
     0
171
     2
172
     0
173
     0
174
     0
175
     0
176
     0
177
     0
178
     2
270
     2
271
     2
272
     2
273
     2
274
     2
340
41
275
     0
280
     0
281
     0
282
     0
283
     1
284
     8
285
     0
286
     0
287
     3
288
     0
  0
DIMSTYLE
105
5A
330
A
100
AcDbSymbolTableRecord
100
AcDbDimStyleTableRecord
  2
ISO_FINDER
 70
     0
  3
<>
  4

  5
CLOSED
  6

  7

 40
1.0
 41
1.0
 42
1.05
 43
0.38
 44
1.75
 45
0.0
 46
0.0
 47
0.0
 48
0.0
140
3.5
141
0.09
142
0.0
143
25.4
144
1.0
145
0.0
146
0.6
147
3.5
 71
     0
 72
     0
 73
     0
 74
     0
 75
     0
 76
     0
 77
     1
 78
     8
170
     0
171
     2
172
     0
173
     0
174
     0
175
     0
176
     0
177
     0
178
     2
270
     2
271
     2
272
     3
273
     2
274
     2
340
42
275
     0
280
     0
281
     0
282
     0
283
     1
284
     8
285
     0
286
     0
287
     3
288
     0
  0
DIMSTYLE
105
5B
330
A
100
AcDbSymbolTableRecord
100
AcDbDimStyleTableRecord
  2
DSTYLE1
 70
     0
  3
<>
  4

  5

  6

  7

 40
1.0
 41
1.35
 42
0.35
 43
0.38
 44
1.166667
 45
0.0
 46
0.0
 47
0.0
 48
0.0
140
3.5
141
0.09
142
0.0
143
25.4
144
1.0
145
0.0
146
0.6
147
2.45
 71
     0
 72
     0
 73
     0
 74
     0
 75
     0
 76
     0
 77
     1
 78
     8
170
     0
171
     2
172
     0
173
     0
174
     0
175
     0
176
     0
177
     0
178
     2
270
     2
271
     2
272
     4
273
     2
274
     2
340
49
275
     0
280
     0
281
     0
282
     0
283
     1
284
     0
285
     0
286
     0
287
     3
288
     0
  0
DIMSTYLE
105
5C
330
A
100
AcDbSymbolTableRecord
100
AcDbDimStyleTableRecord
  2
DSTYLE2
 70
     0
  3
<>
  4

  5

  6

  7

 40
1.0
 41
1.35
 42
0.35
 43
0.38
 44
1.166667
 45
0.0
 46
0.0
 47
0.0
 48
0.0
140
3.5
141
0.09
142
0.0
143
25.4
144
1.0
145
0.0
146
0.6
147
2.45
 71
     0
 72
     0
 73
     0
 74
     0
 75
     0
 76
     0
 77
     1
 78
     8
170
     0
171
     2
172
     0
173
     0
174
     0
175
     0
176
     0
177
     0
178
     2
270
     2
271
     2
272
     4
273
     2
274
     2
340
49
275
     0
280
     0
281
     0
282
     0
283
     1
284
     0
285
     0
286
     0
287
     3
288
     0
  0
DIMSTYLE
105
5D
330
A
100
AcDbSymbolTableRecord
100
AcDbDimStyleTableRecord
  2
DSTYLE3
 70
     0
  3
<>
  4

  5

  6

  7

 40
1.0
 41
1.35
 42
0.233333
 43
0.38
 44
1.166667
 45
0.0
 46
0.0
 47
0.0
 48
0.0
140
3.5
141
0.09
142
0.0
143
25.4
144
1.0
145
0.0
146
0.6
147
2.45
 71
     0
 72
     0
 73
     0
 74
     0
 75
     0
 76
     0
 77
     1
 78
     8
170
     0
171
     2
172
     0
173
     0
174
     0
175
     0
176
     0
177
     0
178
     2
270
     2
271
     2
272
     4
273
     2
274
     2
340
49
275
     0
280
     0
281
     0
282
     0
283
     1
284
     0
285
     0
286
     0
287
     3
288
     0
  0
DIMSTYLE
105
5E
330
A
100
AcDbSymbolTableRecord
100
AcDbDimStyleTableRecord
  2
DSTYLE4
 70
     0
  3
<>
  4

  5

  6

  7

 40
1.0
 41
1.35
 42
0.233333
 43
0.38
 44
1.166667
 45
0.0
 46
0.0
 47
0.0
 48
0.0
140
3.5
141
0.09
142
0.0
143
25.4
144
1.0
145
0.0
146
0.6
147
2.45
 71
     0
 72
     0
 73
     0
 74
     0
 75
     0
 76
     0
 77
     1
 78
     8
170
     0
171
     2
172
     0
173
     0
174
     0
175
     0
176
     0
177
     0
178
     2
270
     2
271
     2
272
     4
273
     2
274
     2
340
49
275
     0
280
     0
281
     0
282
     0
283
     1
284
     0
285
     0
286
     0
287
     3
288
     0
  0
DIMSTYLE
105
5F
330
A
100
AcDbSymbolTableRecord
100
AcDbDimStyleTableRecord
  2
DSTYLE5
 70
     0
  3
<>
  4

  5

  6

  7

 40
1.0
 41
1.35
 42
0.000147
 43
0.38
 44
1.166667
 45
0.0
 46
0.0
 47
0.0
 48
0.0
140
3.5
141
0.09
142
0.0
143
25.4
144
1.0
145
0.0
146
0.6
147
2.45
 71
     0
 72
     0
 73
     0
 74
     0
 75
     0
 76
     0
 77
     1
 78
     8
170
     0
171
     2
172
     0
173
     0
174
     0
175
     0
176
     0
177
     0
178
     2
270
     2
271
     2
272
     4
273
     2
274
     2
340
49
275
     0
280
     0
281
     0
282
     0
283
     1
284
     0
285
     0
286
     0
287
     3
288
     0
  0
DIMSTYLE
105
60
330
A
100
AcDbSymbolTableRecord
100
AcDbDimStyleTableRecord
  2
ST0
 70
     0
  3
<>
  4

  5

  6

  7

 40
1.0
 41
1.4
 42
0.6125
 43
0.38
 44
0.6125
 45
0.0
 46
0.0
 47
0.0
 48
0.0
140
3.5
141
0.09
142
0.0
143
25.4
144
1.0
145
0.0
146
0.5
147
1.458333
 71
     0
 72
     0
 73
     0
 74
     0
 75
     0
 76
     0
 77
     1
 78
     8
170
     0
171
     2
172
     0
173
     0
174
     0
175
     0
176
     0
177
     0
178
     2
270
     2
271
     1
272
     2
273
     2
274
     2
340
4B
275
     0
280
     0
281
     0
282
     0
283
     1
284
     0
285
     0
286
     0
287
     3
288
     0
  0
DIMSTYLE
105
61
330
A
100
AcDbSymbolTableRecord
100
AcDbDimStyleTableRecord
  2
PUNTI
 70
     0
  3
<>
  4

  5
DOT
  6

  7

 40
1.0
 41
1.05
 42
0.6125
 43
0.38
 44
0.30625
 45
0.0
 46
0.0
 47
0.0
 48
0.0
140
3.5
141
0.09
142
0.0
143
25.4
144
1.0
145
0.0
146
0.5
147
0.8575
 71
     0
 72
     0
 73
     0
 74
     0
 75
     0
 76
     0
 77
     1
 78
     8
170
     0
171
     2
172
     0
173
     0
174
     0
175
     0
176
     0
177
     0
178
     2
270
     2
271
     4
272
     4
273
     2
274
     2
340
4B
275
     0
280
     0
281
     0
282
     0
283
     1
284
     0
285
     0
286
     0
287
     3
288
     0
  0
ENDTAB
  0
TABLE
  2
BLOCK_RECORD
  5
1
330
0
100
AcDbSymbolTable
 70
    11
  0
BLOCK_RECORD
  5
1F
330
1
100
AcDbSymbolTableRecord
100
AcDbBlockTableRecord
  2
*MODEL_SPACE
  0
BLOCK_RECORD
  5
1B
330
1
100
AcDbSymbolTableRecord
100
AcDbBlockTableRecord
  2
*PAPER_SPACE
  0
BLOCK_RECORD
  5
51
330
1
100
AcDbSymbolTableRecord
100
AcDbBlockTableRecord
  2
_CLOSED
  0
BLOCK_RECORD
  5
62
330
1
100
AcDbSymbolTableRecord
100
AcDbBlockTableRecord
  2
_DOT
  0
BLOCK_RECORD
  5
378
330
1
100
AcDbSymbolTableRecord
100
AcDbBlockTableRecord
  2
*D3
  0
BLOCK_RECORD
  5
385
330
1
100
AcDbSymbolTableRecord
100
AcDbBlockTableRecord
  2
*D4
  0
BLOCK_RECORD
  5
392
330
1
100
AcDbSymbolTableRecord
100
AcDbBlockTableRecord
  2
*D5
  0
BLOCK_RECORD
  5
39F
330
1
100
AcDbSymbolTableRecord
100
AcDbBlockTableRecord
  2
*D6
  0
BLOCK_RECORD
  5
3AC
330
1
100
AcDbSymbolTableRecord
100
AcDbBlockTableRecord
  2
*D7
  0
BLOCK_RECORD
  5
3B9
330
1
100
AcDbSymbolTableRecord
100
AcDbBlockTableRecord
  2
*D8
  0
BLOCK_RECORD
  5
3C6
330
1
100
AcDbSymbolTableRecord
100
AcDbBlockTableRecord
  2
*D9
  0
BLOCK_RECORD
  5
3D2
330
1
100
AcDbSymbolTableRecord
100
AcDbBlockTableRecord
  2
LW_POLYLINE_1
  0
ENDTAB
  0
ENDSEC
  0
SECTION
  2
BLOCKS
  0
BLOCK
  5
20
330
1F
100
AcDbEntity
  8
0
100
AcDbBlockBegin
  2
*MODEL_SPACE
 70
     0
 71
     0
 10
0.0
 20
0.0
 30
0.0
  3
*MODEL_SPACE
  1

  0
ENDBLK
  5
21
330
1F
100
AcDbEntity
  8
0
100
AcDbBlockEnd
  0
BLOCK
  5
1C
330
1B
100
AcDbEntity
 67
     1
  8
0
100
AcDbBlockBegin
  2
*PAPER_SPACE
 70
     0
 71
     0
 10
0.0
 20
0.0
 30
0.0
  3
*PAPER_SPACE
  1

  0
ENDBLK
  5
1D
330
1B
100
AcDbEntity
 67
     1
  8
0
100
AcDbBlockEnd
  0
BLOCK
  5
52
330
51
100
AcDbEntity
  8
0
100
AcDbBlockBegin
  2
_CLOSED
 70
     0
 71
     0
 10
0.0
 20
0.0
 30
0.0
  3
_CLOSED
  1

  0
LINE
  5
54
330
51
100
AcDbEntity
  8
0
  6
BYBLOCK
 62
     0
100
AcDbLine
 10
-1.0
 20
0.166667
 30
0.0
 11
0.0
 21
0.0
 31
0.0
  0
LINE
  5
55
330
51
100
AcDbEntity
  8
0
  6
BYBLOCK
 62
     0
100
AcDbLine
 10
0.0
 20
0.0
 30
0.0
 11
-1.0
 21
-0.166667
 31
0.0
  0
LINE
  5
56
330
51
100
AcDbEntity
  8
0
  6
BYBLOCK
 62
     0
100
AcDbLine
 10
-1.0
 20
0.166667
 30
0.0
 11
-1.0
 21
-0.166667
 31
0.0
  0
LINE
  5
57
330
51
100
AcDbEntity
  8
0
  6
BYBLOCK
 62
     0
100
AcDbLine
 10
0.0
 20
0.0
 30
0.0
 11
-1.0
 21
0.0
 31
0.0
  0
ENDBLK
  5
53
330
51
100
AcDbEntity
  8
0
100
AcDbBlockEnd
  0
BLOCK
  5
63
330
62
100
AcDbEntity
  8
0
100
AcDbBlockBegin
  2
_DOT
 70
     0
 71
     0
 10
0.0
 20
0.0
 30
0.0
  3
_DOT
  1

  0
POLYLINE
  5
65
330
62
100
AcDbEntity
  8
0
  6
BYBLOCK
 62
     0
100
AcDb2dPolyline
 66
     1
 10
0.0
 20
0.0
 30
0.0
 70
     1
 40
0.5
 41
0.5
  0
VERTEX
  5
68
330
65
100
AcDbEntity
  8
0
  6
BYBLOCK
 62
     0
100
AcDbVertex
100
AcDb2dVertex
 10
-0.25
 20
0.0
 30
0.0
 42
1.0
  0
VERTEX
  5
69
330
65
100
AcDbEntity
  8
0
  6
BYBLOCK
 62
     0
100
AcDbVertex
100
AcDb2dVertex
 10
0.25
 20
0.0
 30
0.0
 42
1.0
  0
SEQEND
  5
67
330
65
100
AcDbEntity
  8
0
  6
BYBLOCK
 62
     0
  0
LINE
  5
66
330
62
100
AcDbEntity
  8
0
  6
BYBLOCK
 62
     0
100
AcDbLine
 10
-0.5
 20
0.0
 30
0.0
 11
-1.0
 21
0.0
 31
0.0
  0
ENDBLK
  5
64
330
62
100
AcDbEntity
  8
0
100
AcDbBlockEnd
  0
BLOCK
  5
382
330
378
100
AcDbEntity
  8
0
100
AcDbBlockBegin
  2
*D3
 70
     1
 71
     0
 10
0.0
 20
0.0
 30
0.0
  3
*D3
  1

  0
LINE
  5
379
330
378
100
AcDbEntity
  8
DIM
  6
CONTINUOUS
 62
     3
100
AcDbLine
 10
42.597717
 20
190.795437
 30
0.0
 11
42.597717
 21
201.074385
 31
0.0
  0
LINE
  5
37A
330
378
100
AcDbEntity
  8
DIM
  6
CONTINUOUS
 62
     3
100
AcDbLine
 10
77.597717
 20
190.795437
 30
0.0
 11
77.597717
 21
201.074385
 31
0.0
  0
LINE
  5
37B
330
378
100
AcDbEntity
  8
DIM
  6
CONTINUOUS
 62
     3
100
AcDbLine
 10
43.797717
 20
198.643829
 30
0.0
 11
76.397717
 21
198.643829
 31
0.0
  0
INSERT
  5
37C
330
378
100
AcDbEntity
  8
DIM
 62
     3
100
AcDbBlockReference
  2
_CLOSED
 10
42.597717
 20
198.643829
 30
0.0
 41
1.2
 42
1.2
 43
1.2
 50
180.0
  0
INSERT
  5
37D
330
378
100
AcDbEntity
  8
DIM
 62
     3
100
AcDbBlockReference
  2
_CLOSED
 10
77.597717
 20
198.643829
 30
0.0
 41
1.2
 42
1.2
 43
1.2
  0
MTEXT
  5
37E
330
378
100
AcDbEntity
  8
DIM
 62
     2
100
AcDbMText
 10
60.097717
 20
202.861135
 30
0.0
 40
3.5
 41
0.0
 71
     5
 72
     1
  1
\A1;35
  7
FINDER
  0
POINT
  5
37F
330
378
100
AcDbEntity
  8
DEFPOINTS
 62
     0
100
AcDbPoint
 10
42.597717
 20
189.684326
 30
0.0
  0
POINT
  5
380
330
378
100
AcDbEntity
  8
DEFPOINTS
 62
     0
100
AcDbPoint
 10
77.597717
 20
189.684326
 30
0.0
  0
POINT
  5
381
330
378
100
AcDbEntity
  8
DEFPOINTS
 62
     0
100
AcDbPoint
 10
77.597717
 20
198.643829
 30
0.0
  0
ENDBLK
  5
383
330
378
100
AcDbEntity
  8
0
100
AcDbBlockEnd
  0
BLOCK
  5
38F
330
385
100
AcDbEntity
  8
0
100
AcDbBlockBegin
  2
*D4
 70
     1
 71
     0
 10
0.0
 20
0.0
 30
0.0
  3
*D4
  1

  0
LINE
  5
386
330
385
100
AcDbEntity
  8
DIM
  6
CONTINUOUS
 62
     3
100
AcDbLine
 10
95.549947
 20
180.795437
 30
0.0
 11
95.549947
 21
201.074385
 31
0.0
  0
LINE
  5
387
330
385
100
AcDbEntity
  8
DIM
  6
CONTINUOUS
 62
     3
100
AcDbLine
 10
156.349947
 20
172.295437
 30
0.0
 11
156.349947
 21
201.074385
 31
0.0
  0
LINE
  5
388
330
385
100
AcDbEntity
  8
DIM
  6
CONTINUOUS
 62
     3
100
AcDbLine
 10
96.749947
 20
198.643829
 30
0.0
 11
155.149947
 21
198.643829
 31
0.0
  0
INSERT
  5
389
330
385
100
AcDbEntity
  8
DIM
 62
     3
100
AcDbBlockReference
  2
_CLOSED
 10
95.549947
 20
198.643829
 30
0.0
 41
1.2
 42
1.2
 43
1.2
 50
180.0
  0
INSERT
  5
38A
330
385
100
AcDbEntity
  8
DIM
 62
     3
100
AcDbBlockReference
  2
_CLOSED
 10
156.349947
 20
198.643829
 30
0.0
 41
1.2
 42
1.2
 43
1.2
  0
MTEXT
  5
38B
330
385
100
AcDbEntity
  8
DIM
 62
     2
100
AcDbMText
 10
125.949947
 20
202.861135
 30
0.0
 40
3.5
 41
0.0
 71
     5
 72
     1
  1
\A1;60.8
  7
FINDER
  0
POINT
  5
38C
330
385
100
AcDbEntity
  8
DEFPOINTS
 62
     0
100
AcDbPoint
 10
95.549947
 20
179.684326
 30
0.0
  0
POINT
  5
38D
330
385
100
AcDbEntity
  8
DEFPOINTS
 62
     0
100
AcDbPoint
 10
156.349947
 20
171.184326
 30
0.0
  0
POINT
  5
38E
330
385
100
AcDbEntity
  8
DEFPOINTS
 62
     0
100
AcDbPoint
 10
156.349947
 20
198.643829
 30
0.0
  0
ENDBLK
  5
390
330
385
100
AcDbEntity
  8
0
100
AcDbBlockEnd
  0
BLOCK
  5
39C
330
392
100
AcDbEntity
  8
0
100
AcDbBlockBegin
  2
*D5
 70
     1
 71
     0
 10
0.0
 20
0.0
 30
0.0
  3
*D5
  1

  0
LINE
  5
393
330
392
100
AcDbEntity
  8
DIM
  6
CONTINUOUS
 62
     3
100
AcDbLine
 10
124.461058
 20
191.684326
 30
0.0
 11
177.068923
 21
191.684326
 31
0.0
  0
LINE
  5
394
330
392
100
AcDbEntity
  8
DIM
  6
CONTINUOUS
 62
     3
100
AcDbLine
 10
124.461058
 20
107.684326
 30
0.0
 11
177.068923
 21
107.684326
 31
0.0
  0
LINE
  5
395
330
392
100
AcDbEntity
  8
DIM
  6
CONTINUOUS
 62
     3
100
AcDbLine
 10
174.638367
 20
190.484326
 30
0.0
 11
174.638367
 21
108.884326
 31
0.0
  0
INSERT
  5
396
330
392
100
AcDbEntity
  8
DIM
 62
     3
100
AcDbBlockReference
  2
_CLOSED
 10
174.638367
 20
191.684326
 30
0.0
 41
1.2
 42
1.2
 43
1.2
 50
90.0
  0
INSERT
  5
397
330
392
100
AcDbEntity
  8
DIM
 62
     3
100
AcDbBlockReference
  2
_CLOSED
 10
174.638367
 20
107.684326
 30
0.0
 41
1.2
 42
1.2
 43
1.2
 50
270.0
  0
MTEXT
  5
398
330
392
100
AcDbEntity
  8
DIM
 62
     2
100
AcDbMText
 10
170.421061
 20
149.684326
 30
0.0
 40
3.5
 41
0.0
 71
     5
 72
     1
  1
\A1;84
  7
FINDER
 11
0.0
 21
1.0
 31
0.0
  0
POINT
  5
399
330
392
100
AcDbEntity
  8
DEFPOINTS
 62
     0
100
AcDbPoint
 10
123.349947
 20
191.684326
 30
0.0
  0
POINT
  5
39A
330
392
100
AcDbEntity
  8
DEFPOINTS
 62
     0
100
AcDbPoint
 10
123.349947
 20
107.684326
 30
0.0
  0
POINT
  5
39B
330
392
100
AcDbEntity
  8
DEFPOINTS
 62
     0
100
AcDbPoint
 10
174.638367
 20
107.684326
 30
0.0
  0
ENDBLK
  5
39D
330
392
100
AcDbEntity
  8
0
100
AcDbBlockEnd
  0
BLOCK
  5
3A9
330
39F
100
AcDbEntity
  8
0
100
AcDbBlockBegin
  2
*D6
 70
     1
 71
     0
 10
0.0
 20
0.0
 30
0.0
  3
*D6
  1

  0
LINE
  5
3A0
330
39F
100
AcDbEntity
  8
DIM
  6
CONTINUOUS
 62
     3
100
AcDbLine
 10
155.461058
 20
127.184326
 30
0.0
 11
166.926589
 21
127.184326
 31
0.0
  0
LINE
  5
3A1
330
39F
100
AcDbEntity
  8
DIM
  6
CONTINUOUS
 62
     3
100
AcDbLine
 10
149.961058
 20
172.184326
 30
0.0
 11
166.926589
 21
172.184326
 31
0.0
  0
LINE
  5
3A2
330
39F
100
AcDbEntity
  8
DIM
  6
CONTINUOUS
 62
     3
100
AcDbLine
 10
164.496033
 20
128.384326
 30
0.0
 11
164.496033
 21
170.984326
 31
0.0
  0
INSERT
  5
3A3
330
39F
100
AcDbEntity
  8
DIM
 62
     3
100
AcDbBlockReference
  2
_CLOSED
 10
164.496033
 20
127.184326
 30
0.0
 41
1.2
 42
1.2
 43
1.2
 50
270.0
  0
INSERT
  5
3A4
330
39F
100
AcDbEntity
  8
DIM
 62
     3
100
AcDbBlockReference
  2
_CLOSED
 10
164.496033
 20
172.184326
 30
0.0
 41
1.2
 42
1.2
 43
1.2
 50
90.0
  0
MTEXT
  5
3A5
330
39F
100
AcDbEntity
  8
DIM
 62
     2
100
AcDbMText
 10
160.285727
 20
149.684326
 30
0.0
 40
3.5
 41
0.0
 71
     5
 72
     1
  1
\A1;45
  7
FINDER
 11
0.0
 21
1.0
 31
0.0
  0
POINT
  5
3A6
330
39F
100
AcDbEntity
  8
DEFPOINTS
 62
     0
100
AcDbPoint
 10
154.349947
 20
127.184326
 30
0.0
  0
POINT
  5
3A7
330
39F
100
AcDbEntity
  8
DEFPOINTS
 62
     0
100
AcDbPoint
 10
148.849947
 20
172.184326
 30
0.0
  0
POINT
  5
3A8
330
39F
100
AcDbEntity
  8
DEFPOINTS
 62
     0
100
AcDbPoint
 10
164.496033
 20
172.184326
 30
0.0
  0
ENDBLK
  5
3AA
330
39F
100
AcDbEntity
  8
0
100
AcDbBlockEnd
  0
BLOCK
  5
3B6
330
3AC
100
AcDbEntity
  8
0
100
AcDbBlockBegin
  2
*D7
 70
     1
 71
     0
 10
0.0
 20
0.0
 30
0.0
  3
*D7
  1

  0
LINE
  5
3AD
330
3AC
100
AcDbEntity
  8
DIM
  6
CONTINUOUS
 62
     3
100
AcDbLine
 10
94.938836
 20
102.834326
 30
0.0
 11
87.81566
 21
102.834326
 31
0.0
  0
LINE
  5
3AE
330
3AC
100
AcDbEntity
  8
DIM
  6
CONTINUOUS
 62
     3
100
AcDbLine
 10
98.138836
 20
133.384341
 30
0.0
 11
87.81566
 21
133.384341
 31
0.0
  0
LINE
  5
3AF
330
3AC
100
AcDbEntity
  8
DIM
  6
CONTINUOUS
 62
     3
100
AcDbLine
 10
90.246216
 20
104.034326
 30
0.0
 11
90.246216
 21
132.184341
 31
0.0
  0
INSERT
  5
3B0
330
3AC
100
AcDbEntity
  8
DIM
 62
     3
100
AcDbBlockReference
  2
_CLOSED
 10
90.246216
 20
102.834326
 30
0.0
 41
1.2
 42
1.2
 43
1.2
 50
270.0
  0
INSERT
  5
3B1
330
3AC
100
AcDbEntity
  8
DIM
 62
     3
100
AcDbBlockReference
  2
_CLOSED
 10
90.246216
 20
133.384341
 30
0.0
 41
1.2
 42
1.2
 43
1.2
 50
90.0
  0
MTEXT
  5
3B2
330
3AC
100
AcDbEntity
  8
DIM
 62
     2
100
AcDbMText
 10
86.02891
 20
118.109334
 30
0.0
 40
3.5
 41
0.0
 71
     5
 72
     1
  1
\A1;30.5
  7
FINDER
 11
0.0
 21
1.0
 31
0.0
  0
POINT
  5
3B3
330
3AC
100
AcDbEntity
  8
DEFPOINTS
 62
     0
100
AcDbPoint
 10
96.049947
 20
102.834326
 30
0.0
  0
POINT
  5
3B4
330
3AC
100
AcDbEntity
  8
DEFPOINTS
 62
     0
100
AcDbPoint
 10
99.249947
 20
133.384341
 30
0.0
  0
POINT
  5
3B5
330
3AC
100
AcDbEntity
  8
DEFPOINTS
 62
     0
100
AcDbPoint
 10
90.246216
 20
133.384341
 30
0.0
  0
ENDBLK
  5
3B7
330
3AC
100
AcDbEntity
  8
0
100
AcDbBlockEnd
  0
BLOCK
  5
3C3
330
3B9
100
AcDbEntity
  8
0
100
AcDbBlockBegin
  2
*D8
 70
     1
 71
     0
 10
0.0
 20
0.0
 30
0.0
  3
*D8
  1

  0
LINE
  5
3BA
330
3B9
100
AcDbEntity
  8
DIM
  6
CONTINUOUS
 62
     3
100
AcDbLine
 10
98.138836
 20
133.384341
 30
0.0
 11
87.81566
 21
133.384341
 31
0.0
  0
LINE
  5
3BB
330
3B9
100
AcDbEntity
  8
DIM
  6
CONTINUOUS
 62
     3
100
AcDbLine
 10
98.088836
 20
167.184326
 30
0.0
 11
87.81566
 21
167.184326
 31
0.0
  0
LINE
  5
3BC
330
3B9
100
AcDbEntity
  8
DIM
  6
CONTINUOUS
 62
     3
100
AcDbLine
 10
90.246216
 20
134.584341
 30
0.0
 11
90.246216
 21
165.984326
 31
0.0
  0
INSERT
  5
3BD
330
3B9
100
AcDbEntity
  8
DIM
 62
     3
100
AcDbBlockReference
  2
_CLOSED
 10
90.246216
 20
133.384341
 30
0.0
 41
1.2
 42
1.2
 43
1.2
 50
270.0
  0
INSERT
  5
3BE
330
3B9
100
AcDbEntity
  8
DIM
 62
     3
100
AcDbBlockReference
  2
_CLOSED
 10
90.246216
 20
167.184326
 30
0.0
 41
1.2
 42
1.2
 43
1.2
 50
90.0
  0
MTEXT
  5
3BF
330
3B9
100
AcDbEntity
  8
DIM
 62
     2
100
AcDbMText
 10
86.02891
 20
150.284334
 30
0.0
 40
3.5
 41
0.0
 71
     5
 72
     1
  1
\A1;33.8
  7
FINDER
 11
0.0
 21
1.0
 31
0.0
  0
POINT
  5
3C0
330
3B9
100
AcDbEntity
  8
DEFPOINTS
 62
     0
100
AcDbPoint
 10
99.249947
 20
133.384341
 30
0.0
  0
POINT
  5
3C1
330
3B9
100
AcDbEntity
  8
DEFPOINTS
 62
     0
100
AcDbPoint
 10
99.199947
 20
167.184326
 30
0.0
  0
POINT
  5
3C2
330
3B9
100
AcDbEntity
  8
DEFPOINTS
 62
     0
100
AcDbPoint
 10
90.246216
 20
167.184326
 30
0.0
  0
ENDBLK
  5
3C4
330
3B9
100
AcDbEntity
  8
0
100
AcDbBlockEnd
  0
BLOCK
  5
3D0
330
3C6
100
AcDbEntity
  8
0
100
AcDbBlockBegin
  2
*D9
 70
     1
 71
     0
 10
0.0
 20
0.0
 30
0.0
  3
*D9
  1

  0
LINE
  5
3C7
330
3C6
100
AcDbEntity
  8
DIM
  6
CONTINUOUS
 62
     3
100
AcDbLine
 10
41.886606
 20
191.684326
 30
0.0
 11
33.489732
 21
191.684326
 31
0.0
  0
LINE
  5
3C8
330
3C6
100
AcDbEntity
  8
DIM
  6
CONTINUOUS
 62
     3
100
AcDbLine
 10
58.977287
 20
102.834339
 30
0.0
 11
33.489732
 21
102.834339
 31
0.0
  0
LINE
  5
3C9
330
3C6
100
AcDbEntity
  8
DIM
  6
CONTINUOUS
 62
     3
100
AcDbLine
 10
35.920288
 20
190.484326
 30
0.0
 11
35.920288
 21
104.034339
 31
0.0
  0
INSERT
  5
3CA
330
3C6
100
AcDbEntity
  8
DIM
 62
     3
100
AcDbBlockReference
  2
_CLOSED
 10
35.920288
 20
191.684326
 30
0.0
 41
1.2
 42
1.2
 43
1.2
 50
90.0
  0
INSERT
  5
3CB
330
3C6
100
AcDbEntity
  8
DIM
 62
     3
100
AcDbBlockReference
  2
_CLOSED
 10
35.920288
 20
102.834339
 30
0.0
 41
1.2
 42
1.2
 43
1.2
 50
270.0
  0
MTEXT
  5
3CC
330
3C6
100
AcDbEntity
  8
DIM
 62
     2
100
AcDbMText
 10
31.702982
 20
147.259333
 30
0.0
 40
3.5
 41
0.0
 71
     5
 72
     1
  1
\A1;88.8
  7
FINDER
 11
7.997105718399909E-17
 21
1.0
 31
0.0
  0
POINT
  5
3CD
330
3C6
100
AcDbEntity
  8
DEFPOINTS
 62
     0
100
AcDbPoint
 10
42.997717
 20
191.684326
 30
0.0
  0
POINT
  5
3CE
330
3C6
100
AcDbEntity
  8
DEFPOINTS
 62
     0
100
AcDbPoint
 10
60.088398
 20
102.834339
 30
0.0
  0
POINT
  5
3CF
330
3C6
100
AcDbEntity
  8
DEFPOINTS
 62
     0
100
AcDbPoint
 10
35.920288
 20
102.834339
 30
0.0
  0
ENDBLK
  5
3D1
330
3C6
100
AcDbEntity
  8
0
100
AcDbBlockEnd
  0
BLOCK
  5
3D8
330
3D2
100
AcDbEntity
  8
0
100
AcDbBlockBegin
  2
LW_POLYLINE_1
 70
     0
 71
     0
 10
200.000031
 20
287.000183
 30
0.0
  3
LW_POLYLINE_1
  1

  0
LINE
  5
3D3
330
3D2
100
AcDbEntity
  8
CARTOUCHE
  6
CONTINUOUS
 62
     0
100
AcDbLine
 10
200.000031
 20
287.000183
 30
0.0
 11
200.000031
 21
0.000183
 31
0.0
  0
LINE
  5
3D4
330
3D2
100
AcDbEntity
  8
CARTOUCHE
  6
CONTINUOUS
 62
     0
100
AcDbLine
 10
200.000031
 20
0.000183
 30
0.0
 11
-0.000006
 21
0.0
 31
0.0
  0
LINE
  5
3D5
330
3D2
100
AcDbEntity
  8
CARTOUCHE
  6
CONTINUOUS
 62
     0
100
AcDbLine
 10
-0.000006
 20
0.0
 30
0.0
 11
-0.000006
 21
287.0
 31
0.0
  0
LINE
  5
3D6
330
3D2
100
AcDbEntity
  8
CARTOUCHE
  6
CONTINUOUS
 62
     0
100
AcDbLine
 10
-0.000006
 20
287.0
 30
0.0
 11
199.999768
 21
287.000183
 31
0.0
  0
LINE
  5
3D7
330
3D2
100
AcDbEntity
  8
CARTOUCHE
  6
CONTINUOUS
 62
     0
100
AcDbLine
 10
199.999768
 20
287.000183
 30
0.0
 11
200.000031
 21
287.000183
 31
0.0
  0
ENDBLK
  5
3D9
330
3D2
100
AcDbEntity
  8
0
100
AcDbBlockEnd
  0
ENDSEC
  0
SECTION
  2
ENTITIES
  0
HATCH
  5
6A
330
1F
100
AcDbEntity
  8
CARTOUCHE
  6
CONTINUOUS
 62
     4
100
AcDbHatch
 10
0.0
 20
0.0
 30
0.0
210
0.0
220
0.0
230
1.0
  2
ANSI_31
 70
     0
 71
     0
 91
        1
 92
        1
 93
       16
 72
     1
 10
15.67905299999995
 20
19.93181348242183
 11
16.08752300000003
 21
19.93181348242183
 72
     1
 10
16.08752300000003
 20
19.93181348242183
 11
16.08752300000003
 21
20.83496348242187
 72
     1
 10
16.08752300000003
 20
20.83496348242187
 11
14.58025899999996
 21
20.83496348242187
 72
     2
 10
14.58025899999996
 20
19.92937048242186
 40
0.9056390000000064
 50
89.99998127603085
 51
180.0000198478416
 73
     1
 72
     1
 10
13.674623
 20
19.92937048242186
 11
13.674623
 21
19.50836348242183
 72
     1
 10
13.674623
 20
19.50836348242183
 11
13.13732300000004
 21
19.50836348242183
 72
     1
 10
13.13732300000004
 20
19.50836348242183
 11
13.13732300000004
 21
18.41081348242187
 72
     1
 10
13.13732300000004
 20
18.41081348242187
 11
13.674623
 21
18.41081348242187
 72
     1
 10
13.674623
 20
18.41081348242187
 11
13.674623
 21
15.63206348242187
 72
     1
 10
13.674623
 20
15.63206348242187
 11
15.47012299999994
 21
15.63206348242187
 72
     1
 10
15.47012299999994
 20
15.63206348242187
 11
15.47012299999994
 21
18.41081348242187
 72
     1
 10
15.47012299999994
 20
18.41081348242187
 11
16.08752300000003
 21
18.41081348242187
 72
     1
 10
16.08752300000003
 20
18.41081348242187
 11
16.08752300000003
 21
19.50836348242183
 72
     1
 10
16.08752300000003
 20
19.50836348242183
 11
15.41297299999997
 21
19.50836348242183
 72
     1
 10
15.41297299999997
 20
19.50836348242183
 11
15.46107900000004
 21
19.76859148242187
 72
     2
 10
15.70598800000004
 20
19.66868548242185
 40
0.2645029999999183
 50
202.192182543627
 51
264.1553335516533
 73
     0
 97
        0
 75
     0
 76
     2
 52
0.0
 41
0.062992
 77
     0
 78
     1
 53
44.99999999988837
 43
0.0
 44
0.0
 45
-3.592095212307267
 46
3.592095212321264
 79
     0
 98
        0
  0
HATCH
  5
6B
330
1F
100
AcDbEntity
  8
CARTOUCHE
  6
CONTINUOUS
 62
     4
100
AcDbHatch
 10
0.0
 20
0.0
 30
0.0
210
0.0
220
0.0
230
1.0
  2
ANSI_31
 70
     0
 71
     0
 91
        1
 92
        1
 93
        4
 72
     1
 10
659.2770281757812
 20
320.1824366269531
 11
659.2770281757812
 21
319.2905366269531
 72
     1
 10
659.2770281757812
 20
319.2905366269531
 11
661.0950281757813
 21
319.2905366269531
 72
     1
 10
661.0950281757813
 20
319.2905366269531
 11
661.0950281757813
 21
320.1824366269531
 72
     1
 10
661.0950281757813
 20
320.1824366269531
 11
659.2770281757812
 21
320.1824366269531
 97
        0
 75
     0
 76
     2
 52
0.0
 41
0.062992
 77
     0
 78
     1
 53
44.99999999988837
 43
0.0
 44
0.0
 45
-3.592095212307267
 46
3.592095212321264
 79
     0
 98
        0
  0
HATCH
  5
6C
330
1F
100
AcDbEntity
  8
CARTOUCHE
  6
CONTINUOUS
 62
     4
100
AcDbHatch
 10
0.0
 20
0.0
 30
0.0
210
0.0
220
0.0
230
1.0
  2
ANSI_31
 70
     0
 71
     0
 91
        1
 92
        1
 93
        4
 72
     1
 10
237.9611712421874
 20
21.71939341406249
 11
237.9611712421874
 21
20.82749341406247
 72
     1
 10
237.9611712421874
 20
20.82749341406247
 11
239.7791712421875
 21
20.82749341406247
 72
     1
 10
239.7791712421875
 20
20.82749341406247
 11
239.7791712421875
 21
21.71939341406249
 72
     1
 10
239.7791712421875
 20
21.71939341406249
 11
237.9611712421874
 21
21.71939341406249
 97
        0
 75
     0
 76
     2
 52
0.0
 41
0.062992
 77
     0
 78
     1
 53
44.99999999988837
 43
0.0
 44
0.0
 45
-3.592095212307267
 46
3.592095212321264
 79
     0
 98
        0
  0
LINE
  5
6D
330
1F
100
AcDbEntity
  8
CARTOUCHE
  6
CONTINUOUS
 62
     7
100
AcDbLine
 10
200.000037
 20
5.000793
 30
0.0
 11
0.0
 21
5.001068
 31
0.0
  0
LINE
  5
6E
330
1F
100
AcDbEntity
  8
CARTOUCHE
  6
CONTINUOUS
 62
     7
100
AcDbLine
 10
45.000001
 20
31.845393
 30
0.0
 11
45.000001
 21
0.000041
 31
0.0
  0
TEXT
  5
6F
330
1F
100
AcDbEntity
  8
CARTOUCHE
  6
CONTINUOUS
 62
     7
100
AcDbText
 10
114.72242
 20
27.435966
 30
0.0
 40
1.8
  1
PRODUCT TYPE
 50
359.999908
 41
0.64
  7
FINDER
100
AcDbText
  0
TEXT
  5
70
330
1F
100
AcDbEntity
  8
CARTOUCHE
  6
CONTINUOUS
 62
     2
100
AcDbText
 10
14.493931
 20
1.600975
 30
0.0
 40
1.8
  1
MOD. UT 902
 50
359.999908
 41
0.84
  7
FINDER
100
AcDbText
  0
LINE
  5
71
330
1F
100
AcDbEntity
  8
CARTOUCHE
  6
CONTINUOUS
 62
     7
100
AcDbLine
 10
200.000008
 20
15.002808
 30
0.0
 11
44.999973
 21
15.003045
 31
0.0
  0
TEXT
  5
72
330
1F
100
AcDbEntity
  8
CARTOUCHE
  6
CONTINUOUS
 62
     7
100
AcDbText
 10
68.494064
 20
11.624306
 30
0.0
 40
1.8
  1
REV.
 50
359.999908
 41
0.7
  7
FINDER
100
AcDbText
  0
TEXT
  5
73
330
1F
100
AcDbEntity
  8
CARTOUCHE
  6
CONTINUOUS
 62
     1
100
AcDbText
 10
70.188141
 20
6.776279
 30
0.0
 40
2.1
  1
0
 50
359.999908
  7
FINDER
100
AcDbText
  0
LINE
  5
74
330
1F
100
AcDbEntity
  8
CARTOUCHE
  6
CONTINUOUS
 62
     7
100
AcDbLine
 10
96.666651
 20
15.002966
 30
0.0
 11
96.666651
 21
5.001024
 31
0.0
  0
LINE
  5
75
330
1F
100
AcDbEntity
  8
CARTOUCHE
  6
CONTINUOUS
 62
     4
100
AcDbLine
 10
7.362923
 20
22.655485
 30
0.0
 11
7.362923
 21
16.810194
 31
0.0
  0
LINE
  5
76
330
1F
100
AcDbEntity
  8
CARTOUCHE
  6
CONTINUOUS
 62
     4
100
AcDbLine
 10
7.362923
 20
16.810194
 30
0.0
 11
5.887823
 21
18.410844
 31
0.0
  0
LINE
  5
77
330
1F
100
AcDbEntity
  8
CARTOUCHE
  6
CONTINUOUS
 62
     4
100
AcDbLine
 10
5.887823
 20
18.410844
 30
0.0
 11
6.116423
 21
18.410844
 31
0.0
  0
LINE
  5
78
330
1F
100
AcDbEntity
  8
CARTOUCHE
  6
CONTINUOUS
 62
     4
100
AcDbLine
 10
6.413873
 20
18.766514
 30
0.0
 11
6.413873
 21
22.652621
 31
0.0
  0
LINE
  5
79
330
1F
100
AcDbEntity
  8
CARTOUCHE
  6
CONTINUOUS
 62
     4
100
AcDbLine
 10
5.464823
 20
22.399506
 30
0.0
 11
5.464823
 21
19.428744
 31
0.0
  0
LINE
  5
7A
330
1F
100
AcDbEntity
  8
CARTOUCHE
  6
CONTINUOUS
 62
     4
100
AcDbLine
 10
5.464823
 20
19.428744
 30
0.0
 11
3.174776
 21
19.428744
 31
0.0
  0
LINE
  5
7B
330
1F
100
AcDbEntity
  8
CARTOUCHE
  6
CONTINUOUS
 62
     4
100
AcDbLine
 10
3.176313
 20
18.410844
 30
0.0
 11
4.378523
 21
18.410844
 31
0.0
  0
LINE
  5
7C
330
1F
100
AcDbEntity
  8
CARTOUCHE
  6
CONTINUOUS
 62
     4
100
AcDbLine
 10
4.378523
 20
18.410844
 30
0.0
 11
7.173699
 21
15.668328
 31
0.0
  0
LINE
  5
7D
330
1F
100
AcDbEntity
  8
CARTOUCHE
  6
CONTINUOUS
 62
     4
100
AcDbLine
 10
8.323223
 20
16.169844
 30
0.0
 11
8.323223
 21
19.508394
 31
0.0
  0
LINE
  5
7E
330
1F
100
AcDbEntity
  8
CARTOUCHE
  6
CONTINUOUS
 62
     4
100
AcDbLine
 10
8.323223
 20
19.508394
 30
0.0
 11
9.455423
 21
19.508394
 31
0.0
  0
LINE
  5
7F
330
1F
100
AcDbEntity
  8
CARTOUCHE
  6
CONTINUOUS
 62
     4
100
AcDbLine
 10
9.353656
 20
20.503344
 30
0.0
 11
8.323223
 21
20.503344
 31
0.0
  0
LINE
  5
80
330
1F
100
AcDbEntity
  8
CARTOUCHE
  6
CONTINUOUS
 62
     4
100
AcDbLine
 10
8.323223
 20
20.503344
 30
0.0
 11
8.323223
 21
22.404134
 31
0.0
  0
LINE
  5
81
330
1F
100
AcDbEntity
  8
CARTOUCHE
  6
CONTINUOUS
 62
     4
100
AcDbLine
 10
23.108423
 20
17.479034
 30
0.0
 11
23.108423
 21
15.632094
 31
0.0
  0
LINE
  5
82
330
1F
100
AcDbEntity
  8
CARTOUCHE
  6
CONTINUOUS
 62
     4
100
AcDbLine
 10
23.108423
 20
15.632094
 30
0.0
 11
24.892223
 21
15.632094
 31
0.0
  0
LINE
  5
83
330
1F
100
AcDbEntity
  8
CARTOUCHE
  6
CONTINUOUS
 62
     4
100
AcDbLine
 10
24.892223
 20
15.632094
 30
0.0
 11
24.892223
 21
18.324553
 31
0.0
  0
LINE
  5
84
330
1F
100
AcDbEntity
  8
CARTOUCHE
  6
CONTINUOUS
 62
     4
100
AcDbLine
 10
21.289973
 20
19.074144
 30
0.0
 11
21.289973
 21
19.508394
 31
0.0
  0
LINE
  5
85
330
1F
100
AcDbEntity
  8
CARTOUCHE
  6
CONTINUOUS
 62
     4
100
AcDbLine
 10
21.289973
 20
19.508394
 30
0.0
 11
19.494923
 21
19.508394
 31
0.0
  0
LINE
  5
86
330
1F
100
AcDbEntity
  8
CARTOUCHE
  6
CONTINUOUS
 62
     4
100
AcDbLine
 10
19.494923
 20
19.508394
 30
0.0
 11
19.494923
 21
15.632094
 31
0.0
  0
LINE
  5
87
330
1F
100
AcDbEntity
  8
CARTOUCHE
  6
CONTINUOUS
 62
     4
100
AcDbLine
 10
19.494923
 20
15.632094
 30
0.0
 11
21.289973
 21
15.632094
 31
0.0
  0
LINE
  5
88
330
1F
100
AcDbEntity
  8
CARTOUCHE
  6
CONTINUOUS
 62
     4
100
AcDbLine
 10
21.289973
 20
15.632094
 30
0.0
 11
21.289973
 21
17.433499
 31
0.0
  0
LINE
  5
89
330
1F
100
AcDbEntity
  8
CARTOUCHE
  6
CONTINUOUS
 62
     4
100
AcDbLine
 10
30.986573
 20
20.823744
 30
0.0
 11
30.986573
 21
15.620844
 31
0.0
  0
LINE
  5
8A
330
1F
100
AcDbEntity
  8
CARTOUCHE
  6
CONTINUOUS
 62
     4
100
AcDbLine
 10
30.986573
 20
15.620844
 30
0.0
 11
29.191523
 21
15.620844
 31
0.0
  0
LINE
  5
8B
330
1F
100
AcDbEntity
  8
CARTOUCHE
  6
CONTINUOUS
 62
     4
100
AcDbLine
 10
29.191523
 20
19.319904
 30
0.0
 11
29.191523
 21
20.823744
 31
0.0
  0
LINE
  5
8C
330
1F
100
AcDbEntity
  8
CARTOUCHE
  6
CONTINUOUS
 62
     4
100
AcDbLine
 10
29.191523
 20
20.823744
 30
0.0
 11
30.986573
 21
20.823744
 31
0.0
  0
LINE
  5
8D
330
1F
100
AcDbEntity
  8
CARTOUCHE
  6
CONTINUOUS
 62
     4
100
AcDbLine
 10
37.732973
 20
19.508394
 30
0.0
 11
39.459623
 21
19.508394
 31
0.0
  0
LINE
  5
8E
330
1F
100
AcDbEntity
  8
CARTOUCHE
  6
CONTINUOUS
 62
     4
100
AcDbLine
 10
39.459623
 20
19.508394
 30
0.0
 11
39.459623
 21
19.165494
 31
0.0
  0
LINE
  5
8F
330
1F
100
AcDbEntity
  8
CARTOUCHE
  6
CONTINUOUS
 62
     4
100
AcDbLine
 10
42.283823
 20
17.587794
 30
0.0
 11
40.454573
 21
17.587794
 31
0.0
  0
LINE
  5
90
330
1F
100
AcDbEntity
  8
CARTOUCHE
  6
CONTINUOUS
 62
     4
100
AcDbLine
 10
40.454573
 20
17.587794
 30
0.0
 11
40.454573
 21
17.827644
 31
0.0
  0
LINE
  5
91
330
1F
100
AcDbEntity
  8
CARTOUCHE
  6
CONTINUOUS
 62
     4
100
AcDbLine
 10
39.459623
 20
17.782194
 30
0.0
 11
39.459623
 21
15.632094
 31
0.0
  0
LINE
  5
92
330
1F
100
AcDbEntity
  8
CARTOUCHE
  6
CONTINUOUS
 62
     4
100
AcDbLine
 10
39.459623
 20
15.632094
 30
0.0
 11
37.732973
 21
15.632094
 31
0.0
  0
LINE
  5
93
330
1F
100
AcDbEntity
  8
CARTOUCHE
  6
CONTINUOUS
 62
     4
100
AcDbLine
 10
37.732973
 20
15.632094
 30
0.0
 11
37.732973
 21
19.508394
 31
0.0
  0
LINE
  5
94
330
1F
100
AcDbEntity
  8
CARTOUCHE
  6
CONTINUOUS
 62
     4
100
AcDbLine
 10
34.154123
 20
17.244444
 30
0.0
 11
34.051073
 21
17.244444
 31
0.0
  0
LINE
  5
95
330
1F
100
AcDbEntity
  8
CARTOUCHE
  6
CONTINUOUS
 62
     4
100
AcDbLine
 10
34.051073
 20
17.244444
 30
0.0
 11
33.364823
 21
17.244444
 31
0.0
  0
LINE
  5
96
330
1F
100
AcDbEntity
  8
CARTOUCHE
  6
CONTINUOUS
 62
     4
100
AcDbLine
 10
35.343023
 20
16.855644
 30
0.0
 11
37.103873
 21
16.855644
 31
0.0
  0
LINE
  5
97
330
1F
100
AcDbEntity
  8
CARTOUCHE
  6
CONTINUOUS
 62
     4
100
AcDbLine
 10
37.206923
 20
17.256144
 30
0.0
 11
34.154123
 21
17.244444
 31
0.0
  0
LINE
  5
98
330
1F
100
AcDbEntity
  8
CARTOUCHE
  6
CONTINUOUS
 62
     4
100
AcDbLine
 10
34.154123
 20
18.079194
 30
0.0
 11
35.343023
 21
18.079194
 31
0.0
  0
LINE
  5
99
330
1F
100
AcDbEntity
  8
CARTOUCHE
  6
CONTINUOUS
 62
     4
100
AcDbLine
 10
33.364823
 20
18.079194
 30
0.0
 11
34.154123
 21
18.079194
 31
0.0
  0
LINE
  5
9A
330
1F
100
AcDbEntity
  8
CARTOUCHE
  6
CONTINUOUS
 62
     4
100
AcDbLine
 10
16.087523
 20
19.931844
 30
0.0
 11
16.087523
 21
20.834994
 31
0.0
  0
LINE
  5
9B
330
1F
100
AcDbEntity
  8
CARTOUCHE
  6
CONTINUOUS
 62
     4
100
AcDbLine
 10
16.087523
 20
20.834994
 30
0.0
 11
14.589473
 21
20.834994
 31
0.0
  0
LINE
  5
9C
330
1F
100
AcDbEntity
  8
CARTOUCHE
  6
CONTINUOUS
 62
     4
100
AcDbLine
 10
13.674623
 20
19.931844
 30
0.0
 11
13.674623
 21
19.508394
 31
0.0
  0
LINE
  5
9D
330
1F
100
AcDbEntity
  8
CARTOUCHE
  6
CONTINUOUS
 62
     4
100
AcDbLine
 10
13.674623
 20
19.508394
 30
0.0
 11
13.137323
 21
19.508394
 31
0.0
  0
LINE
  5
9E
330
1F
100
AcDbEntity
  8
CARTOUCHE
  6
CONTINUOUS
 62
     4
100
AcDbLine
 10
13.137323
 20
19.508394
 30
0.0
 11
13.137323
 21
18.410844
 31
0.0
  0
LINE
  5
9F
330
1F
100
AcDbEntity
  8
CARTOUCHE
  6
CONTINUOUS
 62
     4
100
AcDbLine
 10
13.137323
 20
18.410844
 30
0.0
 11
13.674623
 21
18.410844
 31
0.0
  0
LINE
  5
A0
330
1F
100
AcDbEntity
  8
CARTOUCHE
  6
CONTINUOUS
 62
     4
100
AcDbLine
 10
13.674623
 20
18.410844
 30
0.0
 11
13.674623
 21
15.632094
 31
0.0
  0
LINE
  5
A1
330
1F
100
AcDbEntity
  8
CARTOUCHE
  6
CONTINUOUS
 62
     4
100
AcDbLine
 10
13.674623
 20
15.632094
 30
0.0
 11
15.470123
 21
15.632094
 31
0.0
  0
LINE
  5
A2
330
1F
100
AcDbEntity
  8
CARTOUCHE
  6
CONTINUOUS
 62
     4
100
AcDbLine
 10
15.470123
 20
15.632094
 30
0.0
 11
15.470123
 21
18.410844
 31
0.0
  0
LINE
  5
A3
330
1F
100
AcDbEntity
  8
CARTOUCHE
  6
CONTINUOUS
 62
     4
100
AcDbLine
 10
15.470123
 20
18.410844
 30
0.0
 11
16.087523
 21
18.410844
 31
0.0
  0
LINE
  5
A4
330
1F
100
AcDbEntity
  8
CARTOUCHE
  6
CONTINUOUS
 62
     4
100
AcDbLine
 10
16.087523
 20
18.410844
 30
0.0
 11
16.087523
 21
19.508394
 31
0.0
  0
LINE
  5
A5
330
1F
100
AcDbEntity
  8
CARTOUCHE
  6
CONTINUOUS
 62
     4
100
AcDbLine
 10
16.087523
 20
19.508394
 30
0.0
 11
15.412973
 21
19.508394
 31
0.0
  0
LINE
  5
A6
330
1F
100
AcDbEntity
  8
CARTOUCHE
  6
CONTINUOUS
 62
     4
100
AcDbLine
 10
15.412973
 20
19.508394
 30
0.0
 11
15.461079
 21
19.768622
 31
0.0
  0
LINE
  5
A7
330
1F
100
AcDbEntity
  8
CARTOUCHE
  6
CONTINUOUS
 62
     4
100
AcDbLine
 10
15.679053
 20
19.931844
 30
0.0
 11
16.087523
 21
19.931844
 31
0.0
  0
LINE
  5
A8
330
1F
100
AcDbEntity
  8
CARTOUCHE
  6
CONTINUOUS
 62
     4
100
AcDbLine
 10
16.807973
 20
15.632094
 30
0.0
 11
16.807973
 21
19.508394
 31
0.0
  0
LINE
  5
A9
330
1F
100
AcDbEntity
  8
CARTOUCHE
  6
CONTINUOUS
 62
     4
100
AcDbLine
 10
16.807973
 20
19.508394
 30
0.0
 11
18.625973
 21
19.508394
 31
0.0
  0
LINE
  5
AA
330
1F
100
AcDbEntity
  8
CARTOUCHE
  6
CONTINUOUS
 62
     4
100
AcDbLine
 10
18.625973
 20
19.508394
 30
0.0
 11
18.625973
 21
15.632094
 31
0.0
  0
LINE
  5
AB
330
1F
100
AcDbEntity
  8
CARTOUCHE
  6
CONTINUOUS
 62
     4
100
AcDbLine
 10
18.625973
 20
15.632094
 30
0.0
 11
16.807973
 21
15.632094
 31
0.0
  0
LINE
  5
AC
330
1F
100
AcDbEntity
  8
CARTOUCHE
  6
CONTINUOUS
 62
     4
100
AcDbLine
 10
16.807973
 20
19.943094
 30
0.0
 11
16.807973
 21
20.834994
 31
0.0
  0
LINE
  5
AD
330
1F
100
AcDbEntity
  8
CARTOUCHE
  6
CONTINUOUS
 62
     4
100
AcDbLine
 10
16.807973
 20
20.834994
 30
0.0
 11
18.625973
 21
20.834994
 31
0.0
  0
LINE
  5
AE
330
1F
100
AcDbEntity
  8
CARTOUCHE
  6
CONTINUOUS
 62
     4
100
AcDbLine
 10
18.625973
 20
20.834994
 30
0.0
 11
18.625973
 21
19.943094
 31
0.0
  0
LINE
  5
AF
330
1F
100
AcDbEntity
  8
CARTOUCHE
  6
CONTINUOUS
 62
     4
100
AcDbLine
 10
18.625973
 20
19.943094
 30
0.0
 11
16.807973
 21
19.943094
 31
0.0
  0
ARC
  5
B0
330
1F
100
AcDbEntity
  8
CARTOUCHE
  6
CONTINUOUS
 62
     4
100
AcDbCircle
 10
14.580259
 20
19.929401
 30
0.0
 40
0.905639
100
AcDbArc
 50
90.0
 51
180.0
  0
ARC
  5
B1
330
1F
100
AcDbEntity
  8
CARTOUCHE
  6
CONTINUOUS
 62
     4
100
AcDbCircle
 10
15.705988
 20
19.668716
 30
0.0
 40
0.264503
100
AcDbArc
 50
95.844673
 51
157.807812
  0
ARC
  5
B2
330
1F
100
AcDbEntity
  8
CARTOUCHE
  6
CONTINUOUS
 62
     4
100
AcDbCircle
 10
23.675028
 20
18.264873
 30
0.0
 40
1.218658
100
AcDbArc
 50
2.806997
 51
66.545781
  0
ARC
  5
B3
330
1F
100
AcDbEntity
  8
CARTOUCHE
  6
CONTINUOUS
 62
     4
100
AcDbCircle
 10
23.067403
 20
16.045261
 30
0.0
 40
3.511892
100
AcDbArc
 50
71.872392
 51
120.405557
  0
ARC
  5
B4
330
1F
100
AcDbEntity
  8
CARTOUCHE
  6
CONTINUOUS
 62
     4
100
AcDbCircle
 10
22.457324
 20
17.479034
 30
0.0
 40
0.651124
100
AcDbArc
 50
0.0
 51
97.150683
  0
ARC
  5
B5
330
1F
100
AcDbEntity
  8
CARTOUCHE
  6
CONTINUOUS
 62
     4
100
AcDbCircle
 10
22.44381
 20
16.820079
 30
0.0
 40
1.306761
100
AcDbArc
 50
92.962513
 51
152.003324
  0
CIRCLE
  5
B6
330
1F
100
AcDbEntity
  8
CARTOUCHE
  6
CONTINUOUS
 62
     4
100
AcDbCircle
 10
6.899646
 20
18.925422
 30
0.0
 40
4.756723
  0
ARC
  5
B7
330
1F
100
AcDbEntity
  8
CARTOUCHE
  6
CONTINUOUS
 62
     4
100
AcDbCircle
 10
6.899651
 20
18.925417
 30
0.0
 40
3.758727
100
AcDbArc
 50
112.441032
 51
172.30447
  0
ARC
  5
B8
330
1F
100
AcDbEntity
  8
CARTOUCHE
  6
CONTINUOUS
 62
     4
100
AcDbCircle
 10
6.899651
 20
18.925417
 30
0.0
 40
3.758727
100
AcDbArc
 50
82.920154
 51
97.425676
  0
ARC
  5
B9
330
1F
100
AcDbEntity
  8
CARTOUCHE
  6
CONTINUOUS
 62
     4
100
AcDbCircle
 10
6.899651
 20
18.925417
 30
0.0
 40
3.758727
100
AcDbArc
 50
187.868554
 51
67.744476
  0
SPLINE
  5
BA
330
1F
100
AcDbEntity
  8
CARTOUCHE
  6
CONTINUOUS
 62
     4
100
AcDbSpline
210
0.0
220
0.0
230
1.0
 70
     8
 71
     3
 72
    36
 73
    32
 74
     0
 42
0.0
 43
0.0
 40
0.0
 40
0.0
 40
0.0
 40
0.0
 40
0.1780767830136681
 40
0.3550421473332519
 40
0.5343453484092107
 40
0.7146565399102437
 40
1.070969665796742
 40
1.425797276482804
 40
1.782601621641158
 40
2.138604507529012
 40
2.494665694350761
 40
2.851054992366518
 40
3.206893612592711
 40
3.563376496270243
 40
3.919394399374822
 40
4.275489906300407
 40
4.631810709934304
 40
4.987969559364683
 40
5.34408211860129
 40
5.700399378588028
 40
6.056403899471826
 40
6.412686420078558
 40
6.768554714070927
 40
7.124994803535126
 40
7.480919478161396
 40
7.837065786048822
 40
8.193227339653797
 40
8.54915435091597
 40
8.90592851958123
 40
9.261828936493906
 40
9.970559377486843
 40
9.970559377486843
 40
9.970559377486843
 40
9.970559377486843
 10
29.19152297621247
 20
19.3199041971318
 30
0.0
 10
29.1470811456694
 20
19.35925398737596
 30
0.0
 10
29.05217101571805
 20
19.4317355662181
 30
0.0
 10
28.88702486192653
 20
19.50226756380449
 30
0.0
 10
28.71305131556232
 20
19.54495666942723
 30
0.0
 10
28.47834845644468
 20
19.58798269645786
 30
0.0
 10
28.18518117017913
 20
19.63800719542321
 30
0.0
 10
27.82899646784813
 20
19.6593691414496
 30
0.0
 10
27.47326672482029
 20
19.64621384628078
 30
0.0
 10
27.11757491729929
 20
19.61242874303617
 30
0.0
 10
26.77299200399079
 20
19.51557094953319
 30
0.0
 10
26.44749864205448
 20
19.36660662833783
 30
0.0
 10
26.15775694326908
 20
19.15567807341922
 30
0.0
 10
25.90609476451141
 20
18.90204678516807
 30
0.0
 10
25.69450118247778
 20
18.613468363682
 30
0.0
 10
25.53862581202111
 20
18.29089603326816
 30
0.0
 10
25.44277681566371
 20
17.94623295105323
 30
0.0
 10
25.4051588730083
 20
17.58968055220073
 30
0.0
 10
25.44352328414163
 20
17.23351806607327
 30
0.0
 10
25.5330884282904
 20
16.88748872605868
 30
0.0
 10
25.68157849234228
 20
16.56148488761745
 30
0.0
 10
25.88917684075068
 20
16.26919453242289
 30
0.0
 10
26.1522127749239
 20
16.02575896079475
 30
0.0
 10
26.45092519319712
 20
15.82973462570551
 30
0.0
 10
26.77615878588608
 20
15.68002644669816
 30
0.0
 10
27.12459823011875
 20
15.59680869955606
 30
0.0
 10
27.48036210823477
 20
15.56921438733918
 30
0.0
 10
27.83671943981153
 20
15.56880338564122
 30
0.0
 10
28.19288691357406
 20
15.58096011441621
 30
0.0
 10
28.6641908177113
 20
15.63797081704082
 30
0.0
 10
28.99993188968324
 20
15.78862697439315
 30
0.0
 10
29.19152297621247
 20
15.92684360711667
 30
0.0
  0
SPLINE
  5
BB
330
1F
100
AcDbEntity
  8
CARTOUCHE
  6
CONTINUOUS
 62
     4
100
AcDbSpline
210
0.0
220
0.0
230
1.0
 70
     8
 71
     3
 72
    32
 73
    28
 74
     0
 42
0.0
 43
0.0
 40
0.0
 40
0.0
 40
0.0
 40
0.0
 40
0.1932877580521157
 40
0.3866798787325882
 40
0.5800722507134989
 40
0.772333729456475
 40
0.9658523902015594
 40
1.159368918637214
 40
1.351212480188305
 40
1.544294116240269
 40
1.738458877748041
 40
1.931765051105018
 40
2.315248221342022
 40
2.698534908932237
 40
2.891497325006418
 40
3.086240061673468
 40
3.27934698460621
 40
3.47149554917474
 40
3.665362297658928
 40
3.858867169137039
 40
4.051425425593018
 40
4.244517993884934
 40
4.629048396203631
 40
4.822527042047698
 40
5.015999172173861
 40
5.208857197714148
 40
5.402321103694232
 40
5.402321103694232
 40
5.402321103694232
 40
5.402321103694232
 10
29.19152297621247
 20
17.75924360711668
 30
0.0
 10
29.18288243399775
 20
17.8230908437966
 30
0.0
 10
29.14698925229231
 20
17.94923099492491
 30
0.0
 10
29.03863033600135
 20
18.11295896718003
 30
0.0
 10
28.88808593421186
 20
18.23750555169801
 30
0.0
 10
28.71390236835975
 20
18.32349619385565
 30
0.0
 10
28.52952277004852
 20
18.38166686509658
 30
0.0
 10
28.34290479514243
 20
18.43125946356719
 30
0.0
 10
28.15005836734326
 20
18.45345660720097
 30
0.0
 10
27.9567652835641
 20
18.43192422737054
 30
0.0
 10
27.77055996307331
 20
18.37588631632259
 30
0.0
 10
27.54005543090193
 20
18.25927888814989
 30
0.0
 10
27.30431979796026
 20
18.02895633252871
 30
0.0
 10
27.19918224735056
 20
17.70410852264934
 30
0.0
 10
27.2556090006949
 20
17.44863354719076
 30
0.0
 10
27.34552826919219
 20
17.27538536050071
 30
0.0
 10
27.47312092641039
 20
17.12730558305737
 30
0.0
 10
27.63483015622103
 20
17.01829625364088
 30
0.0
 10
27.81425994030428
 20
16.94472673420569
 30
0.0
 10
28.00144289742559
 20
16.89441464262615
 30
0.0
 10
28.19428201703386
 20
16.87304307862474
 30
0.0
 10
28.45148699611309
 20
16.88934789940681
 30
0.0
 10
28.70119669040025
 20
16.97262918726353
 30
0.0
 10
28.91655264301392
 20
17.114560902169
 30
0.0
 10
29.05836036639801
 20
17.24858543450058
 30
0.0
 10
29.15639747778994
 20
17.41858950885382
 30
0.0
 10
29.18558227182314
 20
17.54607985365801
 30
0.0
 10
29.19152297621247
 20
17.61029360711667
 30
0.0
  0
LINE
  5
BC
330
1F
100
AcDbEntity
  8
CARTOUCHE
  6
CONTINUOUS
 62
     4
100
AcDbLine
 10
29.191523
 20
17.610294
 30
0.0
 11
29.191523
 21
17.759244
 31
0.0
  0
LINE
  5
BD
330
1F
100
AcDbEntity
  8
CARTOUCHE
  6
CONTINUOUS
 62
     4
100
AcDbLine
 10
29.191523
 20
15.620844
 30
0.0
 11
29.191523
 21
15.926844
 31
0.0
  0
SPLINE
  5
BE
330
1F
100
AcDbEntity
  8
CARTOUCHE
  6
CONTINUOUS
 62
     4
100
AcDbSpline
210
0.0
220
0.0
230
1.0
 70
     8
 71
     3
 72
    46
 73
    42
 74
     0
 42
0.0
 43
0.0
 40
0.0
 40
0.0
 40
0.0
 40
0.0
 40
0.2811760796502946
 40
0.5640898973250563
 40
0.8489971748537003
 40
1.131205009177211
 40
1.693847543907712
 40
2.256883126992217
 40
2.539006962714906
 40
2.820697028678528
 40
3.102988717666822
 40
3.385255369055035
 40
3.948537474972731
 40
4.512595302147443
 40
5.076291358232317
 40
5.639939427570669
 40
6.203885740903807
 40
6.766738495431309
 40
7.329351108981916
 40
7.892323841237688
 40
8.45514866590555
 40
8.737355288896866
 40
9.018966908742904
 40
9.581781624582574
 40
9.86403908982524
 40
10.14660944492419
 40
10.42765695915669
 40
10.7104453671154
 40
11.27439772862129
 40
11.83782241902082
 40
12.40155022911231
 40
12.96488140450844
 40
13.53013698036286
 40
13.81230410617875
 40
14.09372936703951
 40
14.37575719238146
 40
14.65757020519361
 40
14.93943603583764
 40
15.22120144973326
 40
15.50299703910228
 40
15.78483944550847
 40
15.78483944550847
 40
15.78483944550847
 40
15.78483944550847
 10
37.20692297621247
 20
17.25614360711672
 30
0.0
 10
37.23203420692107
 20
17.34644238439291
 30
0.0
 10
37.26336484409046
 20
17.53399353514693
 30
0.0
 10
37.24149612352574
 20
17.81801411254953
 30
0.0
 10
37.17836723535868
 20
18.09483488905608
 30
0.0
 10
37.05825107130295
 20
18.45212671536388
 30
0.0
 10
36.82306595169769
 20
18.86725058477686
 30
0.0
 10
36.46781589545185
 20
19.18453429852833
 30
0.0
 10
36.14761072222359
 20
19.38196329151135
 30
0.0
 10
35.88897462899058
 20
19.49665832798303
 30
0.0
 10
35.61969295726612
 20
19.58173403519249
 30
0.0
 10
35.2543140411176
 20
19.67112584450371
 30
0.0
 10
34.78716946498412
 20
19.73491758839328
 30
0.0
 10
34.22286115907593
 20
19.74314626209986
 30
0.0
 10
33.65911994648309
 20
19.70776759135033
 30
0.0
 10
33.10430878015268
 20
19.60055504764404
 30
0.0
 10
32.56703323781767
 20
19.41975332166317
 30
0.0
 10
32.09128315197597
 20
19.10132458254379
 30
0.0
 10
31.74193800490184
 20
18.64941378404786
 30
0.0
 10
31.52262068232574
 20
18.12465110892419
 30
0.0
 10
31.46286140999609
 20
17.65237452681703
 30
0.0
 10
31.49897098284839
 20
17.27677370178464
 30
0.0
 10
31.60138451349223
 20
16.91447857233738
 30
0.0
 10
31.76185376327498
 20
16.56953956862208
 30
0.0
 10
31.99184431742594
 20
16.27135451108104
 30
0.0
 10
32.18412083772114
 20
16.06372980713054
 30
0.0
 10
32.41499014005785
 20
15.8981099703803
 30
0.0
 10
32.7523317509042
 20
15.73108000815063
 30
0.0
 10
33.19505414301852
 20
15.56630096045468
 30
0.0
 10
33.75227372266897
 20
15.46845437614093
 30
0.0
 10
34.31516350933748
 20
15.42686252978587
 30
0.0
 10
34.8797846612523
 20
15.45310416565457
 30
0.0
 10
35.34636121692427
 20
15.51793254831694
 30
0.0
 10
35.71316921960886
 20
15.60361847371957
 30
0.0
 10
35.98020693492333
 20
15.69575649055219
 30
0.0
 10
36.23634011737818
 20
15.8133707081824
 30
0.0
 10
36.48756104735048
 20
15.94257867459994
 30
0.0
 10
36.71131096251793
 20
16.11779577915576
 30
0.0
 10
36.89210320202199
 20
16.33577430529642
 30
0.0
 10
37.03705328185708
 20
16.57968837892793
 30
0.0
 10
37.08874532982247
 20
16.76292208205906
 30
0.0
 10
37.10387297621253
 20
16.8556436071167
 30
0.0
  0
SPLINE
  5
BF
330
1F
100
AcDbEntity
  8
CARTOUCHE
  6
CONTINUOUS
 62
     4
100
AcDbSpline
210
0.0
220
0.0
230
1.0
 70
     8
 71
     3
 72
    15
 73
    11
 74
     0
 42
0.0
 43
0.0
 40
0.0
 40
0.0
 40
0.0
 40
0.0
 40
0.3371530624456519
 40
0.6743134103473634
 40
1.011742195803972
 40
1.348774234605689
 40
1.687275239821948
 40
1.856093664733062
 40
2.024672439731733
 40
2.36171424272068
 40
2.36171424272068
 40
2.36171424272068
 40
2.36171424272068
 10
33.36482297621251
 20
17.2444436071167
 30
0.0
 10
33.3858778215025
 20
17.13404914825572
 30
0.0
 10
33.47908858652352
 20
16.91720193038532
 30
0.0
 10
33.75430938453144
 20
16.706449264183
 30
0.0
 10
34.06998675418981
 20
16.58180999970012
 30
0.0
 10
34.40539517918739
 20
16.52556263807151
 30
0.0
 10
34.68949469675783
 20
16.54062536220022
 30
0.0
 10
34.90812694138117
 20
16.59887374482219
 30
0.0
 10
35.11328271453908
 20
16.69222545658818
 30
0.0
 10
35.25572769673465
 20
16.78492272807649
 30
0.0
 10
35.34302297621252
 20
16.8556436071167
 30
0.0
  0
SPLINE
  5
C0
330
1F
100
AcDbEntity
  8
CARTOUCHE
  6
CONTINUOUS
 62
     4
100
AcDbSpline
210
0.0
220
0.0
230
1.0
 70
     8
 71
     3
 72
    21
 73
    17
 74
     0
 42
0.0
 43
0.0
 40
0.0
 40
0.0
 40
0.0
 40
0.0
 40
0.1868562426648683
 40
0.3735753311188897
 40
0.561385244331366
 40
0.7484499710535985
 40
0.9355894656463413
 40
1.123113048870195
 40
1.311429068188788
 40
1.500242837337345
 40
1.686444243009907
 40
1.873057665252352
 40
2.059520356870873
 40
2.246467921108978
 40
2.434628805645711
 40
2.621194974095634
 40
2.621194974095634
 40
2.621194974095634
 40
2.621194974095634
 10
35.34302297621252
 20
18.07919360711669
 30
0.0
 10
35.33827402300517
 20
18.14129771542037
 30
0.0
 10
35.31098590801867
 20
18.26532167893516
 30
0.0
 10
35.21176932408082
 20
18.4274393651603
 30
0.0
 10
35.07410472232061
 20
18.55667707405826
 30
0.0
 10
34.91380074337155
 20
18.65566347451574
 30
0.0
 10
34.73873424931833
 20
18.72452207485077
 30
0.0
 10
34.55489940604025
 20
18.76544162614523
 30
0.0
 10
34.36639704794266
 20
18.77885835001855
 30
0.0
 10
34.17902209853401
 20
18.76782273359755
 30
0.0
 10
33.99274798283
 20
18.72746022546608
 30
0.0
 10
33.83748785500461
 20
18.62068130925582
 30
0.0
 10
33.66640581764318
 20
18.54392880021908
 30
0.0
 10
33.52524874688265
 20
18.41621721231662
 30
0.0
 10
33.42100493506643
 20
18.25892401888792
 30
0.0
 10
33.37822029988172
 20
18.13992209272329
 30
0.0
 10
33.36482297621251
 20
18.07919360711669
 30
0.0
  0
SPLINE
  5
C1
330
1F
100
AcDbEntity
  8
CARTOUCHE
  6
CONTINUOUS
 62
     4
100
AcDbSpline
210
0.0
220
0.0
230
1.0
 70
     8
 71
     3
 72
    14
 73
    10
 74
     0
 42
0.0
 43
0.0
 40
0.0
 40
0.0
 40
0.0
 40
0.0
 40
0.2162148910594536
 40
0.4333935378504982
 40
0.6499506618299267
 40
0.8697440506435969
 40
1.087238867261143
 40
1.304828920110255
 40
1.52231799513657
 40
1.52231799513657
 40
1.52231799513657
 40
1.52231799513657
 10
40.45457297621249
 20
17.82764360711668
 30
0.0
 10
40.4585708245022
 20
17.89960427075187
 30
0.0
 10
40.42640871477511
 20
18.04880797988182
 30
0.0
 10
40.27439512155047
 20
18.2158057830136
 30
0.0
 10
40.06187418874424
 20
18.29256657103895
 30
0.0
 10
39.83996012736452
 20
18.27349259239089
 30
0.0
 10
39.63539374842924
 20
18.17927908713461
 30
0.0
 10
39.50069166663809
 20
17.99888001181956
 30
0.0
 10
39.46300588566658
 20
17.8546109938169
 30
0.0
 10
39.45962297621247
 20
17.78219360711672
 30
0.0
  0
SPLINE
  5
C2
330
1F
100
AcDbEntity
  8
CARTOUCHE
  6
CONTINUOUS
 62
     4
100
AcDbSpline
210
0.0
220
0.0
230
1.0
 70
     8
 71
     3
 72
    20
 73
    16
 74
     0
 42
0.0
 43
0.0
 40
0.0
 40
0.0
 40
0.0
 40
0.0
 40
0.3099173987996669
 40
0.6201169005603266
 40
0.9308839291328165
 40
1.240783325707781
 40
1.55095939565128
 40
1.86184239372724
 40
2.170990040564945
 40
2.482795387658576
 40
2.792567816778102
 40
3.102413185111548
 40
3.413424630920254
 40
3.723772126664227
 40
4.34241605336301
 40
4.34241605336301
 40
4.34241605336301
 40
4.34241605336301
 10
42.28382297621249
 20
17.58779360711669
 30
0.0
 10
42.29785819041342
 20
17.69014154795241
 30
0.0
 10
42.31442439810405
 20
17.89677002490993
 30
0.0
 10
42.30093033884827
 20
18.20747684710313
 30
0.0
 10
42.25565509292562
 20
18.51474506996465
 30
0.0
 10
42.17620497908092
 20
18.81641720416798
 30
0.0
 10
42.02732884775901
 20
19.09240930675498
 30
0.0
 10
41.81020925681196
 20
19.32073989851239
 30
0.0
 10
41.53096645435983
 20
19.46673633765892
 30
0.0
 10
41.2307622884091
 20
19.54812226604333
 30
0.0
 10
40.92302870824335
 20
19.59724701034367
 30
0.0
 10
40.61155045095131
 20
19.58971136447537
 30
0.0
 10
40.30365712496848
 20
19.54593387513314
 30
0.0
 10
39.90384924168495
 20
19.43649512043618
 30
0.0
 10
39.62714716375797
 20
19.28574386806645
 30
0.0
 10
39.45962297621247
 20
19.16549360711668
 30
0.0
  0
ARC
  5
C3
330
1F
100
AcDbEntity
  8
CARTOUCHE
  6
CONTINUOUS
 62
     4
100
AcDbCircle
 10
5.950954
 20
18.851493
 30
0.0
 40
0.470607
100
AcDbArc
 50
290.581791
 51
349.597912
  0
SPLINE
  5
C4
330
1F
100
AcDbEntity
  8
CARTOUCHE
  6
CONTINUOUS
 62
     4
100
AcDbSpline
210
0.0
220
0.0
230
1.0
 70
     8
 71
     3
 72
    14
 73
    10
 74
     0
 42
0.0
 43
0.0
 40
0.0
 40
0.0
 40
0.0
 40
0.0
 40
0.218061519141428
 40
0.4363611552766655
 40
0.6537290224029619
 40
0.8729556978994847
 40
1.089089148588595
 40
1.305404600578318
 40
1.523281343816881
 40
1.523281343816881
 40
1.523281343816881
 40
1.523281343816881
 10
8.323222976212492
 20
16.16984360711673
 30
0.0
 10
8.318288214417635
 20
16.09732413902976
 30
0.0
 10
8.284441201709
 20
15.95301240567483
 30
0.0
 10
8.169483084717058
 20
15.76307331566506
 30
0.0
 10
7.996385400748409
 20
15.62406236269835
 30
0.0
 10
7.795574627707992
 20
15.53567944687769
 30
0.0
 10
7.57604694575457
 20
15.50360567386355
 30
0.0
 10
7.361945471922013
 20
15.55796082330824
 30
0.0
 10
7.233255854035747
 20
15.62676542598343
 30
0.0
 10
7.173698979108963
 20
15.66832807359032
 30
0.0
  0
ARC
  5
C5
330
1F
100
AcDbEntity
  8
CARTOUCHE
  6
CONTINUOUS
 62
     4
100
AcDbCircle
 10
9.404539
 20
20.005869
 30
0.0
 40
0.500071
100
AcDbArc
 50
275.840125
 51
95.840125
  0
HATCH
  5
C6
330
1F
100
AcDbEntity
  8
CARTOUCHE
  6
CONTINUOUS
 62
     4
100
AcDbHatch
 10
0.0
 20
0.0
 30
0.0
210
0.0
220
0.0
230
1.0
  2
ANSI_31
 70
     0
 71
     0
 91
        4
 92
        1
 93
        3
 72
     1
 10
5.464822999999996
 20
22.399506
 11
5.464822999999996
 21
19.428744
 72
     1
 10
5.464822999999996
 20
19.428744
 11
3.174776000000008
 21
19.428744
 72
     2
 10
6.899651000000013
 20
18.925417
 40
3.758727000000007
 50
187.6955481858978
 51
247.5589807620793
 73
     0
 97
        0
 92
        0
 93
        6
 72
     1
 10
6.413872999999995
 20
22.652621
 11
6.413872999999995
 21
18.766514
 72
     2
 10
5.950953999999984
 20
18.85149300000001
 40
0.4706070000000123
 50
10.4020663706945
 51
69.41820895943509
 73
     0
 72
     1
 10
6.116422999999998
 20
18.410844
 11
5.887822999999997
 21
18.410844
 72
     1
 10
5.887822999999997
 20
18.410844
 11
7.362922999999995
 21
16.810194
 72
     1
 10
7.362922999999995
 20
16.810194
 11
7.362922999999995
 21
22.655485
 72
     2
 10
6.899650999999998
 20
18.92541699999987
 40
3.758727000000134
 50
82.92017098471825
 51
97.4256861882653
 73
     1
 97
        0
 92
        0
 93
       40
 72
     1
 10
9.353656
 20
20.503344
 11
8.323223000000013
 21
20.503344
 72
     1
 10
8.323223000000013
 20
20.503344
 11
8.323223000000013
 21
22.404134
 72
     2
 10
6.899651000000006
 20
18.925417
 40
3.758727
 50
292.2555505518878
 51
532.1314361600666
 73
     0
 72
     1
 10
3.176312999999993
 20
18.410844
 11
4.378523000000001
 21
18.410844
 72
     1
 10
4.378523000000001
 20
18.410844
 11
7.173698999999999
 21
15.668328
 72
     1
 10
7.173698999999999
 20
15.668328
 11
7.228616999999986
 21
15.632853
 72
     1
 10
7.228616999999986
 20
15.632853
 11
7.286012999999997
 21
15.601363
 72
     1
 10
7.286012999999997
 20
15.601363
 11
7.36599799999999
 21
15.565901
 72
     1
 10
7.36599799999999
 20
15.565901
 11
7.407006999999993
 21
15.551229
 72
     1
 10
7.407006999999993
 20
15.551229
 11
7.448735999999997
 21
15.538797
 72
     1
 10
7.448735999999997
 20
15.538797
 11
7.491052999999994
 21
15.528907
 72
     1
 10
7.491052999999994
 20
15.528907
 11
7.533828999999997
 21
15.52186
 72
     1
 10
7.533828999999997
 20
15.52186
 11
7.576933999999994
 21
15.51796
 72
     1
 10
7.576933999999994
 20
15.51796
 11
7.620191000000005
 21
15.517416
 72
     1
 10
7.620191000000005
 20
15.517416
 11
7.663455999999996
 21
15.52007
 72
     1
 10
7.663455999999996
 20
15.52007
 11
7.706538999999992
 21
15.525678
 72
     1
 10
7.706538999999992
 20
15.525678
 11
7.749248999999992
 21
15.533994
 72
     1
 10
7.749248999999992
 20
15.533994
 11
7.791397999999987
 21
15.544775
 72
     1
 10
7.791397999999987
 20
15.544775
 11
7.833400000000012
 21
15.55801
 72
     1
 10
7.833400000000012
 20
15.55801
 11
7.874554999999987
 21
15.573479
 72
     1
 10
7.874554999999987
 20
15.573479
 11
7.91478699999999
 21
15.591129
 72
     1
 10
7.91478699999999
 20
15.591129
 11
7.992187000000001
 21
15.632775
 72
     1
 10
7.992187000000001
 20
15.632775
 11
8.02887100000001
 21
15.656467
 72
     1
 10
8.02887100000001
 20
15.656467
 11
8.064193999999986
 21
15.682164
 72
     1
 10
8.064193999999986
 20
15.682164
 11
8.097919999999988
 21
15.709874
 72
     1
 10
8.097919999999988
 20
15.709874
 11
8.129815000000008
 21
15.739605
 72
     1
 10
8.129815000000008
 20
15.739605
 11
8.159642999999988
 21
15.771365
 72
     1
 10
8.159642999999988
 20
15.771365
 11
8.187311999999991
 21
15.805278
 72
     1
 10
8.187311999999991
 20
15.805278
 11
8.212607999999989
 21
15.841045
 72
     1
 10
8.212607999999989
 20
15.841045
 11
8.235479999999995
 21
15.878466
 72
     1
 10
8.235479999999995
 20
15.878466
 11
8.255876999999998
 21
15.91734
 72
     1
 10
8.255876999999998
 20
15.91734
 11
8.273750000000007
 21
15.957468
 72
     1
 10
8.273750000000007
 20
15.957468
 11
8.289029
 21
15.998605
 72
     1
 10
8.289029
 20
15.998605
 11
8.301677000000012
 21
16.040602
 72
     1
 10
8.301677000000012
 20
16.040602
 11
8.311632000000003
 21
16.083268
 72
     1
 10
8.311632000000003
 20
16.083268
 11
8.318835000000007
 21
16.126412
 72
     1
 10
8.318835000000007
 20
16.126412
 11
8.323223000000013
 21
16.169844
 72
     1
 10
8.323223000000013
 20
16.169844
 11
8.323223000000013
 21
19.508394
 72
     1
 10
8.323223000000013
 20
19.508394
 11
9.455422999999996
 21
19.508394
 72
     2
 10
9.404539
 20
20.005869
 40
0.5000710000000017
 50
275.8401026338634
 51
455.8401224817064
 73
     1
 97
        0
 92
        0
 93
        1
 72
     2
 10
6.899645999999991
 20
18.92542200383098
 40
4.756723
 50
359.999999953855
 51
719.9999823537612
 73
     1
 97
        0
 75
     0
 76
     2
 52
0.0
 41
0.062992
 77
     0
 78
     1
 53
44.99999999988837
 43
0.0
 44
0.0
 45
-3.592095212307267
 46
3.592095212321264
 79
     0
 98
        0
  0
HATCH
  5
C7
330
1F
100
AcDbEntity
  8
CARTOUCHE
  6
CONTINUOUS
 62
     4
100
AcDbHatch
 10
0.0
 20
0.0
 30
0.0
210
0.0
220
0.0
230
1.0
  2
ANSI_31
 70
     0
 71
     0
 91
        1
 92
        1
 93
       16
 72
     1
 10
15.67905300000001
 20
19.931844
 11
16.087523
 21
19.931844
 72
     1
 10
16.087523
 20
19.931844
 11
16.087523
 21
20.834994
 72
     1
 10
16.087523
 20
20.834994
 11
14.58025900000001
 21
20.834994
 72
     2
 10
14.58025900000001
 20
19.929401
 40
0.9056389999999922
 50
89.99998127603119
 51
180.0000198478434
 73
     1
 72
     1
 10
13.674623
 20
19.929401
 11
13.674623
 21
19.508394
 72
     1
 10
13.674623
 20
19.508394
 11
13.13732300000001
 21
19.508394
 72
     1
 10
13.13732300000001
 20
19.508394
 11
13.13732300000001
 21
18.410844
 72
     1
 10
13.13732300000001
 20
18.410844
 11
13.674623
 21
18.410844
 72
     1
 10
13.674623
 20
18.410844
 11
13.674623
 21
15.632094
 72
     1
 10
13.674623
 20
15.632094
 11
15.470123
 21
15.632094
 72
     1
 10
15.470123
 20
15.632094
 11
15.470123
 21
18.410844
 72
     1
 10
15.470123
 20
18.410844
 11
16.087523
 21
18.410844
 72
     1
 10
16.087523
 20
18.410844
 11
16.087523
 21
19.508394
 72
     1
 10
16.087523
 20
19.508394
 11
15.41297299999999
 21
19.508394
 72
     1
 10
15.41297299999999
 20
19.508394
 11
15.46107900000001
 21
19.768622
 72
     2
 10
15.70598799999999
 20
19.668716
 40
0.2645030000000032
 50
202.1921825436212
 51
264.1553335516181
 73
     0
 97
        0
 75
     0
 76
     2
 52
0.0
 41
0.062992
 77
     0
 78
     1
 53
44.99999999988837
 43
0.0
 44
0.0
 45
-3.592095212307267
 46
3.592095212321264
 79
     0
 98
        0
  0
HATCH
  5
C8
330
1F
100
AcDbEntity
  8
CARTOUCHE
  6
CONTINUOUS
 62
     4
100
AcDbHatch
 10
0.0
 20
0.0
 30
0.0
210
0.0
220
0.0
230
1.0
  2
ANSI_31
 70
     0
 71
     0
 91
        1
 92
        1
 93
        4
 72
     1
 10
16.807973
 20
20.834994
 11
16.807973
 21
19.943094
 72
     1
 10
16.807973
 20
19.943094
 11
18.62597299999999
 21
19.943094
 72
     1
 10
18.62597299999999
 20
19.943094
 11
18.62597299999999
 21
20.834994
 72
     1
 10
18.62597299999999
 20
20.834994
 11
16.807973
 21
20.834994
 97
        0
 75
     0
 76
     2
 52
0.0
 41
0.062992
 77
     0
 78
     1
 53
44.99999999988837
 43
0.0
 44
0.0
 45
-3.592095212307267
 46
3.592095212321264
 79
     0
 98
        0
  0
HATCH
  5
C9
330
1F
100
AcDbEntity
  8
CARTOUCHE
  6
CONTINUOUS
 62
     4
100
AcDbHatch
 10
0.0
 20
0.0
 30
0.0
210
0.0
220
0.0
230
1.0
  2
ANSI_31
 70
     0
 71
     0
 91
        1
 92
        1
 93
        4
 72
     1
 10
16.807973
 20
19.508394
 11
16.807973
 21
15.632094
 72
     1
 10
16.807973
 20
15.632094
 11
18.62597299999999
 21
15.632094
 72
     1
 10
18.62597299999999
 20
15.632094
 11
18.62597299999999
 21
19.508394
 72
     1
 10
18.62597299999999
 20
19.508394
 11
16.807973
 21
19.508394
 97
        0
 75
     0
 76
     2
 52
0.0
 41
0.062992
 77
     0
 78
     1
 53
44.99999999988837
 43
0.0
 44
0.0
 45
-3.592095212307267
 46
3.592095212321264
 79
     0
 98
        0
  0
HATCH
  5
CA
330
1F
100
AcDbEntity
  8
CARTOUCHE
  6
CONTINUOUS
 62
     4
100
AcDbHatch
 10
0.0
 20
0.0
 30
0.0
210
0.0
220
0.0
230
1.0
  2
ANSI_31
 70
     0
 71
     0
 91
        1
 92
        1
 93
       12
 72
     2
 10
22.457324
 20
17.479034
 40
0.651124000000001
 50
262.8493335533972
 51
360.0
 73
     0
 72
     1
 10
23.10842299999999
 20
17.479034
 11
23.10842299999999
 21
15.632094
 72
     1
 10
23.10842299999999
 20
15.632094
 11
24.892223
 21
15.632094
 72
     1
 10
24.892223
 20
15.632094
 11
24.892223
 21
18.324553
 72
     2
 10
23.67502799999999
 20
18.26487300000001
 40
1.218658000000002
 50
2.806977534125219
 51
66.54578204501267
 73
     1
 72
     2
 10
23.06740300000001
 20
16.045261
 40
3.511891999999995
 50
71.87239877900548
 51
120.4055336606956
 73
     1
 72
     1
 10
21.289973
 20
19.074144
 11
21.289973
 21
19.508394
 72
     1
 10
21.289973
 20
19.508394
 11
19.494923
 21
19.508394
 72
     1
 10
19.494923
 20
19.508394
 11
19.494923
 21
15.632094
 72
     1
 10
19.494923
 20
15.632094
 11
21.289973
 21
15.632094
 72
     1
 10
21.289973
 20
15.632094
 11
21.289973
 21
17.433499
 72
     2
 10
22.44380999999998
 20
16.82007900000001
 40
1.306760999999987
 50
207.9967033745319
 51
267.0374831484652
 73
     0
 97
        0
 75
     0
 76
     2
 52
0.0
 41
0.062992
 77
     0
 78
     1
 53
44.99999999988837
 43
0.0
 44
0.0
 45
-3.592095212307267
 46
3.592095212321264
 79
     0
 98
        0
  0
HATCH
  5
CB
330
1F
100
AcDbEntity
  8
CARTOUCHE
  6
CONTINUOUS
 62
     4
100
AcDbHatch
 10
0.0
 20
0.0
 30
0.0
210
0.0
220
0.0
230
1.0
  2
ANSI_31
 70
     0
 71
     0
 91
        2
 92
        1
 93
       68
 72
     1
 10
29.19152299999999
 20
19.319904
 11
29.136639
 21
19.365465
 72
     1
 10
29.136639
 20
19.365465
 11
29.09335300000001
 21
19.396952
 72
     1
 10
29.09335300000001
 20
19.396952
 11
29.048146
 21
19.425518
 72
     1
 10
29.048146
 20
19.425518
 11
28.98531500000001
 21
19.458243
 72
     1
 10
28.98531500000001
 20
19.458243
 11
28.93641500000001
 21
19.479183
 72
     1
 10
28.93641500000001
 20
19.479183
 11
28.886414
 21
19.497349
 72
     1
 10
28.886414
 20
19.497349
 11
28.80036899999999
 21
19.52267
 72
     1
 10
28.80036899999999
 20
19.52267
 11
28.71305599999999
 21
19.543137
 72
     1
 10
28.71305599999999
 20
19.543137
 11
28.53598499999998
 21
19.577164
 72
     1
 10
28.53598499999998
 20
19.577164
 11
28.18386100000001
 21
19.631643
 72
     1
 10
28.18386100000001
 20
19.631643
 11
27.829714
 21
19.653611
 72
     1
 10
27.829714
 20
19.653611
 11
27.47307499999999
 21
19.642759
 72
     1
 10
27.47307499999999
 20
19.642759
 11
27.295535
 21
19.627567
 72
     1
 10
27.295535
 20
19.627567
 11
27.11942199999999
 21
19.601922
 72
     1
 10
27.11942199999999
 20
19.601922
 11
26.98039299999999
 21
19.570874
 72
     1
 10
26.98039299999999
 20
19.570874
 11
26.77626900000001
 21
19.506919
 72
     1
 10
26.77626900000001
 20
19.506919
 11
26.643857
 21
19.453442
 72
     1
 10
26.643857
 20
19.453442
 11
26.54719900000001
 21
19.407478
 72
     1
 10
26.54719900000001
 20
19.407478
 11
26.453318
 21
19.3562
 72
     1
 10
26.453318
 20
19.3562
 11
26.33327600000001
 21
19.279541
 72
     1
 10
26.33327600000001
 20
19.279541
 11
26.16425100000001
 21
19.148688
 72
     1
 10
26.16425100000001
 20
19.148688
 11
26.05893800000001
 21
19.052358
 72
     1
 10
26.05893800000001
 20
19.052358
 11
25.91268300000002
 21
18.896114
 72
     1
 10
25.91268300000002
 20
18.896114
 11
25.82344499999999
 21
18.784931
 72
     1
 10
25.82344499999999
 20
18.784931
 11
25.70379299999999
 21
18.607819
 72
     1
 10
25.70379299999999
 20
18.607819
 11
25.634816
 21
18.48302
 72
     1
 10
25.634816
 20
18.48302
 11
25.58909600000001
 21
18.38631
 72
     1
 10
25.58909600000001
 20
18.38631
 11
25.54866100000001
 21
18.287292
 72
     1
 10
25.54866100000001
 20
18.287292
 11
25.50307699999999
 21
18.152132
 72
     1
 10
25.50307699999999
 20
18.152132
 11
25.452473
 21
17.944199
 72
     1
 10
25.452473
 20
17.944199
 11
25.430632
 21
17.80315
 72
     1
 10
25.430632
 20
17.80315
 11
25.42104699999999
 21
17.696588
 72
     1
 10
25.42104699999999
 20
17.696588
 11
25.41782000000001
 21
17.58973
 72
     1
 10
25.41782000000001
 20
17.58973
 11
25.42378300000001
 21
17.447355
 72
     1
 10
25.42378300000001
 20
17.447355
 11
25.45204699999999
 21
17.235266
 72
     1
 10
25.45204699999999
 20
17.235266
 11
25.48182299999999
 21
17.095683
 72
     1
 10
25.48182299999999
 20
17.095683
 11
25.54294099999998
 21
16.890737
 72
     1
 10
25.54294099999998
 20
16.890737
 11
25.59524500000001
 21
16.758144
 72
     1
 10
25.59524500000001
 20
16.758144
 11
25.64066299999999
 21
16.661326
 72
     1
 10
25.64066299999999
 20
16.661326
 11
25.691396
 21
16.567163
 72
     1
 10
25.691396
 20
16.567163
 11
25.76734099999999
 21
16.446302
 72
     1
 10
25.76734099999999
 20
16.446302
 11
25.83037100000001
 21
16.359778
 72
     1
 10
25.83037100000001
 20
16.359778
 11
25.89849000000001
 21
16.27725
 72
     1
 10
25.89849000000001
 20
16.27725
 11
25.99676700000001
 21
16.17408
 72
     1
 10
25.99676700000001
 20
16.17408
 11
26.15802500000001
 21
16.033767
 72
     1
 10
26.15802500000001
 20
16.033767
 11
26.27323200000001
 21
15.949577
 72
     1
 10
26.27323200000001
 20
15.949577
 11
26.45548300000002
 21
15.837379
 72
     1
 10
26.45548300000002
 20
15.837379
 11
26.58228500000001
 21
15.772196
 72
     1
 10
26.58228500000001
 20
15.772196
 11
26.680038
 21
15.728943
 72
     1
 10
26.680038
 20
15.728943
 11
26.77996999999999
 21
15.691125
 72
     1
 10
26.77996999999999
 20
15.691125
 11
26.91640599999999
 21
15.649737
 72
     1
 10
26.91640599999999
 20
15.649737
 11
27.12581399999999
 21
15.606082
 72
     1
 10
27.12581399999999
 20
15.606082
 11
27.30267700000002
 21
15.584734
 72
     1
 10
27.30267700000002
 20
15.584734
 11
27.480504
 21
15.573741
 72
     1
 10
27.480504
 20
15.573741
 11
27.83642
 21
15.570894
 72
     1
 10
27.83642
 20
15.570894
 11
28.19287
 21
15.586102
 72
     1
 10
28.19287
 20
15.586102
 11
28.334597
 21
15.6
 72
     1
 10
28.334597
 20
15.6
 11
28.54527100000001
 21
15.635884
 72
     1
 10
28.54527100000001
 20
15.635884
 11
28.68285299999999
 21
15.673016
 72
     1
 10
28.68285299999999
 20
15.673016
 11
28.81743299999999
 21
15.721154
 72
     1
 10
28.81743299999999
 20
15.721154
 11
28.94784799999999
 21
15.779822
 72
     1
 10
28.94784799999999
 20
15.779822
 11
29.07293300000001
 21
15.848544
 72
     1
 10
29.07293300000001
 20
15.848544
 11
29.19152299999999
 21
15.926844
 72
     1
 10
29.19152299999999
 20
15.926844
 11
29.19152299999999
 21
15.620844
 72
     1
 10
29.19152299999999
 20
15.620844
 11
30.98657299999999
 21
15.620844
 72
     1
 10
30.98657299999999
 20
15.620844
 11
30.98657299999999
 21
20.823744
 72
     1
 10
30.98657299999999
 20
20.823744
 11
29.19152299999999
 21
20.823744
 72
     1
 10
29.19152299999999
 20
20.823744
 11
29.19152299999999
 21
19.319904
 97
        0
 92
        0
 93
       86
 72
     1
 10
29.19152299999999
 20
17.759244
 11
29.18522400000001
 21
17.797429
 72
     1
 10
29.18522400000001
 20
17.797429
 11
29.176704
 21
17.835258
 72
     1
 10
29.176704
 20
17.835258
 11
29.16597200000001
 21
17.872565
 72
     1
 10
29.16597200000001
 20
17.872565
 11
29.153041
 21
17.909184
 72
     1
 10
29.153041
 20
17.909184
 11
29.13791900000001
 21
17.94495
 72
     1
 10
29.13791900000001
 20
17.94495
 11
29.120622
 21
17.979724
 72
     1
 10
29.120622
 20
17.979724
 11
29.10124100000002
 21
18.01337
 72
     1
 10
29.10124100000002
 20
18.01337
 11
29.079871
 21
18.045781
 72
     1
 10
29.079871
 20
18.045781
 11
29.05661000000001
 21
18.076848
 72
     1
 10
29.05661000000001
 20
18.076848
 11
29.031554
 21
18.106464
 72
     1
 10
29.031554
 20
18.106464
 11
29.004808
 21
18.13454
 72
     1
 10
29.004808
 20
18.13454
 11
28.97651300000001
 21
18.161059
 72
     1
 10
28.97651300000001
 20
18.161059
 11
28.93149700000001
 21
18.19792
 72
     1
 10
28.93149700000001
 20
18.19792
 11
28.88383899999999
 21
18.231288
 72
     1
 10
28.88383899999999
 20
18.231288
 11
28.817408
 21
18.270254
 72
     1
 10
28.817408
 20
18.270254
 11
28.71260000000001
 21
18.318705
 72
     1
 10
28.71260000000001
 20
18.318705
 11
28.52912599999999
 21
18.38024
 72
     1
 10
28.52912599999999
 20
18.38024
 11
28.341295
 21
18.426807
 72
     1
 10
28.341295
 20
18.426807
 11
28.265367
 21
18.43872
 72
     1
 10
28.265367
 20
18.43872
 11
28.20799199999999
 21
18.444184
 72
     1
 10
28.20799199999999
 20
18.444184
 11
28.15043299999999
 21
18.446185
 72
     1
 10
28.15043299999999
 20
18.446185
 11
28.073206
 21
18.442941
 72
     1
 10
28.073206
 20
18.442941
 11
28.01555999999999
 21
18.436269
 72
     1
 10
28.01555999999999
 20
18.436269
 11
27.958383
 21
18.426252
 72
     1
 10
27.958383
 20
18.426252
 11
27.882791
 21
18.40795
 72
     1
 10
27.882791
 20
18.40795
 11
27.82709299999999
 21
18.390689
 72
     1
 10
27.82709299999999
 20
18.390689
 11
27.772401
 21
18.370479
 72
     1
 10
27.772401
 20
18.370479
 11
27.70162299999998
 21
18.339164
 72
     1
 10
27.70162299999998
 20
18.339164
 11
27.65017599999999
 21
18.312245
 72
     1
 10
27.65017599999999
 20
18.312245
 11
27.60037800000001
 21
18.2823
 72
     1
 10
27.60037800000001
 20
18.2823
 11
27.537441
 21
18.23798
 72
     1
 10
27.537441
 20
18.23798
 11
27.47837200000001
 21
18.188413
 72
     1
 10
27.47837200000001
 20
18.188413
 11
27.42376899999999
 21
18.133776
 72
     1
 10
27.42376899999999
 20
18.133776
 11
27.37423000000001
 21
18.074247
 72
     1
 10
27.37423000000001
 20
18.074247
 11
27.330353
 21
18.010003
 72
     1
 10
27.330353
 20
18.010003
 11
27.29281800000001
 21
17.941394
 72
     1
 10
27.29281800000001
 20
17.941394
 11
27.26252099999999
 21
17.869246
 72
     1
 10
27.26252099999999
 20
17.869246
 11
27.25039599999999
 21
17.832155
 72
     1
 10
27.25039599999999
 20
17.832155
 11
27.24044900000001
 21
17.794552
 72
     1
 10
27.24044900000001
 20
17.794552
 11
27.23280499999998
 21
17.756561
 72
     1
 10
27.23280499999998
 20
17.756561
 11
27.227586
 21
17.718306
 72
     1
 10
27.227586
 20
17.718306
 11
27.224917
 21
17.679912
 72
     1
 10
27.224917
 20
17.679912
 11
27.224919
 21
17.641503
 72
     1
 10
27.224919
 20
17.641503
 11
27.22769299999999
 21
17.60294
 72
     1
 10
27.22769299999999
 20
17.60294
 11
27.23311100000001
 21
17.564618
 72
     1
 10
27.23311100000001
 20
17.564618
 11
27.240981
 21
17.526667
 72
     1
 10
27.240981
 20
17.526667
 11
27.251114
 21
17.489217
 72
     1
 10
27.251114
 20
17.489217
 11
27.263318
 21
17.4524
 72
     1
 10
27.263318
 20
17.4524
 11
27.293645
 21
17.380425
 72
     1
 10
27.293645
 20
17.380425
 11
27.32104799999999
 21
17.328706
 72
     1
 10
27.32104799999999
 20
17.328706
 11
27.35215399999998
 21
17.2791
 72
     1
 10
27.35215399999998
 20
17.2791
 11
27.39858599999999
 21
17.217113
 72
     1
 10
27.39858599999999
 20
17.217113
 11
27.43723499999999
 21
17.173772
 72
     1
 10
27.43723499999999
 20
17.173772
 11
27.47906599999999
 21
17.133554
 72
     1
 10
27.47906599999999
 20
17.133554
 11
27.539186
 21
17.085487
 72
     1
 10
27.539186
 20
17.085487
 11
27.58721199999999
 21
17.053355
 72
     1
 10
27.58721199999999
 20
17.053355
 11
27.63725700000001
 21
17.024481
 72
     1
 10
27.63725700000001
 20
17.024481
 11
27.70704799999999
 21
16.990519
 72
     1
 10
27.70704799999999
 20
16.990519
 11
27.81564800000001
 21
16.948581
 72
     1
 10
27.81564800000001
 20
16.948581
 11
27.88966299999998
 21
16.925699
 72
     1
 10
27.88966299999998
 20
16.925699
 11
28.00273799999999
 21
16.899168
 72
     1
 10
28.00273799999999
 20
16.899168
 11
28.078914
 21
16.887245
 72
     1
 10
28.078914
 20
16.887245
 11
28.194199
 21
16.878646
 72
     1
 10
28.194199
 20
16.878646
 11
28.27146299999998
 21
16.879509
 72
     1
 10
28.27146299999998
 20
16.879509
 11
28.38690199999999
 21
16.8909
 72
     1
 10
28.38690199999999
 20
16.8909
 11
28.46278999999998
 21
16.905127
 72
     1
 10
28.46278999999998
 20
16.905127
 11
28.537631
 21
16.924554
 72
     1
 10
28.537631
 20
16.924554
 11
28.61100199999998
 21
16.949047
 72
     1
 10
28.61100199999998
 20
16.949047
 11
28.68247700000001
 21
16.978473
 72
     1
 10
28.68247700000001
 20
16.978473
 11
28.751634
 21
17.012698
 72
     1
 10
28.751634
 20
17.012698
 11
28.818499
 21
17.051846
 72
     1
 10
28.818499
 20
17.051846
 11
28.91320999999999
 21
17.119126
 72
     1
 10
28.91320999999999
 20
17.119126
 11
28.97214600000001
 21
17.169599
 72
     1
 10
28.97214600000001
 20
17.169599
 11
29.01332500000001
 21
17.210664
 72
     1
 10
29.01332500000001
 20
17.210664
 11
29.051197
 21
17.254741
 72
     1
 10
29.051197
 20
17.254741
 11
29.07423699999998
 21
17.285782
 72
     1
 10
29.07423699999998
 20
17.285782
 11
29.09545
 21
17.318141
 72
     1
 10
29.09545
 20
17.318141
 11
29.11475200000001
 21
17.351701
 72
     1
 10
29.11475200000001
 20
17.351701
 11
29.13206
 21
17.386344
 72
     1
 10
29.13206
 20
17.386344
 11
29.147289
 21
17.421954
 72
     1
 10
29.147289
 20
17.421954
 11
29.16041100000001
 21
17.458525
 72
     1
 10
29.16041100000001
 20
17.458525
 11
29.17137700000001
 21
17.495797
 72
     1
 10
29.17137700000001
 20
17.495797
 11
29.180205
 21
17.533619
 72
     1
 10
29.180205
 20
17.533619
 11
29.186914
 21
17.571835
 72
     1
 10
29.186914
 20
17.571835
 11
29.19152299999999
 21
17.610294
 72
     1
 10
29.19152299999999
 20
17.610294
 11
29.19152299999999
 21
17.759244
 97
        0
 75
     0
 76
     2
 52
0.0
 41
0.062992
 77
     0
 78
     1
 53
44.99999999988837
 43
0.0
 44
0.0
 45
-3.592095212307267
 46
3.592095212321264
 79
     0
 98
        0
  0
HATCH
  5
CC
330
1F
100
AcDbEntity
  8
CARTOUCHE
  6
CONTINUOUS
 62
     4
100
AcDbHatch
 10
0.0
 20
0.0
 30
0.0
210
0.0
220
0.0
230
1.0
  2
ANSI_31
 70
     0
 71
     0
 91
        2
 92
        1
 93
      122
 72
     1
 10
34.051073
 20
17.244444
 11
34.154123
 21
17.244444
 72
     1
 10
34.154123
 20
17.244444
 11
37.20692300000002
 21
17.256144
 72
     1
 10
37.20692300000002
 20
17.256144
 11
37.23237799999998
 21
17.365847
 72
     1
 10
37.23237799999998
 20
17.365847
 11
37.245048
 21
17.449462
 72
     1
 10
37.245048
 20
17.449462
 11
37.25187399999999
 21
17.533703
 72
     1
 10
37.25187399999999
 20
17.533703
 11
37.251735
 21
17.646969
 72
     1
 10
37.251735
 20
17.646969
 11
37.23471000000001
 21
17.816096
 72
     1
 10
37.23471000000001
 20
17.816096
 11
37.20846499999999
 21
17.956213
 72
     1
 10
37.20846499999999
 20
17.956213
 11
37.17357899999999
 21
18.094368
 72
     1
 10
37.17357899999999
 20
18.094368
 11
37.13179500000001
 21
18.229146
 72
     1
 10
37.13179500000001
 20
18.229146
 11
37.08234199999998
 21
18.361421
 72
     1
 10
37.08234199999998
 20
18.361421
 11
37.03686199999999
 21
18.464716
 72
     1
 10
37.03686199999999
 20
18.464716
 11
36.985861
 21
18.565535
 72
     1
 10
36.985861
 20
18.565535
 11
36.92928000000001
 21
18.663323
 72
     1
 10
36.92928000000001
 20
18.663323
 11
36.86706100000001
 21
18.757527
 72
     1
 10
36.86706100000001
 20
18.757527
 11
36.79914500000001
 21
18.847595
 72
     1
 10
36.79914500000001
 20
18.847595
 11
36.72552400000001
 21
18.93313
 72
     1
 10
36.72552400000001
 20
18.93313
 11
36.64671899999999
 21
19.014004
 72
     1
 10
36.64671899999999
 20
19.014004
 11
36.563309
 21
19.090255
 72
     1
 10
36.563309
 20
19.090255
 11
36.384996
 21
19.229026
 72
     1
 10
36.384996
 20
19.229026
 11
36.266986
 21
19.306605
 72
     1
 10
36.266986
 20
19.306605
 11
36.14445000000001
 21
19.376442
 72
     1
 10
36.14445000000001
 20
19.376442
 11
36.017719
 21
19.437986
 72
     1
 10
36.017719
 20
19.437986
 11
35.887396
 21
19.491649
 72
     1
 10
35.887396
 20
19.491649
 11
35.61887200000001
 21
19.578734
 72
     1
 10
35.61887200000001
 20
19.578734
 11
35.344652
 21
19.645649
 72
     1
 10
35.344652
 20
19.645649
 11
35.06700499999999
 21
19.69363
 72
     1
 10
35.06700499999999
 20
19.69363
 11
34.786778
 21
19.723515
 72
     1
 10
34.786778
 20
19.723515
 11
34.22285500000001
 21
19.735874
 72
     1
 10
34.22285500000001
 20
19.735874
 11
33.660586
 21
19.695795
 72
     1
 10
33.660586
 20
19.695795
 11
33.38229999999999
 21
19.651139
 72
     1
 10
33.38229999999999
 20
19.651139
 11
33.107283
 21
19.5883
 72
     1
 10
33.107283
 20
19.5883
 11
32.890593
 21
19.52408
 72
     1
 10
32.890593
 20
19.52408
 11
32.73158599999999
 21
19.465697
 72
     1
 10
32.73158599999999
 20
19.465697
 11
32.57691
 21
19.396625
 72
     1
 10
32.57691
 20
19.396625
 11
32.47700600000002
 21
19.343979
 72
     1
 10
32.47700600000002
 20
19.343979
 11
32.380067
 21
19.285863
 72
     1
 10
32.380067
 20
19.285863
 11
32.28661299999999
 21
19.222306
 72
     1
 10
32.28661299999999
 20
19.222306
 11
32.19716499999998
 21
19.15334
 72
     1
 10
32.19716499999998
 20
19.15334
 11
32.11224300000001
 21
19.078995
 72
     1
 10
32.11224300000001
 20
19.078995
 11
32.03232
 21
18.999414
 72
     1
 10
32.03232
 20
18.999414
 11
31.957469
 21
18.914974
 72
     1
 10
31.957469
 20
18.914974
 11
31.88772299999999
 21
18.826164
 72
     1
 10
31.88772299999999
 20
18.826164
 11
31.82311300000001
 21
18.733469
 72
     1
 10
31.82311300000001
 20
18.733469
 11
31.76366899999999
 21
18.637375
 72
     1
 10
31.76366899999999
 20
18.637375
 11
31.66049100000001
 21
18.436489
 72
     1
 10
31.66049100000001
 20
18.436489
 11
31.61706100000001
 21
18.332299
 72
     1
 10
31.61706100000001
 20
18.332299
 11
31.57925699999998
 21
18.225943
 72
     1
 10
31.57925699999998
 20
18.225943
 11
31.547222
 21
18.117674
 72
     1
 10
31.547222
 20
18.117674
 11
31.52110400000001
 21
18.00779
 72
     1
 10
31.52110400000001
 20
18.00779
 11
31.50105099999999
 21
17.896613
 72
     1
 10
31.50105099999999
 20
17.896613
 11
31.487223
 21
17.784512
 72
     1
 10
31.487223
 20
17.784512
 11
31.47977800000001
 21
17.671856
 72
     1
 10
31.47977800000001
 20
17.671856
 11
31.47887600000001
 21
17.559014
 72
     1
 10
31.47887600000001
 20
17.559014
 11
31.484758
 21
17.446072
 72
     1
 10
31.484758
 20
17.446072
 11
31.50730300000001
 21
17.278243
 72
     1
 10
31.50730300000001
 20
17.278243
 11
31.53184199999998
 21
17.168363
 72
     1
 10
31.53184199999998
 20
17.168363
 11
31.58066099999999
 21
17.006354
 72
     1
 10
31.58066099999999
 20
17.006354
 11
31.66317599999999
 21
16.796051
 72
     1
 10
31.66317599999999
 20
16.796051
 11
31.738102
 21
16.644243
 72
     1
 10
31.738102
 20
16.644243
 11
31.82487600000002
 21
16.499285
 72
     1
 10
31.82487600000002
 20
16.499285
 11
31.906565
 21
16.38422
 72
     1
 10
31.906565
 20
16.38422
 11
31.99507499999999
 21
16.274114
 72
     1
 10
31.99507499999999
 20
16.274114
 11
32.069976
 21
16.189232
 72
     1
 10
32.069976
 20
16.189232
 11
32.19090599999998
 21
16.070408
 72
     1
 10
32.19090599999998
 20
16.070408
 11
32.27814000000001
 21
15.999373
 72
     1
 10
32.27814000000001
 20
15.999373
 11
32.418207
 21
15.905115
 72
     1
 10
32.418207
 20
15.905115
 11
32.54199199999999
 21
15.836757
 72
     1
 10
32.54199199999999
 20
15.836757
 11
32.66963100000001
 21
15.775673
 72
     1
 10
32.66963100000001
 20
15.775673
 11
32.87800799999999
 21
15.688457
 72
     1
 10
32.87800799999999
 20
15.688457
 11
33.19960600000002
 21
15.582881
 72
     1
 10
33.19960600000002
 20
15.582881
 11
33.419015
 21
15.531338
 72
     1
 10
33.419015
 20
15.531338
 11
33.753153
 21
15.477838
 72
     1
 10
33.753153
 20
15.477838
 11
34.03388000000001
 21
15.450243
 72
     1
 10
34.03388000000001
 20
15.450243
 11
34.315482
 21
15.438162
 72
     1
 10
34.315482
 20
15.438162
 11
34.87832399999999
 21
15.461635
 72
     1
 10
34.87832399999999
 20
15.461635
 11
35.15919199999999
 21
15.494468
 72
     1
 10
35.15919199999999
 20
15.494468
 11
35.437804
 21
15.542235
 72
     1
 10
35.437804
 20
15.542235
 11
35.712118
 21
15.608344
 72
     1
 10
35.712118
 20
15.608344
 11
35.97822200000002
 21
15.699934
 72
     1
 10
35.97822200000002
 20
15.699934
 11
36.23556400000001
 21
15.815324
 72
     1
 10
36.23556400000001
 20
15.815324
 11
36.361299
 21
15.879186
 72
     1
 10
36.361299
 20
15.879186
 11
36.48298
 21
15.950245
 72
     1
 10
36.48298
 20
15.950245
 11
36.57561799999999
 21
16.014782
 72
     1
 10
36.57561799999999
 20
16.014782
 11
36.64162099999999
 21
16.067895
 72
     1
 10
36.64162099999999
 20
16.067895
 11
36.70417599999999
 21
16.124947
 72
     1
 10
36.70417599999999
 20
16.124947
 11
36.78171
 21
16.206815
 72
     1
 10
36.78171
 20
16.206815
 11
36.88612499999999
 21
16.340089
 72
     1
 10
36.88612499999999
 20
16.340089
 11
36.94806800000001
 21
16.434593
 72
     1
 10
36.94806800000001
 20
16.434593
 11
36.98954599999999
 21
16.508386
 72
     1
 10
36.98954599999999
 20
16.508386
 11
37.02581000000001
 21
16.584828
 72
     1
 10
37.02581000000001
 20
16.584828
 11
37.064953
 21
16.690806
 72
     1
 10
37.064953
 20
16.690806
 11
37.08735000000001
 21
16.7726
 72
     1
 10
37.08735000000001
 20
16.7726
 11
37.10387299999999
 21
16.855644
 72
     1
 10
37.10387299999999
 20
16.855644
 11
35.34302300000002
 21
16.855644
 72
     1
 10
35.34302300000002
 20
16.855644
 11
35.23475999999999
 21
16.775139
 72
     1
 10
35.23475999999999
 20
16.775139
 11
35.14934199999999
 21
16.720655
 72
     1
 10
35.14934199999999
 20
16.720655
 11
35.060776
 21
16.671433
 72
     1
 10
35.060776
 20
16.671433
 11
34.984758
 21
16.634773
 72
     1
 10
34.984758
 20
16.634773
 11
34.906576
 21
16.603307
 72
     1
 10
34.906576
 20
16.603307
 11
34.842277
 21
16.582635
 72
     1
 10
34.842277
 20
16.582635
 11
34.743651
 21
16.559088
 72
     1
 10
34.743651
 20
16.559088
 11
34.60933699999998
 21
16.540536
 72
     1
 10
34.60933699999998
 20
16.540536
 11
34.50763899999998
 21
16.535656
 72
     1
 10
34.50763899999998
 20
16.535656
 11
34.405809
 21
16.537981
 72
     1
 10
34.405809
 20
16.537981
 11
34.27139199999999
 21
16.551496
 72
     1
 10
34.27139199999999
 20
16.551496
 11
34.17168100000001
 21
16.569188
 72
     1
 10
34.17168100000001
 20
16.569188
 11
34.073329
 21
16.593186
 72
     1
 10
34.073329
 20
16.593186
 11
33.944884
 21
16.635037
 72
     1
 10
33.944884
 20
16.635037
 11
33.851395
 21
16.674301
 72
     1
 10
33.851395
 20
16.674301
 11
33.76098100000002
 21
16.720846
 72
     1
 10
33.76098100000002
 20
16.720846
 11
33.70284000000001
 21
16.75614
 72
     1
 10
33.70284000000001
 20
16.75614
 11
33.647077
 21
16.795104
 72
     1
 10
33.647077
 20
16.795104
 11
33.59444999999999
 21
16.837967
 72
     1
 10
33.59444999999999
 20
16.837967
 11
33.54571899999999
 21
16.884956
 72
     1
 10
33.54571899999999
 20
16.884956
 11
33.501642
 21
16.9363
 72
     1
 10
33.501642
 20
16.9363
 11
33.46287699999999
 21
16.99205
 72
     1
 10
33.46287699999999
 20
16.99205
 11
33.42966899999999
 21
17.051562
 72
     1
 10
33.42966899999999
 20
17.051562
 11
33.40216100000001
 21
17.114013
 72
     1
 10
33.40216100000001
 20
17.114013
 11
33.38049799999999
 21
17.178581
 72
     1
 10
33.38049799999999
 20
17.178581
 11
33.364823
 21
17.244444
 72
     1
 10
33.364823
 20
17.244444
 11
34.051073
 21
17.244444
 97
        0
 92
        0
 93
       43
 72
     1
 10
33.364823
 20
18.079194
 11
34.154123
 21
18.079194
 72
     1
 10
34.154123
 20
18.079194
 11
35.34302300000002
 21
18.079194
 72
     1
 10
35.34302300000002
 20
18.079194
 11
35.339099
 21
18.116416
 72
     1
 10
35.339099
 20
18.116416
 11
35.33300199999999
 21
18.153431
 72
     1
 10
35.33300199999999
 20
18.153431
 11
35.324692
 21
18.190049
 72
     1
 10
35.324692
 20
18.190049
 11
35.314132
 21
18.226078
 72
     1
 10
35.314132
 20
18.226078
 11
35.30128500000001
 21
18.261329
 72
     1
 10
35.30128500000001
 20
18.261329
 11
35.28615600000001
 21
18.295606
 72
     1
 10
35.28615600000001
 20
18.295606
 11
35.26886400000001
 21
18.328846
 72
     1
 10
35.26886400000001
 20
18.328846
 11
35.24956700000001
 21
18.360982
 72
     1
 10
35.24956700000001
 20
18.360982
 11
35.22842500000002
 21
18.391944
 72
     1
 10
35.22842500000002
 20
18.391944
 11
35.20559500000002
 21
18.421664
 72
     1
 10
35.20559500000002
 20
18.421664
 11
35.155158
 21
18.477534
 72
     1
 10
35.155158
 20
18.477534
 11
35.113888
 21
18.516059
 72
     1
 10
35.113888
 20
18.516059
 11
35.07014900000001
 21
18.551768
 72
     1
 10
35.07014900000001
 20
18.551768
 11
35.00889699999999
 21
18.594936
 72
     1
 10
35.00889699999999
 20
18.594936
 11
34.960894
 21
18.624144
 72
     1
 10
34.960894
 20
18.624144
 11
34.911351
 21
18.650643
 72
     1
 10
34.911351
 20
18.650643
 11
34.84321299999999
 21
18.681802
 72
     1
 10
34.84321299999999
 20
18.681802
 11
34.73746299999999
 21
18.719811
 72
     1
 10
34.73746299999999
 20
18.719811
 11
34.66503399999999
 21
18.739546
 72
     1
 10
34.66503399999999
 20
18.739546
 11
34.554475
 21
18.760807
 72
     1
 10
34.554475
 20
18.760807
 11
34.47958199999999
 21
18.769534
 72
     1
 10
34.47958199999999
 20
18.769534
 11
34.36667800000001
 21
18.77477
 72
     1
 10
34.36667800000001
 20
18.77477
 11
34.29122899999999
 21
18.773226
 72
     1
 10
34.29122899999999
 20
18.773226
 11
34.17824400000001
 21
18.762802
 72
     1
 10
34.17824400000001
 20
18.762802
 11
34.104388
 21
18.749824
 72
     1
 10
34.104388
 20
18.749824
 11
34.068085
 21
18.740847
 72
     1
 10
34.068085
 20
18.740847
 11
34.03251399999999
 21
18.729811
 72
     1
 10
34.03251399999999
 20
18.729811
 11
33.99791199999999
 21
18.716418
 72
     1
 10
33.99791199999999
 20
18.716418
 11
33.96434399999998
 21
18.700508
 72
     1
 10
33.96434399999998
 20
18.700508
 11
33.83484300000001
 21
18.625681
 72
     1
 10
33.83484300000001
 20
18.625681
 11
33.671594
 21
18.535581
 72
     1
 10
33.671594
 20
18.535581
 11
33.64097599999999
 21
18.51416
 72
     1
 10
33.64097599999999
 20
18.51416
 11
33.611625
 21
18.49088
 72
     1
 10
33.611625
 20
18.49088
 11
33.58359100000001
 21
18.465911
 72
     1
 10
33.58359100000001
 20
18.465911
 11
33.53168099999999
 21
18.41159
 72
     1
 10
33.53168099999999
 20
18.41159
 11
33.48534100000001
 21
18.352025
 72
     1
 10
33.48534100000001
 20
18.352025
 11
33.454621
 21
18.304551
 72
     1
 10
33.454621
 20
18.304551
 11
33.427457
 21
18.254932
 72
     1
 10
33.427457
 20
18.254932
 11
33.3972
 21
18.186473
 72
     1
 10
33.3972
 20
18.186473
 11
33.37898000000001
 21
18.133395
 72
     1
 10
33.37898000000001
 20
18.133395
 11
33.364823
 21
18.079194
 97
        0
 75
     0
 76
     2
 52
0.0
 41
0.062992
 77
     0
 78
     1
 53
44.99999999988837
 43
0.0
 44
0.0
 45
-3.592095212307267
 46
3.592095212321264
 79
     0
 98
        0
  0
HATCH
  5
CD
330
1F
100
AcDbEntity
  8
CARTOUCHE
  6
CONTINUOUS
 62
     4
100
AcDbHatch
 10
0.0
 20
0.0
 30
0.0
210
0.0
220
0.0
230
1.0
  2
ANSI_31
 70
     0
 71
     0
 91
        1
 92
        1
 93
       78
 72
     1
 10
37.73297300000002
 20
19.508394
 11
37.73297300000002
 21
15.632094
 72
     1
 10
37.73297300000002
 20
15.632094
 11
39.45962299999999
 21
15.632094
 72
     1
 10
39.45962299999999
 20
15.632094
 11
39.45962299999999
 21
17.782194
 72
     1
 10
39.45962299999999
 20
17.782194
 11
39.46348799999998
 21
17.825563
 72
     1
 10
39.46348799999998
 20
17.825563
 11
39.470946
 21
17.868586
 72
     1
 10
39.470946
 20
17.868586
 11
39.48187899999999
 21
17.910991
 72
     1
 10
39.48187899999999
 20
17.910991
 11
39.496172
 21
17.952504
 72
     1
 10
39.496172
 20
17.952504
 11
39.51370700000001
 21
17.992851
 72
     1
 10
39.51370700000001
 20
17.992851
 11
39.53438599999998
 21
18.031755
 72
     1
 10
39.53438599999998
 20
18.031755
 11
39.558122
 21
18.068814
 72
     1
 10
39.558122
 20
18.068814
 11
39.58484099999998
 21
18.103624
 72
     1
 10
39.58484099999998
 20
18.103624
 11
39.614473
 21
18.13578
 72
     1
 10
39.614473
 20
18.13578
 11
39.64694299999999
 21
18.164878
 72
     1
 10
39.64694299999999
 20
18.164878
 11
39.682109
 21
18.190587
 72
     1
 10
39.682109
 20
18.190587
 11
39.71962600000001
 21
18.212933
 72
     1
 10
39.71962600000001
 20
18.212933
 11
39.759083
 21
18.232012
 72
     1
 10
39.759083
 20
18.232012
 11
39.80006700000001
 21
18.24792
 72
     1
 10
39.80006700000001
 20
18.24792
 11
39.84216599999999
 21
18.260755
 72
     1
 10
39.84216599999999
 20
18.260755
 11
39.88545500000001
 21
18.270655
 72
     1
 10
39.88545500000001
 20
18.270655
 11
39.92924099999999
 21
18.277344
 72
     1
 10
39.92924099999999
 20
18.277344
 11
39.97330700000001
 21
18.280649
 72
     1
 10
39.97330700000001
 20
18.280649
 11
40.01743299999998
 21
18.280401
 72
     1
 10
40.01743299999998
 20
18.280401
 11
40.06139899999999
 21
18.276428
 72
     1
 10
40.06139899999999
 20
18.276428
 11
40.104319
 21
18.268736
 72
     1
 10
40.104319
 20
18.268736
 11
40.14647099999999
 21
18.257294
 72
     1
 10
40.14647099999999
 20
18.257294
 11
40.187456
 21
18.242136
 72
     1
 10
40.187456
 20
18.242136
 11
40.22687300000001
 21
18.223293
 72
     1
 10
40.22687300000001
 20
18.223293
 11
40.264321
 21
18.200797
 72
     1
 10
40.264321
 20
18.200797
 11
40.29950400000001
 21
18.174642
 72
     1
 10
40.29950400000001
 20
18.174642
 11
40.33194700000001
 21
18.145119
 72
     1
 10
40.33194700000001
 20
18.145119
 11
40.36129099999999
 21
18.112499
 72
     1
 10
40.36129099999999
 20
18.112499
 11
40.387181
 21
18.077054
 72
     1
 10
40.387181
 20
18.077054
 11
40.409257
 21
18.039056
 72
     1
 10
40.409257
 20
18.039056
 11
40.42712900000001
 21
17.999011
 72
     1
 10
40.42712900000001
 20
17.999011
 11
40.440732
 21
17.957277
 72
     1
 10
40.440732
 20
17.957277
 11
40.44992999999999
 21
17.914423
 72
     1
 10
40.44992999999999
 20
17.914423
 11
40.454589
 21
17.871022
 72
     1
 10
40.454589
 20
17.871022
 11
40.455174
 21
17.849294
 72
     1
 10
40.455174
 20
17.849294
 11
40.45457300000001
 21
17.827644
 72
     1
 10
40.45457300000001
 20
17.827644
 11
40.45457300000001
 21
17.587794
 72
     1
 10
40.45457300000001
 20
17.587794
 11
42.28382299999998
 21
17.587794
 72
     1
 10
42.28382299999998
 20
17.587794
 11
42.30047999999999
 21
17.741901
 72
     1
 10
42.30047999999999
 20
17.741901
 11
42.30803399999999
 21
17.896764
 72
     1
 10
42.30803399999999
 20
17.896764
 11
42.30622299999999
 21
18.051921
 72
     1
 10
42.30622299999999
 20
18.051921
 11
42.295648
 21
18.206716
 72
     1
 10
42.295648
 20
18.206716
 11
42.27690799999999
 21
18.360972
 72
     1
 10
42.27690799999999
 20
18.360972
 11
42.2499
 21
18.514097
 72
     1
 10
42.2499
 20
18.514097
 11
42.22187400000001
 21
18.635072
 72
     1
 10
42.22187400000001
 20
18.635072
 11
42.19592
 21
18.724445
 72
     1
 10
42.19592
 20
18.724445
 11
42.16468
 21
18.812049
 72
     1
 10
42.16468
 20
18.812049
 11
42.11349899999999
 21
18.92525
 72
     1
 10
42.11349899999999
 20
18.92525
 11
42.06786700000001
 21
19.006615
 72
     1
 10
42.06786700000001
 20
19.006615
 11
42.01605699999999
 21
19.0843
 72
     1
 10
42.01605699999999
 20
19.0843
 11
41.97801799999999
 21
19.133848
 72
     1
 10
41.97801799999999
 20
19.133848
 11
41.937287
 21
19.181208
 72
     1
 10
41.937287
 20
19.181208
 11
41.89391699999999
 21
19.226097
 72
     1
 10
41.89391699999999
 20
19.226097
 11
41.84796299999999
 21
19.26823
 72
     1
 10
41.84796299999999
 20
19.26823
 11
41.799476
 21
19.307326
 72
     1
 10
41.799476
 20
19.307326
 11
41.74884700000001
 21
19.342981
 72
     1
 10
41.74884700000001
 20
19.342981
 11
41.69608700000001
 21
19.375497
 72
     1
 10
41.69608700000001
 20
19.375497
 11
41.61365699999999
 21
19.418703
 72
     1
 10
41.61365699999999
 20
19.418703
 11
41.52824200000001
 21
19.455664
 72
     1
 10
41.52824200000001
 20
19.455664
 11
41.41028499999999
 21
19.496534
 72
     1
 10
41.41028499999999
 20
19.496534
 11
41.22888
 21
19.542872
 72
     1
 10
41.22888
 20
19.542872
 11
41.10697099999999
 21
19.566075
 72
     1
 10
41.10697099999999
 20
19.566075
 11
40.92238600000002
 21
19.587821
 72
     1
 10
40.92238600000002
 20
19.587821
 11
40.79850400000001
 21
19.591816
 72
     1
 10
40.79850400000001
 20
19.591816
 11
40.61256800000001
 21
19.583703
 72
     1
 10
40.61256800000001
 20
19.583703
 11
40.45792599999999
 21
19.566274
 72
     1
 10
40.45792599999999
 20
19.566274
 11
40.30471599999998
 21
19.539482
 72
     1
 10
40.30471599999998
 20
19.539482
 11
40.18380500000001
 21
19.511135
 72
     1
 10
40.18380500000001
 20
19.511135
 11
40.005799
 21
19.45603
 72
     1
 10
40.005799
 20
19.45603
 11
39.890434
 21
19.410518
 72
     1
 10
39.890434
 20
19.410518
 11
39.777817
 21
19.358198
 72
     1
 10
39.777817
 20
19.358198
 11
39.66826399999999
 21
19.29958
 72
     1
 10
39.66826399999999
 20
19.29958
 11
39.45962299999999
 21
19.165494
 72
     1
 10
39.45962299999999
 20
19.165494
 11
39.45962299999999
 21
19.508394
 72
     1
 10
39.45962299999999
 20
19.508394
 11
37.73297300000002
 21
19.508394
 97
        0
 75
     0
 76
     2
 52
0.0
 41
0.062992
 77
     0
 78
     1
 53
44.99999999988837
 43
0.0
 44
0.0
 45
-3.592095212307267
 46
3.592095212321264
 79
     0
 98
        0
  0
LINE
  5
CE
330
1F
100
AcDbEntity
  8
CARTOUCHE
  6
CONTINUOUS
 62
     7
100
AcDbLine
 10
200.000037
 20
31.845156
 30
0.0
 11
0.0
 21
31.845462
 31
0.0
  0
LINE
  5
CF
330
1F
100
AcDbEntity
  8
CARTOUCHE
  6
CONTINUOUS
 62
     7
100
AcDbLine
 10
148.33333
 20
15.002887
 30
0.0
 11
148.33333
 21
5.000945
 31
0.0
  0
TEXT
  5
D0
330
1F
100
AcDbEntity
  8
CARTOUCHE
  6
CONTINUOUS
 62
     2
100
AcDbText
 10
11.190943
 20
9.308782
 30
0.0
 40
1.8
  1
www.findernet.com
 50
359.999908
 41
0.83
  7
FINDER
100
AcDbText
  0
TEXT
  5
D1
330
1F
100
AcDbEntity
  8
CARTOUCHE
  6
CONTINUOUS
 62
     7
100
AcDbText
 10
119.919563
 20
11.624226
 30
0.0
 40
1.8
  1
DATE
 50
359.999908
 41
0.66
  7
FINDER
100
AcDbText
  0
TEXT
  5
D2
330
1F
100
AcDbEntity
  8
CARTOUCHE
  6
CONTINUOUS
 62
     1
100
AcDbText
 10
116.646904
 20
6.776208
 30
0.0
 40
2.1
  1
23/09/11
 50
359.999908
 41
0.68
  7
FINDER
100
AcDbText
  0
TEXT
  5
D3
330
1F
100
AcDbEntity
  8
CARTOUCHE
  6
CONTINUOUS
 62
     7
100
AcDbText
 10
170.877045
 20
11.624147
 30
0.0
 40
1.8
  1
SCALE
 50
359.999908
 41
0.65
  7
FINDER
100
AcDbText
  0
TEXT
  5
D4
330
1F
100
AcDbEntity
  8
CARTOUCHE
  6
CONTINUOUS
 62
     1
100
AcDbText
 10
172.623032
 20
6.776122
 30
0.0
 40
2.1
  1
1:1
 50
359.999908
  7
FINDER
100
AcDbText
  0
TEXT
  5
D5
330
1F
100
AcDbEntity
  8
CARTOUCHE
  6
CONTINUOUS
 62
     1
100
AcDbText
 10
118.798492
 20
17.435961
 30
0.0
 40
3.0
  1
12.51
 50
359.999908
 41
0.79
  7
FINDER
100
AcDbText
  0
LINE
  5
D6
330
1F
100
AcDbEntity
  8
0
  6
CONTINUOUS
 62
     6
100
AcDbLine
 10
154.349947
 20
170.184326
 30
0.0
 11
154.349947
 21
129.184326
 31
0.0
  0
LINE
  5
D7
330
1F
100
AcDbEntity
  8
0
  6
CONTINUOUS
 62
     5
100
AcDbLine
 10
97.549947
 20
172.184326
 30
0.0
 11
97.549947
 21
178.684326
 31
0.0
  0
LINE
  5
D8
330
1F
100
AcDbEntity
  8
0
  6
CONTINUOUS
 62
     5
100
AcDbLine
 10
97.549947
 20
120.684326
 30
0.0
 11
97.549947
 21
127.184326
 31
0.0
  0
LINE
  5
D9
330
1F
100
AcDbEntity
  8
0
  6
CONTINUOUS
 62
     5
100
AcDbLine
 10
99.344071
 20
189.684326
 30
0.0
 11
97.757128
 21
180.684326
 31
0.0
  0
LINE
  5
DA
330
1F
100
AcDbEntity
  8
0
  6
CONTINUOUS
 62
     5
100
AcDbLine
 10
97.549947
 20
109.684326
 30
0.0
 11
97.549947
 21
118.684326
 31
0.0
  0
LINE
  5
DB
330
1F
100
AcDbEntity
  8
0
  6
CONTINUOUS
 62
     5
100
AcDbLine
 10
101.849947
 20
170.184326
 30
0.0
 11
101.849947
 21
129.184326
 31
0.0
  0
CIRCLE
  5
DC
330
1F
100
AcDbEntity
  8
0
  6
CONTINUOUS
 62
     5
100
AcDbCircle
 10
105.97438
 20
185.475615
 30
0.0
 40
2.283226896594906
  0
ARC
  5
DD
330
1F
100
AcDbEntity
  8
0
  6
CONTINUOUS
 62
     5
100
AcDbCircle
 10
-105.974382
 20
185.475613
 30
0.0
 40
1.80418896794981
210
0.0
220
0.0
230
-1.0
100
AcDbArc
 50
7.69553
 51
67.558968
  0
LINE
  5
DE
330
1F
100
AcDbEntity
  8
0
  6
CONTINUOUS
 62
     5
100
AcDbLine
 10
105.285665
 20
187.143176
 30
0.0
 11
105.285665
 21
185.71721
 31
0.0
  0
LINE
  5
DF
330
1F
100
AcDbEntity
  8
0
  6
CONTINUOUS
 62
     5
100
AcDbLine
 10
105.285665
 20
185.71721
 30
0.0
 11
104.186443
 21
185.71721
 31
0.0
  0
SPLINE
  5
E0
330
1F
100
AcDbEntity
  8
0
  6
CONTINUOUS
 62
     5
100
AcDbSpline
210
0.0
220
0.0
230
1.0
 70
     8
 71
     3
 72
    12
 73
     8
 74
     0
 42
0.0
 43
0.0
 40
0.0
 40
0.0
 40
0.0
 40
0.0
 40
0.3637905269759911
 40
0.9684673001366666
 40
1.640575178382409
 40
2.495589798140456
 40
3.36356733241194
 40
3.36356733241194
 40
3.36356733241194
 40
3.36356733241194
 10
106.1059255935071
 20
183.9122102889409
 30
0.0
 10
106.1275171275579
 20
183.8971423169872
 30
0.0
 10
106.1889891475
 20
183.8622705889798
 30
0.0
 10
106.3053901054564
 20
183.8278997960707
 30
0.0
 10
106.4601825167306
 20
183.8624530133871
 30
0.0
 10
106.6076948506725
 20
183.9652182749015
 30
0.0
 10
106.6534543430275
 20
184.0905875505635
 30
0.0
 10
106.6576971121168
 20
184.1529377450336
 30
0.0
  0
LINE
  5
E1
330
1F
100
AcDbEntity
  8
0
  6
CONTINUOUS
 62
     5
100
AcDbLine
 10
106.657697
 20
184.152938
 30
0.0
 11
106.657697
 21
185.755442
 31
0.0
  0
LINE
  5
E2
330
1F
100
AcDbEntity
  8
0
  6
CONTINUOUS
 62
     5
100
AcDbLine
 10
106.657697
 20
185.755442
 30
0.0
 11
107.201153
 21
185.755442
 31
0.0
  0
ARC
  5
E3
330
1F
100
AcDbEntity
  8
0
  6
CONTINUOUS
 62
     5
100
AcDbCircle
 10
107.176729
 20
185.99423
 30
0.0
 40
0.2400338493353885
100
AcDbArc
 50
275.840125
 51
95.840125
  0
LINE
  5
E4
330
1F
100
AcDbEntity
  8
0
  6
CONTINUOUS
 62
     5
100
AcDbLine
 10
107.152305
 20
186.233018
 30
0.0
 11
106.657697
 21
186.233018
 31
0.0
  0
LINE
  5
E5
330
1F
100
AcDbEntity
  8
0
  6
CONTINUOUS
 62
     5
100
AcDbLine
 10
106.657697
 20
186.233018
 30
0.0
 11
106.657697
 21
187.145397
 31
0.0
  0
ARC
  5
E6
330
1F
100
AcDbEntity
  8
0
  6
CONTINUOUS
 62
     5
100
AcDbCircle
 10
-105.974382
 20
185.475613
 30
0.0
 40
1.804188967952968
210
0.0
220
0.0
230
-1.0
100
AcDbArc
 50
112.255524
 51
352.131446
  0
LINE
  5
E7
330
1F
100
AcDbEntity
  8
0
  6
CONTINUOUS
 62
     5
100
AcDbLine
 10
104.18718
 20
185.228618
 30
0.0
 11
104.764241
 21
185.228618
 31
0.0
  0
LINE
  5
E8
330
1F
100
AcDbEntity
  8
0
  6
CONTINUOUS
 62
     5
100
AcDbLine
 10
104.764241
 20
185.228618
 30
0.0
 11
106.105926
 21
183.91221
 31
0.0
  0
ARC
  5
E9
330
1F
100
AcDbEntity
  8
0
  6
CONTINUOUS
 62
     5
100
AcDbCircle
 10
-105.974382
 20
185.475613
 30
0.0
 40
1.804188967997765
210
0.0
220
0.0
230
-1.0
100
AcDbArc
 50
82.574324
 51
97.079846
  0
LINE
  5
EA
330
1F
100
AcDbEntity
  8
0
  6
CONTINUOUS
 62
     5
100
AcDbLine
 10
106.196753
 20
187.266045
 30
0.0
 11
106.196753
 21
184.460306
 31
0.0
  0
LINE
  5
EB
330
1F
100
AcDbEntity
  8
0
  6
CONTINUOUS
 62
     5
100
AcDbLine
 10
106.196753
 20
184.460306
 30
0.0
 11
105.488705
 21
185.228618
 31
0.0
  0
LINE
  5
EC
330
1F
100
AcDbEntity
  8
0
  6
CONTINUOUS
 62
     5
100
AcDbLine
 10
105.488705
 20
185.228618
 30
0.0
 11
105.598433
 21
185.228618
 31
0.0
  0
ARC
  5
ED
330
1F
100
AcDbEntity
  8
0
  6
CONTINUOUS
 62
     5
100
AcDbCircle
 10
105.519074
 20
185.440049
 30
0.0
 40
0.2258343473822191
100
AcDbArc
 50
290.573117
 51
349.614785
  0
LINE
  5
EE
330
1F
100
AcDbEntity
  8
0
  6
CONTINUOUS
 62
     5
100
AcDbLine
 10
105.741209
 20
185.399339
 30
0.0
 11
105.741209
 21
187.264671
 31
0.0
  0
SPLINE
  5
EF
330
1F
100
AcDbEntity
  8
0
  6
CONTINUOUS
 62
     5
100
AcDbSpline
210
0.0
220
0.0
230
1.0
 70
     8
 71
     3
 72
    41
 73
    37
 74
     0
 42
0.0
 43
0.0
 40
0.0
 40
0.0
 40
0.0
 40
0.0
 40
0.3630440744592747
 40
1.791700086240979
 40
2.820865281921449
 40
3.849931363375884
 40
4.856790340591665
 40
5.83759868068671
 40
6.970581469611588
 40
8.29123736726245
 40
9.767247191077999
 40
11.3455465923324
 40
12.80086580130341
 40
14.00866255572859
 40
15.04597687646266
 40
15.94689418676366
 40
16.84554205995983
 40
17.75377991426894
 40
18.72405101040651
 40
19.59393433591632
 40
20.2929722326603
 40
21.13632971514732
 40
21.79231523328016
 40
22.79782107612743
 40
23.68135899268789
 40
25.22006762332594
 40
26.40656246107282
 40
27.65394131290573
 40
29.43754020279101
 40
31.10758122025136
 40
31.88123876723194
 40
32.57478040260793
 40
33.22571281077332
 40
33.82134105053366
 40
34.4354371342209
 40
35.07059774383078
 40
35.07059774383078
 40
35.07059774383078
 40
35.07059774383078
 10
120.5218731121167
 20
184.6743617450336
 30
0.0
 10
120.528876412116
 20
184.6995452748322
 30
0.0
 10
120.5569151052633
 20
184.8260661071239
 30
0.0
 10
120.5262829299841
 20
185.0338427832937
 30
0.0
 10
120.4418625109984
 20
185.2702770402124
 30
0.0
 10
120.3218928783525
 20
185.4589435830443
 30
0.0
 10
120.15979228547
 20
185.6062345922795
 30
0.0
 10
119.96670729314
 20
185.7240857864377
 30
0.0
 10
119.7307690568814
 20
185.8028844090713
 30
0.0
 10
119.4524242400246
 20
185.8578258134195
 30
0.0
 10
119.1367902796641
 20
185.8705887125063
 30
0.0
 10
118.8117893399626
 20
185.8527363319167
 30
0.0
 10
118.5117933141311
 20
185.7899968263382
 30
0.0
 10
118.2610938122494
 20
185.6940268320376
 30
0.0
 10
118.0751911476094
 20
185.5599316249723
 30
0.0
 10
117.9423755374557
 20
185.4026495748246
 30
0.0
 10
117.8488140562998
 20
185.2303222566411
 30
0.0
 10
117.7860604897912
 20
185.039197492149
 30
0.0
 10
117.7649327862916
 20
184.8408337307994
 30
0.0
 10
117.7852780416079
 20
184.6573973795396
 30
0.0
 10
117.8414288484898
 20
184.4925053826423
 30
0.0
 10
117.9089912334653
 20
184.348344710573
 30
0.0
 10
118.015644466024
 20
184.2025899106139
 30
0.0
 10
118.1427062564256
 20
184.0671691623178
 30
0.0
 10
118.361523110407
 20
183.9485830978614
 30
0.0
 10
118.6070107213807
 20
183.8591696911164
 30
0.0
 10
118.8902658678962
 20
183.8135216210788
 30
0.0
 10
119.1938728749424
 20
183.7936169831156
 30
0.0
 10
119.532010907194
 20
183.8204965537842
 30
0.0
 10
119.8329822478527
 20
183.8814179901253
 30
0.0
 10
120.039629172025
 20
183.9736717238881
 30
0.0
 10
120.1759852935285
 20
184.0427183529519
 30
0.0
 10
120.2863951137771
 20
184.1303778015947
 30
0.0
 10
120.3717160183412
 20
184.2344013118706
 30
0.0
 10
120.4401334257227
 20
184.3492748427345
 30
0.0
 10
120.4650453061917
 20
184.4369869436238
 30
0.0
 10
120.4724091121168
 20
184.4821217450336
 30
0.0
  0
LINE
  5
F0
330
1F
100
AcDbEntity
  8
0
  6
CONTINUOUS
 62
     5
100
AcDbLine
 10
120.472409
 20
184.482122
 30
0.0
 11
119.627201
 21
184.482122
 31
0.0
  0
SPLINE
  5
F1
330
1F
100
AcDbEntity
  8
0
  6
CONTINUOUS
 62
     5
100
AcDbSpline
210
0.0
220
0.0
230
1.0
 70
     8
 71
     3
 72
    14
 73
    10
 74
     0
 42
0.0
 43
0.0
 40
0.0
 40
0.0
 40
0.0
 40
0.0
 40
0.5849692299600031
 40
1.118602999506121
 40
2.096488473373078
 40
2.890934821467145
 40
3.734969180957322
 40
4.493595571218039
 40
5.244342532583844
 40
5.244342532583844
 40
5.244342532583844
 40
5.244342532583844
 10
119.6272011121168
 20
184.4821217450336
 30
0.0
 10
119.5944750489879
 20
184.4556092466963
 30
0.0
 10
119.5274535370081
 20
184.410407784408
 30
0.0
 10
119.3915298304239
 20
184.3428817948737
 30
0.0
 10
119.2227919052066
 20
184.3198575144636
 30
0.0
 10
119.0349108989267
 20
184.3447463450447
 30
0.0
 10
118.8716445223583
 20
184.4054295405597
 30
0.0
 10
118.7329435928125
 20
184.5108036825643
 30
0.0
 10
118.6877919132139
 20
184.6156490486812
 30
0.0
 10
118.6776651121168
 20
184.6687457450336
 30
0.0
  0
LINE
  5
F2
330
1F
100
AcDbEntity
  8
0
  6
CONTINUOUS
 62
     5
100
AcDbLine
 10
118.677665
 20
184.668746
 30
0.0
 11
119.007065
 21
184.668746
 31
0.0
  0
LINE
  5
F3
330
1F
100
AcDbEntity
  8
0
  6
CONTINUOUS
 62
     5
100
AcDbLine
 10
119.007065
 20
184.668746
 30
0.0
 11
119.056529
 21
184.668746
 31
0.0
  0
LINE
  5
F4
330
1F
100
AcDbEntity
  8
0
  6
CONTINUOUS
 62
     5
100
AcDbLine
 10
119.056529
 20
184.668746
 30
0.0
 11
120.521873
 21
184.674362
 31
0.0
  0
SPLINE
  5
F5
330
1F
100
AcDbEntity
  8
0
  6
CONTINUOUS
 62
     5
100
AcDbSpline
210
0.0
220
0.0
230
1.0
 70
     8
 71
     3
 72
    16
 73
    12
 74
     0
 42
0.0
 43
0.0
 40
0.0
 40
0.0
 40
0.0
 40
0.0
 40
0.5474303608679332
 40
1.248433213929174
 40
1.669148378856708
 40
2.089863543784241
 40
2.533741905500601
 40
3.889403367665844
 40
4.652346353740162
 40
5.302653973255724
 40
5.802071634136879
 40
5.802071634136879
 40
5.802071634136879
 40
5.802071634136879
 10
118.6776651121168
 20
185.0694257450336
 30
0.0
 10
118.686156287055
 20
185.1079152379916
 30
0.0
 10
118.7203332788574
 20
185.1925765226072
 30
0.0
 10
118.8049673798837
 20
185.2848492760242
 30
0.0
 10
118.9066315968014
 20
185.3305205589493
 30
0.0
 10
118.9840498938495
 20
185.3833965750463
 30
0.0
 10
119.1435774430398
 20
185.4134604353736
 30
0.0
 10
119.3342522694966
 20
185.3945980201055
 30
0.0
 10
119.5113701923634
 20
185.2961495852485
 30
0.0
 10
119.6035231115429
 20
185.18791501904
 30
0.0
 10
119.6244594879097
 20
185.1052791466673
 30
0.0
 10
119.6272011121168
 20
185.0694257450336
 30
0.0
  0
LINE
  5
F6
330
1F
100
AcDbEntity
  8
0
  6
CONTINUOUS
 62
     5
100
AcDbLine
 10
119.627201
 20
185.069426
 30
0.0
 11
119.056529
 21
185.069426
 31
0.0
  0
LINE
  5
F7
330
1F
100
AcDbEntity
  8
0
  6
CONTINUOUS
 62
     5
100
AcDbLine
 10
119.056529
 20
185.069426
 30
0.0
 11
118.677665
 21
185.069426
 31
0.0
  0
SPLINE
  5
F8
330
1F
100
AcDbEntity
  8
0
  6
CONTINUOUS
 62
     5
100
AcDbSpline
210
0.0
220
0.0
230
1.0
 70
     8
 71
     3
 72
    31
 73
    27
 74
     0
 42
0.0
 43
0.0
 40
0.0
 40
0.0
 40
0.0
 40
0.0
 40
0.4099510339074079
 40
1.446824218052893
 40
2.704343203993066
 40
3.847343203993066
 40
4.767900643808748
 40
5.668462690532898
 40
6.555363474160922
 40
7.475459664784491
 40
8.376376975085499
 40
9.253185392015896
 40
10.161423246325
 40
11.08109710155848
 40
12.00176479405126
 40
12.87837017847461
 40
13.7422526936351
 40
14.60793277311018
 40
15.47665885191753
 40
16.34054136707802
 40
17.21714675150136
 40
18.13682060673484
 40
19.30582060673484
 40
20.53241304108294
 40
21.52898767451488
 40
22.1535931499952
 40
22.1535931499952
 40
22.1535931499952
 40
22.1535931499952
 10
116.6744811121168
 20
185.6649668282408
 30
0.0
 10
116.6523822264594
 20
185.6845336756146
 30
0.0
 10
116.5681422744494
 20
185.7482468052672
 30
0.0
 10
116.3720578427212
 20
185.7874904842097
 30
0.0
 10
116.1292251122923
 20
185.8285770657218
 30
0.0
 10
115.8889334468827
 20
185.8247951923925
 30
0.0
 10
115.6757899856219
 20
185.8063435058291
 30
0.0
 10
115.4876320498832
 20
185.750417793719
 30
0.0
 10
115.3124809793009
 20
185.6617170111861
 30
0.0
 10
115.1623188751448
 20
185.5352150581375
 30
0.0
 10
115.0348712880461
 20
185.3875195222702
 30
0.0
 10
114.9385561120793
 20
185.2181773617136
 30
0.0
 10
114.8788339877761
 20
185.0315936463599
 30
0.0
 10
114.854995619999
 20
184.8334281152387
 30
0.0
 10
114.8793214753737
 20
184.6378622976906
 30
0.0
 10
114.9337370272438
 20
184.4532135213665
 30
0.0
 10
115.0224687421018
 20
184.2863052121343
 30
0.0
 10
115.1440847243796
 20
184.1420455396454
 30
0.0
 10
115.2940538564188
 20
184.0284970632359
 30
0.0
 10
115.4596273474116
 20
183.9378831132763
 30
0.0
 10
115.6445959463751
 20
183.8824555491231
 30
0.0
 10
115.8580433909365
 20
183.8627091496879
 30
0.0
 10
116.0964935525716
 20
183.865326218562
 30
0.0
 10
116.3418180423973
 20
183.8805213072437
 30
0.0
 10
116.5378572913775
 20
183.9491016131822
 30
0.0
 10
116.6380096014944
 20
184.0099866598997
 30
0.0
 10
116.6744811121168
 20
184.0362977450336
 30
0.0
  0
LINE
  5
F9
330
1F
100
AcDbEntity
  8
0
  6
CONTINUOUS
 62
     5
100
AcDbLine
 10
116.674481
 20
184.036298
 30
0.0
 11
116.674481
 21
183.889418
 31
0.0
  0
LINE
  5
FA
330
1F
100
AcDbEntity
  8
0
  6
CONTINUOUS
 62
     5
100
AcDbLine
 10
116.674481
 20
183.889418
 30
0.0
 11
117.536105
 21
183.889418
 31
0.0
  0
LINE
  5
FB
330
1F
100
AcDbEntity
  8
0
  6
CONTINUOUS
 62
     5
100
AcDbLine
 10
117.536105
 20
183.889418
 30
0.0
 11
117.536105
 21
186.38681
 31
0.0
  0
LINE
  5
FC
330
1F
100
AcDbEntity
  8
0
  6
CONTINUOUS
 62
     5
100
AcDbLine
 10
117.536105
 20
186.38681
 30
0.0
 11
116.674481
 21
186.38681
 31
0.0
  0
LINE
  5
FD
330
1F
100
AcDbEntity
  8
0
  6
CONTINUOUS
 62
     5
100
AcDbLine
 10
116.674481
 20
186.38681
 30
0.0
 11
116.674481
 21
185.664967
 31
0.0
  0
LINE
  5
FE
330
1F
100
AcDbEntity
  8
0
  6
CONTINUOUS
 62
     5
100
AcDbLine
 10
116.674481
 20
184.91585
 30
0.0
 11
116.674481
 21
184.844354
 31
0.0
  0
SPLINE
  5
FF
330
1F
100
AcDbEntity
  8
0
  6
CONTINUOUS
 62
     5
100
AcDbSpline
210
0.0
220
0.0
230
1.0
 70
     8
 71
     3
 72
    23
 73
    19
 74
     0
 42
0.0
 43
0.0
 40
0.0
 40
0.0
 40
0.0
 40
0.0
 40
0.6669640170203994
 40
1.367241105036289
 40
2.140113668917293
 40
2.988671268612208
 40
3.841507712486409
 40
4.61392016707269
 40
5.335952022325626
 40
6.020499317988973
 40
6.729216468903221
 40
7.451248324156158
 40
8.23595017836577
 40
9.084507778060683
 40
9.795872057201187
 40
10.65924169220739
 40
11.32417627545601
 40
11.97574438394506
 40
11.97574438394506
 40
11.97574438394506
 40
11.97574438394506
 10
116.6744811121168
 20
184.8443537450336
 30
0.0
 10
116.6700573257502
 20
184.796536532043
 30
0.0
 10
116.6396743149745
 20
184.6981873851385
 30
0.0
 10
116.5263554711754
 20
184.5877228758102
 30
0.0
 10
116.376260492924
 20
184.5097028144098
 30
0.0
 10
116.1959906704242
 20
184.4824594682629
 30
0.0
 10
116.0192773082767
 20
184.5173636979897
 30
0.0
 10
115.8628727882242
 20
184.5908033493225
 30
0.0
 10
115.7612876426947
 20
184.7162114512856
 30
0.0
 10
115.7154807109672
 20
184.8678647127568
 30
0.0
 10
115.7598677081752
 20
185.0211145396035
 30
0.0
 10
115.8644453330675
 20
185.1463549922678
 30
0.0
 10
116.0165899403654
 20
185.2284025663643
 30
0.0
 10
116.1880460432557
 20
185.2567422217889
 30
0.0
 10
116.3590941537037
 20
185.2158595107759
 30
0.0
 10
116.513714929667
 20
185.1639409429349
 30
0.0
 10
116.634149846544
 20
185.0552207599312
 30
0.0
 10
116.6681896698152
 20
184.9623388652421
 30
0.0
 10
116.6744811121168
 20
184.9158497450336
 30
0.0
  0
LINE
  5
100
330
1F
100
AcDbEntity
  8
0
  6
CONTINUOUS
 62
     5
100
AcDbLine
 10
113.754605
 20
184.781349
 30
0.0
 11
113.754593
 21
183.894818
 31
0.0
  0
LINE
  5
101
330
1F
100
AcDbEntity
  8
0
  6
CONTINUOUS
 62
     5
100
AcDbLine
 10
113.754593
 20
183.894818
 30
0.0
 11
114.610817
 21
183.894818
 31
0.0
  0
LINE
  5
102
330
1F
100
AcDbEntity
  8
0
  6
CONTINUOUS
 62
     5
100
AcDbLine
 10
114.610817
 20
183.894818
 30
0.0
 11
114.610817
 21
185.187198
 31
0.0
  0
ARC
  5
103
330
1F
100
AcDbEntity
  8
0
  6
CONTINUOUS
 62
     5
100
AcDbCircle
 10
114.026563
 20
185.158552
 30
0.0
 40
0.5849556750962099
100
AcDbArc
 50
2.806997
 51
66.545781
  0
ARC
  5
104
330
1F
100
AcDbEntity
  8
0
  6
CONTINUOUS
 62
     5
100
AcDbCircle
 10
113.734903
 20
184.093138
 30
0.0
 40
1.685708095057755
100
AcDbArc
 50
71.872392
 51
120.405557
  0
LINE
  5
105
330
1F
100
AcDbEntity
  8
0
  6
CONTINUOUS
 62
     5
100
AcDbLine
 10
112.881737
 20
185.547002
 30
0.0
 11
112.881737
 21
185.755442
 31
0.0
  0
LINE
  5
106
330
1F
100
AcDbEntity
  8
0
  6
CONTINUOUS
 62
     5
100
AcDbLine
 10
112.881737
 20
185.755442
 30
0.0
 11
112.020113
 21
185.755442
 31
0.0
  0
LINE
  5
107
330
1F
100
AcDbEntity
  8
0
  6
CONTINUOUS
 62
     5
100
AcDbLine
 10
112.020113
 20
185.755442
 30
0.0
 11
112.020113
 21
183.894818
 31
0.0
  0
LINE
  5
108
330
1F
100
AcDbEntity
  8
0
  6
CONTINUOUS
 62
     5
100
AcDbLine
 10
112.020113
 20
183.894818
 30
0.0
 11
112.881737
 21
183.894818
 31
0.0
  0
LINE
  5
109
330
1F
100
AcDbEntity
  8
0
  6
CONTINUOUS
 62
     5
100
AcDbLine
 10
112.881737
 20
183.894818
 30
0.0
 11
112.881737
 21
184.759493
 31
0.0
  0
ARC
  5
10A
330
1F
100
AcDbEntity
  8
0
  6
CONTINUOUS
 62
     5
100
AcDbCircle
 10
-113.435579
 20
184.465051
 30
0.0
 40
0.6272451125223354
210
0.0
220
0.0
230
-1.0
100
AcDbArc
 50
27.996676
 51
87.037487
  0
ARC
  5
10B
330
1F
100
AcDbEntity
  8
0
  6
CONTINUOUS
 62
     5
100
AcDbCircle
 10
-113.442066
 20
184.781349
 30
0.0
 40
0.3125393542332445
210
0.0
220
0.0
230
-1.0
100
AcDbArc
 50
82.849317
 51
180.0
  0
LINE
  5
10C
330
1F
100
AcDbEntity
  8
0
  6
CONTINUOUS
 62
     5
100
AcDbLine
 10
111.603017
 20
185.755442
 30
0.0
 11
110.730377
 21
185.755442
 31
0.0
  0
LINE
  5
10D
330
1F
100
AcDbEntity
  8
0
  6
CONTINUOUS
 62
     5
100
AcDbLine
 10
110.730377
 20
185.755442
 30
0.0
 11
110.730377
 21
183.894818
 31
0.0
  0
LINE
  5
10E
330
1F
100
AcDbEntity
  8
0
  6
CONTINUOUS
 62
     5
100
AcDbLine
 10
110.730377
 20
183.894818
 30
0.0
 11
111.603017
 21
183.894818
 31
0.0
  0
LINE
  5
10F
330
1F
100
AcDbEntity
  8
0
  6
CONTINUOUS
 62
     5
100
AcDbLine
 10
111.603017
 20
183.894818
 30
0.0
 11
111.603017
 21
185.755442
 31
0.0
  0
LINE
  5
110
330
1F
100
AcDbEntity
  8
0
  6
CONTINUOUS
 62
     5
100
AcDbLine
 10
111.603017
 20
186.39221
 30
0.0
 11
110.730377
 21
186.39221
 31
0.0
  0
LINE
  5
111
330
1F
100
AcDbEntity
  8
0
  6
CONTINUOUS
 62
     5
100
AcDbLine
 10
110.730377
 20
186.39221
 30
0.0
 11
110.730377
 21
185.964098
 31
0.0
  0
LINE
  5
112
330
1F
100
AcDbEntity
  8
0
  6
CONTINUOUS
 62
     5
100
AcDbLine
 10
110.730377
 20
185.964098
 30
0.0
 11
111.603017
 21
185.964098
 31
0.0
  0
LINE
  5
113
330
1F
100
AcDbEntity
  8
0
  6
CONTINUOUS
 62
     5
100
AcDbLine
 10
111.603017
 20
185.964098
 30
0.0
 11
111.603017
 21
186.39221
 31
0.0
  0
LINE
  5
114
330
1F
100
AcDbEntity
  8
0
  6
CONTINUOUS
 62
     5
100
AcDbLine
 10
108.968465
 20
185.228618
 30
0.0
 11
109.226369
 21
185.228618
 31
0.0
  0
LINE
  5
115
330
1F
100
AcDbEntity
  8
0
  6
CONTINUOUS
 62
     5
100
AcDbLine
 10
109.226369
 20
185.228618
 30
0.0
 11
109.226369
 21
183.894818
 31
0.0
  0
LINE
  5
116
330
1F
100
AcDbEntity
  8
0
  6
CONTINUOUS
 62
     5
100
AcDbLine
 10
109.226369
 20
183.894818
 30
0.0
 11
110.088209
 21
183.894818
 31
0.0
  0
LINE
  5
117
330
1F
100
AcDbEntity
  8
0
  6
CONTINUOUS
 62
     5
100
AcDbLine
 10
110.088209
 20
183.894818
 30
0.0
 11
110.088209
 21
185.228618
 31
0.0
  0
LINE
  5
118
330
1F
100
AcDbEntity
  8
0
  6
CONTINUOUS
 62
     5
100
AcDbLine
 10
110.088209
 20
185.228618
 30
0.0
 11
110.384561
 21
185.228618
 31
0.0
  0
LINE
  5
119
330
1F
100
AcDbEntity
  8
0
  6
CONTINUOUS
 62
     5
100
AcDbLine
 10
110.384561
 20
185.228618
 30
0.0
 11
110.384561
 21
185.755442
 31
0.0
  0
LINE
  5
11A
330
1F
100
AcDbEntity
  8
0
  6
CONTINUOUS
 62
     5
100
AcDbLine
 10
110.384561
 20
185.755442
 30
0.0
 11
110.060777
 21
185.755442
 31
0.0
  0
LINE
  5
11B
330
1F
100
AcDbEntity
  8
0
  6
CONTINUOUS
 62
     5
100
AcDbLine
 10
110.060777
 20
185.755442
 30
0.0
 11
110.083868
 21
185.880352
 31
0.0
  0
ARC
  5
11C
330
1F
100
AcDbEntity
  8
0
  6
CONTINUOUS
 62
     5
100
AcDbCircle
 10
-110.201424
 20
185.832396
 30
0.0
 40
0.1269612610398744
210
0.0
220
0.0
230
-1.0
100
AcDbArc
 50
22.192188
 51
84.155327
  0
LINE
  5
11D
330
1F
100
AcDbEntity
  8
0
  6
CONTINUOUS
 62
     5
100
AcDbLine
 10
110.188496
 20
185.958698
 30
0.0
 11
110.384561
 21
185.958698
 31
0.0
  0
LINE
  5
11E
330
1F
100
AcDbEntity
  8
0
  6
CONTINUOUS
 62
     5
100
AcDbLine
 10
110.384561
 20
185.958698
 30
0.0
 11
110.384561
 21
186.39221
 31
0.0
  0
LINE
  5
11F
330
1F
100
AcDbEntity
  8
0
  6
CONTINUOUS
 62
     5
100
AcDbLine
 10
110.384561
 20
186.39221
 30
0.0
 11
109.665497
 21
186.39221
 31
0.0
  0
ARC
  5
120
330
1F
100
AcDbEntity
  8
0
  6
CONTINUOUS
 62
     5
100
AcDbCircle
 10
109.661074
 20
185.957525
 30
0.0
 40
0.4347067697209716
100
AcDbArc
 50
89.417049
 51
180.0
  0
LINE
  5
121
330
1F
100
AcDbEntity
  8
0
  6
CONTINUOUS
 62
     5
100
AcDbLine
 10
109.226368
 20
185.957525
 30
0.0
 11
109.226369
 21
185.755442
 31
0.0
  0
LINE
  5
122
330
1F
100
AcDbEntity
  8
0
  6
CONTINUOUS
 62
     5
100
AcDbLine
 10
109.226369
 20
185.755442
 30
0.0
 11
108.968465
 21
185.755442
 31
0.0
  0
LINE
  5
123
330
1F
100
AcDbEntity
  8
0
  6
CONTINUOUS
 62
     5
100
AcDbLine
 10
108.968465
 20
185.755442
 30
0.0
 11
108.968465
 21
185.228618
 31
0.0
  0
LINE
  5
124
330
1F
100
AcDbEntity
  8
0
  6
CONTINUOUS
 62
     5
100
AcDbLine
 10
121.603169
 20
185.59085
 30
0.0
 11
121.603169
 21
185.755442
 31
0.0
  0
LINE
  5
125
330
1F
100
AcDbEntity
  8
0
  6
CONTINUOUS
 62
     5
100
AcDbLine
 10
121.603169
 20
185.755442
 30
0.0
 11
120.774377
 21
185.755442
 31
0.0
  0
LINE
  5
126
330
1F
100
AcDbEntity
  8
0
  6
CONTINUOUS
 62
     5
100
AcDbLine
 10
120.774377
 20
185.755442
 30
0.0
 11
120.774377
 21
183.894818
 31
0.0
  0
LINE
  5
127
330
1F
100
AcDbEntity
  8
0
  6
CONTINUOUS
 62
     5
100
AcDbLine
 10
120.774377
 20
183.894818
 30
0.0
 11
121.603169
 21
183.894818
 31
0.0
  0
LINE
  5
128
330
1F
100
AcDbEntity
  8
0
  6
CONTINUOUS
 62
     5
100
AcDbLine
 10
121.603169
 20
183.894818
 30
0.0
 11
121.603169
 21
184.926866
 31
0.0
  0
SPLINE
  5
129
330
1F
100
AcDbEntity
  8
0
  6
CONTINUOUS
 62
     5
100
AcDbSpline
210
0.0
220
0.0
230
1.0
 70
     8
 71
     3
 72
    14
 73
    10
 74
     0
 42
0.0
 43
0.0
 40
0.0
 40
0.0
 40
0.0
 40
0.0
 40
0.4984505993576489
 40
0.9864936302473448
 40
1.590581372218658
 40
2.176804026165091
 40
2.634709038149013
 40
3.022672953996877
 40
3.382307490714356
 40
3.382307490714356
 40
3.382307490714356
 40
3.382307490714356
 10
121.6031691121168
 20
184.9268657450336
 30
0.0
 10
121.6048437804232
 20
184.9627150942335
 30
0.0
 10
121.6237133493664
 20
185.033451388121
 30
0.0
 10
121.696380089899
 20
185.1271683608612
 30
0.0
 10
121.8146329398762
 20
185.1717470331235
 30
0.0
 10
121.9379311548624
 20
185.164538543622
 30
0.0
 10
122.0269563468401
 20
185.104949916937
 30
0.0
 10
122.0744719026217
 20
185.029588696437
 30
0.0
 10
122.0821814474731
 20
184.9745355638761
 30
0.0
 10
122.0807451121168
 20
184.9486817450336
 30
0.0
  0
LINE
  5
12A
330
1F
100
AcDbEntity
  8
0
  6
CONTINUOUS
 62
     5
100
AcDbLine
 10
122.080745
 20
184.948682
 30
0.0
 11
122.080745
 21
184.833554
 31
0.0
  0
LINE
  5
12B
330
1F
100
AcDbEntity
  8
0
  6
CONTINUOUS
 62
     5
100
AcDbLine
 10
122.080745
 20
184.833554
 30
0.0
 11
122.958785
 21
184.833554
 31
0.0
  0
SPLINE
  5
12C
330
1F
100
AcDbEntity
  8
0
  6
CONTINUOUS
 62
     5
100
AcDbSpline
210
0.0
220
0.0
230
1.0
 70
     8
 71
     3
 72
    18
 73
    14
 74
     0
 42
0.0
 43
0.0
 40
0.0
 40
0.0
 40
0.0
 40
0.0
 40
0.5862226539464359
 40
1.937079048978856
 40
2.725655614697113
 40
3.510357468906729
 40
4.33775157089199
 40
5.29538250188785
 40
6.222921719387574
 40
7.036306007408925
 40
8.367711655586822
 40
9.276897005226814
 40
9.643276589810892
 40
9.643276589810892
 40
9.643276589810892
 40
9.643276589810892
 10
122.9587851121169
 20
184.8335537450336
 30
0.0
 10
122.9645195312836
 20
184.875370420234
 30
0.0
 10
122.9768927648108
 20
185.0145627808301
 30
0.0
 10
122.9603879464174
 20
185.2116353410356
 30
0.0
 10
122.9110928904792
 20
185.4174360811334
 30
0.0
 10
122.8274601181656
 20
185.5714115583365
 30
0.0
 10
122.6886756066242
 20
185.7008716877664
 30
0.0
 10
122.5008407558178
 20
185.7657464000837
 30
0.0
 10
122.3088951828009
 20
185.8002841054273
 30
0.0
 10
122.0867926822027
 20
185.7907684601936
 30
0.0
 10
121.8695021990991
 20
185.7428645361529
 30
0.0
 10
121.7011375216757
 20
185.6570526347276
 30
0.0
 10
121.6245990930022
 20
185.6062323642921
 30
0.0
 10
121.6031691121168
 20
185.5908497450336
 30
0.0
  0
LINE
  5
12D
330
1F
100
AcDbEntity
  8
0
  6
CONTINUOUS
 62
     5
100
AcDbLine
 10
115.849976
 20
111.698205
 30
0.0
 11
115.849976
 21
112.453622
 31
0.0
  0
ARC
  5
12E
330
1F
100
AcDbEntity
  8
0
  6
CONTINUOUS
 62
     5
100
AcDbCircle
 10
-115.599976
 20
114.185673
 30
0.0
 40
1.75
210
0.0
220
0.0
230
-1.0
100
AcDbArc
 50
261.786787
 51
347.626375
  0
LINE
  5
12F
330
1F
100
AcDbEntity
  8
0
  6
CONTINUOUS
 62
     5
100
AcDbLine
 10
113.890626
 20
113.810673
 30
0.0
 11
115.349976
 21
113.810673
 31
0.0
  0
LINE
  5
130
330
1F
100
AcDbEntity
  8
0
  6
CONTINUOUS
 62
     5
100
AcDbLine
 10
115.349976
 20
113.810673
 30
0.0
 11
115.349976
 21
114.560673
 31
0.0
  0
LINE
  5
131
330
1F
100
AcDbEntity
  8
0
  6
CONTINUOUS
 62
     5
100
AcDbLine
 10
115.349976
 20
114.560673
 30
0.0
 11
113.890626
 21
114.560673
 31
0.0
  0
ARC
  5
132
330
1F
100
AcDbEntity
  8
0
  6
CONTINUOUS
 62
     5
100
AcDbCircle
 10
-115.599976
 20
114.185673
 30
0.0
 40
1.749999999999999
210
0.0
220
0.0
230
-1.0
100
AcDbArc
 50
12.373619
 51
98.213211
  0
LINE
  5
133
330
1F
100
AcDbEntity
  8
0
  6
CONTINUOUS
 62
     5
100
AcDbLine
 10
115.849976
 20
115.917724
 30
0.0
 11
115.849976
 21
116.673142
 31
0.0
  0
ARC
  5
134
330
1F
100
AcDbEntity
  8
0
  6
CONTINUOUS
 62
     5
100
AcDbCircle
 10
115.599976
 20
114.185673
 30
0.0
 40
2.500000000000003
100
AcDbArc
 50
84.26083
 51
275.73917
  0
ARC
  5
135
330
1F
100
AcDbEntity
  8
0
  6
CONTINUOUS
 62
     5
100
AcDbCircle
 10
-111.349976
 20
114.185673
 30
0.0
 40
1.74999999999999
210
0.0
220
0.0
230
-1.0
100
AcDbArc
 50
261.786789
 51
98.213211
  0
LINE
  5
136
330
1F
100
AcDbEntity
  8
0
  6
CONTINUOUS
 62
     5
100
AcDbLine
 10
111.599976
 20
115.917724
 30
0.0
 11
111.599975
 21
116.673142
 31
0.0
  0
ARC
  5
137
330
1F
100
AcDbEntity
  8
0
  6
CONTINUOUS
 62
     5
100
AcDbCircle
 10
111.349976
 20
114.185673
 30
0.0
 40
2.5
100
AcDbArc
 50
84.260838
 51
275.73917
  0
LINE
  5
138
330
1F
100
AcDbEntity
  8
0
  6
CONTINUOUS
 62
     5
100
AcDbLine
 10
111.599976
 20
111.698205
 30
0.0
 11
111.599976
 21
112.453622
 31
0.0
  0
LINE
  5
139
330
1F
100
AcDbEntity
  8
0
  6
CONTINUOUS
 62
     4
100
AcDbLine
 10
143.349947
 20
120.684326
 30
0.0
 11
143.349947
 21
120.184326
 31
0.0
  0
LINE
  5
13A
330
1F
100
AcDbEntity
  8
0
  6
CONTINUOUS
 62
     4
100
AcDbLine
 10
143.349947
 20
178.684326
 30
0.0
 11
143.349947
 21
179.184326
 31
0.0
  0
LINE
  5
13B
330
1F
100
AcDbEntity
  8
0
  6
CONTINUOUS
 62
     4
100
AcDbLine
 10
124.849947
 20
190.184326
 30
0.0
 11
124.849947
 21
189.684326
 31
0.0
  0
LINE
  5
13C
330
1F
100
AcDbEntity
  8
0
  6
CONTINUOUS
 62
     5
100
AcDbLine
 10
154.349947
 20
129.184326
 30
0.0
 11
101.849947
 21
129.184326
 31
0.0
  0
LINE
  5
13D
330
1F
100
AcDbEntity
  8
0
  6
CONTINUOUS
 62
     5
100
AcDbLine
 10
154.349947
 20
170.184326
 30
0.0
 11
101.849947
 21
170.184326
 31
0.0
  0
LINE
  5
13E
330
1F
100
AcDbEntity
  8
0
  6
CONTINUOUS
 62
     6
100
AcDbLine
 10
100.849947
 20
172.934326
 30
0.0
 11
103.349736
 21
172.934326
 31
0.0
  0
LINE
  5
13F
330
1F
100
AcDbEntity
  8
0
  6
CONTINUOUS
 62
     6
100
AcDbLine
 10
103.349736
 20
172.934326
 30
0.0
 11
103.349736
 21
177.934326
 31
0.0
  0
LINE
  5
140
330
1F
100
AcDbEntity
  8
0
  6
CONTINUOUS
 62
     6
100
AcDbLine
 10
103.349736
 20
177.934326
 30
0.0
 11
100.849947
 21
177.934326
 31
0.0
  0
LINE
  5
141
330
1F
100
AcDbEntity
  8
0
  6
CONTINUOUS
 62
     6
100
AcDbLine
 10
100.849947
 20
172.934326
 30
0.0
 11
100.849947
 21
177.934326
 31
0.0
  0
LINE
  5
142
330
1F
100
AcDbEntity
  8
0
  6
CONTINUOUS
 62
     6
100
AcDbLine
 10
100.849947
 20
126.434326
 30
0.0
 11
100.849947
 21
121.434326
 31
0.0
  0
LINE
  5
143
330
1F
100
AcDbEntity
  8
0
  6
CONTINUOUS
 62
     6
100
AcDbLine
 10
100.849947
 20
121.434326
 30
0.0
 11
103.349736
 21
121.434326
 31
0.0
  0
LINE
  5
144
330
1F
100
AcDbEntity
  8
0
  6
CONTINUOUS
 62
     6
100
AcDbLine
 10
103.349736
 20
121.434326
 30
0.0
 11
103.349736
 21
126.434326
 31
0.0
  0
LINE
  5
145
330
1F
100
AcDbEntity
  8
0
  6
CONTINUOUS
 62
     6
100
AcDbLine
 10
100.849947
 20
126.434326
 30
0.0
 11
103.349736
 21
126.434326
 31
0.0
  0
LINE
  5
146
330
1F
100
AcDbEntity
  8
0
  6
CONTINUOUS
 62
     6
100
AcDbLine
 10
100.849947
 20
117.184326
 30
0.0
 11
100.849947
 21
112.184326
 31
0.0
  0
LINE
  5
147
330
1F
100
AcDbEntity
  8
0
  6
CONTINUOUS
 62
     6
100
AcDbLine
 10
100.849947
 20
112.184326
 30
0.0
 11
103.349736
 21
112.184326
 31
0.0
  0
LINE
  5
148
330
1F
100
AcDbEntity
  8
0
  6
CONTINUOUS
 62
     6
100
AcDbLine
 10
103.349736
 20
112.184326
 30
0.0
 11
103.349736
 21
117.184326
 31
0.0
  0
LINE
  5
149
330
1F
100
AcDbEntity
  8
0
  6
CONTINUOUS
 62
     6
100
AcDbLine
 10
100.849947
 20
117.184326
 30
0.0
 11
103.349736
 21
117.184326
 31
0.0
  0
LINE
  5
14A
330
1F
100
AcDbEntity
  8
0
  6
CONTINUOUS
 62
     6
100
AcDbLine
 10
100.849947
 20
182.184326
 30
0.0
 11
100.849947
 21
187.184326
 31
0.0
  0
LINE
  5
14B
330
1F
100
AcDbEntity
  8
0
  6
CONTINUOUS
 62
     6
100
AcDbLine
 10
100.849947
 20
187.184326
 30
0.0
 11
103.349736
 21
187.184326
 31
0.0
  0
LINE
  5
14C
330
1F
100
AcDbEntity
  8
0
  6
CONTINUOUS
 62
     6
100
AcDbLine
 10
103.349736
 20
187.184326
 30
0.0
 11
103.349736
 21
182.184326
 31
0.0
  0
LINE
  5
14D
330
1F
100
AcDbEntity
  8
0
  6
CONTINUOUS
 62
     6
100
AcDbLine
 10
100.849947
 20
182.184326
 30
0.0
 11
103.349736
 21
182.184326
 31
0.0
  0
LINE
  5
14E
330
1F
100
AcDbEntity
  8
0
  6
CONTINUOUS
 62
     6
100
AcDbLine
 10
105.349947
 20
152.184326
 30
0.0
 11
105.349947
 21
147.184326
 31
0.0
  0
LINE
  5
14F
330
1F
100
AcDbEntity
  8
0
  6
CONTINUOUS
 62
     6
100
AcDbLine
 10
105.349947
 20
147.184326
 30
0.0
 11
103.849947
 21
147.184326
 31
0.0
  0
LINE
  5
150
330
1F
100
AcDbEntity
  8
0
  6
CONTINUOUS
 62
     6
100
AcDbLine
 10
103.849947
 20
147.184326
 30
0.0
 11
103.849947
 21
152.184326
 31
0.0
  0
LINE
  5
151
330
1F
100
AcDbEntity
  8
0
  6
CONTINUOUS
 62
     6
100
AcDbLine
 10
105.349947
 20
152.184326
 30
0.0
 11
103.849947
 21
152.184326
 31
0.0
  0
LINE
  5
152
330
1F
100
AcDbEntity
  8
0
  6
CONTINUOUS
 62
     4
100
AcDbLine
 10
124.849947
 20
109.684326
 30
0.0
 11
124.849947
 21
109.184326
 31
0.0
  0
ARC
  5
153
330
1F
100
AcDbEntity
  8
0
  6
CONTINUOUS
 62
     4
100
AcDbCircle
 10
123.349947
 20
109.184326
 30
0.0
 40
1.5
100
AcDbArc
 50
270.0
 51
0.0
  0
LINE
  5
154
330
1F
100
AcDbEntity
  8
0
  6
CONTINUOUS
 62
     4
100
AcDbLine
 10
123.349947
 20
107.684326
 30
0.0
 11
97.549947
 21
107.684326
 31
0.0
  0
LINE
  5
155
330
1F
100
AcDbEntity
  8
0
  6
CONTINUOUS
 62
     4
100
AcDbLine
 10
141.849947
 20
118.684326
 30
0.0
 11
124.849947
 21
118.684326
 31
0.0
  0
ARC
  5
156
330
1F
100
AcDbEntity
  8
0
  6
CONTINUOUS
 62
     4
100
AcDbCircle
 10
141.849947
 20
120.184326
 30
0.0
 40
1.500000000000007
100
AcDbArc
 50
270.0
 51
0.0
  0
LINE
  5
157
330
1F
100
AcDbEntity
  8
0
  6
CONTINUOUS
 62
     5
100
AcDbLine
 10
124.849947
 20
118.684326
 30
0.0
 11
124.849947
 21
118.884326
 31
0.0
  0
LINE
  5
158
330
1F
100
AcDbEntity
  8
0
  6
CONTINUOUS
 62
     5
100
AcDbLine
 10
143.349947
 20
120.184326
 30
0.0
 11
143.149947
 21
120.184326
 31
0.0
  0
LINE
  5
159
330
1F
100
AcDbEntity
  8
0
  6
CONTINUOUS
 62
     4
100
AcDbLine
 10
154.349947
 20
127.184326
 30
0.0
 11
143.349947
 21
127.184326
 31
0.0
  0
LINE
  5
15A
330
1F
100
AcDbEntity
  8
0
  6
CONTINUOUS
 62
     5
100
AcDbLine
 10
143.349947
 20
127.184326
 30
0.0
 11
143.349947
 21
127.384326
 31
0.0
  0
LINE
  5
15B
330
1F
100
AcDbEntity
  8
0
  6
CONTINUOUS
 62
     4
100
AcDbLine
 10
154.349947
 20
172.184326
 30
0.0
 11
143.349947
 21
172.184326
 31
0.0
  0
LINE
  5
15C
330
1F
100
AcDbEntity
  8
0
  6
CONTINUOUS
 62
     4
100
AcDbLine
 10
141.849947
 20
180.684326
 30
0.0
 11
124.849947
 21
180.684326
 31
0.0
  0
ARC
  5
15D
330
1F
100
AcDbEntity
  8
0
  6
CONTINUOUS
 62
     4
100
AcDbCircle
 10
141.849947
 20
179.184326
 30
0.0
 40
1.5
100
AcDbArc
 50
0.0
 51
90.0
  0
LINE
  5
15E
330
1F
100
AcDbEntity
  8
0
  6
CONTINUOUS
 62
     4
100
AcDbLine
 10
99.696724
 20
191.684326
 30
0.0
 11
123.349947
 21
191.684326
 31
0.0
  0
ARC
  5
15F
330
1F
100
AcDbEntity
  8
0
  6
CONTINUOUS
 62
     4
100
AcDbCircle
 10
-123.349947
 20
190.184326
 30
0.0
 40
1.5
210
0.0
220
0.0
230
-1.0
100
AcDbArc
 50
90.0
 51
180.0
  0
LINE
  5
160
330
1F
100
AcDbEntity
  8
0
  6
CONTINUOUS
 62
     4
100
AcDbLine
 10
124.849947
 20
118.684326
 30
0.0
 11
124.849947
 21
109.684326
 31
0.0
  0
LINE
  5
161
330
1F
100
AcDbEntity
  8
0
  6
CONTINUOUS
 62
     4
100
AcDbLine
 10
143.349947
 20
127.184326
 30
0.0
 11
143.349947
 21
120.684326
 31
0.0
  0
LINE
  5
162
330
1F
100
AcDbEntity
  8
0
  6
CONTINUOUS
 62
     4
100
AcDbLine
 10
143.349947
 20
178.684326
 30
0.0
 11
143.349947
 21
172.184326
 31
0.0
  0
LINE
  5
163
330
1F
100
AcDbEntity
  8
0
  6
CONTINUOUS
 62
     4
100
AcDbLine
 10
124.849947
 20
189.684326
 30
0.0
 11
124.849947
 21
180.684326
 31
0.0
  0
LINE
  5
164
330
1F
100
AcDbEntity
  8
0
  6
CONTINUOUS
 62
     5
100
AcDbLine
 10
97.549947
 20
118.684326
 30
0.0
 11
124.649947
 21
118.684326
 31
0.0
  0
LINE
  5
165
330
1F
100
AcDbEntity
  8
0
  6
CONTINUOUS
 62
     5
100
AcDbLine
 10
97.549947
 20
109.684326
 30
0.0
 11
124.649947
 21
109.684326
 31
0.0
  0
LINE
  5
166
330
1F
100
AcDbEntity
  8
0
  6
CONTINUOUS
 62
     5
100
AcDbLine
 10
143.149947
 20
127.184326
 30
0.0
 11
97.549947
 21
127.184326
 31
0.0
  0
LINE
  5
167
330
1F
100
AcDbEntity
  8
0
  6
CONTINUOUS
 62
     5
100
AcDbLine
 10
143.149947
 20
120.684326
 30
0.0
 11
97.549947
 21
120.684326
 31
0.0
  0
LINE
  5
168
330
1F
100
AcDbEntity
  8
0
  6
CONTINUOUS
 62
     5
100
AcDbLine
 10
143.149947
 20
178.684326
 30
0.0
 11
97.549947
 21
178.684326
 31
0.0
  0
LINE
  5
169
330
1F
100
AcDbEntity
  8
0
  6
CONTINUOUS
 62
     5
100
AcDbLine
 10
143.149947
 20
172.184326
 30
0.0
 11
97.549947
 21
172.184326
 31
0.0
  0
LINE
  5
16A
330
1F
100
AcDbEntity
  8
0
  6
CONTINUOUS
 62
     5
100
AcDbLine
 10
124.649947
 20
189.684326
 30
0.0
 11
99.344071
 21
189.684326
 31
0.0
  0
LINE
  5
16B
330
1F
100
AcDbEntity
  8
0
  6
CONTINUOUS
 62
     5
100
AcDbLine
 10
97.757128
 20
180.684326
 30
0.0
 11
124.649947
 21
180.684326
 31
0.0
  0
LINE
  5
16C
330
1F
100
AcDbEntity
  8
0
  6
CONTINUOUS
 62
     5
100
AcDbLine
 10
124.649947
 20
118.684326
 30
0.0
 11
124.849947
 21
118.684326
 31
0.0
  0
LINE
  5
16D
330
1F
100
AcDbEntity
  8
0
  6
CONTINUOUS
 62
     5
100
AcDbLine
 10
124.649947
 20
109.684326
 30
0.0
 11
124.849947
 21
109.684326
 31
0.0
  0
LINE
  5
16E
330
1F
100
AcDbEntity
  8
0
  6
CONTINUOUS
 62
     5
100
AcDbLine
 10
143.149947
 20
127.184326
 30
0.0
 11
143.349947
 21
127.184326
 31
0.0
  0
LINE
  5
16F
330
1F
100
AcDbEntity
  8
0
  6
CONTINUOUS
 62
     5
100
AcDbLine
 10
143.149947
 20
120.684326
 30
0.0
 11
143.349947
 21
120.684326
 31
0.0
  0
LINE
  5
170
330
1F
100
AcDbEntity
  8
0
  6
CONTINUOUS
 62
     5
100
AcDbLine
 10
143.149947
 20
178.684326
 30
0.0
 11
143.349947
 21
178.684326
 31
0.0
  0
LINE
  5
171
330
1F
100
AcDbEntity
  8
0
  6
CONTINUOUS
 62
     5
100
AcDbLine
 10
143.149947
 20
172.184326
 30
0.0
 11
143.349947
 21
172.184326
 31
0.0
  0
LINE
  5
172
330
1F
100
AcDbEntity
  8
0
  6
CONTINUOUS
 62
     5
100
AcDbLine
 10
124.649947
 20
189.684326
 30
0.0
 11
124.849947
 21
189.684326
 31
0.0
  0
LINE
  5
173
330
1F
100
AcDbEntity
  8
0
  6
CONTINUOUS
 62
     5
100
AcDbLine
 10
124.649947
 20
180.684326
 30
0.0
 11
124.849947
 21
180.684326
 31
0.0
  0
LINE
  5
174
330
1F
100
AcDbEntity
  8
0
  6
CONTINUOUS
 62
     4
100
AcDbLine
 10
99.399947
 20
164.684326
 30
0.0
 11
99.849947
 21
162.684326
 31
0.0
  0
LINE
  5
175
330
1F
100
AcDbEntity
  8
0
  6
CONTINUOUS
 62
     4
100
AcDbLine
 10
99.399947
 20
164.684326
 30
0.0
 11
99.849947
 21
166.684326
 31
0.0
  0
LINE
  5
176
330
1F
100
AcDbEntity
  8
0
  6
CONTINUOUS
 62
     4
100
AcDbLine
 10
99.696724
 20
191.684326
 30
0.0
 11
97.665871
 21
191.684326
 31
0.0
  0
LINE
  5
177
330
1F
100
AcDbEntity
  8
0
  6
CONTINUOUS
 62
     4
100
AcDbLine
 10
97.665871
 20
191.684326
 30
0.0
 11
95.549947
 21
179.684326
 31
0.0
  0
LINE
  5
178
330
1F
100
AcDbEntity
  8
0
  6
CONTINUOUS
 62
     4
100
AcDbLine
 10
95.549947
 20
179.684326
 30
0.0
 11
95.549947
 21
167.684326
 31
0.0
  0
LINE
  5
179
330
1F
100
AcDbEntity
  8
0
  6
CONTINUOUS
 62
     4
100
AcDbLine
 10
95.549947
 20
167.684326
 30
0.0
 11
96.704648
 21
165.684326
 31
0.0
  0
LINE
  5
17A
330
1F
100
AcDbEntity
  8
0
  6
CONTINUOUS
 62
     4
100
AcDbLine
 10
96.704648
 20
165.684326
 30
0.0
 11
98.148024
 21
165.684326
 31
0.0
  0
LINE
  5
17B
330
1F
100
AcDbEntity
  8
0
  6
CONTINUOUS
 62
     4
100
AcDbLine
 10
98.148024
 20
165.684326
 30
0.0
 11
98.549947
 21
167.184326
 31
0.0
  0
LINE
  5
17C
330
1F
100
AcDbEntity
  8
0
  6
CONTINUOUS
 62
     4
100
AcDbLine
 10
98.549947
 20
167.184326
 30
0.0
 11
99.849947
 21
167.184326
 31
0.0
  0
LINE
  5
17D
330
1F
100
AcDbEntity
  8
0
  6
CONTINUOUS
 62
     5
100
AcDbLine
 10
99.849947
 20
132.459303
 30
0.0
 11
99.849947
 21
131.684326
 31
0.0
  0
LINE
  5
17E
330
1F
100
AcDbEntity
  8
0
  6
CONTINUOUS
 62
     4
100
AcDbLine
 10
96.049947
 20
131.684326
 30
0.0
 11
95.549947
 21
131.684326
 31
0.0
  0
LINE
  5
17F
330
1F
100
AcDbEntity
  8
0
  6
CONTINUOUS
 62
     4
100
AcDbLine
 10
95.549947
 20
131.684326
 30
0.0
 11
95.549947
 21
107.684326
 31
0.0
  0
LINE
  5
180
330
1F
100
AcDbEntity
  8
0
  6
CONTINUOUS
 62
     4
100
AcDbLine
 10
95.549947
 20
107.684326
 30
0.0
 11
97.549947
 21
107.684326
 31
0.0
  0
LINE
  5
181
330
1F
100
AcDbEntity
  8
0
  6
CONTINUOUS
 62
     5
100
AcDbLine
 10
101.849736
 20
177.846856
 30
0.0
 11
103.349736
 21
177.715623
 31
0.0
  0
LINE
  5
182
330
1F
100
AcDbEntity
  8
0
  6
CONTINUOUS
 62
     5
100
AcDbLine
 10
101.849736
 20
177.846856
 30
0.0
 11
100.849947
 21
177.934326
 31
0.0
  0
LINE
  5
183
330
1F
100
AcDbEntity
  8
0
  6
CONTINUOUS
 62
     5
100
AcDbLine
 10
101.849736
 20
173.021796
 30
0.0
 11
103.349736
 21
173.153029
 31
0.0
  0
LINE
  5
184
330
1F
100
AcDbEntity
  8
0
  6
CONTINUOUS
 62
     5
100
AcDbLine
 10
101.849736
 20
173.021796
 30
0.0
 11
101.849736
 21
177.846856
 31
0.0
  0
LINE
  5
185
330
1F
100
AcDbEntity
  8
0
  6
CONTINUOUS
 62
     5
100
AcDbLine
 10
100.849947
 20
172.934326
 30
0.0
 11
101.849736
 21
173.021796
 31
0.0
  0
LINE
  5
186
330
1F
100
AcDbEntity
  8
0
  6
CONTINUOUS
 62
     5
100
AcDbLine
 10
101.849736
 20
121.521796
 30
0.0
 11
103.349736
 21
121.653029
 31
0.0
  0
LINE
  5
187
330
1F
100
AcDbEntity
  8
0
  6
CONTINUOUS
 62
     5
100
AcDbLine
 10
101.849736
 20
121.521796
 30
0.0
 11
100.849947
 21
121.434326
 31
0.0
  0
LINE
  5
188
330
1F
100
AcDbEntity
  8
0
  6
CONTINUOUS
 62
     5
100
AcDbLine
 10
101.849736
 20
126.346856
 30
0.0
 11
103.349736
 21
126.215623
 31
0.0
  0
LINE
  5
189
330
1F
100
AcDbEntity
  8
0
  6
CONTINUOUS
 62
     5
100
AcDbLine
 10
101.849736
 20
126.346856
 30
0.0
 11
101.849736
 21
121.521796
 31
0.0
  0
LINE
  5
18A
330
1F
100
AcDbEntity
  8
0
  6
CONTINUOUS
 62
     5
100
AcDbLine
 10
100.849947
 20
126.434326
 30
0.0
 11
101.849736
 21
126.346856
 31
0.0
  0
LINE
  5
18B
330
1F
100
AcDbEntity
  8
0
  6
CONTINUOUS
 62
     5
100
AcDbLine
 10
104.349947
 20
147.228071
 30
0.0
 11
105.349947
 21
147.315559
 31
0.0
  0
LINE
  5
18C
330
1F
100
AcDbEntity
  8
0
  6
CONTINUOUS
 62
     5
100
AcDbLine
 10
104.349947
 20
147.228071
 30
0.0
 11
103.849947
 21
147.184326
 31
0.0
  0
LINE
  5
18D
330
1F
100
AcDbEntity
  8
0
  6
CONTINUOUS
 62
     5
100
AcDbLine
 10
104.349947
 20
152.140582
 30
0.0
 11
105.349947
 21
152.053093
 31
0.0
  0
LINE
  5
18E
330
1F
100
AcDbEntity
  8
0
  6
CONTINUOUS
 62
     5
100
AcDbLine
 10
104.349947
 20
152.140582
 30
0.0
 11
104.349947
 21
147.228071
 31
0.0
  0
LINE
  5
18F
330
1F
100
AcDbEntity
  8
0
  6
CONTINUOUS
 62
     5
100
AcDbLine
 10
103.849947
 20
152.184326
 30
0.0
 11
104.349947
 21
152.140582
 31
0.0
  0
LINE
  5
190
330
1F
100
AcDbEntity
  8
0
  6
CONTINUOUS
 62
     4
100
AcDbLine
 10
154.349947
 20
127.184326
 30
0.0
 11
155.349947
 21
127.184326
 31
0.0
  0
ARC
  5
191
330
1F
100
AcDbEntity
  8
0
  6
CONTINUOUS
 62
     4
100
AcDbCircle
 10
155.349947
 20
128.184326
 30
0.0
 40
1.000000000000002
100
AcDbArc
 50
270.0
 51
0.0
  0
LINE
  5
192
330
1F
100
AcDbEntity
  8
0
  6
CONTINUOUS
 62
     4
100
AcDbLine
 10
156.349947
 20
128.184326
 30
0.0
 11
156.349947
 21
171.184326
 31
0.0
  0
ARC
  5
193
330
1F
100
AcDbEntity
  8
0
  6
CONTINUOUS
 62
     4
100
AcDbCircle
 10
-155.349947
 20
171.184326
 30
0.0
 40
1.0
210
0.0
220
0.0
230
-1.0
100
AcDbArc
 50
90.0
 51
180.0
  0
LINE
  5
194
330
1F
100
AcDbEntity
  8
0
  6
CONTINUOUS
 62
     4
100
AcDbLine
 10
155.349947
 20
172.184326
 30
0.0
 11
154.349947
 21
172.184326
 31
0.0
  0
LINE
  5
195
330
1F
100
AcDbEntity
  8
0
  6
CONTINUOUS
 62
     6
100
AcDbLine
 10
154.349947
 20
170.184326
 30
0.0
 11
154.349947
 21
171.984326
 31
0.0
  0
LINE
  5
196
330
1F
100
AcDbEntity
  8
0
  6
CONTINUOUS
 62
     6
100
AcDbLine
 10
154.349947
 20
127.384326
 30
0.0
 11
154.349947
 21
129.184326
 31
0.0
  0
LINE
  5
197
330
1F
100
AcDbEntity
  8
0
  6
CONTINUOUS
 62
     5
100
AcDbLine
 10
154.349947
 20
127.384326
 30
0.0
 11
154.349947
 21
127.184326
 31
0.0
  0
LINE
  5
198
330
1F
100
AcDbEntity
  8
0
  6
CONTINUOUS
 62
     5
100
AcDbLine
 10
154.349947
 20
171.984326
 30
0.0
 11
154.349947
 21
172.184326
 31
0.0
  0
LINE
  5
199
330
1F
100
AcDbEntity
  8
0
  6
CONTINUOUS
 62
     5
100
AcDbLine
 10
97.749947
 20
131.684326
 30
0.0
 11
97.749947
 21
132.459303
 31
0.0
  0
LINE
  5
19A
330
1F
100
AcDbEntity
  8
0
  6
CONTINUOUS
 62
     5
100
AcDbLine
 10
99.849947
 20
132.459303
 30
0.0
 11
97.749947
 21
132.459303
 31
0.0
  0
LINE
  5
19B
330
1F
100
AcDbEntity
  8
0
  6
CONTINUOUS
 62
     4
100
AcDbLine
 10
99.849947
 20
102.834326
 30
0.0
 11
99.849947
 21
103.259079
 31
0.0
  0
LINE
  5
19C
330
1F
100
AcDbEntity
  8
0
  6
CONTINUOUS
 62
     4
100
AcDbLine
 10
99.849947
 20
103.259079
 30
0.0
 11
99.849947
 21
104.334326
 31
0.0
  0
LINE
  5
19D
330
1F
100
AcDbEntity
  8
0
  6
CONTINUOUS
 62
     4
100
AcDbLine
 10
99.849947
 20
104.334326
 30
0.0
 11
99.849947
 21
105.134326
 31
0.0
  0
LINE
  5
19E
330
1F
100
AcDbEntity
  8
0
  6
CONTINUOUS
 62
     4
100
AcDbLine
 10
96.049947
 20
102.834326
 30
0.0
 11
96.049947
 21
103.259079
 31
0.0
  0
LINE
  5
19F
330
1F
100
AcDbEntity
  8
0
  6
CONTINUOUS
 62
     4
100
AcDbLine
 10
96.049947
 20
103.259079
 30
0.0
 11
96.049947
 21
104.334326
 31
0.0
  0
LINE
  5
1A0
330
1F
100
AcDbEntity
  8
0
  6
CONTINUOUS
 62
     5
100
AcDbLine
 10
99.849947
 20
104.334326
 30
0.0
 11
96.049947
 21
104.334326
 31
0.0
  0
LINE
  5
1A1
330
1F
100
AcDbEntity
  8
0
  6
CONTINUOUS
 62
     4
100
AcDbLine
 10
96.049947
 20
104.334326
 30
0.0
 11
96.049947
 21
105.134326
 31
0.0
  0
LINE
  5
1A2
330
1F
100
AcDbEntity
  8
0
  6
CONTINUOUS
 62
     4
100
AcDbLine
 10
96.049947
 20
105.134326
 30
0.0
 11
96.049947
 21
107.684326
 31
0.0
  0
LINE
  5
1A3
330
1F
100
AcDbEntity
  8
0
  6
CONTINUOUS
 62
     4
100
AcDbLine
 10
99.849947
 20
107.684326
 30
0.0
 11
99.849947
 21
105.134326
 31
0.0
  0
LINE
  5
1A4
330
1F
100
AcDbEntity
  8
0
  6
CONTINUOUS
 62
     4
100
AcDbLine
 10
98.248023
 20
134.884341
 30
0.0
 11
98.649947
 21
133.384341
 31
0.0
  0
LINE
  5
1A5
330
1F
100
AcDbEntity
  8
0
  6
CONTINUOUS
 62
     4
100
AcDbLine
 10
99.849947
 20
133.384341
 30
0.0
 11
98.649947
 21
133.384341
 31
0.0
  0
LINE
  5
1A6
330
1F
100
AcDbEntity
  8
0
  6
CONTINUOUS
 62
     4
100
AcDbLine
 10
96.049947
 20
131.684339
 30
0.0
 11
98.248023
 21
134.884341
 31
0.0
  0
LINE
  5
1A7
330
1F
100
AcDbEntity
  8
0
  6
CONTINUOUS
 62
     4
100
AcDbLine
 10
99.849947
 20
102.834326
 30
0.0
 11
96.049947
 21
102.834326
 31
0.0
  0
LINE
  5
1A8
330
1F
100
AcDbEntity
  8
0
  6
CONTINUOUS
 62
     5
100
AcDbLine
 10
101.849736
 20
117.096856
 30
0.0
 11
103.349736
 21
116.965623
 31
0.0
  0
LINE
  5
1A9
330
1F
100
AcDbEntity
  8
0
  6
CONTINUOUS
 62
     5
100
AcDbLine
 10
101.849736
 20
117.096856
 30
0.0
 11
100.849947
 21
117.184326
 31
0.0
  0
LINE
  5
1AA
330
1F
100
AcDbEntity
  8
0
  6
CONTINUOUS
 62
     5
100
AcDbLine
 10
101.849736
 20
112.271796
 30
0.0
 11
103.349736
 21
112.403029
 31
0.0
  0
LINE
  5
1AB
330
1F
100
AcDbEntity
  8
0
  6
CONTINUOUS
 62
     5
100
AcDbLine
 10
101.849736
 20
112.271796
 30
0.0
 11
101.849736
 21
117.096856
 31
0.0
  0
LINE
  5
1AC
330
1F
100
AcDbEntity
  8
0
  6
CONTINUOUS
 62
     5
100
AcDbLine
 10
100.849947
 20
112.184326
 30
0.0
 11
101.849736
 21
112.271796
 31
0.0
  0
LINE
  5
1AD
330
1F
100
AcDbEntity
  8
0
  6
CONTINUOUS
 62
     5
100
AcDbLine
 10
101.849736
 20
182.271796
 30
0.0
 11
103.349736
 21
182.403029
 31
0.0
  0
LINE
  5
1AE
330
1F
100
AcDbEntity
  8
0
  6
CONTINUOUS
 62
     5
100
AcDbLine
 10
100.849947
 20
182.184326
 30
0.0
 11
101.849736
 21
182.271796
 31
0.0
  0
LINE
  5
1AF
330
1F
100
AcDbEntity
  8
0
  6
CONTINUOUS
 62
     5
100
AcDbLine
 10
101.849736
 20
187.096856
 30
0.0
 11
103.349736
 21
186.965623
 31
0.0
  0
LINE
  5
1B0
330
1F
100
AcDbEntity
  8
0
  6
CONTINUOUS
 62
     5
100
AcDbLine
 10
101.849736
 20
182.271796
 30
0.0
 11
101.849736
 21
187.096856
 31
0.0
  0
LINE
  5
1B1
330
1F
100
AcDbEntity
  8
0
  6
CONTINUOUS
 62
     5
100
AcDbLine
 10
101.849736
 20
187.096856
 30
0.0
 11
100.849947
 21
187.184326
 31
0.0
  0
CIRCLE
  5
1B2
330
1F
100
AcDbEntity
  8
0
  6
CONTINUOUS
 62
     6
100
AcDbCircle
 10
46.972717
 20
185.884326
 30
0.0
 40
2.5
  0
CIRCLE
  5
1B3
330
1F
100
AcDbEntity
  8
0
  6
CONTINUOUS
 62
     6
100
AcDbCircle
 10
52.972717
 20
185.884326
 30
0.0
 40
2.5
  0
CIRCLE
  5
1B4
330
1F
100
AcDbEntity
  8
0
  6
CONTINUOUS
 62
     6
100
AcDbCircle
 10
46.972717
 20
113.484326
 30
0.0
 40
2.5
  0
CIRCLE
  5
1B5
330
1F
100
AcDbEntity
  8
0
  6
CONTINUOUS
 62
     6
100
AcDbCircle
 10
52.972717
 20
113.484326
 30
0.0
 40
2.5
  0
CIRCLE
  5
1B6
330
1F
100
AcDbEntity
  8
0
  6
CONTINUOUS
 62
     6
100
AcDbCircle
 10
58.972717
 20
113.484326
 30
0.0
 40
2.5
  0
LINE
  5
1B7
330
1F
100
AcDbEntity
  8
0
  6
CONTINUOUS
 62
     4
100
AcDbLine
 10
77.597717
 20
129.184326
 30
0.0
 11
77.397717
 21
129.184326
 31
0.0
  0
LINE
  5
1B8
330
1F
100
AcDbEntity
  8
0
  6
CONTINUOUS
 62
     4
100
AcDbLine
 10
77.597717
 20
170.184326
 30
0.0
 11
77.397717
 21
170.184326
 31
0.0
  0
LINE
  5
1B9
330
1F
100
AcDbEntity
  8
0
  6
CONTINUOUS
 62
     4
100
AcDbLine
 10
42.597717
 20
129.184326
 30
0.0
 11
42.797717
 21
129.184326
 31
0.0
  0
LINE
  5
1BA
330
1F
100
AcDbEntity
  8
0
  6
CONTINUOUS
 62
     4
100
AcDbLine
 10
42.597717
 20
170.184326
 30
0.0
 11
42.797717
 21
170.184326
 31
0.0
  0
LINE
  5
1BB
330
1F
100
AcDbEntity
  8
0
  6
CONTINUOUS
 62
     4
100
AcDbLine
 10
42.597717
 20
170.184326
 30
0.0
 11
42.597717
 21
129.184326
 31
0.0
  0
LINE
  5
1BC
330
1F
100
AcDbEntity
  8
0
  6
CONTINUOUS
 62
     4
100
AcDbLine
 10
77.597717
 20
129.184326
 30
0.0
 11
77.597717
 21
170.184326
 31
0.0
  0
LINE
  5
1BD
330
1F
100
AcDbEntity
  8
0
  6
CONTINUOUS
 62
     4
100
AcDbLine
 10
42.797717
 20
120.684326
 30
0.0
 11
42.797717
 21
120.184326
 31
0.0
  0
LINE
  5
1BE
330
1F
100
AcDbEntity
  8
0
  6
CONTINUOUS
 62
     4
100
AcDbLine
 10
77.397717
 20
120.684326
 30
0.0
 11
77.397717
 21
120.184326
 31
0.0
  0
LINE
  5
1BF
330
1F
100
AcDbEntity
  8
0
  6
CONTINUOUS
 62
     4
100
AcDbLine
 10
77.397717
 20
178.684326
 30
0.0
 11
77.397717
 21
179.184326
 31
0.0
  0
LINE
  5
1C0
330
1F
100
AcDbEntity
  8
0
  6
CONTINUOUS
 62
     4
100
AcDbLine
 10
42.797717
 20
178.684326
 30
0.0
 11
42.797717
 21
179.184326
 31
0.0
  0
LINE
  5
1C1
330
1F
100
AcDbEntity
  8
0
  6
CONTINUOUS
 62
     4
100
AcDbLine
 10
77.397717
 20
190.184326
 30
0.0
 11
77.397717
 21
189.684326
 31
0.0
  0
LINE
  5
1C2
330
1F
100
AcDbEntity
  8
0
  6
CONTINUOUS
 62
     4
100
AcDbLine
 10
42.797717
 20
190.184326
 30
0.0
 11
42.797717
 21
189.684326
 31
0.0
  0
LINE
  5
1C3
330
1F
100
AcDbEntity
  8
0
  6
CONTINUOUS
 62
     4
100
AcDbLine
 10
77.397717
 20
109.684326
 30
0.0
 11
77.397717
 21
109.184326
 31
0.0
  0
LINE
  5
1C4
330
1F
100
AcDbEntity
  8
0
  6
CONTINUOUS
 62
     4
100
AcDbLine
 10
77.397717
 20
109.184326
 30
0.0
 11
77.397717
 21
107.884326
 31
0.0
  0
LINE
  5
1C5
330
1F
100
AcDbEntity
  8
0
  6
CONTINUOUS
 62
     4
100
AcDbLine
 10
42.797717
 20
109.684326
 30
0.0
 11
42.797717
 21
109.184326
 31
0.0
  0
LINE
  5
1C6
330
1F
100
AcDbEntity
  8
0
  6
CONTINUOUS
 62
     4
100
AcDbLine
 10
42.797717
 20
109.184326
 30
0.0
 11
42.797717
 21
107.884326
 31
0.0
  0
ARC
  5
1C7
330
1F
100
AcDbEntity
  8
0
  6
CONTINUOUS
 62
     4
100
AcDbCircle
 10
77.197717
 20
107.884326
 30
0.0
 40
0.2000000029802322
100
AcDbArc
 50
270.0
 51
0.0
  0
LINE
  5
1C8
330
1F
100
AcDbEntity
  8
0
  6
CONTINUOUS
 62
     4
100
AcDbLine
 10
42.997717
 20
107.684326
 30
0.0
 11
77.197717
 21
107.684326
 31
0.0
  0
ARC
  5
1C9
330
1F
100
AcDbEntity
  8
0
  6
CONTINUOUS
 62
     4
100
AcDbCircle
 10
42.997717
 20
107.884326
 30
0.0
 40
0.2000000029802322
100
AcDbArc
 50
180.0
 51
270.0
  0
LINE
  5
1CA
330
1F
100
AcDbEntity
  8
0
  6
CONTINUOUS
 62
     4
100
AcDbLine
 10
77.397717
 20
120.184326
 30
0.0
 11
77.397717
 21
118.884326
 31
0.0
  0
LINE
  5
1CB
330
1F
100
AcDbEntity
  8
0
  6
CONTINUOUS
 62
     4
100
AcDbLine
 10
42.797717
 20
120.184326
 30
0.0
 11
42.797717
 21
118.884326
 31
0.0
  0
ARC
  5
1CC
330
1F
100
AcDbEntity
  8
0
  6
CONTINUOUS
 62
     1
100
AcDbCircle
 10
-77.197717
 20
118.884326
 30
0.0
 40
0.2000000029802287
210
0.0
220
0.0
230
-1.0
100
AcDbArc
 50
180.0
 51
270.0
  0
LINE
  5
1CD
330
1F
100
AcDbEntity
  8
0
  6
CONTINUOUS
 62
     6
100
AcDbLine
 10
42.997717
 20
118.684326
 30
0.0
 11
77.197717
 21
118.684326
 31
0.0
  0
ARC
  5
1CE
330
1F
100
AcDbEntity
  8
0
  6
CONTINUOUS
 62
     1
100
AcDbCircle
 10
42.997717
 20
118.884326
 30
0.0
 40
0.2000000029802358
100
AcDbArc
 50
180.0
 51
270.0
  0
LINE
  5
1CF
330
1F
100
AcDbEntity
  8
0
  6
CONTINUOUS
 62
     4
100
AcDbLine
 10
77.397717
 20
118.684326
 30
0.0
 11
77.397717
 21
118.884326
 31
0.0
  0
LINE
  5
1D0
330
1F
100
AcDbEntity
  8
0
  6
CONTINUOUS
 62
     4
100
AcDbLine
 10
42.797717
 20
118.684326
 30
0.0
 11
42.797717
 21
118.884326
 31
0.0
  0
LINE
  5
1D1
330
1F
100
AcDbEntity
  8
0
  6
CONTINUOUS
 62
     4
100
AcDbLine
 10
77.397717
 20
127.184326
 30
0.0
 11
77.397717
 21
127.384326
 31
0.0
  0
LINE
  5
1D2
330
1F
100
AcDbEntity
  8
0
  6
CONTINUOUS
 62
     4
100
AcDbLine
 10
42.797717
 20
127.184326
 30
0.0
 11
42.797717
 21
127.384326
 31
0.0
  0
LINE
  5
1D3
330
1F
100
AcDbEntity
  8
0
  6
CONTINUOUS
 62
     4
100
AcDbLine
 10
77.397717
 20
172.184326
 30
0.0
 11
77.397717
 21
171.984326
 31
0.0
  0
LINE
  5
1D4
330
1F
100
AcDbEntity
  8
0
  6
CONTINUOUS
 62
     4
100
AcDbLine
 10
42.797717
 20
172.184326
 30
0.0
 11
42.797717
 21
171.984326
 31
0.0
  0
LINE
  5
1D5
330
1F
100
AcDbEntity
  8
0
  6
CONTINUOUS
 62
     4
100
AcDbLine
 10
77.397717
 20
179.184326
 30
0.0
 11
77.397717
 21
180.484326
 31
0.0
  0
LINE
  5
1D6
330
1F
100
AcDbEntity
  8
0
  6
CONTINUOUS
 62
     4
100
AcDbLine
 10
42.797717
 20
179.184326
 30
0.0
 11
42.797717
 21
180.484326
 31
0.0
  0
LINE
  5
1D7
330
1F
100
AcDbEntity
  8
0
  6
CONTINUOUS
 62
     4
100
AcDbLine
 10
42.797717
 20
190.184326
 30
0.0
 11
42.797717
 21
191.484326
 31
0.0
  0
LINE
  5
1D8
330
1F
100
AcDbEntity
  8
0
  6
CONTINUOUS
 62
     4
100
AcDbLine
 10
77.397717
 20
190.184326
 30
0.0
 11
77.397717
 21
191.484326
 31
0.0
  0
ARC
  5
1D9
330
1F
100
AcDbEntity
  8
0
  6
CONTINUOUS
 62
     6
100
AcDbCircle
 10
77.197717
 20
180.484326
 30
0.0
 40
0.2000000029802322
100
AcDbArc
 50
0.0
 51
90.0
  0
LINE
  5
1DA
330
1F
100
AcDbEntity
  8
0
  6
CONTINUOUS
 62
     6
100
AcDbLine
 10
77.197717
 20
180.684326
 30
0.0
 11
42.997717
 21
180.684326
 31
0.0
  0
ARC
  5
1DB
330
1F
100
AcDbEntity
  8
0
  6
CONTINUOUS
 62
     6
100
AcDbCircle
 10
-42.997717
 20
180.484326
 30
0.0
 40
0.2000000029802322
210
0.0
220
0.0
230
-1.0
100
AcDbArc
 50
0.0
 51
90.0
  0
ARC
  5
1DC
330
1F
100
AcDbEntity
  8
0
  6
CONTINUOUS
 62
     4
100
AcDbCircle
 10
42.997717
 20
191.484326
 30
0.0
 40
0.2000000029802322
100
AcDbArc
 50
90.0
 51
180.0
  0
LINE
  5
1DD
330
1F
100
AcDbEntity
  8
0
  6
CONTINUOUS
 62
     4
100
AcDbLine
 10
77.197717
 20
191.684326
 30
0.0
 11
42.997717
 21
191.684326
 31
0.0
  0
ARC
  5
1DE
330
1F
100
AcDbEntity
  8
0
  6
CONTINUOUS
 62
     4
100
AcDbCircle
 10
-77.197717
 20
191.484326
 30
0.0
 40
0.2000000029802322
210
0.0
220
0.0
230
-1.0
100
AcDbArc
 50
90.0
 51
180.0
  0
LINE
  5
1DF
330
1F
100
AcDbEntity
  8
0
  6
CONTINUOUS
 62
     4
100
AcDbLine
 10
77.597717
 20
109.684326
 30
0.0
 11
77.597717
 21
118.684326
 31
0.0
  0
LINE
  5
1E0
330
1F
100
AcDbEntity
  8
0
  6
CONTINUOUS
 62
     4
100
AcDbLine
 10
77.597717
 20
120.684326
 30
0.0
 11
77.597717
 21
127.184326
 31
0.0
  0
LINE
  5
1E1
330
1F
100
AcDbEntity
  8
0
  6
CONTINUOUS
 62
     4
100
AcDbLine
 10
42.597717
 20
118.684326
 30
0.0
 11
42.597717
 21
109.684326
 31
0.0
  0
LINE
  5
1E2
330
1F
100
AcDbEntity
  8
0
  6
CONTINUOUS
 62
     4
100
AcDbLine
 10
42.597717
 20
127.184326
 30
0.0
 11
42.597717
 21
120.684326
 31
0.0
  0
LINE
  5
1E3
330
1F
100
AcDbEntity
  8
0
  6
CONTINUOUS
 62
     4
100
AcDbLine
 10
42.597717
 20
178.684326
 30
0.0
 11
42.597717
 21
172.184326
 31
0.0
  0
LINE
  5
1E4
330
1F
100
AcDbEntity
  8
0
  6
CONTINUOUS
 62
     4
100
AcDbLine
 10
77.597717
 20
172.184326
 30
0.0
 11
77.597717
 21
178.684326
 31
0.0
  0
LINE
  5
1E5
330
1F
100
AcDbEntity
  8
0
  6
CONTINUOUS
 62
     4
100
AcDbLine
 10
77.597717
 20
180.684326
 30
0.0
 11
77.597717
 21
189.684326
 31
0.0
  0
LINE
  5
1E6
330
1F
100
AcDbEntity
  8
0
  6
CONTINUOUS
 62
     4
100
AcDbLine
 10
42.597717
 20
189.684326
 30
0.0
 11
42.597717
 21
180.684326
 31
0.0
  0
LINE
  5
1E7
330
1F
100
AcDbEntity
  8
0
  6
CONTINUOUS
 62
     6
100
AcDbLine
 10
77.397717
 20
180.684326
 30
0.0
 11
77.197717
 21
180.684326
 31
0.0
  0
LINE
  5
1E8
330
1F
100
AcDbEntity
  8
0
  6
CONTINUOUS
 62
     6
100
AcDbLine
 10
42.797717
 20
180.684326
 30
0.0
 11
42.997717
 21
180.684326
 31
0.0
  0
LINE
  5
1E9
330
1F
100
AcDbEntity
  8
0
  6
CONTINUOUS
 62
     4
100
AcDbLine
 10
77.397717
 20
109.684326
 30
0.0
 11
77.597717
 21
109.684326
 31
0.0
  0
LINE
  5
1EA
330
1F
100
AcDbEntity
  8
0
  6
CONTINUOUS
 62
     4
100
AcDbLine
 10
77.397717
 20
118.684326
 30
0.0
 11
77.597717
 21
118.684326
 31
0.0
  0
LINE
  5
1EB
330
1F
100
AcDbEntity
  8
0
  6
CONTINUOUS
 62
     4
100
AcDbLine
 10
77.397717
 20
120.684326
 30
0.0
 11
77.597717
 21
120.684326
 31
0.0
  0
LINE
  5
1EC
330
1F
100
AcDbEntity
  8
0
  6
CONTINUOUS
 62
     4
100
AcDbLine
 10
77.397717
 20
127.184326
 30
0.0
 11
77.597717
 21
127.184326
 31
0.0
  0
LINE
  5
1ED
330
1F
100
AcDbEntity
  8
0
  6
CONTINUOUS
 62
     4
100
AcDbLine
 10
42.797717
 20
118.684326
 30
0.0
 11
42.597717
 21
118.684326
 31
0.0
  0
LINE
  5
1EE
330
1F
100
AcDbEntity
  8
0
  6
CONTINUOUS
 62
     4
100
AcDbLine
 10
42.797717
 20
109.684326
 30
0.0
 11
42.597717
 21
109.684326
 31
0.0
  0
LINE
  5
1EF
330
1F
100
AcDbEntity
  8
0
  6
CONTINUOUS
 62
     4
100
AcDbLine
 10
42.797717
 20
127.184326
 30
0.0
 11
42.597717
 21
127.184326
 31
0.0
  0
LINE
  5
1F0
330
1F
100
AcDbEntity
  8
0
  6
CONTINUOUS
 62
     4
100
AcDbLine
 10
42.797717
 20
120.684326
 30
0.0
 11
42.597717
 21
120.684326
 31
0.0
  0
LINE
  5
1F1
330
1F
100
AcDbEntity
  8
0
  6
CONTINUOUS
 62
     4
100
AcDbLine
 10
42.797717
 20
178.684326
 30
0.0
 11
42.597717
 21
178.684326
 31
0.0
  0
LINE
  5
1F2
330
1F
100
AcDbEntity
  8
0
  6
CONTINUOUS
 62
     4
100
AcDbLine
 10
42.797717
 20
172.184326
 30
0.0
 11
42.597717
 21
172.184326
 31
0.0
  0
LINE
  5
1F3
330
1F
100
AcDbEntity
  8
0
  6
CONTINUOUS
 62
     4
100
AcDbLine
 10
77.397717
 20
172.184326
 30
0.0
 11
77.597717
 21
172.184326
 31
0.0
  0
LINE
  5
1F4
330
1F
100
AcDbEntity
  8
0
  6
CONTINUOUS
 62
     4
100
AcDbLine
 10
77.397717
 20
178.684326
 30
0.0
 11
77.597717
 21
178.684326
 31
0.0
  0
LINE
  5
1F5
330
1F
100
AcDbEntity
  8
0
  6
CONTINUOUS
 62
     4
100
AcDbLine
 10
77.397717
 20
180.684326
 30
0.0
 11
77.597717
 21
180.684326
 31
0.0
  0
LINE
  5
1F6
330
1F
100
AcDbEntity
  8
0
  6
CONTINUOUS
 62
     4
100
AcDbLine
 10
77.397717
 20
189.684326
 30
0.0
 11
77.597717
 21
189.684326
 31
0.0
  0
LINE
  5
1F7
330
1F
100
AcDbEntity
  8
0
  6
CONTINUOUS
 62
     4
100
AcDbLine
 10
42.797717
 20
189.684326
 30
0.0
 11
42.597717
 21
189.684326
 31
0.0
  0
LINE
  5
1F8
330
1F
100
AcDbEntity
  8
0
  6
CONTINUOUS
 62
     4
100
AcDbLine
 10
42.797717
 20
180.684326
 30
0.0
 11
42.597717
 21
180.684326
 31
0.0
  0
LINE
  5
1F9
330
1F
100
AcDbEntity
  8
0
  6
CONTINUOUS
 62
     4
100
AcDbLine
 10
77.397717
 20
180.684326
 30
0.0
 11
77.397717
 21
180.484326
 31
0.0
  0
LINE
  5
1FA
330
1F
100
AcDbEntity
  8
0
  6
CONTINUOUS
 62
     4
100
AcDbLine
 10
77.397717
 20
191.684326
 30
0.0
 11
77.397717
 21
191.484326
 31
0.0
  0
LINE
  5
1FB
330
1F
100
AcDbEntity
  8
0
  6
CONTINUOUS
 62
     4
100
AcDbLine
 10
77.397717
 20
107.684326
 30
0.0
 11
77.197717
 21
107.684326
 31
0.0
  0
LINE
  5
1FC
330
1F
100
AcDbEntity
  8
0
  6
CONTINUOUS
 62
     4
100
AcDbLine
 10
42.997717
 20
191.684326
 30
0.0
 11
42.797717
 21
191.684326
 31
0.0
  0
LINE
  5
1FD
330
1F
100
AcDbEntity
  8
0
  6
CONTINUOUS
 62
     4
100
AcDbLine
 10
77.397717
 20
191.684326
 30
0.0
 11
77.197717
 21
191.684326
 31
0.0
  0
LINE
  5
1FE
330
1F
100
AcDbEntity
  8
0
  6
CONTINUOUS
 62
     4
100
AcDbLine
 10
42.997717
 20
107.684326
 30
0.0
 11
42.797717
 21
107.684326
 31
0.0
  0
LINE
  5
1FF
330
1F
100
AcDbEntity
  8
0
  6
CONTINUOUS
 62
     4
100
AcDbLine
 10
42.797717
 20
107.684326
 30
0.0
 11
42.797717
 21
107.884326
 31
0.0
  0
LINE
  5
200
330
1F
100
AcDbEntity
  8
0
  6
CONTINUOUS
 62
     4
100
AcDbLine
 10
42.797717
 20
191.484326
 30
0.0
 11
42.797717
 21
191.684326
 31
0.0
  0
LINE
  5
201
330
1F
100
AcDbEntity
  8
0
  6
CONTINUOUS
 62
     4
100
AcDbLine
 10
42.797717
 20
180.484326
 30
0.0
 11
42.797717
 21
180.684326
 31
0.0
  0
LINE
  5
202
330
1F
100
AcDbEntity
  8
0
  6
CONTINUOUS
 62
     4
100
AcDbLine
 10
77.397717
 20
107.684326
 30
0.0
 11
77.397717
 21
107.884326
 31
0.0
  0
LINE
  5
203
330
1F
100
AcDbEntity
  8
0
  6
CONTINUOUS
 62
     6
100
AcDbLine
 10
46.972717
 20
165.984326
 30
0.0
 11
73.222717
 21
165.984326
 31
0.0
  0
LINE
  5
204
330
1F
100
AcDbEntity
  8
0
  6
CONTINUOUS
 62
     5
100
AcDbLine
 10
46.172717
 20
166.784326
 30
0.0
 11
74.022717
 21
166.784326
 31
0.0
  0
LINE
  5
205
330
1F
100
AcDbEntity
  8
0
  6
CONTINUOUS
 62
     6
100
AcDbLine
 10
73.222717
 20
165.984326
 30
0.0
 11
73.222717
 21
142.984326
 31
0.0
  0
LINE
  5
206
330
1F
100
AcDbEntity
  8
0
  6
CONTINUOUS
 62
     5
100
AcDbLine
 10
74.022717
 20
166.784326
 30
0.0
 11
74.022717
 21
142.184326
 31
0.0
  0
LINE
  5
207
330
1F
100
AcDbEntity
  8
0
  6
CONTINUOUS
 62
     6
100
AcDbLine
 10
46.972717
 20
142.984326
 30
0.0
 11
46.972717
 21
165.984326
 31
0.0
  0
LINE
  5
208
330
1F
100
AcDbEntity
  8
0
  6
CONTINUOUS
 62
     5
100
AcDbLine
 10
46.172717
 20
142.184326
 30
0.0
 11
46.172717
 21
166.784326
 31
0.0
  0
LINE
  5
209
330
1F
100
AcDbEntity
  8
0
  6
CONTINUOUS
 62
     6
100
AcDbLine
 10
46.972717
 20
142.984326
 30
0.0
 11
73.222717
 21
142.984326
 31
0.0
  0
LINE
  5
20A
330
1F
100
AcDbEntity
  8
0
  6
CONTINUOUS
 62
     5
100
AcDbLine
 10
46.172717
 20
142.184326
 30
0.0
 11
74.022717
 21
142.184326
 31
0.0
  0
LINE
  5
20B
330
1F
100
AcDbEntity
  8
0
  6
CONTINUOUS
 62
     6
100
AcDbLine
 10
46.972717
 20
165.984326
 30
0.0
 11
46.172717
 21
166.784326
 31
0.0
  0
LINE
  5
20C
330
1F
100
AcDbEntity
  8
0
  6
CONTINUOUS
 62
     6
100
AcDbLine
 10
73.222717
 20
165.984326
 30
0.0
 11
74.022717
 21
166.784326
 31
0.0
  0
LINE
  5
20D
330
1F
100
AcDbEntity
  8
0
  6
CONTINUOUS
 62
     6
100
AcDbLine
 10
73.222717
 20
142.984326
 30
0.0
 11
74.022717
 21
142.184326
 31
0.0
  0
LINE
  5
20E
330
1F
100
AcDbEntity
  8
0
  6
CONTINUOUS
 62
     6
100
AcDbLine
 10
46.972717
 20
142.984326
 30
0.0
 11
46.172717
 21
142.184326
 31
0.0
  0
ARC
  5
20F
330
1F
100
AcDbEntity
  8
0
  6
CONTINUOUS
 62
     5
100
AcDbCircle
 10
-60.097717
 20
133.084326
 30
0.0
 40
4.079906275275002
210
0.0
220
0.0
230
-1.0
100
AcDbArc
 50
0.0
 51
180.0
  0
ARC
  5
210
330
1F
100
AcDbEntity
  8
0
  6
CONTINUOUS
 62
     5
100
AcDbCircle
 10
-60.097717
 20
133.084326
 30
0.0
 40
4.079906275275002
210
0.0
220
0.0
230
-1.0
100
AcDbArc
 50
180.0
 51
0.0
  0
SPLINE
  5
211
330
1F
100
AcDbEntity
  8
0
  6
CONTINUOUS
 62
     5
100
AcDbSpline
210
0.0
220
0.0
230
1.0
 70
     8
 71
     3
 72
    15
 73
    11
 74
     0
 42
0.0
 43
0.0
 40
0.0
 40
0.0
 40
0.0
 40
0.0
 40
0.2548888983401401
 40
0.4418204447620601
 40
0.8438542710384954
 40
1.132479194604226
 40
1.848518630604012
 40
2.505361746189563
 40
3.191428786761664
 40
3.877495827333766
 40
3.877495827333766
 40
3.877495827333766
 40
3.877495827333766
 10
56.35739641946134
 20
128.184326171875
 30
0.0
 10
56.41941647193084
 20
128.0896425413183
 30
0.0
 10
56.53689319226669
 20
127.9539322024315
 30
0.0
 10
56.77167509045159
 20
127.7491854241146
 30
0.0
 10
57.02478380304444
 20
127.592408654908
 30
0.0
 10
57.43715946428779
 20
127.4072062250793
 30
0.0
 10
57.93222114954438
 20
127.2774626471588
 30
0.0
 10
58.5523449864877
 20
127.204942266303
 30
0.0
 10
59.16864003752016
 20
127.1843803265013
 30
0.0
 10
59.58782374402676
 20
127.184326171875
 30
0.0
 10
59.79771886573303
 20
127.184326171875
 30
0.0
  0
LINE
  5
212
330
1F
100
AcDbEntity
  8
0
  6
CONTINUOUS
 62
     6
100
AcDbLine
 10
59.797717
 20
127.184326
 30
0.0
 11
60.397717
 21
127.184326
 31
0.0
  0
SPLINE
  5
213
330
1F
100
AcDbEntity
  8
0
  6
CONTINUOUS
 62
     5
100
AcDbSpline
210
0.0
220
0.0
230
1.0
 70
     8
 71
     3
 72
    15
 73
    11
 74
     0
 42
0.0
 43
0.0
 40
0.0
 40
0.0
 40
0.0
 40
0.0
 40
0.7501687151095213
 40
1.500337430219043
 40
2.179361277083833
 40
2.756286828067964
 40
3.046557555908745
 40
3.452613184153846
 40
3.656750831294607
 40
3.877488165808786
 40
3.877488165808786
 40
3.877488165808786
 40
3.877488165808786
 10
60.39771565628143
 20
127.184326171875
 30
0.0
 10
60.62722333977626
 20
127.184326171875
 30
0.0
 10
61.08549104598649
 20
127.1842549501238
 30
0.0
 10
61.74682810324339
 20
127.2111660487891
 30
0.0
 10
62.34989809850208
 20
127.2958831132198
 30
0.0
 10
62.80957255670137
 20
127.4291344887776
 30
0.0
 10
63.18263986332954
 20
127.5986833588894
 30
0.0
 10
63.44207910364173
 20
127.7617293903103
 30
0.0
 10
63.67244235214764
 20
127.9683850367337
 30
0.0
 10
63.78432756611346
 20
128.1023283591525
 30
0.0
 10
63.83803810316738
 20
128.184326171875
 30
0.0
  0
ARC
  5
214
330
1F
100
AcDbEntity
  8
0
  6
CONTINUOUS
 62
     5
100
AcDbCircle
 10
-60.097717
 20
133.084326
 30
0.0
 40
6.164414002968977
210
0.0
220
0.0
230
-1.0
100
AcDbArc
 50
307.355608
 51
180.0
  0
ARC
  5
215
330
1F
100
AcDbEntity
  8
0
  6
CONTINUOUS
 62
     5
100
AcDbCircle
 10
-60.097717
 20
133.084326
 30
0.0
 40
6.164414002968975
210
0.0
220
0.0
230
-1.0
100
AcDbArc
 50
180.0
 51
232.644392
  0
ARC
  5
216
330
1F
100
AcDbEntity
  8
0
  6
CONTINUOUS
 62
     6
100
AcDbCircle
 10
60.097717
 20
133.084326
 30
0.0
 40
3.318988683377881
100
AcDbArc
 50
180.0
 51
90.0
  0
ARC
  5
217
330
1F
100
AcDbEntity
  8
0
  6
CONTINUOUS
 62
     6
100
AcDbCircle
 10
60.097717
 20
133.084326
 30
0.0
 40
3.318988683377881
100
AcDbArc
 50
90.0
 51
180.0
  0
LINE
  5
218
330
1F
100
AcDbEntity
  8
0
  6
CONTINUOUS
 62
     4
100
AcDbLine
 10
77.397717
 20
171.184326
 30
0.0
 11
77.397717
 21
171.984326
 31
0.0
  0
LINE
  5
219
330
1F
100
AcDbEntity
  8
0
  6
CONTINUOUS
 62
     4
100
AcDbLine
 10
77.397717
 20
129.184326
 30
0.0
 11
77.397717
 21
128.184326
 31
0.0
  0
LINE
  5
21A
330
1F
100
AcDbEntity
  8
0
  6
CONTINUOUS
 62
     4
100
AcDbLine
 10
77.397717
 20
127.384326
 30
0.0
 11
77.397717
 21
128.184326
 31
0.0
  0
LINE
  5
21B
330
1F
100
AcDbEntity
  8
0
  6
CONTINUOUS
 62
     4
100
AcDbLine
 10
42.797717
 20
127.384326
 30
0.0
 11
42.797717
 21
128.184326
 31
0.0
  0
LINE
  5
21C
330
1F
100
AcDbEntity
  8
0
  6
CONTINUOUS
 62
     4
100
AcDbLine
 10
42.797717
 20
170.184326
 30
0.0
 11
42.797717
 21
171.184326
 31
0.0
  0
LINE
  5
21D
330
1F
100
AcDbEntity
  8
0
  6
CONTINUOUS
 62
     4
100
AcDbLine
 10
42.797717
 20
171.184326
 30
0.0
 11
42.797717
 21
171.984326
 31
0.0
  0
ARC
  5
21E
330
1F
100
AcDbEntity
  8
0
  6
CONTINUOUS
 62
     6
100
AcDbCircle
 10
77.197717
 20
171.984326
 30
0.0
 40
0.2000000029802358
100
AcDbArc
 50
0.0
 51
90.0
  0
LINE
  5
21F
330
1F
100
AcDbEntity
  8
0
  6
CONTINUOUS
 62
     6
100
AcDbLine
 10
60.397717
 20
127.184326
 30
0.0
 11
77.197717
 21
127.184326
 31
0.0
  0
ARC
  5
220
330
1F
100
AcDbEntity
  8
0
  6
CONTINUOUS
 62
     1
100
AcDbCircle
 10
-77.197717
 20
127.384326
 30
0.0
 40
0.2000000029802351
210
0.0
220
0.0
230
-1.0
100
AcDbArc
 50
180.0
 51
270.0
  0
LINE
  5
221
330
1F
100
AcDbEntity
  8
0
  6
CONTINUOUS
 62
     6
100
AcDbLine
 10
42.997717
 20
127.184326
 30
0.0
 11
59.797719
 21
127.184326
 31
0.0
  0
ARC
  5
222
330
1F
100
AcDbEntity
  8
0
  6
CONTINUOUS
 62
     1
100
AcDbCircle
 10
-42.997717
 20
127.384326
 30
0.0
 40
0.2000000029802322
210
0.0
220
0.0
230
-1.0
100
AcDbArc
 50
270.0
 51
0.0
  0
LINE
  5
223
330
1F
100
AcDbEntity
  8
0
  6
CONTINUOUS
 62
     6
100
AcDbLine
 10
77.197717
 20
172.184326
 30
0.0
 11
42.997717
 21
172.184326
 31
0.0
  0
ARC
  5
224
330
1F
100
AcDbEntity
  8
0
  6
CONTINUOUS
 62
     6
100
AcDbCircle
 10
42.997717
 20
171.984326
 30
0.0
 40
0.2000000029802322
100
AcDbArc
 50
90.0
 51
180.0
  0
ARC
  5
225
330
1F
100
AcDbEntity
  8
0
  6
CONTINUOUS
 62
     4
100
AcDbCircle
 10
-64.847717
 20
105.134326
 30
0.0
 40
0.7999999849599999
210
0.0
220
0.0
230
-1.0
100
AcDbArc
 50
180.0
 51
270.0
  0
LINE
  5
226
330
1F
100
AcDbEntity
  8
0
  6
CONTINUOUS
 62
     4
100
AcDbLine
 10
64.847717
 20
104.334326
 30
0.0
 11
63.620811
 21
104.334326
 31
0.0
  0
LINE
  5
227
330
1F
100
AcDbEntity
  8
0
  6
CONTINUOUS
 62
     4
100
AcDbLine
 10
63.620811
 20
104.334326
 30
0.0
 11
61.687876
 21
103.249913
 31
0.0
  0
ARC
  5
228
330
1F
100
AcDbEntity
  8
0
  6
CONTINUOUS
 62
     4
100
AcDbCircle
 10
-60.097717
 20
106.084326
 30
0.0
 40
3.249999938900002
210
0.0
220
0.0
230
-1.0
100
AcDbArc
 50
240.706755
 51
299.621837
  0
LINE
  5
229
330
1F
100
AcDbEntity
  8
0
  6
CONTINUOUS
 62
     4
100
AcDbLine
 10
58.49133
 20
103.259079
 30
0.0
 11
56.600233
 21
104.334326
 31
0.0
  0
LINE
  5
22A
330
1F
100
AcDbEntity
  8
0
  6
CONTINUOUS
 62
     4
100
AcDbLine
 10
56.600233
 20
104.334326
 30
0.0
 11
55.347718
 21
104.334326
 31
0.0
  0
ARC
  5
22B
330
1F
100
AcDbEntity
  8
0
  6
CONTINUOUS
 62
     4
100
AcDbCircle
 10
-55.347718
 20
105.134326
 30
0.0
 40
0.7999999849600017
210
0.0
220
0.0
230
-1.0
100
AcDbArc
 50
270.0
 51
0.0
  0
LINE
  5
22C
330
1F
100
AcDbEntity
  8
0
  6
CONTINUOUS
 62
     6
100
AcDbLine
 10
63.597717
 20
106.834326
 30
0.0
 11
62.219038
 21
106.834326
 31
0.0
  0
ARC
  5
22D
330
1F
100
AcDbEntity
  8
0
  6
CONTINUOUS
 62
     6
100
AcDbCircle
 10
60.097718
 20
106.084326
 30
0.0
 40
2.249999957700001
100
AcDbArc
 50
134.674608
 51
160.528779
  0
ARC
  5
22E
330
1F
100
AcDbEntity
  8
0
  6
CONTINUOUS
 62
     6
100
AcDbCircle
 10
60.097718
 20
106.084326
 30
0.0
 40
2.249999957700001
100
AcDbArc
 50
19.471215
 51
43.688123
  0
LINE
  5
22F
330
1F
100
AcDbEntity
  8
0
  6
CONTINUOUS
 62
     6
100
AcDbLine
 10
57.976398
 20
106.834326
 30
0.0
 11
56.597717
 21
106.834326
 31
0.0
  0
LINE
  5
230
330
1F
100
AcDbEntity
  8
0
  6
CONTINUOUS
 62
     6
100
AcDbLine
 10
56.597717
 20
106.834326
 30
0.0
 11
56.597717
 21
105.334326
 31
0.0
  0
LINE
  5
231
330
1F
100
AcDbEntity
  8
0
  6
CONTINUOUS
 62
     6
100
AcDbLine
 10
56.597717
 20
105.334326
 30
0.0
 11
57.976397
 21
105.334326
 31
0.0
  0
ARC
  5
232
330
1F
100
AcDbEntity
  8
0
  6
CONTINUOUS
 62
     6
100
AcDbCircle
 10
60.097717
 20
106.084326
 30
0.0
 40
2.249999957700001
100
AcDbArc
 50
199.471224
 51
340.528779
  0
LINE
  5
233
330
1F
100
AcDbEntity
  8
0
  6
CONTINUOUS
 62
     6
100
AcDbLine
 10
62.219038
 20
105.334326
 30
0.0
 11
63.597717
 21
105.334326
 31
0.0
  0
LINE
  5
234
330
1F
100
AcDbEntity
  8
0
  6
CONTINUOUS
 62
     6
100
AcDbLine
 10
63.597717
 20
105.334326
 30
0.0
 11
63.597717
 21
106.834326
 31
0.0
  0
LINE
  5
235
330
1F
100
AcDbEntity
  8
0
  6
CONTINUOUS
 62
     4
100
AcDbLine
 10
65.647717
 20
107.684326
 30
0.0
 11
65.647717
 21
105.134326
 31
0.0
  0
LINE
  5
236
330
1F
100
AcDbEntity
  8
0
  6
CONTINUOUS
 62
     4
100
AcDbLine
 10
54.547718
 20
107.684326
 30
0.0
 11
54.547718
 21
105.134326
 31
0.0
  0
LINE
  5
237
330
1F
100
AcDbEntity
  8
0
  6
CONTINUOUS
 62
     5
100
AcDbLine
 10
53.708413
 20
185.336181
 30
0.0
 11
54.55073
 21
185.459309
 31
0.0
  0
LINE
  5
238
330
1F
100
AcDbEntity
  8
0
  6
CONTINUOUS
 62
     5
100
AcDbLine
 10
54.55073
 20
185.459309
 30
0.0
 11
54.363064
 21
186.743127
 31
0.0
  0
LINE
  5
239
330
1F
100
AcDbEntity
  8
0
  6
CONTINUOUS
 62
     5
100
AcDbLine
 10
54.363064
 20
186.743127
 30
0.0
 11
53.520747
 21
186.619998
 31
0.0
  0
LINE
  5
23A
330
1F
100
AcDbEntity
  8
0
  6
CONTINUOUS
 62
     5
100
AcDbLine
 10
53.520747
 20
186.619998
 30
0.0
 11
53.397618
 21
187.462316
 31
0.0
  0
LINE
  5
23B
330
1F
100
AcDbEntity
  8
0
  6
CONTINUOUS
 62
     5
100
AcDbLine
 10
52.113801
 20
187.27465
 30
0.0
 11
52.236929
 21
186.432333
 31
0.0
  0
LINE
  5
23C
330
1F
100
AcDbEntity
  8
0
  6
CONTINUOUS
 62
     5
100
AcDbLine
 10
52.236929
 20
186.432333
 30
0.0
 11
51.394612
 21
186.309204
 31
0.0
  0
LINE
  5
23D
330
1F
100
AcDbEntity
  8
0
  6
CONTINUOUS
 62
     5
100
AcDbLine
 10
51.394612
 20
186.309204
 30
0.0
 11
51.582277
 21
185.025387
 31
0.0
  0
LINE
  5
23E
330
1F
100
AcDbEntity
  8
0
  6
CONTINUOUS
 62
     5
100
AcDbLine
 10
51.582277
 20
185.025387
 30
0.0
 11
52.424595
 21
185.148515
 31
0.0
  0
LINE
  5
23F
330
1F
100
AcDbEntity
  8
0
  6
CONTINUOUS
 62
     5
100
AcDbLine
 10
52.424595
 20
185.148515
 30
0.0
 11
52.547723
 21
184.306197
 31
0.0
  0
LINE
  5
240
330
1F
100
AcDbEntity
  8
0
  6
CONTINUOUS
 62
     5
100
AcDbLine
 10
53.831541
 20
184.493863
 30
0.0
 11
53.708413
 21
185.336181
 31
0.0
  0
LINE
  5
241
330
1F
100
AcDbEntity
  8
0
  6
CONTINUOUS
 62
     5
100
AcDbLine
 10
53.708413
 20
185.336181
 30
0.0
 11
53.539733
 21
185.461835
 31
0.0
  0
LINE
  5
242
330
1F
100
AcDbEntity
  8
0
  6
CONTINUOUS
 62
     5
100
AcDbLine
 10
53.569714
 20
185.256738
 30
0.0
 11
53.539733
 21
185.461835
 31
0.0
  0
LINE
  5
243
330
1F
100
AcDbEntity
  8
0
  6
CONTINUOUS
 62
     5
100
AcDbLine
 10
53.831541
 20
184.493863
 30
0.0
 11
53.569714
 21
185.256738
 31
0.0
  0
LINE
  5
244
330
1F
100
AcDbEntity
  8
0
  6
CONTINUOUS
 62
     5
100
AcDbLine
 10
54.55073
 20
185.459309
 30
0.0
 11
53.744831
 21
185.491816
 31
0.0
  0
LINE
  5
245
330
1F
100
AcDbEntity
  8
0
  6
CONTINUOUS
 62
     5
100
AcDbLine
 10
53.539733
 20
185.461835
 30
0.0
 11
53.744831
 21
185.491816
 31
0.0
  0
LINE
  5
246
330
1F
100
AcDbEntity
  8
0
  6
CONTINUOUS
 62
     5
100
AcDbLine
 10
54.363064
 20
186.743127
 30
0.0
 11
53.60019
 21
186.4813
 31
0.0
  0
LINE
  5
247
330
1F
100
AcDbEntity
  8
0
  6
CONTINUOUS
 62
     5
100
AcDbLine
 10
53.744831
 20
185.491816
 30
0.0
 11
53.60019
 21
186.4813
 31
0.0
  0
LINE
  5
248
330
1F
100
AcDbEntity
  8
0
  6
CONTINUOUS
 62
     5
100
AcDbLine
 10
53.520747
 20
186.619998
 30
0.0
 11
53.395093
 21
186.451319
 31
0.0
  0
LINE
  5
249
330
1F
100
AcDbEntity
  8
0
  6
CONTINUOUS
 62
     5
100
AcDbLine
 10
53.60019
 20
186.4813
 30
0.0
 11
53.395093
 21
186.451319
 31
0.0
  0
LINE
  5
24A
330
1F
100
AcDbEntity
  8
0
  6
CONTINUOUS
 62
     5
100
AcDbLine
 10
53.397618
 20
187.462316
 30
0.0
 11
53.365112
 21
186.656417
 31
0.0
  0
LINE
  5
24B
330
1F
100
AcDbEntity
  8
0
  6
CONTINUOUS
 62
     5
100
AcDbLine
 10
53.395093
 20
186.451319
 30
0.0
 11
53.365112
 21
186.656417
 31
0.0
  0
LINE
  5
24C
330
1F
100
AcDbEntity
  8
0
  6
CONTINUOUS
 62
     5
100
AcDbLine
 10
52.113801
 20
187.27465
 30
0.0
 11
52.375628
 21
186.511776
 31
0.0
  0
LINE
  5
24D
330
1F
100
AcDbEntity
  8
0
  6
CONTINUOUS
 62
     5
100
AcDbLine
 10
53.365112
 20
186.656417
 30
0.0
 11
52.375628
 21
186.511776
 31
0.0
  0
LINE
  5
24E
330
1F
100
AcDbEntity
  8
0
  6
CONTINUOUS
 62
     5
100
AcDbLine
 10
52.236929
 20
186.432333
 30
0.0
 11
52.405608
 21
186.306678
 31
0.0
  0
LINE
  5
24F
330
1F
100
AcDbEntity
  8
0
  6
CONTINUOUS
 62
     5
100
AcDbLine
 10
52.375628
 20
186.511776
 30
0.0
 11
52.405608
 21
186.306678
 31
0.0
  0
LINE
  5
250
330
1F
100
AcDbEntity
  8
0
  6
CONTINUOUS
 62
     5
100
AcDbLine
 10
51.394612
 20
186.309204
 30
0.0
 11
52.200511
 21
186.276698
 31
0.0
  0
LINE
  5
251
330
1F
100
AcDbEntity
  8
0
  6
CONTINUOUS
 62
     5
100
AcDbLine
 10
52.405608
 20
186.306678
 30
0.0
 11
52.200511
 21
186.276698
 31
0.0
  0
LINE
  5
252
330
1F
100
AcDbEntity
  8
0
  6
CONTINUOUS
 62
     5
100
AcDbLine
 10
51.582277
 20
185.025387
 30
0.0
 11
52.345152
 21
185.287213
 31
0.0
  0
LINE
  5
253
330
1F
100
AcDbEntity
  8
0
  6
CONTINUOUS
 62
     5
100
AcDbLine
 10
52.200511
 20
186.276698
 30
0.0
 11
52.345152
 21
185.287213
 31
0.0
  0
LINE
  5
254
330
1F
100
AcDbEntity
  8
0
  6
CONTINUOUS
 62
     5
100
AcDbLine
 10
52.424595
 20
185.148515
 30
0.0
 11
52.550249
 21
185.317194
 31
0.0
  0
LINE
  5
255
330
1F
100
AcDbEntity
  8
0
  6
CONTINUOUS
 62
     5
100
AcDbLine
 10
52.345152
 20
185.287213
 30
0.0
 11
52.550249
 21
185.317194
 31
0.0
  0
LINE
  5
256
330
1F
100
AcDbEntity
  8
0
  6
CONTINUOUS
 62
     5
100
AcDbLine
 10
52.547723
 20
184.306197
 30
0.0
 11
52.58023
 21
185.112097
 31
0.0
  0
LINE
  5
257
330
1F
100
AcDbEntity
  8
0
  6
CONTINUOUS
 62
     5
100
AcDbLine
 10
52.550249
 20
185.317194
 30
0.0
 11
52.58023
 21
185.112097
 31
0.0
  0
LINE
  5
258
330
1F
100
AcDbEntity
  8
0
  6
CONTINUOUS
 62
     5
100
AcDbLine
 10
52.58023
 20
185.112097
 30
0.0
 11
53.569714
 21
185.256738
 31
0.0
  0
LINE
  5
259
330
1F
100
AcDbEntity
  8
0
  6
CONTINUOUS
 62
     5
100
AcDbLine
 10
52.359971
 20
187.310635
 30
0.0
 11
52.113801
 21
187.27465
 31
0.0
  0
LINE
  5
25A
330
1F
100
AcDbEntity
  8
0
  6
CONTINUOUS
 62
     5
100
AcDbLine
 10
53.397618
 20
187.462316
 30
0.0
 11
53.151559
 21
187.426347
 31
0.0
  0
LINE
  5
25B
330
1F
100
AcDbEntity
  8
0
  6
CONTINUOUS
 62
     5
100
AcDbLine
 10
52.547723
 20
184.306197
 30
0.0
 11
52.793894
 21
184.342182
 31
0.0
  0
LINE
  5
25C
330
1F
100
AcDbEntity
  8
0
  6
CONTINUOUS
 62
     5
100
AcDbLine
 10
53.585481
 20
184.457895
 30
0.0
 11
53.831541
 21
184.493863
 31
0.0
  0
LINE
  5
25D
330
1F
100
AcDbEntity
  8
0
  6
CONTINUOUS
 62
     5
100
AcDbLine
 10
52.359971
 20
187.310635
 30
0.0
 11
52.413929
 21
186.941512
 31
0.0
  0
LINE
  5
25E
330
1F
100
AcDbEntity
  8
0
  6
CONTINUOUS
 62
     5
100
AcDbLine
 10
53.151559
 20
187.426347
 30
0.0
 11
53.205516
 21
187.057224
 31
0.0
  0
LINE
  5
25F
330
1F
100
AcDbEntity
  8
0
  6
CONTINUOUS
 62
     5
100
AcDbLine
 10
52.413929
 20
186.941512
 30
0.0
 11
53.205516
 21
187.057224
 31
0.0
  0
LINE
  5
260
330
1F
100
AcDbEntity
  8
0
  6
CONTINUOUS
 62
     5
100
AcDbLine
 10
52.793894
 20
184.342182
 30
0.0
 11
52.739936
 21
184.711305
 31
0.0
  0
LINE
  5
261
330
1F
100
AcDbEntity
  8
0
  6
CONTINUOUS
 62
     5
100
AcDbLine
 10
53.585481
 20
184.457895
 30
0.0
 11
53.531524
 21
184.827018
 31
0.0
  0
LINE
  5
262
330
1F
100
AcDbEntity
  8
0
  6
CONTINUOUS
 62
     5
100
AcDbLine
 10
52.739936
 20
184.711305
 30
0.0
 11
53.531524
 21
184.827018
 31
0.0
  0
ARC
  5
263
330
1F
100
AcDbEntity
  8
0
  6
CONTINUOUS
 62
     5
100
AcDbCircle
 10
-52.972717
 20
185.884326
 30
0.0
 40
2.3
210
0.0
220
0.0
230
-1.0
100
AcDbArc
 50
71.668108
 51
81.683513
  0
ARC
  5
264
330
1F
100
AcDbEntity
  8
0
  6
CONTINUOUS
 62
     5
100
AcDbCircle
 10
-52.972717
 20
185.884326
 30
0.0
 40
2.3
210
0.0
220
0.0
230
-1.0
100
AcDbArc
 50
261.683528
 51
271.698928
  0
ARC
  5
265
330
1F
100
AcDbEntity
  8
0
  6
CONTINUOUS
 62
     5
100
AcDbCircle
 10
52.972717
 20
185.884326
 30
0.0
 40
2.3
100
AcDbArc
 50
88.301072
 51
98.316487
  0
ARC
  5
266
330
1F
100
AcDbEntity
  8
0
  6
CONTINUOUS
 62
     5
100
AcDbCircle
 10
52.972717
 20
185.884326
 30
0.0
 40
2.3
100
AcDbArc
 50
278.316472
 51
288.331892
  0
ARC
  5
267
330
1F
100
AcDbEntity
  8
0
  6
CONTINUOUS
 62
     5
100
AcDbCircle
 10
52.972717
 20
185.884326
 30
0.0
 40
2.3
100
AcDbArc
 50
288.331892
 51
88.301072
  0
LINE
  5
268
330
1F
100
AcDbEntity
  8
0
  6
CONTINUOUS
 62
     5
100
AcDbLine
 10
53.651948
 20
184.003197
 30
0.0
 11
53.585481
 21
184.457895
 31
0.0
  0
LINE
  5
269
330
1F
100
AcDbEntity
  8
0
  6
CONTINUOUS
 62
     5
100
AcDbLine
 10
53.151559
 20
187.426347
 30
0.0
 11
53.085074
 21
187.881168
 31
0.0
  0
ARC
  5
26A
330
1F
100
AcDbEntity
  8
0
  6
CONTINUOUS
 62
     5
100
AcDbCircle
 10
-52.972717
 20
185.884326
 30
0.0
 40
2.3
210
0.0
220
0.0
230
-1.0
100
AcDbArc
 50
271.698928
 51
71.668108
  0
LINE
  5
26B
330
1F
100
AcDbEntity
  8
0
  6
CONTINUOUS
 62
     5
100
AcDbLine
 10
52.793894
 20
184.342182
 30
0.0
 11
52.860361
 21
183.887485
 31
0.0
  0
LINE
  5
26C
330
1F
100
AcDbEntity
  8
0
  6
CONTINUOUS
 62
     5
100
AcDbLine
 10
52.293487
 20
187.765455
 30
0.0
 11
52.359971
 21
187.310635
 31
0.0
  0
LINE
  5
26D
330
1F
100
AcDbEntity
  8
0
  6
CONTINUOUS
 62
     5
100
AcDbLine
 10
53.651948
 20
184.003197
 30
0.0
 11
53.696115
 21
183.70105
 31
0.0
  0
LINE
  5
26E
330
1F
100
AcDbEntity
  8
0
  6
CONTINUOUS
 62
     5
100
AcDbLine
 10
53.085074
 20
187.881168
 30
0.0
 11
53.040907
 21
188.183315
 31
0.0
  0
LINE
  5
26F
330
1F
100
AcDbEntity
  8
0
  6
CONTINUOUS
 62
     5
100
AcDbLine
 10
52.860361
 20
183.887485
 30
0.0
 11
52.904528
 21
183.585337
 31
0.0
  0
LINE
  5
270
330
1F
100
AcDbEntity
  8
0
  6
CONTINUOUS
 62
     5
100
AcDbLine
 10
52.249319
 20
188.067602
 30
0.0
 11
52.293487
 21
187.765455
 31
0.0
  0
LINE
  5
271
330
1F
100
AcDbEntity
  8
0
  6
CONTINUOUS
 62
     5
100
AcDbLine
 10
47.708413
 20
185.336181
 30
0.0
 11
48.55073
 21
185.459309
 31
0.0
  0
LINE
  5
272
330
1F
100
AcDbEntity
  8
0
  6
CONTINUOUS
 62
     5
100
AcDbLine
 10
48.55073
 20
185.459309
 30
0.0
 11
48.363064
 21
186.743127
 31
0.0
  0
LINE
  5
273
330
1F
100
AcDbEntity
  8
0
  6
CONTINUOUS
 62
     5
100
AcDbLine
 10
48.363064
 20
186.743127
 30
0.0
 11
47.520747
 21
186.619998
 31
0.0
  0
LINE
  5
274
330
1F
100
AcDbEntity
  8
0
  6
CONTINUOUS
 62
     5
100
AcDbLine
 10
47.520747
 20
186.619998
 30
0.0
 11
47.397618
 21
187.462316
 31
0.0
  0
LINE
  5
275
330
1F
100
AcDbEntity
  8
0
  6
CONTINUOUS
 62
     5
100
AcDbLine
 10
46.113801
 20
187.27465
 30
0.0
 11
46.236929
 21
186.432333
 31
0.0
  0
LINE
  5
276
330
1F
100
AcDbEntity
  8
0
  6
CONTINUOUS
 62
     5
100
AcDbLine
 10
46.236929
 20
186.432333
 30
0.0
 11
45.394612
 21
186.309204
 31
0.0
  0
LINE
  5
277
330
1F
100
AcDbEntity
  8
0
  6
CONTINUOUS
 62
     5
100
AcDbLine
 10
45.394612
 20
186.309204
 30
0.0
 11
45.582277
 21
185.025387
 31
0.0
  0
LINE
  5
278
330
1F
100
AcDbEntity
  8
0
  6
CONTINUOUS
 62
     5
100
AcDbLine
 10
45.582277
 20
185.025387
 30
0.0
 11
46.424595
 21
185.148515
 31
0.0
  0
LINE
  5
279
330
1F
100
AcDbEntity
  8
0
  6
CONTINUOUS
 62
     5
100
AcDbLine
 10
46.424595
 20
185.148515
 30
0.0
 11
46.547723
 21
184.306197
 31
0.0
  0
LINE
  5
27A
330
1F
100
AcDbEntity
  8
0
  6
CONTINUOUS
 62
     5
100
AcDbLine
 10
47.831541
 20
184.493863
 30
0.0
 11
47.708413
 21
185.336181
 31
0.0
  0
LINE
  5
27B
330
1F
100
AcDbEntity
  8
0
  6
CONTINUOUS
 62
     5
100
AcDbLine
 10
47.708413
 20
185.336181
 30
0.0
 11
47.539733
 21
185.461835
 31
0.0
  0
LINE
  5
27C
330
1F
100
AcDbEntity
  8
0
  6
CONTINUOUS
 62
     5
100
AcDbLine
 10
47.569714
 20
185.256738
 30
0.0
 11
47.539733
 21
185.461835
 31
0.0
  0
LINE
  5
27D
330
1F
100
AcDbEntity
  8
0
  6
CONTINUOUS
 62
     5
100
AcDbLine
 10
47.831541
 20
184.493863
 30
0.0
 11
47.569714
 21
185.256738
 31
0.0
  0
LINE
  5
27E
330
1F
100
AcDbEntity
  8
0
  6
CONTINUOUS
 62
     5
100
AcDbLine
 10
48.55073
 20
185.459309
 30
0.0
 11
47.744831
 21
185.491816
 31
0.0
  0
LINE
  5
27F
330
1F
100
AcDbEntity
  8
0
  6
CONTINUOUS
 62
     5
100
AcDbLine
 10
47.539733
 20
185.461835
 30
0.0
 11
47.744831
 21
185.491816
 31
0.0
  0
LINE
  5
280
330
1F
100
AcDbEntity
  8
0
  6
CONTINUOUS
 62
     5
100
AcDbLine
 10
48.363064
 20
186.743127
 30
0.0
 11
47.60019
 21
186.4813
 31
0.0
  0
LINE
  5
281
330
1F
100
AcDbEntity
  8
0
  6
CONTINUOUS
 62
     5
100
AcDbLine
 10
47.744831
 20
185.491816
 30
0.0
 11
47.60019
 21
186.4813
 31
0.0
  0
LINE
  5
282
330
1F
100
AcDbEntity
  8
0
  6
CONTINUOUS
 62
     5
100
AcDbLine
 10
47.520747
 20
186.619998
 30
0.0
 11
47.395093
 21
186.451319
 31
0.0
  0
LINE
  5
283
330
1F
100
AcDbEntity
  8
0
  6
CONTINUOUS
 62
     5
100
AcDbLine
 10
47.60019
 20
186.4813
 30
0.0
 11
47.395093
 21
186.451319
 31
0.0
  0
LINE
  5
284
330
1F
100
AcDbEntity
  8
0
  6
CONTINUOUS
 62
     5
100
AcDbLine
 10
47.397618
 20
187.462316
 30
0.0
 11
47.365112
 21
186.656417
 31
0.0
  0
LINE
  5
285
330
1F
100
AcDbEntity
  8
0
  6
CONTINUOUS
 62
     5
100
AcDbLine
 10
47.395093
 20
186.451319
 30
0.0
 11
47.365112
 21
186.656417
 31
0.0
  0
LINE
  5
286
330
1F
100
AcDbEntity
  8
0
  6
CONTINUOUS
 62
     5
100
AcDbLine
 10
46.113801
 20
187.27465
 30
0.0
 11
46.375628
 21
186.511776
 31
0.0
  0
LINE
  5
287
330
1F
100
AcDbEntity
  8
0
  6
CONTINUOUS
 62
     5
100
AcDbLine
 10
47.365112
 20
186.656417
 30
0.0
 11
46.375628
 21
186.511776
 31
0.0
  0
LINE
  5
288
330
1F
100
AcDbEntity
  8
0
  6
CONTINUOUS
 62
     5
100
AcDbLine
 10
46.236929
 20
186.432333
 30
0.0
 11
46.405608
 21
186.306678
 31
0.0
  0
LINE
  5
289
330
1F
100
AcDbEntity
  8
0
  6
CONTINUOUS
 62
     5
100
AcDbLine
 10
46.375628
 20
186.511776
 30
0.0
 11
46.405608
 21
186.306678
 31
0.0
  0
LINE
  5
28A
330
1F
100
AcDbEntity
  8
0
  6
CONTINUOUS
 62
     5
100
AcDbLine
 10
45.394612
 20
186.309204
 30
0.0
 11
46.200511
 21
186.276698
 31
0.0
  0
LINE
  5
28B
330
1F
100
AcDbEntity
  8
0
  6
CONTINUOUS
 62
     5
100
AcDbLine
 10
46.405608
 20
186.306678
 30
0.0
 11
46.200511
 21
186.276698
 31
0.0
  0
LINE
  5
28C
330
1F
100
AcDbEntity
  8
0
  6
CONTINUOUS
 62
     5
100
AcDbLine
 10
45.582277
 20
185.025387
 30
0.0
 11
46.345152
 21
185.287213
 31
0.0
  0
LINE
  5
28D
330
1F
100
AcDbEntity
  8
0
  6
CONTINUOUS
 62
     5
100
AcDbLine
 10
46.200511
 20
186.276698
 30
0.0
 11
46.345152
 21
185.287213
 31
0.0
  0
LINE
  5
28E
330
1F
100
AcDbEntity
  8
0
  6
CONTINUOUS
 62
     5
100
AcDbLine
 10
46.424595
 20
185.148515
 30
0.0
 11
46.550249
 21
185.317194
 31
0.0
  0
LINE
  5
28F
330
1F
100
AcDbEntity
  8
0
  6
CONTINUOUS
 62
     5
100
AcDbLine
 10
46.345152
 20
185.287213
 30
0.0
 11
46.550249
 21
185.317194
 31
0.0
  0
LINE
  5
290
330
1F
100
AcDbEntity
  8
0
  6
CONTINUOUS
 62
     5
100
AcDbLine
 10
46.547723
 20
184.306197
 30
0.0
 11
46.58023
 21
185.112097
 31
0.0
  0
LINE
  5
291
330
1F
100
AcDbEntity
  8
0
  6
CONTINUOUS
 62
     5
100
AcDbLine
 10
46.550249
 20
185.317194
 30
0.0
 11
46.58023
 21
185.112097
 31
0.0
  0
LINE
  5
292
330
1F
100
AcDbEntity
  8
0
  6
CONTINUOUS
 62
     5
100
AcDbLine
 10
46.58023
 20
185.112097
 30
0.0
 11
47.569714
 21
185.256738
 31
0.0
  0
LINE
  5
293
330
1F
100
AcDbEntity
  8
0
  6
CONTINUOUS
 62
     5
100
AcDbLine
 10
46.359971
 20
187.310635
 30
0.0
 11
46.113801
 21
187.27465
 31
0.0
  0
LINE
  5
294
330
1F
100
AcDbEntity
  8
0
  6
CONTINUOUS
 62
     5
100
AcDbLine
 10
47.397618
 20
187.462316
 30
0.0
 11
47.151559
 21
187.426347
 31
0.0
  0
LINE
  5
295
330
1F
100
AcDbEntity
  8
0
  6
CONTINUOUS
 62
     5
100
AcDbLine
 10
46.547723
 20
184.306197
 30
0.0
 11
46.793894
 21
184.342182
 31
0.0
  0
LINE
  5
296
330
1F
100
AcDbEntity
  8
0
  6
CONTINUOUS
 62
     5
100
AcDbLine
 10
47.585481
 20
184.457895
 30
0.0
 11
47.831541
 21
184.493863
 31
0.0
  0
LINE
  5
297
330
1F
100
AcDbEntity
  8
0
  6
CONTINUOUS
 62
     5
100
AcDbLine
 10
46.359971
 20
187.310635
 30
0.0
 11
46.413929
 21
186.941512
 31
0.0
  0
LINE
  5
298
330
1F
100
AcDbEntity
  8
0
  6
CONTINUOUS
 62
     5
100
AcDbLine
 10
47.151559
 20
187.426347
 30
0.0
 11
47.205516
 21
187.057224
 31
0.0
  0
LINE
  5
299
330
1F
100
AcDbEntity
  8
0
  6
CONTINUOUS
 62
     5
100
AcDbLine
 10
46.413929
 20
186.941512
 30
0.0
 11
47.205516
 21
187.057224
 31
0.0
  0
LINE
  5
29A
330
1F
100
AcDbEntity
  8
0
  6
CONTINUOUS
 62
     5
100
AcDbLine
 10
46.793894
 20
184.342182
 30
0.0
 11
46.739936
 21
184.711305
 31
0.0
  0
LINE
  5
29B
330
1F
100
AcDbEntity
  8
0
  6
CONTINUOUS
 62
     5
100
AcDbLine
 10
47.585481
 20
184.457895
 30
0.0
 11
47.531524
 21
184.827018
 31
0.0
  0
LINE
  5
29C
330
1F
100
AcDbEntity
  8
0
  6
CONTINUOUS
 62
     5
100
AcDbLine
 10
46.739936
 20
184.711305
 30
0.0
 11
47.531524
 21
184.827018
 31
0.0
  0
ARC
  5
29D
330
1F
100
AcDbEntity
  8
0
  6
CONTINUOUS
 62
     5
100
AcDbCircle
 10
-46.972717
 20
185.884326
 30
0.0
 40
2.3
210
0.0
220
0.0
230
-1.0
100
AcDbArc
 50
71.668108
 51
81.683513
  0
ARC
  5
29E
330
1F
100
AcDbEntity
  8
0
  6
CONTINUOUS
 62
     5
100
AcDbCircle
 10
-46.972717
 20
185.884326
 30
0.0
 40
2.3
210
0.0
220
0.0
230
-1.0
100
AcDbArc
 50
261.683528
 51
271.698928
  0
ARC
  5
29F
330
1F
100
AcDbEntity
  8
0
  6
CONTINUOUS
 62
     5
100
AcDbCircle
 10
46.972717
 20
185.884326
 30
0.0
 40
2.3
100
AcDbArc
 50
88.301072
 51
98.316487
  0
ARC
  5
2A0
330
1F
100
AcDbEntity
  8
0
  6
CONTINUOUS
 62
     5
100
AcDbCircle
 10
46.972717
 20
185.884326
 30
0.0
 40
2.3
100
AcDbArc
 50
278.316472
 51
288.331892
  0
ARC
  5
2A1
330
1F
100
AcDbEntity
  8
0
  6
CONTINUOUS
 62
     5
100
AcDbCircle
 10
46.972717
 20
185.884326
 30
0.0
 40
2.3
100
AcDbArc
 50
288.331892
 51
88.301072
  0
LINE
  5
2A2
330
1F
100
AcDbEntity
  8
0
  6
CONTINUOUS
 62
     5
100
AcDbLine
 10
47.651948
 20
184.003197
 30
0.0
 11
47.585481
 21
184.457895
 31
0.0
  0
LINE
  5
2A3
330
1F
100
AcDbEntity
  8
0
  6
CONTINUOUS
 62
     5
100
AcDbLine
 10
47.151559
 20
187.426347
 30
0.0
 11
47.085074
 21
187.881168
 31
0.0
  0
ARC
  5
2A4
330
1F
100
AcDbEntity
  8
0
  6
CONTINUOUS
 62
     5
100
AcDbCircle
 10
-46.972717
 20
185.884326
 30
0.0
 40
2.3
210
0.0
220
0.0
230
-1.0
100
AcDbArc
 50
271.698928
 51
71.668108
  0
LINE
  5
2A5
330
1F
100
AcDbEntity
  8
0
  6
CONTINUOUS
 62
     5
100
AcDbLine
 10
46.793894
 20
184.342182
 30
0.0
 11
46.860361
 21
183.887485
 31
0.0
  0
LINE
  5
2A6
330
1F
100
AcDbEntity
  8
0
  6
CONTINUOUS
 62
     5
100
AcDbLine
 10
46.293487
 20
187.765455
 30
0.0
 11
46.359971
 21
187.310635
 31
0.0
  0
LINE
  5
2A7
330
1F
100
AcDbEntity
  8
0
  6
CONTINUOUS
 62
     5
100
AcDbLine
 10
47.651948
 20
184.003197
 30
0.0
 11
47.696115
 21
183.70105
 31
0.0
  0
LINE
  5
2A8
330
1F
100
AcDbEntity
  8
0
  6
CONTINUOUS
 62
     5
100
AcDbLine
 10
47.085074
 20
187.881168
 30
0.0
 11
47.040907
 21
188.183315
 31
0.0
  0
LINE
  5
2A9
330
1F
100
AcDbEntity
  8
0
  6
CONTINUOUS
 62
     5
100
AcDbLine
 10
46.860361
 20
183.887485
 30
0.0
 11
46.904528
 21
183.585337
 31
0.0
  0
LINE
  5
2AA
330
1F
100
AcDbEntity
  8
0
  6
CONTINUOUS
 62
     5
100
AcDbLine
 10
46.249319
 20
188.067602
 30
0.0
 11
46.293487
 21
187.765455
 31
0.0
  0
LINE
  5
2AB
330
1F
100
AcDbEntity
  8
0
  6
CONTINUOUS
 62
     5
100
AcDbLine
 10
46.237022
 20
114.032471
 30
0.0
 11
45.394704
 21
113.909343
 31
0.0
  0
LINE
  5
2AC
330
1F
100
AcDbEntity
  8
0
  6
CONTINUOUS
 62
     5
100
AcDbLine
 10
45.394704
 20
113.909343
 30
0.0
 11
45.58237
 21
112.625526
 31
0.0
  0
LINE
  5
2AD
330
1F
100
AcDbEntity
  8
0
  6
CONTINUOUS
 62
     5
100
AcDbLine
 10
45.58237
 20
112.625526
 30
0.0
 11
46.424688
 21
112.748654
 31
0.0
  0
LINE
  5
2AE
330
1F
100
AcDbEntity
  8
0
  6
CONTINUOUS
 62
     5
100
AcDbLine
 10
46.424688
 20
112.748654
 30
0.0
 11
46.547816
 21
111.906336
 31
0.0
  0
LINE
  5
2AF
330
1F
100
AcDbEntity
  8
0
  6
CONTINUOUS
 62
     5
100
AcDbLine
 10
47.831634
 20
112.094002
 30
0.0
 11
47.708506
 21
112.93632
 31
0.0
  0
LINE
  5
2B0
330
1F
100
AcDbEntity
  8
0
  6
CONTINUOUS
 62
     5
100
AcDbLine
 10
47.708506
 20
112.93632
 30
0.0
 11
48.550823
 21
113.059448
 31
0.0
  0
LINE
  5
2B1
330
1F
100
AcDbEntity
  8
0
  6
CONTINUOUS
 62
     5
100
AcDbLine
 10
48.550823
 20
113.059448
 30
0.0
 11
48.363157
 21
114.343266
 31
0.0
  0
LINE
  5
2B2
330
1F
100
AcDbEntity
  8
0
  6
CONTINUOUS
 62
     5
100
AcDbLine
 10
48.363157
 20
114.343266
 30
0.0
 11
47.52084
 21
114.220137
 31
0.0
  0
LINE
  5
2B3
330
1F
100
AcDbEntity
  8
0
  6
CONTINUOUS
 62
     5
100
AcDbLine
 10
47.52084
 20
114.220137
 30
0.0
 11
47.397711
 21
115.062455
 31
0.0
  0
LINE
  5
2B4
330
1F
100
AcDbEntity
  8
0
  6
CONTINUOUS
 62
     5
100
AcDbLine
 10
46.113894
 20
114.874789
 30
0.0
 11
46.237022
 21
114.032471
 31
0.0
  0
LINE
  5
2B5
330
1F
100
AcDbEntity
  8
0
  6
CONTINUOUS
 62
     5
100
AcDbLine
 10
46.237022
 20
114.032471
 30
0.0
 11
46.405701
 21
113.906817
 31
0.0
  0
LINE
  5
2B6
330
1F
100
AcDbEntity
  8
0
  6
CONTINUOUS
 62
     5
100
AcDbLine
 10
46.375721
 20
114.111915
 30
0.0
 11
46.405701
 21
113.906817
 31
0.0
  0
LINE
  5
2B7
330
1F
100
AcDbEntity
  8
0
  6
CONTINUOUS
 62
     5
100
AcDbLine
 10
46.113894
 20
114.874789
 30
0.0
 11
46.375721
 21
114.111915
 31
0.0
  0
LINE
  5
2B8
330
1F
100
AcDbEntity
  8
0
  6
CONTINUOUS
 62
     5
100
AcDbLine
 10
45.394704
 20
113.909343
 30
0.0
 11
46.200604
 21
113.876837
 31
0.0
  0
LINE
  5
2B9
330
1F
100
AcDbEntity
  8
0
  6
CONTINUOUS
 62
     5
100
AcDbLine
 10
46.405701
 20
113.906817
 30
0.0
 11
46.200604
 21
113.876837
 31
0.0
  0
LINE
  5
2BA
330
1F
100
AcDbEntity
  8
0
  6
CONTINUOUS
 62
     5
100
AcDbLine
 10
45.58237
 20
112.625526
 30
0.0
 11
46.345245
 21
112.887352
 31
0.0
  0
LINE
  5
2BB
330
1F
100
AcDbEntity
  8
0
  6
CONTINUOUS
 62
     5
100
AcDbLine
 10
46.200604
 20
113.876837
 30
0.0
 11
46.345245
 21
112.887352
 31
0.0
  0
LINE
  5
2BC
330
1F
100
AcDbEntity
  8
0
  6
CONTINUOUS
 62
     5
100
AcDbLine
 10
46.424688
 20
112.748654
 30
0.0
 11
46.550342
 21
112.917333
 31
0.0
  0
LINE
  5
2BD
330
1F
100
AcDbEntity
  8
0
  6
CONTINUOUS
 62
     5
100
AcDbLine
 10
46.345245
 20
112.887352
 30
0.0
 11
46.550342
 21
112.917333
 31
0.0
  0
LINE
  5
2BE
330
1F
100
AcDbEntity
  8
0
  6
CONTINUOUS
 62
     5
100
AcDbLine
 10
46.547816
 20
111.906336
 30
0.0
 11
46.580323
 21
112.712236
 31
0.0
  0
LINE
  5
2BF
330
1F
100
AcDbEntity
  8
0
  6
CONTINUOUS
 62
     5
100
AcDbLine
 10
46.550342
 20
112.917333
 30
0.0
 11
46.580323
 21
112.712236
 31
0.0
  0
LINE
  5
2C0
330
1F
100
AcDbEntity
  8
0
  6
CONTINUOUS
 62
     5
100
AcDbLine
 10
47.831634
 20
112.094002
 30
0.0
 11
47.569807
 21
112.856877
 31
0.0
  0
LINE
  5
2C1
330
1F
100
AcDbEntity
  8
0
  6
CONTINUOUS
 62
     5
100
AcDbLine
 10
46.580323
 20
112.712236
 30
0.0
 11
47.569807
 21
112.856877
 31
0.0
  0
LINE
  5
2C2
330
1F
100
AcDbEntity
  8
0
  6
CONTINUOUS
 62
     5
100
AcDbLine
 10
47.708506
 20
112.93632
 30
0.0
 11
47.539826
 21
113.061974
 31
0.0
  0
LINE
  5
2C3
330
1F
100
AcDbEntity
  8
0
  6
CONTINUOUS
 62
     5
100
AcDbLine
 10
47.569807
 20
112.856877
 30
0.0
 11
47.539826
 21
113.061974
 31
0.0
  0
LINE
  5
2C4
330
1F
100
AcDbEntity
  8
0
  6
CONTINUOUS
 62
     5
100
AcDbLine
 10
48.550823
 20
113.059448
 30
0.0
 11
47.744924
 21
113.091955
 31
0.0
  0
LINE
  5
2C5
330
1F
100
AcDbEntity
  8
0
  6
CONTINUOUS
 62
     5
100
AcDbLine
 10
47.539826
 20
113.061974
 30
0.0
 11
47.744924
 21
113.091955
 31
0.0
  0
LINE
  5
2C6
330
1F
100
AcDbEntity
  8
0
  6
CONTINUOUS
 62
     5
100
AcDbLine
 10
48.363157
 20
114.343266
 30
0.0
 11
47.600283
 21
114.081439
 31
0.0
  0
LINE
  5
2C7
330
1F
100
AcDbEntity
  8
0
  6
CONTINUOUS
 62
     5
100
AcDbLine
 10
47.744924
 20
113.091955
 30
0.0
 11
47.600283
 21
114.081439
 31
0.0
  0
LINE
  5
2C8
330
1F
100
AcDbEntity
  8
0
  6
CONTINUOUS
 62
     5
100
AcDbLine
 10
47.52084
 20
114.220137
 30
0.0
 11
47.395185
 21
114.051458
 31
0.0
  0
LINE
  5
2C9
330
1F
100
AcDbEntity
  8
0
  6
CONTINUOUS
 62
     5
100
AcDbLine
 10
47.600283
 20
114.081439
 30
0.0
 11
47.395185
 21
114.051458
 31
0.0
  0
LINE
  5
2CA
330
1F
100
AcDbEntity
  8
0
  6
CONTINUOUS
 62
     5
100
AcDbLine
 10
47.397711
 20
115.062455
 30
0.0
 11
47.365205
 21
114.256555
 31
0.0
  0
LINE
  5
2CB
330
1F
100
AcDbEntity
  8
0
  6
CONTINUOUS
 62
     5
100
AcDbLine
 10
47.395185
 20
114.051458
 30
0.0
 11
47.365205
 21
114.256555
 31
0.0
  0
LINE
  5
2CC
330
1F
100
AcDbEntity
  8
0
  6
CONTINUOUS
 62
     5
100
AcDbLine
 10
47.365205
 20
114.256555
 30
0.0
 11
46.375721
 21
114.111915
 31
0.0
  0
LINE
  5
2CD
330
1F
100
AcDbEntity
  8
0
  6
CONTINUOUS
 62
     5
100
AcDbLine
 10
47.585463
 20
112.058018
 30
0.0
 11
47.831634
 21
112.094002
 31
0.0
  0
LINE
  5
2CE
330
1F
100
AcDbEntity
  8
0
  6
CONTINUOUS
 62
     5
100
AcDbLine
 10
46.547816
 20
111.906336
 30
0.0
 11
46.793876
 21
111.942305
 31
0.0
  0
LINE
  5
2CF
330
1F
100
AcDbEntity
  8
0
  6
CONTINUOUS
 62
     5
100
AcDbLine
 10
47.397711
 20
115.062455
 30
0.0
 11
47.151541
 21
115.02647
 31
0.0
  0
LINE
  5
2D0
330
1F
100
AcDbEntity
  8
0
  6
CONTINUOUS
 62
     5
100
AcDbLine
 10
46.359953
 20
114.910758
 30
0.0
 11
46.113894
 21
114.874789
 31
0.0
  0
LINE
  5
2D1
330
1F
100
AcDbEntity
  8
0
  6
CONTINUOUS
 62
     5
100
AcDbLine
 10
47.585463
 20
112.058018
 30
0.0
 11
47.531506
 21
112.427141
 31
0.0
  0
LINE
  5
2D2
330
1F
100
AcDbEntity
  8
0
  6
CONTINUOUS
 62
     5
100
AcDbLine
 10
46.793876
 20
111.942305
 30
0.0
 11
46.739918
 21
112.311428
 31
0.0
  0
LINE
  5
2D3
330
1F
100
AcDbEntity
  8
0
  6
CONTINUOUS
 62
     5
100
AcDbLine
 10
47.531506
 20
112.427141
 30
0.0
 11
46.739918
 21
112.311428
 31
0.0
  0
LINE
  5
2D4
330
1F
100
AcDbEntity
  8
0
  6
CONTINUOUS
 62
     5
100
AcDbLine
 10
47.151541
 20
115.02647
 30
0.0
 11
47.205498
 21
114.657347
 31
0.0
  0
LINE
  5
2D5
330
1F
100
AcDbEntity
  8
0
  6
CONTINUOUS
 62
     5
100
AcDbLine
 10
46.359953
 20
114.910758
 30
0.0
 11
46.413911
 21
114.541634
 31
0.0
  0
LINE
  5
2D6
330
1F
100
AcDbEntity
  8
0
  6
CONTINUOUS
 62
     5
100
AcDbLine
 10
47.205498
 20
114.657347
 30
0.0
 11
46.413911
 21
114.541634
 31
0.0
  0
ARC
  5
2D7
330
1F
100
AcDbEntity
  8
0
  6
CONTINUOUS
 62
     5
100
AcDbCircle
 10
-46.972717
 20
113.484326
 30
0.0
 40
2.3
210
0.0
220
0.0
230
-1.0
100
AcDbArc
 50
251.668108
 51
261.683513
  0
ARC
  5
2D8
330
1F
100
AcDbEntity
  8
0
  6
CONTINUOUS
 62
     5
100
AcDbCircle
 10
-46.972717
 20
113.484326
 30
0.0
 40
2.3
210
0.0
220
0.0
230
-1.0
100
AcDbArc
 50
81.683528
 51
91.698928
  0
ARC
  5
2D9
330
1F
100
AcDbEntity
  8
0
  6
CONTINUOUS
 62
     5
100
AcDbCircle
 10
46.972717
 20
113.484326
 30
0.0
 40
2.3
100
AcDbArc
 50
268.301072
 51
278.316487
  0
ARC
  5
2DA
330
1F
100
AcDbEntity
  8
0
  6
CONTINUOUS
 62
     5
100
AcDbCircle
 10
46.972717
 20
113.484326
 30
0.0
 40
2.3
100
AcDbArc
 50
98.316472
 51
108.331892
  0
ARC
  5
2DB
330
1F
100
AcDbEntity
  8
0
  6
CONTINUOUS
 62
     5
100
AcDbCircle
 10
46.972717
 20
113.484326
 30
0.0
 40
2.3
100
AcDbArc
 50
108.331892
 51
268.301072
  0
LINE
  5
2DC
330
1F
100
AcDbEntity
  8
0
  6
CONTINUOUS
 62
     5
100
AcDbLine
 10
46.293487
 20
115.365455
 30
0.0
 11
46.359953
 21
114.910758
 31
0.0
  0
LINE
  5
2DD
330
1F
100
AcDbEntity
  8
0
  6
CONTINUOUS
 62
     5
100
AcDbLine
 10
46.793876
 20
111.942305
 30
0.0
 11
46.860361
 21
111.487485
 31
0.0
  0
ARC
  5
2DE
330
1F
100
AcDbEntity
  8
0
  6
CONTINUOUS
 62
     5
100
AcDbCircle
 10
-46.972717
 20
113.484326
 30
0.0
 40
2.3
210
0.0
220
0.0
230
-1.0
100
AcDbArc
 50
91.698928
 51
251.668108
  0
LINE
  5
2DF
330
1F
100
AcDbEntity
  8
0
  6
CONTINUOUS
 62
     5
100
AcDbLine
 10
47.151541
 20
115.02647
 30
0.0
 11
47.085074
 21
115.481168
 31
0.0
  0
LINE
  5
2E0
330
1F
100
AcDbEntity
  8
0
  6
CONTINUOUS
 62
     5
100
AcDbLine
 10
47.651948
 20
111.603197
 30
0.0
 11
47.585463
 21
112.058018
 31
0.0
  0
LINE
  5
2E1
330
1F
100
AcDbEntity
  8
0
  6
CONTINUOUS
 62
     5
100
AcDbLine
 10
46.293487
 20
115.365455
 30
0.0
 11
46.249319
 21
115.667602
 31
0.0
  0
LINE
  5
2E2
330
1F
100
AcDbEntity
  8
0
  6
CONTINUOUS
 62
     5
100
AcDbLine
 10
46.860361
 20
111.487485
 30
0.0
 11
46.904528
 21
111.185337
 31
0.0
  0
LINE
  5
2E3
330
1F
100
AcDbEntity
  8
0
  6
CONTINUOUS
 62
     5
100
AcDbLine
 10
47.085074
 20
115.481168
 30
0.0
 11
47.040907
 21
115.783315
 31
0.0
  0
LINE
  5
2E4
330
1F
100
AcDbEntity
  8
0
  6
CONTINUOUS
 62
     5
100
AcDbLine
 10
47.696115
 20
111.30105
 30
0.0
 11
47.651948
 21
111.603197
 31
0.0
  0
LINE
  5
2E5
330
1F
100
AcDbEntity
  8
0
  6
CONTINUOUS
 62
     5
100
AcDbLine
 10
52.237022
 20
114.032471
 30
0.0
 11
51.394704
 21
113.909343
 31
0.0
  0
LINE
  5
2E6
330
1F
100
AcDbEntity
  8
0
  6
CONTINUOUS
 62
     5
100
AcDbLine
 10
51.394704
 20
113.909343
 30
0.0
 11
51.58237
 21
112.625526
 31
0.0
  0
LINE
  5
2E7
330
1F
100
AcDbEntity
  8
0
  6
CONTINUOUS
 62
     5
100
AcDbLine
 10
51.58237
 20
112.625526
 30
0.0
 11
52.424688
 21
112.748654
 31
0.0
  0
LINE
  5
2E8
330
1F
100
AcDbEntity
  8
0
  6
CONTINUOUS
 62
     5
100
AcDbLine
 10
52.424688
 20
112.748654
 30
0.0
 11
52.547816
 21
111.906336
 31
0.0
  0
LINE
  5
2E9
330
1F
100
AcDbEntity
  8
0
  6
CONTINUOUS
 62
     5
100
AcDbLine
 10
53.831634
 20
112.094002
 30
0.0
 11
53.708506
 21
112.93632
 31
0.0
  0
LINE
  5
2EA
330
1F
100
AcDbEntity
  8
0
  6
CONTINUOUS
 62
     5
100
AcDbLine
 10
53.708506
 20
112.93632
 30
0.0
 11
54.550823
 21
113.059448
 31
0.0
  0
LINE
  5
2EB
330
1F
100
AcDbEntity
  8
0
  6
CONTINUOUS
 62
     5
100
AcDbLine
 10
54.550823
 20
113.059448
 30
0.0
 11
54.363157
 21
114.343266
 31
0.0
  0
LINE
  5
2EC
330
1F
100
AcDbEntity
  8
0
  6
CONTINUOUS
 62
     5
100
AcDbLine
 10
54.363157
 20
114.343266
 30
0.0
 11
53.52084
 21
114.220137
 31
0.0
  0
LINE
  5
2ED
330
1F
100
AcDbEntity
  8
0
  6
CONTINUOUS
 62
     5
100
AcDbLine
 10
53.52084
 20
114.220137
 30
0.0
 11
53.397711
 21
115.062455
 31
0.0
  0
LINE
  5
2EE
330
1F
100
AcDbEntity
  8
0
  6
CONTINUOUS
 62
     5
100
AcDbLine
 10
52.113894
 20
114.874789
 30
0.0
 11
52.237022
 21
114.032471
 31
0.0
  0
LINE
  5
2EF
330
1F
100
AcDbEntity
  8
0
  6
CONTINUOUS
 62
     5
100
AcDbLine
 10
52.237022
 20
114.032471
 30
0.0
 11
52.405701
 21
113.906817
 31
0.0
  0
LINE
  5
2F0
330
1F
100
AcDbEntity
  8
0
  6
CONTINUOUS
 62
     5
100
AcDbLine
 10
52.375721
 20
114.111915
 30
0.0
 11
52.405701
 21
113.906817
 31
0.0
  0
LINE
  5
2F1
330
1F
100
AcDbEntity
  8
0
  6
CONTINUOUS
 62
     5
100
AcDbLine
 10
52.113894
 20
114.874789
 30
0.0
 11
52.375721
 21
114.111915
 31
0.0
  0
LINE
  5
2F2
330
1F
100
AcDbEntity
  8
0
  6
CONTINUOUS
 62
     5
100
AcDbLine
 10
51.394704
 20
113.909343
 30
0.0
 11
52.200604
 21
113.876837
 31
0.0
  0
LINE
  5
2F3
330
1F
100
AcDbEntity
  8
0
  6
CONTINUOUS
 62
     5
100
AcDbLine
 10
52.405701
 20
113.906817
 30
0.0
 11
52.200604
 21
113.876837
 31
0.0
  0
LINE
  5
2F4
330
1F
100
AcDbEntity
  8
0
  6
CONTINUOUS
 62
     5
100
AcDbLine
 10
51.58237
 20
112.625526
 30
0.0
 11
52.345245
 21
112.887352
 31
0.0
  0
LINE
  5
2F5
330
1F
100
AcDbEntity
  8
0
  6
CONTINUOUS
 62
     5
100
AcDbLine
 10
52.200604
 20
113.876837
 30
0.0
 11
52.345245
 21
112.887352
 31
0.0
  0
LINE
  5
2F6
330
1F
100
AcDbEntity
  8
0
  6
CONTINUOUS
 62
     5
100
AcDbLine
 10
52.424688
 20
112.748654
 30
0.0
 11
52.550342
 21
112.917333
 31
0.0
  0
LINE
  5
2F7
330
1F
100
AcDbEntity
  8
0
  6
CONTINUOUS
 62
     5
100
AcDbLine
 10
52.345245
 20
112.887352
 30
0.0
 11
52.550342
 21
112.917333
 31
0.0
  0
LINE
  5
2F8
330
1F
100
AcDbEntity
  8
0
  6
CONTINUOUS
 62
     5
100
AcDbLine
 10
52.547816
 20
111.906336
 30
0.0
 11
52.580323
 21
112.712236
 31
0.0
  0
LINE
  5
2F9
330
1F
100
AcDbEntity
  8
0
  6
CONTINUOUS
 62
     5
100
AcDbLine
 10
52.550342
 20
112.917333
 30
0.0
 11
52.580323
 21
112.712236
 31
0.0
  0
LINE
  5
2FA
330
1F
100
AcDbEntity
  8
0
  6
CONTINUOUS
 62
     5
100
AcDbLine
 10
53.831634
 20
112.094002
 30
0.0
 11
53.569807
 21
112.856877
 31
0.0
  0
LINE
  5
2FB
330
1F
100
AcDbEntity
  8
0
  6
CONTINUOUS
 62
     5
100
AcDbLine
 10
52.580323
 20
112.712236
 30
0.0
 11
53.569807
 21
112.856877
 31
0.0
  0
LINE
  5
2FC
330
1F
100
AcDbEntity
  8
0
  6
CONTINUOUS
 62
     5
100
AcDbLine
 10
53.708506
 20
112.93632
 30
0.0
 11
53.539826
 21
113.061974
 31
0.0
  0
LINE
  5
2FD
330
1F
100
AcDbEntity
  8
0
  6
CONTINUOUS
 62
     5
100
AcDbLine
 10
53.569807
 20
112.856877
 30
0.0
 11
53.539826
 21
113.061974
 31
0.0
  0
LINE
  5
2FE
330
1F
100
AcDbEntity
  8
0
  6
CONTINUOUS
 62
     5
100
AcDbLine
 10
54.550823
 20
113.059448
 30
0.0
 11
53.744924
 21
113.091955
 31
0.0
  0
LINE
  5
2FF
330
1F
100
AcDbEntity
  8
0
  6
CONTINUOUS
 62
     5
100
AcDbLine
 10
53.539826
 20
113.061974
 30
0.0
 11
53.744924
 21
113.091955
 31
0.0
  0
LINE
  5
300
330
1F
100
AcDbEntity
  8
0
  6
CONTINUOUS
 62
     5
100
AcDbLine
 10
54.363157
 20
114.343266
 30
0.0
 11
53.600283
 21
114.081439
 31
0.0
  0
LINE
  5
301
330
1F
100
AcDbEntity
  8
0
  6
CONTINUOUS
 62
     5
100
AcDbLine
 10
53.744924
 20
113.091955
 30
0.0
 11
53.600283
 21
114.081439
 31
0.0
  0
LINE
  5
302
330
1F
100
AcDbEntity
  8
0
  6
CONTINUOUS
 62
     5
100
AcDbLine
 10
53.52084
 20
114.220137
 30
0.0
 11
53.395185
 21
114.051458
 31
0.0
  0
LINE
  5
303
330
1F
100
AcDbEntity
  8
0
  6
CONTINUOUS
 62
     5
100
AcDbLine
 10
53.600283
 20
114.081439
 30
0.0
 11
53.395185
 21
114.051458
 31
0.0
  0
LINE
  5
304
330
1F
100
AcDbEntity
  8
0
  6
CONTINUOUS
 62
     5
100
AcDbLine
 10
53.397711
 20
115.062455
 30
0.0
 11
53.365205
 21
114.256555
 31
0.0
  0
LINE
  5
305
330
1F
100
AcDbEntity
  8
0
  6
CONTINUOUS
 62
     5
100
AcDbLine
 10
53.395185
 20
114.051458
 30
0.0
 11
53.365205
 21
114.256555
 31
0.0
  0
LINE
  5
306
330
1F
100
AcDbEntity
  8
0
  6
CONTINUOUS
 62
     5
100
AcDbLine
 10
53.365205
 20
114.256555
 30
0.0
 11
52.375721
 21
114.111915
 31
0.0
  0
LINE
  5
307
330
1F
100
AcDbEntity
  8
0
  6
CONTINUOUS
 62
     5
100
AcDbLine
 10
53.585463
 20
112.058018
 30
0.0
 11
53.831634
 21
112.094002
 31
0.0
  0
LINE
  5
308
330
1F
100
AcDbEntity
  8
0
  6
CONTINUOUS
 62
     5
100
AcDbLine
 10
52.547816
 20
111.906336
 30
0.0
 11
52.793876
 21
111.942305
 31
0.0
  0
LINE
  5
309
330
1F
100
AcDbEntity
  8
0
  6
CONTINUOUS
 62
     5
100
AcDbLine
 10
53.397711
 20
115.062455
 30
0.0
 11
53.151541
 21
115.02647
 31
0.0
  0
LINE
  5
30A
330
1F
100
AcDbEntity
  8
0
  6
CONTINUOUS
 62
     5
100
AcDbLine
 10
52.359953
 20
114.910758
 30
0.0
 11
52.113894
 21
114.874789
 31
0.0
  0
LINE
  5
30B
330
1F
100
AcDbEntity
  8
0
  6
CONTINUOUS
 62
     5
100
AcDbLine
 10
53.585463
 20
112.058018
 30
0.0
 11
53.531506
 21
112.427141
 31
0.0
  0
LINE
  5
30C
330
1F
100
AcDbEntity
  8
0
  6
CONTINUOUS
 62
     5
100
AcDbLine
 10
52.793876
 20
111.942305
 30
0.0
 11
52.739918
 21
112.311428
 31
0.0
  0
LINE
  5
30D
330
1F
100
AcDbEntity
  8
0
  6
CONTINUOUS
 62
     5
100
AcDbLine
 10
53.531506
 20
112.427141
 30
0.0
 11
52.739918
 21
112.311428
 31
0.0
  0
LINE
  5
30E
330
1F
100
AcDbEntity
  8
0
  6
CONTINUOUS
 62
     5
100
AcDbLine
 10
53.151541
 20
115.02647
 30
0.0
 11
53.205498
 21
114.657347
 31
0.0
  0
LINE
  5
30F
330
1F
100
AcDbEntity
  8
0
  6
CONTINUOUS
 62
     5
100
AcDbLine
 10
52.359953
 20
114.910758
 30
0.0
 11
52.413911
 21
114.541634
 31
0.0
  0
LINE
  5
310
330
1F
100
AcDbEntity
  8
0
  6
CONTINUOUS
 62
     5
100
AcDbLine
 10
53.205498
 20
114.657347
 30
0.0
 11
52.413911
 21
114.541634
 31
0.0
  0
ARC
  5
311
330
1F
100
AcDbEntity
  8
0
  6
CONTINUOUS
 62
     5
100
AcDbCircle
 10
-52.972717
 20
113.484326
 30
0.0
 40
2.3
210
0.0
220
0.0
230
-1.0
100
AcDbArc
 50
251.668108
 51
261.683513
  0
ARC
  5
312
330
1F
100
AcDbEntity
  8
0
  6
CONTINUOUS
 62
     5
100
AcDbCircle
 10
-52.972717
 20
113.484326
 30
0.0
 40
2.3
210
0.0
220
0.0
230
-1.0
100
AcDbArc
 50
81.683528
 51
91.698928
  0
ARC
  5
313
330
1F
100
AcDbEntity
  8
0
  6
CONTINUOUS
 62
     5
100
AcDbCircle
 10
52.972717
 20
113.484326
 30
0.0
 40
2.3
100
AcDbArc
 50
268.301072
 51
278.316487
  0
ARC
  5
314
330
1F
100
AcDbEntity
  8
0
  6
CONTINUOUS
 62
     5
100
AcDbCircle
 10
52.972717
 20
113.484326
 30
0.0
 40
2.3
100
AcDbArc
 50
98.316472
 51
108.331892
  0
ARC
  5
315
330
1F
100
AcDbEntity
  8
0
  6
CONTINUOUS
 62
     5
100
AcDbCircle
 10
52.972717
 20
113.484326
 30
0.0
 40
2.3
100
AcDbArc
 50
108.331892
 51
268.301072
  0
LINE
  5
316
330
1F
100
AcDbEntity
  8
0
  6
CONTINUOUS
 62
     5
100
AcDbLine
 10
52.293487
 20
115.365455
 30
0.0
 11
52.359953
 21
114.910758
 31
0.0
  0
LINE
  5
317
330
1F
100
AcDbEntity
  8
0
  6
CONTINUOUS
 62
     5
100
AcDbLine
 10
52.793876
 20
111.942305
 30
0.0
 11
52.860361
 21
111.487485
 31
0.0
  0
ARC
  5
318
330
1F
100
AcDbEntity
  8
0
  6
CONTINUOUS
 62
     5
100
AcDbCircle
 10
-52.972717
 20
113.484326
 30
0.0
 40
2.3
210
0.0
220
0.0
230
-1.0
100
AcDbArc
 50
91.698928
 51
251.668108
  0
LINE
  5
319
330
1F
100
AcDbEntity
  8
0
  6
CONTINUOUS
 62
     5
100
AcDbLine
 10
53.151541
 20
115.02647
 30
0.0
 11
53.085074
 21
115.481168
 31
0.0
  0
LINE
  5
31A
330
1F
100
AcDbEntity
  8
0
  6
CONTINUOUS
 62
     5
100
AcDbLine
 10
53.651948
 20
111.603197
 30
0.0
 11
53.585463
 21
112.058018
 31
0.0
  0
LINE
  5
31B
330
1F
100
AcDbEntity
  8
0
  6
CONTINUOUS
 62
     5
100
AcDbLine
 10
52.293487
 20
115.365455
 30
0.0
 11
52.249319
 21
115.667602
 31
0.0
  0
LINE
  5
31C
330
1F
100
AcDbEntity
  8
0
  6
CONTINUOUS
 62
     5
100
AcDbLine
 10
52.860361
 20
111.487485
 30
0.0
 11
52.904528
 21
111.185337
 31
0.0
  0
LINE
  5
31D
330
1F
100
AcDbEntity
  8
0
  6
CONTINUOUS
 62
     5
100
AcDbLine
 10
53.085074
 20
115.481168
 30
0.0
 11
53.040907
 21
115.783315
 31
0.0
  0
LINE
  5
31E
330
1F
100
AcDbEntity
  8
0
  6
CONTINUOUS
 62
     5
100
AcDbLine
 10
53.696115
 20
111.30105
 30
0.0
 11
53.651948
 21
111.603197
 31
0.0
  0
LINE
  5
31F
330
1F
100
AcDbEntity
  8
0
  6
CONTINUOUS
 62
     5
100
AcDbLine
 10
58.237022
 20
114.032471
 30
0.0
 11
57.394704
 21
113.909343
 31
0.0
  0
LINE
  5
320
330
1F
100
AcDbEntity
  8
0
  6
CONTINUOUS
 62
     5
100
AcDbLine
 10
57.394704
 20
113.909343
 30
0.0
 11
57.58237
 21
112.625526
 31
0.0
  0
LINE
  5
321
330
1F
100
AcDbEntity
  8
0
  6
CONTINUOUS
 62
     5
100
AcDbLine
 10
57.58237
 20
112.625526
 30
0.0
 11
58.424688
 21
112.748654
 31
0.0
  0
LINE
  5
322
330
1F
100
AcDbEntity
  8
0
  6
CONTINUOUS
 62
     5
100
AcDbLine
 10
58.424688
 20
112.748654
 30
0.0
 11
58.547816
 21
111.906336
 31
0.0
  0
LINE
  5
323
330
1F
100
AcDbEntity
  8
0
  6
CONTINUOUS
 62
     5
100
AcDbLine
 10
59.831634
 20
112.094002
 30
0.0
 11
59.708506
 21
112.93632
 31
0.0
  0
LINE
  5
324
330
1F
100
AcDbEntity
  8
0
  6
CONTINUOUS
 62
     5
100
AcDbLine
 10
59.708506
 20
112.93632
 30
0.0
 11
60.550823
 21
113.059448
 31
0.0
  0
LINE
  5
325
330
1F
100
AcDbEntity
  8
0
  6
CONTINUOUS
 62
     5
100
AcDbLine
 10
60.550823
 20
113.059448
 30
0.0
 11
60.363157
 21
114.343266
 31
0.0
  0
LINE
  5
326
330
1F
100
AcDbEntity
  8
0
  6
CONTINUOUS
 62
     5
100
AcDbLine
 10
60.363157
 20
114.343266
 30
0.0
 11
59.52084
 21
114.220137
 31
0.0
  0
LINE
  5
327
330
1F
100
AcDbEntity
  8
0
  6
CONTINUOUS
 62
     5
100
AcDbLine
 10
59.52084
 20
114.220137
 30
0.0
 11
59.397711
 21
115.062455
 31
0.0
  0
LINE
  5
328
330
1F
100
AcDbEntity
  8
0
  6
CONTINUOUS
 62
     5
100
AcDbLine
 10
58.113894
 20
114.874789
 30
0.0
 11
58.237022
 21
114.032471
 31
0.0
  0
LINE
  5
329
330
1F
100
AcDbEntity
  8
0
  6
CONTINUOUS
 62
     5
100
AcDbLine
 10
58.237022
 20
114.032471
 30
0.0
 11
58.405701
 21
113.906817
 31
0.0
  0
LINE
  5
32A
330
1F
100
AcDbEntity
  8
0
  6
CONTINUOUS
 62
     5
100
AcDbLine
 10
58.375721
 20
114.111915
 30
0.0
 11
58.405701
 21
113.906817
 31
0.0
  0
LINE
  5
32B
330
1F
100
AcDbEntity
  8
0
  6
CONTINUOUS
 62
     5
100
AcDbLine
 10
58.113894
 20
114.874789
 30
0.0
 11
58.375721
 21
114.111915
 31
0.0
  0
LINE
  5
32C
330
1F
100
AcDbEntity
  8
0
  6
CONTINUOUS
 62
     5
100
AcDbLine
 10
57.394704
 20
113.909343
 30
0.0
 11
58.200604
 21
113.876837
 31
0.0
  0
LINE
  5
32D
330
1F
100
AcDbEntity
  8
0
  6
CONTINUOUS
 62
     5
100
AcDbLine
 10
58.405701
 20
113.906817
 30
0.0
 11
58.200604
 21
113.876837
 31
0.0
  0
LINE
  5
32E
330
1F
100
AcDbEntity
  8
0
  6
CONTINUOUS
 62
     5
100
AcDbLine
 10
57.58237
 20
112.625526
 30
0.0
 11
58.345245
 21
112.887352
 31
0.0
  0
LINE
  5
32F
330
1F
100
AcDbEntity
  8
0
  6
CONTINUOUS
 62
     5
100
AcDbLine
 10
58.200604
 20
113.876837
 30
0.0
 11
58.345245
 21
112.887352
 31
0.0
  0
LINE
  5
330
330
1F
100
AcDbEntity
  8
0
  6
CONTINUOUS
 62
     5
100
AcDbLine
 10
58.424688
 20
112.748654
 30
0.0
 11
58.550342
 21
112.917333
 31
0.0
  0
LINE
  5
331
330
1F
100
AcDbEntity
  8
0
  6
CONTINUOUS
 62
     5
100
AcDbLine
 10
58.345245
 20
112.887352
 30
0.0
 11
58.550342
 21
112.917333
 31
0.0
  0
LINE
  5
332
330
1F
100
AcDbEntity
  8
0
  6
CONTINUOUS
 62
     5
100
AcDbLine
 10
58.547816
 20
111.906336
 30
0.0
 11
58.580323
 21
112.712236
 31
0.0
  0
LINE
  5
333
330
1F
100
AcDbEntity
  8
0
  6
CONTINUOUS
 62
     5
100
AcDbLine
 10
58.550342
 20
112.917333
 30
0.0
 11
58.580323
 21
112.712236
 31
0.0
  0
LINE
  5
334
330
1F
100
AcDbEntity
  8
0
  6
CONTINUOUS
 62
     5
100
AcDbLine
 10
59.831634
 20
112.094002
 30
0.0
 11
59.569807
 21
112.856877
 31
0.0
  0
LINE
  5
335
330
1F
100
AcDbEntity
  8
0
  6
CONTINUOUS
 62
     5
100
AcDbLine
 10
58.580323
 20
112.712236
 30
0.0
 11
59.569807
 21
112.856877
 31
0.0
  0
LINE
  5
336
330
1F
100
AcDbEntity
  8
0
  6
CONTINUOUS
 62
     5
100
AcDbLine
 10
59.708506
 20
112.93632
 30
0.0
 11
59.539826
 21
113.061974
 31
0.0
  0
LINE
  5
337
330
1F
100
AcDbEntity
  8
0
  6
CONTINUOUS
 62
     5
100
AcDbLine
 10
59.569807
 20
112.856877
 30
0.0
 11
59.539826
 21
113.061974
 31
0.0
  0
LINE
  5
338
330
1F
100
AcDbEntity
  8
0
  6
CONTINUOUS
 62
     5
100
AcDbLine
 10
60.550823
 20
113.059448
 30
0.0
 11
59.744924
 21
113.091955
 31
0.0
  0
LINE
  5
339
330
1F
100
AcDbEntity
  8
0
  6
CONTINUOUS
 62
     5
100
AcDbLine
 10
59.539826
 20
113.061974
 30
0.0
 11
59.744924
 21
113.091955
 31
0.0
  0
LINE
  5
33A
330
1F
100
AcDbEntity
  8
0
  6
CONTINUOUS
 62
     5
100
AcDbLine
 10
60.363157
 20
114.343266
 30
0.0
 11
59.600283
 21
114.081439
 31
0.0
  0
LINE
  5
33B
330
1F
100
AcDbEntity
  8
0
  6
CONTINUOUS
 62
     5
100
AcDbLine
 10
59.744924
 20
113.091955
 30
0.0
 11
59.600283
 21
114.081439
 31
0.0
  0
LINE
  5
33C
330
1F
100
AcDbEntity
  8
0
  6
CONTINUOUS
 62
     5
100
AcDbLine
 10
59.52084
 20
114.220137
 30
0.0
 11
59.395185
 21
114.051458
 31
0.0
  0
LINE
  5
33D
330
1F
100
AcDbEntity
  8
0
  6
CONTINUOUS
 62
     5
100
AcDbLine
 10
59.600283
 20
114.081439
 30
0.0
 11
59.395185
 21
114.051458
 31
0.0
  0
LINE
  5
33E
330
1F
100
AcDbEntity
  8
0
  6
CONTINUOUS
 62
     5
100
AcDbLine
 10
59.397711
 20
115.062455
 30
0.0
 11
59.365205
 21
114.256555
 31
0.0
  0
LINE
  5
33F
330
1F
100
AcDbEntity
  8
0
  6
CONTINUOUS
 62
     5
100
AcDbLine
 10
59.395185
 20
114.051458
 30
0.0
 11
59.365205
 21
114.256555
 31
0.0
  0
LINE
  5
340
330
1F
100
AcDbEntity
  8
0
  6
CONTINUOUS
 62
     5
100
AcDbLine
 10
59.365205
 20
114.256555
 30
0.0
 11
58.375721
 21
114.111915
 31
0.0
  0
LINE
  5
341
330
1F
100
AcDbEntity
  8
0
  6
CONTINUOUS
 62
     5
100
AcDbLine
 10
59.585463
 20
112.058018
 30
0.0
 11
59.831634
 21
112.094002
 31
0.0
  0
LINE
  5
342
330
1F
100
AcDbEntity
  8
0
  6
CONTINUOUS
 62
     5
100
AcDbLine
 10
58.547816
 20
111.906336
 30
0.0
 11
58.793876
 21
111.942305
 31
0.0
  0
LINE
  5
343
330
1F
100
AcDbEntity
  8
0
  6
CONTINUOUS
 62
     5
100
AcDbLine
 10
59.397711
 20
115.062455
 30
0.0
 11
59.151541
 21
115.02647
 31
0.0
  0
LINE
  5
344
330
1F
100
AcDbEntity
  8
0
  6
CONTINUOUS
 62
     5
100
AcDbLine
 10
58.359953
 20
114.910758
 30
0.0
 11
58.113894
 21
114.874789
 31
0.0
  0
LINE
  5
345
330
1F
100
AcDbEntity
  8
0
  6
CONTINUOUS
 62
     5
100
AcDbLine
 10
59.585463
 20
112.058018
 30
0.0
 11
59.531506
 21
112.427141
 31
0.0
  0
LINE
  5
346
330
1F
100
AcDbEntity
  8
0
  6
CONTINUOUS
 62
     5
100
AcDbLine
 10
58.793876
 20
111.942305
 30
0.0
 11
58.739918
 21
112.311428
 31
0.0
  0
LINE
  5
347
330
1F
100
AcDbEntity
  8
0
  6
CONTINUOUS
 62
     5
100
AcDbLine
 10
59.531506
 20
112.427141
 30
0.0
 11
58.739918
 21
112.311428
 31
0.0
  0
LINE
  5
348
330
1F
100
AcDbEntity
  8
0
  6
CONTINUOUS
 62
     5
100
AcDbLine
 10
59.151541
 20
115.02647
 30
0.0
 11
59.205498
 21
114.657347
 31
0.0
  0
LINE
  5
349
330
1F
100
AcDbEntity
  8
0
  6
CONTINUOUS
 62
     5
100
AcDbLine
 10
58.359953
 20
114.910758
 30
0.0
 11
58.413911
 21
114.541634
 31
0.0
  0
LINE
  5
34A
330
1F
100
AcDbEntity
  8
0
  6
CONTINUOUS
 62
     5
100
AcDbLine
 10
59.205498
 20
114.657347
 30
0.0
 11
58.413911
 21
114.541634
 31
0.0
  0
ARC
  5
34B
330
1F
100
AcDbEntity
  8
0
  6
CONTINUOUS
 62
     5
100
AcDbCircle
 10
-58.972717
 20
113.484326
 30
0.0
 40
2.3
210
0.0
220
0.0
230
-1.0
100
AcDbArc
 50
251.668108
 51
261.683513
  0
ARC
  5
34C
330
1F
100
AcDbEntity
  8
0
  6
CONTINUOUS
 62
     5
100
AcDbCircle
 10
-58.972717
 20
113.484326
 30
0.0
 40
2.3
210
0.0
220
0.0
230
-1.0
100
AcDbArc
 50
81.683528
 51
91.698928
  0
ARC
  5
34D
330
1F
100
AcDbEntity
  8
0
  6
CONTINUOUS
 62
     5
100
AcDbCircle
 10
58.972717
 20
113.484326
 30
0.0
 40
2.3
100
AcDbArc
 50
268.301072
 51
278.316487
  0
ARC
  5
34E
330
1F
100
AcDbEntity
  8
0
  6
CONTINUOUS
 62
     5
100
AcDbCircle
 10
58.972717
 20
113.484326
 30
0.0
 40
2.3
100
AcDbArc
 50
98.316472
 51
108.331892
  0
ARC
  5
34F
330
1F
100
AcDbEntity
  8
0
  6
CONTINUOUS
 62
     5
100
AcDbCircle
 10
58.972717
 20
113.484326
 30
0.0
 40
2.3
100
AcDbArc
 50
108.331892
 51
268.301072
  0
LINE
  5
350
330
1F
100
AcDbEntity
  8
0
  6
CONTINUOUS
 62
     5
100
AcDbLine
 10
58.293487
 20
115.365455
 30
0.0
 11
58.359953
 21
114.910758
 31
0.0
  0
LINE
  5
351
330
1F
100
AcDbEntity
  8
0
  6
CONTINUOUS
 62
     5
100
AcDbLine
 10
58.793876
 20
111.942305
 30
0.0
 11
58.860361
 21
111.487485
 31
0.0
  0
ARC
  5
352
330
1F
100
AcDbEntity
  8
0
  6
CONTINUOUS
 62
     5
100
AcDbCircle
 10
-58.972717
 20
113.484326
 30
0.0
 40
2.3
210
0.0
220
0.0
230
-1.0
100
AcDbArc
 50
91.698928
 51
251.668108
  0
LINE
  5
353
330
1F
100
AcDbEntity
  8
0
  6
CONTINUOUS
 62
     5
100
AcDbLine
 10
59.151541
 20
115.02647
 30
0.0
 11
59.085074
 21
115.481168
 31
0.0
  0
LINE
  5
354
330
1F
100
AcDbEntity
  8
0
  6
CONTINUOUS
 62
     5
100
AcDbLine
 10
59.651948
 20
111.603197
 30
0.0
 11
59.585463
 21
112.058018
 31
0.0
  0
LINE
  5
355
330
1F
100
AcDbEntity
  8
0
  6
CONTINUOUS
 62
     5
100
AcDbLine
 10
58.293487
 20
115.365455
 30
0.0
 11
58.249319
 21
115.667602
 31
0.0
  0
LINE
  5
356
330
1F
100
AcDbEntity
  8
0
  6
CONTINUOUS
 62
     5
100
AcDbLine
 10
58.860361
 20
111.487485
 30
0.0
 11
58.904528
 21
111.185337
 31
0.0
  0
LINE
  5
357
330
1F
100
AcDbEntity
  8
0
  6
CONTINUOUS
 62
     5
100
AcDbLine
 10
59.085074
 20
115.481168
 30
0.0
 11
59.040907
 21
115.783315
 31
0.0
  0
LINE
  5
358
330
1F
100
AcDbEntity
  8
0
  6
CONTINUOUS
 62
     5
100
AcDbLine
 10
59.696115
 20
111.30105
 30
0.0
 11
59.651948
 21
111.603197
 31
0.0
  0
CIRCLE
  5
359
330
1F
100
AcDbEntity
  8
0
  6
CONTINUOUS
 62
     6
100
AcDbCircle
 10
60.097717
 20
133.084326
 30
0.0
 40
1.0
  0
CIRCLE
  5
35A
330
1F
100
AcDbEntity
  8
0
  6
CONTINUOUS
 62
     5
100
AcDbCircle
 10
60.097717
 20
133.084326
 30
0.0
 40
0.5
  0
LINE
  5
35B
330
1F
100
AcDbEntity
  8
0
  6
CONTINUOUS
 62
     4
100
AcDbLine
 10
77.397717
 20
171.184326
 30
0.0
 11
77.397717
 21
170.184326
 31
0.0
  0
LINE
  5
35C
330
1F
100
AcDbEntity
  8
0
  6
CONTINUOUS
 62
     4
100
AcDbLine
 10
42.797717
 20
128.184326
 30
0.0
 11
42.797717
 21
129.184326
 31
0.0
  0
LINE
  5
35D
330
1F
100
AcDbEntity
  8
0
  6
CONTINUOUS
 62
     4
100
AcDbLine
 10
99.849947
 20
167.184326
 30
0.0
 11
99.849947
 21
166.684326
 31
0.0
  0
LINE
  5
35E
330
1F
100
AcDbEntity
  8
0
  6
CONTINUOUS
 62
     4
100
AcDbLine
 10
99.849947
 20
162.684326
 30
0.0
 11
99.849947
 21
133.384341
 31
0.0
  0
LINE
  5
35F
330
1F
100
AcDbEntity
  8
0
  6
CONTINUOUS
 62
     5
100
AcDbLine
 10
99.849947
 20
131.684326
 30
0.0
 11
97.749947
 21
131.684326
 31
0.0
  0
LINE
  5
360
330
1F
100
AcDbEntity
  8
DIM
  6
CONTINUOUS
 62
     5
100
AcDbLine
 10
99.849947
 20
132.459303
 30
0.0
 11
99.849947
 21
133.384341
 31
0.0
  0
LINE
  5
361
330
1F
100
AcDbEntity
  8
DIM
  6
CONTINUOUS
 62
     5
100
AcDbLine
 10
96.049947
 20
131.684339
 30
0.0
 11
97.749947
 21
131.684326
 31
0.0
  0
LINE
  5
362
330
1F
100
AcDbEntity
  8
0
  6
CONTINUOUS
 62
     6
100
AcDbLine
 10
76.597717
 20
172.384326
 30
0.0
 11
76.597717
 21
177.984326
 31
0.0
  0
LINE
  5
363
330
1F
100
AcDbEntity
  8
0
  6
CONTINUOUS
 62
     6
100
AcDbLine
 10
55.597717
 20
172.384326
 30
0.0
 11
55.597717
 21
177.984326
 31
0.0
  0
ARC
  5
364
330
1F
100
AcDbEntity
  8
0
  6
CONTINUOUS
 62
     6
100
AcDbCircle
 10
55.797717
 20
177.984326
 30
0.0
 40
0.2000000029802322
100
AcDbArc
 50
90.0
 51
180.0
  0
ARC
  5
365
330
1F
100
AcDbEntity
  8
0
  6
CONTINUOUS
 62
     6
100
AcDbCircle
 10
76.397717
 20
177.984326
 30
0.0
 40
0.2000000029802322
100
AcDbArc
 50
0.0
 51
90.0
  0
ARC
  5
366
330
1F
100
AcDbEntity
  8
0
  6
CONTINUOUS
 62
     6
100
AcDbCircle
 10
-76.397717
 20
172.384326
 30
0.0
 40
0.2000000029802322
210
0.0
220
0.0
230
-1.0
100
AcDbArc
 50
180.0
 51
270.0
  0
ARC
  5
367
330
1F
100
AcDbEntity
  8
0
  6
CONTINUOUS
 62
     6
100
AcDbCircle
 10
-55.797717
 20
172.384326
 30
0.0
 40
0.2000000029802322
210
0.0
220
0.0
230
-1.0
100
AcDbArc
 50
270.0
 51
0.0
  0
LINE
  5
368
330
1F
100
AcDbEntity
  8
0
  6
CONTINUOUS
 62
     6
100
AcDbLine
 10
76.397717
 20
178.184326
 30
0.0
 11
55.797717
 21
178.184326
 31
0.0
  0
ARC
  5
369
330
1F
100
AcDbEntity
  8
0
  6
CONTINUOUS
 62
     5
100
AcDbCircle
 10
-61.797717
 20
177.984326
 30
0.0
 40
0.2000000029802322
210
0.0
220
0.0
230
-1.0
100
AcDbArc
 50
0.0
 51
90.0
  0
ARC
  5
36A
330
1F
100
AcDbEntity
  8
0
  6
CONTINUOUS
 62
     5
100
AcDbCircle
 10
-57.397717
 20
177.984326
 30
0.0
 40
0.2000000029802322
210
0.0
220
0.0
230
-1.0
100
AcDbArc
 50
90.0
 51
180.0
  0
ARC
  5
36B
330
1F
100
AcDbEntity
  8
0
  6
CONTINUOUS
 62
     5
100
AcDbCircle
 10
-70.397717
 20
177.984326
 30
0.0
 40
0.2000000029802322
210
0.0
220
0.0
230
-1.0
100
AcDbArc
 50
90.0
 51
180.0
  0
ARC
  5
36C
330
1F
100
AcDbEntity
  8
0
  6
CONTINUOUS
 62
     5
100
AcDbCircle
 10
74.797717
 20
177.984326
 30
0.0
 40
0.2000000029802322
100
AcDbArc
 50
90.0
 51
180.0
  0
LINE
  5
36D
330
1F
100
AcDbEntity
  8
0
  6
CONTINUOUS
 62
     5
100
AcDbLine
 10
57.597717
 20
177.584326
 30
0.0
 11
57.597717
 21
177.984326
 31
0.0
  0
LINE
  5
36E
330
1F
100
AcDbEntity
  8
0
  6
CONTINUOUS
 62
     5
100
AcDbLine
 10
58.197717
 20
176.984326
 30
0.0
 11
60.997717
 21
176.984326
 31
0.0
  0
LINE
  5
36F
330
1F
100
AcDbEntity
  8
0
  6
CONTINUOUS
 62
     5
100
AcDbLine
 10
61.597717
 20
177.584326
 30
0.0
 11
61.597717
 21
177.984326
 31
0.0
  0
LINE
  5
370
330
1F
100
AcDbEntity
  8
0
  6
CONTINUOUS
 62
     5
100
AcDbLine
 10
70.597717
 20
177.584326
 30
0.0
 11
70.597717
 21
177.984326
 31
0.0
  0
LINE
  5
371
330
1F
100
AcDbEntity
  8
0
  6
CONTINUOUS
 62
     5
100
AcDbLine
 10
71.197717
 20
176.984326
 30
0.0
 11
73.997717
 21
176.984326
 31
0.0
  0
LINE
  5
372
330
1F
100
AcDbEntity
  8
0
  6
CONTINUOUS
 62
     5
100
AcDbLine
 10
74.597717
 20
177.584326
 30
0.0
 11
74.597717
 21
177.984326
 31
0.0
  0
ARC
  5
373
330
1F
100
AcDbEntity
  8
0
  6
CONTINUOUS
 62
     5
100
AcDbCircle
 10
-58.197717
 20
177.584326
 30
0.0
 40
0.6000000238418579
210
0.0
220
0.0
230
-1.0
100
AcDbArc
 50
270.0
 51
0.0
  0
ARC
  5
374
330
1F
100
AcDbEntity
  8
0
  6
CONTINUOUS
 62
     5
100
AcDbCircle
 10
60.997717
 20
177.584326
 30
0.0
 40
0.6000000238418579
100
AcDbArc
 50
270.0
 51
0.0
  0
ARC
  5
375
330
1F
100
AcDbEntity
  8
0
  6
CONTINUOUS
 62
     5
100
AcDbCircle
 10
-71.197717
 20
177.584326
 30
0.0
 40
0.6000000238418579
210
0.0
220
0.0
230
-1.0
100
AcDbArc
 50
270.0
 51
0.0
  0
ARC
  5
376
330
1F
100
AcDbEntity
  8
0
  6
CONTINUOUS
 62
     5
100
AcDbCircle
 10
73.997717
 20
177.584326
 30
0.0
 40
0.6000000238418579
100
AcDbArc
 50
270.0
 51
0.0
  0
DIMENSION
  5
377
330
1F
100
AcDbEntity
  8
DIM
  6
CONTINUOUS
 62
     6
100
AcDbDimension
  2
*D3
 10
77.597717
 20
198.643829
 30
0.0
 11
60.097717
 21
202.861135
 31
0.0
 70
    33
  1
<>
  3
FINDER
100
AcDbAlignedDimension
 13
42.597717
 23
189.684326
 33
0.0
 14
77.597717
 24
189.684326
 34
0.0
1001
ACAD
1000
DSTYLE
1002
{
1070
     5
1000
CLOSED
1070
    41
1040
1.2
1070
   176
1070
     3
1070
   177
1070
     3
1070
   271
1070
     1
1070
    42
1040
1.111111
1002
}
  0
DIMENSION
  5
384
330
1F
100
AcDbEntity
  8
DIM
  6
CONTINUOUS
 62
     6
100
AcDbDimension
  2
*D4
 10
156.349947
 20
198.643829
 30
0.0
 11
125.949947
 21
202.861135
 31
0.0
 70
    32
  1
<>
  3
FINDER
100
AcDbAlignedDimension
 13
95.549947
 23
179.684326
 33
0.0
 14
156.349947
 24
171.184326
 34
0.0
100
AcDbRotatedDimension
1001
ACAD
1000
DSTYLE
1002
{
1070
     5
1000
CLOSED
1070
    41
1040
1.2
1070
   176
1070
     3
1070
   177
1070
     3
1070
   271
1070
     1
1070
    42
1040
1.111111
1002
}
  0
DIMENSION
  5
391
330
1F
100
AcDbEntity
  8
DIM
  6
CONTINUOUS
 62
     6
100
AcDbDimension
  2
*D5
 10
174.638367
 20
107.684326
 30
0.0
 11
170.421061
 21
149.684326
 31
0.0
 70
    33
  1
<>
  3
FINDER
100
AcDbAlignedDimension
 13
123.349947
 23
191.684326
 33
0.0
 14
123.349947
 24
107.684326
 34
0.0
1001
ACAD
1000
DSTYLE
1002
{
1070
     7
1000

1070
     6
1000

1070
     5
1000
CLOSED
1070
   280
1070
     0
1070
    76
1070
     0
1070
    75
1070
     0
1070
    41
1040
1.2
1070
   176
1070
     3
1070
   177
1070
     3
1070
   271
1070
     1
1070
    42
1040
1.111111
1002
}
  0
DIMENSION
  5
39E
330
1F
100
AcDbEntity
  8
DIM
  6
CONTINUOUS
 62
     6
100
AcDbDimension
  2
*D6
 10
164.496033
 20
172.184326
 30
0.0
 11
160.285727
 21
149.684326
 31
0.0
 70
    32
  1
<>
  3
FINDER
100
AcDbAlignedDimension
 13
154.349947
 23
127.184326
 33
0.0
 14
148.849947
 24
172.184326
 34
0.0
 50
90.0
100
AcDbRotatedDimension
1001
ACAD
1000
DSTYLE
1002
{
1070
     5
1000
CLOSED
1070
    41
1040
1.2
1070
   176
1070
     3
1070
   177
1070
     3
1070
   271
1070
     1
1070
    42
1040
1.111111
1002
}
  0
DIMENSION
  5
3AB
330
1F
100
AcDbEntity
  8
DIM
  6
CONTINUOUS
 62
     5
100
AcDbDimension
  2
*D7
 10
90.246216
 20
133.384341
 30
0.0
 11
86.02891
 21
118.109334
 31
0.0
 70
    32
  1
30.5
  3
FINDER
100
AcDbAlignedDimension
 13
96.049947
 23
102.834326
 33
0.0
 14
99.249947
 24
133.384341
 34
0.0
 50
90.0
100
AcDbRotatedDimension
1001
ACAD
1000
DSTYLE
1002
{
1070
     5
1000
CLOSED
1070
    41
1040
1.2
1070
   176
1070
     3
1070
   177
1070
     3
1070
   271
1070
     1
1070
    42
1040
1.111111
1002
}
  0
DIMENSION
  5
3B8
330
1F
100
AcDbEntity
  8
DIM
  6
CONTINUOUS
 62
     5
100
AcDbDimension
  2
*D8
 10
90.246216
 20
167.184326
 30
0.0
 11
86.02891
 21
150.284334
 31
0.0
 70
    32
  1
<>
  3
FINDER
100
AcDbAlignedDimension
 13
99.249947
 23
133.384341
 33
0.0
 14
99.199947
 24
167.184326
 34
0.0
 50
90.0
100
AcDbRotatedDimension
1001
ACAD
1000
DSTYLE
1002
{
1070
     5
1000
CLOSED
1070
    41
1040
1.2
1070
   176
1070
     3
1070
   177
1070
     3
1070
   271
1070
     1
1070
    42
1040
1.111111
1002
}
  0
DIMENSION
  5
3C5
330
1F
100
AcDbEntity
  8
DIM
  6
CONTINUOUS
 62
     5
100
AcDbDimension
  2
*D9
 10
35.920288
 20
102.834339
 30
0.0
 11
31.702982
 21
147.259333
 31
0.0
 70
    32
  1
<>
  3
FINDER
100
AcDbAlignedDimension
 13
42.997717
 23
191.684326
 33
0.0
 14
60.088398
 24
102.834339
 34
0.0
 50
90.0
100
AcDbRotatedDimension
1001
ACAD
1000
DSTYLE
1002
{
1070
     7
1000

1070
     6
1000

1070
     5
1000
CLOSED
1070
   280
1070
     0
1070
    76
1070
     0
1070
    75
1070
     0
1070
    41
1040
1.2
1070
   176
1070
     3
1070
   177
1070
     3
1070
   271
1070
     1
1070
    42
1040
1.111111
1002
}
  0
INSERT
  5
3DA
330
1F
100
AcDbEntity
  8
CARTOUCHE
  6
CONTINUOUS
 62
     7
100
AcDbBlockReference
  2
LW_POLYLINE_1
 10
200.000031
 20
287.000183
 30
0.0
  0
ENDSEC
  0
SECTION
  2
OBJECTS
  0
DICTIONARY
  5
C
330
0
100
AcDbDictionary
  3
ACAD_GROUP
350
D
  3
ACAD_LAYOUT
350
1A
  3
ACAD_MLINESTYLE
350
17
  3
ACAD_PLOTSETTINGS
350
19
  3
ACAD_TABLESTYLE
350
3FB
  3
ACAD_VISUALSTYLE
350
2A
  3
ACDBHEADERROUNDTRIPXREC
350
3DB
  3
ACDBVARIABLEDICTIONARY
350
3FC
  0
DICTIONARY
  5
D
102
{ACAD_REACTORS
330
C
102
}
330
C
100
AcDbDictionary
  0
DICTIONARY
  5
1A
102
{ACAD_REACTORS
330
C
102
}
330
C
100
AcDbDictionary
  0
DICTIONARY
  5
17
102
{ACAD_REACTORS
330
C
102
}
330
C
100
AcDbDictionary
  3
STANDARD
350
18
  0
DICTIONARY
  5
19
102
{ACAD_REACTORS
330
C
102
}
330
C
100
AcDbDictionary
  0
DICTIONARY
  5
3FB
102
{ACAD_REACTORS
330
C
102
}
330
C
100
AcDbDictionary
  0
DICTIONARY
  5
2A
102
{ACAD_REACTORS
330
C
102
}
330
C
100
AcDbDictionary
  3
2DWIREFRAME
350
2F
  3
3D_HIDDEN
350
31
  3
3DWIREFRAME
350
30
  3
BASIC
350
32
  3
BRIGHTEN
350
36
  3
COLORCHANGE
350
3A
  3
CONCEPTUAL
350
34
  3
DIM
350
35
  3
FACEPATTERN
350
39
  3
FLAT
350
2B
  3
FLATWITHEDGES
350
2C
  3
GOURAUD
350
2D
  3
GOURAUDWITHEDGES
350
2E
  3
LINEPATTERN
350
38
  3
REALISTIC
350
33
  3
THICKEN
350
37
  0
DICTIONARY
  5
3DB
102
{ACAD_REACTORS
330
C
102
}
330
C
100
AcDbDictionary
  3
CEPSNTYPE
350
3E4
  3
DIMSTYLEDATA
350
3FA
  3
FINGERPRINTGUID
350
3E5
  3
HYPERLINKBASE
350
3DE
  3
INSUNITS
350
3E3
  3
LAYOUTDICT
350
3E0
  3
LWETCUNION
350
3E2
  3
PLOTSETDICT
350
3E1
  3
PSVPSCALE
350
3E7
  3
PUCSBASE
350
3EA
  3
PUCSORGBACK
350
3F0
  3
PUCSORGBOTTOM
350
3EC
  3
PUCSORGFRONT
350
3EF
  3
PUCSORGLEFT
350
3ED
  3
PUCSORGRIGHT
350
3EE
  3
PUCSORGTOP
350
3EB
  3
PUCSORTHOREF
350
3E8
  3
PUCSORTHOVIEW
350
3E9
  3
STYLESHEET
350
3DF
  3
TSTACKALIGN
350
3DC
  3
TSTACKSIZE
350
3DD
  3
UCSBASE
350
3F3
  3
UCSORGBACK
350
3F9
  3
UCSORGBOTTOM
350
3F5
  3
UCSORGFRONT
350
3F8
  3
UCSORGLEFT
350
3F6
  3
UCSORGRIGHT
350
3F7
  3
UCSORGTOP
350
3F4
  3
UCSORTHOREF
350
3F1
  3
UCSORTHOVIEW
350
3F2
  3
VERSIONGUID
350
3E6
  0
DICTIONARY
  5
3FC
102
{ACAD_REACTORS
330
C
102
}
330
C
100
AcDbDictionary
  3
PSOLHEIGHT
350
3FE
  3
PSOLWIDTH
350
3FD
  0
MLINESTYLE
  5
18
102
{ACAD_REACTORS
330
17
102
}
330
17
100
AcDbMlineStyle
  2
Standard
 70
     0
  3

 62
   256
 51
90.0
 52
90.0
 71
     2
 49
0.5
 62
   256
  6
BYLAYER
 49
-0.5
 62
   256
  6
BYLAYER
  0
VISUALSTYLE
  5
2F
102
{ACAD_REACTORS
330
2A
102
}
330
2A
100
AcDbVisualStyle
  2
2dWireframe
 70
     4
 71
     0
 72
     2
 73
     0
 90
        0
 40
-0.6
 41
-30.0
 62
     5
 63
     7
 74
     1
 91
        4
 64
     7
 65
   257
 75
     1
175
     1
 42
1.0
 92
        0
 66
   257
 43
1.0
 76
     1
 77
     6
 78
     2
 67
     7
 79
     5
170
     0
171
     0
290
     0
174
     0
 93
        1
 44
0.0
173
     0
291
     0
 45
0.0
1001
ACAD
1000
AcDbSavedByObjectVersion
1070
     0
  0
VISUALSTYLE
  5
31
102
{ACAD_REACTORS
330
2A
102
}
330
2A
100
AcDbVisualStyle
  2
3D Hidden
 70
     6
 71
     1
 72
     2
 73
     2
 90
        0
 40
-0.6
 41
-30.0
 62
     5
 63
     7
 74
     2
 91
        2
 64
     7
 65
   257
 75
     2
175
     1
 42
40.0
 92
        0
 66
   257
 43
1.0
 76
     1
 77
     6
 78
     2
 67
     7
 79
     3
170
     0
171
     0
290
     0
174
     0
 93
        1
 44
0.0
173
     0
291
     0
 45
0.0
1001
ACAD
1000
AcDbSavedByObjectVersion
1070
     0
  0
VISUALSTYLE
  5
30
102
{ACAD_REACTORS
330
2A
102
}
330
2A
100
AcDbVisualStyle
  2
3dWireframe
 70
     5
 71
     0
 72
     2
 73
     0
 90
        0
 40
-0.6
 41
-30.0
 62
     5
 63
     7
 74
     1
 91
        4
 64
     7
 65
   257
 75
     1
175
     1
 42
1.0
 92
        0
 66
   257
 43
1.0
 76
     1
 77
     6
 78
     2
 67
     7
 79
     5
170
     0
171
     0
290
     0
174
     0
 93
        1
 44
0.0
173
     0
291
     0
 45
0.0
1001
ACAD
1000
AcDbSavedByObjectVersion
1070
     0
  0
VISUALSTYLE
  5
32
102
{ACAD_REACTORS
330
2A
102
}
330
2A
100
AcDbVisualStyle
  2
Basic
 70
     7
 71
     1
 72
     0
 73
     1
 90
        0
 40
-0.6
 41
-30.0
 62
     5
 63
     7
 74
     0
 91
        4
 64
     7
 65
   257
 75
     1
175
     1
 42
1.0
 92
        8
 66
     7
 43
1.0
 76
     1
 77
     6
 78
     2
 67
     7
 79
     5
170
     0
171
     0
290
     0
174
     0
 93
        1
 44
0.0
173
     0
291
     1
 45
0.0
1001
ACAD
1000
AcDbSavedByObjectVersion
1070
     0
  0
VISUALSTYLE
  5
36
102
{ACAD_REACTORS
330
2A
102
}
330
2A
100
AcDbVisualStyle
  2
Brighten
 70
    12
 71
     2
 72
     2
 73
     0
 90
        0
 40
-0.6
 41
-30.0
 62
     5
 63
     7
 74
     1
 91
        4
 64
     7
 65
   257
 75
     1
175
     1
 42
1.0
 92
        8
 66
     7
 43
1.0
 76
     1
 77
     6
 78
     2
 67
     7
 79
     5
170
     0
171
     0
290
     0
174
     0
 93
        1
 44
50.0
173
     0
291
     1
 45
0.0
1001
ACAD
1000
AcDbSavedByObjectVersion
1070
     0
  0
VISUALSTYLE
  5
3A
102
{ACAD_REACTORS
330
2A
102
}
330
2A
100
AcDbVisualStyle
  2
ColorChange
 70
    16
 71
     2
 72
     2
 73
     3
 90
        0
 40
-0.6
 41
-30.0
 62
     5
 63
     8
 74
     1
 91
        4
 64
     7
 65
   257
 75
     1
175
     1
 42
1.0
 92
        8
 66
     8
 43
1.0
 76
     1
 77
     6
 78
     2
 67
     7
 79
     5
170
     0
171
     0
290
     0
174
     0
 93
        1
 44
0.0
173
     0
291
     1
 45
0.0
1001
ACAD
1000
AcDbSavedByObjectVersion
1070
     0
  0
VISUALSTYLE
  5
34
102
{ACAD_REACTORS
330
2A
102
}
330
2A
100
AcDbVisualStyle
  2
Conceptual
 70
     9
 71
     3
 72
     2
 73
     0
 90
        0
 40
-0.6
 41
-30.0
 62
     5
 63
     7
 74
     2
 91
        2
 64
     7
 65
   257
 75
     1
175
     1
 42
40.0
 92
        8
 66
     7
 43
1.0
 76
     1
 77
     6
 78
     2
 67
     7
 79
     3
170
     0
171
     0
290
     0
174
     0
 93
        1
 44
0.0
173
     0
291
     0
 45
0.0
1001
ACAD
1000
AcDbSavedByObjectVersion
1070
     0
  0
VISUALSTYLE
  5
35
102
{ACAD_REACTORS
330
2A
102
}
330
2A
100
AcDbVisualStyle
  2
Dim
 70
    11
 71
     2
 72
     2
 73
     0
 90
        0
 40
-0.6
 41
-30.0
 62
     5
 63
     7
 74
     1
 91
        4
 64
     7
 65
   257
 75
     1
175
     1
 42
1.0
 92
        8
 66
     7
 43
1.0
 76
     1
 77
     6
 78
     2
 67
     7
 79
     5
170
     0
171
     0
290
     0
174
     0
 93
        1
 44
-50.0
173
     0
291
     1
 45
0.0
1001
ACAD
1000
AcDbSavedByObjectVersion
1070
     0
  0
VISUALSTYLE
  5
39
102
{ACAD_REACTORS
330
2A
102
}
330
2A
100
AcDbVisualStyle
  2
Facepattern
 70
    15
 71
     2
 72
     2
 73
     0
 90
        0
 40
-0.6
 41
-30.0
 62
     5
 63
     7
 74
     1
 91
        4
 64
     7
 65
   257
 75
     1
175
     1
 42
1.0
 92
        8
 66
     7
 43
1.0
 76
     1
 77
     6
 78
     2
 67
     7
 79
     5
170
     0
171
     0
290
     0
174
     0
 93
        1
 44
0.0
173
     0
291
     1
 45
0.0
1001
ACAD
1000
AcDbSavedByObjectVersion
1070
     0
  0
VISUALSTYLE
  5
2B
102
{ACAD_REACTORS
330
2A
102
}
330
2A
100
AcDbVisualStyle
  2
Flat
 70
     0
 71
     2
 72
     1
 73
     1
 90
        2
 40
-0.6
 41
30.0
 62
     5
 63
     7
 74
     0
 91
        4
 64
     7
 65
   257
 75
     1
175
     1
 42
1.0
 92
        8
 66
     7
 43
1.0
 76
     1
 77
     6
 78
     2
 67
     7
 79
     5
170
     0
171
     0
290
     0
174
     0
 93
       13
 44
0.0
173
     0
291
     1
 45
0.0
1001
ACAD
1000
AcDbSavedByObjectVersion
1070
     0
  0
VISUALSTYLE
  5
2C
102
{ACAD_REACTORS
330
2A
102
}
330
2A
100
AcDbVisualStyle
  2
FlatWithEdges
 70
     1
 71
     2
 72
     1
 73
     1
 90
        2
 40
-0.6
 41
30.0
 62
     5
 63
     7
 74
     1
 91
        4
 64
     7
 65
   257
 75
     1
175
     1
 42
1.0
 92
        0
 66
   257
 43
1.0
 76
     1
 77
     6
 78
     2
 67
     7
 79
     5
170
     0
171
     0
290
     0
174
     0
 93
       13
 44
0.0
173
     0
291
     1
 45
0.0
1001
ACAD
1000
AcDbSavedByObjectVersion
1070
     0
  0
VISUALSTYLE
  5
2D
102
{ACAD_REACTORS
330
2A
102
}
330
2A
100
AcDbVisualStyle
  2
Gouraud
 70
     2
 71
     2
 72
     2
 73
     1
 90
        2
 40
-0.6
 41
30.0
 62
     5
 63
     7
 74
     0
 91
        4
 64
     7
 65
   257
 75
     1
175
     1
 42
1.0
 92
        0
 66
     7
 43
1.0
 76
     1
 77
     6
 78
     2
 67
     7
 79
     5
170
     0
171
     0
290
     0
174
     0
 93
       13
 44
0.0
173
     0
291
     1
 45
0.0
1001
ACAD
1000
AcDbSavedByObjectVersion
1070
     0
  0
VISUALSTYLE
  5
2E
102
{ACAD_REACTORS
330
2A
102
}
330
2A
100
AcDbVisualStyle
  2
GouraudWithEdges
 70
     3
 71
     2
 72
     2
 73
     1
 90
        2
 40
-0.6
 41
30.0
 62
     5
 63
     7
 74
     1
 91
        4
 64
     7
 65
   257
 75
     1
175
     1
 42
1.0
 92
        0
 66
   257
 43
1.0
 76
     1
 77
     6
 78
     2
 67
     7
 79
     5
170
     0
171
     0
290
     0
174
     0
 93
       13
 44
0.0
173
     0
291
     1
 45
0.0
1001
ACAD
1000
AcDbSavedByObjectVersion
1070
     0
  0
VISUALSTYLE
  5
38
102
{ACAD_REACTORS
330
2A
102
}
330
2A
100
AcDbVisualStyle
  2
Linepattern
 70
    14
 71
     2
 72
     2
 73
     0
 90
        0
 40
-0.6
 41
-30.0
 62
     5
 63
     7
 74
     1
 91
        4
 64
     7
 65
   257
 75
     7
175
     7
 42
1.0
 92
        8
 66
     7
 43
1.0
 76
     1
 77
     6
 78
     2
 67
     7
 79
     5
170
     0
171
     0
290
     0
174
     0
 93
        1
 44
0.0
173
     0
291
     1
 45
0.0
1001
ACAD
1000
AcDbSavedByObjectVersion
1070
     0
  0
VISUALSTYLE
  5
33
102
{ACAD_REACTORS
330
2A
102
}
330
2A
100
AcDbVisualStyle
  2
Realistic
 70
     8
 71
     2
 72
     2
 73
     0
 90
        0
 40
-0.6
 41
-30.0
 62
     5
 63
     7
 74
     1
 91
        0
 64
     7
 65
   257
 75
     1
175
     1
 42
1.0
 92
        8
 66
     8
 43
1.0
 76
     1
 77
     6
 78
     2
 67
     7
 79
     5
170
     0
171
     0
290
     0
174
     0
 93
       13
 44
0.0
173
     0
291
     0
 45
0.0
1001
ACAD
1000
AcDbSavedByObjectVersion
1070
     0
  0
VISUALSTYLE
  5
37
102
{ACAD_REACTORS
330
2A
102
}
330
2A
100
AcDbVisualStyle
  2
Thicken
 70
    13
 71
     2
 72
     2
 73
     0
 90
        0
 40
-0.6
 41
-30.0
 62
     5
 63
     7
 74
     1
 91
        4
 64
     7
 65
   257
 75
     1
175
     1
 42
1.0
 92
       12
 66
     7
 43
1.0
 76
     1
 77
     6
 78
     2
 67
     7
 79
     5
170
     0
171
     0
290
     0
174
     0
 93
        1
 44
0.0
173
     0
291
     1
 45
0.0
1001
ACAD
1000
AcDbSavedByObjectVersion
1070
     0
  0
XRECORD
  5
3E4
102
{ACAD_REACTORS
330
3DB
102
}
330
3DB
100
AcDbXrecord
 90
        0
  0
XRECORD
  5
3FA
102
{ACAD_REACTORS
330
3DB
102
}
330
3DB
100
AcDbXrecord
1000
DSTYLE
1002
{
1070
   340
340
11
1002
}
  0
XRECORD
  5
3E5
102
{ACAD_REACTORS
330
3DB
102
}
330
3DB
100
AcDbXrecord
  1
{82B02FBE-02D9-4CFD-B27E-CD9B61E3CA03}
  0
XRECORD
  5
3DE
102
{ACAD_REACTORS
330
3DB
102
}
330
3DB
100
AcDbXrecord
  1

  0
XRECORD
  5
3E3
102
{ACAD_REACTORS
330
3DB
102
}
330
3DB
100
AcDbXrecord
 90
        4
  0
XRECORD
  5
3E0
102
{ACAD_REACTORS
330
3DB
102
}
330
3DB
100
AcDbXrecord
340
1A
  0
XRECORD
  5
3E2
102
{ACAD_REACTORS
330
3DB
102
}
330
3DB
100
AcDbXrecord
 90
    10781
  0
XRECORD
  5
3E1
102
{ACAD_REACTORS
330
3DB
102
}
330
3DB
100
AcDbXrecord
340
19
  0
XRECORD
  5
3E7
102
{ACAD_REACTORS
330
3DB
102
}
330
3DB
100
AcDbXrecord
 40
0.0
  0
XRECORD
  5
3EA
102
{ACAD_REACTORS
330
3DB
102
}
330
3DB
100
AcDbXrecord
340
0
  0
XRECORD
  5
3F0
102
{ACAD_REACTORS
330
3DB
102
}
330
3DB
100
AcDbXrecord
 10
0.0
 20
0.0
 30
0.0
  0
XRECORD
  5
3EC
102
{ACAD_REACTORS
330
3DB
102
}
330
3DB
100
AcDbXrecord
 10
0.0
 20
0.0
 30
0.0
  0
XRECORD
  5
3EF
102
{ACAD_REACTORS
330
3DB
102
}
330
3DB
100
AcDbXrecord
 10
0.0
 20
0.0
 30
0.0
  0
XRECORD
  5
3ED
102
{ACAD_REACTORS
330
3DB
102
}
330
3DB
100
AcDbXrecord
 10
0.0
 20
0.0
 30
0.0
  0
XRECORD
  5
3EE
102
{ACAD_REACTORS
330
3DB
102
}
330
3DB
100
AcDbXrecord
 10
0.0
 20
0.0
 30
0.0
  0
XRECORD
  5
3EB
102
{ACAD_REACTORS
330
3DB
102
}
330
3DB
100
AcDbXrecord
 10
0.0
 20
0.0
 30
0.0
  0
XRECORD
  5
3E8
102
{ACAD_REACTORS
330
3DB
102
}
330
3DB
100
AcDbXrecord
340
0
  0
XRECORD
  5
3E9
102
{ACAD_REACTORS
330
3DB
102
}
330
3DB
100
AcDbXrecord
 70
     0
  0
XRECORD
  5
3DF
102
{ACAD_REACTORS
330
3DB
102
}
330
3DB
100
AcDbXrecord
  1

  0
XRECORD
  5
3DC
102
{ACAD_REACTORS
330
3DB
102
}
330
3DB
100
AcDbXrecord
 90
        1
  0
XRECORD
  5
3DD
102
{ACAD_REACTORS
330
3DB
102
}
330
3DB
100
AcDbXrecord
 90
       70
  0
XRECORD
  5
3F3
102
{ACAD_REACTORS
330
3DB
102
}
330
3DB
100
AcDbXrecord
340
0
  0
XRECORD
  5
3F9
102
{ACAD_REACTORS
330
3DB
102
}
330
3DB
100
AcDbXrecord
 10
0.0
 20
0.0
 30
0.0
  0
XRECORD
  5
3F5
102
{ACAD_REACTORS
330
3DB
102
}
330
3DB
100
AcDbXrecord
 10
0.0
 20
0.0
 30
0.0
  0
XRECORD
  5
3F8
102
{ACAD_REACTORS
330
3DB
102
}
330
3DB
100
AcDbXrecord
 10
0.0
 20
0.0
 30
0.0
  0
XRECORD
  5
3F6
102
{ACAD_REACTORS
330
3DB
102
}
330
3DB
100
AcDbXrecord
 10
0.0
 20
0.0
 30
0.0
  0
XRECORD
  5
3F7
102
{ACAD_REACTORS
330
3DB
102
}
330
3DB
100
AcDbXrecord
 10
0.0
 20
0.0
 30
0.0
  0
XRECORD
  5
3F4
102
{ACAD_REACTORS
330
3DB
102
}
330
3DB
100
AcDbXrecord
 10
0.0
 20
0.0
 30
0.0
  0
XRECORD
  5
3F1
102
{ACAD_REACTORS
330
3DB
102
}
330
3DB
100
AcDbXrecord
340
0
  0
XRECORD
  5
3F2
102
{ACAD_REACTORS
330
3DB
102
}
330
3DB
100
AcDbXrecord
 70
     0
  0
XRECORD
  5
3E6
102
{ACAD_REACTORS
330
3DB
102
}
330
3DB
100
AcDbXrecord
  1
{FAEB1C32-E019-11D5-929B-00C0DF256EC4}
  0
DICTIONARYVAR
  5
3FE
102
{ACAD_REACTORS
330
3FC
102
}
330
3FC
100
DictionaryVariables
280
     0
  1
80.000000
  0
DICTIONARYVAR
  5
3FD
102
{ACAD_REACTORS
330
3FC
102
}
330
3FC
100
DictionaryVariables
280
     0
  1
5.000000
  0
ENDSEC
  0
EOF
