  0
SECTION
  2
HEADER
  9
$ACADVER
  1
AC1015
  9
$ACADMAINTVER
 70
    20
  9
$DWGCODEPAGE
  3
ANSI_1252
  9
$INSBASE
 10
0.0
 20
0.0
 30
0.0
  9
$EXTMIN
 10
-70.60458337769119
 20
288.7994897070327
 30
-1.0
  9
$EXTMAX
 10
339.3954166223088
 20
558.7994897070326
 30
0.7
  9
$LIMMIN
 10
0.0
 20
0.0
  9
$LIMMAX
 10
420.0
 20
297.0
  9
$ORTHOMODE
 70
     0
  9
$REGENMODE
 70
     1
  9
$FILLMODE
 70
     1
  9
$QTEXTMODE
 70
     0
  9
$MIRRTEXT
 70
     0
  9
$LTSCALE
 40
23.1
  9
$ATTMODE
 70
     1
  9
$TEXTSIZE
 40
0.2
  9
$TRACEWID
 40
0.05
  9
$TEXTSTYLE
  7
Standard
  9
$CLAYER
  8
0
  9
$CELTYPE
  6
ByLayer
  9
$CECOLOR
 62
   256
  9
$CELTSCALE
 40
1.0
  9
$DISPSILH
 70
     0
  9
$DIMSCALE
 40
0.0
  9
$DIMASZ
 40
3.5
  9
$DIMEXO
 40
0.0
  9
$DIMDLI
 40
3.75
  9
$DIMRND
 40
0.0
  9
$DIMDLE
 40
0.0
  9
$DIMEXE
 40
2.0
  9
$DIMTP
 40
0.0
  9
$DIMTM
 40
0.0
  9
$DIMTXT
 40
3.5
  9
$DIMCEN
 40
2.5
  9
$DIMTSZ
 40
0.0
  9
$DIMTOL
 70
     0
  9
$DIMLIM
 70
     0
  9
$DIMTIH
 70
     0
  9
$DIMTOH
 70
     0
  9
$DIMSE1
 70
     0
  9
$DIMSE2
 70
     0
  9
$DIMTAD
 70
     1
  9
$DIMZIN
 70
     8
  9
$DIMBLK
  1

  9
$DIMASO
 70
     1
  9
$DIMSHO
 70
     1
  9
$DIMPOST
  1

  9
$DIMAPOST
  1

  9
$DIMALT
 70
     0
  9
$DIMALTD
 70
     4
  9
$DIMALTF
 40
0.039
  9
$DIMLFAC
 40
1.0
  9
$DIMTOFL
 70
     1
  9
$DIMTVP
 40
0.0
  9
$DIMTIX
 70
     0
  9
$DIMSOXD
 70
     0
  9
$DIMSAH
 70
     0
  9
$DIMBLK1
  1

  9
$DIMBLK2
  1

  9
$DIMSTYLE
  2
H035
  9
$DIMCLRD
 70
   256
  9
$DIMCLRE
 70
     7
  9
$DIMCLRT
 70
     7
  9
$DIMTFAC
 40
1.0
  9
$DIMGAP
 40
0.5
  9
$DIMJUST
 70
     0
  9
$DIMSD1
 70
     0
  9
$DIMSD2
 70
     0
  9
$DIMTOLJ
 70
     1
  9
$DIMTZIN
 70
     0
  9
$DIMALTZ
 70
     0
  9
$DIMALTTZ
 70
     0
  9
$DIMUPT
 70
     0
  9
$DIMDEC
 70
     0
  9
$DIMTDEC
 70
     2
  9
$DIMALTU
 70
     8
  9
$DIMALTTD
 70
     4
  9
$DIMTXSTY
  7
Standard
  9
$DIMAUNIT
 70
     0
  9
$DIMADEC
 70
     0
  9
$DIMALTRND
 40
0.0
  9
$DIMAZIN
 70
     0
  9
$DIMDSEP
 70
    46
  9
$DIMATFIT
 70
     3
  9
$DIMFRAC
 70
     0
  9
$DIMLDRBLK
  1

  9
$DIMLUNIT
 70
     2
  9
$DIMLWD
 70
    -2
  9
$DIMLWE
 70
    -2
  9
$DIMTMOVE
 70
     0
  9
$LUNITS
 70
     2
  9
$LUPREC
 70
     4
  9
$SKETCHINC
 40
0.1
  9
$FILLETRAD
 40
0.5
  9
$AUNITS
 70
     0
  9
$AUPREC
 70
     0
  9
$MENU
  1
.
  9
$ELEVATION
 40
0.0
  9
$PELEVATION
 40
0.0
  9
$THICKNESS
 40
0.0
  9
$LIMCHECK
 70
     0
  9
$CHAMFERA
 40
0.0
  9
$CHAMFERB
 40
0.0
  9
$CHAMFERC
 40
0.0
  9
$CHAMFERD
 40
0.0
  9
$SKPOLY
 70
     0
  9
$TDCREATE
 40
2452829.417613079
  9
$TDUCREATE
 40
2452829.375946412
  9
$TDUPDATE
 40
2453424.682934850
  9
$TDUUPDATE
 40
2453424.641268183
  9
$TDINDWG
 40
2.1169818403
  9
$TDUSRTIMER
 40
2.1169758681
  9
$USRTIMER
 70
     1
  9
$ANGBASE
 50
0.0
  9
$ANGDIR
 70
     0
  9
$PDMODE
 70
     0
  9
$PDSIZE
 40
0.0
  9
$PLINEWID
 40
0.0
  9
$SPLFRAME
 70
     0
  9
$SPLINETYPE
 70
     6
  9
$SPLINESEGS
 70
     8
  9
$HANDSEED
  5
D422
  9
$SURFTAB1
 70
     6
  9
$SURFTAB2
 70
     6
  9
$SURFTYPE
 70
     6
  9
$SURFU
 70
     6
  9
$SURFV
 70
     6
  9
$UCSBASE
  2

  9
$UCSNAME
  2

  9
$UCSORG
 10
0.0
 20
0.0
 30
0.0
  9
$UCSXDIR
 10
1.0
 20
0.0
 30
0.0
  9
$UCSYDIR
 10
0.0
 20
1.0
 30
0.0
  9
$UCSORTHOREF
  2

  9
$UCSORTHOVIEW
 70
     0
  9
$UCSORGTOP
 10
0.0
 20
0.0
 30
0.0
  9
$UCSORGBOTTOM
 10
0.0
 20
0.0
 30
0.0
  9
$UCSORGLEFT
 10
0.0
 20
0.0
 30
0.0
  9
$UCSORGRIGHT
 10
0.0
 20
0.0
 30
0.0
  9
$UCSORGFRONT
 10
0.0
 20
0.0
 30
0.0
  9
$UCSORGBACK
 10
0.0
 20
0.0
 30
0.0
  9
$PUCSBASE
  2

  9
$PUCSNAME
  2

  9
$PUCSORG
 10
0.0
 20
0.0
 30
0.0
  9
$PUCSXDIR
 10
1.0
 20
0.0
 30
0.0
  9
$PUCSYDIR
 10
0.0
 20
1.0
 30
0.0
  9
$PUCSORTHOREF
  2

  9
$PUCSORTHOVIEW
 70
     0
  9
$PUCSORGTOP
 10
0.0
 20
0.0
 30
0.0
  9
$PUCSORGBOTTOM
 10
0.0
 20
0.0
 30
0.0
  9
$PUCSORGLEFT
 10
0.0
 20
0.0
 30
0.0
  9
$PUCSORGRIGHT
 10
0.0
 20
0.0
 30
0.0
  9
$PUCSORGFRONT
 10
0.0
 20
0.0
 30
0.0
  9
$PUCSORGBACK
 10
0.0
 20
0.0
 30
0.0
  9
$USERI1
 70
     0
  9
$USERI2
 70
     0
  9
$USERI3
 70
     0
  9
$USERI4
 70
     0
  9
$USERI5
 70
     0
  9
$USERR1
 40
0.0
  9
$USERR2
 40
0.0
  9
$USERR3
 40
0.0
  9
$USERR4
 40
0.0
  9
$USERR5
 40
0.0
  9
$WORLDVIEW
 70
     1
  9
$SHADEDGE
 70
     3
  9
$SHADEDIF
 70
    70
  9
$TILEMODE
 70
     1
  9
$MAXACTVP
 70
    64
  9
$PINSBASE
 10
0.0
 20
0.0
 30
0.0
  9
$PLIMCHECK
 70
     0
  9
$PEXTMIN
 10
1.000000000000000E+20
 20
1.000000000000000E+20
 30
1.000000000000000E+20
  9
$PEXTMAX
 10
-1.000000000000000E+20
 20
-1.000000000000000E+20
 30
-1.000000000000000E+20
  9
$PLIMMIN
 10
0.0
 20
0.0
  9
$PLIMMAX
 10
12.0
 20
9.0
  9
$UNITMODE
 70
     0
  9
$VISRETAIN
 70
     1
  9
$PLINEGEN
 70
     0
  9
$PSLTSCALE
 70
     1
  9
$TREEDEPTH
 70
  3020
  9
$CMLSTYLE
  2
Standard
  9
$CMLJUST
 70
     0
  9
$CMLSCALE
 40
1.0
  9
$PROXYGRAPHICS
 70
     1
  9
$MEASUREMENT
 70
     0
  9
$CELWEIGHT
370
    -1
  9
$ENDCAPS
280
     0
  9
$JOINSTYLE
280
     0
  9
$LWDISPLAY
290
     0
  9
$INSUNITS
 70
     0
  9
$HYPERLINKBASE
  1

  9
$STYLESHEET
  1
MONOCHROME.CTB
  9
$XEDIT
290
     1
  9
$CEPSNTYPE
380
     0
  9
$PSTYLEMODE
290
     1
  9
$FINGERPRINTGUID
  2
{D88032C4-1185-41D3-97DD-7638FCF99E3F}
  9
$VERSIONGUID
  2
{D5FB533F-0D4A-47AF-8737-D63589F8E684}
  9
$EXTNAMES
290
     1
  9
$PSVPSCALE
 40
0.0
  9
$OLESTARTUP
290
     0
  0
ENDSEC
  0
SECTION
  2
CLASSES
  0
CLASS
  1
ACDBDICTIONARYWDFLT
  2
AcDbDictionaryWithDefault
  3
ObjectDBX Classes
 90
        0
280
     0
281
     0
  0
CLASS
  1
DICTIONARYVAR
  2
AcDbDictionaryVar
  3
ObjectDBX Classes
 90
        0
280
     0
281
     0
  0
CLASS
  1
ACDBPLACEHOLDER
  2
AcDbPlaceHolder
  3
ObjectDBX Classes
 90
        0
280
     0
281
     0
  0
CLASS
  1
LAYOUT
  2
AcDbLayout
  3
ObjectDBX Classes
 90
        0
280
     0
281
     0
  0
ENDSEC
  0
SECTION
  2
TABLES
  0
TABLE
  2
VPORT
  5
8
330
0
100
AcDbSymbolTable
 70
     2
  0
VPORT
  5
D419
330
8
100
AcDbSymbolTableRecord
100
AcDbViewportTableRecord
  2
*Active
 70
     0
 10
0.0
 20
0.0
 11
1.0
 21
1.0
 12
134.4042238742535
 22
427.1506532018196
 13
0.0
 23
0.0
 14
1.0
 24
1.0
 15
0.0
 25
0.0
 16
0.0
 26
0.0
 36
1.0
 17
0.0
 27
0.0
 37
0.0
 40
278.9166033842575
 41
1.571994715984147
 42
50.0
 43
0.0
 44
0.0
 50
0.0
 51
0.0
 71
     0
 72
   100
 73
     1
 74
     1
 75
     0
 76
     0
 77
     0
 78
     0
281
     0
 65
     1
110
0.0
120
0.0
130
0.0
111
1.0
121
0.0
131
0.0
112
0.0
122
1.0
132
0.0
 79
     0
146
0.0
  0
ENDTAB
  0
TABLE
  2
LTYPE
  5
5
330
0
100
AcDbSymbolTable
 70
     3
  0
LTYPE
  5
13
330
5
100
AcDbSymbolTableRecord
100
AcDbLinetypeTableRecord
  2
ByBlock
 70
     0
  3

 72
    65
 73
     0
 40
0.0
  0
LTYPE
  5
14
330
5
100
AcDbSymbolTableRecord
100
AcDbLinetypeTableRecord
  2
ByLayer
 70
     0
  3

 72
    65
 73
     0
 40
0.0
  0
LTYPE
  5
15
330
5
100
AcDbSymbolTableRecord
100
AcDbLinetypeTableRecord
  2
CONTINUOUS
 70
     0
  3
Solid line
 72
    65
 73
     0
 40
0.0
  0
LTYPE
  5
26
330
5
100
AcDbSymbolTableRecord
100
AcDbLinetypeTableRecord
  2
CENTER
 70
     0
  3
____ _ ____ _ ____ _ ____ _ ____ _ ____ _ ____
 72
    65
 73
     4
 40
0.6
 49
0.375
 74
     0
 49
-0.075
 74
     0
 49
0.075
 74
     0
 49
-0.075
 74
     0
  0
LTYPE
  5
4F7A
330
5
100
AcDbSymbolTableRecord
100
AcDbLinetypeTableRecord
  2
DASHED
 70
     0
  3
_ _ _ _ _ _ _ _ _ _ _ _ _ _ _ _ _ _ _ _ _ _ _ _
 72
    65
 73
     2
 40
0.375
 49
0.25
 74
     0
 49
-0.125
 74
     0
  0
ENDTAB
  0
TABLE
  2
LAYER
  5
2
330
0
100
AcDbSymbolTable
 70
    10
  0
LAYER
  5
10
330
2
100
AcDbSymbolTableRecord
100
AcDbLayerTableRecord
  2
0
 70
     0
 62
     7
  6
CONTINUOUS
370
    -3
390
F
  0
LAYER
  5
1D8
330
2
100
AcDbSymbolTableRecord
100
AcDbLayerTableRecord
  2
Defpoints
 70
     0
 62
     7
  6
CONTINUOUS
290
     0
370
    -3
390
F
  0
LAYER
  5
1D9
330
2
100
AcDbSymbolTableRecord
100
AcDbLayerTableRecord
  2
91000_TIP
 70
     0
 62
     7
  6
CONTINUOUS
370
    -3
390
F
  0
LAYER
  5
1DA
330
2
100
AcDbSymbolTableRecord
100
AcDbLayerTableRecord
  2
11000_Left
 70
     0
 62
     7
  6
CONTINUOUS
370
    -3
390
F
  0
LAYER
  5
1DB
330
2
100
AcDbSymbolTableRecord
100
AcDbLayerTableRecord
  2
10000_FRONT
 70
     0
 62
     7
  6
CONTINUOUS
370
    -3
390
F
  0
LAYER
  5
1DC
330
2
100
AcDbSymbolTableRecord
100
AcDbLayerTableRecord
  2
10100_FRONT_DIM
 70
     0
 62
     7
  6
CONTINUOUS
370
    -3
390
F
  0
LAYER
  5
1DD
330
2
100
AcDbSymbolTableRecord
100
AcDbLayerTableRecord
  2
90000_FRAME
 70
     0
 62
     7
  6
CONTINUOUS
370
    -3
390
F
  0
LAYER
  5
1DE
330
2
100
AcDbSymbolTableRecord
100
AcDbLayerTableRecord
  2
11100_LEFT_DIM
 70
     0
 62
     7
  6
CONTINUOUS
370
    -3
390
F
  0
LAYER
  5
CB80
330
2
100
AcDbSymbolTableRecord
100
AcDbLayerTableRecord
  2
30000_Drilling
 70
     0
 62
     7
  6
CONTINUOUS
370
    -3
390
F
  0
LAYER
  5
CB81
330
2
100
AcDbSymbolTableRecord
100
AcDbLayerTableRecord
  2
30100_Drilling_Dim
 70
     0
 62
     7
  6
CONTINUOUS
370
    -3
390
F
  0
ENDTAB
  0
TABLE
  2
STYLE
  5
3
330
0
100
AcDbSymbolTable
 70
     1
  0
STYLE
  5
11
330
3
100
AcDbSymbolTableRecord
100
AcDbTextStyleTableRecord
  2
Standard
 70
     0
 40
0.0
 41
1.0
 50
0.0
 71
     0
 42
0.2
  3
txt
  4

  0
ENDTAB
  0
TABLE
  2
VIEW
  5
6
330
0
100
AcDbSymbolTable
 70
     0
  0
ENDTAB
  0
TABLE
  2
UCS
  5
7
330
0
100
AcDbSymbolTable
 70
     0
  0
ENDTAB
  0
TABLE
  2
APPID
  5
9
330
0
100
AcDbSymbolTable
 70
     3
  0
APPID
  5
12
330
9
100
AcDbSymbolTableRecord
100
AcDbRegAppTableRecord
  2
ACAD
 70
     0
  0
APPID
  5
1E8
330
9
100
AcDbSymbolTableRecord
100
AcDbRegAppTableRecord
  2
AUSTER_ANSICHT
 70
     0
  0
APPID
  5
1E9
330
9
100
AcDbSymbolTableRecord
100
AcDbRegAppTableRecord
  2
AUSTER_FOLIE
 70
     0
  0
ENDTAB
  0
TABLE
  2
DIMSTYLE
  5
A
330
0
100
AcDbSymbolTable
 70
     3
100
AcDbDimStyleTable
 71
     3
340
1E7
340
3A1A
340
BA
  0
DIMSTYLE
105
BA
330
A
100
AcDbSymbolTableRecord
100
AcDbDimStyleTableRecord
  2
Standard
 70
     0
340
11
  0
DIMSTYLE
105
1E7
102
{ACAD_REACTORS
330
D23E
330
D231
330
D224
330
D2E1
330
D2E2
330
D2E3
102
}
330
A
100
AcDbSymbolTableRecord
100
AcDbDimStyleTableRecord
  2
DSTYLE1
 70
     0
 41
3.0
 42
0.0
 44
1.0
 73
     0
 74
     0
 77
     1
 78
     3
140
2.5
143
0.039370079
147
1.0
271
     3
272
     3
274
     0
279
     2
340
11
  0
DIMSTYLE
105
3A1A
102
{ACAD_REACTORS
330
D20A
330
D266
330
D217
102
}
330
A
100
AcDbSymbolTableRecord
100
AcDbDimStyleTableRecord
  2
H035
 70
     0
 40
0.0
 41
3.5
 42
0.0
 43
3.75
 44
2.0
 73
     0
 74
     0
 77
     1
 78
     8
140
3.5
141
2.5
143
0.039
147
0.5
171
     4
172
     1
176
   256
177
     7
178
     7
271
     0
272
     2
273
     8
274
     4
340
11
  0
ENDTAB
  0
TABLE
  2
BLOCK_RECORD
  5
1
330
0
100
AcDbSymbolTable
 70
    10
  0
BLOCK_RECORD
  5
20
330
1
100
AcDbSymbolTableRecord
100
AcDbBlockTableRecord
  2
*Model_Space
340
23
  0
BLOCK_RECORD
  5
1C
330
1
100
AcDbSymbolTableRecord
100
AcDbBlockTableRecord
  2
*Paper_Space
340
1F
  0
BLOCK_RECORD
  5
3A
330
1
100
AcDbSymbolTableRecord
100
AcDbBlockTableRecord
  2
SIEMENS_OUTLINE_BL0
340
0
102
{BLKREFS
331
8CC5
102
}
  0
BLOCK_RECORD
  5
D20B
330
1
100
AcDbSymbolTableRecord
100
AcDbBlockTableRecord
  2
*D1
340
0
  0
BLOCK_RECORD
  5
D218
330
1
100
AcDbSymbolTableRecord
100
AcDbBlockTableRecord
  2
*D2
340
0
  0
BLOCK_RECORD
  5
D225
330
1
100
AcDbSymbolTableRecord
100
AcDbBlockTableRecord
  2
*D3
340
0
  0
BLOCK_RECORD
  5
D232
330
1
100
AcDbSymbolTableRecord
100
AcDbBlockTableRecord
  2
*D4
340
0
  0
BLOCK_RECORD
  5
D23F
330
1
100
AcDbSymbolTableRecord
100
AcDbBlockTableRecord
  2
*D5
340
0
  0
BLOCK_RECORD
  5
D267
330
1
100
AcDbSymbolTableRecord
100
AcDbBlockTableRecord
  2
*D6
340
0
  0
BLOCK_RECORD
  5
D2E6
330
1
100
AcDbSymbolTableRecord
100
AcDbBlockTableRecord
  2
*D7
340
0
  0
BLOCK_RECORD
  5
D2F5
330
1
100
AcDbSymbolTableRecord
100
AcDbBlockTableRecord
  2
*D8
340
0
  0
BLOCK_RECORD
  5
D302
330
1
100
AcDbSymbolTableRecord
100
AcDbBlockTableRecord
  2
*D9
340
0
  0
ENDTAB
  0
ENDSEC
  0
SECTION
  2
BLOCKS
  0
BLOCK
  5
21
330
20
100
AcDbEntity
  8
0
100
AcDbBlockBegin
  2
*Model_Space
 70
     0
 10
0.0
 20
0.0
 30
0.0
  3
*Model_Space
  1

  0
ENDBLK
  5
22
330
20
100
AcDbEntity
  8
0
100
AcDbBlockEnd
  0
BLOCK
  5
1D
330
1C
100
AcDbEntity
 67
     1
  8
0
100
AcDbBlockBegin
  2
*Paper_Space
 70
     0
 10
0.0
 20
0.0
 30
0.0
  3
*Paper_Space
  1

  0
ENDBLK
  5
1E
330
1C
100
AcDbEntity
 67
     1
  8
0
100
AcDbBlockEnd
  0
BLOCK
  5
3B
330
3A
100
AcDbEntity
  8
0
  6
Continuous
 62
     7
100
AcDbBlockBegin
  2
SIEMENS_OUTLINE_BL0
 70
     0
 10
0.0
 20
0.0
 30
0.0
  3
SIEMENS_OUTLINE_BL0
  1

  0
LINE
  5
3C
330
3A
100
AcDbEntity
  8
0
  6
Continuous
 62
     7
100
AcDbLine
 10
289.1235341257
 20
21.4969115175
 30
0.0
 11
289.1235341257
 21
16.7436424342
 31
0.0
  0
LINE
  5
3D
330
3A
100
AcDbEntity
  8
0
  6
Continuous
 62
     7
100
AcDbLine
 10
290.5495148507
 20
21.4969115175
 30
0.0
 11
290.5495148507
 21
16.7436424342
 31
0.0
  0
LINE
  5
3E
330
3A
100
AcDbEntity
  8
0
  6
Continuous
 62
     7
100
AcDbLine
 10
289.1235341257
 20
16.7436424342
 30
0.0
 11
290.5495148507
 21
16.7436424342
 31
0.0
  0
LINE
  5
3F
330
3A
100
AcDbEntity
  8
0
  6
Continuous
 62
     7
100
AcDbLine
 10
289.1235341257
 20
21.4969115175
 30
0.0
 11
290.5495148507
 21
21.4969115175
 31
0.0
  0
LINE
  5
40
330
3A
100
AcDbEntity
  8
0
  6
Continuous
 62
     7
100
AcDbLine
 10
291.6427667399
 20
21.4969115175
 30
0.0
 11
291.6427667399
 21
16.7436424342
 31
0.0
  0
LINE
  5
41
330
3A
100
AcDbEntity
  8
0
  6
Continuous
 62
     7
100
AcDbLine
 10
291.6427667399
 20
16.7436424342
 30
0.0
 11
295.2077185523
 21
16.7436424342
 31
0.0
  0
LINE
  5
42
330
3A
100
AcDbEntity
  8
0
  6
Continuous
 62
     7
100
AcDbLine
 10
295.2077185523
 20
17.64676356
 30
0.0
 11
293.021214774
 21
17.64676356
 31
0.0
  0
LINE
  5
43
330
3A
100
AcDbEntity
  8
0
  6
Continuous
 62
     7
100
AcDbLine
 10
295.2077185523
 20
17.64676356
 30
0.0
 11
295.2077185523
 21
16.7436424342
 31
0.0
  0
LINE
  5
44
330
3A
100
AcDbEntity
  8
0
  6
Continuous
 62
     7
100
AcDbLine
 10
295.1601858615
 20
21.4969115175
 30
0.0
 11
291.6427667399
 21
21.4969115175
 31
0.0
  0
LINE
  5
45
330
3A
100
AcDbEntity
  8
0
  6
Continuous
 62
     7
100
AcDbLine
 10
295.1601858615
 20
20.6175567371
 30
0.0
 11
293.021214774
 21
20.6175567371
 31
0.0
  0
LINE
  5
46
330
3A
100
AcDbEntity
  8
0
  6
Continuous
 62
     7
100
AcDbLine
 10
295.1601858615
 20
21.4969115175
 30
0.0
 11
295.1601858615
 21
20.6175567371
 31
0.0
  0
LINE
  5
47
330
3A
100
AcDbEntity
  8
0
  6
Continuous
 62
     7
100
AcDbLine
 10
294.8749897165
 20
18.7637817946
 30
0.0
 11
293.021214774
 21
18.7637817946
 31
0.0
  0
LINE
  5
48
330
3A
100
AcDbEntity
  8
0
  6
Continuous
 62
     7
100
AcDbLine
 10
294.8749897165
 20
19.5480711933
 30
0.0
 11
294.8749897165
 21
18.7637817946
 31
0.0
  0
LINE
  5
49
330
3A
100
AcDbEntity
  8
0
  6
Continuous
 62
     7
100
AcDbLine
 10
294.8749897165
 20
19.5480711933
 30
0.0
 11
293.021214774
 21
19.5480711933
 31
0.0
  0
LINE
  5
4A
330
3A
100
AcDbEntity
  8
0
  6
Continuous
 62
     7
100
AcDbLine
 10
293.021214774
 20
20.6175567371
 30
0.0
 11
293.021214774
 21
19.5480711933
 31
0.0
  0
LINE
  5
4B
330
3A
100
AcDbEntity
  8
0
  6
Continuous
 62
     7
100
AcDbLine
 10
293.021214774
 20
18.7637817946
 30
0.0
 11
293.021214774
 21
17.64676356
 31
0.0
  0
LINE
  5
4C
330
3A
100
AcDbEntity
  8
0
  6
Continuous
 62
     7
100
AcDbLine
 10
296.0157742965
 20
16.7436424342
 30
0.0
 11
296.0157742965
 21
21.4969115175
 31
0.0
  0
LINE
  5
4D
330
3A
100
AcDbEntity
  8
0
  6
Continuous
 62
     7
100
AcDbLine
 10
296.0157742965
 20
16.7436424342
 30
0.0
 11
296.9664281131
 21
16.7436424342
 31
0.0
  0
LINE
  5
4E
330
3A
100
AcDbEntity
  8
0
  6
Continuous
 62
     7
100
AcDbLine
 10
301.8622952689
 20
21.4969115175
 30
0.0
 11
301.8622952689
 21
16.7436424342
 31
0.0
  0
LINE
  5
4F
330
3A
100
AcDbEntity
  8
0
  6
Continuous
 62
     7
100
AcDbLine
 10
301.8622952689
 20
16.7436424342
 30
0.0
 11
300.4838472348
 21
16.7436424342
 31
0.0
  0
LINE
  5
50
330
3A
100
AcDbEntity
  8
0
  6
Continuous
 62
     7
100
AcDbLine
 10
298.2973434565
 20
16.6961097434
 30
0.0
 11
299.1529318914
 21
16.6961097434
 31
0.0
  0
LINE
  5
51
330
3A
100
AcDbEntity
  8
0
  6
Continuous
 62
     7
100
AcDbLine
 10
298.2973434565
 20
16.6961097434
 30
0.0
 11
296.9664281131
 21
19.7857346475
 31
0.0
  0
LINE
  5
52
330
3A
100
AcDbEntity
  8
0
  6
Continuous
 62
     7
100
AcDbLine
 10
296.9664281131
 20
16.7436424342
 30
0.0
 11
296.9664281131
 21
19.7857346475
 31
0.0
  0
LINE
  5
53
330
3A
100
AcDbEntity
  8
0
  6
Continuous
 62
     7
100
AcDbLine
 10
300.4838472348
 20
19.8332673383
 30
0.0
 11
299.1529318914
 21
16.6961097434
 31
0.0
  0
LINE
  5
54
330
3A
100
AcDbEntity
  8
0
  6
Continuous
 62
     7
100
AcDbLine
 10
297.7269511665
 20
21.4969115175
 30
0.0
 11
296.0157742965
 21
21.4969115175
 31
0.0
  0
LINE
  5
55
330
3A
100
AcDbEntity
  8
0
  6
Continuous
 62
     7
100
AcDbLine
 10
301.8622952689
 20
21.4969115175
 30
0.0
 11
300.1511183989
 21
21.4969115175
 31
0.0
  0
LINE
  5
56
330
3A
100
AcDbEntity
  8
0
  6
Continuous
 62
     7
100
AcDbLine
 10
297.7269511665
 20
21.4969115175
 30
0.0
 11
298.9628011281
 21
18.5974173767
 31
0.0
  0
LINE
  5
57
330
3A
100
AcDbEntity
  8
0
  6
Continuous
 62
     7
100
AcDbLine
 10
300.1511183989
 20
21.4969115175
 30
0.0
 11
298.9628011281
 21
18.5974173767
 31
0.0
  0
LINE
  5
58
330
3A
100
AcDbEntity
  8
0
  6
Continuous
 62
     7
100
AcDbLine
 10
300.4838472348
 20
19.8332673383
 30
0.0
 11
300.4838472348
 21
16.7436424342
 31
0.0
  0
LINE
  5
59
330
3A
100
AcDbEntity
  8
0
  6
Continuous
 62
     7
100
AcDbLine
 10
302.9555471581
 20
21.4969115175
 30
0.0
 11
302.9555471581
 21
16.7436424342
 31
0.0
  0
LINE
  5
5A
330
3A
100
AcDbEntity
  8
0
  6
Continuous
 62
     7
100
AcDbLine
 10
302.9555471581
 20
16.7436424342
 30
0.0
 11
306.5204989705
 21
16.7436424342
 31
0.0
  0
LINE
  5
5B
330
3A
100
AcDbEntity
  8
0
  6
Continuous
 62
     7
100
AcDbLine
 10
306.5204989705
 20
17.64676356
 30
0.0
 11
304.3339951922
 21
17.64676356
 31
0.0
  0
LINE
  5
5C
330
3A
100
AcDbEntity
  8
0
  6
Continuous
 62
     7
100
AcDbLine
 10
306.5204989705
 20
17.64676356
 30
0.0
 11
306.5204989705
 21
16.7436424342
 31
0.0
  0
LINE
  5
5D
330
3A
100
AcDbEntity
  8
0
  6
Continuous
 62
     7
100
AcDbLine
 10
306.4729662797
 20
21.4969115175
 30
0.0
 11
302.9555471581
 21
21.4969115175
 31
0.0
  0
LINE
  5
5E
330
3A
100
AcDbEntity
  8
0
  6
Continuous
 62
     7
100
AcDbLine
 10
306.4729662797
 20
20.6175567371
 30
0.0
 11
304.3339951922
 21
20.6175567371
 31
0.0
  0
LINE
  5
5F
330
3A
100
AcDbEntity
  8
0
  6
Continuous
 62
     7
100
AcDbLine
 10
306.4729662797
 20
21.4969115175
 30
0.0
 11
306.4729662797
 21
20.6175567371
 31
0.0
  0
LINE
  5
60
330
3A
100
AcDbEntity
  8
0
  6
Continuous
 62
     7
100
AcDbLine
 10
306.1877701347
 20
18.7637817946
 30
0.0
 11
304.3339951922
 21
18.7637817946
 31
0.0
  0
LINE
  5
61
330
3A
100
AcDbEntity
  8
0
  6
Continuous
 62
     7
100
AcDbLine
 10
306.1877701347
 20
19.5480711933
 30
0.0
 11
306.1877701347
 21
18.7637817946
 31
0.0
  0
LINE
  5
62
330
3A
100
AcDbEntity
  8
0
  6
Continuous
 62
     7
100
AcDbLine
 10
306.1877701347
 20
19.5480711933
 30
0.0
 11
304.3339951922
 21
19.5480711933
 31
0.0
  0
LINE
  5
63
330
3A
100
AcDbEntity
  8
0
  6
Continuous
 62
     7
100
AcDbLine
 10
304.3339951922
 20
20.6175567371
 30
0.0
 11
304.3339951922
 21
19.5480711933
 31
0.0
  0
LINE
  5
64
330
3A
100
AcDbEntity
  8
0
  6
Continuous
 62
     7
100
AcDbLine
 10
304.3339951922
 20
18.7637817946
 30
0.0
 11
304.3339951922
 21
17.64676356
 31
0.0
  0
LINE
  5
65
330
3A
100
AcDbEntity
  8
0
  6
Continuous
 62
     7
100
AcDbLine
 10
307.3047883693
 20
16.7436424342
 30
0.0
 11
307.3047883693
 21
21.4969115175
 31
0.0
  0
LINE
  5
66
330
3A
100
AcDbEntity
  8
0
  6
Continuous
 62
     7
100
AcDbLine
 10
311.4876651625
 20
21.4969115175
 30
0.0
 11
311.4876651625
 21
16.7436424342
 31
0.0
  0
LINE
  5
67
330
3A
100
AcDbEntity
  8
0
  6
Continuous
 62
     7
100
AcDbLine
 10
307.3047883693
 20
16.7436424342
 30
0.0
 11
308.2554421859
 21
16.7436424342
 31
0.0
  0
LINE
  5
68
330
3A
100
AcDbEntity
  8
0
  6
Continuous
 62
     7
100
AcDbLine
 10
311.4876651625
 20
21.4969115175
 30
0.0
 11
310.5370113459
 21
21.4969115175
 31
0.0
  0
LINE
  5
69
330
3A
100
AcDbEntity
  8
0
  6
Continuous
 62
     7
100
AcDbLine
 10
308.8496008213
 20
21.4969115175
 30
0.0
 11
307.3047883693
 21
21.4969115175
 31
0.0
  0
LINE
  5
6A
330
3A
100
AcDbEntity
  8
0
  6
Continuous
 62
     7
100
AcDbLine
 10
311.4876651625
 20
16.7436424342
 30
0.0
 11
309.9666190559
 21
16.7436424342
 31
0.0
  0
LINE
  5
6B
330
3A
100
AcDbEntity
  8
0
  6
Continuous
 62
     7
100
AcDbLine
 10
309.9666190559
 20
16.7436424342
 30
0.0
 11
308.2554421859
 21
19.7857346475
 31
0.0
  0
LINE
  5
6C
330
3A
100
AcDbEntity
  8
0
  6
Continuous
 62
     7
100
AcDbLine
 10
308.8496008213
 20
21.4969115175
 30
0.0
 11
310.5370113459
 21
18.5498846858
 31
0.0
  0
LINE
  5
6D
330
3A
100
AcDbEntity
  8
0
  6
Continuous
 62
     7
100
AcDbLine
 10
310.5370113459
 20
21.4969115175
 30
0.0
 11
310.5370113459
 21
18.5498846858
 31
0.0
  0
LINE
  5
6E
330
3A
100
AcDbEntity
  8
0
  6
Continuous
 62
     7
100
AcDbLine
 10
308.2554421859
 20
16.7436424342
 30
0.0
 11
308.2554421859
 21
19.7857346475
 31
0.0
  0
LINE
  5
6F
330
3A
100
AcDbEntity
  8
0
  6
Continuous
 62
     7
100
AcDbLine
 10
312.2957209067
 20
16.8387078159
 30
0.0
 11
312.2957209067
 21
17.7893616325
 31
0.0
  0
LINE
  5
70
330
3A
100
AcDbEntity
  8
0
  6
Continuous
 62
     7
100
AcDbLine
 10
315.623009265
 20
20.49872501
 30
0.0
 11
315.623009265
 21
21.4493788266
 31
0.0
  0
ARC
  5
71
330
3A
100
AcDbEntity
  8
0
  6
Continuous
 62
     7
100
AcDbCircle
 10
314.0003620317
 20
18.7008009792
 30
0.0
 40
1.111619360599997
100
AcDbArc
 50
277.7099956934
 51
295.6884927746
  0
ARC
  5
72
330
3A
100
AcDbEntity
  8
0
  6
Continuous
 62
     7
100
AcDbCircle
 10
314.2846720145
 20
17.9759752156
 30
0.0
 40
0.3401689265
100
AcDbArc
 50
305.503221255
 51
72.46528985229999
  0
ARC
  5
73
330
3A
100
AcDbEntity
  8
0
  6
Continuous
 62
     7
100
AcDbCircle
 10
313.7186782063
 20
21.3776821252
 30
0.0
 40
4.756794641099999
100
AcDbArc
 50
252.5939200548001
 51
280.9816604256
  0
ARC
  5
74
330
3A
100
AcDbEntity
  8
0
  6
Continuous
 62
     7
100
AcDbCircle
 10
314.1735135694
 20
18.7596683887
 30
0.0
 40
2.100726595299998
100
AcDbArc
 50
282.405835852
 51
311.8644433928
  0
ARC
  5
75
330
3A
100
AcDbEntity
  8
0
  6
Continuous
 62
     7
100
AcDbCircle
 10
313.8999492223
 20
20.3680101102
 30
0.0
 40
0.3029626476
100
AcDbArc
 50
154.4400348282
 51
221.8201698801
  0
ARC
  5
76
330
3A
100
AcDbEntity
  8
0
  6
Continuous
 62
     7
100
AcDbCircle
 10
313.9791703737
 20
20.2887889588
 30
0.0
 40
0.4103089737
100
AcDbArc
 50
102.8287828681
 51
149.2259639003
  0
ARC
  5
77
330
3A
100
AcDbEntity
  8
0
  6
Continuous
 62
     7
100
AcDbCircle
 10
314.3961972093
 20
18.546453629
 30
0.0
 40
2.201836557
100
AcDbArc
 50
84.0400061857
 51
103.3427657870999
  0
ARC
  5
78
330
3A
100
AcDbEntity
  8
0
  6
Continuous
 62
     7
100
AcDbCircle
 10
314.0552333846
 20
16.1290897051
 30
0.0
 40
4.642373736499997
100
AcDbArc
 50
70.2625858546
 51
82.95241863799999
  0
ARC
  5
79
330
3A
100
AcDbEntity
  8
0
  6
Continuous
 62
     7
100
AcDbCircle
 10
313.5412151824001
 20
20.8007125947
 30
0.0
 40
3.258755990899997
100
AcDbArc
 50
247.5300206145
 51
280.7579522143
  0
ARC
  5
7A
330
3A
100
AcDbEntity
  8
0
  6
Continuous
 62
     7
100
AcDbCircle
 10
307.1562487104
 20
2.5491926343
 30
0.0
 40
17.3316084133
100
AcDbArc
 50
65.34146746500001
 51
67.39977707359999
  0
ARC
  5
7B
330
3A
100
AcDbEntity
  8
0
  6
Continuous
 62
     7
100
AcDbCircle
 10
317.9521111158
 20
28.3416189974
 30
0.0
 40
10.6291642039
100
AcDbArc
 50
242.8620101252001
 51
247.1042029186
  0
ARC
  5
7C
330
3A
100
AcDbEntity
  8
0
  6
Continuous
 62
     7
100
AcDbCircle
 10
314.0972098893
 20
20.8076875004
 30
0.0
 40
2.166291629199998
100
AcDbArc
 50
227.3119280794
 51
242.7040315235
  0
ARC
  5
7D
330
3A
100
AcDbEntity
  8
0
  6
Continuous
 62
     7
100
AcDbCircle
 10
313.4931790796
 20
20.1020098596
 30
0.0
 40
1.238521734
100
AcDbArc
 50
194.7952194236
 51
225.7176549047
  0
ARC
  5
7E
330
3A
100
AcDbEntity
  8
0
  6
Continuous
 62
     7
100
AcDbCircle
 10
313.5553372138
 20
20.1422298287
 30
0.0
 40
1.309092072899999
100
AcDbArc
 50
164.1974860461
 51
195.8025139539
  0
ARC
  5
7F
330
3A
100
AcDbEntity
  8
0
  6
Continuous
 62
     7
100
AcDbCircle
 10
314.1123609345001
 20
19.2539626688
 30
0.0
 40
2.366924815299999
100
AcDbArc
 50
86.22180229280001
 51
120.4272602309
  0
ARC
  5
80
330
3A
100
AcDbEntity
  8
0
  6
Continuous
 62
     7
100
AcDbCircle
 10
313.8435041519
 20
12.5577948477
 30
0.0
 40
9.0679051661
100
AcDbArc
 50
78.68270492259998
 51
87.3147599624
  0
ARC
  5
81
330
3A
100
AcDbEntity
  8
0
  6
Continuous
 62
     7
100
AcDbCircle
 10
313.3874349735
 20
20.2497375912
 30
0.0
 40
1.119747444
100
AcDbArc
 50
142.813917903
 51
167.1522951417
  0
ARC
  5
82
330
3A
100
AcDbEntity
  8
0
  6
Continuous
 62
     7
100
AcDbCircle
 10
313.7327443151
 20
19.9431558946
 30
0.0
 40
1.580546684499998
100
AcDbArc
 50
121.2140948535
 51
141.5254768286
  0
ARC
  5
83
330
3A
100
AcDbEntity
  8
0
  6
Continuous
 62
     7
100
AcDbCircle
 10
314.3099186807
 20
20.7542132232
 30
0.0
 40
0.8661276051999998
100
AcDbArc
 50
222.7760387596
 51
239.0362434679
  0
ARC
  5
84
330
3A
100
AcDbEntity
  8
0
  6
Continuous
 62
     7
100
AcDbCircle
 10
311.8032091024
 20
13.4239410246
 30
0.0
 40
6.858773576299999
100
AcDbArc
 50
59.90202725600001
 51
68.2036481279
  0
ARC
  5
85
330
3A
100
AcDbEntity
  8
0
  6
Continuous
 62
     7
100
AcDbCircle
 10
315.2117035963
 20
22.3498275319
 30
0.0
 40
2.698741017099999
100
AcDbArc
 50
240.0481997804
 51
251.3779673736999
  0
ARC
  5
86
330
3A
100
AcDbEntity
  8
0
  6
Continuous
 62
     7
100
AcDbCircle
 10
314.5462464295
 20
18.1929289165
 30
0.0
 40
1.4334474881
100
AcDbArc
 50
315.8904553224
 51
333.5229264373
  0
ARC
  5
87
330
3A
100
AcDbEntity
  8
0
  6
Continuous
 62
     7
100
AcDbCircle
 10
314.5508846732
 20
18.1395217664
 30
0.0
 40
1.406228711899998
100
AcDbArc
 50
335.3867972702
 51
24.3915119402
  0
ARC
  5
88
330
3A
100
AcDbEntity
  8
0
  6
Continuous
 62
     7
100
AcDbCircle
 10
314.4786797697
 20
18.0616650746
 30
0.0
 40
1.504702514799999
100
AcDbArc
 50
25.95629166050001
 51
59.4834829668
  0
LINE
  5
89
330
3A
100
AcDbEntity
  8
0
  6
Continuous
 62
     7
100
AcDbLine
 10
284.7029938783
 20
16.8387078159
 30
0.0
 11
284.7029938783
 21
17.7893616325
 31
0.0
  0
LINE
  5
8A
330
3A
100
AcDbEntity
  8
0
  6
Continuous
 62
     7
100
AcDbLine
 10
288.0302822366
 20
20.49872501
 30
0.0
 11
288.0302822366
 21
21.4493788266
 31
0.0
  0
ARC
  5
8B
330
3A
100
AcDbEntity
  8
0
  6
Continuous
 62
     7
100
AcDbCircle
 10
286.4076350033
 20
18.7008009792
 30
0.0
 40
1.111619360599997
100
AcDbArc
 50
277.7099956934
 51
295.6884927746
  0
ARC
  5
8C
330
3A
100
AcDbEntity
  8
0
  6
Continuous
 62
     7
100
AcDbCircle
 10
286.691944986
 20
17.9759752156
 30
0.0
 40
0.3401689265
100
AcDbArc
 50
305.5032212556
 51
72.4652898515
  0
ARC
  5
8D
330
3A
100
AcDbEntity
  8
0
  6
Continuous
 62
     7
100
AcDbCircle
 10
286.1259511779
 20
21.3776821252
 30
0.0
 40
4.756794641099999
100
AcDbArc
 50
252.5939200545
 51
280.9816604253
  0
ARC
  5
8E
330
3A
100
AcDbEntity
  8
0
  6
Continuous
 62
     7
100
AcDbCircle
 10
286.580786541
 20
18.7596683887
 30
0.0
 40
2.100726595299998
100
AcDbArc
 50
282.4058358513
 51
311.8644433923
  0
ARC
  5
8F
330
3A
100
AcDbEntity
  8
0
  6
Continuous
 62
     7
100
AcDbCircle
 10
286.3072221939
 20
20.3680101102
 30
0.0
 40
0.3029626476
100
AcDbArc
 50
154.4400348282
 51
221.8201698801
  0
ARC
  5
90
330
3A
100
AcDbEntity
  8
0
  6
Continuous
 62
     7
100
AcDbCircle
 10
286.3864433453
 20
20.2887889588
 30
0.0
 40
0.4103089737
100
AcDbArc
 50
102.8287828727
 51
149.2259639027
  0
ARC
  5
91
330
3A
100
AcDbEntity
  8
0
  6
Continuous
 62
     7
100
AcDbCircle
 10
286.8034701809
 20
18.546453629
 30
0.0
 40
2.201836557
100
AcDbArc
 50
84.0400061859
 51
103.3427657872
  0
ARC
  5
92
330
3A
100
AcDbEntity
  8
0
  6
Continuous
 62
     7
100
AcDbCircle
 10
286.4625063562
 20
16.1290897051
 30
0.0
 40
4.642373736499997
100
AcDbArc
 50
70.2625858546
 51
82.9524186379
  0
ARC
  5
93
330
3A
100
AcDbEntity
  8
0
  6
Continuous
 62
     7
100
AcDbCircle
 10
285.948488154
 20
20.8007125947
 30
0.0
 40
3.258755990899997
100
AcDbArc
 50
247.5300206148
 51
280.7579522145
  0
ARC
  5
94
330
3A
100
AcDbEntity
  8
0
  6
Continuous
 62
     7
100
AcDbCircle
 10
279.563521682
 20
2.5491926343
 30
0.0
 40
17.3316084133
100
AcDbArc
 50
65.34146746500001
 51
67.39977707359999
  0
ARC
  5
95
330
3A
100
AcDbEntity
  8
0
  6
Continuous
 62
     7
100
AcDbCircle
 10
290.3593840874
 20
28.3416189974
 30
0.0
 40
10.6291642039
100
AcDbArc
 50
242.8620101252001
 51
247.1042029185
  0
ARC
  5
96
330
3A
100
AcDbEntity
  8
0
  6
Continuous
 62
     7
100
AcDbCircle
 10
286.5044828608
 20
20.8076875004
 30
0.0
 40
2.166291629199998
100
AcDbArc
 50
227.3119280794
 51
242.7040315235
  0
ARC
  5
97
330
3A
100
AcDbEntity
  8
0
  6
Continuous
 62
     7
100
AcDbCircle
 10
285.9004520512
 20
20.1020098596
 30
0.0
 40
1.238521734
100
AcDbArc
 50
194.7952194234
 51
225.7176549042
  0
ARC
  5
98
330
3A
100
AcDbEntity
  8
0
  6
Continuous
 62
     7
100
AcDbCircle
 10
286.519633906
 20
19.2539626688
 30
0.0
 40
2.366924815299999
100
AcDbArc
 50
86.22180229280001
 51
120.4272602309
  0
ARC
  5
99
330
3A
100
AcDbEntity
  8
0
  6
Continuous
 62
     7
100
AcDbCircle
 10
286.2507771235
 20
12.5577948477
 30
0.0
 40
9.0679051661
100
AcDbArc
 50
78.68270492259998
 51
87.3147599624
  0
ARC
  5
9A
330
3A
100
AcDbEntity
  8
0
  6
Continuous
 62
     7
100
AcDbCircle
 10
286.1400172867
 20
19.9431558946
 30
0.0
 40
1.580546684599998
100
AcDbArc
 50
121.2140948541
 51
141.525476829
  0
ARC
  5
9B
330
3A
100
AcDbEntity
  8
0
  6
Continuous
 62
     7
100
AcDbCircle
 10
286.7171916523
 20
20.7542132232
 30
0.0
 40
0.8661276051999998
100
AcDbArc
 50
222.7760387596
 51
239.0362434679
  0
ARC
  5
9C
330
3A
100
AcDbEntity
  8
0
  6
Continuous
 62
     7
100
AcDbCircle
 10
284.210482074
 20
13.4239410246
 30
0.0
 40
6.858773576299999
100
AcDbArc
 50
59.90202725620001
 51
68.20364812820002
  0
ARC
  5
9D
330
3A
100
AcDbEntity
  8
0
  6
Continuous
 62
     7
100
AcDbCircle
 10
287.6189765678
 20
22.3498275319
 30
0.0
 40
2.698741017099999
100
AcDbArc
 50
240.0481997804
 51
251.3779673734
  0
ARC
  5
9E
330
3A
100
AcDbEntity
  8
0
  6
Continuous
 62
     7
100
AcDbCircle
 10
286.953519401
 20
18.1929289165
 30
0.0
 40
1.4334474881
100
AcDbArc
 50
315.8904553226
 51
333.5229264375
  0
ARC
  5
9F
330
3A
100
AcDbEntity
  8
0
  6
Continuous
 62
     7
100
AcDbCircle
 10
286.9581576447
 20
18.1395217664
 30
0.0
 40
1.406228711899998
100
AcDbArc
 50
335.3867972703
 51
24.3915119403
  0
ARC
  5
A0
330
3A
100
AcDbEntity
  8
0
  6
Continuous
 62
     7
100
AcDbCircle
 10
286.8859527412
 20
18.0616650746
 30
0.0
 40
1.504702514699999
100
AcDbArc
 50
25.9562916611
 51
59.4834829676
  0
LINE
  5
A1
330
3A
100
AcDbEntity
  8
0
  6
Continuous
 62
     7
100
AcDbLine
 10
284.8948224676
 20
20.9161059766
 30
0.0
 11
285.1688882922
 21
21.1901790542
 31
0.0
  0
ARC
  5
A2
330
3A
100
AcDbEntity
  8
0
  6
Continuous
 62
     7
100
AcDbCircle
 10
285.9626101853
 20
20.1422298287
 30
0.0
 40
1.309092072899999
100
AcDbArc
 50
164.1974860461
 51
195.8025139539
  0
ARC
  5
A3
330
3A
100
AcDbEntity
  8
0
  6
Continuous
 62
     7
100
AcDbCircle
 10
285.7947079451
 20
20.2497375912
 30
0.0
 40
1.119747444
100
AcDbArc
 50
142.813917903
 51
167.1522951417
  0
ENDBLK
  5
A4
330
3A
100
AcDbEntity
  8
0
100
AcDbBlockEnd
  0
BLOCK
  5
D215
330
D20B
100
AcDbEntity
  8
0
100
AcDbBlockBegin
  2
*D1
 70
     1
 10
0.0
 20
0.0
 30
0.0
  3
*D1
  1

  0
LINE
  5
D400
330
D20B
100
AcDbEntity
  8
10100_FRONT_DIM
  6
Continuous
 62
     7
370
    -2
100
AcDbLine
 10
-42.53472991885383
 20
369.1456837266378
 30
0.0
 11
-42.53472991885383
 21
354.2597368956344
 31
0.0
  0
LINE
  5
D401
330
D20B
100
AcDbEntity
  8
10100_FRONT_DIM
  6
Continuous
 62
     7
370
    -2
100
AcDbLine
 10
12.26527006762676
 20
369.1448229936538
 30
0.0
 11
12.26527006762675
 21
354.2597368956344
 31
0.0
  0
LINE
  5
D402
330
D20B
100
AcDbEntity
  8
10100_FRONT_DIM
  6
Continuous
370
    -2
100
AcDbLine
 10
-39.03472991885383
 20
356.2597368956344
 30
0.0
 11
-19.5513965922802
 21
356.2597368956344
 31
0.0
  0
LINE
  5
D403
330
D20B
100
AcDbEntity
  8
10100_FRONT_DIM
  6
Continuous
370
    -2
100
AcDbLine
 10
8.765270067626756
 20
356.2597368956344
 30
0.0
 11
-10.71806325894687
 21
356.2597368956344
 31
0.0
  0
SOLID
  5
D404
330
D20B
100
AcDbEntity
  8
10100_FRONT_DIM
  6
Continuous
100
AcDbTrace
 10
-39.03472991885383
 20
356.8430702289678
 30
0.0
 11
-39.03472991885383
 21
355.6764035623011
 31
0.0
 12
-42.53472991885383
 22
356.2597368956344
 32
0.0
 13
-42.53472991885383
 23
356.2597368956344
 33
0.0
  0
SOLID
  5
D405
330
D20B
100
AcDbEntity
  8
10100_FRONT_DIM
  6
Continuous
100
AcDbTrace
 10
8.765270067626756
 20
356.8430702289678
 30
0.0
 11
8.765270067626756
 21
355.6764035623011
 31
0.0
 12
12.26527006762676
 22
356.2597368956344
 32
0.0
 13
12.26527006762676
 23
356.2597368956344
 33
0.0
  0
MTEXT
  5
D406
330
D20B
100
AcDbEntity
  8
10100_FRONT_DIM
  6
Continuous
 62
     7
370
    13
100
AcDbMText
 10
-15.13472992561353
 20
356.2597368956344
 30
0.0
 40
3.5
 41
0.0
 71
     5
 72
     1
  1
\A1;55
 73
     1
 44
1.0
1001
ACAD
1000
MTEXTBEGIN
1070
    73
1070
     1
1070
    44
1040
1.0
1070
    74
1070
     0
1000
MTEXTEND
  0
POINT
  5
D407
330
D20B
100
AcDbEntity
  8
Defpoints
  6
Continuous
 62
     0
100
AcDbPoint
 10
-42.53472991885383
 20
369.1456837266378
 30
0.0
  0
POINT
  5
D408
330
D20B
100
AcDbEntity
  8
Defpoints
  6
Continuous
 62
     0
100
AcDbPoint
 10
12.26527006762676
 20
369.1448229936538
 30
0.0
  0
POINT
  5
D409
330
D20B
100
AcDbEntity
  8
Defpoints
  6
Continuous
 62
     0
100
AcDbPoint
 10
12.26527006762676
 20
356.2597368956344
 30
0.0
  0
ENDBLK
  5
D216
330
D20B
100
AcDbEntity
  8
0
100
AcDbBlockEnd
  0
BLOCK
  5
D222
330
D218
100
AcDbEntity
  8
0
100
AcDbBlockBegin
  2
*D2
 70
     1
 10
0.0
 20
0.0
 30
0.0
  3
*D2
  1

  0
LINE
  5
D3F6
330
D218
100
AcDbEntity
  8
10100_FRONT_DIM
  6
Continuous
 62
     7
370
    -2
100
AcDbLine
 10
10.21527008114617
 20
365.6456837266378
 30
0.0
 11
35.14669379408664
 21
365.6456837266378
 31
0.0
  0
LINE
  5
D3F7
330
D218
100
AcDbEntity
  8
10100_FRONT_DIM
  6
Continuous
 62
     7
370
    -2
100
AcDbLine
 10
10.87101886984949
 20
536.7453727104068
 30
0.0
 11
35.14669379408668
 21
536.7453727104068
 31
0.0
  0
LINE
  5
D3F8
330
D218
100
AcDbEntity
  8
10100_FRONT_DIM
  6
Continuous
370
    -2
100
AcDbLine
 10
33.14669379408665
 20
369.1456837266378
 30
0.0
 11
33.14669379408666
 21
446.1955282185223
 31
0.0
  0
LINE
  5
D3F9
330
D218
100
AcDbEntity
  8
10100_FRONT_DIM
  6
Continuous
370
    -2
100
AcDbLine
 10
33.14669379408668
 20
533.2453727104068
 30
0.0
 11
33.14669379408666
 21
456.1955282185222
 31
0.0
  0
SOLID
  5
D3FA
330
D218
100
AcDbEntity
  8
10100_FRONT_DIM
  6
Continuous
100
AcDbTrace
 10
32.56336046075331
 20
369.1456837266378
 30
0.0
 11
33.73002712741998
 21
369.1456837266378
 31
0.0
 12
33.14669379408665
 22
365.6456837266378
 32
0.0
 13
33.14669379408665
 23
365.6456837266378
 33
0.0
  0
SOLID
  5
D3FB
330
D218
100
AcDbEntity
  8
10100_FRONT_DIM
  6
Continuous
100
AcDbTrace
 10
32.56336046075335
 20
533.2453727104068
 30
0.0
 11
33.73002712742002
 21
533.2453727104068
 31
0.0
 12
33.14669379408668
 22
536.7453727104068
 32
0.0
 13
33.14669379408668
 23
536.7453727104068
 33
0.0
  0
MTEXT
  5
D3FC
330
D218
100
AcDbEntity
  8
10100_FRONT_DIM
  6
Continuous
 62
     7
370
    13
100
AcDbMText
 10
33.14669379408659
 20
451.1955282185223
 30
0.0
 40
3.5
 41
0.0
 71
     5
 72
     1
  1
\A1;171
 11
0.0000000000000001
 21
1.0
 31
0.0
 73
     1
 44
1.0
1001
ACAD
1000
MTEXTBEGIN
1070
    73
1070
     1
1070
    44
1040
1.0
1070
    74
1070
     0
1000
MTEXTEND
  0
POINT
  5
D3FD
330
D218
100
AcDbEntity
  8
Defpoints
  6
Continuous
 62
     0
100
AcDbPoint
 10
10.21527008114617
 20
365.6456837266378
 30
0.0
  0
POINT
  5
D3FE
330
D218
100
AcDbEntity
  8
Defpoints
  6
Continuous
 62
     0
100
AcDbPoint
 10
10.87101886984949
 20
536.7453727104068
 30
0.0
  0
POINT
  5
D3FF
330
D218
100
AcDbEntity
  8
Defpoints
  6
Continuous
 62
     0
100
AcDbPoint
 10
33.14669379408668
 20
536.7453727104068
 30
0.0
  0
ENDBLK
  5
D223
330
D218
100
AcDbEntity
  8
0
100
AcDbBlockEnd
  0
BLOCK
  5
D22F
330
D225
100
AcDbEntity
  8
0
100
AcDbBlockBegin
  2
*D3
 70
     1
 10
0.0
 20
0.0
 30
0.0
  3
*D3
  1

  0
LINE
  5
D3EC
330
D225
100
AcDbEntity
  8
11100_LEFT_DIM
  6
Continuous
 62
     0
370
    -2
100
AcDbLine
 10
89.04418514729071
 20
368.1452837266379
 30
0.0
 11
89.04418514729071
 21
355.7330078300668
 31
0.0
  0
LINE
  5
D3ED
330
D225
100
AcDbEntity
  8
11100_LEFT_DIM
  6
Continuous
 62
     0
370
    -2
100
AcDbLine
 10
192.5678851472908
 20
408.6452837266379
 30
0.0
 11
192.5678851472908
 21
355.7330078300668
 31
0.0
  0
LINE
  5
D3EE
330
D225
100
AcDbEntity
  8
11100_LEFT_DIM
  6
Continuous
 62
     0
370
    -2
100
AcDbLine
 10
91.0441851472907
 20
356.7330078300667
 30
0.0
 11
136.0143684806241
 21
356.7330078300667
 31
0.0
  0
LINE
  5
D3EF
330
D225
100
AcDbEntity
  8
11100_LEFT_DIM
  6
Continuous
 62
     0
370
    -2
100
AcDbLine
 10
190.5678851472908
 20
356.7330078300667
 30
0.0
 11
145.5977018139574
 21
356.7330078300667
 31
0.0
  0
SOLID
  5
D3F0
330
D225
100
AcDbEntity
  8
11100_LEFT_DIM
  6
Continuous
 62
     0
100
AcDbTrace
 10
91.0441851472907
 20
357.0663411634001
 30
0.0
 11
91.0441851472907
 21
356.3996744967334
 31
0.0
 12
89.04418514729071
 22
356.7330078300667
 32
0.0
 13
89.04418514729071
 23
356.7330078300667
 33
0.0
  0
SOLID
  5
D3F1
330
D225
100
AcDbEntity
  8
11100_LEFT_DIM
  6
Continuous
 62
     0
100
AcDbTrace
 10
190.5678851472908
 20
357.0663411634001
 30
0.0
 11
190.5678851472908
 21
356.3996744967334
 31
0.0
 12
192.5678851472908
 22
356.7330078300667
 32
0.0
 13
192.5678851472908
 23
356.7330078300667
 33
0.0
  0
MTEXT
  5
D3F2
330
D225
100
AcDbEntity
  8
11100_LEFT_DIM
  6
Continuous
 62
     0
370
    13
100
AcDbMText
 10
140.8060351472907
 20
356.7330078300667
 30
0.0
 40
3.5
 41
0.0
 71
     5
 72
     1
  1
\A1;104
 73
     1
 44
1.0
1001
ACAD
1000
MTEXTBEGIN
1070
    73
1070
     1
1070
    44
1040
1.0
1070
    74
1070
     0
1000
MTEXTEND
  0
POINT
  5
D3F3
330
D225
100
AcDbEntity
  8
Defpoints
  6
Continuous
 62
     0
100
AcDbPoint
 10
89.04418514729071
 20
369.1452837266379
 30
0.0
  0
POINT
  5
D3F4
330
D225
100
AcDbEntity
  8
Defpoints
  6
Continuous
 62
     0
100
AcDbPoint
 10
192.5678851472908
 20
409.6452837266379
 30
0.0
  0
POINT
  5
D3F5
330
D225
100
AcDbEntity
  8
Defpoints
  6
Continuous
 62
     0
100
AcDbPoint
 10
192.5678851472908
 20
356.7330078300667
 30
0.0
  0
ENDBLK
  5
D230
330
D225
100
AcDbEntity
  8
0
100
AcDbBlockEnd
  0
BLOCK
  5
D23C
330
D232
100
AcDbEntity
  8
0
100
AcDbBlockBegin
  2
*D4
 70
     1
 10
0.0
 20
0.0
 30
0.0
  3
*D4
  1

  0
LINE
  5
D3E2
330
D232
100
AcDbEntity
  8
11100_LEFT_DIM
  6
Continuous
 62
     0
370
    -2
100
AcDbLine
 10
80.5441851472907
 20
465.4453837266378
 30
0.0
 11
80.5441851472907
 21
348.294229717324
 31
0.0
  0
LINE
  5
D3E3
330
D232
100
AcDbEntity
  8
11100_LEFT_DIM
  6
Continuous
 62
     0
370
    -2
100
AcDbLine
 10
192.5678851472908
 20
408.6452837266379
 30
0.0
 11
192.5678851472908
 21
348.294229717324
 31
0.0
  0
LINE
  5
D3E4
330
D232
100
AcDbEntity
  8
11100_LEFT_DIM
  6
Continuous
 62
     0
370
    -2
100
AcDbLine
 10
82.54418514729069
 20
349.294229717324
 30
0.0
 11
132.0560351472907
 21
349.294229717324
 31
0.0
  0
LINE
  5
D3E5
330
D232
100
AcDbEntity
  8
11100_LEFT_DIM
  6
Continuous
 62
     0
370
    -2
100
AcDbLine
 10
190.5678851472908
 20
349.294229717324
 30
0.0
 11
141.0560351472907
 21
349.294229717324
 31
0.0
  0
SOLID
  5
D3E6
330
D232
100
AcDbEntity
  8
11100_LEFT_DIM
  6
Continuous
 62
     0
100
AcDbTrace
 10
82.54418514729069
 20
349.6275630506573
 30
0.0
 11
82.54418514729069
 21
348.9608963839907
 31
0.0
 12
80.5441851472907
 22
349.294229717324
 32
0.0
 13
80.5441851472907
 23
349.294229717324
 33
0.0
  0
SOLID
  5
D3E7
330
D232
100
AcDbEntity
  8
11100_LEFT_DIM
  6
Continuous
 62
     0
100
AcDbTrace
 10
190.5678851472908
 20
349.6275630506573
 30
0.0
 11
190.5678851472908
 21
348.9608963839907
 31
0.0
 12
192.5678851472908
 22
349.294229717324
 32
0.0
 13
192.5678851472908
 23
349.294229717324
 33
0.0
  0
MTEXT
  5
D3E8
330
D232
100
AcDbEntity
  8
11100_LEFT_DIM
  6
Continuous
 62
     0
370
    13
100
AcDbMText
 10
136.5560351472907
 20
349.294229717324
 30
0.0
 40
3.5
 41
0.0
 71
     5
 72
     1
  1
\A1;112
 73
     1
 44
1.0
1001
ACAD
1000
MTEXTBEGIN
1070
    73
1070
     1
1070
    44
1040
1.0
1070
    74
1070
     0
1000
MTEXTEND
  0
POINT
  5
D3E9
330
D232
100
AcDbEntity
  8
Defpoints
  6
Continuous
 62
     0
100
AcDbPoint
 10
80.5441851472907
 20
466.4453837266377
 30
0.0
  0
POINT
  5
D3EA
330
D232
100
AcDbEntity
  8
Defpoints
  6
Continuous
 62
     0
100
AcDbPoint
 10
192.5678851472908
 20
409.6452837266379
 30
0.0
  0
POINT
  5
D3EB
330
D232
100
AcDbEntity
  8
Defpoints
  6
Continuous
 62
     0
100
AcDbPoint
 10
192.5678851472908
 20
349.294229717324
 30
0.0
  0
ENDBLK
  5
D23D
330
D232
100
AcDbEntity
  8
0
100
AcDbBlockEnd
  0
BLOCK
  5
D249
330
D23F
100
AcDbEntity
  8
0
100
AcDbBlockBegin
  2
*D5
 70
     1
 10
0.0
 20
0.0
 30
0.0
  3
*D5
  1

  0
LINE
  5
D3D8
330
D23F
100
AcDbEntity
  8
11100_LEFT_DIM
  6
Continuous
 62
     0
370
    -2
100
AcDbLine
 10
65.5441851472907
 20
465.4453837266378
 30
0.0
 11
65.54418514729069
 21
340.9650696073495
 31
0.0
  0
LINE
  5
D3D9
330
D23F
100
AcDbEntity
  8
11100_LEFT_DIM
  6
Continuous
 62
     0
370
    -2
100
AcDbLine
 10
192.5678851472908
 20
408.6452837266379
 30
0.0
 11
192.5678851472908
 21
340.9650696073495
 31
0.0
  0
LINE
  5
D3DA
330
D23F
100
AcDbEntity
  8
11100_LEFT_DIM
  6
Continuous
 62
     0
370
    -2
100
AcDbLine
 10
67.54418514729069
 20
341.9650696073495
 30
0.0
 11
123.9727018139574
 21
341.9650696073495
 31
0.0
  0
LINE
  5
D3DB
330
D23F
100
AcDbEntity
  8
11100_LEFT_DIM
  6
Continuous
 62
     0
370
    -2
100
AcDbLine
 10
190.5678851472908
 20
341.9650696073495
 30
0.0
 11
134.1393684806241
 21
341.9650696073495
 31
0.0
  0
SOLID
  5
D3DC
330
D23F
100
AcDbEntity
  8
11100_LEFT_DIM
  6
Continuous
 62
     0
100
AcDbTrace
 10
67.54418514729069
 20
342.2984029406828
 30
0.0
 11
67.54418514729069
 21
341.6317362740162
 31
0.0
 12
65.54418514729069
 22
341.9650696073495
 32
0.0
 13
65.54418514729069
 23
341.9650696073495
 33
0.0
  0
SOLID
  5
D3DD
330
D23F
100
AcDbEntity
  8
11100_LEFT_DIM
  6
Continuous
 62
     0
100
AcDbTrace
 10
190.5678851472908
 20
342.2984029406828
 30
0.0
 11
190.5678851472908
 21
341.6317362740162
 31
0.0
 12
192.5678851472908
 22
341.9650696073495
 32
0.0
 13
192.5678851472908
 23
341.9650696073495
 33
0.0
  0
MTEXT
  5
D3DE
330
D23F
100
AcDbEntity
  8
11100_LEFT_DIM
  6
Continuous
 62
     0
370
    13
100
AcDbMText
 10
129.0560351472907
 20
341.9650696073495
 30
0.0
 40
3.5
 41
0.0
 71
     5
 72
     1
  1
\A1;127
 73
     1
 44
1.0
1001
ACAD
1000
MTEXTBEGIN
1070
    73
1070
     1
1070
    44
1040
1.0
1070
    74
1070
     0
1000
MTEXTEND
  0
POINT
  5
D3DF
330
D23F
100
AcDbEntity
  8
Defpoints
  6
Continuous
 62
     0
100
AcDbPoint
 10
65.5441851472907
 20
466.4453837266377
 30
0.0
  0
POINT
  5
D3E0
330
D23F
100
AcDbEntity
  8
Defpoints
  6
Continuous
 62
     0
100
AcDbPoint
 10
192.5678851472908
 20
409.6452837266379
 30
0.0
  0
POINT
  5
D3E1
330
D23F
100
AcDbEntity
  8
Defpoints
  6
Continuous
 62
     0
100
AcDbPoint
 10
192.5678851472908
 20
341.9650696073495
 30
0.0
  0
ENDBLK
  5
D24A
330
D23F
100
AcDbEntity
  8
0
100
AcDbBlockEnd
  0
BLOCK
  5
D271
330
D267
100
AcDbEntity
  8
0
100
AcDbBlockBegin
  2
*D6
 70
     1
 10
0.0
 20
0.0
 30
0.0
  3
*D6
  1

  0
LINE
  5
D3CE
330
D267
100
AcDbEntity
  8
10100_FRONT_DIM
  6
Continuous
 62
     7
370
    -2
100
AcDbLine
 10
10.86527008114615
 20
441.7453837266378
 30
0.0
 11
26.40972112180352
 21
441.7453837266378
 31
0.0
  0
LINE
  5
D3CF
330
D267
100
AcDbEntity
  8
10100_FRONT_DIM
  6
Continuous
 62
     7
370
    -2
100
AcDbLine
 10
10.21527008114617
 20
365.6456837266378
 30
0.0
 11
26.4097211218035
 21
365.6456837266378
 31
0.0
  0
LINE
  5
D3D0
330
D267
100
AcDbEntity
  8
10100_FRONT_DIM
  6
Continuous
370
    -2
100
AcDbLine
 10
24.40972112180352
 20
438.2453837266377
 30
0.0
 11
24.40972112180352
 21
408.1122003933045
 31
0.0
  0
LINE
  5
D3D1
330
D267
100
AcDbEntity
  8
10100_FRONT_DIM
  6
Continuous
370
    -2
100
AcDbLine
 10
24.4097211218035
 20
369.1456837266378
 30
0.0
 11
24.40972112180352
 21
399.2788670599712
 31
0.0
  0
SOLID
  5
D3D2
330
D267
100
AcDbEntity
  8
10100_FRONT_DIM
  6
Continuous
100
AcDbTrace
 10
23.82638778847018
 20
438.2453837266377
 30
0.0
 11
24.99305445513686
 21
438.2453837266377
 31
0.0
 12
24.40972112180352
 22
441.7453837266378
 32
0.0
 13
24.40972112180352
 23
441.7453837266378
 33
0.0
  0
SOLID
  5
D3D3
330
D267
100
AcDbEntity
  8
10100_FRONT_DIM
  6
Continuous
100
AcDbTrace
 10
23.82638778847017
 20
369.1456837266378
 30
0.0
 11
24.99305445513683
 21
369.1456837266378
 31
0.0
 12
24.4097211218035
 22
365.6456837266378
 32
0.0
 13
24.4097211218035
 23
365.6456837266378
 33
0.0
  0
MTEXT
  5
D3D4
330
D267
100
AcDbEntity
  8
10100_FRONT_DIM
  6
Continuous
 62
     7
370
    13
100
AcDbMText
 10
24.40972112180344
 20
403.6955337266378
 30
0.0
 40
3.5
 41
0.0
 71
     5
 72
     1
  1
\A1;76
 11
0.0000000000000001
 21
1.0
 31
0.0
 73
     1
 44
1.0
1001
ACAD
1000
MTEXTBEGIN
1070
    73
1070
     1
1070
    44
1040
1.0
1070
    74
1070
     0
1000
MTEXTEND
  0
POINT
  5
D3D5
330
D267
100
AcDbEntity
  8
Defpoints
  6
Continuous
 62
     0
100
AcDbPoint
 10
10.86527008114615
 20
441.7453837266378
 30
0.0
  0
POINT
  5
D3D6
330
D267
100
AcDbEntity
  8
Defpoints
  6
Continuous
 62
     0
100
AcDbPoint
 10
10.21527008114617
 20
365.6456837266378
 30
0.0
  0
POINT
  5
D3D7
330
D267
100
AcDbEntity
  8
Defpoints
  6
Continuous
 62
     0
100
AcDbPoint
 10
24.4097211218035
 20
365.6456837266378
 30
0.0
  0
ENDBLK
  5
D272
330
D267
100
AcDbEntity
  8
0
100
AcDbBlockEnd
  0
BLOCK
  5
D2F3
330
D2E6
100
AcDbEntity
  8
0
100
AcDbBlockBegin
  2
*D7
 70
     1
 10
0.0
 20
0.0
 30
0.0
  3
*D7
  1

  0
LINE
  5
D3C2
330
D2E6
100
AcDbEntity
  8
30100_Drilling_Dim
  6
Continuous
 62
     0
370
    -2
100
AcDbLine
 10
263.6327421474465
 20
530.7453837266377
 30
0.0
 11
263.6327421474465
 21
518.6411429812433
 31
0.0
  0
LINE
  5
D3C3
330
D2E6
100
AcDbEntity
  8
30100_Drilling_Dim
  6
Continuous
 62
     0
370
    -2
100
AcDbLine
 10
268.6327421474465
 20
530.7453837266377
 30
0.0
 11
268.6327421474465
 21
518.6411429812433
 31
0.0
  0
LINE
  5
D3C4
330
D2E6
100
AcDbEntity
  8
30100_Drilling_Dim
  6
Continuous
 62
     0
370
    -2
100
AcDbLine
 10
261.6327421474465
 20
519.6411429812433
 30
0.0
 11
259.6327421474465
 21
519.6411429812433
 31
0.0
  0
LINE
  5
D3C5
330
D2E6
100
AcDbEntity
  8
30100_Drilling_Dim
  6
Continuous
 62
     0
370
    -2
100
AcDbLine
 10
270.6327421474465
 20
519.6411429812433
 30
0.0
 11
272.6327421474465
 21
519.6411429812433
 31
0.0
  0
LINE
  5
D3C6
330
D2E6
100
AcDbEntity
  8
30100_Drilling_Dim
  6
Continuous
 62
     0
370
    -2
100
AcDbLine
 10
263.6327421474465
 20
519.6411429812433
 30
0.0
 11
264.1327421474465
 21
519.6411429812433
 31
0.0
  0
LINE
  5
D3C7
330
D2E6
100
AcDbEntity
  8
30100_Drilling_Dim
  6
Continuous
 62
     0
370
    -2
100
AcDbLine
 10
268.6327421474465
 20
519.6411429812433
 30
0.0
 11
268.1327421474465
 21
519.6411429812433
 31
0.0
  0
SOLID
  5
D3C8
330
D2E6
100
AcDbEntity
  8
30100_Drilling_Dim
  6
Continuous
 62
     0
100
AcDbTrace
 10
261.6327421474465
 20
519.9744763145766
 30
0.0
 11
261.6327421474465
 21
519.3078096479098
 31
0.0
 12
263.6327421474465
 22
519.6411429812433
 32
0.0
 13
263.6327421474465
 23
519.6411429812433
 33
0.0
  0
SOLID
  5
D3C9
330
D2E6
100
AcDbEntity
  8
30100_Drilling_Dim
  6
Continuous
 62
     0
100
AcDbTrace
 10
270.6327421474465
 20
519.9744763145766
 30
0.0
 11
270.6327421474465
 21
519.3078096479098
 31
0.0
 12
268.6327421474465
 22
519.6411429812433
 32
0.0
 13
268.6327421474465
 23
519.6411429812433
 33
0.0
  0
MTEXT
  5
D3CA
330
D2E6
100
AcDbEntity
  8
30100_Drilling_Dim
  6
Continuous
 62
     0
370
    13
100
AcDbMText
 10
266.1327421474465
 20
519.6411429812433
 30
0.0
 40
3.0
 41
0.0
 71
     5
 72
     1
  1
\A1;5
 73
     1
 44
1.0
1001
ACAD
1000
MTEXTBEGIN
1070
    73
1070
     1
1070
    44
1040
1.0
1070
    74
1070
     0
1000
MTEXTEND
  0
POINT
  5
D3CB
330
D2E6
100
AcDbEntity
  8
Defpoints
  6
Continuous
 62
     0
100
AcDbPoint
 10
263.6327421474465
 20
531.7453837266379
 30
0.0
  0
POINT
  5
D3CC
330
D2E6
100
AcDbEntity
  8
Defpoints
  6
Continuous
 62
     0
100
AcDbPoint
 10
268.6327421474465
 20
531.7453837266379
 30
0.0
  0
POINT
  5
D3CD
330
D2E6
100
AcDbEntity
  8
Defpoints
  6
Continuous
 62
     0
100
AcDbPoint
 10
268.6327421474465
 20
519.6411429812433
 30
0.0
  0
ENDBLK
  5
D2F4
330
D2E6
100
AcDbEntity
  8
0
100
AcDbBlockEnd
  0
BLOCK
  5
D300
330
D2F5
100
AcDbEntity
  8
0
100
AcDbBlockBegin
  2
*D8
 70
     1
 10
0.0
 20
0.0
 30
0.0
  3
*D8
  1

  0
LINE
  5
D3B8
330
D2F5
100
AcDbEntity
  8
30100_Drilling_Dim
  6
Continuous
 62
     0
370
    -2
100
AcDbLine
 10
217.6322421474465
 20
437.2452237266378
 30
0.0
 11
210.8086624262886
 21
437.2452237266378
 31
0.0
  0
LINE
  5
D3B9
330
D2F5
100
AcDbEntity
  8
30100_Drilling_Dim
  6
Continuous
 62
     0
370
    -2
100
AcDbLine
 10
262.7327421474466
 20
531.7453837266379
 30
0.0
 11
210.8086624262887
 21
531.745383726638
 31
0.0
  0
LINE
  5
D3BA
330
D2F5
100
AcDbEntity
  8
30100_Drilling_Dim
  6
Continuous
 62
     0
370
    -2
100
AcDbLine
 10
211.8086624262886
 20
439.2452237266379
 30
0.0
 11
211.8086624262887
 21
480.9953037266378
 31
0.0
  0
LINE
  5
D3BB
330
D2F5
100
AcDbEntity
  8
30100_Drilling_Dim
  6
Continuous
 62
     0
370
    -2
100
AcDbLine
 10
211.8086624262887
 20
529.745383726638
 30
0.0
 11
211.8086624262887
 21
487.9953037266378
 31
0.0
  0
MTEXT
  5
D3BC
330
D2F5
100
AcDbEntity
  8
30100_Drilling_Dim
  6
Continuous
 62
     0
370
    13
100
AcDbMText
 10
211.8086624262887
 20
484.4953037266378
 30
0.0
 40
3.0
 41
0.0
 71
     5
 72
     1
  1
\A1;95
 11
0.0000000000000001
 21
1.0
 31
0.0
 73
     1
 44
1.0
1001
ACAD
1000
MTEXTBEGIN
1070
    73
1070
     1
1070
    44
1040
1.0
1070
    74
1070
     0
1000
MTEXTEND
  0
SOLID
  5
D3BD
330
D2F5
100
AcDbEntity
  8
30100_Drilling_Dim
  6
Continuous
 62
     0
100
AcDbTrace
 10
211.4753290929553
 20
439.2452237266379
 30
0.0
 11
212.141995759622
 21
439.2452237266379
 31
0.0
 12
211.8086624262886
 22
437.2452237266378
 32
0.0
 13
211.8086624262886
 23
437.2452237266378
 33
0.0
  0
SOLID
  5
D3BE
330
D2F5
100
AcDbEntity
  8
30100_Drilling_Dim
  6
Continuous
 62
     0
100
AcDbTrace
 10
211.4753290929553
 20
529.745383726638
 30
0.0
 11
212.141995759622
 21
529.745383726638
 31
0.0
 12
211.8086624262887
 22
531.745383726638
 32
0.0
 13
211.8086624262887
 23
531.745383726638
 33
0.0
  0
POINT
  5
D3BF
330
D2F5
100
AcDbEntity
  8
Defpoints
  6
Continuous
 62
     0
100
AcDbPoint
 10
218.6322421474465
 20
437.2452237266378
 30
0.0
  0
POINT
  5
D3C0
330
D2F5
100
AcDbEntity
  8
Defpoints
  6
Continuous
 62
     0
100
AcDbPoint
 10
263.7327421474466
 20
531.7453837266379
 30
0.0
  0
POINT
  5
D3C1
330
D2F5
100
AcDbEntity
  8
Defpoints
  6
Continuous
 62
     0
100
AcDbPoint
 10
211.8086624262887
 20
531.745383726638
 30
0.0
  0
ENDBLK
  5
D301
330
D2F5
100
AcDbEntity
  8
0
100
AcDbBlockEnd
  0
BLOCK
  5
D30D
330
D302
100
AcDbEntity
  8
0
100
AcDbBlockBegin
  2
*D9
 70
     1
 10
0.0
 20
0.0
 30
0.0
  3
*D9
  1

  0
LINE
  5
D3AE
330
D302
100
AcDbEntity
  8
30100_Drilling_Dim
  6
Continuous
 62
     0
370
    -2
100
AcDbLine
 10
221.1322421474465
 20
440.7452237266378
 30
0.0
 11
221.1322421474465
 21
543.1505541094097
 31
0.0
  0
LINE
  5
D3AF
330
D302
100
AcDbEntity
  8
30100_Drilling_Dim
  6
Continuous
 62
     0
370
    -2
100
AcDbLine
 10
266.1327421474465
 20
535.145383726638
 30
0.0
 11
266.1327421474465
 21
543.1505541094097
 31
0.0
  0
LINE
  5
D3B0
330
D302
100
AcDbEntity
  8
30100_Drilling_Dim
  6
Continuous
 62
     0
370
    -2
100
AcDbLine
 10
223.1322421474465
 20
542.1505541094098
 30
0.0
 11
240.1324921474465
 21
542.1505541094098
 31
0.0
  0
LINE
  5
D3B1
330
D302
100
AcDbEntity
  8
30100_Drilling_Dim
  6
Continuous
 62
     0
370
    -2
100
AcDbLine
 10
264.1327421474465
 20
542.1505541094098
 30
0.0
 11
247.1324921474465
 21
542.1505541094098
 31
0.0
  0
SOLID
  5
D3B2
330
D302
100
AcDbEntity
  8
30100_Drilling_Dim
  6
Continuous
 62
     0
100
AcDbTrace
 10
223.1322421474465
 20
542.4838874427431
 30
0.0
 11
223.1322421474465
 21
541.8172207760764
 31
0.0
 12
221.1322421474465
 22
542.1505541094098
 32
0.0
 13
221.1322421474465
 23
542.1505541094098
 33
0.0
  0
SOLID
  5
D3B3
330
D302
100
AcDbEntity
  8
30100_Drilling_Dim
  6
Continuous
 62
     0
100
AcDbTrace
 10
264.1327421474465
 20
542.4838874427431
 30
0.0
 11
264.1327421474465
 21
541.8172207760764
 31
0.0
 12
266.1327421474465
 22
542.1505541094098
 32
0.0
 13
266.1327421474465
 23
542.1505541094098
 33
0.0
  0
MTEXT
  5
D3B4
330
D302
100
AcDbEntity
  8
30100_Drilling_Dim
  6
Continuous
 62
     0
370
    13
100
AcDbMText
 10
243.6324921474465
 20
542.1505541094098
 30
0.0
 40
3.0
 41
0.0
 71
     5
 72
     1
  1
\A1;45
 73
     1
 44
1.0
1001
ACAD
1000
MTEXTBEGIN
1070
    73
1070
     1
1070
    44
1040
1.0
1070
    74
1070
     0
1000
MTEXTEND
  0
POINT
  5
D3B5
330
D302
100
AcDbEntity
  8
Defpoints
  6
Continuous
 62
     0
100
AcDbPoint
 10
221.1322421474465
 20
439.7452237266377
 30
0.0
  0
POINT
  5
D3B6
330
D302
100
AcDbEntity
  8
Defpoints
  6
Continuous
 62
     0
100
AcDbPoint
 10
266.1327421474465
 20
534.145383726638
 30
0.0
  0
POINT
  5
D3B7
330
D302
100
AcDbEntity
  8
Defpoints
  6
Continuous
 62
     0
100
AcDbPoint
 10
266.1327421474465
 20
542.1505541094098
 30
0.0
  0
ENDBLK
  5
D30E
330
D302
100
AcDbEntity
  8
0
100
AcDbBlockEnd
  0
ENDSEC
  0
SECTION
  2
ENTITIES
  0
TEXT
  5
8CAC
330
20
100
AcDbEntity
  8
91000_TIP
  6
Continuous
 62
     7
100
AcDbText
 10
-66.55123359502733
 20
297.5317263287093
 30
0.0
 40
2.5
  1
Alle Bemassungswerte sind in Millimeter (mm) angegeben.
 41
0.6056311217924565
 72
     5
 11
7.133886223054927
 21
297.5317263287093
 31
0.0
100
AcDbText
  0
TEXT
  5
8CAD
330
20
100
AcDbEntity
  8
91000_TIP
  6
Continuous
 62
     7
100
AcDbText
 10
-66.55123359502733
 20
292.2817263287094
 30
0.0
 40
2.5
  1
All dimensions are in millimeters (mm).
 41
0.7513350295680265
 72
     5
 11
-6.444431229585262
 21
292.2817263287094
 31
0.0
100
AcDbText
  0
LINE
  5
8CAE
330
20
100
AcDbEntity
  8
90000_FRAME
  6
Continuous
 62
     7
100
AcDbLine
 10
329.3954166223081
 20
298.7994897070328
 30
0.0
 11
329.3954166223081
 21
316.7994897070327
 31
0.0
  0
LINE
  5
8CB1
330
20
100
AcDbEntity
  8
90000_FRAME
  6
Continuous
 62
     7
100
AcDbLine
 10
-70.60458337769119
 20
288.7994897070327
 30
0.0
 11
339.3954166223088
 21
288.7994897070327
 31
0.0
  0
LINE
  5
8CB2
330
20
100
AcDbEntity
  8
90000_FRAME
  6
Continuous
 62
     7
100
AcDbLine
 10
339.3954166223088
 20
288.7994897070327
 30
0.0
 11
339.3954166223088
 21
558.7994897070326
 31
0.0
  0
TEXT
  5
8CB3
330
20
100
AcDbEntity
  8
90000_FRAME
  6
Continuous
 62
     7
100
AcDbText
 10
257.7013411462589
 20
309.0494897070328
 30
0.0
 40
3.5
  1
3RU113__00000205_000_ALL
 41
0.7430189158695411
 72
     5
 11
313.6135145654419
 21
309.0494897070328
 31
0.0
100
AcDbText
  0
CIRCLE
  5
8CB4
330
20
100
AcDbEntity
  8
91000_TIP
  6
Continuous
 62
     7
100
AcDbCircle
 10
185.710086389334
 20
307.6232272805033
 30
0.0
 40
2.499999948899997
  0
CIRCLE
  5
8CB5
330
20
100
AcDbEntity
  8
91000_TIP
  6
Continuous
 62
     7
100
AcDbCircle
 10
185.710086389334
 20
307.6232272805033
 30
0.0
 40
4.9999998979
  0
LINE
  5
8CB6
330
20
100
AcDbEntity
  8
91000_TIP
  6
CENTER
 62
     7
100
AcDbLine
 10
185.710086389334
 20
301.9017460741033
 30
0.0
 11
185.710086389334
 21
313.1851320741033
 31
0.0
  0
LINE
  5
8CB7
330
20
100
AcDbEntity
  8
91000_TIP
  6
Continuous
 62
     7
100
AcDbLine
 10
179.2100865221341
 20
312.6232271784033
 30
0.0
 11
179.2100865221341
 21
302.6232273826032
 31
0.0
  0
LINE
  5
8CB8
330
20
100
AcDbEntity
  8
91000_TIP
  6
Continuous
 62
     7
100
AcDbLine
 10
169.210086726334
 20
310.1232272294034
 30
0.0
 11
169.210086726334
 21
305.1232273316033
 31
0.0
  0
LINE
  5
8CB9
330
20
100
AcDbEntity
  8
91000_TIP
  6
Continuous
 62
     7
100
AcDbLine
 10
169.210086726334
 20
305.1232273316033
 30
0.0
 11
179.2100865221341
 21
302.6232273826032
 31
0.0
  0
LINE
  5
8CBA
330
20
100
AcDbEntity
  8
91000_TIP
  6
CENTER
 62
     7
100
AcDbLine
 10
167.930576254333
 20
307.6232272805033
 30
0.0
 11
191.532565518433
 21
307.6232272805033
 31
0.0
  0
LINE
  5
8CBB
330
20
100
AcDbEntity
  8
91000_TIP
  6
Continuous
 62
     7
100
AcDbLine
 10
169.210086726334
 20
310.1232272294034
 30
0.0
 11
179.2100865221341
 21
312.6232271784033
 31
0.0
  0
TEXT
  5
8CBC
330
20
100
AcDbEntity
  8
90000_FRAME
  6
Continuous
 62
     7
100
AcDbText
 10
287.5554166223082
 20
300.6994897070327
 30
0.0
 40
2.2
  1
Massstab / Scale: 1:1
 41
0.7732634338148454
 72
     5
 11
318.4601785271082
 21
300.6994897070327
 31
0.0
100
AcDbText
  0
TEXT
  5
8CBD
330
20
100
AcDbEntity
  8
90000_FRAME
  6
Continuous
 62
     7
100
AcDbText
 10
245.0554166223081
 20
300.6994897070327
 30
0.0
 40
2.2
  1
Format / Size: DIN A4
 41
0.7994987468660261
 72
     5
 11
278.474464241308
 21
300.6994897070327
 31
0.0
100
AcDbText
  0
LINE
  5
8CBE
330
20
100
AcDbEntity
  8
90000_FRAME
  6
Continuous
 62
     7
100
AcDbLine
 10
329.3954166223081
 20
298.7994897070328
 30
0.0
 11
329.3954166223081
 21
316.7994897070327
 31
0.0
  0
LINE
  5
8CBF
330
20
100
AcDbEntity
  8
90000_FRAME
  6
Continuous
 62
     7
100
AcDbLine
 10
286.8954166223081
 20
298.7994897070328
 30
0.0
 11
286.8954166223081
 21
304.7994897070328
 31
0.0
  0
LINE
  5
8CC0
330
20
100
AcDbEntity
  8
90000_FRAME
  6
Continuous
 62
     7
100
AcDbLine
 10
244.3954166223081
 20
298.7994897070328
 30
0.0
 11
244.3954166223081
 21
316.7994897070327
 31
0.0
  0
LINE
  5
8CC1
330
20
100
AcDbEntity
  8
90000_FRAME
  6
Continuous
 62
     7
100
AcDbLine
 10
194.395416622308
 20
316.7994897070327
 30
0.0
 11
329.3954166223081
 21
316.7994897070327
 31
0.0
  0
LINE
  5
8CC2
330
20
100
AcDbEntity
  8
90000_FRAME
  6
Continuous
 62
     7
100
AcDbLine
 10
244.3954166223081
 20
304.7994897070328
 30
0.0
 11
329.3954166223081
 21
304.7994897070328
 31
0.0
  0
LINE
  5
8CC3
330
20
100
AcDbEntity
  8
90000_FRAME
  6
Continuous
 62
     7
100
AcDbLine
 10
194.395416622308
 20
298.7994897070328
 30
0.0
 11
194.395416622308
 21
316.7994897070327
 31
0.0
  0
LINE
  5
8CC4
330
20
100
AcDbEntity
  8
90000_FRAME
  6
Continuous
 62
     7
100
AcDbLine
 10
194.395416622308
 20
298.7994897070328
 30
0.0
 11
329.3954166223081
 21
298.7994897070328
 31
0.0
  0
INSERT
  5
8CC5
330
20
100
AcDbEntity
  8
90000_FRAME
  6
Continuous
 62
     7
100
AcDbBlockReference
  2
SIEMENS_OUTLINE_BL0
 10
-80.60458337769194
 20
288.7994897070327
 30
0.0
  0
LINE
  5
CAC8
330
20
100
AcDbEntity
  8
90000_FRAME
  6
Continuous
 62
     7
100
AcDbLine
 10
-70.60458337769119
 20
288.7994897070327
 30
0.0
 11
-70.60458337769119
 21
558.7994897070326
 31
0.0
  0
LINE
  5
CAC9
330
20
100
AcDbEntity
  8
90000_FRAME
  6
Continuous
 62
     7
100
AcDbLine
 10
-70.60458337769119
 20
558.7994897070326
 30
0.0
 11
339.3954166223088
 21
558.7994897070326
 31
0.0
  0
LINE
  5
CF19
330
20
100
AcDbEntity
  8
11000_Left
  6
Continuous
 62
     7
370
    50
100
AcDbLine
 39
0.7
 10
158.8441851472907
 20
367.6452837266379
 30
0.0
 11
89.44418514729079
 21
367.6452837266379
 31
0.0
1001
AUSTER_ANSICHT
1002
{
1000
Det03
1002
}
1001
AUSTER_FOLIE
1002
{
1000
NSB00341_S2
1002
}
  0
LINE
  5
CF1A
330
20
100
AcDbEntity
  8
11000_Left
  6
DASHED
 62
     7
370
    20
100
AcDbLine
 39
0.25
 10
182.0441851472907
 20
455.8953837266378
 30
0.0
 11
129.9441851472908
 21
455.8953837266378
 31
0.0
1001
AUSTER_ANSICHT
1002
{
1000
Det03
1002
}
1001
AUSTER_FOLIE
1002
{
1000
NSB00341_S2
1002
}
  0
LINE
  5
CF1B
330
20
100
AcDbEntity
  8
11000_Left
  6
DASHED
 62
     7
370
    20
100
AcDbLine
 39
0.25
 10
147.2644851472908
 20
455.8953837266378
 30
0.0
 11
147.2644851472908
 21
441.4452837266377
 31
0.0
1001
AUSTER_ANSICHT
1002
{
1000
Det03
1002
}
1001
AUSTER_FOLIE
1002
{
1000
NSB00341_S2
1002
}
  0
LINE
  5
CF1C
330
20
100
AcDbEntity
  8
11000_Left
  6
Continuous
 62
     7
370
    50
100
AcDbLine
 39
0.7
 10
140.9198851472907
 20
428.4452837266377
 30
0.0
 11
174.3028851472908
 21
428.4452837266377
 31
0.0
1001
AUSTER_ANSICHT
1002
{
1000
Det03
1002
}
1001
AUSTER_FOLIE
1002
{
1000
NSB00341_S2
1002
}
  0
LINE
  5
CF1D
330
20
100
AcDbEntity
  8
11000_Left
  6
DASHED
 62
     7
370
    20
100
AcDbLine
 39
0.25
 10
65.5441851472907
 20
501.7453837266379
 30
0.0
 11
65.5441851472907
 21
466.4453837266377
 31
0.0
1001
AUSTER_ANSICHT
1002
{
1000
Det03
1002
}
1001
AUSTER_FOLIE
1002
{
1000
NSB00341_S2
1002
}
  0
LINE
  5
CF1E
330
20
100
AcDbEntity
  8
10000_FRONT
  6
DASHED
 62
     7
370
    20
100
AcDbLine
 39
0.25
 10
12.36527008114615
 20
525.2453837266378
 30
0.0
 11
12.36527008114615
 21
443.2451837266377
 31
0.0
1001
AUSTER_ANSICHT
1002
{
1000
Det03
1002
}
1001
AUSTER_FOLIE
1002
{
1000
NSB00341_S2
1002
}
  0
LINE
  5
CF1F
330
20
100
AcDbEntity
  8
10000_FRONT
  6
DASHED
 62
     7
370
    20
100
AcDbLine
 39
0.25
 10
7.36527008114615
 20
501.2453837266377
 30
0.0
 11
7.36527008114615
 21
468.6453837266379
 31
0.0
1001
AUSTER_ANSICHT
1002
{
1000
Det03
1002
}
1001
AUSTER_FOLIE
1002
{
1000
NSB00341_S2
1002
}
  0
LINE
  5
CF20
330
20
100
AcDbEntity
  8
10000_FRONT
  6
DASHED
 62
     7
370
    20
100
AcDbLine
 39
0.25
 10
-42.63472991885385
 20
443.2453837266377
 30
0.0
 11
-42.63472991885385
 21
525.2453837266378
 31
0.0
1001
AUSTER_ANSICHT
1002
{
1000
Det03
1002
}
1001
AUSTER_FOLIE
1002
{
1000
NSB00341_S2
1002
}
  0
LINE
  5
CF21
330
20
100
AcDbEntity
  8
10000_FRONT
  6
DASHED
 62
     7
370
    20
100
AcDbLine
 39
0.25
 10
-39.39972991885383
 20
534.0222837266378
 30
0.0
 11
-39.39972991885383
 21
533.0299837266379
 31
0.0
1001
AUSTER_ANSICHT
1002
{
1000
Det03
1002
}
1001
AUSTER_FOLIE
1002
{
1000
NSB00341_S2
1002
}
  0
LINE
  5
CF22
330
20
100
AcDbEntity
  8
10000_FRONT
  6
DASHED
 62
     7
370
    20
100
AcDbLine
 39
0.25
 10
-39.39972991885383
 20
532.8497837266378
 30
0.0
 11
-41.67042991885387
 21
532.8497837266378
 31
0.0
1001
AUSTER_ANSICHT
1002
{
1000
Det03
1002
}
1001
AUSTER_FOLIE
1002
{
1000
NSB00341_S2
1002
}
  0
LINE
  5
CF23
330
20
100
AcDbEntity
  8
10000_FRONT
  6
DASHED
 62
     7
370
    20
100
AcDbLine
 39
0.25
 10
-35.23472991885387
 20
467.8499837266379
 30
0.0
 11
4.965270081146171
 21
467.8499837266379
 31
0.0
1001
AUSTER_ANSICHT
1002
{
1000
Det03
1002
}
1001
AUSTER_FOLIE
1002
{
1000
NSB00341_S2
1002
}
  0
LINE
  5
CF24
330
20
100
AcDbEntity
  8
11000_Left
  6
DASHED
 62
     7
370
    20
100
AcDbLine
 39
0.25
 10
76.8720851472907
 20
536.7453837266379
 30
0.0
 11
83.5441851472907
 21
536.7453837266379
 31
0.0
1001
AUSTER_ANSICHT
1002
{
1000
Det03
1002
}
1001
AUSTER_FOLIE
1002
{
1000
NSB00341_S2
1002
}
  0
LINE
  5
CF25
330
20
100
AcDbEntity
  8
11000_Left
  6
Continuous
 62
     7
370
    50
100
AcDbLine
 39
0.7
 10
132.2441851472907
 20
365.6452837266379
 30
0.0
 11
120.5441851472907
 21
365.6452837266379
 31
0.0
1001
AUSTER_ANSICHT
1002
{
1000
Det03
1002
}
1001
AUSTER_FOLIE
1002
{
1000
NSB00341_S2
1002
}
  0
LINE
  5
CF27
330
20
100
AcDbEntity
  8
11000_Left
  6
Continuous
 62
     7
370
    50
100
AcDbLine
 39
0.7
 10
90.91988514729077
 20
439.6452837266378
 30
0.0
 11
89.91988514729078
 21
439.6452837266378
 31
0.0
1001
AUSTER_ANSICHT
1002
{
1000
Det03
1002
}
1001
AUSTER_FOLIE
1002
{
1000
NSB00341_S2
1002
}
  0
LINE
  5
CF28
330
20
100
AcDbEntity
  8
11000_Left
  6
Continuous
 62
     7
370
    50
100
AcDbLine
 39
0.7
 10
90.91988514729077
 20
439.6452837266378
 30
0.0
 11
93.91988514729076
 21
439.6452837266378
 31
0.0
1001
AUSTER_ANSICHT
1002
{
1000
Det03
1002
}
1001
AUSTER_FOLIE
1002
{
1000
NSB00341_S2
1002
}
  0
LINE
  5
CF29
330
20
100
AcDbEntity
  8
11000_Left
  6
Continuous
 62
     7
370
    20
100
AcDbLine
 39
0.7
 10
90.91988514729077
 20
442.1452837266379
 30
0.0
 11
90.91988514729077
 21
439.6452837266378
 31
0.0
1001
AUSTER_ANSICHT
1002
{
1000
Det03
1002
}
1001
AUSTER_FOLIE
1002
{
1000
NSB00341_S2
1002
}
  0
LINE
  5
CF2A
330
20
100
AcDbEntity
  8
11000_Left
  6
Continuous
 62
     7
370
    50
100
AcDbLine
 39
0.7
 10
94.35058514729076
 20
442.1452837266379
 30
0.0
 11
90.91988514729077
 21
442.1452837266379
 31
0.0
1001
AUSTER_ANSICHT
1002
{
1000
Det03
1002
}
1001
AUSTER_FOLIE
1002
{
1000
NSB00341_S2
1002
}
  0
LINE
  5
CF2B
330
20
100
AcDbEntity
  8
11000_Left
  6
Continuous
 62
     7
370
    50
100
AcDbLine
 39
0.7
 10
89.91988514729078
 20
442.1452837266379
 30
0.0
 11
90.91988514729077
 21
442.1452837266379
 31
0.0
1001
AUSTER_ANSICHT
1002
{
1000
Det03
1002
}
1001
AUSTER_FOLIE
1002
{
1000
NSB00341_S2
1002
}
  0
LINE
  5
CF2C
330
20
100
AcDbEntity
  8
11000_Left
  6
Continuous
 62
     7
370
    50
100
AcDbLine
 39
0.7
 10
89.91988514729078
 20
439.6452837266378
 30
0.0
 11
89.91988514729078
 21
442.1452837266379
 31
0.0
1001
AUSTER_ANSICHT
1002
{
1000
Det03
1002
}
1001
AUSTER_FOLIE
1002
{
1000
NSB00341_S2
1002
}
  0
LINE
  5
CF2D
330
20
100
AcDbEntity
  8
11000_Left
  6
Continuous
 62
     7
370
    50
100
AcDbLine
 39
0.7
 10
94.91988514729078
 20
422.6452837266378
 30
0.0
 11
94.91988514729078
 21
438.6452837266379
 31
0.0
1001
AUSTER_ANSICHT
1002
{
1000
Det03
1002
}
1001
AUSTER_FOLIE
1002
{
1000
NSB00341_S2
1002
}
  0
LINE
  5
CF2E
330
20
100
AcDbEntity
  8
11000_Left
  6
Continuous
 62
     7
370
    50
100
AcDbLine
 39
0.7
 10
102.6448851472907
 20
422.6452837266378
 30
0.0
 11
98.21428514729078
 21
439.1805837266379
 31
0.0
1001
AUSTER_ANSICHT
1002
{
1000
Det03
1002
}
1001
AUSTER_FOLIE
1002
{
1000
NSB00341_S2
1002
}
  0
LINE
  5
CF2F
330
20
100
AcDbEntity
  8
11000_Left
  6
DASHED
 62
     7
370
    20
100
AcDbLine
 39
0.25
 10
144.4644851472908
 20
455.8953837266378
 30
0.0
 11
147.2644851472908
 21
455.8953837266378
 31
0.0
1001
AUSTER_ANSICHT
1002
{
1000
Det03
1002
}
1001
AUSTER_FOLIE
1002
{
1000
NSB00341_S2
1002
}
  0
LINE
  5
CF30
330
20
100
AcDbEntity
  8
11000_Left
  6
DASHED
 62
     7
370
    20
100
AcDbLine
 39
0.25
 10
144.4644851472908
 20
455.8953837266378
 30
0.0
 11
144.4441851472908
 21
438.4452837266378
 31
0.0
1001
AUSTER_ANSICHT
1002
{
1000
Det03
1002
}
1001
AUSTER_FOLIE
1002
{
1000
NSB00341_S2
1002
}
  0
LINE
  5
CF31
330
20
100
AcDbEntity
  8
11000_Left
  6
DASHED
 62
     7
370
    20
100
AcDbLine
 39
0.25
 10
144.4441851472908
 20
428.4452837266377
 30
0.0
 11
144.4441851472908
 21
438.4452837266378
 31
0.0
1001
AUSTER_ANSICHT
1002
{
1000
Det03
1002
}
1001
AUSTER_FOLIE
1002
{
1000
NSB00341_S2
1002
}
  0
LINE
  5
CF32
330
20
100
AcDbEntity
  8
11000_Left
  6
Continuous
 62
     7
370
    50
100
AcDbLine
 39
0.7
 10
147.2644851472908
 20
438.4452837266378
 30
0.0
 11
147.2644851472908
 21
428.4452837266377
 31
0.0
1001
AUSTER_ANSICHT
1002
{
1000
Det03
1002
}
1001
AUSTER_FOLIE
1002
{
1000
NSB00341_S2
1002
}
  0
LINE
  5
CF33
330
20
100
AcDbEntity
  8
11000_Left
  6
Continuous
 62
     7
370
    50
100
AcDbLine
 39
0.7
 10
148.9441851472908
 20
441.4452837266377
 30
0.0
 11
148.9441851472908
 21
428.4452837266377
 31
0.0
1001
AUSTER_ANSICHT
1002
{
1000
Det03
1002
}
1001
AUSTER_FOLIE
1002
{
1000
NSB00341_S2
1002
}
  0
LINE
  5
CF34
330
20
100
AcDbEntity
  8
11000_Left
  6
Continuous
 62
     7
370
    50
100
AcDbLine
 39
0.7
 10
147.2644851472908
 20
441.4452837266377
 30
0.0
 11
148.9441851472908
 21
441.4452837266377
 31
0.0
1001
AUSTER_ANSICHT
1002
{
1000
Det03
1002
}
1001
AUSTER_FOLIE
1002
{
1000
NSB00341_S2
1002
}
  0
LINE
  5
CF35
330
20
100
AcDbEntity
  8
11000_Left
  6
Continuous
 62
     7
370
    50
100
AcDbLine
 39
0.7
 10
188.0152851472908
 20
423.5949837266375
 30
0.0
 11
189.7361851472907
 21
423.5952837266379
 31
0.0
1001
AUSTER_ANSICHT
1002
{
1000
Det03
1002
}
1001
AUSTER_FOLIE
1002
{
1000
NSB00341_S2
1002
}
  0
LINE
  5
CF36
330
20
100
AcDbEntity
  8
11000_Left
  6
Continuous
 62
     7
370
    50
100
AcDbLine
 39
0.7
 10
189.4989851472908
 20
413.7952837266379
 30
0.0
 11
187.9720851472907
 21
413.7952837266379
 31
0.0
1001
AUSTER_ANSICHT
1002
{
1000
Det03
1002
}
1001
AUSTER_FOLIE
1002
{
1000
NSB00341_S2
1002
}
  0
LINE
  5
CF37
330
20
100
AcDbEntity
  8
11000_Left
  6
DASHED
 62
     7
370
    20
100
AcDbLine
 39
0.25
 10
146.7441851472907
 20
480.9955837266378
 30
0.0
 11
146.7441851472907
 21
459.5453837266378
 31
0.0
1001
AUSTER_ANSICHT
1002
{
1000
Det03
1002
}
1001
AUSTER_FOLIE
1002
{
1000
NSB00341_S2
1002
}
  0
LINE
  5
CF38
330
20
100
AcDbEntity
  8
11000_Left
  6
Continuous
 62
     7
370
    50
100
AcDbLine
 39
0.7
 10
187.0497851472908
 20
441.3158837266378
 30
0.0
 11
187.1845851472907
 21
440.3060837266377
 31
0.0
1001
AUSTER_ANSICHT
1002
{
1000
Det03
1002
}
1001
AUSTER_FOLIE
1002
{
1000
NSB00341_S2
1002
}
  0
LINE
  5
CF39
330
20
100
AcDbEntity
  8
11000_Left
  6
DASHED
 62
     7
370
    20
100
AcDbLine
 39
0.25
 10
167.6441851472907
 20
386.7452837266378
 30
0.0
 11
167.6441851472907
 21
401.7452837266378
 31
0.0
1001
AUSTER_ANSICHT
1002
{
1000
Det03
1002
}
1001
AUSTER_FOLIE
1002
{
1000
NSB00341_S2
1002
}
  0
LINE
  5
CF3A
330
20
100
AcDbEntity
  8
11000_Left
  6
DASHED
 62
     7
370
    20
100
AcDbLine
 39
0.25
 10
167.6441851472907
 20
401.7452837266378
 30
0.0
 11
172.1441851472907
 21
401.7452837266378
 31
0.0
1001
AUSTER_ANSICHT
1002
{
1000
Det03
1002
}
1001
AUSTER_FOLIE
1002
{
1000
NSB00341_S2
1002
}
  0
LINE
  5
CF3B
330
20
100
AcDbEntity
  8
11000_Left
  6
DASHED
 62
     7
370
    20
100
AcDbLine
 39
0.25
 10
172.1441851472907
 20
401.7452837266378
 30
0.0
 11
172.1441851472907
 21
386.7452837266378
 31
0.0
1001
AUSTER_ANSICHT
1002
{
1000
Det03
1002
}
1001
AUSTER_FOLIE
1002
{
1000
NSB00341_S2
1002
}
  0
LINE
  5
CF3C
330
20
100
AcDbEntity
  8
11000_Left
  6
Continuous
 62
     7
370
    50
100
AcDbLine
 39
0.7
 10
162.8834851472907
 20
369.0518837266379
 30
0.0
 11
162.7323851472907
 21
368.1462837266379
 31
0.0
1001
AUSTER_ANSICHT
1002
{
1000
Det03
1002
}
1001
AUSTER_FOLIE
1002
{
1000
NSB00341_S2
1002
}
  0
LINE
  5
CF3D
330
20
100
AcDbEntity
  8
10000_FRONT
  6
DASHED
 62
     7
370
    20
100
AcDbLine
 39
0.25
 10
-41.13472991885385
 20
536.7453837266379
 30
0.0
 11
10.86527008114615
 21
536.7453837266379
 31
0.0
1001
AUSTER_ANSICHT
1002
{
1000
Det03
1002
}
1001
AUSTER_FOLIE
1002
{
1000
NSB00341_S2
1002
}
  0
LINE
  5
CF3E
330
20
100
AcDbEntity
  8
10000_FRONT
  6
DASHED
 62
     7
370
    20
100
AcDbLine
 39
0.25
 10
-6.899729918853836
 20
508.5222837266377
 30
0.0
 11
-6.899729918853836
 21
507.5299837266378
 31
0.0
1001
AUSTER_ANSICHT
1002
{
1000
Det03
1002
}
1001
AUSTER_FOLIE
1002
{
1000
NSB00341_S2
1002
}
  0
LINE
  5
CF3F
330
20
100
AcDbEntity
  8
10000_FRONT
  6
DASHED
 62
     7
370
    20
100
AcDbLine
 39
0.25
 10
-6.899729918853836
 20
507.3497837266379
 30
0.0
 11
-9.170429918853866
 21
507.3497837266379
 31
0.0
1001
AUSTER_ANSICHT
1002
{
1000
Det03
1002
}
1001
AUSTER_FOLIE
1002
{
1000
NSB00341_S2
1002
}
  0
LINE
  5
CF40
330
20
100
AcDbEntity
  8
10000_FRONT
  6
DASHED
 62
     7
370
    20
100
AcDbLine
 39
0.25
 10
-9.170429918853866
 20
506.1410837266378
 30
0.0
 11
-6.899729918853836
 21
506.1410837266378
 31
0.0
1001
AUSTER_ANSICHT
1002
{
1000
Det03
1002
}
1001
AUSTER_FOLIE
1002
{
1000
NSB00341_S2
1002
}
  0
LINE
  5
CF41
330
20
100
AcDbEntity
  8
10000_FRONT
  6
DASHED
 62
     7
370
    20
100
AcDbLine
 39
0.25
 10
-5.869729918853861
 20
506.1410837266378
 30
0.0
 11
-3.59902991885383
 21
506.1410837266378
 31
0.0
1001
AUSTER_ANSICHT
1002
{
1000
Det03
1002
}
1001
AUSTER_FOLIE
1002
{
1000
NSB00341_S2
1002
}
  0
LINE
  5
CF42
330
20
100
AcDbEntity
  8
10000_FRONT
  6
DASHED
 62
     7
370
    20
100
AcDbLine
 39
0.25
 10
-3.59902991885383
 20
507.3497837266379
 30
0.0
 11
-5.869729918853861
 21
507.3497837266379
 31
0.0
1001
AUSTER_ANSICHT
1002
{
1000
Det03
1002
}
1001
AUSTER_FOLIE
1002
{
1000
NSB00341_S2
1002
}
  0
LINE
  5
CF43
330
20
100
AcDbEntity
  8
10000_FRONT
  6
DASHED
 62
     7
370
    20
100
AcDbLine
 39
0.25
 10
-5.869729918853861
 20
507.5299837266378
 30
0.0
 11
-5.869729918853861
 21
508.5222837266377
 31
0.0
1001
AUSTER_ANSICHT
1002
{
1000
Det03
1002
}
1001
AUSTER_FOLIE
1002
{
1000
NSB00341_S2
1002
}
  0
LINE
  5
CF44
330
20
100
AcDbEntity
  8
10000_FRONT
  6
DASHED
 62
     7
370
    20
100
AcDbLine
 39
0.25
 10
-5.869729918853861
 20
504.9685837266379
 30
0.0
 11
-5.869729918853861
 21
505.9608837266376
 31
0.0
1001
AUSTER_ANSICHT
1002
{
1000
Det03
1002
}
1001
AUSTER_FOLIE
1002
{
1000
NSB00341_S2
1002
}
  0
LINE
  5
CF45
330
20
100
AcDbEntity
  8
10000_FRONT
  6
DASHED
 62
     7
370
    20
100
AcDbLine
 39
0.25
 10
-6.899729918853836
 20
505.9608837266376
 30
0.0
 11
-6.899729918853836
 21
504.9685837266379
 31
0.0
1001
AUSTER_ANSICHT
1002
{
1000
Det03
1002
}
1001
AUSTER_FOLIE
1002
{
1000
NSB00341_S2
1002
}
  0
LINE
  5
CF46
330
20
100
AcDbEntity
  8
10000_FRONT
  6
DASHED
 62
     7
370
    20
100
AcDbLine
 39
0.25
 10
-5.869729918853861
 20
507.5299837266378
 30
0.0
 11
-5.869729918853861
 21
507.3497837266379
 31
0.0
1001
AUSTER_ANSICHT
1002
{
1000
Det03
1002
}
1001
AUSTER_FOLIE
1002
{
1000
NSB00341_S2
1002
}
  0
LINE
  5
CF47
330
20
100
AcDbEntity
  8
10000_FRONT
  6
DASHED
 62
     7
370
    20
100
AcDbLine
 39
0.25
 10
-5.869729918853861
 20
505.9608837266376
 30
0.0
 11
-5.869729918853861
 21
506.1410837266378
 31
0.0
1001
AUSTER_ANSICHT
1002
{
1000
Det03
1002
}
1001
AUSTER_FOLIE
1002
{
1000
NSB00341_S2
1002
}
  0
LINE
  5
CF48
330
20
100
AcDbEntity
  8
10000_FRONT
  6
DASHED
 62
     7
370
    20
100
AcDbLine
 39
0.25
 10
-6.899729918853836
 20
507.5299837266378
 30
0.0
 11
-6.899729918853836
 21
507.3497837266379
 31
0.0
1001
AUSTER_ANSICHT
1002
{
1000
Det03
1002
}
1001
AUSTER_FOLIE
1002
{
1000
NSB00341_S2
1002
}
  0
LINE
  5
CF49
330
20
100
AcDbEntity
  8
10000_FRONT
  6
DASHED
 62
     7
370
    20
100
AcDbLine
 39
0.25
 10
-6.899729918853836
 20
505.9608837266376
 30
0.0
 11
-6.899729918853836
 21
506.1410837266378
 31
0.0
1001
AUSTER_ANSICHT
1002
{
1000
Det03
1002
}
1001
AUSTER_FOLIE
1002
{
1000
NSB00341_S2
1002
}
  0
LINE
  5
CF4A
330
20
100
AcDbEntity
  8
10000_FRONT
  6
DASHED
 62
     7
370
    20
100
AcDbLine
 39
0.25
 10
6.54597008114615
 20
466.5248837266378
 30
0.0
 11
6.538370081146125
 21
460.3961837266377
 31
0.0
1001
AUSTER_ANSICHT
1002
{
1000
Det03
1002
}
1001
AUSTER_FOLIE
1002
{
1000
NSB00341_S2
1002
}
  0
LINE
  5
CF4B
330
20
100
AcDbEntity
  8
10000_FRONT
  6
DASHED
 62
     7
370
    20
100
AcDbLine
 39
0.25
 10
6.538370081146125
 20
460.3961837266377
 30
0.0
 11
-36.80792991885379
 21
460.3961837266377
 31
0.0
1001
AUSTER_ANSICHT
1002
{
1000
Det03
1002
}
1001
AUSTER_FOLIE
1002
{
1000
NSB00341_S2
1002
}
  0
LINE
  5
CF4C
330
20
100
AcDbEntity
  8
10000_FRONT
  6
DASHED
 62
     7
370
    20
100
AcDbLine
 39
0.25
 10
-36.80792991885379
 20
460.3961837266377
 30
0.0
 11
-36.81552991885383
 21
466.5248837266378
 31
0.0
1001
AUSTER_ANSICHT
1002
{
1000
Det03
1002
}
1001
AUSTER_FOLIE
1002
{
1000
NSB00341_S2
1002
}
  0
LINE
  5
CF4D
330
20
100
AcDbEntity
  8
10000_FRONT
  6
DASHED
 62
     7
370
    20
100
AcDbLine
 39
0.25
 10
-37.63472991885385
 20
468.6453837266379
 30
0.0
 11
-37.63472991885385
 21
501.2453837266377
 31
0.0
1001
AUSTER_ANSICHT
1002
{
1000
Det03
1002
}
1001
AUSTER_FOLIE
1002
{
1000
NSB00341_S2
1002
}
  0
LINE
  5
CF4E
330
20
100
AcDbEntity
  8
10000_FRONT
  6
DASHED
 62
     7
370
    20
100
AcDbLine
 39
0.25
 10
-37.07932991885389
 20
516.8601837266378
 30
0.0
 11
-33.23472991885387
 21
516.8601837266378
 31
0.0
1001
AUSTER_ANSICHT
1002
{
1000
Det03
1002
}
1001
AUSTER_FOLIE
1002
{
1000
NSB00341_S2
1002
}
  0
LINE
  5
CF4F
330
20
100
AcDbEntity
  8
10000_FRONT
  6
DASHED
 62
     7
370
    20
100
AcDbLine
 39
0.25
 10
-33.23472991885387
 20
516.8601837266378
 30
0.0
 11
-33.23472991885387
 21
518.5827837266379
 31
0.0
1001
AUSTER_ANSICHT
1002
{
1000
Det03
1002
}
1001
AUSTER_FOLIE
1002
{
1000
NSB00341_S2
1002
}
  0
LINE
  5
CF50
330
20
100
AcDbEntity
  8
10000_FRONT
  6
DASHED
 62
     7
370
    20
100
AcDbLine
 39
0.25
 10
-32.03472991885383
 20
518.5827837266379
 30
0.0
 11
-32.03472991885383
 21
516.8601837266378
 31
0.0
1001
AUSTER_ANSICHT
1002
{
1000
Det03
1002
}
1001
AUSTER_FOLIE
1002
{
1000
NSB00341_S2
1002
}
  0
LINE
  5
CF51
330
20
100
AcDbEntity
  8
10000_FRONT
  6
DASHED
 62
     7
370
    20
100
AcDbLine
 39
0.25
 10
-32.03472991885383
 20
516.8601837266378
 30
0.0
 11
-28.19022991885379
 21
516.8601837266378
 31
0.0
1001
AUSTER_ANSICHT
1002
{
1000
Det03
1002
}
1001
AUSTER_FOLIE
1002
{
1000
NSB00341_S2
1002
}
  0
LINE
  5
CF52
330
20
100
AcDbEntity
  8
10000_FRONT
  6
DASHED
 62
     7
370
    20
100
AcDbLine
 39
0.25
 10
-28.19022991885379
 20
515.4515837266377
 30
0.0
 11
-32.03472991885383
 21
515.4515837266377
 31
0.0
1001
AUSTER_ANSICHT
1002
{
1000
Det03
1002
}
1001
AUSTER_FOLIE
1002
{
1000
NSB00341_S2
1002
}
  0
LINE
  5
CF53
330
20
100
AcDbEntity
  8
10000_FRONT
  6
DASHED
 62
     7
370
    20
100
AcDbLine
 39
0.25
 10
-32.03472991885383
 20
515.4515837266377
 30
0.0
 11
-32.03472991885383
 21
513.7289837266378
 31
0.0
1001
AUSTER_ANSICHT
1002
{
1000
Det03
1002
}
1001
AUSTER_FOLIE
1002
{
1000
NSB00341_S2
1002
}
  0
LINE
  5
CF54
330
20
100
AcDbEntity
  8
10000_FRONT
  6
DASHED
 62
     7
370
    20
100
AcDbLine
 39
0.25
 10
-33.23472991885387
 20
513.7289837266378
 30
0.0
 11
-33.23472991885387
 21
515.4515837266377
 31
0.0
1001
AUSTER_ANSICHT
1002
{
1000
Det03
1002
}
1001
AUSTER_FOLIE
1002
{
1000
NSB00341_S2
1002
}
  0
LINE
  5
CF55
330
20
100
AcDbEntity
  8
10000_FRONT
  6
DASHED
 62
     7
370
    20
100
AcDbLine
 39
0.25
 10
-33.23472991885387
 20
515.4515837266377
 30
0.0
 11
-37.07932991885389
 21
515.4515837266377
 31
0.0
1001
AUSTER_ANSICHT
1002
{
1000
Det03
1002
}
1001
AUSTER_FOLIE
1002
{
1000
NSB00341_S2
1002
}
  0
LINE
  5
CF56
330
20
100
AcDbEntity
  8
10000_FRONT
  6
DASHED
 62
     7
370
    20
100
AcDbLine
 39
0.25
 10
-19.59502991885381
 20
516.8624837266378
 30
0.0
 11
-15.75052991885388
 21
516.8624837266378
 31
0.0
1001
AUSTER_ANSICHT
1002
{
1000
Det03
1002
}
1001
AUSTER_FOLIE
1002
{
1000
NSB00341_S2
1002
}
  0
LINE
  5
CF57
330
20
100
AcDbEntity
  8
10000_FRONT
  6
DASHED
 62
     7
370
    20
100
AcDbLine
 39
0.25
 10
-15.75052991885388
 20
516.8624837266378
 30
0.0
 11
-15.75052991885388
 21
518.5850837266379
 31
0.0
1001
AUSTER_ANSICHT
1002
{
1000
Det03
1002
}
1001
AUSTER_FOLIE
1002
{
1000
NSB00341_S2
1002
}
  0
LINE
  5
CF58
330
20
100
AcDbEntity
  8
10000_FRONT
  6
DASHED
 62
     7
370
    20
100
AcDbLine
 39
0.25
 10
-14.55052991885384
 20
518.5850837266379
 30
0.0
 11
-14.55052991885384
 21
516.8624837266378
 31
0.0
1001
AUSTER_ANSICHT
1002
{
1000
Det03
1002
}
1001
AUSTER_FOLIE
1002
{
1000
NSB00341_S2
1002
}
  0
LINE
  5
CF59
330
20
100
AcDbEntity
  8
10000_FRONT
  6
DASHED
 62
     7
370
    20
100
AcDbLine
 39
0.25
 10
-14.55052991885384
 20
516.8624837266378
 30
0.0
 11
-10.70592991885382
 21
516.8624837266378
 31
0.0
1001
AUSTER_ANSICHT
1002
{
1000
Det03
1002
}
1001
AUSTER_FOLIE
1002
{
1000
NSB00341_S2
1002
}
  0
LINE
  5
CF5A
330
20
100
AcDbEntity
  8
10000_FRONT
  6
DASHED
 62
     7
370
    20
100
AcDbLine
 39
0.25
 10
-10.70592991885382
 20
515.4538837266378
 30
0.0
 11
-14.55052991885384
 21
515.4538837266378
 31
0.0
1001
AUSTER_ANSICHT
1002
{
1000
Det03
1002
}
1001
AUSTER_FOLIE
1002
{
1000
NSB00341_S2
1002
}
  0
LINE
  5
CF5B
330
20
100
AcDbEntity
  8
10000_FRONT
  6
DASHED
 62
     7
370
    20
100
AcDbLine
 39
0.25
 10
-14.55052991885384
 20
515.4538837266378
 30
0.0
 11
-14.55052991885384
 21
513.7312837266379
 31
0.0
1001
AUSTER_ANSICHT
1002
{
1000
Det03
1002
}
1001
AUSTER_FOLIE
1002
{
1000
NSB00341_S2
1002
}
  0
LINE
  5
CF5C
330
20
100
AcDbEntity
  8
10000_FRONT
  6
DASHED
 62
     7
370
    20
100
AcDbLine
 39
0.25
 10
-15.75052991885388
 20
513.7312837266379
 30
0.0
 11
-15.75052991885388
 21
515.4538837266378
 31
0.0
1001
AUSTER_ANSICHT
1002
{
1000
Det03
1002
}
1001
AUSTER_FOLIE
1002
{
1000
NSB00341_S2
1002
}
  0
LINE
  5
CF5D
330
20
100
AcDbEntity
  8
10000_FRONT
  6
DASHED
 62
     7
370
    20
100
AcDbLine
 39
0.25
 10
-15.75052991885388
 20
515.4538837266378
 30
0.0
 11
-19.59502991885381
 21
515.4538837266378
 31
0.0
1001
AUSTER_ANSICHT
1002
{
1000
Det03
1002
}
1001
AUSTER_FOLIE
1002
{
1000
NSB00341_S2
1002
}
  0
LINE
  5
CF5E
330
20
100
AcDbEntity
  8
10000_FRONT
  6
DASHED
 62
     7
370
    20
100
AcDbLine
 39
0.25
 10
-2.110729918853849
 20
516.8647837266376
 30
0.0
 11
1.733770081146189
 21
516.8647837266376
 31
0.0
1001
AUSTER_ANSICHT
1002
{
1000
Det03
1002
}
1001
AUSTER_FOLIE
1002
{
1000
NSB00341_S2
1002
}
  0
LINE
  5
CF5F
330
20
100
AcDbEntity
  8
10000_FRONT
  6
DASHED
 62
     7
370
    20
100
AcDbLine
 39
0.25
 10
1.733770081146189
 20
516.8647837266376
 30
0.0
 11
1.733770081146189
 21
518.5873837266377
 31
0.0
1001
AUSTER_ANSICHT
1002
{
1000
Det03
1002
}
1001
AUSTER_FOLIE
1002
{
1000
NSB00341_S2
1002
}
  0
LINE
  5
CF60
330
20
100
AcDbEntity
  8
10000_FRONT
  6
DASHED
 62
     7
370
    20
100
AcDbLine
 39
0.25
 10
2.93377008114612
 20
518.5873837266377
 30
0.0
 11
2.93377008114612
 21
516.8647837266376
 31
0.0
1001
AUSTER_ANSICHT
1002
{
1000
Det03
1002
}
1001
AUSTER_FOLIE
1002
{
1000
NSB00341_S2
1002
}
  0
LINE
  5
CF61
330
20
100
AcDbEntity
  8
10000_FRONT
  6
DASHED
 62
     7
370
    20
100
AcDbLine
 39
0.25
 10
2.93377008114612
 20
516.8647837266376
 30
0.0
 11
6.77827008114616
 21
516.8647837266376
 31
0.0
1001
AUSTER_ANSICHT
1002
{
1000
Det03
1002
}
1001
AUSTER_FOLIE
1002
{
1000
NSB00341_S2
1002
}
  0
LINE
  5
CF62
330
20
100
AcDbEntity
  8
10000_FRONT
  6
DASHED
 62
     7
370
    20
100
AcDbLine
 39
0.25
 10
6.77827008114616
 20
515.4561837266378
 30
0.0
 11
2.93377008114612
 21
515.4561837266378
 31
0.0
1001
AUSTER_ANSICHT
1002
{
1000
Det03
1002
}
1001
AUSTER_FOLIE
1002
{
1000
NSB00341_S2
1002
}
  0
LINE
  5
CF63
330
20
100
AcDbEntity
  8
10000_FRONT
  6
DASHED
 62
     7
370
    20
100
AcDbLine
 39
0.25
 10
2.93377008114612
 20
515.4561837266378
 30
0.0
 11
2.93377008114612
 21
513.7334837266378
 31
0.0
1001
AUSTER_ANSICHT
1002
{
1000
Det03
1002
}
1001
AUSTER_FOLIE
1002
{
1000
NSB00341_S2
1002
}
  0
LINE
  5
CF64
330
20
100
AcDbEntity
  8
10000_FRONT
  6
DASHED
 62
     7
370
    20
100
AcDbLine
 39
0.25
 10
1.733770081146189
 20
513.7334837266378
 30
0.0
 11
1.733770081146189
 21
515.4561837266378
 31
0.0
1001
AUSTER_ANSICHT
1002
{
1000
Det03
1002
}
1001
AUSTER_FOLIE
1002
{
1000
NSB00341_S2
1002
}
  0
LINE
  5
CF65
330
20
100
AcDbEntity
  8
10000_FRONT
  6
DASHED
 62
     7
370
    20
100
AcDbLine
 39
0.25
 10
1.733770081146189
 20
515.4561837266378
 30
0.0
 11
-2.110729918853849
 21
515.4561837266378
 31
0.0
1001
AUSTER_ANSICHT
1002
{
1000
Det03
1002
}
1001
AUSTER_FOLIE
1002
{
1000
NSB00341_S2
1002
}
  0
LINE
  5
CF66
330
20
100
AcDbEntity
  8
10000_FRONT
  6
DASHED
 62
     7
370
    20
100
AcDbLine
 39
0.25
 10
-37.07932991885389
 20
451.6576837266377
 30
0.0
 11
-33.23472991885387
 21
451.6576837266377
 31
0.0
1001
AUSTER_ANSICHT
1002
{
1000
Det03
1002
}
1001
AUSTER_FOLIE
1002
{
1000
NSB00341_S2
1002
}
  0
LINE
  5
CF67
330
20
100
AcDbEntity
  8
10000_FRONT
  6
DASHED
 62
     7
370
    20
100
AcDbLine
 39
0.25
 10
-33.23472991885387
 20
451.6576837266377
 30
0.0
 11
-33.23472991885387
 21
449.9350837266378
 31
0.0
1001
AUSTER_ANSICHT
1002
{
1000
Det03
1002
}
1001
AUSTER_FOLIE
1002
{
1000
NSB00341_S2
1002
}
  0
LINE
  5
CF68
330
20
100
AcDbEntity
  8
10000_FRONT
  6
DASHED
 62
     7
370
    20
100
AcDbLine
 39
0.25
 10
-32.03472991885383
 20
449.9350837266378
 30
0.0
 11
-32.03472991885383
 21
451.6576837266377
 31
0.0
1001
AUSTER_ANSICHT
1002
{
1000
Det03
1002
}
1001
AUSTER_FOLIE
1002
{
1000
NSB00341_S2
1002
}
  0
LINE
  5
CF69
330
20
100
AcDbEntity
  8
10000_FRONT
  6
DASHED
 62
     7
370
    20
100
AcDbLine
 39
0.25
 10
-32.03472991885383
 20
451.6576837266377
 30
0.0
 11
-28.19022991885379
 21
451.6576837266377
 31
0.0
1001
AUSTER_ANSICHT
1002
{
1000
Det03
1002
}
1001
AUSTER_FOLIE
1002
{
1000
NSB00341_S2
1002
}
  0
LINE
  5
CF6A
330
20
100
AcDbEntity
  8
10000_FRONT
  6
DASHED
 62
     7
370
    20
100
AcDbLine
 39
0.25
 10
-28.19022991885379
 20
453.0662837266379
 30
0.0
 11
-32.03472991885383
 21
453.0662837266379
 31
0.0
1001
AUSTER_ANSICHT
1002
{
1000
Det03
1002
}
1001
AUSTER_FOLIE
1002
{
1000
NSB00341_S2
1002
}
  0
LINE
  5
CF6B
330
20
100
AcDbEntity
  8
10000_FRONT
  6
DASHED
 62
     7
370
    20
100
AcDbLine
 39
0.25
 10
-32.03472991885383
 20
453.0662837266379
 30
0.0
 11
-32.03472991885383
 21
454.7889837266378
 31
0.0
1001
AUSTER_ANSICHT
1002
{
1000
Det03
1002
}
1001
AUSTER_FOLIE
1002
{
1000
NSB00341_S2
1002
}
  0
LINE
  5
CF6C
330
20
100
AcDbEntity
  8
10000_FRONT
  6
DASHED
 62
     7
370
    20
100
AcDbLine
 39
0.25
 10
-33.23472991885387
 20
454.7889837266378
 30
0.0
 11
-33.23472991885387
 21
453.0662837266379
 31
0.0
1001
AUSTER_ANSICHT
1002
{
1000
Det03
1002
}
1001
AUSTER_FOLIE
1002
{
1000
NSB00341_S2
1002
}
  0
LINE
  5
CF6D
330
20
100
AcDbEntity
  8
10000_FRONT
  6
DASHED
 62
     7
370
    20
100
AcDbLine
 39
0.25
 10
-33.23472991885387
 20
453.0662837266379
 30
0.0
 11
-37.07932991885389
 21
453.0662837266379
 31
0.0
1001
AUSTER_ANSICHT
1002
{
1000
Det03
1002
}
1001
AUSTER_FOLIE
1002
{
1000
NSB00341_S2
1002
}
  0
LINE
  5
CF6E
330
20
100
AcDbEntity
  8
10000_FRONT
  6
DASHED
 62
     7
370
    20
100
AcDbLine
 39
0.25
 10
-19.59502991885381
 20
451.6553837266378
 30
0.0
 11
-15.75052991885388
 21
451.6553837266378
 31
0.0
1001
AUSTER_ANSICHT
1002
{
1000
Det03
1002
}
1001
AUSTER_FOLIE
1002
{
1000
NSB00341_S2
1002
}
  0
LINE
  5
CF6F
330
20
100
AcDbEntity
  8
10000_FRONT
  6
DASHED
 62
     7
370
    20
100
AcDbLine
 39
0.25
 10
-15.75052991885388
 20
451.6553837266378
 30
0.0
 11
-15.75052991885388
 21
449.9327837266378
 31
0.0
1001
AUSTER_ANSICHT
1002
{
1000
Det03
1002
}
1001
AUSTER_FOLIE
1002
{
1000
NSB00341_S2
1002
}
  0
LINE
  5
CF70
330
20
100
AcDbEntity
  8
10000_FRONT
  6
DASHED
 62
     7
370
    20
100
AcDbLine
 39
0.25
 10
-14.55052991885384
 20
449.9327837266378
 30
0.0
 11
-14.55052991885384
 21
451.6553837266378
 31
0.0
1001
AUSTER_ANSICHT
1002
{
1000
Det03
1002
}
1001
AUSTER_FOLIE
1002
{
1000
NSB00341_S2
1002
}
  0
LINE
  5
CF71
330
20
100
AcDbEntity
  8
10000_FRONT
  6
DASHED
 62
     7
370
    20
100
AcDbLine
 39
0.25
 10
-14.55052991885384
 20
451.6553837266378
 30
0.0
 11
-10.70592991885382
 21
451.6553837266378
 31
0.0
1001
AUSTER_ANSICHT
1002
{
1000
Det03
1002
}
1001
AUSTER_FOLIE
1002
{
1000
NSB00341_S2
1002
}
  0
LINE
  5
CF72
330
20
100
AcDbEntity
  8
10000_FRONT
  6
DASHED
 62
     7
370
    20
100
AcDbLine
 39
0.25
 10
-10.70592991885382
 20
453.0640837266378
 30
0.0
 11
-14.55052991885384
 21
453.0640837266378
 31
0.0
1001
AUSTER_ANSICHT
1002
{
1000
Det03
1002
}
1001
AUSTER_FOLIE
1002
{
1000
NSB00341_S2
1002
}
  0
LINE
  5
CF73
330
20
100
AcDbEntity
  8
10000_FRONT
  6
DASHED
 62
     7
370
    20
100
AcDbLine
 39
0.25
 10
-14.55052991885384
 20
453.0640837266378
 30
0.0
 11
-14.55052991885384
 21
454.7866837266377
 31
0.0
1001
AUSTER_ANSICHT
1002
{
1000
Det03
1002
}
1001
AUSTER_FOLIE
1002
{
1000
NSB00341_S2
1002
}
  0
LINE
  5
CF74
330
20
100
AcDbEntity
  8
10000_FRONT
  6
DASHED
 62
     7
370
    20
100
AcDbLine
 39
0.25
 10
-15.75052991885388
 20
454.7866837266377
 30
0.0
 11
-15.75052991885388
 21
453.0640837266378
 31
0.0
1001
AUSTER_ANSICHT
1002
{
1000
Det03
1002
}
1001
AUSTER_FOLIE
1002
{
1000
NSB00341_S2
1002
}
  0
LINE
  5
CF75
330
20
100
AcDbEntity
  8
10000_FRONT
  6
DASHED
 62
     7
370
    20
100
AcDbLine
 39
0.25
 10
-15.75052991885388
 20
453.0640837266378
 30
0.0
 11
-19.59502991885381
 21
453.0640837266378
 31
0.0
1001
AUSTER_ANSICHT
1002
{
1000
Det03
1002
}
1001
AUSTER_FOLIE
1002
{
1000
NSB00341_S2
1002
}
  0
LINE
  5
CF76
330
20
100
AcDbEntity
  8
10000_FRONT
  6
DASHED
 62
     7
370
    20
100
AcDbLine
 39
0.25
 10
-2.110729918853849
 20
451.6531837266377
 30
0.0
 11
1.733770081146189
 21
451.6531837266377
 31
0.0
1001
AUSTER_ANSICHT
1002
{
1000
Det03
1002
}
1001
AUSTER_FOLIE
1002
{
1000
NSB00341_S2
1002
}
  0
LINE
  5
CF77
330
20
100
AcDbEntity
  8
10000_FRONT
  6
DASHED
 62
     7
370
    20
100
AcDbLine
 39
0.25
 10
1.733770081146189
 20
451.6531837266377
 30
0.0
 11
1.733770081146189
 21
449.9304837266378
 31
0.0
1001
AUSTER_ANSICHT
1002
{
1000
Det03
1002
}
1001
AUSTER_FOLIE
1002
{
1000
NSB00341_S2
1002
}
  0
LINE
  5
CF78
330
20
100
AcDbEntity
  8
10000_FRONT
  6
DASHED
 62
     7
370
    20
100
AcDbLine
 39
0.25
 10
2.93377008114612
 20
449.9304837266378
 30
0.0
 11
2.93377008114612
 21
451.6531837266377
 31
0.0
1001
AUSTER_ANSICHT
1002
{
1000
Det03
1002
}
1001
AUSTER_FOLIE
1002
{
1000
NSB00341_S2
1002
}
  0
LINE
  5
CF79
330
20
100
AcDbEntity
  8
10000_FRONT
  6
DASHED
 62
     7
370
    20
100
AcDbLine
 39
0.25
 10
2.93377008114612
 20
451.6531837266377
 30
0.0
 11
6.77827008114616
 21
451.6531837266377
 31
0.0
1001
AUSTER_ANSICHT
1002
{
1000
Det03
1002
}
1001
AUSTER_FOLIE
1002
{
1000
NSB00341_S2
1002
}
  0
LINE
  5
CF7A
330
20
100
AcDbEntity
  8
10000_FRONT
  6
DASHED
 62
     7
370
    20
100
AcDbLine
 39
0.25
 10
6.77827008114616
 20
453.0617837266379
 30
0.0
 11
2.93377008114612
 21
453.0617837266379
 31
0.0
1001
AUSTER_ANSICHT
1002
{
1000
Det03
1002
}
1001
AUSTER_FOLIE
1002
{
1000
NSB00341_S2
1002
}
  0
LINE
  5
CF7B
330
20
100
AcDbEntity
  8
10000_FRONT
  6
DASHED
 62
     7
370
    20
100
AcDbLine
 39
0.25
 10
2.93377008114612
 20
453.0617837266379
 30
0.0
 11
2.93377008114612
 21
454.7843837266379
 31
0.0
1001
AUSTER_ANSICHT
1002
{
1000
Det03
1002
}
1001
AUSTER_FOLIE
1002
{
1000
NSB00341_S2
1002
}
  0
LINE
  5
CF7C
330
20
100
AcDbEntity
  8
10000_FRONT
  6
DASHED
 62
     7
370
    20
100
AcDbLine
 39
0.25
 10
1.733770081146189
 20
454.7843837266379
 30
0.0
 11
1.733770081146189
 21
453.0617837266379
 31
0.0
1001
AUSTER_ANSICHT
1002
{
1000
Det03
1002
}
1001
AUSTER_FOLIE
1002
{
1000
NSB00341_S2
1002
}
  0
LINE
  5
CF7D
330
20
100
AcDbEntity
  8
10000_FRONT
  6
DASHED
 62
     7
370
    20
100
AcDbLine
 39
0.25
 10
1.733770081146189
 20
453.0617837266379
 30
0.0
 11
-2.110729918853849
 21
453.0617837266379
 31
0.0
1001
AUSTER_ANSICHT
1002
{
1000
Det03
1002
}
1001
AUSTER_FOLIE
1002
{
1000
NSB00341_S2
1002
}
  0
LINE
  5
CF7E
330
20
100
AcDbEntity
  8
10000_FRONT
  6
DASHED
 62
     7
370
    20
100
AcDbLine
 39
0.25
 10
-9.166129918853926
 20
530.2910837266379
 30
0.0
 11
-6.895429918853891
 21
530.2910837266379
 31
0.0
1001
AUSTER_ANSICHT
1002
{
1000
Det03
1002
}
1001
AUSTER_FOLIE
1002
{
1000
NSB00341_S2
1002
}
  0
LINE
  5
CF7F
330
20
100
AcDbEntity
  8
10000_FRONT
  6
DASHED
 62
     7
370
    20
100
AcDbLine
 39
0.25
 10
-5.865429918853919
 20
530.2910837266379
 30
0.0
 11
-3.594729918853885
 21
530.2910837266379
 31
0.0
1001
AUSTER_ANSICHT
1002
{
1000
Det03
1002
}
1001
AUSTER_FOLIE
1002
{
1000
NSB00341_S2
1002
}
  0
LINE
  5
CF80
330
20
100
AcDbEntity
  8
10000_FRONT
  6
DASHED
 62
     7
370
    20
100
AcDbLine
 39
0.25
 10
-3.594729918853885
 20
531.4997837266377
 30
0.0
 11
-5.865429918853919
 21
531.4997837266377
 31
0.0
1001
AUSTER_ANSICHT
1002
{
1000
Det03
1002
}
1001
AUSTER_FOLIE
1002
{
1000
NSB00341_S2
1002
}
  0
LINE
  5
CF81
330
20
100
AcDbEntity
  8
10000_FRONT
  6
DASHED
 62
     7
370
    20
100
AcDbLine
 39
0.25
 10
-6.895429918853891
 20
531.4997837266377
 30
0.0
 11
-9.166129918853926
 21
531.4997837266377
 31
0.0
1001
AUSTER_ANSICHT
1002
{
1000
Det03
1002
}
1001
AUSTER_FOLIE
1002
{
1000
NSB00341_S2
1002
}
  0
LINE
  5
CF82
330
20
100
AcDbEntity
  8
10000_FRONT
  6
DASHED
 62
     7
370
    20
100
AcDbLine
 39
0.25
 10
-6.895429918853891
 20
532.6722837266378
 30
0.0
 11
-6.895429918853891
 21
531.6799837266378
 31
0.0
1001
AUSTER_ANSICHT
1002
{
1000
Det03
1002
}
1001
AUSTER_FOLIE
1002
{
1000
NSB00341_S2
1002
}
  0
LINE
  5
CF83
330
20
100
AcDbEntity
  8
10000_FRONT
  6
DASHED
 62
     7
370
    20
100
AcDbLine
 39
0.25
 10
-5.865429918853919
 20
531.6799837266378
 30
0.0
 11
-5.865429918853919
 21
532.6722837266378
 31
0.0
1001
AUSTER_ANSICHT
1002
{
1000
Det03
1002
}
1001
AUSTER_FOLIE
1002
{
1000
NSB00341_S2
1002
}
  0
LINE
  5
CF84
330
20
100
AcDbEntity
  8
10000_FRONT
  6
DASHED
 62
     7
370
    20
100
AcDbLine
 39
0.25
 10
-5.865429918853919
 20
529.1185837266379
 30
0.0
 11
-5.865429918853919
 21
530.1108837266379
 31
0.0
1001
AUSTER_ANSICHT
1002
{
1000
Det03
1002
}
1001
AUSTER_FOLIE
1002
{
1000
NSB00341_S2
1002
}
  0
LINE
  5
CF85
330
20
100
AcDbEntity
  8
10000_FRONT
  6
DASHED
 62
     7
370
    20
100
AcDbLine
 39
0.25
 10
-6.895429918853891
 20
530.1108837266379
 30
0.0
 11
-6.895429918853891
 21
529.1185837266379
 31
0.0
1001
AUSTER_ANSICHT
1002
{
1000
Det03
1002
}
1001
AUSTER_FOLIE
1002
{
1000
NSB00341_S2
1002
}
  0
LINE
  5
CF86
330
20
100
AcDbEntity
  8
10000_FRONT
  6
DASHED
 62
     7
370
    20
100
AcDbLine
 39
0.25
 10
-5.865429918853919
 20
531.6799837266378
 30
0.0
 11
-5.865429918853919
 21
531.4997837266377
 31
0.0
1001
AUSTER_ANSICHT
1002
{
1000
Det03
1002
}
1001
AUSTER_FOLIE
1002
{
1000
NSB00341_S2
1002
}
  0
LINE
  5
CF87
330
20
100
AcDbEntity
  8
10000_FRONT
  6
DASHED
 62
     7
370
    20
100
AcDbLine
 39
0.25
 10
-5.865429918853919
 20
530.1108837266379
 30
0.0
 11
-5.865429918853919
 21
530.2910837266379
 31
0.0
1001
AUSTER_ANSICHT
1002
{
1000
Det03
1002
}
1001
AUSTER_FOLIE
1002
{
1000
NSB00341_S2
1002
}
  0
LINE
  5
CF88
330
20
100
AcDbEntity
  8
10000_FRONT
  6
DASHED
 62
     7
370
    20
100
AcDbLine
 39
0.25
 10
-6.895429918853891
 20
531.6799837266378
 30
0.0
 11
-6.895429918853891
 21
531.4997837266377
 31
0.0
1001
AUSTER_ANSICHT
1002
{
1000
Det03
1002
}
1001
AUSTER_FOLIE
1002
{
1000
NSB00341_S2
1002
}
  0
LINE
  5
CF89
330
20
100
AcDbEntity
  8
10000_FRONT
  6
DASHED
 62
     7
370
    20
100
AcDbLine
 39
0.25
 10
-6.895429918853891
 20
530.1108837266379
 30
0.0
 11
-6.895429918853891
 21
530.2910837266379
 31
0.0
1001
AUSTER_ANSICHT
1002
{
1000
Det03
1002
}
1001
AUSTER_FOLIE
1002
{
1000
NSB00341_S2
1002
}
  0
LINE
  5
CF8A
330
20
100
AcDbEntity
  8
10000_FRONT
  6
DASHED
 62
     7
370
    20
100
AcDbLine
 39
0.25
 10
-26.66612991885394
 20
530.2910837266379
 30
0.0
 11
-24.39542991885389
 21
530.2910837266379
 31
0.0
1001
AUSTER_ANSICHT
1002
{
1000
Det03
1002
}
1001
AUSTER_FOLIE
1002
{
1000
NSB00341_S2
1002
}
  0
LINE
  5
CF8B
330
20
100
AcDbEntity
  8
10000_FRONT
  6
DASHED
 62
     7
370
    20
100
AcDbLine
 39
0.25
 10
-23.36542991885393
 20
530.2910837266379
 30
0.0
 11
-21.09472991885389
 21
530.2910837266379
 31
0.0
1001
AUSTER_ANSICHT
1002
{
1000
Det03
1002
}
1001
AUSTER_FOLIE
1002
{
1000
NSB00341_S2
1002
}
  0
LINE
  5
CF8C
330
20
100
AcDbEntity
  8
10000_FRONT
  6
DASHED
 62
     7
370
    20
100
AcDbLine
 39
0.25
 10
-21.09472991885389
 20
531.4997837266377
 30
0.0
 11
-23.36542991885393
 21
531.4997837266377
 31
0.0
1001
AUSTER_ANSICHT
1002
{
1000
Det03
1002
}
1001
AUSTER_FOLIE
1002
{
1000
NSB00341_S2
1002
}
  0
LINE
  5
CF8D
330
20
100
AcDbEntity
  8
10000_FRONT
  6
DASHED
 62
     7
370
    20
100
AcDbLine
 39
0.25
 10
-24.39542991885389
 20
531.4997837266377
 30
0.0
 11
-26.66612991885394
 21
531.4997837266377
 31
0.0
1001
AUSTER_ANSICHT
1002
{
1000
Det03
1002
}
1001
AUSTER_FOLIE
1002
{
1000
NSB00341_S2
1002
}
  0
LINE
  5
CF8E
330
20
100
AcDbEntity
  8
10000_FRONT
  6
DASHED
 62
     7
370
    20
100
AcDbLine
 39
0.25
 10
-24.39542991885389
 20
532.6722837266378
 30
0.0
 11
-24.39542991885389
 21
531.6799837266378
 31
0.0
1001
AUSTER_ANSICHT
1002
{
1000
Det03
1002
}
1001
AUSTER_FOLIE
1002
{
1000
NSB00341_S2
1002
}
  0
LINE
  5
CF8F
330
20
100
AcDbEntity
  8
10000_FRONT
  6
DASHED
 62
     7
370
    20
100
AcDbLine
 39
0.25
 10
-23.36542991885393
 20
531.6799837266378
 30
0.0
 11
-23.36542991885393
 21
532.6722837266378
 31
0.0
1001
AUSTER_ANSICHT
1002
{
1000
Det03
1002
}
1001
AUSTER_FOLIE
1002
{
1000
NSB00341_S2
1002
}
  0
LINE
  5
CF90
330
20
100
AcDbEntity
  8
10000_FRONT
  6
DASHED
 62
     7
370
    20
100
AcDbLine
 39
0.25
 10
-23.36542991885393
 20
529.1185837266379
 30
0.0
 11
-23.36542991885393
 21
530.1108837266379
 31
0.0
1001
AUSTER_ANSICHT
1002
{
1000
Det03
1002
}
1001
AUSTER_FOLIE
1002
{
1000
NSB00341_S2
1002
}
  0
LINE
  5
CF91
330
20
100
AcDbEntity
  8
10000_FRONT
  6
DASHED
 62
     7
370
    20
100
AcDbLine
 39
0.25
 10
-24.39542991885389
 20
530.1108837266379
 30
0.0
 11
-24.39542991885389
 21
529.1185837266379
 31
0.0
1001
AUSTER_ANSICHT
1002
{
1000
Det03
1002
}
1001
AUSTER_FOLIE
1002
{
1000
NSB00341_S2
1002
}
  0
LINE
  5
CF92
330
20
100
AcDbEntity
  8
10000_FRONT
  6
DASHED
 62
     7
370
    20
100
AcDbLine
 39
0.25
 10
-23.36542991885393
 20
531.6799837266378
 30
0.0
 11
-23.36542991885393
 21
531.4997837266377
 31
0.0
1001
AUSTER_ANSICHT
1002
{
1000
Det03
1002
}
1001
AUSTER_FOLIE
1002
{
1000
NSB00341_S2
1002
}
  0
LINE
  5
CF93
330
20
100
AcDbEntity
  8
10000_FRONT
  6
DASHED
 62
     7
370
    20
100
AcDbLine
 39
0.25
 10
-23.36542991885393
 20
530.1108837266379
 30
0.0
 11
-23.36542991885393
 21
530.2910837266379
 31
0.0
1001
AUSTER_ANSICHT
1002
{
1000
Det03
1002
}
1001
AUSTER_FOLIE
1002
{
1000
NSB00341_S2
1002
}
  0
LINE
  5
CF94
330
20
100
AcDbEntity
  8
10000_FRONT
  6
DASHED
 62
     7
370
    20
100
AcDbLine
 39
0.25
 10
-24.39542991885389
 20
531.6799837266378
 30
0.0
 11
-24.39542991885389
 21
531.4997837266377
 31
0.0
1001
AUSTER_ANSICHT
1002
{
1000
Det03
1002
}
1001
AUSTER_FOLIE
1002
{
1000
NSB00341_S2
1002
}
  0
LINE
  5
CF95
330
20
100
AcDbEntity
  8
10000_FRONT
  6
DASHED
 62
     7
370
    20
100
AcDbLine
 39
0.25
 10
-24.39542991885389
 20
530.1108837266379
 30
0.0
 11
-24.39542991885389
 21
530.2910837266379
 31
0.0
1001
AUSTER_ANSICHT
1002
{
1000
Det03
1002
}
1001
AUSTER_FOLIE
1002
{
1000
NSB00341_S2
1002
}
  0
LINE
  5
CF96
330
20
100
AcDbEntity
  8
10000_FRONT
  6
DASHED
 62
     7
370
    20
100
AcDbLine
 39
0.25
 10
-41.67042991885387
 20
531.6410837266378
 30
0.0
 11
-39.39972991885383
 21
531.6410837266378
 31
0.0
1001
AUSTER_ANSICHT
1002
{
1000
Det03
1002
}
1001
AUSTER_FOLIE
1002
{
1000
NSB00341_S2
1002
}
  0
LINE
  5
CF97
330
20
100
AcDbEntity
  8
10000_FRONT
  6
DASHED
 62
     7
370
    20
100
AcDbLine
 39
0.25
 10
-38.36972991885387
 20
531.6410837266378
 30
0.0
 11
-36.09902991885383
 21
531.6410837266378
 31
0.0
1001
AUSTER_ANSICHT
1002
{
1000
Det03
1002
}
1001
AUSTER_FOLIE
1002
{
1000
NSB00341_S2
1002
}
  0
LINE
  5
CF98
330
20
100
AcDbEntity
  8
10000_FRONT
  6
DASHED
 62
     7
370
    20
100
AcDbLine
 39
0.25
 10
-36.09902991885383
 20
532.8497837266378
 30
0.0
 11
-38.36972991885387
 21
532.8497837266378
 31
0.0
1001
AUSTER_ANSICHT
1002
{
1000
Det03
1002
}
1001
AUSTER_FOLIE
1002
{
1000
NSB00341_S2
1002
}
  0
LINE
  5
CF99
330
20
100
AcDbEntity
  8
10000_FRONT
  6
DASHED
 62
     7
370
    20
100
AcDbLine
 39
0.25
 10
-38.36972991885387
 20
533.0299837266379
 30
0.0
 11
-38.36972991885387
 21
534.0222837266378
 31
0.0
1001
AUSTER_ANSICHT
1002
{
1000
Det03
1002
}
1001
AUSTER_FOLIE
1002
{
1000
NSB00341_S2
1002
}
  0
LINE
  5
CF9A
330
20
100
AcDbEntity
  8
10000_FRONT
  6
DASHED
 62
     7
370
    20
100
AcDbLine
 39
0.25
 10
-38.36972991885387
 20
530.4685837266378
 30
0.0
 11
-38.36972991885387
 21
531.4608837266376
 31
0.0
1001
AUSTER_ANSICHT
1002
{
1000
Det03
1002
}
1001
AUSTER_FOLIE
1002
{
1000
NSB00341_S2
1002
}
  0
LINE
  5
CF9B
330
20
100
AcDbEntity
  8
10000_FRONT
  6
DASHED
 62
     7
370
    20
100
AcDbLine
 39
0.25
 10
-39.39972991885383
 20
531.4608837266376
 30
0.0
 11
-39.39972991885383
 21
530.4685837266378
 31
0.0
1001
AUSTER_ANSICHT
1002
{
1000
Det03
1002
}
1001
AUSTER_FOLIE
1002
{
1000
NSB00341_S2
1002
}
  0
LINE
  5
CF9C
330
20
100
AcDbEntity
  8
10000_FRONT
  6
DASHED
 62
     7
370
    20
100
AcDbLine
 39
0.25
 10
-38.36972991885387
 20
533.0299837266379
 30
0.0
 11
-38.36972991885387
 21
532.8497837266378
 31
0.0
1001
AUSTER_ANSICHT
1002
{
1000
Det03
1002
}
1001
AUSTER_FOLIE
1002
{
1000
NSB00341_S2
1002
}
  0
LINE
  5
CF9D
330
20
100
AcDbEntity
  8
10000_FRONT
  6
DASHED
 62
     7
370
    20
100
AcDbLine
 39
0.25
 10
-38.36972991885387
 20
531.4608837266376
 30
0.0
 11
-38.36972991885387
 21
531.6410837266378
 31
0.0
1001
AUSTER_ANSICHT
1002
{
1000
Det03
1002
}
1001
AUSTER_FOLIE
1002
{
1000
NSB00341_S2
1002
}
  0
LINE
  5
CF9E
330
20
100
AcDbEntity
  8
10000_FRONT
  6
DASHED
 62
     7
370
    20
100
AcDbLine
 39
0.25
 10
-39.39972991885383
 20
533.0299837266379
 30
0.0
 11
-39.39972991885383
 21
532.8497837266378
 31
0.0
1001
AUSTER_ANSICHT
1002
{
1000
Det03
1002
}
1001
AUSTER_FOLIE
1002
{
1000
NSB00341_S2
1002
}
  0
LINE
  5
CF9F
330
20
100
AcDbEntity
  8
10000_FRONT
  6
DASHED
 62
     7
370
    20
100
AcDbLine
 39
0.25
 10
-39.39972991885383
 20
531.4608837266376
 30
0.0
 11
-39.39972991885383
 21
531.6410837266378
 31
0.0
1001
AUSTER_ANSICHT
1002
{
1000
Det03
1002
}
1001
AUSTER_FOLIE
1002
{
1000
NSB00341_S2
1002
}
  0
LINE
  5
CFA0
330
20
100
AcDbEntity
  8
10000_FRONT
  6
DASHED
 62
     7
370
    20
100
AcDbLine
 39
0.25
 10
10.86527008114615
 20
526.7453837266379
 30
0.0
 11
-41.13472991885385
 21
526.7453837266379
 31
0.0
1001
AUSTER_ANSICHT
1002
{
1000
Det03
1002
}
1001
AUSTER_FOLIE
1002
{
1000
NSB00341_S2
1002
}
  0
LINE
  5
CFA1
330
20
100
AcDbEntity
  8
10000_FRONT
  6
DASHED
 62
     7
370
    20
100
AcDbLine
 39
0.25
 10
-40.88342991885395
 20
527.7143837266378
 30
0.0
 11
-42.13472991885384
 21
527.7143837266378
 31
0.0
1001
AUSTER_ANSICHT
1002
{
1000
Det03
1002
}
1001
AUSTER_FOLIE
1002
{
1000
NSB00341_S2
1002
}
  0
LINE
  5
CFA2
330
20
100
AcDbEntity
  8
10000_FRONT
  6
DASHED
 62
     7
370
    20
100
AcDbLine
 39
0.25
 10
-42.63472991885385
 20
535.2453837266379
 30
0.0
 11
-42.63472991885385
 21
525.2456837266379
 31
0.0
1001
AUSTER_ANSICHT
1002
{
1000
Det03
1002
}
1001
AUSTER_FOLIE
1002
{
1000
NSB00341_S2
1002
}
  0
LINE
  5
CFA3
330
20
100
AcDbEntity
  8
10000_FRONT
  6
DASHED
 62
     7
370
    20
100
AcDbLine
 39
0.25
 10
-40.48472991885387
 20
528.7453837266379
 30
0.0
 11
-26.6847299188538
 21
528.7453837266379
 31
0.0
1001
AUSTER_ANSICHT
1002
{
1000
Det03
1002
}
1001
AUSTER_FOLIE
1002
{
1000
NSB00341_S2
1002
}
  0
LINE
  5
CFA4
330
20
100
AcDbEntity
  8
10000_FRONT
  6
DASHED
 62
     7
370
    20
100
AcDbLine
 39
0.25
 10
-26.18472991885381
 20
526.7453837266379
 30
0.0
 11
-26.18472991885381
 21
528.2453837266379
 31
0.0
1001
AUSTER_ANSICHT
1002
{
1000
Det03
1002
}
1001
AUSTER_FOLIE
1002
{
1000
NSB00341_S2
1002
}
  0
LINE
  5
CFA5
330
20
100
AcDbEntity
  8
10000_FRONT
  6
DASHED
 62
     7
370
    20
100
AcDbLine
 39
0.25
 10
-21.58472991885389
 20
526.7751837266378
 30
0.0
 11
-21.58472991885389
 21
528.2453837266379
 31
0.0
1001
AUSTER_ANSICHT
1002
{
1000
Det03
1002
}
1001
AUSTER_FOLIE
1002
{
1000
NSB00341_S2
1002
}
  0
LINE
  5
CFA6
330
20
100
AcDbEntity
  8
10000_FRONT
  6
DASHED
 62
     7
370
    20
100
AcDbLine
 39
0.25
 10
-8.684729918853804
 20
526.7453837266379
 30
0.0
 11
-8.684729918853804
 21
528.3453837266379
 31
0.0
1001
AUSTER_ANSICHT
1002
{
1000
Det03
1002
}
1001
AUSTER_FOLIE
1002
{
1000
NSB00341_S2
1002
}
  0
LINE
  5
CFA7
330
20
100
AcDbEntity
  8
10000_FRONT
  6
DASHED
 62
     7
370
    20
100
AcDbLine
 39
0.25
 10
-21.0847299188539
 20
528.7453837266379
 30
0.0
 11
-9.084729918853897
 21
528.7453837266379
 31
0.0
1001
AUSTER_ANSICHT
1002
{
1000
Det03
1002
}
1001
AUSTER_FOLIE
1002
{
1000
NSB00341_S2
1002
}
  0
LINE
  5
CFA8
330
20
100
AcDbEntity
  8
10000_FRONT
  6
DASHED
 62
     7
370
    20
100
AcDbLine
 39
0.25
 10
10.21527008114617
 20
528.7453837266379
 30
0.0
 11
-3.684729918853804
 21
528.7453837266379
 31
0.0
1001
AUSTER_ANSICHT
1002
{
1000
Det03
1002
}
1001
AUSTER_FOLIE
1002
{
1000
NSB00341_S2
1002
}
  0
LINE
  5
CFA9
330
20
100
AcDbEntity
  8
10000_FRONT
  6
DASHED
 62
     7
370
    20
100
AcDbLine
 39
0.25
 10
-4.084729918853895
 20
526.7453837266379
 30
0.0
 11
-4.084729918853895
 21
528.3453837266379
 31
0.0
1001
AUSTER_ANSICHT
1002
{
1000
Det03
1002
}
1001
AUSTER_FOLIE
1002
{
1000
NSB00341_S2
1002
}
  0
LINE
  5
CFAA
330
20
100
AcDbEntity
  8
10000_FRONT
  6
DASHED
 62
     7
370
    20
100
AcDbLine
 39
0.25
 10
-42.63472991885385
 20
440.2456433289946
 30
0.0
 11
-42.63472991885385
 21
442.7164837266379
 31
0.0
1001
AUSTER_ANSICHT
1002
{
1000
Det03
1002
}
1001
AUSTER_FOLIE
1002
{
1000
NSB00341_S2
1002
}
  0
LINE
  5
CFAB
330
20
100
AcDbEntity
  8
10000_FRONT
  6
DASHED
 62
     7
370
    20
100
AcDbLine
 39
0.25
 10
12.36527008114615
 20
535.2453837266379
 30
0.0
 11
12.36527008114615
 21
525.7735837266379
 31
0.0
1001
AUSTER_ANSICHT
1002
{
1000
Det03
1002
}
1001
AUSTER_FOLIE
1002
{
1000
NSB00341_S2
1002
}
  0
LINE
  5
CFAC
330
20
100
AcDbEntity
  8
10000_FRONT
  6
DASHED
 62
     7
370
    20
100
AcDbLine
 39
0.25
 10
-30.03472991885383
 20
536.7453837266379
 30
0.0
 11
-29.83872991885381
 21
536.7453837266379
 31
0.0
1001
AUSTER_ANSICHT
1002
{
1000
Det03
1002
}
1001
AUSTER_FOLIE
1002
{
1000
NSB00341_S2
1002
}
  0
LINE
  5
CFAD
330
20
100
AcDbEntity
  8
10000_FRONT
  6
DASHED
 62
     7
370
    20
100
AcDbLine
 39
0.25
 10
12.36527008114615
 20
442.7168837266377
 30
0.0
 11
12.36527008114615
 21
441.1763837266378
 31
0.0
1001
AUSTER_ANSICHT
1002
{
1000
Det03
1002
}
1001
AUSTER_FOLIE
1002
{
1000
NSB00341_S2
1002
}
  0
LINE
  5
CFAE
330
20
100
AcDbEntity
  8
10000_FRONT
  6
DASHED
 62
     7
370
    20
100
AcDbLine
 39
0.25
 10
12.36527008114615
 20
441.1763837266378
 30
0.0
 11
12.36527008114615
 21
440.245626393589
 31
0.0
1001
AUSTER_ANSICHT
1002
{
1000
Det03
1002
}
1001
AUSTER_FOLIE
1002
{
1000
NSB00341_S2
1002
}
  0
LINE
  5
CFAF
330
20
100
AcDbEntity
  8
10000_FRONT
  6
DASHED
 62
     7
370
    20
100
AcDbLine
 39
0.25
 10
-34.3537299188539
 20
536.3453837266379
 30
0.0
 11
-34.3537299188539
 21
532.2453837266379
 31
0.0
1001
AUSTER_ANSICHT
1002
{
1000
Det03
1002
}
1001
AUSTER_FOLIE
1002
{
1000
NSB00341_S2
1002
}
  0
LINE
  5
CFB0
330
20
100
AcDbEntity
  8
10000_FRONT
  6
DASHED
 62
     7
370
    20
100
AcDbLine
 39
0.25
 10
2.865270081146149
 20
528.7471837266378
 30
0.0
 11
2.865270081146149
 21
536.3453837266379
 31
0.0
1001
AUSTER_ANSICHT
1002
{
1000
Det03
1002
}
1001
AUSTER_FOLIE
1002
{
1000
NSB00341_S2
1002
}
  0
LINE
  5
CFB1
330
20
100
AcDbEntity
  8
10000_FRONT
  6
DASHED
 62
     7
370
    20
100
AcDbLine
 39
0.25
 10
-0.4347299188538046
 20
536.7453837266379
 30
0.0
 11
-0.4347299188538046
 21
536.3453837266379
 31
0.0
1001
AUSTER_ANSICHT
1002
{
1000
Det03
1002
}
1001
AUSTER_FOLIE
1002
{
1000
NSB00341_S2
1002
}
  0
LINE
  5
CFB2
330
20
100
AcDbEntity
  8
10000_FRONT
  6
DASHED
 62
     7
370
    20
100
AcDbLine
 39
0.25
 10
-0.4347299188538046
 20
528.7459837266379
 30
0.0
 11
-0.4347299188538046
 21
536.3453837266379
 31
0.0
1001
AUSTER_ANSICHT
1002
{
1000
Det03
1002
}
1001
AUSTER_FOLIE
1002
{
1000
NSB00341_S2
1002
}
  0
LINE
  5
CFB3
330
20
100
AcDbEntity
  8
10000_FRONT
  6
DASHED
 62
     7
370
    20
100
AcDbLine
 39
0.25
 10
-29.8347299188539
 20
536.3453837266379
 30
0.0
 11
-29.8347299188539
 21
528.7459837266379
 31
0.0
1001
AUSTER_ANSICHT
1002
{
1000
Det03
1002
}
1001
AUSTER_FOLIE
1002
{
1000
NSB00341_S2
1002
}
  0
LINE
  5
CFB4
330
20
100
AcDbEntity
  8
10000_FRONT
  6
DASHED
 62
     7
370
    20
100
AcDbLine
 39
0.25
 10
-29.8347299188539
 20
536.3453837266379
 30
0.0
 11
-29.83872991885381
 21
536.7453837266379
 31
0.0
1001
AUSTER_ANSICHT
1002
{
1000
Det03
1002
}
1001
AUSTER_FOLIE
1002
{
1000
NSB00341_S2
1002
}
  0
LINE
  5
CFB5
330
20
100
AcDbEntity
  8
10000_FRONT
  6
Continuous
 62
     7
370
    50
100
AcDbLine
 39
0.7
 10
10.86527008114615
 20
441.7453837266378
 30
0.0
 11
-41.13472991885385
 21
441.7453837266378
 31
0.0
1001
AUSTER_ANSICHT
1002
{
1000
Det03
1002
}
1001
AUSTER_FOLIE
1002
{
1000
NSB00341_S2
1002
}
  0
LINE
  5
CFB6
330
20
100
AcDbEntity
  8
10000_FRONT
  6
DASHED
 62
     7
370
    20
100
AcDbLine
 39
0.25
 10
10.61527008114615
 20
528.3453837266379
 30
0.0
 11
10.61527008114615
 21
526.7453837266379
 31
0.0
1001
AUSTER_ANSICHT
1002
{
1000
Det03
1002
}
1001
AUSTER_FOLIE
1002
{
1000
NSB00341_S2
1002
}
  0
LINE
  5
CFB7
330
20
100
AcDbEntity
  8
10000_FRONT
  6
DASHED
 62
     7
370
    20
100
AcDbLine
 39
0.25
 10
-40.88472991885384
 20
526.7453837266379
 30
0.0
 11
-40.88472991885384
 21
528.3453837266379
 31
0.0
1001
AUSTER_ANSICHT
1002
{
1000
Det03
1002
}
1001
AUSTER_FOLIE
1002
{
1000
NSB00341_S2
1002
}
  0
LINE
  5
CFB8
330
20
100
AcDbEntity
  8
10000_FRONT
  6
DASHED
 62
     7
370
    20
100
AcDbLine
 39
0.25
 10
-37.63472991885385
 20
501.2453837266377
 30
0.0
 11
7.36527008114615
 21
501.2453837266377
 31
0.0
1001
AUSTER_ANSICHT
1002
{
1000
Det03
1002
}
1001
AUSTER_FOLIE
1002
{
1000
NSB00341_S2
1002
}
  0
LINE
  5
CFB9
330
20
100
AcDbEntity
  8
10000_FRONT
  6
DASHED
 62
     7
370
    20
100
AcDbLine
 39
0.25
 10
7.36527008114615
 20
468.6453837266379
 30
0.0
 11
-37.63472991885385
 21
468.6453837266379
 31
0.0
1001
AUSTER_ANSICHT
1002
{
1000
Det03
1002
}
1001
AUSTER_FOLIE
1002
{
1000
NSB00341_S2
1002
}
  0
LINE
  5
CFBA
330
20
100
AcDbEntity
  8
10000_FRONT
  6
DASHED
 62
     7
370
    20
100
AcDbLine
 39
0.25
 10
-15.13472991885385
 20
467.8499837266379
 30
0.0
 11
-15.13472991885385
 21
460.3961837266377
 31
0.0
1001
AUSTER_ANSICHT
1002
{
1000
Det03
1002
}
1001
AUSTER_FOLIE
1002
{
1000
NSB00341_S2
1002
}
  0
LINE
  5
CFBB
330
20
100
AcDbEntity
  8
10000_FRONT
  6
DASHED
 62
     7
370
    20
100
AcDbLine
 39
0.25
 10
-33.63472991885385
 20
486.1093837266378
 30
0.0
 11
-33.31522991885379
 21
486.4093837266379
 31
0.0
1001
AUSTER_ANSICHT
1002
{
1000
Det03
1002
}
1001
AUSTER_FOLIE
1002
{
1000
NSB00341_S2
1002
}
  0
LINE
  5
CFBC
330
20
100
AcDbEntity
  8
10000_FRONT
  6
DASHED
 62
     7
370
    20
100
AcDbLine
 39
0.25
 10
-33.31522991885379
 20
486.4093837266379
 30
0.0
 11
-29.45432991885389
 21
486.4093837266379
 31
0.0
1001
AUSTER_ANSICHT
1002
{
1000
Det03
1002
}
1001
AUSTER_FOLIE
1002
{
1000
NSB00341_S2
1002
}
  0
LINE
  5
CFBD
330
20
100
AcDbEntity
  8
10000_FRONT
  6
DASHED
 62
     7
370
    20
100
AcDbLine
 39
0.25
 10
-29.45432991885389
 20
486.4093837266379
 30
0.0
 11
-29.13472991885385
 21
486.1093837266378
 31
0.0
1001
AUSTER_ANSICHT
1002
{
1000
Det03
1002
}
1001
AUSTER_FOLIE
1002
{
1000
NSB00341_S2
1002
}
  0
LINE
  5
CFBE
330
20
100
AcDbEntity
  8
10000_FRONT
  6
DASHED
 62
     7
370
    20
100
AcDbLine
 39
0.25
 10
-29.13472991885385
 20
486.1093837266378
 30
0.0
 11
-29.13472991885385
 21
480.7093837266378
 31
0.0
1001
AUSTER_ANSICHT
1002
{
1000
Det03
1002
}
1001
AUSTER_FOLIE
1002
{
1000
NSB00341_S2
1002
}
  0
LINE
  5
CFBF
330
20
100
AcDbEntity
  8
10000_FRONT
  6
DASHED
 62
     7
370
    20
100
AcDbLine
 39
0.25
 10
-29.13472991885385
 20
480.7093837266378
 30
0.0
 11
-33.63472991885385
 21
480.7093837266378
 31
0.0
1001
AUSTER_ANSICHT
1002
{
1000
Det03
1002
}
1001
AUSTER_FOLIE
1002
{
1000
NSB00341_S2
1002
}
  0
LINE
  5
CFC0
330
20
100
AcDbEntity
  8
10000_FRONT
  6
DASHED
 62
     7
370
    20
100
AcDbLine
 39
0.25
 10
-33.63472991885385
 20
480.7093837266378
 30
0.0
 11
-33.63472991885385
 21
486.1093837266378
 31
0.0
1001
AUSTER_ANSICHT
1002
{
1000
Det03
1002
}
1001
AUSTER_FOLIE
1002
{
1000
NSB00341_S2
1002
}
  0
LINE
  5
CFC1
330
20
100
AcDbEntity
  8
10000_FRONT
  6
DASHED
 62
     7
370
    20
100
AcDbLine
 39
0.25
 10
-22.63472991885385
 20
486.1093837266378
 30
0.0
 11
-22.31522991885379
 21
486.4093837266379
 31
0.0
1001
AUSTER_ANSICHT
1002
{
1000
Det03
1002
}
1001
AUSTER_FOLIE
1002
{
1000
NSB00341_S2
1002
}
  0
LINE
  5
CFC2
330
20
100
AcDbEntity
  8
10000_FRONT
  6
DASHED
 62
     7
370
    20
100
AcDbLine
 39
0.25
 10
-22.31522991885379
 20
486.4093837266379
 30
0.0
 11
-18.45432991885388
 21
486.4093837266379
 31
0.0
1001
AUSTER_ANSICHT
1002
{
1000
Det03
1002
}
1001
AUSTER_FOLIE
1002
{
1000
NSB00341_S2
1002
}
  0
LINE
  5
CFC3
330
20
100
AcDbEntity
  8
10000_FRONT
  6
DASHED
 62
     7
370
    20
100
AcDbLine
 39
0.25
 10
-18.45432991885388
 20
486.4093837266379
 30
0.0
 11
-18.13472991885385
 21
486.1093837266378
 31
0.0
1001
AUSTER_ANSICHT
1002
{
1000
Det03
1002
}
1001
AUSTER_FOLIE
1002
{
1000
NSB00341_S2
1002
}
  0
LINE
  5
CFC4
330
20
100
AcDbEntity
  8
10000_FRONT
  6
DASHED
 62
     7
370
    20
100
AcDbLine
 39
0.25
 10
-18.13472991885385
 20
486.1093837266378
 30
0.0
 11
-18.13472991885385
 21
480.7093837266378
 31
0.0
1001
AUSTER_ANSICHT
1002
{
1000
Det03
1002
}
1001
AUSTER_FOLIE
1002
{
1000
NSB00341_S2
1002
}
  0
LINE
  5
CFC5
330
20
100
AcDbEntity
  8
10000_FRONT
  6
DASHED
 62
     7
370
    20
100
AcDbLine
 39
0.25
 10
-18.13472991885385
 20
480.7093837266378
 30
0.0
 11
-22.63472991885385
 21
480.7093837266378
 31
0.0
1001
AUSTER_ANSICHT
1002
{
1000
Det03
1002
}
1001
AUSTER_FOLIE
1002
{
1000
NSB00341_S2
1002
}
  0
LINE
  5
CFC6
330
20
100
AcDbEntity
  8
10000_FRONT
  6
DASHED
 62
     7
370
    20
100
AcDbLine
 39
0.25
 10
-22.63472991885385
 20
480.7093837266378
 30
0.0
 11
-22.63472991885385
 21
486.1093837266378
 31
0.0
1001
AUSTER_ANSICHT
1002
{
1000
Det03
1002
}
1001
AUSTER_FOLIE
1002
{
1000
NSB00341_S2
1002
}
  0
LINE
  5
CFC7
330
20
100
AcDbEntity
  8
10000_FRONT
  6
DASHED
 62
     7
370
    20
100
AcDbLine
 39
0.25
 10
-11.63472991885385
 20
486.1093837266378
 30
0.0
 11
-11.31522991885379
 21
486.4093837266379
 31
0.0
1001
AUSTER_ANSICHT
1002
{
1000
Det03
1002
}
1001
AUSTER_FOLIE
1002
{
1000
NSB00341_S2
1002
}
  0
LINE
  5
CFC8
330
20
100
AcDbEntity
  8
10000_FRONT
  6
DASHED
 62
     7
370
    20
100
AcDbLine
 39
0.25
 10
-11.31522991885379
 20
486.4093837266379
 30
0.0
 11
-7.454329918853885
 21
486.4093837266379
 31
0.0
1001
AUSTER_ANSICHT
1002
{
1000
Det03
1002
}
1001
AUSTER_FOLIE
1002
{
1000
NSB00341_S2
1002
}
  0
LINE
  5
CFC9
330
20
100
AcDbEntity
  8
10000_FRONT
  6
DASHED
 62
     7
370
    20
100
AcDbLine
 39
0.25
 10
-7.454329918853885
 20
486.4093837266379
 30
0.0
 11
-7.134729918853849
 21
486.1093837266378
 31
0.0
1001
AUSTER_ANSICHT
1002
{
1000
Det03
1002
}
1001
AUSTER_FOLIE
1002
{
1000
NSB00341_S2
1002
}
  0
LINE
  5
CFCA
330
20
100
AcDbEntity
  8
10000_FRONT
  6
DASHED
 62
     7
370
    20
100
AcDbLine
 39
0.25
 10
-7.134729918853849
 20
486.1093837266378
 30
0.0
 11
-7.134729918853849
 21
480.7093837266378
 31
0.0
1001
AUSTER_ANSICHT
1002
{
1000
Det03
1002
}
1001
AUSTER_FOLIE
1002
{
1000
NSB00341_S2
1002
}
  0
LINE
  5
CFCB
330
20
100
AcDbEntity
  8
10000_FRONT
  6
DASHED
 62
     7
370
    20
100
AcDbLine
 39
0.25
 10
-7.134729918853849
 20
480.7093837266378
 30
0.0
 11
-11.63472991885385
 21
480.7093837266378
 31
0.0
1001
AUSTER_ANSICHT
1002
{
1000
Det03
1002
}
1001
AUSTER_FOLIE
1002
{
1000
NSB00341_S2
1002
}
  0
LINE
  5
CFCC
330
20
100
AcDbEntity
  8
10000_FRONT
  6
DASHED
 62
     7
370
    20
100
AcDbLine
 39
0.25
 10
-11.63472991885385
 20
480.7093837266378
 30
0.0
 11
-11.63472991885385
 21
486.1093837266378
 31
0.0
1001
AUSTER_ANSICHT
1002
{
1000
Det03
1002
}
1001
AUSTER_FOLIE
1002
{
1000
NSB00341_S2
1002
}
  0
LINE
  5
CFCD
330
20
100
AcDbEntity
  8
10000_FRONT
  6
DASHED
 62
     7
370
    20
100
AcDbLine
 39
0.25
 10
-0.63472991885385
 20
486.1093837266378
 30
0.0
 11
-0.3152299188537881
 21
486.4093837266379
 31
0.0
1001
AUSTER_ANSICHT
1002
{
1000
Det03
1002
}
1001
AUSTER_FOLIE
1002
{
1000
NSB00341_S2
1002
}
  0
LINE
  5
CFCE
330
20
100
AcDbEntity
  8
10000_FRONT
  6
DASHED
 62
     7
370
    20
100
AcDbLine
 39
0.25
 10
-0.3152299188537881
 20
486.4093837266379
 30
0.0
 11
3.545670081146113
 21
486.4093837266379
 31
0.0
1001
AUSTER_ANSICHT
1002
{
1000
Det03
1002
}
1001
AUSTER_FOLIE
1002
{
1000
NSB00341_S2
1002
}
  0
LINE
  5
CFCF
330
20
100
AcDbEntity
  8
10000_FRONT
  6
DASHED
 62
     7
370
    20
100
AcDbLine
 39
0.25
 10
3.545670081146113
 20
486.4093837266379
 30
0.0
 11
3.865270081146149
 21
486.1093837266378
 31
0.0
1001
AUSTER_ANSICHT
1002
{
1000
Det03
1002
}
1001
AUSTER_FOLIE
1002
{
1000
NSB00341_S2
1002
}
  0
LINE
  5
CFD0
330
20
100
AcDbEntity
  8
10000_FRONT
  6
DASHED
 62
     7
370
    20
100
AcDbLine
 39
0.25
 10
3.865270081146149
 20
486.1093837266378
 30
0.0
 11
3.865270081146149
 21
480.7093837266378
 31
0.0
1001
AUSTER_ANSICHT
1002
{
1000
Det03
1002
}
1001
AUSTER_FOLIE
1002
{
1000
NSB00341_S2
1002
}
  0
LINE
  5
CFD1
330
20
100
AcDbEntity
  8
10000_FRONT
  6
DASHED
 62
     7
370
    20
100
AcDbLine
 39
0.25
 10
3.865270081146149
 20
480.7093837266378
 30
0.0
 11
-0.63472991885385
 21
480.7093837266378
 31
0.0
1001
AUSTER_ANSICHT
1002
{
1000
Det03
1002
}
1001
AUSTER_FOLIE
1002
{
1000
NSB00341_S2
1002
}
  0
LINE
  5
CFD2
330
20
100
AcDbEntity
  8
10000_FRONT
  6
DASHED
 62
     7
370
    20
100
AcDbLine
 39
0.25
 10
-0.63472991885385
 20
480.7093837266378
 30
0.0
 11
-0.63472991885385
 21
486.1093837266378
 31
0.0
1001
AUSTER_ANSICHT
1002
{
1000
Det03
1002
}
1001
AUSTER_FOLIE
1002
{
1000
NSB00341_S2
1002
}
  0
LINE
  5
CFD3
330
20
100
AcDbEntity
  8
10000_FRONT
  6
DASHED
 62
     7
370
    20
100
AcDbLine
 39
0.25
 10
-36.81552991885383
 20
466.5248837266378
 30
0.0
 11
-35.23472991885387
 21
466.5248837266378
 31
0.0
1001
AUSTER_ANSICHT
1002
{
1000
Det03
1002
}
1001
AUSTER_FOLIE
1002
{
1000
NSB00341_S2
1002
}
  0
LINE
  5
CFD4
330
20
100
AcDbEntity
  8
10000_FRONT
  6
DASHED
 62
     7
370
    20
100
AcDbLine
 39
0.25
 10
-35.23472991885387
 20
466.5248837266378
 30
0.0
 11
-35.23472991885387
 21
467.8499837266379
 31
0.0
1001
AUSTER_ANSICHT
1002
{
1000
Det03
1002
}
1001
AUSTER_FOLIE
1002
{
1000
NSB00341_S2
1002
}
  0
LINE
  5
CFD5
330
20
100
AcDbEntity
  8
10000_FRONT
  6
DASHED
 62
     7
370
    20
100
AcDbLine
 39
0.25
 10
4.965270081146171
 20
467.8499837266379
 30
0.0
 11
4.965270081146171
 21
466.5248837266378
 31
0.0
1001
AUSTER_ANSICHT
1002
{
1000
Det03
1002
}
1001
AUSTER_FOLIE
1002
{
1000
NSB00341_S2
1002
}
  0
LINE
  5
CFD6
330
20
100
AcDbEntity
  8
10000_FRONT
  6
DASHED
 62
     7
370
    20
100
AcDbLine
 39
0.25
 10
4.965270081146171
 20
466.5248837266378
 30
0.0
 11
6.54597008114615
 21
466.5248837266378
 31
0.0
1001
AUSTER_ANSICHT
1002
{
1000
Det03
1002
}
1001
AUSTER_FOLIE
1002
{
1000
NSB00341_S2
1002
}
  0
LINE
  5
CFD7
330
20
100
AcDbEntity
  8
11000_Left
  6
DASHED
 62
     7
370
    20
100
AcDbLine
 39
0.25
 10
83.5441851472907
 20
431.7453837266379
 30
0.0
 11
99.5441851472907
 21
431.7453837266379
 31
0.0
1001
AUSTER_ANSICHT
1002
{
1000
Det03
1002
}
1001
AUSTER_FOLIE
1002
{
1000
NSB00341_S2
1002
}
  0
LINE
  5
CFD8
330
20
100
AcDbEntity
  8
11000_Left
  6
DASHED
 62
     7
370
    20
100
AcDbLine
 39
0.25
 10
83.5441851472907
 20
536.7453837266379
 30
0.0
 11
99.5441851472907
 21
536.7453837266379
 31
0.0
1001
AUSTER_ANSICHT
1002
{
1000
Det03
1002
}
1001
AUSTER_FOLIE
1002
{
1000
NSB00341_S2
1002
}
  0
LINE
  5
CFD9
330
20
100
AcDbEntity
  8
11000_Left
  6
DASHED
 62
     7
370
    20
100
AcDbLine
 39
0.25
 10
81.0441851472907
 20
536.7453837266379
 30
0.0
 11
81.0441851472907
 21
526.2453837266377
 31
0.0
1001
AUSTER_ANSICHT
1002
{
1000
Det03
1002
}
1001
AUSTER_FOLIE
1002
{
1000
NSB00341_S2
1002
}
  0
LINE
  5
CFDA
330
20
100
AcDbEntity
  8
11000_Left
  6
DASHED
 62
     7
370
    20
100
AcDbLine
 39
0.25
 10
81.0441851472907
 20
526.2453837266377
 30
0.0
 11
108.0441851472907
 21
526.2453837266377
 31
0.0
1001
AUSTER_ANSICHT
1002
{
1000
Det03
1002
}
1001
AUSTER_FOLIE
1002
{
1000
NSB00341_S2
1002
}
  0
LINE
  5
CFDB
330
20
100
AcDbEntity
  8
11000_Left
  6
DASHED
 62
     7
370
    20
100
AcDbLine
 39
0.25
 10
108.0441851472907
 20
526.2453837266377
 30
0.0
 11
108.0441851472907
 21
536.7453837266379
 31
0.0
1001
AUSTER_ANSICHT
1002
{
1000
Det03
1002
}
1001
AUSTER_FOLIE
1002
{
1000
NSB00341_S2
1002
}
  0
LINE
  5
CFDC
330
20
100
AcDbEntity
  8
11000_Left
  6
DASHED
 62
     7
370
    20
100
AcDbLine
 39
0.25
 10
61.8720851472907
 20
536.7453837266379
 30
0.0
 11
76.8720851472907
 21
536.7453837266379
 31
0.0
1001
AUSTER_ANSICHT
1002
{
1000
Det03
1002
}
1001
AUSTER_FOLIE
1002
{
1000
NSB00341_S2
1002
}
  0
LINE
  5
CFDD
330
20
100
AcDbEntity
  8
11000_Left
  6
DASHED
 62
     7
370
    20
100
AcDbLine
 39
0.25
 10
60.94418514729079
 20
431.7453837266379
 30
0.0
 11
75.94418514729079
 21
431.7453837266379
 31
0.0
1001
AUSTER_ANSICHT
1002
{
1000
Det03
1002
}
1001
AUSTER_FOLIE
1002
{
1000
NSB00341_S2
1002
}
  0
LINE
  5
CFDE
330
20
100
AcDbEntity
  8
11000_Left
  6
DASHED
 62
     7
370
    20
100
AcDbLine
 39
0.25
 10
129.5441851472907
 20
512.4453837266378
 30
0.0
 11
129.5441851472907
 21
527.3143837266379
 31
0.0
1001
AUSTER_ANSICHT
1002
{
1000
Det03
1002
}
1001
AUSTER_FOLIE
1002
{
1000
NSB00341_S2
1002
}
  0
LINE
  5
CFDF
330
20
100
AcDbEntity
  8
11000_Left
  6
DASHED
 62
     7
370
    20
100
AcDbLine
 39
0.25
 10
129.5441851472907
 20
526.7453837266379
 30
0.0
 11
182.0441851472907
 21
526.7453837266379
 31
0.0
1001
AUSTER_ANSICHT
1002
{
1000
Det03
1002
}
1001
AUSTER_FOLIE
1002
{
1000
NSB00341_S2
1002
}
  0
LINE
  5
CFE0
330
20
100
AcDbEntity
  8
11000_Left
  6
DASHED
 62
     7
370
    20
100
AcDbLine
 39
0.25
 10
182.0441851472907
 20
441.7453837266378
 30
0.0
 11
129.9441851472908
 21
441.7453837266378
 31
0.0
1001
AUSTER_ANSICHT
1002
{
1000
Det03
1002
}
1001
AUSTER_FOLIE
1002
{
1000
NSB00341_S2
1002
}
  0
LINE
  5
CFE1
330
20
100
AcDbEntity
  8
11000_Left
  6
DASHED
 62
     7
370
    20
100
AcDbLine
 39
0.25
 10
149.8441851472908
 20
509.8453837266379
 30
0.0
 11
149.8441851472908
 21
512.4453837266378
 31
0.0
1001
AUSTER_ANSICHT
1002
{
1000
Det03
1002
}
1001
AUSTER_FOLIE
1002
{
1000
NSB00341_S2
1002
}
  0
LINE
  5
CFE2
330
20
100
AcDbEntity
  8
11000_Left
  6
DASHED
 62
     7
370
    20
100
AcDbLine
 39
0.25
 10
187.3418851472908
 20
526.0568837266378
 30
0.0
 11
187.4398851472907
 21
525.3550837266377
 31
0.0
1001
AUSTER_ANSICHT
1002
{
1000
Det03
1002
}
1001
AUSTER_FOLIE
1002
{
1000
NSB00341_S2
1002
}
  0
LINE
  5
CFE3
330
20
100
AcDbEntity
  8
11000_Left
  6
DASHED
 62
     7
370
    20
100
AcDbLine
 39
0.25
 10
129.5441851472907
 20
532.2453837266379
 30
0.0
 11
129.5441851472907
 21
536.3453837266379
 31
0.0
1001
AUSTER_ANSICHT
1002
{
1000
Det03
1002
}
1001
AUSTER_FOLIE
1002
{
1000
NSB00341_S2
1002
}
  0
LINE
  5
CFE4
330
20
100
AcDbEntity
  8
11000_Left
  6
DASHED
 62
     7
370
    20
100
AcDbLine
 39
0.25
 10
125.4441851472908
 20
536.7453837266379
 30
0.0
 11
129.1441851472907
 21
536.7453837266379
 31
0.0
1001
AUSTER_ANSICHT
1002
{
1000
Det03
1002
}
1001
AUSTER_FOLIE
1002
{
1000
NSB00341_S2
1002
}
  0
LINE
  5
CFE5
330
20
100
AcDbEntity
  8
11000_Left
  6
DASHED
 62
     7
370
    20
100
AcDbLine
 39
0.25
 10
156.8441851472907
 20
528.3453837266379
 30
0.0
 11
156.8441851472907
 21
526.7453837266379
 31
0.0
1001
AUSTER_ANSICHT
1002
{
1000
Det03
1002
}
1001
AUSTER_FOLIE
1002
{
1000
NSB00341_S2
1002
}
  0
LINE
  5
CFE6
330
20
100
AcDbEntity
  8
11000_Left
  6
DASHED
 62
     7
370
    20
100
AcDbLine
 39
0.25
 10
187.4397851472906
 20
443.1355837266377
 30
0.0
 11
187.3418851472908
 21
442.4339837266377
 31
0.0
1001
AUSTER_ANSICHT
1002
{
1000
Det03
1002
}
1001
AUSTER_FOLIE
1002
{
1000
NSB00341_S2
1002
}
  0
LINE
  5
CFE7
330
20
100
AcDbEntity
  8
11000_Left
  6
DASHED
 62
     7
370
    20
100
AcDbLine
 39
0.25
 10
115.5441851472907
 20
536.7453837266379
 30
0.0
 11
125.4441851472908
 21
536.7453837266379
 31
0.0
1001
AUSTER_ANSICHT
1002
{
1000
Det03
1002
}
1001
AUSTER_FOLIE
1002
{
1000
NSB00341_S2
1002
}
  0
LINE
  5
CFE8
330
20
100
AcDbEntity
  8
11000_Left
  6
DASHED
 62
     7
370
    20
100
AcDbLine
 39
0.25
 10
149.8441851472908
 20
512.4453837266378
 30
0.0
 11
129.5441851472907
 21
512.4453837266378
 31
0.0
1001
AUSTER_ANSICHT
1002
{
1000
Det03
1002
}
1001
AUSTER_FOLIE
1002
{
1000
NSB00341_S2
1002
}
  0
LINE
  5
CFE9
330
20
100
AcDbEntity
  8
11000_Left
  6
DASHED
 62
     7
370
    20
100
AcDbLine
 39
0.25
 10
149.8441851472908
 20
458.5453837266378
 30
0.0
 11
147.5441851472907
 21
458.5453837266378
 31
0.0
1001
AUSTER_ANSICHT
1002
{
1000
Det03
1002
}
1001
AUSTER_FOLIE
1002
{
1000
NSB00341_S2
1002
}
  0
LINE
  5
CFEA
330
20
100
AcDbEntity
  8
11000_Left
  6
DASHED
 62
     7
370
    20
100
AcDbLine
 39
0.25
 10
146.7441851472907
 20
487.4952837266378
 30
0.0
 11
146.7441851472907
 21
509.1453837266378
 31
0.0
1001
AUSTER_ANSICHT
1002
{
1000
Det03
1002
}
1001
AUSTER_FOLIE
1002
{
1000
NSB00341_S2
1002
}
  0
LINE
  5
CFEB
330
20
100
AcDbEntity
  8
11000_Left
  6
DASHED
 62
     7
370
    20
100
AcDbLine
 39
0.25
 10
147.5441851472907
 20
509.9453837266378
 30
0.0
 11
149.8441851472908
 21
509.9453837266378
 31
0.0
1001
AUSTER_ANSICHT
1002
{
1000
Det03
1002
}
1001
AUSTER_FOLIE
1002
{
1000
NSB00341_S2
1002
}
  0
LINE
  5
CFEC
330
20
100
AcDbEntity
  8
11000_Left
  6
DASHED
 62
     7
370
    20
100
AcDbLine
 39
0.25
 10
115.5441851472907
 20
535.2453837266379
 30
0.0
 11
115.5441851472907
 21
451.6453837266379
 31
0.0
1001
AUSTER_ANSICHT
1002
{
1000
Det03
1002
}
1001
AUSTER_FOLIE
1002
{
1000
NSB00341_S2
1002
}
  0
LINE
  5
CFED
330
20
100
AcDbEntity
  8
11000_Left
  6
DASHED
 62
     7
370
    20
100
AcDbLine
 39
0.25
 10
129.5441851472907
 20
451.2453837266377
 30
0.0
 11
129.9433851472908
 21
451.2453837266377
 31
0.0
1001
AUSTER_ANSICHT
1002
{
1000
Det03
1002
}
1001
AUSTER_FOLIE
1002
{
1000
NSB00341_S2
1002
}
  0
LINE
  5
CFEE
330
20
100
AcDbEntity
  8
11000_Left
  6
DASHED
 62
     7
370
    20
100
AcDbLine
 39
0.25
 10
146.7441851472907
 20
508.9453837266378
 30
0.0
 11
146.8448851472907
 21
508.9453837266378
 31
0.0
1001
AUSTER_ANSICHT
1002
{
1000
Det03
1002
}
1001
AUSTER_FOLIE
1002
{
1000
NSB00341_S2
1002
}
  0
LINE
  5
CFEF
330
20
100
AcDbEntity
  8
11000_Left
  6
DASHED
 62
     7
370
    20
100
AcDbLine
 39
0.25
 10
115.5441851472907
 20
535.2453837266379
 30
0.0
 11
115.5441851472907
 21
536.7453837266379
 31
0.0
1001
AUSTER_ANSICHT
1002
{
1000
Det03
1002
}
1001
AUSTER_FOLIE
1002
{
1000
NSB00341_S2
1002
}
  0
LINE
  5
CFF0
330
20
100
AcDbEntity
  8
11000_Left
  6
DASHED
 62
     7
370
    20
100
AcDbLine
 39
0.25
 10
115.5441851472907
 20
431.7453837266379
 30
0.0
 11
115.5441851472907
 21
432.1453837266377
 31
0.0
1001
AUSTER_ANSICHT
1002
{
1000
Det03
1002
}
1001
AUSTER_FOLIE
1002
{
1000
NSB00341_S2
1002
}
  0
LINE
  5
CFF1
330
20
100
AcDbEntity
  8
11000_Left
  6
DASHED
 62
     7
370
    20
100
AcDbLine
 39
0.25
 10
115.5441851472907
 20
432.1453837266377
 30
0.0
 11
115.5441851472907
 21
446.7453837266377
 31
0.0
1001
AUSTER_ANSICHT
1002
{
1000
Det03
1002
}
1001
AUSTER_FOLIE
1002
{
1000
NSB00341_S2
1002
}
  0
LINE
  5
CFF2
330
20
100
AcDbEntity
  8
11000_Left
  6
DASHED
 62
     7
370
    20
100
AcDbLine
 39
0.25
 10
115.5441851472907
 20
446.7453837266377
 30
0.0
 11
115.5441851472907
 21
451.2453837266377
 31
0.0
1001
AUSTER_ANSICHT
1002
{
1000
Det03
1002
}
1001
AUSTER_FOLIE
1002
{
1000
NSB00341_S2
1002
}
  0
LINE
  5
CFF3
330
20
100
AcDbEntity
  8
11000_Left
  6
DASHED
 62
     7
370
    20
100
AcDbLine
 39
0.25
 10
115.5441851472907
 20
451.2453837266377
 30
0.0
 11
115.5441851472907
 21
451.6453837266379
 31
0.0
1001
AUSTER_ANSICHT
1002
{
1000
Det03
1002
}
1001
AUSTER_FOLIE
1002
{
1000
NSB00341_S2
1002
}
  0
LINE
  5
CFF4
330
20
100
AcDbEntity
  8
11000_Left
  6
DASHED
 62
     7
370
    20
100
AcDbLine
 39
0.25
 10
129.5441851472907
 20
527.3143837266379
 30
0.0
 11
129.5441851472907
 21
532.2453837266379
 31
0.0
1001
AUSTER_ANSICHT
1002
{
1000
Det03
1002
}
1001
AUSTER_FOLIE
1002
{
1000
NSB00341_S2
1002
}
  0
LINE
  5
CFF5
330
20
100
AcDbEntity
  8
11000_Left
  6
DASHED
 62
     7
370
    20
100
AcDbLine
 39
0.25
 10
115.5441851472907
 20
451.2453837266377
 30
0.0
 11
129.5441851472907
 21
451.2453837266377
 31
0.0
1001
AUSTER_ANSICHT
1002
{
1000
Det03
1002
}
1001
AUSTER_FOLIE
1002
{
1000
NSB00341_S2
1002
}
  0
LINE
  5
CFF6
330
20
100
AcDbEntity
  8
11000_Left
  6
DASHED
 62
     7
370
    20
100
AcDbLine
 39
0.25
 10
130.1441851472907
 20
441.4453837266377
 30
0.0
 11
130.1441851472907
 21
432.1453837266377
 31
0.0
1001
AUSTER_ANSICHT
1002
{
1000
Det03
1002
}
1001
AUSTER_FOLIE
1002
{
1000
NSB00341_S2
1002
}
  0
LINE
  5
CFF8
330
20
100
AcDbEntity
  8
11000_Left
  6
DASHED
 62
     7
370
    20
100
AcDbLine
 39
0.25
 10
182.0441851472907
 20
526.7453837266379
 30
0.0
 11
186.5496851472907
 21
526.7453837266379
 31
0.0
1001
AUSTER_ANSICHT
1002
{
1000
Det03
1002
}
1001
AUSTER_FOLIE
1002
{
1000
NSB00341_S2
1002
}
  0
LINE
  5
CFF9
330
20
100
AcDbEntity
  8
11000_Left
  6
DASHED
 62
     7
370
    20
100
AcDbLine
 39
0.25
 10
182.0441851472907
 20
512.4453837266378
 30
0.0
 11
149.8441851472908
 21
512.4453837266378
 31
0.0
1001
AUSTER_ANSICHT
1002
{
1000
Det03
1002
}
1001
AUSTER_FOLIE
1002
{
1000
NSB00341_S2
1002
}
  0
LINE
  5
CFFA
330
20
100
AcDbEntity
  8
11000_Left
  6
DASHED
 62
     7
370
    20
100
AcDbLine
 39
0.25
 10
149.8441851472908
 20
456.0453837266377
 30
0.0
 11
149.8441851472908
 21
458.6453837266378
 31
0.0
1001
AUSTER_ANSICHT
1002
{
1000
Det03
1002
}
1001
AUSTER_FOLIE
1002
{
1000
NSB00341_S2
1002
}
  0
LINE
  5
CFFB
330
20
100
AcDbEntity
  8
11000_Left
  6
DASHED
 62
     7
370
    20
100
AcDbLine
 39
0.25
 10
182.0441851472907
 20
512.4453837266378
 30
0.0
 11
182.0441851472907
 21
456.0453837266377
 31
0.0
1001
AUSTER_ANSICHT
1002
{
1000
Det03
1002
}
1001
AUSTER_FOLIE
1002
{
1000
NSB00341_S2
1002
}
  0
LINE
  5
CFFC
330
20
100
AcDbEntity
  8
11000_Left
  6
DASHED
 62
     7
370
    20
100
AcDbLine
 39
0.25
 10
182.0441851472907
 20
526.7453837266379
 30
0.0
 11
182.0441851472907
 21
525.2453837266378
 31
0.0
1001
AUSTER_ANSICHT
1002
{
1000
Det03
1002
}
1001
AUSTER_FOLIE
1002
{
1000
NSB00341_S2
1002
}
  0
LINE
  5
CFFD
330
20
100
AcDbEntity
  8
11000_Left
  6
DASHED
 62
     7
370
    20
100
AcDbLine
 39
0.25
 10
182.0441851472907
 20
525.2453837266378
 30
0.0
 11
182.0441851472907
 21
512.5953837266377
 31
0.0
1001
AUSTER_ANSICHT
1002
{
1000
Det03
1002
}
1001
AUSTER_FOLIE
1002
{
1000
NSB00341_S2
1002
}
  0
LINE
  5
CFFE
330
20
100
AcDbEntity
  8
11000_Left
  6
DASHED
 62
     7
370
    20
100
AcDbLine
 39
0.25
 10
144.3441851472907
 20
528.7453837266379
 30
0.0
 11
156.4441851472908
 21
528.7453837266379
 31
0.0
1001
AUSTER_ANSICHT
1002
{
1000
Det03
1002
}
1001
AUSTER_FOLIE
1002
{
1000
NSB00341_S2
1002
}
  0
LINE
  5
CFFF
330
20
100
AcDbEntity
  8
11000_Left
  6
DASHED
 62
     7
370
    20
100
AcDbLine
 39
0.25
 10
144.3441851472907
 20
526.7453837266379
 30
0.0
 11
144.3441851472907
 21
528.7453837266379
 31
0.0
1001
AUSTER_ANSICHT
1002
{
1000
Det03
1002
}
1001
AUSTER_FOLIE
1002
{
1000
NSB00341_S2
1002
}
  0
LINE
  5
D000
330
20
100
AcDbEntity
  8
11000_Left
  6
DASHED
 62
     7
370
    20
100
AcDbLine
 39
0.25
 10
156.8441851472907
 20
441.7453837266378
 30
0.0
 11
156.8441851472907
 21
440.1453837266378
 31
0.0
1001
AUSTER_ANSICHT
1002
{
1000
Det03
1002
}
1001
AUSTER_FOLIE
1002
{
1000
NSB00341_S2
1002
}
  0
LINE
  5
D001
330
20
100
AcDbEntity
  8
11000_Left
  6
DASHED
 62
     7
370
    20
100
AcDbLine
 39
0.25
 10
156.4441851472908
 20
439.7453837266379
 30
0.0
 11
144.7441851472907
 21
439.7453837266379
 31
0.0
1001
AUSTER_ANSICHT
1002
{
1000
Det03
1002
}
1001
AUSTER_FOLIE
1002
{
1000
NSB00341_S2
1002
}
  0
LINE
  5
D002
330
20
100
AcDbEntity
  8
11000_Left
  6
DASHED
 62
     7
370
    20
100
AcDbLine
 39
0.25
 10
144.3441851472907
 20
440.1453837266378
 30
0.0
 11
144.3441851472907
 21
441.7453837266378
 31
0.0
1001
AUSTER_ANSICHT
1002
{
1000
Det03
1002
}
1001
AUSTER_FOLIE
1002
{
1000
NSB00341_S2
1002
}
  0
LINE
  5
D003
330
20
100
AcDbEntity
  8
11000_Left
  6
DASHED
 62
     7
370
    20
100
AcDbLine
 39
0.25
 10
129.9441851472908
 20
443.2453837266377
 30
0.0
 11
129.9441851472908
 21
441.7453837266378
 31
0.0
1001
AUSTER_ANSICHT
1002
{
1000
Det03
1002
}
1001
AUSTER_FOLIE
1002
{
1000
NSB00341_S2
1002
}
  0
LINE
  5
D004
330
20
100
AcDbEntity
  8
11000_Left
  6
DASHED
 62
     7
370
    20
100
AcDbLine
 39
0.25
 10
129.9441851472908
 20
455.8953837266378
 30
0.0
 11
129.9441851472908
 21
443.2453837266377
 31
0.0
1001
AUSTER_ANSICHT
1002
{
1000
Det03
1002
}
1001
AUSTER_FOLIE
1002
{
1000
NSB00341_S2
1002
}
  0
LINE
  5
D005
330
20
100
AcDbEntity
  8
11000_Left
  6
DASHED
 62
     7
370
    20
100
AcDbLine
 39
0.25
 10
144.7441851472907
 20
439.7453837266379
 30
0.0
 11
144.3441851472907
 21
439.7453837266379
 31
0.0
1001
AUSTER_ANSICHT
1002
{
1000
Det03
1002
}
1001
AUSTER_FOLIE
1002
{
1000
NSB00341_S2
1002
}
  0
LINE
  5
D006
330
20
100
AcDbEntity
  8
11000_Left
  6
DASHED
 62
     7
370
    20
100
AcDbLine
 39
0.25
 10
144.3441851472907
 20
439.7453837266379
 30
0.0
 11
144.3441851472907
 21
440.1453837266378
 31
0.0
1001
AUSTER_ANSICHT
1002
{
1000
Det03
1002
}
1001
AUSTER_FOLIE
1002
{
1000
NSB00341_S2
1002
}
  0
LINE
  5
D007
330
20
100
AcDbEntity
  8
11000_Left
  6
DASHED
 62
     7
370
    20
100
AcDbLine
 39
0.25
 10
182.0441851472907
 20
441.7453837266378
 30
0.0
 11
182.0441851472907
 21
455.8953837266378
 31
0.0
1001
AUSTER_ANSICHT
1002
{
1000
Det03
1002
}
1001
AUSTER_FOLIE
1002
{
1000
NSB00341_S2
1002
}
  0
LINE
  5
D009
330
20
100
AcDbEntity
  8
11000_Left
  6
DASHED
 62
     7
370
    20
100
AcDbLine
 39
0.25
 10
60.5441851472907
 20
499.7453837266379
 30
0.0
 11
62.43278514729071
 21
499.7453837266379
 31
0.0
1001
AUSTER_ANSICHT
1002
{
1000
Det03
1002
}
1001
AUSTER_FOLIE
1002
{
1000
NSB00341_S2
1002
}
  0
LINE
  5
D00A
330
20
100
AcDbEntity
  8
11000_Left
  6
DASHED
 62
     7
370
    20
100
AcDbLine
 39
0.25
 10
64.0441851472907
 20
466.4453837266377
 30
0.0
 11
60.5441851472907
 21
464.4246837266376
 31
0.0
1001
AUSTER_ANSICHT
1002
{
1000
Det03
1002
}
1001
AUSTER_FOLIE
1002
{
1000
NSB00341_S2
1002
}
  0
LINE
  5
D00B
330
20
100
AcDbEntity
  8
11000_Left
  6
DASHED
 62
     7
370
    20
100
AcDbLine
 39
0.25
 10
63.03778514729072
 20
468.6025837266378
 30
0.0
 11
60.5441851472907
 21
465.6307837266377
 31
0.0
1001
AUSTER_ANSICHT
1002
{
1000
Det03
1002
}
1001
AUSTER_FOLIE
1002
{
1000
NSB00341_S2
1002
}
  0
LINE
  5
D00C
330
20
100
AcDbEntity
  8
11000_Left
  6
DASHED
 62
     7
370
    20
100
AcDbLine
 39
0.25
 10
61.47988514729071
 20
536.4238837266379
 30
0.0
 11
60.5441851472907
 21
531.3985837266377
 31
0.0
1001
AUSTER_ANSICHT
1002
{
1000
Det03
1002
}
1001
AUSTER_FOLIE
1002
{
1000
NSB00341_S2
1002
}
  0
LINE
  5
D00D
330
20
100
AcDbEntity
  8
11000_Left
  6
DASHED
 62
     7
370
    20
100
AcDbLine
 39
0.25
 10
64.24418514729075
 20
466.9043837266379
 30
0.0
 11
64.24418514729075
 21
466.4453837266377
 31
0.0
1001
AUSTER_ANSICHT
1002
{
1000
Det03
1002
}
1001
AUSTER_FOLIE
1002
{
1000
NSB00341_S2
1002
}
  0
LINE
  5
D00E
330
20
100
AcDbEntity
  8
11000_Left
  6
DASHED
 62
     7
370
    20
100
AcDbLine
 39
0.25
 10
65.5441851472907
 20
466.4453837266377
 30
0.0
 11
64.0441851472907
 21
466.4453837266377
 31
0.0
1001
AUSTER_ANSICHT
1002
{
1000
Det03
1002
}
1001
AUSTER_FOLIE
1002
{
1000
NSB00341_S2
1002
}
  0
LINE
  5
D00F
330
20
100
AcDbEntity
  8
11000_Left
  6
DASHED
 62
     7
370
    20
100
AcDbLine
 39
0.25
 10
63.74418514729075
 20
468.7453837266379
 30
0.0
 11
63.97658514729073
 21
467.4276837266378
 31
0.0
1001
AUSTER_ANSICHT
1002
{
1000
Det03
1002
}
1001
AUSTER_FOLIE
1002
{
1000
NSB00341_S2
1002
}
  0
LINE
  5
D010
330
20
100
AcDbEntity
  8
11000_Left
  6
DASHED
 62
     7
370
    20
100
AcDbLine
 39
0.25
 10
63.34418514729077
 20
468.7453837266379
 30
0.0
 11
63.74418514729075
 21
468.7453837266379
 31
0.0
1001
AUSTER_ANSICHT
1002
{
1000
Det03
1002
}
1001
AUSTER_FOLIE
1002
{
1000
NSB00341_S2
1002
}
  0
LINE
  5
D011
330
20
100
AcDbEntity
  8
11000_Left
  6
DASHED
 62
     7
370
    20
100
AcDbLine
 39
0.25
 10
62.43278514729071
 20
499.7453837266379
 30
0.0
 11
64.28938514729077
 21
501.0453837266378
 31
0.0
1001
AUSTER_ANSICHT
1002
{
1000
Det03
1002
}
1001
AUSTER_FOLIE
1002
{
1000
NSB00341_S2
1002
}
  0
LINE
  5
D012
330
20
100
AcDbEntity
  8
11000_Left
  6
DASHED
 62
     7
370
    20
100
AcDbLine
 39
0.25
 10
64.28938514729077
 20
501.0453837266378
 30
0.0
 11
64.5441851472907
 21
501.7453837266379
 31
0.0
1001
AUSTER_ANSICHT
1002
{
1000
Det03
1002
}
1001
AUSTER_FOLIE
1002
{
1000
NSB00341_S2
1002
}
  0
LINE
  5
D013
330
20
100
AcDbEntity
  8
11000_Left
  6
DASHED
 62
     7
370
    20
100
AcDbLine
 39
0.25
 10
64.5441851472907
 20
501.7453837266379
 30
0.0
 11
65.5441851472907
 21
501.7453837266379
 31
0.0
1001
AUSTER_ANSICHT
1002
{
1000
Det03
1002
}
1001
AUSTER_FOLIE
1002
{
1000
NSB00341_S2
1002
}
  0
LINE
  5
D014
330
20
100
AcDbEntity
  8
11000_Left
  6
DASHED
 62
     7
370
    20
100
AcDbLine
 39
0.25
 10
60.5441851472907
 20
531.3985837266377
 30
0.0
 11
60.5441851472907
 21
499.7453837266379
 31
0.0
1001
AUSTER_ANSICHT
1002
{
1000
Det03
1002
}
1001
AUSTER_FOLIE
1002
{
1000
NSB00341_S2
1002
}
  0
LINE
  5
D015
330
20
100
AcDbEntity
  8
11000_Left
  6
DASHED
 62
     7
370
    20
100
AcDbLine
 39
0.25
 10
60.5441851472907
 20
465.6307837266377
 30
0.0
 11
60.5441851472907
 21
432.1453837266377
 31
0.0
1001
AUSTER_ANSICHT
1002
{
1000
Det03
1002
}
1001
AUSTER_FOLIE
1002
{
1000
NSB00341_S2
1002
}
  0
LINE
  5
D016
330
20
100
AcDbEntity
  8
11000_Left
  6
DASHED
 62
     7
370
    20
100
AcDbLine
 39
0.25
 10
83.5441851472907
 20
450.8453837266379
 30
0.0
 11
83.5441851472907
 21
433.2453837266379
 31
0.0
1001
AUSTER_ANSICHT
1002
{
1000
Det03
1002
}
1001
AUSTER_FOLIE
1002
{
1000
NSB00341_S2
1002
}
  0
LINE
  5
D017
330
20
100
AcDbEntity
  8
11000_Left
  6
DASHED
 62
     7
370
    20
100
AcDbLine
 39
0.25
 10
80.5441851472907
 20
466.4453837266377
 30
0.0
 11
79.0441851472907
 21
466.4453837266377
 31
0.0
1001
AUSTER_ANSICHT
1002
{
1000
Det03
1002
}
1001
AUSTER_FOLIE
1002
{
1000
NSB00341_S2
1002
}
  0
LINE
  5
D018
330
20
100
AcDbEntity
  8
11000_Left
  6
DASHED
 62
     7
370
    20
100
AcDbLine
 39
0.25
 10
75.5441851472907
 20
499.7453837266379
 30
0.0
 11
77.4327851472907
 21
499.7453837266379
 31
0.0
1001
AUSTER_ANSICHT
1002
{
1000
Det03
1002
}
1001
AUSTER_FOLIE
1002
{
1000
NSB00341_S2
1002
}
  0
LINE
  5
D019
330
20
100
AcDbEntity
  8
11000_Left
  6
DASHED
 62
     7
370
    20
100
AcDbLine
 39
0.25
 10
79.0441851472907
 20
466.4453837266377
 30
0.0
 11
75.5441851472907
 21
464.4246837266376
 31
0.0
1001
AUSTER_ANSICHT
1002
{
1000
Det03
1002
}
1001
AUSTER_FOLIE
1002
{
1000
NSB00341_S2
1002
}
  0
LINE
  5
D01A
330
20
100
AcDbEntity
  8
11000_Left
  6
DASHED
 62
     7
370
    20
100
AcDbLine
 39
0.25
 10
78.03778514729072
 20
468.6025837266378
 30
0.0
 11
75.5441851472907
 21
465.6307837266377
 31
0.0
1001
AUSTER_ANSICHT
1002
{
1000
Det03
1002
}
1001
AUSTER_FOLIE
1002
{
1000
NSB00341_S2
1002
}
  0
LINE
  5
D01B
330
20
100
AcDbEntity
  8
11000_Left
  6
DASHED
 62
     7
370
    20
100
AcDbLine
 39
0.25
 10
76.4798851472907
 20
536.4238837266379
 30
0.0
 11
75.5441851472907
 21
531.3985837266377
 31
0.0
1001
AUSTER_ANSICHT
1002
{
1000
Det03
1002
}
1001
AUSTER_FOLIE
1002
{
1000
NSB00341_S2
1002
}
  0
LINE
  5
D01C
330
20
100
AcDbEntity
  8
11000_Left
  6
DASHED
 62
     7
370
    20
100
AcDbLine
 39
0.25
 10
79.24418514729075
 20
466.9043837266379
 30
0.0
 11
79.24418514729075
 21
466.4453837266377
 31
0.0
1001
AUSTER_ANSICHT
1002
{
1000
Det03
1002
}
1001
AUSTER_FOLIE
1002
{
1000
NSB00341_S2
1002
}
  0
LINE
  5
D01D
330
20
100
AcDbEntity
  8
11000_Left
  6
DASHED
 62
     7
370
    20
100
AcDbLine
 39
0.25
 10
78.74418514729075
 20
468.7453837266379
 30
0.0
 11
78.97658514729073
 21
467.4276837266378
 31
0.0
1001
AUSTER_ANSICHT
1002
{
1000
Det03
1002
}
1001
AUSTER_FOLIE
1002
{
1000
NSB00341_S2
1002
}
  0
LINE
  5
D01E
330
20
100
AcDbEntity
  8
11000_Left
  6
DASHED
 62
     7
370
    20
100
AcDbLine
 39
0.25
 10
78.34418514729076
 20
468.7453837266379
 30
0.0
 11
78.74418514729075
 21
468.7453837266379
 31
0.0
1001
AUSTER_ANSICHT
1002
{
1000
Det03
1002
}
1001
AUSTER_FOLIE
1002
{
1000
NSB00341_S2
1002
}
  0
LINE
  5
D01F
330
20
100
AcDbEntity
  8
11000_Left
  6
DASHED
 62
     7
370
    20
100
AcDbLine
 39
0.25
 10
83.5441851472907
 20
433.2453837266379
 30
0.0
 11
83.5441851472907
 21
431.7453837266379
 31
0.0
1001
AUSTER_ANSICHT
1002
{
1000
Det03
1002
}
1001
AUSTER_FOLIE
1002
{
1000
NSB00341_S2
1002
}
  0
LINE
  5
D020
330
20
100
AcDbEntity
  8
11000_Left
  6
DASHED
 62
     7
370
    20
100
AcDbLine
 39
0.25
 10
77.4327851472907
 20
499.7453837266379
 30
0.0
 11
79.28938514729075
 21
501.0453837266378
 31
0.0
1001
AUSTER_ANSICHT
1002
{
1000
Det03
1002
}
1001
AUSTER_FOLIE
1002
{
1000
NSB00341_S2
1002
}
  0
LINE
  5
D021
330
20
100
AcDbEntity
  8
11000_Left
  6
DASHED
 62
     7
370
    20
100
AcDbLine
 39
0.25
 10
79.28938514729075
 20
501.0453837266378
 30
0.0
 11
79.5441851472907
 21
501.7453837266379
 31
0.0
1001
AUSTER_ANSICHT
1002
{
1000
Det03
1002
}
1001
AUSTER_FOLIE
1002
{
1000
NSB00341_S2
1002
}
  0
LINE
  5
D022
330
20
100
AcDbEntity
  8
11000_Left
  6
DASHED
 62
     7
370
    20
100
AcDbLine
 39
0.25
 10
79.5441851472907
 20
501.7453837266379
 30
0.0
 11
80.5441851472907
 21
501.7453837266379
 31
0.0
1001
AUSTER_ANSICHT
1002
{
1000
Det03
1002
}
1001
AUSTER_FOLIE
1002
{
1000
NSB00341_S2
1002
}
  0
LINE
  5
D023
330
20
100
AcDbEntity
  8
11000_Left
  6
DASHED
 62
     7
370
    20
100
AcDbLine
 39
0.25
 10
80.5441851472907
 20
501.7453837266379
 30
0.0
 11
80.5441851472907
 21
466.4453837266377
 31
0.0
1001
AUSTER_ANSICHT
1002
{
1000
Det03
1002
}
1001
AUSTER_FOLIE
1002
{
1000
NSB00341_S2
1002
}
  0
LINE
  5
D024
330
20
100
AcDbEntity
  8
11000_Left
  6
DASHED
 62
     7
370
    20
100
AcDbLine
 39
0.25
 10
75.5441851472907
 20
531.3985837266377
 30
0.0
 11
75.5441851472907
 21
499.7453837266379
 31
0.0
1001
AUSTER_ANSICHT
1002
{
1000
Det03
1002
}
1001
AUSTER_FOLIE
1002
{
1000
NSB00341_S2
1002
}
  0
LINE
  5
D025
330
20
100
AcDbEntity
  8
11000_Left
  6
DASHED
 62
     7
370
    20
100
AcDbLine
 39
0.25
 10
75.5441851472907
 20
465.6307837266377
 30
0.0
 11
75.5441851472907
 21
432.1453837266377
 31
0.0
1001
AUSTER_ANSICHT
1002
{
1000
Det03
1002
}
1001
AUSTER_FOLIE
1002
{
1000
NSB00341_S2
1002
}
  0
LINE
  5
D026
330
20
100
AcDbEntity
  8
11000_Left
  6
DASHED
 62
     7
370
    20
100
AcDbLine
 39
0.25
 10
75.94418514729079
 20
431.7453837266379
 30
0.0
 11
83.5441851472907
 21
431.7453837266379
 31
0.0
1001
AUSTER_ANSICHT
1002
{
1000
Det03
1002
}
1001
AUSTER_FOLIE
1002
{
1000
NSB00341_S2
1002
}
  0
LINE
  5
D027
330
20
100
AcDbEntity
  8
11000_Left
  6
DASHED
 62
     7
370
    20
100
AcDbLine
 39
0.25
 10
99.5441851472907
 20
431.7453837266379
 30
0.0
 11
129.7441851472907
 21
431.7453837266379
 31
0.0
1001
AUSTER_ANSICHT
1002
{
1000
Det03
1002
}
1001
AUSTER_FOLIE
1002
{
1000
NSB00341_S2
1002
}
  0
LINE
  5
D028
330
20
100
AcDbEntity
  8
11000_Left
  6
DASHED
 62
     7
370
    20
100
AcDbLine
 39
0.25
 10
99.5441851472907
 20
536.7453837266379
 30
0.0
 11
115.5441851472907
 21
536.7453837266379
 31
0.0
1001
AUSTER_ANSICHT
1002
{
1000
Det03
1002
}
1001
AUSTER_FOLIE
1002
{
1000
NSB00341_S2
1002
}
  0
LINE
  5
D029
330
20
100
AcDbEntity
  8
11000_Left
  6
DASHED
 62
     7
370
    20
100
AcDbLine
 39
0.25
 10
115.5441851472907
 20
451.2453837266377
 30
0.0
 11
83.9441851472908
 21
451.2453837266377
 31
0.0
1001
AUSTER_ANSICHT
1002
{
1000
Det03
1002
}
1001
AUSTER_FOLIE
1002
{
1000
NSB00341_S2
1002
}
  0
LINE
  5
D02A
330
20
100
AcDbEntity
  8
11000_Left
  6
DASHED
 62
     7
370
    20
100
AcDbLine
 39
0.25
 10
147.6298851472908
 20
486.6953837266378
 30
0.0
 11
147.6298851472908
 21
481.7953837266379
 31
0.0
1001
AUSTER_ANSICHT
1002
{
1000
Det03
1002
}
1001
AUSTER_FOLIE
1002
{
1000
NSB00341_S2
1002
}
  0
LINE
  5
D02B
330
20
100
AcDbEntity
  8
10000_FRONT
  6
Continuous
 62
     7
370
    20
100
AcDbLine
 39
0.25
 10
6.665970081146157
 20
442.1456837266378
 30
0.0
 11
6.665970081146157
 21
441.7454837266379
 31
0.0
1001
AUSTER_ANSICHT
1002
{
1000
Det03
1002
}
1001
AUSTER_FOLIE
1002
{
1000
NSB00341_S2
1002
}
  0
LINE
  5
D02C
330
20
100
AcDbEntity
  8
10000_FRONT
  6
Continuous
 62
     7
370
    20
100
AcDbLine
 39
0.25
 10
8.165970081146156
 20
442.1456837266378
 30
0.0
 11
8.165970081146156
 21
441.7454837266379
 31
0.0
1001
AUSTER_ANSICHT
1002
{
1000
Det03
1002
}
1001
AUSTER_FOLIE
1002
{
1000
NSB00341_S2
1002
}
  0
LINE
  5
D02D
330
20
100
AcDbEntity
  8
10000_FRONT
  6
Continuous
 62
     7
370
    20
100
AcDbLine
 39
0.25
 10
9.165970081146156
 20
442.1456837266378
 30
0.0
 11
9.165970081146156
 21
441.7453837266378
 31
0.0
1001
AUSTER_ANSICHT
1002
{
1000
Det03
1002
}
1001
AUSTER_FOLIE
1002
{
1000
NSB00341_S2
1002
}
  0
LINE
  5
D02E
330
20
100
AcDbEntity
  8
10000_FRONT
  6
Continuous
 62
     7
370
    50
100
AcDbLine
 39
0.7
 10
-16.54202991885393
 20
456.4458837266379
 30
0.0
 11
-16.54202991885393
 21
441.7455837266378
 31
0.0
1001
AUSTER_ANSICHT
1002
{
1000
Det03
1002
}
1001
AUSTER_FOLIE
1002
{
1000
NSB00341_S2
1002
}
  0
LINE
  5
D02F
330
20
100
AcDbEntity
  8
10000_FRONT
  6
Continuous
 62
     7
370
    50
100
AcDbLine
 39
0.7
 10
-13.74202991885386
 20
456.4458837266379
 30
0.0
 11
-13.74202991885386
 21
441.7455837266378
 31
0.0
1001
AUSTER_ANSICHT
1002
{
1000
Det03
1002
}
1001
AUSTER_FOLIE
1002
{
1000
NSB00341_S2
1002
}
  0
LINE
  5
D030
330
20
100
AcDbEntity
  8
10000_FRONT
  6
Continuous
 62
     7
370
    50
100
AcDbLine
 39
0.7
 10
-16.54202991885393
 20
456.4458837266379
 30
0.0
 11
-13.74202991885386
 21
456.4458837266379
 31
0.0
1001
AUSTER_ANSICHT
1002
{
1000
Det03
1002
}
1001
AUSTER_FOLIE
1002
{
1000
NSB00341_S2
1002
}
  0
LINE
  5
D031
330
20
100
AcDbEntity
  8
10000_FRONT
  6
Continuous
 62
     7
370
    50
100
AcDbLine
 39
0.7
 10
0.9579700811460723
 20
456.4458837266379
 30
0.0
 11
0.9579700811460723
 21
441.7454837266379
 31
0.0
1001
AUSTER_ANSICHT
1002
{
1000
Det03
1002
}
1001
AUSTER_FOLIE
1002
{
1000
NSB00341_S2
1002
}
  0
LINE
  5
D032
330
20
100
AcDbEntity
  8
10000_FRONT
  6
Continuous
 62
     7
370
    50
100
AcDbLine
 39
0.7
 10
3.75797008114614
 20
456.4458837266379
 30
0.0
 11
3.75797008114614
 21
441.7454837266379
 31
0.0
1001
AUSTER_ANSICHT
1002
{
1000
Det03
1002
}
1001
AUSTER_FOLIE
1002
{
1000
NSB00341_S2
1002
}
  0
LINE
  5
D033
330
20
100
AcDbEntity
  8
10000_FRONT
  6
Continuous
 62
     7
370
    50
100
AcDbLine
 39
0.7
 10
0.9579700811460723
 20
456.4458837266379
 30
0.0
 11
3.75797008114614
 21
456.4458837266379
 31
0.0
1001
AUSTER_ANSICHT
1002
{
1000
Det03
1002
}
1001
AUSTER_FOLIE
1002
{
1000
NSB00341_S2
1002
}
  0
LINE
  5
D034
330
20
100
AcDbEntity
  8
10000_FRONT
  6
Continuous
 62
     7
370
    50
100
AcDbLine
 39
0.7
 10
-34.04202991885393
 20
456.4458837266379
 30
0.0
 11
-34.04202991885393
 21
441.7456837266378
 31
0.0
1001
AUSTER_ANSICHT
1002
{
1000
Det03
1002
}
1001
AUSTER_FOLIE
1002
{
1000
NSB00341_S2
1002
}
  0
LINE
  5
D035
330
20
100
AcDbEntity
  8
10000_FRONT
  6
Continuous
 62
     7
370
    50
100
AcDbLine
 39
0.7
 10
-31.24202991885386
 20
456.4458837266379
 30
0.0
 11
-31.24202991885386
 21
441.7455837266378
 31
0.0
1001
AUSTER_ANSICHT
1002
{
1000
Det03
1002
}
1001
AUSTER_FOLIE
1002
{
1000
NSB00341_S2
1002
}
  0
LINE
  5
D036
330
20
100
AcDbEntity
  8
10000_FRONT
  6
Continuous
 62
     7
370
    50
100
AcDbLine
 39
0.7
 10
-34.04202991885393
 20
456.4458837266379
 30
0.0
 11
-31.24202991885386
 21
456.4458837266379
 31
0.0
1001
AUSTER_ANSICHT
1002
{
1000
Det03
1002
}
1001
AUSTER_FOLIE
1002
{
1000
NSB00341_S2
1002
}
  0
LINE
  5
D037
330
20
100
AcDbEntity
  8
10000_FRONT
  6
Continuous
 62
     7
370
    20
100
AcDbLine
 39
0.25
 10
10.66597008114615
 20
442.1456837266378
 30
0.0
 11
10.66597008114615
 21
441.7456837266378
 31
0.0
1001
AUSTER_ANSICHT
1002
{
1000
Det03
1002
}
1001
AUSTER_FOLIE
1002
{
1000
NSB00341_S2
1002
}
  0
LINE
  5
D038
330
20
100
AcDbEntity
  8
10000_FRONT
  6
Continuous
 62
     7
370
    20
100
AcDbLine
 39
0.25
 10
10.66597008114615
 20
442.1456837266378
 30
0.0
 11
9.165970081146156
 21
442.1456837266378
 31
0.0
1001
AUSTER_ANSICHT
1002
{
1000
Det03
1002
}
1001
AUSTER_FOLIE
1002
{
1000
NSB00341_S2
1002
}
  0
LINE
  5
D039
330
20
100
AcDbEntity
  8
10000_FRONT
  6
Continuous
 62
     7
370
    20
100
AcDbLine
 39
0.25
 10
8.165970081146156
 20
442.1456837266378
 30
0.0
 11
6.665970081146157
 21
442.1456837266378
 31
0.0
1001
AUSTER_ANSICHT
1002
{
1000
Det03
1002
}
1001
AUSTER_FOLIE
1002
{
1000
NSB00341_S2
1002
}
  0
LINE
  5
D03A
330
20
100
AcDbEntity
  8
10000_FRONT
  6
Continuous
 62
     7
370
    50
100
AcDbLine
 39
0.7
 10
10.76527008114612
 20
367.6456837266378
 30
0.0
 11
-41.03472991885381
 21
367.6456837266378
 31
0.0
1001
AUSTER_ANSICHT
1002
{
1000
Det03
1002
}
1001
AUSTER_FOLIE
1002
{
1000
NSB00341_S2
1002
}
  0
LINE
  5
D03B
330
20
100
AcDbEntity
  8
10000_FRONT
  6
Continuous
 62
     7
370
    50
100
AcDbLine
 39
0.7
 10
-26.18472991885381
 20
367.6456837266378
 30
0.0
 11
-26.18472991885381
 21
366.0456837266379
 31
0.0
1001
AUSTER_ANSICHT
1002
{
1000
Det03
1002
}
1001
AUSTER_FOLIE
1002
{
1000
NSB00341_S2
1002
}
  0
LINE
  5
D03C
330
20
100
AcDbEntity
  8
10000_FRONT
  6
Continuous
 62
     7
370
    50
100
AcDbLine
 39
0.7
 10
-26.58472991885389
 20
365.6456837266378
 30
0.0
 11
-40.48472991885387
 21
365.6456837266378
 31
0.0
1001
AUSTER_ANSICHT
1002
{
1000
Det03
1002
}
1001
AUSTER_FOLIE
1002
{
1000
NSB00341_S2
1002
}
  0
LINE
  5
D03D
330
20
100
AcDbEntity
  8
10000_FRONT
  6
Continuous
 62
     7
370
    50
100
AcDbLine
 39
0.7
 10
-40.88472991885384
 20
366.0456837266379
 30
0.0
 11
-40.88472991885384
 21
367.6456837266378
 31
0.0
1001
AUSTER_ANSICHT
1002
{
1000
Det03
1002
}
1001
AUSTER_FOLIE
1002
{
1000
NSB00341_S2
1002
}
  0
LINE
  5
D03E
330
20
100
AcDbEntity
  8
10000_FRONT
  6
Continuous
 62
     7
370
    50
100
AcDbLine
 39
0.7
 10
-8.634729918853849
 20
367.6456837266378
 30
0.0
 11
-8.634729918853849
 21
366.0456837266379
 31
0.0
1001
AUSTER_ANSICHT
1002
{
1000
Det03
1002
}
1001
AUSTER_FOLIE
1002
{
1000
NSB00341_S2
1002
}
  0
LINE
  5
D03F
330
20
100
AcDbEntity
  8
10000_FRONT
  6
Continuous
 62
     7
370
    50
100
AcDbLine
 39
0.7
 10
-9.034729918853827
 20
365.6456837266378
 30
0.0
 11
-21.23472991885387
 21
365.6456837266378
 31
0.0
1001
AUSTER_ANSICHT
1002
{
1000
Det03
1002
}
1001
AUSTER_FOLIE
1002
{
1000
NSB00341_S2
1002
}
  0
LINE
  5
D040
330
20
100
AcDbEntity
  8
10000_FRONT
  6
Continuous
 62
     7
370
    50
100
AcDbLine
 39
0.7
 10
-21.63472991885385
 20
366.0456837266379
 30
0.0
 11
-21.63472991885385
 21
367.6456837266378
 31
0.0
1001
AUSTER_ANSICHT
1002
{
1000
Det03
1002
}
1001
AUSTER_FOLIE
1002
{
1000
NSB00341_S2
1002
}
  0
LINE
  5
D041
330
20
100
AcDbEntity
  8
10000_FRONT
  6
Continuous
 62
     7
370
    50
100
AcDbLine
 39
0.7
 10
10.21527008114617
 20
365.6456837266378
 30
0.0
 11
-3.684729918853804
 21
365.6456837266378
 31
0.0
1001
AUSTER_ANSICHT
1002
{
1000
Det03
1002
}
1001
AUSTER_FOLIE
1002
{
1000
NSB00341_S2
1002
}
  0
LINE
  5
D042
330
20
100
AcDbEntity
  8
10000_FRONT
  6
Continuous
 62
     7
370
    50
100
AcDbLine
 39
0.7
 10
-4.084729918853895
 20
366.0456837266379
 30
0.0
 11
-4.084729918853895
 21
367.6456837266378
 31
0.0
1001
AUSTER_ANSICHT
1002
{
1000
Det03
1002
}
1001
AUSTER_FOLIE
1002
{
1000
NSB00341_S2
1002
}
  0
LINE
  5
D043
330
20
100
AcDbEntity
  8
10000_FRONT
  6
Continuous
 62
     7
370
    50
100
AcDbLine
 39
0.7
 10
10.61527008114615
 20
367.6456837266378
 30
0.0
 11
10.61527008114615
 21
366.0456837266379
 31
0.0
1001
AUSTER_ANSICHT
1002
{
1000
Det03
1002
}
1001
AUSTER_FOLIE
1002
{
1000
NSB00341_S2
1002
}
  0
LINE
  5
D044
330
20
100
AcDbEntity
  8
10000_FRONT
  6
Continuous
 62
     7
370
    20
100
AcDbLine
 39
0.25
 10
-19.54832991885382
 20
376.9272837266378
 30
0.0
 11
-15.70372991885381
 21
376.9272837266378
 31
0.0
1001
AUSTER_ANSICHT
1002
{
1000
Det03
1002
}
1001
AUSTER_FOLIE
1002
{
1000
NSB00341_S2
1002
}
  0
LINE
  5
D045
330
20
100
AcDbEntity
  8
10000_FRONT
  6
Continuous
 62
     7
370
    20
100
AcDbLine
 39
0.25
 10
-37.04832991885382
 20
376.9272837266378
 30
0.0
 11
-33.20372991885381
 21
376.9272837266378
 31
0.0
1001
AUSTER_ANSICHT
1002
{
1000
Det03
1002
}
1001
AUSTER_FOLIE
1002
{
1000
NSB00341_S2
1002
}
  0
LINE
  5
D046
330
20
100
AcDbEntity
  8
10000_FRONT
  6
Continuous
 62
     7
370
    20
100
AcDbLine
 39
0.25
 10
-15.70372991885381
 20
376.9272837266378
 30
0.0
 11
-15.70372991885381
 21
375.2046837266379
 31
0.0
1001
AUSTER_ANSICHT
1002
{
1000
Det03
1002
}
1001
AUSTER_FOLIE
1002
{
1000
NSB00341_S2
1002
}
  0
LINE
  5
D047
330
20
100
AcDbEntity
  8
10000_FRONT
  6
Continuous
 62
     7
370
    20
100
AcDbLine
 39
0.25
 10
-33.20372991885381
 20
376.9272837266378
 30
0.0
 11
-33.20372991885381
 21
375.2046837266379
 31
0.0
1001
AUSTER_ANSICHT
1002
{
1000
Det03
1002
}
1001
AUSTER_FOLIE
1002
{
1000
NSB00341_S2
1002
}
  0
LINE
  5
D048
330
20
100
AcDbEntity
  8
10000_FRONT
  6
Continuous
 62
     7
370
    20
100
AcDbLine
 39
0.25
 10
-14.50372991885387
 20
375.2046837266379
 30
0.0
 11
-14.50372991885387
 21
376.9272837266378
 31
0.0
1001
AUSTER_ANSICHT
1002
{
1000
Det03
1002
}
1001
AUSTER_FOLIE
1002
{
1000
NSB00341_S2
1002
}
  0
LINE
  5
D049
330
20
100
AcDbEntity
  8
10000_FRONT
  6
Continuous
 62
     7
370
    20
100
AcDbLine
 39
0.25
 10
-32.00372991885388
 20
375.2046837266379
 30
0.0
 11
-32.00372991885388
 21
376.9272837266378
 31
0.0
1001
AUSTER_ANSICHT
1002
{
1000
Det03
1002
}
1001
AUSTER_FOLIE
1002
{
1000
NSB00341_S2
1002
}
  0
LINE
  5
D04A
330
20
100
AcDbEntity
  8
10000_FRONT
  6
Continuous
 62
     7
370
    20
100
AcDbLine
 39
0.25
 10
-14.50372991885387
 20
376.9272837266378
 30
0.0
 11
-10.65922991885384
 21
376.9272837266378
 31
0.0
1001
AUSTER_ANSICHT
1002
{
1000
Det03
1002
}
1001
AUSTER_FOLIE
1002
{
1000
NSB00341_S2
1002
}
  0
LINE
  5
D04B
330
20
100
AcDbEntity
  8
10000_FRONT
  6
Continuous
 62
     7
370
    20
100
AcDbLine
 39
0.25
 10
-32.00372991885388
 20
376.9272837266378
 30
0.0
 11
-28.15922991885384
 21
376.9272837266378
 31
0.0
1001
AUSTER_ANSICHT
1002
{
1000
Det03
1002
}
1001
AUSTER_FOLIE
1002
{
1000
NSB00341_S2
1002
}
  0
LINE
  5
D04C
330
20
100
AcDbEntity
  8
10000_FRONT
  6
Continuous
 62
     7
370
    20
100
AcDbLine
 39
0.25
 10
-10.65922991885384
 20
378.3358837266378
 30
0.0
 11
-14.50372991885387
 21
378.3358837266378
 31
0.0
1001
AUSTER_ANSICHT
1002
{
1000
Det03
1002
}
1001
AUSTER_FOLIE
1002
{
1000
NSB00341_S2
1002
}
  0
LINE
  5
D04D
330
20
100
AcDbEntity
  8
10000_FRONT
  6
Continuous
 62
     7
370
    20
100
AcDbLine
 39
0.25
 10
-28.15922991885384
 20
378.3358837266378
 30
0.0
 11
-32.00372991885388
 21
378.3358837266378
 31
0.0
1001
AUSTER_ANSICHT
1002
{
1000
Det03
1002
}
1001
AUSTER_FOLIE
1002
{
1000
NSB00341_S2
1002
}
  0
LINE
  5
D04E
330
20
100
AcDbEntity
  8
10000_FRONT
  6
Continuous
 62
     7
370
    20
100
AcDbLine
 39
0.25
 10
-14.50372991885387
 20
378.3358837266378
 30
0.0
 11
-14.50372991885387
 21
380.0585837266378
 31
0.0
1001
AUSTER_ANSICHT
1002
{
1000
Det03
1002
}
1001
AUSTER_FOLIE
1002
{
1000
NSB00341_S2
1002
}
  0
LINE
  5
D04F
330
20
100
AcDbEntity
  8
10000_FRONT
  6
Continuous
 62
     7
370
    20
100
AcDbLine
 39
0.25
 10
-32.00372991885388
 20
378.3358837266378
 30
0.0
 11
-32.00372991885388
 21
380.0585837266378
 31
0.0
1001
AUSTER_ANSICHT
1002
{
1000
Det03
1002
}
1001
AUSTER_FOLIE
1002
{
1000
NSB00341_S2
1002
}
  0
LINE
  5
D050
330
20
100
AcDbEntity
  8
10000_FRONT
  6
Continuous
 62
     7
370
    20
100
AcDbLine
 39
0.25
 10
-15.70372991885381
 20
380.0585837266378
 30
0.0
 11
-15.70372991885381
 21
378.3358837266378
 31
0.0
1001
AUSTER_ANSICHT
1002
{
1000
Det03
1002
}
1001
AUSTER_FOLIE
1002
{
1000
NSB00341_S2
1002
}
  0
LINE
  5
D051
330
20
100
AcDbEntity
  8
10000_FRONT
  6
Continuous
 62
     7
370
    20
100
AcDbLine
 39
0.25
 10
-33.20372991885381
 20
380.0585837266378
 30
0.0
 11
-33.20372991885381
 21
378.3358837266378
 31
0.0
1001
AUSTER_ANSICHT
1002
{
1000
Det03
1002
}
1001
AUSTER_FOLIE
1002
{
1000
NSB00341_S2
1002
}
  0
LINE
  5
D052
330
20
100
AcDbEntity
  8
10000_FRONT
  6
Continuous
 62
     7
370
    20
100
AcDbLine
 39
0.25
 10
-15.70372991885381
 20
378.3358837266378
 30
0.0
 11
-19.54832991885382
 21
378.3358837266378
 31
0.0
1001
AUSTER_ANSICHT
1002
{
1000
Det03
1002
}
1001
AUSTER_FOLIE
1002
{
1000
NSB00341_S2
1002
}
  0
LINE
  5
D053
330
20
100
AcDbEntity
  8
10000_FRONT
  6
Continuous
 62
     7
370
    20
100
AcDbLine
 39
0.25
 10
-33.20372991885381
 20
378.3358837266378
 30
0.0
 11
-37.04832991885382
 21
378.3358837266378
 31
0.0
1001
AUSTER_ANSICHT
1002
{
1000
Det03
1002
}
1001
AUSTER_FOLIE
1002
{
1000
NSB00341_S2
1002
}
  0
LINE
  5
D054
330
20
100
AcDbEntity
  8
10000_FRONT
  6
Continuous
 62
     7
370
    20
100
AcDbLine
 39
0.25
 10
-2.048329918853823
 20
376.9272837266378
 30
0.0
 11
1.796270081146189
 21
376.9272837266378
 31
0.0
1001
AUSTER_ANSICHT
1002
{
1000
Det03
1002
}
1001
AUSTER_FOLIE
1002
{
1000
NSB00341_S2
1002
}
  0
LINE
  5
D055
330
20
100
AcDbEntity
  8
10000_FRONT
  6
Continuous
 62
     7
370
    20
100
AcDbLine
 39
0.25
 10
1.796270081146189
 20
376.9272837266378
 30
0.0
 11
1.796270081146189
 21
375.2046837266379
 31
0.0
1001
AUSTER_ANSICHT
1002
{
1000
Det03
1002
}
1001
AUSTER_FOLIE
1002
{
1000
NSB00341_S2
1002
}
  0
LINE
  5
D056
330
20
100
AcDbEntity
  8
10000_FRONT
  6
Continuous
 62
     7
370
    20
100
AcDbLine
 39
0.25
 10
2.99627008114612
 20
375.2046837266379
 30
0.0
 11
2.99627008114612
 21
376.9272837266378
 31
0.0
1001
AUSTER_ANSICHT
1002
{
1000
Det03
1002
}
1001
AUSTER_FOLIE
1002
{
1000
NSB00341_S2
1002
}
  0
LINE
  5
D057
330
20
100
AcDbEntity
  8
10000_FRONT
  6
Continuous
 62
     7
370
    20
100
AcDbLine
 39
0.25
 10
2.99627008114612
 20
376.9272837266378
 30
0.0
 11
6.84077008114616
 21
376.9272837266378
 31
0.0
1001
AUSTER_ANSICHT
1002
{
1000
Det03
1002
}
1001
AUSTER_FOLIE
1002
{
1000
NSB00341_S2
1002
}
  0
LINE
  5
D058
330
20
100
AcDbEntity
  8
10000_FRONT
  6
Continuous
 62
     7
370
    20
100
AcDbLine
 39
0.25
 10
6.84077008114616
 20
378.3358837266378
 30
0.0
 11
2.99627008114612
 21
378.3358837266378
 31
0.0
1001
AUSTER_ANSICHT
1002
{
1000
Det03
1002
}
1001
AUSTER_FOLIE
1002
{
1000
NSB00341_S2
1002
}
  0
LINE
  5
D059
330
20
100
AcDbEntity
  8
10000_FRONT
  6
Continuous
 62
     7
370
    20
100
AcDbLine
 39
0.25
 10
2.99627008114612
 20
378.3358837266378
 30
0.0
 11
2.99627008114612
 21
380.0585837266378
 31
0.0
1001
AUSTER_ANSICHT
1002
{
1000
Det03
1002
}
1001
AUSTER_FOLIE
1002
{
1000
NSB00341_S2
1002
}
  0
LINE
  5
D05A
330
20
100
AcDbEntity
  8
10000_FRONT
  6
Continuous
 62
     7
370
    20
100
AcDbLine
 39
0.25
 10
1.796270081146189
 20
380.0585837266378
 30
0.0
 11
1.796270081146189
 21
378.3358837266378
 31
0.0
1001
AUSTER_ANSICHT
1002
{
1000
Det03
1002
}
1001
AUSTER_FOLIE
1002
{
1000
NSB00341_S2
1002
}
  0
LINE
  5
D05B
330
20
100
AcDbEntity
  8
10000_FRONT
  6
Continuous
 62
     7
370
    20
100
AcDbLine
 39
0.25
 10
1.796270081146189
 20
378.3358837266378
 30
0.0
 11
-2.048329918853823
 21
378.3358837266378
 31
0.0
1001
AUSTER_ANSICHT
1002
{
1000
Det03
1002
}
1001
AUSTER_FOLIE
1002
{
1000
NSB00341_S2
1002
}
  0
LINE
  5
D05D
330
20
100
AcDbEntity
  8
10000_FRONT
  6
Continuous
 62
     7
370
    20
100
AcDbLine
 39
0.25
 10
-37.62422991885387
 20
432.2466837266378
 30
0.0
 11
-37.6349299188538
 21
439.2456837266379
 31
0.0
1001
AUSTER_ANSICHT
1002
{
1000
Det03
1002
}
1001
AUSTER_FOLIE
1002
{
1000
NSB00341_S2
1002
}
  0
LINE
  5
D05E
330
20
100
AcDbEntity
  8
10000_FRONT
  6
Continuous
 62
     7
370
    20
100
AcDbLine
 39
0.25
 10
-37.6349299188538
 20
439.2456837266379
 30
0.0
 11
7.375670081146153
 21
439.2456837266379
 31
0.0
1001
AUSTER_ANSICHT
1002
{
1000
Det03
1002
}
1001
AUSTER_FOLIE
1002
{
1000
NSB00341_S2
1002
}
  0
LINE
  5
D05F
330
20
100
AcDbEntity
  8
10000_FRONT
  6
Continuous
 62
     7
370
    20
100
AcDbLine
 39
0.25
 10
7.375670081146153
 20
439.2456837266379
 30
0.0
 11
7.375670081146153
 21
432.2466837266378
 31
0.0
1001
AUSTER_ANSICHT
1002
{
1000
Det03
1002
}
1001
AUSTER_FOLIE
1002
{
1000
NSB00341_S2
1002
}
  0
LINE
  5
D060
330
20
100
AcDbEntity
  8
10000_FRONT
  6
Continuous
 62
     7
370
    20
100
AcDbLine
 39
0.25
 10
10.76527008114612
 20
386.7456837266379
 30
0.0
 11
-41.03472991885381
 21
386.7462837266378
 31
0.0
1001
AUSTER_ANSICHT
1002
{
1000
Det03
1002
}
1001
AUSTER_FOLIE
1002
{
1000
NSB00341_S2
1002
}
  0
LINE
  5
D061
330
20
100
AcDbEntity
  8
10000_FRONT
  6
Continuous
 62
     7
370
    50
100
AcDbLine
 39
0.7
 10
-42.53472991885383
 20
369.1456837266378
 30
0.0
 11
-42.53472991885383
 21
388.2456837266379
 31
0.0
1001
AUSTER_ANSICHT
1002
{
1000
Det03
1002
}
1001
AUSTER_FOLIE
1002
{
1000
NSB00341_S2
1002
}
  0
LINE
  5
D062
330
20
100
AcDbEntity
  8
10000_FRONT
  6
Continuous
 62
     7
370
    50
100
AcDbLine
 39
0.7
 10
12.26557008114616
 20
388.2456837266379
 30
0.0
 11
12.26527008114613
 21
369.1456837266378
 31
0.0
1001
AUSTER_ANSICHT
1002
{
1000
Det03
1002
}
1001
AUSTER_FOLIE
1002
{
1000
NSB00341_S2
1002
}
  0
LINE
  5
D063
330
20
100
AcDbEntity
  8
10000_FRONT
  6
Continuous
 62
     7
370
    50
100
AcDbLine
 39
0.7
 10
12.26527008114613
 20
440.2456837266378
 30
0.0
 11
12.26557008114616
 21
388.2456837266379
 31
0.0
1001
AUSTER_ANSICHT
1002
{
1000
Det03
1002
}
1001
AUSTER_FOLIE
1002
{
1000
NSB00341_S2
1002
}
  0
LINE
  5
D064
330
20
100
AcDbEntity
  8
10000_FRONT
  6
Continuous
 62
     7
370
    50
100
AcDbLine
 39
0.7
 10
-42.53472991885383
 20
388.2456837266379
 30
0.0
 11
-42.53492991885389
 21
440.2456837266378
 31
0.0
1001
AUSTER_ANSICHT
1002
{
1000
Det03
1002
}
1001
AUSTER_FOLIE
1002
{
1000
NSB00341_S2
1002
}
  0
LINE
  5
D065
330
20
100
AcDbEntity
  8
10000_FRONT
  6
Continuous
 62
     7
370
    20
100
AcDbLine
 39
0.25
 10
-4.674329918853914
 20
430.5067837266379
 30
0.0
 11
-4.674329918853914
 21
423.7466837266378
 31
0.0
1001
AUSTER_ANSICHT
1002
{
1000
Det03
1002
}
1001
AUSTER_FOLIE
1002
{
1000
NSB00341_S2
1002
}
  0
LINE
  5
D066
330
20
100
AcDbEntity
  8
10000_FRONT
  6
Continuous
 62
     7
370
    20
100
AcDbLine
 39
0.25
 10
-35.01002991885378
 20
396.392383726638
 30
0.0
 11
-32.73932991885387
 21
396.392383726638
 31
0.0
1001
AUSTER_ANSICHT
1002
{
1000
Det03
1002
}
1001
AUSTER_FOLIE
1002
{
1000
NSB00341_S2
1002
}
  0
LINE
  5
D067
330
20
100
AcDbEntity
  8
10000_FRONT
  6
Continuous
 62
     7
370
    20
100
AcDbLine
 39
0.25
 10
-31.70932991885377
 20
396.392383726638
 30
0.0
 11
-29.43862991885385
 21
396.392383726638
 31
0.0
1001
AUSTER_ANSICHT
1002
{
1000
Det03
1002
}
1001
AUSTER_FOLIE
1002
{
1000
NSB00341_S2
1002
}
  0
LINE
  5
D068
330
20
100
AcDbEntity
  8
10000_FRONT
  6
Continuous
 62
     7
370
    20
100
AcDbLine
 39
0.25
 10
-29.43862991885385
 20
397.6009837266379
 30
0.0
 11
-31.70932991885377
 21
397.6009837266379
 31
0.0
1001
AUSTER_ANSICHT
1002
{
1000
Det03
1002
}
1001
AUSTER_FOLIE
1002
{
1000
NSB00341_S2
1002
}
  0
LINE
  5
D069
330
20
100
AcDbEntity
  8
10000_FRONT
  6
Continuous
 62
     7
370
    20
100
AcDbLine
 39
0.25
 10
-32.73932991885387
 20
397.6009837266379
 30
0.0
 11
-35.01002991885378
 21
397.6009837266379
 31
0.0
1001
AUSTER_ANSICHT
1002
{
1000
Det03
1002
}
1001
AUSTER_FOLIE
1002
{
1000
NSB00341_S2
1002
}
  0
LINE
  5
D06A
330
20
100
AcDbEntity
  8
10000_FRONT
  6
Continuous
 62
     7
370
    20
100
AcDbLine
 39
0.25
 10
-32.73932991885387
 20
398.7734837266379
 30
0.0
 11
-32.73932991885387
 21
397.7811837266379
 31
0.0
1001
AUSTER_ANSICHT
1002
{
1000
Det03
1002
}
1001
AUSTER_FOLIE
1002
{
1000
NSB00341_S2
1002
}
  0
LINE
  5
D06B
330
20
100
AcDbEntity
  8
10000_FRONT
  6
Continuous
 62
     7
370
    20
100
AcDbLine
 39
0.25
 10
-31.70932991885377
 20
397.7811837266379
 30
0.0
 11
-31.70932991885377
 21
398.7734837266379
 31
0.0
1001
AUSTER_ANSICHT
1002
{
1000
Det03
1002
}
1001
AUSTER_FOLIE
1002
{
1000
NSB00341_S2
1002
}
  0
LINE
  5
D06C
330
20
100
AcDbEntity
  8
10000_FRONT
  6
Continuous
 62
     7
370
    20
100
AcDbLine
 39
0.25
 10
-31.70932991885377
 20
395.2197837266378
 30
0.0
 11
-31.70932991885377
 21
396.212083726638
 31
0.0
1001
AUSTER_ANSICHT
1002
{
1000
Det03
1002
}
1001
AUSTER_FOLIE
1002
{
1000
NSB00341_S2
1002
}
  0
LINE
  5
D06D
330
20
100
AcDbEntity
  8
10000_FRONT
  6
Continuous
 62
     7
370
    20
100
AcDbLine
 39
0.25
 10
-32.73932991885387
 20
396.212083726638
 30
0.0
 11
-32.73932991885387
 21
395.2197837266378
 31
0.0
1001
AUSTER_ANSICHT
1002
{
1000
Det03
1002
}
1001
AUSTER_FOLIE
1002
{
1000
NSB00341_S2
1002
}
  0
LINE
  5
D06E
330
20
100
AcDbEntity
  8
10000_FRONT
  6
Continuous
 62
     7
370
    20
100
AcDbLine
 39
0.25
 10
-31.70932991885377
 20
397.7811837266379
 30
0.0
 11
-31.70932991885377
 21
397.6009837266379
 31
0.0
1001
AUSTER_ANSICHT
1002
{
1000
Det03
1002
}
1001
AUSTER_FOLIE
1002
{
1000
NSB00341_S2
1002
}
  0
LINE
  5
D06F
330
20
100
AcDbEntity
  8
10000_FRONT
  6
Continuous
 62
     7
370
    20
100
AcDbLine
 39
0.25
 10
-31.70932991885377
 20
396.212083726638
 30
0.0
 11
-31.70932991885377
 21
396.392383726638
 31
0.0
1001
AUSTER_ANSICHT
1002
{
1000
Det03
1002
}
1001
AUSTER_FOLIE
1002
{
1000
NSB00341_S2
1002
}
  0
LINE
  5
D070
330
20
100
AcDbEntity
  8
10000_FRONT
  6
Continuous
 62
     7
370
    20
100
AcDbLine
 39
0.25
 10
-32.73932991885387
 20
397.7811837266379
 30
0.0
 11
-32.73932991885387
 21
397.6009837266379
 31
0.0
1001
AUSTER_ANSICHT
1002
{
1000
Det03
1002
}
1001
AUSTER_FOLIE
1002
{
1000
NSB00341_S2
1002
}
  0
LINE
  5
D071
330
20
100
AcDbEntity
  8
10000_FRONT
  6
Continuous
 62
     7
370
    20
100
AcDbLine
 39
0.25
 10
-32.73932991885387
 20
396.212083726638
 30
0.0
 11
-32.73932991885387
 21
396.392383726638
 31
0.0
1001
AUSTER_ANSICHT
1002
{
1000
Det03
1002
}
1001
AUSTER_FOLIE
1002
{
1000
NSB00341_S2
1002
}
  0
LINE
  5
D072
330
20
100
AcDbEntity
  8
10000_FRONT
  6
Continuous
 62
     7
370
    20
100
AcDbLine
 39
0.25
 10
-26.41002991885387
 20
396.392383726638
 30
0.0
 11
-24.13932991885384
 21
396.392383726638
 31
0.0
1001
AUSTER_ANSICHT
1002
{
1000
Det03
1002
}
1001
AUSTER_FOLIE
1002
{
1000
NSB00341_S2
1002
}
  0
LINE
  5
D073
330
20
100
AcDbEntity
  8
10000_FRONT
  6
Continuous
 62
     7
370
    20
100
AcDbLine
 39
0.25
 10
-23.10932991885386
 20
396.392383726638
 30
0.0
 11
-20.83862991885383
 21
396.392383726638
 31
0.0
1001
AUSTER_ANSICHT
1002
{
1000
Det03
1002
}
1001
AUSTER_FOLIE
1002
{
1000
NSB00341_S2
1002
}
  0
LINE
  5
D074
330
20
100
AcDbEntity
  8
10000_FRONT
  6
Continuous
 62
     7
370
    20
100
AcDbLine
 39
0.25
 10
-20.83862991885383
 20
397.6009837266379
 30
0.0
 11
-23.10932991885386
 21
397.6009837266379
 31
0.0
1001
AUSTER_ANSICHT
1002
{
1000
Det03
1002
}
1001
AUSTER_FOLIE
1002
{
1000
NSB00341_S2
1002
}
  0
LINE
  5
D075
330
20
100
AcDbEntity
  8
10000_FRONT
  6
Continuous
 62
     7
370
    20
100
AcDbLine
 39
0.25
 10
-24.13932991885384
 20
397.6009837266379
 30
0.0
 11
-26.41002991885387
 21
397.6009837266379
 31
0.0
1001
AUSTER_ANSICHT
1002
{
1000
Det03
1002
}
1001
AUSTER_FOLIE
1002
{
1000
NSB00341_S2
1002
}
  0
LINE
  5
D076
330
20
100
AcDbEntity
  8
10000_FRONT
  6
Continuous
 62
     7
370
    20
100
AcDbLine
 39
0.25
 10
-24.13932991885384
 20
398.7734837266379
 30
0.0
 11
-24.13932991885384
 21
397.7811837266379
 31
0.0
1001
AUSTER_ANSICHT
1002
{
1000
Det03
1002
}
1001
AUSTER_FOLIE
1002
{
1000
NSB00341_S2
1002
}
  0
LINE
  5
D077
330
20
100
AcDbEntity
  8
10000_FRONT
  6
Continuous
 62
     7
370
    20
100
AcDbLine
 39
0.25
 10
-23.10932991885386
 20
397.7811837266379
 30
0.0
 11
-23.10932991885386
 21
398.7734837266379
 31
0.0
1001
AUSTER_ANSICHT
1002
{
1000
Det03
1002
}
1001
AUSTER_FOLIE
1002
{
1000
NSB00341_S2
1002
}
  0
LINE
  5
D078
330
20
100
AcDbEntity
  8
10000_FRONT
  6
Continuous
 62
     7
370
    20
100
AcDbLine
 39
0.25
 10
-23.10932991885386
 20
395.2197837266378
 30
0.0
 11
-23.10932991885386
 21
396.212083726638
 31
0.0
1001
AUSTER_ANSICHT
1002
{
1000
Det03
1002
}
1001
AUSTER_FOLIE
1002
{
1000
NSB00341_S2
1002
}
  0
LINE
  5
D079
330
20
100
AcDbEntity
  8
10000_FRONT
  6
Continuous
 62
     7
370
    20
100
AcDbLine
 39
0.25
 10
-24.13932991885384
 20
396.212083726638
 30
0.0
 11
-24.13932991885384
 21
395.2197837266378
 31
0.0
1001
AUSTER_ANSICHT
1002
{
1000
Det03
1002
}
1001
AUSTER_FOLIE
1002
{
1000
NSB00341_S2
1002
}
  0
LINE
  5
D07A
330
20
100
AcDbEntity
  8
10000_FRONT
  6
Continuous
 62
     7
370
    20
100
AcDbLine
 39
0.25
 10
-23.10932991885386
 20
397.7811837266379
 30
0.0
 11
-23.10932991885386
 21
397.6009837266379
 31
0.0
1001
AUSTER_ANSICHT
1002
{
1000
Det03
1002
}
1001
AUSTER_FOLIE
1002
{
1000
NSB00341_S2
1002
}
  0
LINE
  5
D07B
330
20
100
AcDbEntity
  8
10000_FRONT
  6
Continuous
 62
     7
370
    20
100
AcDbLine
 39
0.25
 10
-23.10932991885386
 20
396.212083726638
 30
0.0
 11
-23.10932991885386
 21
396.392383726638
 31
0.0
1001
AUSTER_ANSICHT
1002
{
1000
Det03
1002
}
1001
AUSTER_FOLIE
1002
{
1000
NSB00341_S2
1002
}
  0
LINE
  5
D07C
330
20
100
AcDbEntity
  8
10000_FRONT
  6
Continuous
 62
     7
370
    20
100
AcDbLine
 39
0.25
 10
-24.13932991885384
 20
397.7811837266379
 30
0.0
 11
-24.13932991885384
 21
397.6009837266379
 31
0.0
1001
AUSTER_ANSICHT
1002
{
1000
Det03
1002
}
1001
AUSTER_FOLIE
1002
{
1000
NSB00341_S2
1002
}
  0
LINE
  5
D07D
330
20
100
AcDbEntity
  8
10000_FRONT
  6
Continuous
 62
     7
370
    20
100
AcDbLine
 39
0.25
 10
-24.13932991885384
 20
396.212083726638
 30
0.0
 11
-24.13932991885384
 21
396.392383726638
 31
0.0
1001
AUSTER_ANSICHT
1002
{
1000
Det03
1002
}
1001
AUSTER_FOLIE
1002
{
1000
NSB00341_S2
1002
}
  0
LINE
  5
D07E
330
20
100
AcDbEntity
  8
10000_FRONT
  6
Continuous
 62
     7
370
    20
100
AcDbLine
 39
0.25
 10
-17.81002991885384
 20
396.392383726638
 30
0.0
 11
-15.53932991885392
 21
396.392383726638
 31
0.0
1001
AUSTER_ANSICHT
1002
{
1000
Det03
1002
}
1001
AUSTER_FOLIE
1002
{
1000
NSB00341_S2
1002
}
  0
LINE
  5
D07F
330
20
100
AcDbEntity
  8
10000_FRONT
  6
Continuous
 62
     7
370
    20
100
AcDbLine
 39
0.25
 10
-14.50932991885383
 20
396.392383726638
 30
0.0
 11
-12.23862991885392
 21
396.392383726638
 31
0.0
1001
AUSTER_ANSICHT
1002
{
1000
Det03
1002
}
1001
AUSTER_FOLIE
1002
{
1000
NSB00341_S2
1002
}
  0
LINE
  5
D080
330
20
100
AcDbEntity
  8
10000_FRONT
  6
Continuous
 62
     7
370
    20
100
AcDbLine
 39
0.25
 10
-12.23862991885392
 20
397.6009837266379
 30
0.0
 11
-14.50932991885383
 21
397.6009837266379
 31
0.0
1001
AUSTER_ANSICHT
1002
{
1000
Det03
1002
}
1001
AUSTER_FOLIE
1002
{
1000
NSB00341_S2
1002
}
  0
LINE
  5
D081
330
20
100
AcDbEntity
  8
10000_FRONT
  6
Continuous
 62
     7
370
    20
100
AcDbLine
 39
0.25
 10
-15.53932991885392
 20
397.6009837266379
 30
0.0
 11
-17.81002991885384
 21
397.6009837266379
 31
0.0
1001
AUSTER_ANSICHT
1002
{
1000
Det03
1002
}
1001
AUSTER_FOLIE
1002
{
1000
NSB00341_S2
1002
}
  0
LINE
  5
D082
330
20
100
AcDbEntity
  8
10000_FRONT
  6
Continuous
 62
     7
370
    20
100
AcDbLine
 39
0.25
 10
-15.53932991885392
 20
398.7734837266379
 30
0.0
 11
-15.53932991885392
 21
397.7811837266379
 31
0.0
1001
AUSTER_ANSICHT
1002
{
1000
Det03
1002
}
1001
AUSTER_FOLIE
1002
{
1000
NSB00341_S2
1002
}
  0
LINE
  5
D083
330
20
100
AcDbEntity
  8
10000_FRONT
  6
Continuous
 62
     7
370
    20
100
AcDbLine
 39
0.25
 10
-14.50932991885383
 20
397.7811837266379
 30
0.0
 11
-14.50932991885383
 21
398.7734837266379
 31
0.0
1001
AUSTER_ANSICHT
1002
{
1000
Det03
1002
}
1001
AUSTER_FOLIE
1002
{
1000
NSB00341_S2
1002
}
  0
LINE
  5
D084
330
20
100
AcDbEntity
  8
10000_FRONT
  6
Continuous
 62
     7
370
    20
100
AcDbLine
 39
0.25
 10
-14.50932991885383
 20
395.2197837266378
 30
0.0
 11
-14.50932991885383
 21
396.212083726638
 31
0.0
1001
AUSTER_ANSICHT
1002
{
1000
Det03
1002
}
1001
AUSTER_FOLIE
1002
{
1000
NSB00341_S2
1002
}
  0
LINE
  5
D085
330
20
100
AcDbEntity
  8
10000_FRONT
  6
Continuous
 62
     7
370
    20
100
AcDbLine
 39
0.25
 10
-15.53932991885392
 20
396.212083726638
 30
0.0
 11
-15.53932991885392
 21
395.2197837266378
 31
0.0
1001
AUSTER_ANSICHT
1002
{
1000
Det03
1002
}
1001
AUSTER_FOLIE
1002
{
1000
NSB00341_S2
1002
}
  0
LINE
  5
D086
330
20
100
AcDbEntity
  8
10000_FRONT
  6
Continuous
 62
     7
370
    20
100
AcDbLine
 39
0.25
 10
-14.50932991885383
 20
397.7811837266379
 30
0.0
 11
-14.50932991885383
 21
397.6009837266379
 31
0.0
1001
AUSTER_ANSICHT
1002
{
1000
Det03
1002
}
1001
AUSTER_FOLIE
1002
{
1000
NSB00341_S2
1002
}
  0
LINE
  5
D087
330
20
100
AcDbEntity
  8
10000_FRONT
  6
Continuous
 62
     7
370
    20
100
AcDbLine
 39
0.25
 10
-14.50932991885383
 20
396.212083726638
 30
0.0
 11
-14.50932991885383
 21
396.392383726638
 31
0.0
1001
AUSTER_ANSICHT
1002
{
1000
Det03
1002
}
1001
AUSTER_FOLIE
1002
{
1000
NSB00341_S2
1002
}
  0
LINE
  5
D088
330
20
100
AcDbEntity
  8
10000_FRONT
  6
Continuous
 62
     7
370
    20
100
AcDbLine
 39
0.25
 10
-15.53932991885392
 20
397.7811837266379
 30
0.0
 11
-15.53932991885392
 21
397.6009837266379
 31
0.0
1001
AUSTER_ANSICHT
1002
{
1000
Det03
1002
}
1001
AUSTER_FOLIE
1002
{
1000
NSB00341_S2
1002
}
  0
LINE
  5
D089
330
20
100
AcDbEntity
  8
10000_FRONT
  6
Continuous
 62
     7
370
    20
100
AcDbLine
 39
0.25
 10
-15.53932991885392
 20
396.212083726638
 30
0.0
 11
-15.53932991885392
 21
396.392383726638
 31
0.0
1001
AUSTER_ANSICHT
1002
{
1000
Det03
1002
}
1001
AUSTER_FOLIE
1002
{
1000
NSB00341_S2
1002
}
  0
LINE
  5
D08A
330
20
100
AcDbEntity
  8
10000_FRONT
  6
Continuous
 62
     7
370
    20
100
AcDbLine
 39
0.25
 10
7.375670081146153
 20
432.2466837266378
 30
0.0
 11
7.375670081146153
 21
423.5277837266377
 31
0.0
1001
AUSTER_ANSICHT
1002
{
1000
Det03
1002
}
1001
AUSTER_FOLIE
1002
{
1000
NSB00341_S2
1002
}
  0
LINE
  5
D08B
330
20
100
AcDbEntity
  8
10000_FRONT
  6
Continuous
 62
     7
370
    20
100
AcDbLine
 39
0.25
 10
-9.21002991885382
 20
396.392383726638
 30
0.0
 11
-6.939329918853785
 21
396.392383726638
 31
0.0
1001
AUSTER_ANSICHT
1002
{
1000
Det03
1002
}
1001
AUSTER_FOLIE
1002
{
1000
NSB00341_S2
1002
}
  0
LINE
  5
D08C
330
20
100
AcDbEntity
  8
10000_FRONT
  6
Continuous
 62
     7
370
    20
100
AcDbLine
 39
0.25
 10
-5.909329918853812
 20
396.392383726638
 30
0.0
 11
-3.63862991885378
 21
396.392383726638
 31
0.0
1001
AUSTER_ANSICHT
1002
{
1000
Det03
1002
}
1001
AUSTER_FOLIE
1002
{
1000
NSB00341_S2
1002
}
  0
LINE
  5
D08D
330
20
100
AcDbEntity
  8
10000_FRONT
  6
Continuous
 62
     7
370
    20
100
AcDbLine
 39
0.25
 10
-3.63862991885378
 20
397.6009837266379
 30
0.0
 11
-5.909329918853812
 21
397.6009837266379
 31
0.0
1001
AUSTER_ANSICHT
1002
{
1000
Det03
1002
}
1001
AUSTER_FOLIE
1002
{
1000
NSB00341_S2
1002
}
  0
LINE
  5
D08E
330
20
100
AcDbEntity
  8
10000_FRONT
  6
Continuous
 62
     7
370
    20
100
AcDbLine
 39
0.25
 10
-6.939329918853785
 20
397.6009837266379
 30
0.0
 11
-9.21002991885382
 21
397.6009837266379
 31
0.0
1001
AUSTER_ANSICHT
1002
{
1000
Det03
1002
}
1001
AUSTER_FOLIE
1002
{
1000
NSB00341_S2
1002
}
  0
LINE
  5
D08F
330
20
100
AcDbEntity
  8
10000_FRONT
  6
Continuous
 62
     7
370
    20
100
AcDbLine
 39
0.25
 10
-6.939329918853785
 20
398.7734837266379
 30
0.0
 11
-6.939329918853785
 21
397.7811837266379
 31
0.0
1001
AUSTER_ANSICHT
1002
{
1000
Det03
1002
}
1001
AUSTER_FOLIE
1002
{
1000
NSB00341_S2
1002
}
  0
LINE
  5
D090
330
20
100
AcDbEntity
  8
10000_FRONT
  6
Continuous
 62
     7
370
    20
100
AcDbLine
 39
0.25
 10
-5.909329918853812
 20
397.7811837266379
 30
0.0
 11
-5.909329918853812
 21
398.7734837266379
 31
0.0
1001
AUSTER_ANSICHT
1002
{
1000
Det03
1002
}
1001
AUSTER_FOLIE
1002
{
1000
NSB00341_S2
1002
}
  0
LINE
  5
D091
330
20
100
AcDbEntity
  8
10000_FRONT
  6
Continuous
 62
     7
370
    20
100
AcDbLine
 39
0.25
 10
-5.909329918853812
 20
395.2197837266378
 30
0.0
 11
-5.909329918853812
 21
396.212083726638
 31
0.0
1001
AUSTER_ANSICHT
1002
{
1000
Det03
1002
}
1001
AUSTER_FOLIE
1002
{
1000
NSB00341_S2
1002
}
  0
LINE
  5
D092
330
20
100
AcDbEntity
  8
10000_FRONT
  6
Continuous
 62
     7
370
    20
100
AcDbLine
 39
0.25
 10
-6.939329918853785
 20
396.212083726638
 30
0.0
 11
-6.939329918853785
 21
395.2197837266378
 31
0.0
1001
AUSTER_ANSICHT
1002
{
1000
Det03
1002
}
1001
AUSTER_FOLIE
1002
{
1000
NSB00341_S2
1002
}
  0
LINE
  5
D093
330
20
100
AcDbEntity
  8
10000_FRONT
  6
Continuous
 62
     7
370
    20
100
AcDbLine
 39
0.25
 10
-5.909329918853812
 20
397.7811837266379
 30
0.0
 11
-5.909329918853812
 21
397.6009837266379
 31
0.0
1001
AUSTER_ANSICHT
1002
{
1000
Det03
1002
}
1001
AUSTER_FOLIE
1002
{
1000
NSB00341_S2
1002
}
  0
LINE
  5
D094
330
20
100
AcDbEntity
  8
10000_FRONT
  6
Continuous
 62
     7
370
    20
100
AcDbLine
 39
0.25
 10
-5.909329918853812
 20
396.212083726638
 30
0.0
 11
-5.909329918853812
 21
396.392383726638
 31
0.0
1001
AUSTER_ANSICHT
1002
{
1000
Det03
1002
}
1001
AUSTER_FOLIE
1002
{
1000
NSB00341_S2
1002
}
  0
LINE
  5
D095
330
20
100
AcDbEntity
  8
10000_FRONT
  6
Continuous
 62
     7
370
    20
100
AcDbLine
 39
0.25
 10
-6.939329918853785
 20
397.7811837266379
 30
0.0
 11
-6.939329918853785
 21
397.6009837266379
 31
0.0
1001
AUSTER_ANSICHT
1002
{
1000
Det03
1002
}
1001
AUSTER_FOLIE
1002
{
1000
NSB00341_S2
1002
}
  0
LINE
  5
D096
330
20
100
AcDbEntity
  8
10000_FRONT
  6
Continuous
 62
     7
370
    20
100
AcDbLine
 39
0.25
 10
-6.939329918853785
 20
396.212083726638
 30
0.0
 11
-6.939329918853785
 21
396.392383726638
 31
0.0
1001
AUSTER_ANSICHT
1002
{
1000
Det03
1002
}
1001
AUSTER_FOLIE
1002
{
1000
NSB00341_S2
1002
}
  0
LINE
  5
D097
330
20
100
AcDbEntity
  8
10000_FRONT
  6
Continuous
 62
     7
370
    20
100
AcDbLine
 39
0.25
 10
0.8383700811460812
 20
406.7494837266377
 30
0.0
 11
1.42607008114612
 21
408.9427837266375
 31
0.0
1001
AUSTER_ANSICHT
1002
{
1000
Det03
1002
}
1001
AUSTER_FOLIE
1002
{
1000
NSB00341_S2
1002
}
  0
LINE
  5
D098
330
20
100
AcDbEntity
  8
10000_FRONT
  6
Continuous
 62
     7
370
    20
100
AcDbLine
 39
0.25
 10
1.692670081146161
 20
409.9376837266379
 30
0.0
 11
2.280370081146088
 21
412.1309837266379
 31
0.0
1001
AUSTER_ANSICHT
1002
{
1000
Det03
1002
}
1001
AUSTER_FOLIE
1002
{
1000
NSB00341_S2
1002
}
  0
LINE
  5
D099
330
20
100
AcDbEntity
  8
10000_FRONT
  6
Continuous
 62
     7
370
    20
100
AcDbLine
 39
0.25
 10
1.11287008114607
 20
412.4437837266379
 30
0.0
 11
0.5251700811461433
 21
410.2504837266378
 31
0.0
1001
AUSTER_ANSICHT
1002
{
1000
Det03
1002
}
1001
AUSTER_FOLIE
1002
{
1000
NSB00341_S2
1002
}
  0
LINE
  5
D09A
330
20
100
AcDbEntity
  8
10000_FRONT
  6
Continuous
 62
     7
370
    20
100
AcDbLine
 39
0.25
 10
0.2586700811460787
 20
409.2555837266378
 30
0.0
 11
-0.3290299188538484
 21
407.0622837266378
 31
0.0
1001
AUSTER_ANSICHT
1002
{
1000
Det03
1002
}
1001
AUSTER_FOLIE
1002
{
1000
NSB00341_S2
1002
}
  0
LINE
  5
D09B
330
20
100
AcDbEntity
  8
10000_FRONT
  6
Continuous
 62
     7
370
    20
100
AcDbLine
 39
0.25
 10
-0.8739299188538325
 20
409.5590837266378
 30
0.0
 11
0.0844700811461508
 21
409.3022837266378
 31
0.0
1001
AUSTER_ANSICHT
1002
{
1000
Det03
1002
}
1001
AUSTER_FOLIE
1002
{
1000
NSB00341_S2
1002
}
  0
LINE
  5
D09C
330
20
100
AcDbEntity
  8
10000_FRONT
  6
Continuous
 62
     7
370
    20
100
AcDbLine
 39
0.25
 10
0.3510700811460765
 20
410.2971837266379
 30
0.0
 11
-0.6074299188538817
 21
410.5539837266378
 31
0.0
1001
AUSTER_ANSICHT
1002
{
1000
Det03
1002
}
1001
AUSTER_FOLIE
1002
{
1000
NSB00341_S2
1002
}
  0
LINE
  5
D09D
330
20
100
AcDbEntity
  8
10000_FRONT
  6
Continuous
 62
     7
370
    20
100
AcDbLine
 39
0.25
 10
2.825270081146186
 20
409.6341837266377
 30
0.0
 11
1.866770081146228
 21
409.8909837266377
 31
0.0
1001
AUSTER_ANSICHT
1002
{
1000
Det03
1002
}
1001
AUSTER_FOLIE
1002
{
1000
NSB00341_S2
1002
}
  0
LINE
  5
D09E
330
20
100
AcDbEntity
  8
10000_FRONT
  6
Continuous
 62
     7
370
    20
100
AcDbLine
 39
0.25
 10
1.600170081146074
 20
408.8960837266379
 30
0.0
 11
2.558670081146146
 21
408.6392837266378
 31
0.0
1001
AUSTER_ANSICHT
1002
{
1000
Det03
1002
}
1001
AUSTER_FOLIE
1002
{
1000
NSB00341_S2
1002
}
  0
LINE
  5
D09F
330
20
100
AcDbEntity
  8
10000_FRONT
  6
Continuous
 62
     7
370
    20
100
AcDbLine
 39
0.25
 10
0.3510700811460765
 20
410.2971837266379
 30
0.0
 11
0.5251700811461433
 21
410.2504837266378
 31
0.0
1001
AUSTER_ANSICHT
1002
{
1000
Det03
1002
}
1001
AUSTER_FOLIE
1002
{
1000
NSB00341_S2
1002
}
  0
LINE
  5
D0A0
330
20
100
AcDbEntity
  8
10000_FRONT
  6
Continuous
 62
     7
370
    20
100
AcDbLine
 39
0.25
 10
1.866770081146228
 20
409.8909837266377
 30
0.0
 11
1.692670081146161
 21
409.9376837266379
 31
0.0
1001
AUSTER_ANSICHT
1002
{
1000
Det03
1002
}
1001
AUSTER_FOLIE
1002
{
1000
NSB00341_S2
1002
}
  0
LINE
  5
D0A1
330
20
100
AcDbEntity
  8
10000_FRONT
  6
Continuous
 62
     7
370
    20
100
AcDbLine
 39
0.25
 10
0.0844700811461508
 20
409.3022837266378
 30
0.0
 11
0.2586700811460787
 21
409.2555837266378
 31
0.0
1001
AUSTER_ANSICHT
1002
{
1000
Det03
1002
}
1001
AUSTER_FOLIE
1002
{
1000
NSB00341_S2
1002
}
  0
LINE
  5
D0A2
330
20
100
AcDbEntity
  8
10000_FRONT
  6
Continuous
 62
     7
370
    20
100
AcDbLine
 39
0.25
 10
1.600170081146074
 20
408.8960837266379
 30
0.0
 11
1.42607008114612
 21
408.9427837266375
 31
0.0
1001
AUSTER_ANSICHT
1002
{
1000
Det03
1002
}
1001
AUSTER_FOLIE
1002
{
1000
NSB00341_S2
1002
}
  0
LINE
  5
D0A3
330
20
100
AcDbEntity
  8
10000_FRONT
  6
Continuous
 62
     7
370
    20
100
AcDbLine
 39
0.25
 10
-19.72722991885382
 20
408.0541837266378
 30
0.0
 11
-21.33282991885392
 21
409.6597837266378
 31
0.0
1001
AUSTER_ANSICHT
1002
{
1000
Det03
1002
}
1001
AUSTER_FOLIE
1002
{
1000
NSB00341_S2
1002
}
  0
LINE
  5
D0A4
330
20
100
AcDbEntity
  8
10000_FRONT
  6
Continuous
 62
     7
370
    20
100
AcDbLine
 39
0.25
 10
-22.06122991885388
 20
410.3880837266379
 30
0.0
 11
-23.66682991885387
 21
411.9937837266378
 31
0.0
1001
AUSTER_ANSICHT
1002
{
1000
Det03
1002
}
1001
AUSTER_FOLIE
1002
{
1000
NSB00341_S2
1002
}
  0
LINE
  5
D0A5
330
20
100
AcDbEntity
  8
10000_FRONT
  6
Continuous
 62
     7
370
    20
100
AcDbLine
 39
0.25
 10
-24.52142991885387
 20
411.1391837266378
 30
0.0
 11
-22.91582991885377
 21
409.5334837266379
 31
0.0
1001
AUSTER_ANSICHT
1002
{
1000
Det03
1002
}
1001
AUSTER_FOLIE
1002
{
1000
NSB00341_S2
1002
}
  0
LINE
  5
D0A6
330
20
100
AcDbEntity
  8
10000_FRONT
  6
Continuous
 62
     7
370
    20
100
AcDbLine
 39
0.25
 10
-22.18752991885379
 20
408.8051837266378
 30
0.0
 11
-20.58182991885383
 21
407.1995837266378
 31
0.0
1001
AUSTER_ANSICHT
1002
{
1000
Det03
1002
}
1001
AUSTER_FOLIE
1002
{
1000
NSB00341_S2
1002
}
  0
LINE
  5
D0A7
330
20
100
AcDbEntity
  8
10000_FRONT
  6
Continuous
 62
     7
370
    20
100
AcDbLine
 39
0.25
 10
-23.01662991885383
 20
407.9760837266378
 30
0.0
 11
-22.31492991885386
 21
408.6776837266379
 31
0.0
1001
AUSTER_ANSICHT
1002
{
1000
Det03
1002
}
1001
AUSTER_FOLIE
1002
{
1000
NSB00341_S2
1002
}
  0
LINE
  5
D0A8
330
20
100
AcDbEntity
  8
10000_FRONT
  6
Continuous
 62
     7
370
    20
100
AcDbLine
 39
0.25
 10
-23.04332991885383
 20
409.4060837266378
 30
0.0
 11
-23.74492991885393
 21
408.7043837266377
 31
0.0
1001
AUSTER_ANSICHT
1002
{
1000
Det03
1002
}
1001
AUSTER_FOLIE
1002
{
1000
NSB00341_S2
1002
}
  0
LINE
  5
D0A9
330
20
100
AcDbEntity
  8
10000_FRONT
  6
Continuous
 62
     7
370
    20
100
AcDbLine
 39
0.25
 10
-21.23202991885387
 20
411.2172837266378
 30
0.0
 11
-21.93372991885383
 21
410.5155837266378
 31
0.0
1001
AUSTER_ANSICHT
1002
{
1000
Det03
1002
}
1001
AUSTER_FOLIE
1002
{
1000
NSB00341_S2
1002
}
  0
LINE
  5
D0AA
330
20
100
AcDbEntity
  8
10000_FRONT
  6
Continuous
 62
     7
370
    20
100
AcDbLine
 39
0.25
 10
-21.20542991885384
 20
409.7872837266378
 30
0.0
 11
-20.50372991885388
 21
410.4889837266378
 31
0.0
1001
AUSTER_ANSICHT
1002
{
1000
Det03
1002
}
1001
AUSTER_FOLIE
1002
{
1000
NSB00341_S2
1002
}
  0
LINE
  5
D0AB
330
20
100
AcDbEntity
  8
10000_FRONT
  6
Continuous
 62
     7
370
    20
100
AcDbLine
 39
0.25
 10
-23.04332991885383
 20
409.4060837266378
 30
0.0
 11
-22.91582991885377
 21
409.5334837266379
 31
0.0
1001
AUSTER_ANSICHT
1002
{
1000
Det03
1002
}
1001
AUSTER_FOLIE
1002
{
1000
NSB00341_S2
1002
}
  0
LINE
  5
D0AC
330
20
100
AcDbEntity
  8
10000_FRONT
  6
Continuous
 62
     7
370
    20
100
AcDbLine
 39
0.25
 10
-21.93372991885383
 20
410.5155837266378
 30
0.0
 11
-22.06122991885388
 21
410.3880837266379
 31
0.0
1001
AUSTER_ANSICHT
1002
{
1000
Det03
1002
}
1001
AUSTER_FOLIE
1002
{
1000
NSB00341_S2
1002
}
  0
LINE
  5
D0AD
330
20
100
AcDbEntity
  8
10000_FRONT
  6
Continuous
 62
     7
370
    20
100
AcDbLine
 39
0.25
 10
-22.31492991885386
 20
408.6776837266379
 30
0.0
 11
-22.18752991885379
 21
408.8051837266378
 31
0.0
1001
AUSTER_ANSICHT
1002
{
1000
Det03
1002
}
1001
AUSTER_FOLIE
1002
{
1000
NSB00341_S2
1002
}
  0
LINE
  5
D0AE
330
20
100
AcDbEntity
  8
10000_FRONT
  6
Continuous
 62
     7
370
    20
100
AcDbLine
 39
0.25
 10
-21.20542991885384
 20
409.7872837266378
 30
0.0
 11
-21.33282991885392
 21
409.6597837266378
 31
0.0
1001
AUSTER_ANSICHT
1002
{
1000
Det03
1002
}
1001
AUSTER_FOLIE
1002
{
1000
NSB00341_S2
1002
}
  0
LINE
  5
D0AF
330
20
100
AcDbEntity
  8
10000_FRONT
  6
Continuous
 62
     7
370
    20
100
AcDbLine
 39
0.25
 10
-6.674329918853913
 20
423.7466837266378
 30
0.0
 11
-4.674329918853914
 21
423.7466837266378
 31
0.0
1001
AUSTER_ANSICHT
1002
{
1000
Det03
1002
}
1001
AUSTER_FOLIE
1002
{
1000
NSB00341_S2
1002
}
  0
LINE
  5
D0B0
330
20
100
AcDbEntity
  8
10000_FRONT
  6
Continuous
 62
     7
370
    20
100
AcDbLine
 39
0.25
 10
-6.624329918853844
 20
423.5277837266377
 30
0.0
 11
7.375670081146153
 21
423.5277837266377
 31
0.0
1001
AUSTER_ANSICHT
1002
{
1000
Det03
1002
}
1001
AUSTER_FOLIE
1002
{
1000
NSB00341_S2
1002
}
  0
LINE
  5
D0B1
330
20
100
AcDbEntity
  8
10000_FRONT
  6
Continuous
 62
     7
370
    20
100
AcDbLine
 39
0.25
 10
-6.624329918853844
 20
423.5277837266377
 30
0.0
 11
-6.624329918853844
 21
402.1466837266379
 31
0.0
1001
AUSTER_ANSICHT
1002
{
1000
Det03
1002
}
1001
AUSTER_FOLIE
1002
{
1000
NSB00341_S2
1002
}
  0
LINE
  5
D0B2
330
20
100
AcDbEntity
  8
10000_FRONT
  6
Continuous
 62
     7
370
    20
100
AcDbLine
 39
0.25
 10
-6.624329918853844
 20
402.1466837266379
 30
0.0
 11
7.375670081146153
 21
402.1466837266379
 31
0.0
1001
AUSTER_ANSICHT
1002
{
1000
Det03
1002
}
1001
AUSTER_FOLIE
1002
{
1000
NSB00341_S2
1002
}
  0
LINE
  5
D0B3
330
20
100
AcDbEntity
  8
10000_FRONT
  6
Continuous
 62
     7
370
    20
100
AcDbLine
 39
0.25
 10
-6.674329918853913
 20
430.5067837266379
 30
0.0
 11
-4.674329918853914
 21
430.5067837266379
 31
0.0
1001
AUSTER_ANSICHT
1002
{
1000
Det03
1002
}
1001
AUSTER_FOLIE
1002
{
1000
NSB00341_S2
1002
}
  0
LINE
  5
D0B4
330
20
100
AcDbEntity
  8
10000_FRONT
  6
Continuous
 62
     7
370
    20
100
AcDbLine
 39
0.25
 10
-25.12432991885385
 20
412.5962837266378
 30
0.0
 11
-25.12432991885385
 21
412.4025837266378
 31
0.0
1001
AUSTER_ANSICHT
1002
{
1000
Det03
1002
}
1001
AUSTER_FOLIE
1002
{
1000
NSB00341_S2
1002
}
  0
LINE
  5
D0B5
330
20
100
AcDbEntity
  8
10000_FRONT
  6
Continuous
 62
     7
370
    20
100
AcDbLine
 39
0.25
 10
-24.93022991885381
 20
412.5966837266378
 30
0.0
 11
-25.12432991885385
 21
412.5962837266378
 31
0.0
1001
AUSTER_ANSICHT
1002
{
1000
Det03
1002
}
1001
AUSTER_FOLIE
1002
{
1000
NSB00341_S2
1002
}
  0
LINE
  5
D0B6
330
20
100
AcDbEntity
  8
10000_FRONT
  6
Continuous
 62
     7
370
    20
100
AcDbLine
 39
0.25
 10
-22.38692991885387
 20
412.5966837266378
 30
0.0
 11
-24.93022991885381
 21
412.5966837266378
 31
0.0
1001
AUSTER_ANSICHT
1002
{
1000
Det03
1002
}
1001
AUSTER_FOLIE
1002
{
1000
NSB00341_S2
1002
}
  0
LINE
  5
D0B7
330
20
100
AcDbEntity
  8
10000_FRONT
  6
Continuous
 62
     7
370
    20
100
AcDbLine
 39
0.25
 10
-25.12432991885385
 20
412.4025837266378
 30
0.0
 11
-25.12432991885385
 21
409.9089837266379
 31
0.0
1001
AUSTER_ANSICHT
1002
{
1000
Det03
1002
}
1001
AUSTER_FOLIE
1002
{
1000
NSB00341_S2
1002
}
  0
LINE
  5
D0B8
330
20
100
AcDbEntity
  8
10000_FRONT
  6
Continuous
 62
     7
370
    20
100
AcDbLine
 39
0.25
 10
-6.674329918853913
 20
423.7466837266378
 30
0.0
 11
-6.674329918853913
 21
430.5067837266379
 31
0.0
1001
AUSTER_ANSICHT
1002
{
1000
Det03
1002
}
1001
AUSTER_FOLIE
1002
{
1000
NSB00341_S2
1002
}
  0
LINE
  5
D0B9
330
20
100
AcDbEntity
  8
10000_FRONT
  6
Continuous
 62
     7
370
    20
100
AcDbLine
 39
0.25
 10
-35.4923299188539
 20
387.7247837266379
 30
0.0
 11
-36.45642991885381
 21
387.7247837266379
 31
0.0
1001
AUSTER_ANSICHT
1002
{
1000
Det03
1002
}
1001
AUSTER_FOLIE
1002
{
1000
NSB00341_S2
1002
}
  0
LINE
  5
D0BA
330
20
100
AcDbEntity
  8
10000_FRONT
  6
Continuous
 62
     7
370
    20
100
AcDbLine
 39
0.25
 10
-36.45642991885381
 20
387.7247837266379
 30
0.0
 11
-36.45642991885381
 21
389.1888837266379
 31
0.0
1001
AUSTER_ANSICHT
1002
{
1000
Det03
1002
}
1001
AUSTER_FOLIE
1002
{
1000
NSB00341_S2
1002
}
  0
LINE
  5
D0BB
330
20
100
AcDbEntity
  8
10000_FRONT
  6
Continuous
 62
     7
370
    20
100
AcDbLine
 39
0.25
 10
-36.45642991885381
 20
389.1888837266379
 30
0.0
 11
-35.4923299188539
 21
389.1888837266379
 31
0.0
1001
AUSTER_ANSICHT
1002
{
1000
Det03
1002
}
1001
AUSTER_FOLIE
1002
{
1000
NSB00341_S2
1002
}
  0
LINE
  5
D0BC
330
20
100
AcDbEntity
  8
10000_FRONT
  6
Continuous
 62
     7
370
    20
100
AcDbLine
 39
0.25
 10
-35.4923299188539
 20
389.1888837266379
 30
0.0
 11
-35.4923299188539
 21
387.7247837266379
 31
0.0
1001
AUSTER_ANSICHT
1002
{
1000
Det03
1002
}
1001
AUSTER_FOLIE
1002
{
1000
NSB00341_S2
1002
}
  0
LINE
  5
D0BD
330
20
100
AcDbEntity
  8
10000_FRONT
  6
Continuous
 62
     7
370
    20
100
AcDbLine
 39
0.25
 10
-14.97432991885387
 20
423.7948837266378
 30
0.0
 11
-14.97432991885387
 21
430.5906837266378
 31
0.0
1001
AUSTER_ANSICHT
1002
{
1000
Det03
1002
}
1001
AUSTER_FOLIE
1002
{
1000
NSB00341_S2
1002
}
  0
LINE
  5
D0BE
330
20
100
AcDbEntity
  8
10000_FRONT
  6
Continuous
 62
     7
370
    20
100
AcDbLine
 39
0.25
 10
-14.97432991885387
 20
430.5906837266378
 30
0.0
 11
-34.77432991885383
 21
430.5906837266378
 31
0.0
1001
AUSTER_ANSICHT
1002
{
1000
Det03
1002
}
1001
AUSTER_FOLIE
1002
{
1000
NSB00341_S2
1002
}
  0
LINE
  5
D0BF
330
20
100
AcDbEntity
  8
10000_FRONT
  6
Continuous
 62
     7
370
    20
100
AcDbLine
 39
0.25
 10
-34.77432991885383
 20
430.5906837266378
 30
0.0
 11
-34.77432991885383
 21
423.7948837266378
 31
0.0
1001
AUSTER_ANSICHT
1002
{
1000
Det03
1002
}
1001
AUSTER_FOLIE
1002
{
1000
NSB00341_S2
1002
}
  0
LINE
  5
D0C0
330
20
100
AcDbEntity
  8
10000_FRONT
  6
Continuous
 62
     7
370
    20
100
AcDbLine
 39
0.25
 10
-34.77432991885383
 20
423.7948837266378
 30
0.0
 11
-14.97432991885387
 21
423.7948837266378
 31
0.0
1001
AUSTER_ANSICHT
1002
{
1000
Det03
1002
}
1001
AUSTER_FOLIE
1002
{
1000
NSB00341_S2
1002
}
  0
LINE
  5
D0C1
330
20
100
AcDbEntity
  8
10000_FRONT
  6
Continuous
 62
     7
370
    20
100
AcDbLine
 39
0.25
 10
7.375670081146153
 20
423.5277837266377
 30
0.0
 11
7.375670081146153
 21
402.1466837266379
 31
0.0
1001
AUSTER_ANSICHT
1002
{
1000
Det03
1002
}
1001
AUSTER_FOLIE
1002
{
1000
NSB00341_S2
1002
}
  0
LINE
  5
D0C2
330
20
100
AcDbEntity
  8
10000_FRONT
  6
Continuous
 62
     7
370
    20
100
AcDbLine
 39
0.25
 10
-37.62422991885387
 20
432.2466837266378
 30
0.0
 11
-37.62432991885385
 21
387.7487837266378
 31
0.0
1001
AUSTER_ANSICHT
1002
{
1000
Det03
1002
}
1001
AUSTER_FOLIE
1002
{
1000
NSB00341_S2
1002
}
  0
LINE
  5
D0C3
330
20
100
AcDbEntity
  8
10000_FRONT
  6
Continuous
 62
     7
370
    20
100
AcDbLine
 39
0.25
 10
7.375670081146153
 20
402.1466837266379
 30
0.0
 11
7.375770081146129
 21
387.7466837266378
 31
0.0
1001
AUSTER_ANSICHT
1002
{
1000
Det03
1002
}
1001
AUSTER_FOLIE
1002
{
1000
NSB00341_S2
1002
}
  0
LINE
  5
D0C4
330
20
100
AcDbEntity
  8
10000_FRONT
  6
Continuous
 62
     7
370
    20
100
AcDbLine
 39
0.25
 10
1.675670081146221
 20
420.9956837266378
 30
0.0
 11
1.675670081146221
 21
418.3964837266378
 31
0.0
1001
AUSTER_ANSICHT
1002
{
1000
Det03
1002
}
1001
AUSTER_FOLIE
1002
{
1000
NSB00341_S2
1002
}
  0
LINE
  5
D0C5
330
20
100
AcDbEntity
  8
10000_FRONT
  6
Continuous
 62
     7
370
    20
100
AcDbLine
 39
0.25
 10
2.275670081146131
 20
418.3964837266378
 30
0.0
 11
2.275670081146131
 21
420.9956837266378
 31
0.0
1001
AUSTER_ANSICHT
1002
{
1000
Det03
1002
}
1001
AUSTER_FOLIE
1002
{
1000
NSB00341_S2
1002
}
  0
LINE
  5
D0C6
330
20
100
AcDbEntity
  8
10000_FRONT
  6
Continuous
 62
     7
370
    20
100
AcDbLine
 39
0.25
 10
-1.524329918853823
 20
420.9966837266378
 30
0.0
 11
3.475670081146176
 21
420.9966837266378
 31
0.0
1001
AUSTER_ANSICHT
1002
{
1000
Det03
1002
}
1001
AUSTER_FOLIE
1002
{
1000
NSB00341_S2
1002
}
  0
LINE
  5
D0C7
330
20
100
AcDbEntity
  8
10000_FRONT
  6
Continuous
 62
     7
370
    20
100
AcDbLine
 39
0.25
 10
3.475670081146176
 20
420.9966837266378
 30
0.0
 11
3.475670081146176
 21
418.3966837266377
 31
0.0
1001
AUSTER_ANSICHT
1002
{
1000
Det03
1002
}
1001
AUSTER_FOLIE
1002
{
1000
NSB00341_S2
1002
}
  0
LINE
  5
D0C8
330
20
100
AcDbEntity
  8
10000_FRONT
  6
Continuous
 62
     7
370
    20
100
AcDbLine
 39
0.25
 10
3.475670081146176
 20
418.3966837266377
 30
0.0
 11
-1.524329918853823
 21
418.3966837266377
 31
0.0
1001
AUSTER_ANSICHT
1002
{
1000
Det03
1002
}
1001
AUSTER_FOLIE
1002
{
1000
NSB00341_S2
1002
}
  0
LINE
  5
D0C9
330
20
100
AcDbEntity
  8
10000_FRONT
  6
Continuous
 62
     7
370
    20
100
AcDbLine
 39
0.25
 10
-1.524329918853823
 20
418.3966837266377
 30
0.0
 11
-1.524329918853823
 21
420.9966837266378
 31
0.0
1001
AUSTER_ANSICHT
1002
{
1000
Det03
1002
}
1001
AUSTER_FOLIE
1002
{
1000
NSB00341_S2
1002
}
  0
LINE
  5
D0CA
330
20
100
AcDbEntity
  8
11000_Left
  6
Continuous
 62
     7
370
    50
100
AcDbLine
 39
0.7
 10
89.04418514729071
 20
368.0452837266379
 30
0.0
 11
89.04418514729071
 21
369.1452837266379
 31
0.0
1001
AUSTER_ANSICHT
1002
{
1000
Det03
1002
}
1001
AUSTER_FOLIE
1002
{
1000
NSB00341_S2
1002
}
  0
LINE
  5
D0CC
330
20
100
AcDbEntity
  8
11000_Left
  6
Continuous
 62
     7
370
    50
100
AcDbLine
 39
0.7
 10
162.1405851472907
 20
367.6452837266379
 30
0.0
 11
158.8441851472907
 21
367.6452837266379
 31
0.0
1001
AUSTER_ANSICHT
1002
{
1000
Det03
1002
}
1001
AUSTER_FOLIE
1002
{
1000
NSB00341_S2
1002
}
  0
LINE
  5
D0CE
330
20
100
AcDbEntity
  8
11000_Left
  6
Continuous
 62
     7
370
    50
100
AcDbLine
 39
0.7
 10
120.1441851472907
 20
366.0452837266379
 30
0.0
 11
120.1441851472907
 21
367.6452837266379
 31
0.0
1001
AUSTER_ANSICHT
1002
{
1000
Det03
1002
}
1001
AUSTER_FOLIE
1002
{
1000
NSB00341_S2
1002
}
  0
LINE
  5
D0CF
330
20
100
AcDbEntity
  8
11000_Left
  6
Continuous
 62
     7
370
    50
100
AcDbLine
 39
0.7
 10
132.6441851472907
 20
366.0452837266379
 30
0.0
 11
132.6441851472907
 21
367.6452837266379
 31
0.0
1001
AUSTER_ANSICHT
1002
{
1000
Det03
1002
}
1001
AUSTER_FOLIE
1002
{
1000
NSB00341_S2
1002
}
  0
LINE
  5
D0D0
330
20
100
AcDbEntity
  8
11000_Left
  6
Continuous
 62
     7
370
    20
100
AcDbLine
 39
0.7
 10
158.8441851472907
 20
367.6452837266379
 30
0.0
 11
158.8441851472907
 21
386.7452837266378
 31
0.0
1001
AUSTER_ANSICHT
1002
{
1000
Det03
1002
}
1001
AUSTER_FOLIE
1002
{
1000
NSB00341_S2
1002
}
  0
LINE
  5
D0D1
330
20
100
AcDbEntity
  8
11000_Left
  6
Continuous
 62
     7
370
    50
100
AcDbLine
 39
0.7
 10
89.04418514729071
 20
369.1452837266379
 30
0.0
 11
89.04418514729071
 21
414.6452837266378
 31
0.0
1001
AUSTER_ANSICHT
1002
{
1000
Det03
1002
}
1001
AUSTER_FOLIE
1002
{
1000
NSB00341_S2
1002
}
  0
LINE
  5
D0D2
330
20
100
AcDbEntity
  8
11000_Left
  6
Continuous
 62
     7
370
    50
100
AcDbLine
 39
0.7
 10
182.0441851472907
 20
386.7452837266378
 30
0.0
 11
164.5613176104149
 21
386.7452837266379
 31
0.0
1001
AUSTER_ANSICHT
1002
{
1000
Det03
1002
}
1001
AUSTER_FOLIE
1002
{
1000
NSB00341_S2
1002
}
  0
LINE
  5
D0D3
330
20
100
AcDbEntity
  8
11000_Left
  6
Continuous
 62
     7
370
    50
100
AcDbLine
 39
0.7
 10
187.7032851472908
 20
406.7452837266378
 30
0.0
 11
191.9129851472908
 21
406.7452837266378
 31
0.0
1001
AUSTER_ANSICHT
1002
{
1000
Det03
1002
}
1001
AUSTER_FOLIE
1002
{
1000
NSB00341_S2
1002
}
  0
LINE
  5
D0D4
330
20
100
AcDbEntity
  8
11000_Left
  6
Continuous
 62
     7
370
    50
100
AcDbLine
 39
0.7
 10
191.9129851472908
 20
412.5452837266379
 30
0.0
 11
187.9390851472907
 21
412.5452837266379
 31
0.0
1001
AUSTER_ANSICHT
1002
{
1000
Det03
1002
}
1001
AUSTER_FOLIE
1002
{
1000
NSB00341_S2
1002
}
  0
LINE
  5
D0D5
330
20
100
AcDbEntity
  8
11000_Left
  6
Continuous
 62
     7
370
    50
100
AcDbLine
 39
0.7
 10
89.04418514729071
 20
414.6452837266378
 30
0.0
 11
89.04418514729071
 21
421.4452837266377
 31
0.0
1001
AUSTER_ANSICHT
1002
{
1000
Det03
1002
}
1001
AUSTER_FOLIE
1002
{
1000
NSB00341_S2
1002
}
  0
LINE
  5
D0D7
330
20
100
AcDbEntity
  8
11000_Left
  6
Continuous
 62
     7
370
    50
100
AcDbLine
 39
0.7
 10
89.04418514729071
 20
421.4452837266377
 30
0.0
 11
89.04418514729071
 21
422.2452837266378
 31
0.0
1001
AUSTER_ANSICHT
1002
{
1000
Det03
1002
}
1001
AUSTER_FOLIE
1002
{
1000
NSB00341_S2
1002
}
  0
LINE
  5
D0D8
330
20
100
AcDbEntity
  8
11000_Left
  6
Continuous
 62
     7
370
    20
100
AcDbLine
 39
0.7
 10
89.44418514729079
 20
414.6452837266378
 30
0.0
 11
146.9721851472906
 21
414.6452837266378
 31
0.0
1001
AUSTER_ANSICHT
1002
{
1000
Det03
1002
}
1001
AUSTER_FOLIE
1002
{
1000
NSB00341_S2
1002
}
  0
LINE
  5
D0D9
330
20
100
AcDbEntity
  8
11000_Left
  6
Continuous
 62
     7
370
    50
100
AcDbLine
 39
0.7
 10
89.44418514729079
 20
422.6452837266378
 30
0.0
 11
134.1257851472906
 21
422.6452837266378
 31
0.0
1001
AUSTER_ANSICHT
1002
{
1000
Det03
1002
}
1001
AUSTER_FOLIE
1002
{
1000
NSB00341_S2
1002
}
  0
LINE
  5
D0DA
330
20
100
AcDbEntity
  8
11000_Left
  6
Continuous
 62
     7
370
    20
100
AcDbLine
 39
0.7
 10
147.3479851472907
 20
414.9084837266379
 30
0.0
 11
148.3199851472907
 21
417.5790837266379
 31
0.0
1001
AUSTER_ANSICHT
1002
{
1000
Det03
1002
}
1001
AUSTER_FOLIE
1002
{
1000
NSB00341_S2
1002
}
  0
LINE
  5
D0DB
330
20
100
AcDbEntity
  8
11000_Left
  6
Continuous
 62
     7
370
    20
100
AcDbLine
 39
0.7
 10
148.3441851472908
 20
417.7158837266378
 30
0.0
 11
148.3441851472908
 21
422.2452837266378
 31
0.0
1001
AUSTER_ANSICHT
1002
{
1000
Det03
1002
}
1001
AUSTER_FOLIE
1002
{
1000
NSB00341_S2
1002
}
  0
LINE
  5
D0DC
330
20
100
AcDbEntity
  8
11000_Left
  6
Continuous
 62
     7
370
    20
100
AcDbLine
 39
0.7
 10
148.7441851472907
 20
422.6452837266378
 30
0.0
 11
182.0441851472907
 21
422.6452837266378
 31
0.0
1001
AUSTER_ANSICHT
1002
{
1000
Det03
1002
}
1001
AUSTER_FOLIE
1002
{
1000
NSB00341_S2
1002
}
  0
LINE
  5
D0DE
330
20
100
AcDbEntity
  8
11000_Left
  6
Continuous
 62
     7
370
    50
100
AcDbLine
 39
0.7
 10
134.9742851472907
 20
422.9967837266379
 30
0.0
 11
140.0713851472907
 21
428.0938837266377
 31
0.0
1001
AUSTER_ANSICHT
1002
{
1000
Det03
1002
}
1001
AUSTER_FOLIE
1002
{
1000
NSB00341_S2
1002
}
  0
LINE
  5
D0DF
330
20
100
AcDbEntity
  8
11000_Left
  6
Continuous
 62
     7
370
    50
100
AcDbLine
 39
0.7
 10
176.1822851472907
 20
429.7612837266377
 30
0.0
 11
180.2567851472907
 21
440.9557837266379
 31
0.0
1001
AUSTER_ANSICHT
1002
{
1000
Det03
1002
}
1001
AUSTER_FOLIE
1002
{
1000
NSB00341_S2
1002
}
  0
LINE
  5
D0E1
330
20
100
AcDbEntity
  8
11000_Left
  6
Continuous
 62
     7
370
    20
100
AcDbLine
 39
0.7
 10
182.0441851472907
 20
441.7452837266376
 30
0.0
 11
182.0441851472907
 21
386.7452837266378
 31
0.0
1001
AUSTER_ANSICHT
1002
{
1000
Det03
1002
}
1001
AUSTER_FOLIE
1002
{
1000
NSB00341_S2
1002
}
  0
LINE
  5
D0E2
330
20
100
AcDbEntity
  8
11000_Left
  6
Continuous
 62
     7
370
    50
100
AcDbLine
 39
0.7
 10
185.1550851472907
 20
386.7453837266379
 30
0.0
 11
182.0441851472907
 21
386.7452837266378
 31
0.0
1001
AUSTER_ANSICHT
1002
{
1000
Det03
1002
}
1001
AUSTER_FOLIE
1002
{
1000
NSB00341_S2
1002
}
  0
LINE
  5
D0E3
330
20
100
AcDbEntity
  8
11000_Left
  6
Continuous
 62
     7
370
    50
100
AcDbLine
 39
0.7
 10
182.0441851472907
 20
441.7452837266376
 30
0.0
 11
186.3407851472907
 21
441.7453837266378
 31
0.0
1001
AUSTER_ANSICHT
1002
{
1000
Det03
1002
}
1001
AUSTER_FOLIE
1002
{
1000
NSB00341_S2
1002
}
  0
LINE
  5
D0E4
330
20
100
AcDbEntity
  8
11000_Left
  6
DASHED
 62
     7
370
    20
100
AcDbLine
 39
0.25
 10
107.5438851472908
 20
367.6452837266379
 30
0.0
 11
107.5438851472908
 21
383.1452837266379
 31
0.0
1001
AUSTER_ANSICHT
1002
{
1000
Det03
1002
}
1001
AUSTER_FOLIE
1002
{
1000
NSB00341_S2
1002
}
  0
LINE
  5
D0E5
330
20
100
AcDbEntity
  8
11000_Left
  6
DASHED
 62
     7
370
    20
100
AcDbLine
 39
0.25
 10
107.5438851472908
 20
383.1452837266379
 30
0.0
 11
130.6441851472907
 21
383.1452837266379
 31
0.0
1001
AUSTER_ANSICHT
1002
{
1000
Det03
1002
}
1001
AUSTER_FOLIE
1002
{
1000
NSB00341_S2
1002
}
  0
LINE
  5
D0E6
330
20
100
AcDbEntity
  8
11000_Left
  6
DASHED
 62
     7
370
    20
100
AcDbLine
 39
0.25
 10
130.6441851472907
 20
383.1452837266379
 30
0.0
 11
130.6441851472907
 21
365.6452837266379
 31
0.0
1001
AUSTER_ANSICHT
1002
{
1000
Det03
1002
}
1001
AUSTER_FOLIE
1002
{
1000
NSB00341_S2
1002
}
  0
LINE
  5
D0E7
330
20
100
AcDbEntity
  8
11000_Left
  6
DASHED
 62
     7
370
    20
100
AcDbLine
 39
0.25
 10
118.0438851472908
 20
383.1452837266379
 30
0.0
 11
118.0438851472908
 21
371.1452837266379
 31
0.0
1001
AUSTER_ANSICHT
1002
{
1000
Det03
1002
}
1001
AUSTER_FOLIE
1002
{
1000
NSB00341_S2
1002
}
  0
LINE
  5
D0E8
330
20
100
AcDbEntity
  8
11000_Left
  6
DASHED
 62
     7
370
    20
100
AcDbLine
 39
0.25
 10
118.0438851472908
 20
371.1452837266379
 30
0.0
 11
120.1441851472907
 21
371.1452837266379
 31
0.0
1001
AUSTER_ANSICHT
1002
{
1000
Det03
1002
}
1001
AUSTER_FOLIE
1002
{
1000
NSB00341_S2
1002
}
  0
LINE
  5
D0E9
330
20
100
AcDbEntity
  8
11000_Left
  6
DASHED
 62
     7
370
    20
100
AcDbLine
 39
0.25
 10
120.1441851472907
 20
371.1452837266379
 30
0.0
 11
120.1441851472907
 21
383.1452837266379
 31
0.0
1001
AUSTER_ANSICHT
1002
{
1000
Det03
1002
}
1001
AUSTER_FOLIE
1002
{
1000
NSB00341_S2
1002
}
  0
LINE
  5
D0EA
330
20
100
AcDbEntity
  8
11000_Left
  6
DASHED
 62
     7
370
    20
100
AcDbLine
 39
0.25
 10
145.8644851472908
 20
438.4452837266378
 30
0.0
 11
147.2644851472908
 21
438.4452837266378
 31
0.0
1001
AUSTER_ANSICHT
1002
{
1000
Det03
1002
}
1001
AUSTER_FOLIE
1002
{
1000
NSB00341_S2
1002
}
  0
LINE
  5
D0EB
330
20
100
AcDbEntity
  8
11000_Left
  6
DASHED
 62
     7
370
    20
100
AcDbLine
 39
0.25
 10
144.4441851472908
 20
438.4452837266378
 30
0.0
 11
145.8644851472908
 21
438.4452837266378
 31
0.0
1001
AUSTER_ANSICHT
1002
{
1000
Det03
1002
}
1001
AUSTER_FOLIE
1002
{
1000
NSB00341_S2
1002
}
  0
LINE
  5
D0EC
330
20
100
AcDbEntity
  8
11000_Left
  6
DASHED
 62
     7
370
    20
100
AcDbLine
 39
0.25
 10
76.64418514729074
 20
496.5953837266378
 30
0.0
 11
74.0441851472907
 21
496.5953837266378
 31
0.0
1001
AUSTER_ANSICHT
1002
{
1000
Det03
1002
}
1001
AUSTER_FOLIE
1002
{
1000
NSB00341_S2
1002
}
  0
LINE
  5
D0ED
330
20
100
AcDbEntity
  8
11000_Left
  6
DASHED
 62
     7
370
    20
100
AcDbLine
 39
0.25
 10
73.0441851472907
 20
495.5953837266378
 30
0.0
 11
73.0441851472907
 21
472.5953837266378
 31
0.0
1001
AUSTER_ANSICHT
1002
{
1000
Det03
1002
}
1001
AUSTER_FOLIE
1002
{
1000
NSB00341_S2
1002
}
  0
LINE
  5
D0EE
330
20
100
AcDbEntity
  8
11000_Left
  6
DASHED
 62
     7
370
    20
100
AcDbLine
 39
0.25
 10
76.64418514729074
 20
471.5953837266378
 30
0.0
 11
74.0441851472907
 21
471.5953837266378
 31
0.0
1001
AUSTER_ANSICHT
1002
{
1000
Det03
1002
}
1001
AUSTER_FOLIE
1002
{
1000
NSB00341_S2
1002
}
  0
LINE
  5
D0EF
330
20
100
AcDbEntity
  8
11000_Left
  6
DASHED
 62
     7
370
    20
100
AcDbLine
 39
0.25
 10
76.5441851472907
 20
473.5953837266378
 30
-1.0
 11
78.5441851472907
 21
473.5953837266378
 31
-1.0
1001
AUSTER_ANSICHT
1002
{
1000
Det03
1002
}
1001
AUSTER_FOLIE
1002
{
1000
NSB00341_S2
1002
}
  0
LINE
  5
D0F0
330
20
100
AcDbEntity
  8
11000_Left
  6
DASHED
 62
     7
370
    20
100
AcDbLine
 39
0.25
 10
76.5441851472907
 20
494.5953837266379
 30
-1.0
 11
78.5441851472907
 21
494.5953837266379
 31
-1.0
1001
AUSTER_ANSICHT
1002
{
1000
Det03
1002
}
1001
AUSTER_FOLIE
1002
{
1000
NSB00341_S2
1002
}
  0
LINE
  5
D0F1
330
20
100
AcDbEntity
  8
11000_Left
  6
DASHED
 62
     7
370
    20
100
AcDbLine
 39
0.25
 10
78.5441851472907
 20
469.6953837266378
 30
-1.0
 11
78.5441851472907
 21
469.4453837266378
 31
-1.0
1001
AUSTER_ANSICHT
1002
{
1000
Det03
1002
}
1001
AUSTER_FOLIE
1002
{
1000
NSB00341_S2
1002
}
  0
LINE
  5
D0F2
330
20
100
AcDbEntity
  8
11000_Left
  6
DASHED
 62
     7
370
    20
100
AcDbLine
 39
0.25
 10
79.0441851472907
 20
498.7453837266379
 30
-1.0
 11
78.5441851472907
 21
498.7453837266379
 31
-1.0
1001
AUSTER_ANSICHT
1002
{
1000
Det03
1002
}
1001
AUSTER_FOLIE
1002
{
1000
NSB00341_S2
1002
}
  0
LINE
  5
D0F3
330
20
100
AcDbEntity
  8
11000_Left
  6
DASHED
 62
     7
370
    20
100
AcDbLine
 39
0.25
 10
78.5441851472907
 20
498.4953837266377
 30
-1.0
 11
78.5441851472907
 21
498.7453837266379
 31
-1.0
1001
AUSTER_ANSICHT
1002
{
1000
Det03
1002
}
1001
AUSTER_FOLIE
1002
{
1000
NSB00341_S2
1002
}
  0
LINE
  5
D0F4
330
20
100
AcDbEntity
  8
11000_Left
  6
DASHED
 62
     7
370
    20
100
AcDbLine
 39
0.25
 10
75.5441851472907
 20
474.5953837266378
 30
-1.0
 11
75.5441851472907
 21
484.0953837266378
 31
-1.0
1001
AUSTER_ANSICHT
1002
{
1000
Det03
1002
}
1001
AUSTER_FOLIE
1002
{
1000
NSB00341_S2
1002
}
  0
LINE
  5
D0F5
330
20
100
AcDbEntity
  8
11000_Left
  6
DASHED
 62
     7
370
    20
100
AcDbLine
 39
0.25
 10
75.5441851472907
 20
493.5953837266378
 30
-1.0
 11
75.5441851472907
 21
484.0953837266378
 31
-1.0
1001
AUSTER_ANSICHT
1002
{
1000
Det03
1002
}
1001
AUSTER_FOLIE
1002
{
1000
NSB00341_S2
1002
}
  0
LINE
  5
D0F6
330
20
100
AcDbEntity
  8
11000_Left
  6
DASHED
 62
     7
370
    20
100
AcDbLine
 39
0.25
 10
78.5441851472907
 20
469.4453837266378
 30
-1.0
 11
78.84418514729076
 21
469.4453837266378
 31
-1.0
1001
AUSTER_ANSICHT
1002
{
1000
Det03
1002
}
1001
AUSTER_FOLIE
1002
{
1000
NSB00341_S2
1002
}
  0
LINE
  5
D0F7
330
20
100
AcDbEntity
  8
11000_Left
  6
DASHED
 62
     7
370
    20
100
AcDbLine
 39
0.25
 10
79.5441851472907
 20
499.2453837266379
 30
-1.0
 11
79.5441851472907
 21
501.7453837266379
 31
-1.0
1001
AUSTER_ANSICHT
1002
{
1000
Det03
1002
}
1001
AUSTER_FOLIE
1002
{
1000
NSB00341_S2
1002
}
  0
LINE
  5
D0F8
330
20
100
AcDbEntity
  8
11000_Left
  6
DASHED
 62
     7
370
    20
100
AcDbLine
 39
0.25
 10
80.5441851472907
 20
501.7453837266379
 30
-1.0
 11
80.5441851472907
 21
496.5953837266378
 31
-1.0
1001
AUSTER_ANSICHT
1002
{
1000
Det03
1002
}
1001
AUSTER_FOLIE
1002
{
1000
NSB00341_S2
1002
}
  0
LINE
  5
D0F9
330
20
100
AcDbEntity
  8
11000_Left
  6
DASHED
 62
     7
370
    20
100
AcDbLine
 39
0.25
 10
80.5441851472907
 20
471.5953837266378
 30
-1.0
 11
78.5441851472907
 21
473.5953837266378
 31
-1.0
1001
AUSTER_ANSICHT
1002
{
1000
Det03
1002
}
1001
AUSTER_FOLIE
1002
{
1000
NSB00341_S2
1002
}
  0
LINE
  5
D0FA
330
20
100
AcDbEntity
  8
11000_Left
  6
DASHED
 62
     7
370
    20
100
AcDbLine
 39
0.25
 10
80.5441851472907
 20
466.4453837266377
 30
-1.0
 11
80.5441851472907
 21
471.5953837266378
 31
-1.0
1001
AUSTER_ANSICHT
1002
{
1000
Det03
1002
}
1001
AUSTER_FOLIE
1002
{
1000
NSB00341_S2
1002
}
  0
LINE
  5
D0FB
330
20
100
AcDbEntity
  8
11000_Left
  6
DASHED
 62
     7
370
    20
100
AcDbLine
 39
0.25
 10
79.5441851472907
 20
466.4453837266377
 30
-1.0
 11
79.5441851472907
 21
468.7453837266379
 31
-1.0
1001
AUSTER_ANSICHT
1002
{
1000
Det03
1002
}
1001
AUSTER_FOLIE
1002
{
1000
NSB00341_S2
1002
}
  0
LINE
  5
D0FC
330
20
100
AcDbEntity
  8
11000_Left
  6
DASHED
 62
     7
370
    20
100
AcDbLine
 39
0.25
 10
79.5441851472907
 20
466.4453837266377
 30
-1.0
 11
80.5441851472907
 21
466.4453837266377
 31
-1.0
1001
AUSTER_ANSICHT
1002
{
1000
Det03
1002
}
1001
AUSTER_FOLIE
1002
{
1000
NSB00341_S2
1002
}
  0
LINE
  5
D0FD
330
20
100
AcDbEntity
  8
11000_Left
  6
DASHED
 62
     7
370
    20
100
AcDbLine
 39
0.25
 10
80.5441851472907
 20
496.2953837266377
 30
0.0
 11
78.5441851472907
 21
494.2953837266379
 31
0.0
1001
AUSTER_ANSICHT
1002
{
1000
Det03
1002
}
1001
AUSTER_FOLIE
1002
{
1000
NSB00341_S2
1002
}
  0
LINE
  5
D0FE
330
20
100
AcDbEntity
  8
11000_Left
  6
DASHED
 62
     7
370
    20
100
AcDbLine
 39
0.25
 10
61.64418514729073
 20
496.5953837266378
 30
0.0
 11
59.0441851472907
 21
496.5953837266378
 31
0.0
1001
AUSTER_ANSICHT
1002
{
1000
Det03
1002
}
1001
AUSTER_FOLIE
1002
{
1000
NSB00341_S2
1002
}
  0
LINE
  5
D0FF
330
20
100
AcDbEntity
  8
11000_Left
  6
DASHED
 62
     7
370
    20
100
AcDbLine
 39
0.25
 10
58.0441851472907
 20
495.5953837266378
 30
0.0
 11
58.0441851472907
 21
472.5953837266378
 31
0.0
1001
AUSTER_ANSICHT
1002
{
1000
Det03
1002
}
1001
AUSTER_FOLIE
1002
{
1000
NSB00341_S2
1002
}
  0
LINE
  5
D100
330
20
100
AcDbEntity
  8
11000_Left
  6
DASHED
 62
     7
370
    20
100
AcDbLine
 39
0.25
 10
61.64418514729073
 20
471.5953837266378
 30
0.0
 11
59.0441851472907
 21
471.5953837266378
 31
0.0
1001
AUSTER_ANSICHT
1002
{
1000
Det03
1002
}
1001
AUSTER_FOLIE
1002
{
1000
NSB00341_S2
1002
}
  0
LINE
  5
D101
330
20
100
AcDbEntity
  8
11000_Left
  6
DASHED
 62
     7
370
    20
100
AcDbLine
 39
0.25
 10
61.5441851472907
 20
473.5953837266378
 30
-1.0
 11
63.5441851472907
 21
473.5953837266378
 31
-1.0
1001
AUSTER_ANSICHT
1002
{
1000
Det03
1002
}
1001
AUSTER_FOLIE
1002
{
1000
NSB00341_S2
1002
}
  0
LINE
  5
D102
330
20
100
AcDbEntity
  8
11000_Left
  6
DASHED
 62
     7
370
    20
100
AcDbLine
 39
0.25
 10
61.5441851472907
 20
494.5953837266379
 30
-1.0
 11
63.5441851472907
 21
494.5953837266379
 31
-1.0
1001
AUSTER_ANSICHT
1002
{
1000
Det03
1002
}
1001
AUSTER_FOLIE
1002
{
1000
NSB00341_S2
1002
}
  0
LINE
  5
D103
330
20
100
AcDbEntity
  8
11000_Left
  6
DASHED
 62
     7
370
    20
100
AcDbLine
 39
0.25
 10
63.5441851472907
 20
469.6953837266378
 30
-1.0
 11
63.5441851472907
 21
469.4453837266378
 31
-1.0
1001
AUSTER_ANSICHT
1002
{
1000
Det03
1002
}
1001
AUSTER_FOLIE
1002
{
1000
NSB00341_S2
1002
}
  0
LINE
  5
D104
330
20
100
AcDbEntity
  8
11000_Left
  6
DASHED
 62
     7
370
    20
100
AcDbLine
 39
0.25
 10
64.0441851472907
 20
498.7453837266379
 30
-1.0
 11
63.5441851472907
 21
498.7453837266379
 31
-1.0
1001
AUSTER_ANSICHT
1002
{
1000
Det03
1002
}
1001
AUSTER_FOLIE
1002
{
1000
NSB00341_S2
1002
}
  0
LINE
  5
D105
330
20
100
AcDbEntity
  8
11000_Left
  6
DASHED
 62
     7
370
    20
100
AcDbLine
 39
0.25
 10
63.5441851472907
 20
498.4953837266377
 30
-1.0
 11
63.5441851472907
 21
498.7453837266379
 31
-1.0
1001
AUSTER_ANSICHT
1002
{
1000
Det03
1002
}
1001
AUSTER_FOLIE
1002
{
1000
NSB00341_S2
1002
}
  0
LINE
  5
D106
330
20
100
AcDbEntity
  8
11000_Left
  6
DASHED
 62
     7
370
    20
100
AcDbLine
 39
0.25
 10
60.5441851472907
 20
474.5953837266378
 30
-1.0
 11
60.5441851472907
 21
484.0953837266378
 31
-1.0
1001
AUSTER_ANSICHT
1002
{
1000
Det03
1002
}
1001
AUSTER_FOLIE
1002
{
1000
NSB00341_S2
1002
}
  0
LINE
  5
D107
330
20
100
AcDbEntity
  8
11000_Left
  6
DASHED
 62
     7
370
    20
100
AcDbLine
 39
0.25
 10
60.5441851472907
 20
493.5953837266378
 30
-1.0
 11
60.5441851472907
 21
484.0953837266378
 31
-1.0
1001
AUSTER_ANSICHT
1002
{
1000
Det03
1002
}
1001
AUSTER_FOLIE
1002
{
1000
NSB00341_S2
1002
}
  0
LINE
  5
D108
330
20
100
AcDbEntity
  8
11000_Left
  6
DASHED
 62
     7
370
    20
100
AcDbLine
 39
0.25
 10
63.5441851472907
 20
469.4453837266378
 30
-1.0
 11
63.84418514729077
 21
469.4453837266378
 31
-1.0
1001
AUSTER_ANSICHT
1002
{
1000
Det03
1002
}
1001
AUSTER_FOLIE
1002
{
1000
NSB00341_S2
1002
}
  0
LINE
  5
D109
330
20
100
AcDbEntity
  8
11000_Left
  6
DASHED
 62
     7
370
    20
100
AcDbLine
 39
0.25
 10
65.5441851472907
 20
471.5953837266378
 30
-1.0
 11
63.5441851472907
 21
473.5953837266378
 31
-1.0
1001
AUSTER_ANSICHT
1002
{
1000
Det03
1002
}
1001
AUSTER_FOLIE
1002
{
1000
NSB00341_S2
1002
}
  0
LINE
  5
D10A
330
20
100
AcDbEntity
  8
11000_Left
  6
DASHED
 62
     7
370
    20
100
AcDbLine
 39
0.25
 10
65.5441851472907
 20
496.2953837266377
 30
0.0
 11
63.5441851472907
 21
494.2953837266379
 31
0.0
1001
AUSTER_ANSICHT
1002
{
1000
Det03
1002
}
1001
AUSTER_FOLIE
1002
{
1000
NSB00341_S2
1002
}
  0
LINE
  5
D10B
330
20
100
AcDbEntity
  8
11000_Left
  6
DASHED
 62
     7
370
    20
100
AcDbLine
 39
0.25
 10
64.5441851472907
 20
499.2453837266379
 30
-1.0
 11
64.5441851472907
 21
501.7453837266379
 31
-1.0
1001
AUSTER_ANSICHT
1002
{
1000
Det03
1002
}
1001
AUSTER_FOLIE
1002
{
1000
NSB00341_S2
1002
}
  0
LINE
  5
D10C
330
20
100
AcDbEntity
  8
11000_Left
  6
DASHED
 62
     7
370
    20
100
AcDbLine
 39
0.25
 10
64.5441851472907
 20
501.7453837266379
 30
0.0
 11
65.5441851472907
 21
501.7453837266379
 31
0.0
1001
AUSTER_ANSICHT
1002
{
1000
Det03
1002
}
1001
AUSTER_FOLIE
1002
{
1000
NSB00341_S2
1002
}
  0
LINE
  5
D10D
330
20
100
AcDbEntity
  8
11000_Left
  6
DASHED
 62
     7
370
    20
100
AcDbLine
 39
0.25
 10
65.5441851472907
 20
501.7453837266379
 30
-1.0
 11
65.5441851472907
 21
496.5953837266378
 31
-1.0
1001
AUSTER_ANSICHT
1002
{
1000
Det03
1002
}
1001
AUSTER_FOLIE
1002
{
1000
NSB00341_S2
1002
}
  0
LINE
  5
D10E
330
20
100
AcDbEntity
  8
11000_Left
  6
DASHED
 62
     7
370
    20
100
AcDbLine
 39
0.25
 10
65.5441851472907
 20
466.4453837266377
 30
-1.0
 11
65.5441851472907
 21
471.5953837266378
 31
-1.0
1001
AUSTER_ANSICHT
1002
{
1000
Det03
1002
}
1001
AUSTER_FOLIE
1002
{
1000
NSB00341_S2
1002
}
  0
LINE
  5
D10F
330
20
100
AcDbEntity
  8
11000_Left
  6
DASHED
 62
     7
370
    20
100
AcDbLine
 39
0.25
 10
64.5441851472907
 20
466.4453837266377
 30
-1.0
 11
65.5441851472907
 21
466.4453837266377
 31
-1.0
1001
AUSTER_ANSICHT
1002
{
1000
Det03
1002
}
1001
AUSTER_FOLIE
1002
{
1000
NSB00341_S2
1002
}
  0
LINE
  5
D110
330
20
100
AcDbEntity
  8
11000_Left
  6
DASHED
 62
     7
370
    20
100
AcDbLine
 39
0.25
 10
64.5441851472907
 20
466.4453837266377
 30
-1.0
 11
64.5441851472907
 21
468.7453837266379
 31
-1.0
1001
AUSTER_ANSICHT
1002
{
1000
Det03
1002
}
1001
AUSTER_FOLIE
1002
{
1000
NSB00341_S2
1002
}
  0
ARC
  5
D111
330
20
100
AcDbEntity
  8
10000_FRONT
  6
DASHED
 62
     7
370
    20
100
AcDbCircle
 39
0.25
 10
-41.13472991885385
 20
525.2453837266378
 30
0.0
 40
1.5
100
AcDbArc
 50
89.99998999999899
 51
180.0
1001
AUSTER_ANSICHT
1002
{
1000
Det03
1002
}
1001
AUSTER_FOLIE
1002
{
1000
NSB00341_S2
1002
}
  0
ARC
  5
D112
330
20
100
AcDbEntity
  8
11000_Left
  6
DASHED
 62
     7
370
    20
100
AcDbCircle
 39
0.25
 10
146.7298851472907
 20
481.8953837266378
 30
0.0
 40
0.9
100
AcDbArc
 50
270.0
 51
0.0
1001
AUSTER_ANSICHT
1002
{
1000
Det03
1002
}
1001
AUSTER_FOLIE
1002
{
1000
NSB00341_S2
1002
}
  0
ARC
  5
D113
330
20
100
AcDbEntity
  8
10000_FRONT
  6
DASHED
 62
     7
370
    20
100
AcDbCircle
 39
0.25
 10
-42.13472991885384
 20
527.2143837266378
 30
0.0
 40
0.5
100
AcDbArc
 50
90.0
 51
180.0
1001
AUSTER_ANSICHT
1002
{
1000
Det03
1002
}
1001
AUSTER_FOLIE
1002
{
1000
NSB00341_S2
1002
}
  0
ARC
  5
D114
330
20
100
AcDbEntity
  8
10000_FRONT
  6
DASHED
 62
     7
370
    20
100
AcDbCircle
 39
0.25
 10
-26.6847299188538
 20
528.2453837266379
 30
0.0
 40
0.5
100
AcDbArc
 50
0.0
 51
90.0
1001
AUSTER_ANSICHT
1002
{
1000
Det03
1002
}
1001
AUSTER_FOLIE
1002
{
1000
NSB00341_S2
1002
}
  0
ARC
  5
D115
330
20
100
AcDbEntity
  8
10000_FRONT
  6
DASHED
 62
     7
370
    20
100
AcDbCircle
 39
0.25
 10
-21.0847299188539
 20
528.2453837266379
 30
0.0
 40
0.5
100
AcDbArc
 50
90.0
 51
180.0
1001
AUSTER_ANSICHT
1002
{
1000
Det03
1002
}
1001
AUSTER_FOLIE
1002
{
1000
NSB00341_S2
1002
}
  0
ARC
  5
D116
330
20
100
AcDbEntity
  8
10000_FRONT
  6
DASHED
 62
     7
370
    20
100
AcDbCircle
 39
0.25
 10
-9.084729918853897
 20
528.3453837266379
 30
0.0
 40
0.4
100
AcDbArc
 50
0.0
 51
90.0
1001
AUSTER_ANSICHT
1002
{
1000
Det03
1002
}
1001
AUSTER_FOLIE
1002
{
1000
NSB00341_S2
1002
}
  0
ARC
  5
D117
330
20
100
AcDbEntity
  8
10000_FRONT
  6
DASHED
 62
     7
370
    20
100
AcDbCircle
 39
0.25
 10
-3.684729918853804
 20
528.3453837266379
 30
0.0
 40
0.4
100
AcDbArc
 50
90.0
 51
180.0
1001
AUSTER_ANSICHT
1002
{
1000
Det03
1002
}
1001
AUSTER_FOLIE
1002
{
1000
NSB00341_S2
1002
}
  0
ARC
  5
D118
330
20
100
AcDbEntity
  8
11000_Left
  6
DASHED
 62
     7
370
    20
100
AcDbCircle
 39
0.25
 10
146.7298851472907
 20
486.5953837266379
 30
0.0
 40
0.9
100
AcDbArc
 50
0.0
 51
90.0
1001
AUSTER_ANSICHT
1002
{
1000
Det03
1002
}
1001
AUSTER_FOLIE
1002
{
1000
NSB00341_S2
1002
}
  0
ARC
  5
D119
330
20
100
AcDbEntity
  8
11000_Left
  6
Continuous
 62
     7
370
    50
100
AcDbCircle
 39
0.7
 10
93.91988514729076
 20
438.6452837266379
 30
0.0
 40
1.0
100
AcDbArc
 50
0.0000006696291991
 51
90.0
1001
AUSTER_ANSICHT
1002
{
1000
Det03
1002
}
1001
AUSTER_FOLIE
1002
{
1000
NSB00341_S2
1002
}
  0
ARC
  5
D11A
330
20
100
AcDbEntity
  8
11000_Left
  6
Continuous
 62
     7
370
    50
100
AcDbCircle
 39
0.7
 10
94.35058514729076
 20
438.1452837266379
 30
0.0
 40
4.0
100
AcDbArc
 50
15.00000000000116
 51
90.0
1001
AUSTER_ANSICHT
1002
{
1000
Det03
1002
}
1001
AUSTER_FOLIE
1002
{
1000
NSB00341_S2
1002
}
  0
ARC
  5
D11B
330
20
100
AcDbEntity
  8
11000_Left
  6
Continuous
 62
     7
370
    50
100
AcDbCircle
 39
0.7
 10
189.4989851472908
 20
414.0909837266378
 30
0.0
 40
0.295619
100
AcDbArc
 50
270.0
 51
357.4486999999968
1001
AUSTER_ANSICHT
1002
{
1000
Det03
1002
}
1001
AUSTER_FOLIE
1002
{
1000
NSB00341_S2
1002
}
  0
ARC
  5
D11C
330
20
100
AcDbEntity
  8
11000_Left
  6
Continuous
 62
     7
370
    50
100
AcDbCircle
 39
0.7
 10
189.7361851472907
 20
423.2952837266378
 30
0.0
 40
0.3
100
AcDbArc
 50
359.5448000000043
 51
90.0
1001
AUSTER_ANSICHT
1002
{
1000
Det03
1002
}
1001
AUSTER_FOLIE
1002
{
1000
NSB00341_S2
1002
}
  0
ARC
  5
D11D
330
20
100
AcDbEntity
  8
11000_Left
  6
Continuous
 62
     7
370
    50
100
AcDbCircle
 39
0.7
 10
-61.95581485270929
 20
425.2952837266378
 30
0.0
 40
252.0
100
AcDbArc
 50
357.4486999999968
 51
359.5446999999968
1001
AUSTER_ANSICHT
1002
{
1000
Det03
1002
}
1001
AUSTER_FOLIE
1002
{
1000
NSB00341_S2
1002
}
  0
ARC
  5
D11E
330
20
100
AcDbEntity
  8
11000_Left
  6
Continuous
 62
     7
370
    50
100
AcDbCircle
 39
0.7
 10
191.9129851472908
 20
407.0452837266378
 30
0.0
 40
0.3
100
AcDbArc
 50
270.0
 51
344.4523000000037
1001
AUSTER_ANSICHT
1002
{
1000
Det03
1002
}
1001
AUSTER_FOLIE
1002
{
1000
NSB00341_S2
1002
}
  0
ARC
  5
D11F
330
20
100
AcDbEntity
  8
11000_Left
  6
Continuous
 62
     7
370
    50
100
AcDbCircle
 39
0.7
 10
182.5678851472908
 20
409.6452837266379
 30
0.0
 40
10.0
100
AcDbArc
 50
344.4523000000037
 51
0.0
1001
AUSTER_ANSICHT
1002
{
1000
Det03
1002
}
1001
AUSTER_FOLIE
1002
{
1000
NSB00341_S2
1002
}
  0
ARC
  5
D120
330
20
100
AcDbEntity
  8
11000_Left
  6
Continuous
 62
     7
370
    50
100
AcDbCircle
 39
0.7
 10
191.9129851472908
 20
412.2452837266378
 30
0.0
 40
0.3
100
AcDbArc
 50
15.547740000001
 51
90.0
1001
AUSTER_ANSICHT
1002
{
1000
Det03
1002
}
1001
AUSTER_FOLIE
1002
{
1000
NSB00341_S2
1002
}
  0
ARC
  5
D121
330
20
100
AcDbEntity
  8
11000_Left
  6
Continuous
 62
     7
370
    50
100
AcDbCircle
 39
0.7
 10
182.5678851472908
 20
409.6452837266379
 30
0.0
 40
10.0
100
AcDbArc
 50
0.0
 51
15.547740000001
1001
AUSTER_ANSICHT
1002
{
1000
Det03
1002
}
1001
AUSTER_FOLIE
1002
{
1000
NSB00341_S2
1002
}
  0
ARC
  5
D122
330
20
100
AcDbEntity
  8
11000_Left
  6
Continuous
 62
     7
370
    50
100
AcDbCircle
 39
0.7
 10
132.2441851472907
 20
366.0452837266379
 30
0.0
 40
0.4
100
AcDbArc
 50
270.0
 51
0.0
1001
AUSTER_ANSICHT
1002
{
1000
Det03
1002
}
1001
AUSTER_FOLIE
1002
{
1000
NSB00341_S2
1002
}
  0
CIRCLE
  5
D123
330
20
100
AcDbEntity
  8
10000_FRONT
  6
DASHED
 62
     7
370
    20
100
AcDbCircle
 39
0.25
 10
-6.384729918853849
 20
506.7453837266379
 30
0.0
 40
3.1
1001
AUSTER_ANSICHT
1002
{
1000
Det03
1002
}
1001
AUSTER_FOLIE
1002
{
1000
NSB00341_S2
1002
}
  0
ARC
  5
D124
330
20
100
AcDbEntity
  8
10000_FRONT
  6
DASHED
 62
     7
370
    20
100
AcDbCircle
 39
0.25
 10
-6.384729918853849
 20
506.7453837266379
 30
0.0
 40
2.850490999999998
100
AcDbArc
 50
167.7603999999987
 51
192.2396000000013
1001
AUSTER_ANSICHT
1002
{
1000
Det03
1002
}
1001
AUSTER_FOLIE
1002
{
1000
NSB00341_S2
1002
}
  0
ARC
  5
D125
330
20
100
AcDbEntity
  8
10000_FRONT
  6
DASHED
 62
     7
370
    20
100
AcDbCircle
 39
0.25
 10
-6.384729918853849
 20
506.7453837266379
 30
0.0
 40
1.85
100
AcDbArc
 50
73.83654999999966
 51
106.1634000000007
1001
AUSTER_ANSICHT
1002
{
1000
Det03
1002
}
1001
AUSTER_FOLIE
1002
{
1000
NSB00341_S2
1002
}
  0
ARC
  5
D126
330
20
100
AcDbEntity
  8
10000_FRONT
  6
DASHED
 62
     7
370
    20
100
AcDbCircle
 39
0.25
 10
-6.384729918853849
 20
506.7453837266379
 30
0.0
 40
1.85
100
AcDbArc
 50
253.8365999999993
 51
286.1634000000007
1001
AUSTER_ANSICHT
1002
{
1000
Det03
1002
}
1001
AUSTER_FOLIE
1002
{
1000
NSB00341_S2
1002
}
  0
ARC
  5
D127
330
20
100
AcDbEntity
  8
10000_FRONT
  6
DASHED
 62
     7
370
    20
100
AcDbCircle
 39
0.25
 10
-6.384729918853849
 20
506.7453837266379
 30
0.0
 40
2.850490999999998
100
AcDbArc
 50
347.7603999999987
 51
12.23960000000126
1001
AUSTER_ANSICHT
1002
{
1000
Det03
1002
}
1001
AUSTER_FOLIE
1002
{
1000
NSB00341_S2
1002
}
  0
CIRCLE
  5
D128
330
20
100
AcDbEntity
  8
10000_FRONT
  6
DASHED
 62
     7
370
    20
100
AcDbCircle
 39
0.25
 10
-6.384729918853849
 20
506.7453837266379
 30
0.0
 40
3.1
1001
AUSTER_ANSICHT
1002
{
1000
Det03
1002
}
1001
AUSTER_FOLIE
1002
{
1000
NSB00341_S2
1002
}
  0
CIRCLE
  5
D129
330
20
100
AcDbEntity
  8
10000_FRONT
  6
DASHED
 62
     7
370
    20
100
AcDbCircle
 39
0.25
 10
7.36527008114615
 20
531.7453837266379
 30
0.0
 40
2.5
1001
AUSTER_ANSICHT
1002
{
1000
Det03
1002
}
1001
AUSTER_FOLIE
1002
{
1000
NSB00341_S2
1002
}
  0
CIRCLE
  5
D12A
330
20
100
AcDbEntity
  8
10000_FRONT
  6
DASHED
 62
     7
370
    20
100
AcDbCircle
 39
0.25
 10
-32.63472991885385
 20
516.1558837266378
 30
0.0
 40
4.9
1001
AUSTER_ANSICHT
1002
{
1000
Det03
1002
}
1001
AUSTER_FOLIE
1002
{
1000
NSB00341_S2
1002
}
  0
ARC
  5
D12B
330
20
100
AcDbEntity
  8
10000_FRONT
  6
DASHED
 62
     7
370
    20
100
AcDbCircle
 39
0.25
 10
-32.63472991885385
 20
516.1558837266378
 30
0.0
 40
4.5
100
AcDbArc
 50
170.9954999999984
 51
189.0045000000015
1001
AUSTER_ANSICHT
1002
{
1000
Det03
1002
}
1001
AUSTER_FOLIE
1002
{
1000
NSB00341_S2
1002
}
  0
ARC
  5
D12C
330
20
100
AcDbEntity
  8
10000_FRONT
  6
DASHED
 62
     7
370
    20
100
AcDbCircle
 39
0.25
 10
-32.63472991885385
 20
516.1558837266378
 30
0.0
 40
4.5
100
AcDbArc
 50
350.9954999999985
 51
9.004500000001526
1001
AUSTER_ANSICHT
1002
{
1000
Det03
1002
}
1001
AUSTER_FOLIE
1002
{
1000
NSB00341_S2
1002
}
  0
ARC
  5
D12D
330
20
100
AcDbEntity
  8
10000_FRONT
  6
DASHED
 62
     7
370
    20
100
AcDbCircle
 39
0.25
 10
-32.63472991885385
 20
516.1558837266378
 30
0.0
 40
2.5
100
AcDbArc
 50
76.11345999999982
 51
103.8865000000013
1001
AUSTER_ANSICHT
1002
{
1000
Det03
1002
}
1001
AUSTER_FOLIE
1002
{
1000
NSB00341_S2
1002
}
  0
ARC
  5
D12E
330
20
100
AcDbEntity
  8
10000_FRONT
  6
DASHED
 62
     7
370
    20
100
AcDbCircle
 39
0.25
 10
-32.63472991885385
 20
516.1558837266378
 30
0.0
 40
2.5
100
AcDbArc
 50
256.1134999999987
 51
283.8865000000013
1001
AUSTER_ANSICHT
1002
{
1000
Det03
1002
}
1001
AUSTER_FOLIE
1002
{
1000
NSB00341_S2
1002
}
  0
CIRCLE
  5
D12F
330
20
100
AcDbEntity
  8
10000_FRONT
  6
DASHED
 62
     7
370
    20
100
AcDbCircle
 39
0.25
 10
-15.15052991885386
 20
516.1581837266378
 30
0.0
 40
4.9
1001
AUSTER_ANSICHT
1002
{
1000
Det03
1002
}
1001
AUSTER_FOLIE
1002
{
1000
NSB00341_S2
1002
}
  0
ARC
  5
D130
330
20
100
AcDbEntity
  8
10000_FRONT
  6
DASHED
 62
     7
370
    20
100
AcDbCircle
 39
0.25
 10
-15.15052991885386
 20
516.1581837266378
 30
0.0
 40
4.5
100
AcDbArc
 50
170.9954999999984
 51
189.0045000000015
1001
AUSTER_ANSICHT
1002
{
1000
Det03
1002
}
1001
AUSTER_FOLIE
1002
{
1000
NSB00341_S2
1002
}
  0
ARC
  5
D131
330
20
100
AcDbEntity
  8
10000_FRONT
  6
DASHED
 62
     7
370
    20
100
AcDbCircle
 39
0.25
 10
-15.15052991885386
 20
516.1581837266378
 30
0.0
 40
4.5
100
AcDbArc
 50
350.9954999999985
 51
9.004500000001526
1001
AUSTER_ANSICHT
1002
{
1000
Det03
1002
}
1001
AUSTER_FOLIE
1002
{
1000
NSB00341_S2
1002
}
  0
ARC
  5
D132
330
20
100
AcDbEntity
  8
10000_FRONT
  6
DASHED
 62
     7
370
    20
100
AcDbCircle
 39
0.25
 10
-15.15052991885386
 20
516.1581837266378
 30
0.0
 40
2.5
100
AcDbArc
 50
76.11345999999982
 51
103.8865000000013
1001
AUSTER_ANSICHT
1002
{
1000
Det03
1002
}
1001
AUSTER_FOLIE
1002
{
1000
NSB00341_S2
1002
}
  0
ARC
  5
D133
330
20
100
AcDbEntity
  8
10000_FRONT
  6
DASHED
 62
     7
370
    20
100
AcDbCircle
 39
0.25
 10
-15.15052991885386
 20
516.1581837266378
 30
0.0
 40
2.5
100
AcDbArc
 50
256.1134999999987
 51
283.8865000000013
1001
AUSTER_ANSICHT
1002
{
1000
Det03
1002
}
1001
AUSTER_FOLIE
1002
{
1000
NSB00341_S2
1002
}
  0
CIRCLE
  5
D134
330
20
100
AcDbEntity
  8
10000_FRONT
  6
DASHED
 62
     7
370
    20
100
AcDbCircle
 39
0.25
 10
2.333770081146099
 20
516.1604837266378
 30
0.0
 40
4.9
1001
AUSTER_ANSICHT
1002
{
1000
Det03
1002
}
1001
AUSTER_FOLIE
1002
{
1000
NSB00341_S2
1002
}
  0
ARC
  5
D135
330
20
100
AcDbEntity
  8
10000_FRONT
  6
DASHED
 62
     7
370
    20
100
AcDbCircle
 39
0.25
 10
2.333770081146099
 20
516.1604837266378
 30
0.0
 40
4.5
100
AcDbArc
 50
170.9954999999984
 51
189.0045000000015
1001
AUSTER_ANSICHT
1002
{
1000
Det03
1002
}
1001
AUSTER_FOLIE
1002
{
1000
NSB00341_S2
1002
}
  0
ARC
  5
D136
330
20
100
AcDbEntity
  8
10000_FRONT
  6
DASHED
 62
     7
370
    20
100
AcDbCircle
 39
0.25
 10
2.333770081146099
 20
516.1604837266378
 30
0.0
 40
4.5
100
AcDbArc
 50
350.9954999999985
 51
9.004500000001526
1001
AUSTER_ANSICHT
1002
{
1000
Det03
1002
}
1001
AUSTER_FOLIE
1002
{
1000
NSB00341_S2
1002
}
  0
ARC
  5
D137
330
20
100
AcDbEntity
  8
10000_FRONT
  6
DASHED
 62
     7
370
    20
100
AcDbCircle
 39
0.25
 10
2.333770081146099
 20
516.1604837266378
 30
0.0
 40
2.5
100
AcDbArc
 50
76.11345999999982
 51
103.8865000000013
1001
AUSTER_ANSICHT
1002
{
1000
Det03
1002
}
1001
AUSTER_FOLIE
1002
{
1000
NSB00341_S2
1002
}
  0
ARC
  5
D138
330
20
100
AcDbEntity
  8
10000_FRONT
  6
DASHED
 62
     7
370
    20
100
AcDbCircle
 39
0.25
 10
2.333770081146099
 20
516.1604837266378
 30
0.0
 40
2.5
100
AcDbArc
 50
256.1134999999987
 51
283.8865000000013
1001
AUSTER_ANSICHT
1002
{
1000
Det03
1002
}
1001
AUSTER_FOLIE
1002
{
1000
NSB00341_S2
1002
}
  0
CIRCLE
  5
D139
330
20
100
AcDbEntity
  8
10000_FRONT
  6
DASHED
 62
     7
370
    20
100
AcDbCircle
 39
0.25
 10
-32.63472991885385
 20
452.3619837266378
 30
0.0
 40
4.9
1001
AUSTER_ANSICHT
1002
{
1000
Det03
1002
}
1001
AUSTER_FOLIE
1002
{
1000
NSB00341_S2
1002
}
  0
ARC
  5
D13A
330
20
100
AcDbEntity
  8
10000_FRONT
  6
DASHED
 62
     7
370
    20
100
AcDbCircle
 39
0.25
 10
-32.63472991885385
 20
452.3619837266378
 30
0.0
 40
4.5
100
AcDbArc
 50
170.9954999999984
 51
189.0045000000015
1001
AUSTER_ANSICHT
1002
{
1000
Det03
1002
}
1001
AUSTER_FOLIE
1002
{
1000
NSB00341_S2
1002
}
  0
ARC
  5
D13B
330
20
100
AcDbEntity
  8
10000_FRONT
  6
DASHED
 62
     7
370
    20
100
AcDbCircle
 39
0.25
 10
-32.63472991885385
 20
452.3619837266378
 30
0.0
 40
4.5
100
AcDbArc
 50
350.9954999999985
 51
9.004500000001526
1001
AUSTER_ANSICHT
1002
{
1000
Det03
1002
}
1001
AUSTER_FOLIE
1002
{
1000
NSB00341_S2
1002
}
  0
ARC
  5
D13C
330
20
100
AcDbEntity
  8
10000_FRONT
  6
DASHED
 62
     7
370
    20
100
AcDbCircle
 39
0.25
 10
-32.63472991885385
 20
452.3619837266378
 30
0.0
 40
2.5
100
AcDbArc
 50
256.1134999999987
 51
283.8865000000013
1001
AUSTER_ANSICHT
1002
{
1000
Det03
1002
}
1001
AUSTER_FOLIE
1002
{
1000
NSB00341_S2
1002
}
  0
ARC
  5
D13D
330
20
100
AcDbEntity
  8
10000_FRONT
  6
DASHED
 62
     7
370
    20
100
AcDbCircle
 39
0.25
 10
-32.63472991885385
 20
452.3619837266378
 30
0.0
 40
2.5
100
AcDbArc
 50
76.11345999999982
 51
103.8865000000013
1001
AUSTER_ANSICHT
1002
{
1000
Det03
1002
}
1001
AUSTER_FOLIE
1002
{
1000
NSB00341_S2
1002
}
  0
CIRCLE
  5
D13E
330
20
100
AcDbEntity
  8
10000_FRONT
  6
DASHED
 62
     7
370
    20
100
AcDbCircle
 39
0.25
 10
-15.15052991885386
 20
452.3597837266378
 30
0.0
 40
4.9
1001
AUSTER_ANSICHT
1002
{
1000
Det03
1002
}
1001
AUSTER_FOLIE
1002
{
1000
NSB00341_S2
1002
}
  0
ARC
  5
D13F
330
20
100
AcDbEntity
  8
10000_FRONT
  6
DASHED
 62
     7
370
    20
100
AcDbCircle
 39
0.25
 10
-15.15052991885386
 20
452.3597837266378
 30
0.0
 40
4.5
100
AcDbArc
 50
170.9954999999984
 51
189.0045000000015
1001
AUSTER_ANSICHT
1002
{
1000
Det03
1002
}
1001
AUSTER_FOLIE
1002
{
1000
NSB00341_S2
1002
}
  0
ARC
  5
D140
330
20
100
AcDbEntity
  8
10000_FRONT
  6
DASHED
 62
     7
370
    20
100
AcDbCircle
 39
0.25
 10
-15.15052991885386
 20
452.3597837266378
 30
0.0
 40
4.5
100
AcDbArc
 50
350.9954999999985
 51
9.004500000001526
1001
AUSTER_ANSICHT
1002
{
1000
Det03
1002
}
1001
AUSTER_FOLIE
1002
{
1000
NSB00341_S2
1002
}
  0
ARC
  5
D141
330
20
100
AcDbEntity
  8
10000_FRONT
  6
DASHED
 62
     7
370
    20
100
AcDbCircle
 39
0.25
 10
-15.15052991885386
 20
452.3597837266378
 30
0.0
 40
2.5
100
AcDbArc
 50
256.1134999999987
 51
283.8865000000013
1001
AUSTER_ANSICHT
1002
{
1000
Det03
1002
}
1001
AUSTER_FOLIE
1002
{
1000
NSB00341_S2
1002
}
  0
ARC
  5
D142
330
20
100
AcDbEntity
  8
10000_FRONT
  6
DASHED
 62
     7
370
    20
100
AcDbCircle
 39
0.25
 10
-15.15052991885386
 20
452.3597837266378
 30
0.0
 40
2.5
100
AcDbArc
 50
76.11345999999982
 51
103.8865000000013
1001
AUSTER_ANSICHT
1002
{
1000
Det03
1002
}
1001
AUSTER_FOLIE
1002
{
1000
NSB00341_S2
1002
}
  0
CIRCLE
  5
D143
330
20
100
AcDbEntity
  8
10000_FRONT
  6
DASHED
 62
     7
370
    20
100
AcDbCircle
 39
0.25
 10
2.333770081146099
 20
452.3574837266377
 30
0.0
 40
4.9
1001
AUSTER_ANSICHT
1002
{
1000
Det03
1002
}
1001
AUSTER_FOLIE
1002
{
1000
NSB00341_S2
1002
}
  0
ARC
  5
D144
330
20
100
AcDbEntity
  8
10000_FRONT
  6
DASHED
 62
     7
370
    20
100
AcDbCircle
 39
0.25
 10
2.333770081146099
 20
452.3574837266377
 30
0.0
 40
4.5
100
AcDbArc
 50
170.9954999999984
 51
189.0045000000015
1001
AUSTER_ANSICHT
1002
{
1000
Det03
1002
}
1001
AUSTER_FOLIE
1002
{
1000
NSB00341_S2
1002
}
  0
ARC
  5
D145
330
20
100
AcDbEntity
  8
10000_FRONT
  6
DASHED
 62
     7
370
    20
100
AcDbCircle
 39
0.25
 10
2.333770081146099
 20
452.3574837266377
 30
0.0
 40
4.5
100
AcDbArc
 50
350.9954999999985
 51
9.004500000001526
1001
AUSTER_ANSICHT
1002
{
1000
Det03
1002
}
1001
AUSTER_FOLIE
1002
{
1000
NSB00341_S2
1002
}
  0
ARC
  5
D146
330
20
100
AcDbEntity
  8
10000_FRONT
  6
DASHED
 62
     7
370
    20
100
AcDbCircle
 39
0.25
 10
2.333770081146099
 20
452.3574837266377
 30
0.0
 40
2.5
100
AcDbArc
 50
256.1134999999987
 51
283.8865000000013
1001
AUSTER_ANSICHT
1002
{
1000
Det03
1002
}
1001
AUSTER_FOLIE
1002
{
1000
NSB00341_S2
1002
}
  0
ARC
  5
D147
330
20
100
AcDbEntity
  8
10000_FRONT
  6
DASHED
 62
     7
370
    20
100
AcDbCircle
 39
0.25
 10
2.333770081146099
 20
452.3574837266377
 30
0.0
 40
2.5
100
AcDbArc
 50
76.11345999999982
 51
103.8865000000013
1001
AUSTER_ANSICHT
1002
{
1000
Det03
1002
}
1001
AUSTER_FOLIE
1002
{
1000
NSB00341_S2
1002
}
  0
CIRCLE
  5
D148
330
20
100
AcDbEntity
  8
10000_FRONT
  6
DASHED
 62
     7
370
    20
100
AcDbCircle
 39
0.25
 10
-6.380429918853793
 20
530.8953837266377
 30
0.0
 40
3.1
1001
AUSTER_ANSICHT
1002
{
1000
Det03
1002
}
1001
AUSTER_FOLIE
1002
{
1000
NSB00341_S2
1002
}
  0
ARC
  5
D149
330
20
100
AcDbEntity
  8
10000_FRONT
  6
DASHED
 62
     7
370
    20
100
AcDbCircle
 39
0.25
 10
-6.380429918853793
 20
530.8953837266377
 30
0.0
 40
2.850490999999998
100
AcDbArc
 50
167.7603999999987
 51
192.2396000000013
1001
AUSTER_ANSICHT
1002
{
1000
Det03
1002
}
1001
AUSTER_FOLIE
1002
{
1000
NSB00341_S2
1002
}
  0
ARC
  5
D14A
330
20
100
AcDbEntity
  8
10000_FRONT
  6
DASHED
 62
     7
370
    20
100
AcDbCircle
 39
0.25
 10
-6.380429918853793
 20
530.8953837266377
 30
0.0
 40
1.85
100
AcDbArc
 50
73.83654999999966
 51
106.1634000000007
1001
AUSTER_ANSICHT
1002
{
1000
Det03
1002
}
1001
AUSTER_FOLIE
1002
{
1000
NSB00341_S2
1002
}
  0
ARC
  5
D14B
330
20
100
AcDbEntity
  8
10000_FRONT
  6
DASHED
 62
     7
370
    20
100
AcDbCircle
 39
0.25
 10
-6.380429918853793
 20
530.8953837266377
 30
0.0
 40
1.85
100
AcDbArc
 50
253.8365999999993
 51
286.1634000000007
1001
AUSTER_ANSICHT
1002
{
1000
Det03
1002
}
1001
AUSTER_FOLIE
1002
{
1000
NSB00341_S2
1002
}
  0
ARC
  5
D14C
330
20
100
AcDbEntity
  8
10000_FRONT
  6
DASHED
 62
     7
370
    20
100
AcDbCircle
 39
0.25
 10
-6.380429918853793
 20
530.8953837266377
 30
0.0
 40
2.850490999999998
100
AcDbArc
 50
347.7603999999987
 51
12.23960000000126
1001
AUSTER_ANSICHT
1002
{
1000
Det03
1002
}
1001
AUSTER_FOLIE
1002
{
1000
NSB00341_S2
1002
}
  0
CIRCLE
  5
D14D
330
20
100
AcDbEntity
  8
10000_FRONT
  6
DASHED
 62
     7
370
    20
100
AcDbCircle
 39
0.25
 10
-6.380429918853793
 20
530.8953837266377
 30
0.0
 40
3.1
1001
AUSTER_ANSICHT
1002
{
1000
Det03
1002
}
1001
AUSTER_FOLIE
1002
{
1000
NSB00341_S2
1002
}
  0
CIRCLE
  5
D14E
330
20
100
AcDbEntity
  8
10000_FRONT
  6
DASHED
 62
     7
370
    20
100
AcDbCircle
 39
0.25
 10
-23.88042991885379
 20
530.8953837266377
 30
0.0
 40
3.1
1001
AUSTER_ANSICHT
1002
{
1000
Det03
1002
}
1001
AUSTER_FOLIE
1002
{
1000
NSB00341_S2
1002
}
  0
ARC
  5
D14F
330
20
100
AcDbEntity
  8
10000_FRONT
  6
DASHED
 62
     7
370
    20
100
AcDbCircle
 39
0.25
 10
-23.88042991885379
 20
530.8953837266377
 30
0.0
 40
2.850490999999998
100
AcDbArc
 50
167.7603999999987
 51
192.2396000000013
1001
AUSTER_ANSICHT
1002
{
1000
Det03
1002
}
1001
AUSTER_FOLIE
1002
{
1000
NSB00341_S2
1002
}
  0
ARC
  5
D150
330
20
100
AcDbEntity
  8
10000_FRONT
  6
DASHED
 62
     7
370
    20
100
AcDbCircle
 39
0.25
 10
-23.88042991885379
 20
530.8953837266377
 30
0.0
 40
1.85
100
AcDbArc
 50
73.83654999999966
 51
106.1634000000007
1001
AUSTER_ANSICHT
1002
{
1000
Det03
1002
}
1001
AUSTER_FOLIE
1002
{
1000
NSB00341_S2
1002
}
  0
ARC
  5
D151
330
20
100
AcDbEntity
  8
10000_FRONT
  6
DASHED
 62
     7
370
    20
100
AcDbCircle
 39
0.25
 10
-23.88042991885379
 20
530.8953837266377
 30
0.0
 40
1.85
100
AcDbArc
 50
253.8365999999993
 51
286.1634000000007
1001
AUSTER_ANSICHT
1002
{
1000
Det03
1002
}
1001
AUSTER_FOLIE
1002
{
1000
NSB00341_S2
1002
}
  0
ARC
  5
D152
330
20
100
AcDbEntity
  8
10000_FRONT
  6
DASHED
 62
     7
370
    20
100
AcDbCircle
 39
0.25
 10
-23.88042991885379
 20
530.8953837266377
 30
0.0
 40
2.850490999999998
100
AcDbArc
 50
347.7603999999987
 51
12.23960000000126
1001
AUSTER_ANSICHT
1002
{
1000
Det03
1002
}
1001
AUSTER_FOLIE
1002
{
1000
NSB00341_S2
1002
}
  0
CIRCLE
  5
D153
330
20
100
AcDbEntity
  8
10000_FRONT
  6
DASHED
 62
     7
370
    20
100
AcDbCircle
 39
0.25
 10
-23.88042991885379
 20
530.8953837266377
 30
0.0
 40
3.1
1001
AUSTER_ANSICHT
1002
{
1000
Det03
1002
}
1001
AUSTER_FOLIE
1002
{
1000
NSB00341_S2
1002
}
  0
CIRCLE
  5
D154
330
20
100
AcDbEntity
  8
10000_FRONT
  6
DASHED
 62
     7
370
    20
100
AcDbCircle
 39
0.25
 10
-38.88472991885385
 20
532.2453837266379
 30
0.0
 40
3.1
1001
AUSTER_ANSICHT
1002
{
1000
Det03
1002
}
1001
AUSTER_FOLIE
1002
{
1000
NSB00341_S2
1002
}
  0
ARC
  5
D155
330
20
100
AcDbEntity
  8
10000_FRONT
  6
DASHED
 62
     7
370
    20
100
AcDbCircle
 39
0.25
 10
-38.88472991885385
 20
532.2453837266379
 30
0.0
 40
2.850490999999998
100
AcDbArc
 50
167.7603999999987
 51
192.2396000000013
1001
AUSTER_ANSICHT
1002
{
1000
Det03
1002
}
1001
AUSTER_FOLIE
1002
{
1000
NSB00341_S2
1002
}
  0
ARC
  5
D156
330
20
100
AcDbEntity
  8
10000_FRONT
  6
DASHED
 62
     7
370
    20
100
AcDbCircle
 39
0.25
 10
-38.88472991885385
 20
532.2453837266379
 30
0.0
 40
1.85
100
AcDbArc
 50
73.83654999999966
 51
106.1634000000007
1001
AUSTER_ANSICHT
1002
{
1000
Det03
1002
}
1001
AUSTER_FOLIE
1002
{
1000
NSB00341_S2
1002
}
  0
ARC
  5
D157
330
20
100
AcDbEntity
  8
10000_FRONT
  6
DASHED
 62
     7
370
    20
100
AcDbCircle
 39
0.25
 10
-38.88472991885385
 20
532.2453837266379
 30
0.0
 40
1.85
100
AcDbArc
 50
253.8365999999993
 51
286.1634000000007
1001
AUSTER_ANSICHT
1002
{
1000
Det03
1002
}
1001
AUSTER_FOLIE
1002
{
1000
NSB00341_S2
1002
}
  0
ARC
  5
D158
330
20
100
AcDbEntity
  8
10000_FRONT
  6
DASHED
 62
     7
370
    20
100
AcDbCircle
 39
0.25
 10
-38.88472991885385
 20
532.2453837266379
 30
0.0
 40
2.850490999999998
100
AcDbArc
 50
347.7603999999987
 51
12.23960000000126
1001
AUSTER_ANSICHT
1002
{
1000
Det03
1002
}
1001
AUSTER_FOLIE
1002
{
1000
NSB00341_S2
1002
}
  0
CIRCLE
  5
D159
330
20
100
AcDbEntity
  8
10000_FRONT
  6
DASHED
 62
     7
370
    20
100
AcDbCircle
 39
0.25
 10
-38.88472991885385
 20
532.2453837266379
 30
0.0
 40
3.1
1001
AUSTER_ANSICHT
1002
{
1000
Det03
1002
}
1001
AUSTER_FOLIE
1002
{
1000
NSB00341_S2
1002
}
  0
ARC
  5
D15A
330
20
100
AcDbEntity
  8
10000_FRONT
  6
DASHED
 62
     7
370
    20
100
AcDbCircle
 39
0.25
 10
10.86527008114615
 20
535.2453837266379
 30
0.0
 40
1.5
100
AcDbArc
 50
0.0
 51
90.0
1001
AUSTER_ANSICHT
1002
{
1000
Det03
1002
}
1001
AUSTER_FOLIE
1002
{
1000
NSB00341_S2
1002
}
  0
ARC
  5
D15B
330
20
100
AcDbEntity
  8
10000_FRONT
  6
DASHED
 62
     7
370
    20
100
AcDbCircle
 39
0.25
 10
-38.88472991885385
 20
532.2453837266379
 30
0.0
 40
4.530994999999998
100
AcDbArc
 50
310.0810000000009
 51
0.0
1001
AUSTER_ANSICHT
1002
{
1000
Det03
1002
}
1001
AUSTER_FOLIE
1002
{
1000
NSB00341_S2
1002
}
  0
ARC
  5
D15C
330
20
100
AcDbEntity
  8
10000_FRONT
  6
DASHED
 62
     7
370
    20
100
AcDbCircle
 39
0.25
 10
-33.95372991885381
 20
536.3453837266379
 30
0.0
 40
0.4
100
AcDbArc
 50
90.0
 51
180.0
1001
AUSTER_ANSICHT
1002
{
1000
Det03
1002
}
1001
AUSTER_FOLIE
1002
{
1000
NSB00341_S2
1002
}
  0
ARC
  5
D15D
330
20
100
AcDbEntity
  8
10000_FRONT
  6
DASHED
 62
     7
370
    20
100
AcDbCircle
 39
0.25
 10
-41.13472991885385
 20
535.2453837266379
 30
0.0
 40
1.5
100
AcDbArc
 50
90.0
 51
180.0
1001
AUSTER_ANSICHT
1002
{
1000
Det03
1002
}
1001
AUSTER_FOLIE
1002
{
1000
NSB00341_S2
1002
}
  0
ARC
  5
D15E
330
20
100
AcDbEntity
  8
10000_FRONT
  6
DASHED
 62
     7
370
    20
100
AcDbCircle
 39
0.25
 10
2.465270081146171
 20
536.3453837266379
 30
0.0
 40
0.4
100
AcDbArc
 50
0.0
 51
90.0
1001
AUSTER_ANSICHT
1002
{
1000
Det03
1002
}
1001
AUSTER_FOLIE
1002
{
1000
NSB00341_S2
1002
}
  0
ARC
  5
D15F
330
20
100
AcDbEntity
  8
10000_FRONT
  6
DASHED
 62
     7
370
    20
100
AcDbCircle
 39
0.25
 10
10.21527008114617
 20
528.3453837266379
 30
0.0
 40
0.4
100
AcDbArc
 50
0.0
 51
90.0
1001
AUSTER_ANSICHT
1002
{
1000
Det03
1002
}
1001
AUSTER_FOLIE
1002
{
1000
NSB00341_S2
1002
}
  0
ARC
  5
D160
330
20
100
AcDbEntity
  8
10000_FRONT
  6
DASHED
 62
     7
370
    20
100
AcDbCircle
 39
0.25
 10
-40.48472991885387
 20
528.3453837266379
 30
0.0
 40
0.4
100
AcDbArc
 50
90.0
 51
180.0
1001
AUSTER_ANSICHT
1002
{
1000
Det03
1002
}
1001
AUSTER_FOLIE
1002
{
1000
NSB00341_S2
1002
}
  0
ARC
  5
D161
330
20
100
AcDbEntity
  8
11000_Left
  6
DASHED
 62
     7
370
    20
100
AcDbCircle
 39
0.25
 10
-109.7301148527093
 20
484.2453837266377
 30
0.0
 40
300.0
100
AcDbArc
 50
352.1238000000037
 51
7.876099999996474
1001
AUSTER_ANSICHT
1002
{
1000
Det03
1002
}
1001
AUSTER_FOLIE
1002
{
1000
NSB00341_S2
1002
}
  0
ARC
  5
D162
330
20
100
AcDbEntity
  8
11000_Left
  6
DASHED
 62
     7
370
    20
100
AcDbCircle
 39
0.25
 10
129.1441851472907
 20
536.3453837266379
 30
0.0
 40
0.4
100
AcDbArc
 50
0.0
 51
90.0
1001
AUSTER_ANSICHT
1002
{
1000
Det03
1002
}
1001
AUSTER_FOLIE
1002
{
1000
NSB00341_S2
1002
}
  0
ARC
  5
D163
330
20
100
AcDbEntity
  8
11000_Left
  6
DASHED
 62
     7
370
    20
100
AcDbCircle
 39
0.25
 10
147.5441851472907
 20
459.3453837266379
 30
0.0
 40
0.8
100
AcDbArc
 50
180.0
 51
270.0
1001
AUSTER_ANSICHT
1002
{
1000
Det03
1002
}
1001
AUSTER_FOLIE
1002
{
1000
NSB00341_S2
1002
}
  0
ARC
  5
D164
330
20
100
AcDbEntity
  8
11000_Left
  6
DASHED
 62
     7
370
    20
100
AcDbCircle
 39
0.25
 10
147.5441851472907
 20
509.1453837266378
 30
0.0
 40
0.8
100
AcDbArc
 50
90.0
 51
180.0
1001
AUSTER_ANSICHT
1002
{
1000
Det03
1002
}
1001
AUSTER_FOLIE
1002
{
1000
NSB00341_S2
1002
}
  0
ARC
  5
D165
330
20
100
AcDbEntity
  8
11000_Left
  6
DASHED
 62
     7
370
    20
100
AcDbCircle
 39
0.25
 10
129.7441851472907
 20
432.1453837266377
 30
0.0
 40
0.4
100
AcDbArc
 50
270.0
 51
0.0
1001
AUSTER_ANSICHT
1002
{
1000
Det03
1002
}
1001
AUSTER_FOLIE
1002
{
1000
NSB00341_S2
1002
}
  0
ARC
  5
D166
330
20
100
AcDbEntity
  8
11000_Left
  6
DASHED
 62
     7
370
    20
100
AcDbCircle
 39
0.25
 10
186.5496851472907
 20
442.5453837266378
 30
0.0
 40
0.8
100
AcDbArc
 50
270.0
 51
351.9885000000014
1001
AUSTER_ANSICHT
1002
{
1000
Det03
1002
}
1001
AUSTER_FOLIE
1002
{
1000
NSB00341_S2
1002
}
  0
ARC
  5
D167
330
20
100
AcDbEntity
  8
11000_Left
  6
DASHED
 62
     7
370
    20
100
AcDbCircle
 39
0.25
 10
186.5496851472907
 20
525.9453837266378
 30
0.0
 40
0.8
100
AcDbArc
 50
8.011488000000534
 51
90.0
1001
AUSTER_ANSICHT
1002
{
1000
Det03
1002
}
1001
AUSTER_FOLIE
1002
{
1000
NSB00341_S2
1002
}
  0
ARC
  5
D168
330
20
100
AcDbEntity
  8
11000_Left
  6
DASHED
 62
     7
370
    20
100
AcDbCircle
 39
0.25
 10
156.4441851472908
 20
528.3453837266379
 30
0.0
 40
0.4
100
AcDbArc
 50
0.0
 51
90.0
1001
AUSTER_ANSICHT
1002
{
1000
Det03
1002
}
1001
AUSTER_FOLIE
1002
{
1000
NSB00341_S2
1002
}
  0
ARC
  5
D169
330
20
100
AcDbEntity
  8
11000_Left
  6
DASHED
 62
     7
370
    20
100
AcDbCircle
 39
0.25
 10
156.4441851472908
 20
440.1453837266378
 30
0.0
 40
0.4
100
AcDbArc
 50
270.0
 51
0.0
1001
AUSTER_ANSICHT
1002
{
1000
Det03
1002
}
1001
AUSTER_FOLIE
1002
{
1000
NSB00341_S2
1002
}
  0
ARC
  5
D16A
330
20
100
AcDbEntity
  8
11000_Left
  6
DASHED
 62
     7
370
    20
100
AcDbCircle
 39
0.25
 10
63.34418514729077
 20
468.3453837266378
 30
0.0
 40
0.4
100
AcDbArc
 50
90.0
 51
139.9999999999977
1001
AUSTER_ANSICHT
1002
{
1000
Det03
1002
}
1001
AUSTER_FOLIE
1002
{
1000
NSB00341_S2
1002
}
  0
ARC
  5
D16B
330
20
100
AcDbEntity
  8
11000_Left
  6
DASHED
 62
     7
370
    20
100
AcDbCircle
 39
0.25
 10
64.96138514729068
 20
467.6012837266378
 30
0.0
 40
1.0
100
AcDbArc
 50
189.9999999999985
 51
224.1791000000025
1001
AUSTER_ANSICHT
1002
{
1000
Det03
1002
}
1001
AUSTER_FOLIE
1002
{
1000
NSB00341_S2
1002
}
  0
ARC
  5
D16C
330
20
100
AcDbEntity
  8
11000_Left
  6
DASHED
 62
     7
370
    20
100
AcDbCircle
 39
0.25
 10
61.8720851472907
 20
536.3453837266379
 30
0.0
 40
0.4
100
AcDbArc
 50
90.0
 51
168.690099999999
1001
AUSTER_ANSICHT
1002
{
1000
Det03
1002
}
1001
AUSTER_FOLIE
1002
{
1000
NSB00341_S2
1002
}
  0
ARC
  5
D16D
330
20
100
AcDbEntity
  8
11000_Left
  6
DASHED
 62
     7
370
    20
100
AcDbCircle
 39
0.25
 10
60.94418514729079
 20
432.1453837266377
 30
0.0
 40
0.4
100
AcDbArc
 50
180.0
 51
270.0
1001
AUSTER_ANSICHT
1002
{
1000
Det03
1002
}
1001
AUSTER_FOLIE
1002
{
1000
NSB00341_S2
1002
}
  0
ARC
  5
D16E
330
20
100
AcDbEntity
  8
11000_Left
  6
DASHED
 62
     7
370
    20
100
AcDbCircle
 39
0.25
 10
78.34418514729076
 20
468.3453837266378
 30
0.0
 40
0.4
100
AcDbArc
 50
90.0
 51
139.9999999999977
1001
AUSTER_ANSICHT
1002
{
1000
Det03
1002
}
1001
AUSTER_FOLIE
1002
{
1000
NSB00341_S2
1002
}
  0
ARC
  5
D16F
330
20
100
AcDbEntity
  8
11000_Left
  6
DASHED
 62
     7
370
    20
100
AcDbCircle
 39
0.25
 10
79.96138514729068
 20
467.6012837266378
 30
0.0
 40
1.0
100
AcDbArc
 50
189.9999999999985
 51
224.1791000000025
1001
AUSTER_ANSICHT
1002
{
1000
Det03
1002
}
1001
AUSTER_FOLIE
1002
{
1000
NSB00341_S2
1002
}
  0
ARC
  5
D170
330
20
100
AcDbEntity
  8
11000_Left
  6
DASHED
 62
     7
370
    20
100
AcDbCircle
 39
0.25
 10
83.9441851472908
 20
450.8453837266379
 30
0.0
 40
0.4
100
AcDbArc
 50
90.0
 51
180.0
1001
AUSTER_ANSICHT
1002
{
1000
Det03
1002
}
1001
AUSTER_FOLIE
1002
{
1000
NSB00341_S2
1002
}
  0
ARC
  5
D171
330
20
100
AcDbEntity
  8
11000_Left
  6
DASHED
 62
     7
370
    20
100
AcDbCircle
 39
0.25
 10
76.8720851472907
 20
536.3453837266379
 30
0.0
 40
0.4
100
AcDbArc
 50
90.0
 51
168.690099999999
1001
AUSTER_ANSICHT
1002
{
1000
Det03
1002
}
1001
AUSTER_FOLIE
1002
{
1000
NSB00341_S2
1002
}
  0
ARC
  5
D172
330
20
100
AcDbEntity
  8
11000_Left
  6
DASHED
 62
     7
370
    20
100
AcDbCircle
 39
0.25
 10
75.94418514729079
 20
432.1453837266377
 30
0.0
 40
0.4
100
AcDbArc
 50
180.0
 51
270.0
1001
AUSTER_ANSICHT
1002
{
1000
Det03
1002
}
1001
AUSTER_FOLIE
1002
{
1000
NSB00341_S2
1002
}
  0
ARC
  5
D173
330
20
100
AcDbEntity
  8
10000_FRONT
  6
Continuous
 62
     7
370
    50
100
AcDbCircle
 39
0.7
 10
-26.58472991885389
 20
366.0456837266379
 30
0.0
 40
0.4
100
AcDbArc
 50
270.0
 51
0.0
1001
AUSTER_ANSICHT
1002
{
1000
Det03
1002
}
1001
AUSTER_FOLIE
1002
{
1000
NSB00341_S2
1002
}
  0
ARC
  5
D174
330
20
100
AcDbEntity
  8
10000_FRONT
  6
Continuous
 62
     7
370
    50
100
AcDbCircle
 39
0.7
 10
-40.48472991885387
 20
366.0456837266379
 30
0.0
 40
0.4
100
AcDbArc
 50
180.0
 51
270.0
1001
AUSTER_ANSICHT
1002
{
1000
Det03
1002
}
1001
AUSTER_FOLIE
1002
{
1000
NSB00341_S2
1002
}
  0
ARC
  5
D175
330
20
100
AcDbEntity
  8
10000_FRONT
  6
Continuous
 62
     7
370
    50
100
AcDbCircle
 39
0.7
 10
-9.034729918853827
 20
366.0456837266379
 30
0.0
 40
0.4
100
AcDbArc
 50
270.0
 51
0.0
1001
AUSTER_ANSICHT
1002
{
1000
Det03
1002
}
1001
AUSTER_FOLIE
1002
{
1000
NSB00341_S2
1002
}
  0
ARC
  5
D176
330
20
100
AcDbEntity
  8
10000_FRONT
  6
Continuous
 62
     7
370
    50
100
AcDbCircle
 39
0.7
 10
-21.23472991885387
 20
366.0456837266379
 30
0.0
 40
0.4
100
AcDbArc
 50
180.0
 51
270.0
1001
AUSTER_ANSICHT
1002
{
1000
Det03
1002
}
1001
AUSTER_FOLIE
1002
{
1000
NSB00341_S2
1002
}
  0
ARC
  5
D177
330
20
100
AcDbEntity
  8
10000_FRONT
  6
Continuous
 62
     7
370
    50
100
AcDbCircle
 39
0.7
 10
-3.684729918853804
 20
366.0456837266379
 30
0.0
 40
0.4
100
AcDbArc
 50
180.0
 51
270.0
1001
AUSTER_ANSICHT
1002
{
1000
Det03
1002
}
1001
AUSTER_FOLIE
1002
{
1000
NSB00341_S2
1002
}
  0
ARC
  5
D178
330
20
100
AcDbEntity
  8
10000_FRONT
  6
Continuous
 62
     7
370
    50
100
AcDbCircle
 39
0.7
 10
10.21527008114617
 20
366.0456837266379
 30
0.0
 40
0.4
100
AcDbArc
 50
270.0
 51
0.0
1001
AUSTER_ANSICHT
1002
{
1000
Det03
1002
}
1001
AUSTER_FOLIE
1002
{
1000
NSB00341_S2
1002
}
  0
CIRCLE
  5
D179
330
20
100
AcDbEntity
  8
10000_FRONT
  6
Continuous
 62
     7
370
    20
100
AcDbCircle
 39
0.25
 10
-15.1037299188539
 20
377.6315837266379
 30
0.0
 40
4.9
1001
AUSTER_ANSICHT
1002
{
1000
Det03
1002
}
1001
AUSTER_FOLIE
1002
{
1000
NSB00341_S2
1002
}
  0
CIRCLE
  5
D17A
330
20
100
AcDbEntity
  8
10000_FRONT
  6
Continuous
 62
     7
370
    20
100
AcDbCircle
 39
0.25
 10
-32.6037299188539
 20
377.6315837266379
 30
0.0
 40
4.9
1001
AUSTER_ANSICHT
1002
{
1000
Det03
1002
}
1001
AUSTER_FOLIE
1002
{
1000
NSB00341_S2
1002
}
  0
ARC
  5
D17B
330
20
100
AcDbEntity
  8
10000_FRONT
  6
Continuous
 62
     7
370
    20
100
AcDbCircle
 39
0.25
 10
-15.1037299188539
 20
377.6315837266379
 30
0.0
 40
4.5
100
AcDbArc
 50
170.9954999999984
 51
189.0045000000015
1001
AUSTER_ANSICHT
1002
{
1000
Det03
1002
}
1001
AUSTER_FOLIE
1002
{
1000
NSB00341_S2
1002
}
  0
ARC
  5
D17C
330
20
100
AcDbEntity
  8
10000_FRONT
  6
Continuous
 62
     7
370
    20
100
AcDbCircle
 39
0.25
 10
-32.6037299188539
 20
377.6315837266379
 30
0.0
 40
4.5
100
AcDbArc
 50
170.9954999999984
 51
189.0045000000015
1001
AUSTER_ANSICHT
1002
{
1000
Det03
1002
}
1001
AUSTER_FOLIE
1002
{
1000
NSB00341_S2
1002
}
  0
ARC
  5
D17D
330
20
100
AcDbEntity
  8
10000_FRONT
  6
Continuous
 62
     7
370
    20
100
AcDbCircle
 39
0.25
 10
-15.1037299188539
 20
377.6315837266379
 30
0.0
 40
4.5
100
AcDbArc
 50
350.9954999999985
 51
9.004500000001526
1001
AUSTER_ANSICHT
1002
{
1000
Det03
1002
}
1001
AUSTER_FOLIE
1002
{
1000
NSB00341_S2
1002
}
  0
ARC
  5
D17E
330
20
100
AcDbEntity
  8
10000_FRONT
  6
Continuous
 62
     7
370
    20
100
AcDbCircle
 39
0.25
 10
-32.6037299188539
 20
377.6315837266379
 30
0.0
 40
4.5
100
AcDbArc
 50
350.9954999999985
 51
9.004500000001526
1001
AUSTER_ANSICHT
1002
{
1000
Det03
1002
}
1001
AUSTER_FOLIE
1002
{
1000
NSB00341_S2
1002
}
  0
ARC
  5
D17F
330
20
100
AcDbEntity
  8
10000_FRONT
  6
Continuous
 62
     7
370
    20
100
AcDbCircle
 39
0.25
 10
-15.1037299188539
 20
377.6315837266379
 30
0.0
 40
2.5
100
AcDbArc
 50
256.1134999999987
 51
283.8865000000013
1001
AUSTER_ANSICHT
1002
{
1000
Det03
1002
}
1001
AUSTER_FOLIE
1002
{
1000
NSB00341_S2
1002
}
  0
ARC
  5
D180
330
20
100
AcDbEntity
  8
10000_FRONT
  6
Continuous
 62
     7
370
    20
100
AcDbCircle
 39
0.25
 10
-32.6037299188539
 20
377.6315837266379
 30
0.0
 40
2.5
100
AcDbArc
 50
256.1134999999987
 51
283.8865000000013
1001
AUSTER_ANSICHT
1002
{
1000
Det03
1002
}
1001
AUSTER_FOLIE
1002
{
1000
NSB00341_S2
1002
}
  0
ARC
  5
D181
330
20
100
AcDbEntity
  8
10000_FRONT
  6
Continuous
 62
     7
370
    20
100
AcDbCircle
 39
0.25
 10
-15.1037299188539
 20
377.6315837266379
 30
0.0
 40
2.5
100
AcDbArc
 50
76.11345999999982
 51
103.8865000000013
1001
AUSTER_ANSICHT
1002
{
1000
Det03
1002
}
1001
AUSTER_FOLIE
1002
{
1000
NSB00341_S2
1002
}
  0
ARC
  5
D182
330
20
100
AcDbEntity
  8
10000_FRONT
  6
Continuous
 62
     7
370
    20
100
AcDbCircle
 39
0.25
 10
-32.6037299188539
 20
377.6315837266379
 30
0.0
 40
2.5
100
AcDbArc
 50
76.11345999999982
 51
103.8865000000013
1001
AUSTER_ANSICHT
1002
{
1000
Det03
1002
}
1001
AUSTER_FOLIE
1002
{
1000
NSB00341_S2
1002
}
  0
CIRCLE
  5
D183
330
20
100
AcDbEntity
  8
10000_FRONT
  6
Continuous
 62
     7
370
    20
100
AcDbCircle
 39
0.25
 10
2.396270081146099
 20
377.6315837266379
 30
0.0
 40
4.9
1001
AUSTER_ANSICHT
1002
{
1000
Det03
1002
}
1001
AUSTER_FOLIE
1002
{
1000
NSB00341_S2
1002
}
  0
ARC
  5
D184
330
20
100
AcDbEntity
  8
10000_FRONT
  6
Continuous
 62
     7
370
    20
100
AcDbCircle
 39
0.25
 10
2.396270081146099
 20
377.6315837266379
 30
0.0
 40
4.5
100
AcDbArc
 50
170.9954999999984
 51
189.0045000000015
1001
AUSTER_ANSICHT
1002
{
1000
Det03
1002
}
1001
AUSTER_FOLIE
1002
{
1000
NSB00341_S2
1002
}
  0
ARC
  5
D185
330
20
100
AcDbEntity
  8
10000_FRONT
  6
Continuous
 62
     7
370
    20
100
AcDbCircle
 39
0.25
 10
2.396270081146099
 20
377.6315837266379
 30
0.0
 40
4.5
100
AcDbArc
 50
350.9954999999985
 51
9.004500000001526
1001
AUSTER_ANSICHT
1002
{
1000
Det03
1002
}
1001
AUSTER_FOLIE
1002
{
1000
NSB00341_S2
1002
}
  0
ARC
  5
D186
330
20
100
AcDbEntity
  8
10000_FRONT
  6
Continuous
 62
     7
370
    20
100
AcDbCircle
 39
0.25
 10
2.396270081146099
 20
377.6315837266379
 30
0.0
 40
2.5
100
AcDbArc
 50
256.1134999999987
 51
283.8865000000013
1001
AUSTER_ANSICHT
1002
{
1000
Det03
1002
}
1001
AUSTER_FOLIE
1002
{
1000
NSB00341_S2
1002
}
  0
ARC
  5
D187
330
20
100
AcDbEntity
  8
10000_FRONT
  6
Continuous
 62
     7
370
    20
100
AcDbCircle
 39
0.25
 10
2.396270081146099
 20
377.6315837266379
 30
0.0
 40
2.5
100
AcDbArc
 50
76.11345999999982
 51
103.8865000000013
1001
AUSTER_ANSICHT
1002
{
1000
Det03
1002
}
1001
AUSTER_FOLIE
1002
{
1000
NSB00341_S2
1002
}
  0
ARC
  5
D188
330
20
100
AcDbEntity
  8
10000_FRONT
  6
Continuous
 62
     7
370
    50
100
AcDbCircle
 39
0.7
 10
10.76527008114612
 20
369.1456837266378
 30
0.0
 40
1.5
100
AcDbArc
 50
270.0
 51
0.0
1001
AUSTER_ANSICHT
1002
{
1000
Det03
1002
}
1001
AUSTER_FOLIE
1002
{
1000
NSB00341_S2
1002
}
  0
ARC
  5
D189
330
20
100
AcDbEntity
  8
10000_FRONT
  6
Continuous
 62
     7
370
    50
100
AcDbCircle
 39
0.7
 10
-41.03472991885381
 20
369.1456837266378
 30
0.0
 40
1.5
100
AcDbArc
 50
180.0
 51
270.0
1001
AUSTER_ANSICHT
1002
{
1000
Det03
1002
}
1001
AUSTER_FOLIE
1002
{
1000
NSB00341_S2
1002
}
  0
ARC
  5
D18A
330
20
100
AcDbEntity
  8
10000_FRONT
  6
Continuous
 62
     7
370
    20
100
AcDbCircle
 39
0.25
 10
10.76377008114616
 20
388.2474837266379
 30
0.0
 40
1.501779999999999
100
AcDbArc
 50
270.054299999999
 51
359.9320999999997
1001
AUSTER_ANSICHT
1002
{
1000
Det03
1002
}
1001
AUSTER_FOLIE
1002
{
1000
NSB00341_S2
1002
}
  0
ARC
  5
D18B
330
20
100
AcDbEntity
  8
10000_FRONT
  6
Continuous
 62
     7
370
    50
100
AcDbCircle
 39
0.7
 10
10.76607008114615
 20
440.2461837266378
 30
0.0
 40
1.499194
100
AcDbArc
 50
359.9786999999973
 51
90.03080000000073
1001
AUSTER_ANSICHT
1002
{
1000
Det03
1002
}
1001
AUSTER_FOLIE
1002
{
1000
NSB00341_S2
1002
}
  0
ARC
  5
D18C
330
20
100
AcDbEntity
  8
10000_FRONT
  6
Continuous
 62
     7
370
    50
100
AcDbCircle
 39
0.7
 10
-41.03412991885385
 20
440.2448837266378
 30
0.0
 40
1.500758999999999
100
AcDbArc
 50
90.02287999999916
 51
179.9709999999989
1001
AUSTER_ANSICHT
1002
{
1000
Det03
1002
}
1001
AUSTER_FOLIE
1002
{
1000
NSB00341_S2
1002
}
  0
ARC
  5
D18D
330
20
100
AcDbEntity
  8
10000_FRONT
  6
Continuous
 62
     7
370
    20
100
AcDbCircle
 39
0.25
 10
-41.03662991885392
 20
388.2443837266378
 30
0.0
 40
1.498080999999999
100
AcDbArc
 50
179.9497999999958
 51
270.0733999999985
1001
AUSTER_ANSICHT
1002
{
1000
Det03
1002
}
1001
AUSTER_FOLIE
1002
{
1000
NSB00341_S2
1002
}
  0
ARC
  5
D18E
330
20
100
AcDbEntity
  8
10000_FRONT
  6
Continuous
 62
     7
370
    20
100
AcDbCircle
 39
0.25
 10
-32.22432991885387
 20
396.9966837266379
 30
0.0
 40
2.850490999999998
100
AcDbArc
 50
167.7603999999987
 51
192.2396000000013
1001
AUSTER_ANSICHT
1002
{
1000
Det03
1002
}
1001
AUSTER_FOLIE
1002
{
1000
NSB00341_S2
1002
}
  0
ARC
  5
D18F
330
20
100
AcDbEntity
  8
10000_FRONT
  6
Continuous
 62
     7
370
    20
100
AcDbCircle
 39
0.25
 10
-32.22432991885387
 20
396.9966837266379
 30
0.0
 40
1.85
100
AcDbArc
 50
73.83654999999966
 51
106.1634000000007
1001
AUSTER_ANSICHT
1002
{
1000
Det03
1002
}
1001
AUSTER_FOLIE
1002
{
1000
NSB00341_S2
1002
}
  0
ARC
  5
D190
330
20
100
AcDbEntity
  8
10000_FRONT
  6
Continuous
 62
     7
370
    20
100
AcDbCircle
 39
0.25
 10
-32.22432991885387
 20
396.9966837266379
 30
0.0
 40
1.85
100
AcDbArc
 50
253.8365999999993
 51
286.1634000000007
1001
AUSTER_ANSICHT
1002
{
1000
Det03
1002
}
1001
AUSTER_FOLIE
1002
{
1000
NSB00341_S2
1002
}
  0
ARC
  5
D191
330
20
100
AcDbEntity
  8
10000_FRONT
  6
Continuous
 62
     7
370
    20
100
AcDbCircle
 39
0.25
 10
-32.22432991885387
 20
396.9966837266379
 30
0.0
 40
2.850490999999998
100
AcDbArc
 50
347.7603999999987
 51
12.23960000000126
1001
AUSTER_ANSICHT
1002
{
1000
Det03
1002
}
1001
AUSTER_FOLIE
1002
{
1000
NSB00341_S2
1002
}
  0
CIRCLE
  5
D192
330
20
100
AcDbEntity
  8
10000_FRONT
  6
Continuous
 62
     7
370
    20
100
AcDbCircle
 39
0.25
 10
-32.22432991885387
 20
396.9966837266379
 30
0.0
 40
3.1
1001
AUSTER_ANSICHT
1002
{
1000
Det03
1002
}
1001
AUSTER_FOLIE
1002
{
1000
NSB00341_S2
1002
}
  0
ARC
  5
D193
330
20
100
AcDbEntity
  8
10000_FRONT
  6
Continuous
 62
     7
370
    20
100
AcDbCircle
 39
0.25
 10
-23.62432991885385
 20
396.9966837266379
 30
0.0
 40
2.850490999999998
100
AcDbArc
 50
167.7603999999987
 51
192.2396000000013
1001
AUSTER_ANSICHT
1002
{
1000
Det03
1002
}
1001
AUSTER_FOLIE
1002
{
1000
NSB00341_S2
1002
}
  0
ARC
  5
D194
330
20
100
AcDbEntity
  8
10000_FRONT
  6
Continuous
 62
     7
370
    20
100
AcDbCircle
 39
0.25
 10
-23.62432991885385
 20
396.9966837266379
 30
0.0
 40
1.85
100
AcDbArc
 50
73.83654999999966
 51
106.1634000000007
1001
AUSTER_ANSICHT
1002
{
1000
Det03
1002
}
1001
AUSTER_FOLIE
1002
{
1000
NSB00341_S2
1002
}
  0
ARC
  5
D195
330
20
100
AcDbEntity
  8
10000_FRONT
  6
Continuous
 62
     7
370
    20
100
AcDbCircle
 39
0.25
 10
-23.62432991885385
 20
396.9966837266379
 30
0.0
 40
1.85
100
AcDbArc
 50
253.8365999999993
 51
286.1634000000007
1001
AUSTER_ANSICHT
1002
{
1000
Det03
1002
}
1001
AUSTER_FOLIE
1002
{
1000
NSB00341_S2
1002
}
  0
ARC
  5
D196
330
20
100
AcDbEntity
  8
10000_FRONT
  6
Continuous
 62
     7
370
    20
100
AcDbCircle
 39
0.25
 10
-23.62432991885385
 20
396.9966837266379
 30
0.0
 40
2.850490999999998
100
AcDbArc
 50
347.7603999999987
 51
12.23960000000126
1001
AUSTER_ANSICHT
1002
{
1000
Det03
1002
}
1001
AUSTER_FOLIE
1002
{
1000
NSB00341_S2
1002
}
  0
CIRCLE
  5
D197
330
20
100
AcDbEntity
  8
10000_FRONT
  6
Continuous
 62
     7
370
    20
100
AcDbCircle
 39
0.25
 10
-23.62432991885385
 20
396.9966837266379
 30
0.0
 40
3.1
1001
AUSTER_ANSICHT
1002
{
1000
Det03
1002
}
1001
AUSTER_FOLIE
1002
{
1000
NSB00341_S2
1002
}
  0
ARC
  5
D198
330
20
100
AcDbEntity
  8
10000_FRONT
  6
Continuous
 62
     7
370
    20
100
AcDbCircle
 39
0.25
 10
-15.02432991885382
 20
396.9966837266379
 30
0.0
 40
2.850490999999998
100
AcDbArc
 50
167.7603999999987
 51
192.2396000000013
1001
AUSTER_ANSICHT
1002
{
1000
Det03
1002
}
1001
AUSTER_FOLIE
1002
{
1000
NSB00341_S2
1002
}
  0
ARC
  5
D199
330
20
100
AcDbEntity
  8
10000_FRONT
  6
Continuous
 62
     7
370
    20
100
AcDbCircle
 39
0.25
 10
-15.02432991885382
 20
396.9966837266379
 30
0.0
 40
1.85
100
AcDbArc
 50
73.83654999999966
 51
106.1634000000007
1001
AUSTER_ANSICHT
1002
{
1000
Det03
1002
}
1001
AUSTER_FOLIE
1002
{
1000
NSB00341_S2
1002
}
  0
ARC
  5
D19A
330
20
100
AcDbEntity
  8
10000_FRONT
  6
Continuous
 62
     7
370
    20
100
AcDbCircle
 39
0.25
 10
-15.02432991885382
 20
396.9966837266379
 30
0.0
 40
1.85
100
AcDbArc
 50
253.8365999999993
 51
286.1634000000007
1001
AUSTER_ANSICHT
1002
{
1000
Det03
1002
}
1001
AUSTER_FOLIE
1002
{
1000
NSB00341_S2
1002
}
  0
ARC
  5
D19B
330
20
100
AcDbEntity
  8
10000_FRONT
  6
Continuous
 62
     7
370
    20
100
AcDbCircle
 39
0.25
 10
-15.02432991885382
 20
396.9966837266379
 30
0.0
 40
2.850490999999998
100
AcDbArc
 50
347.7603999999987
 51
12.23960000000126
1001
AUSTER_ANSICHT
1002
{
1000
Det03
1002
}
1001
AUSTER_FOLIE
1002
{
1000
NSB00341_S2
1002
}
  0
CIRCLE
  5
D19C
330
20
100
AcDbEntity
  8
10000_FRONT
  6
Continuous
 62
     7
370
    20
100
AcDbCircle
 39
0.25
 10
-15.02432991885382
 20
396.9966837266379
 30
0.0
 40
3.1
1001
AUSTER_ANSICHT
1002
{
1000
Det03
1002
}
1001
AUSTER_FOLIE
1002
{
1000
NSB00341_S2
1002
}
  0
ARC
  5
D19D
330
20
100
AcDbEntity
  8
10000_FRONT
  6
Continuous
 62
     7
370
    20
100
AcDbCircle
 39
0.25
 10
-6.424329918853913
 20
396.9966837266379
 30
0.0
 40
2.850490999999998
100
AcDbArc
 50
167.7603999999987
 51
192.2396000000013
1001
AUSTER_ANSICHT
1002
{
1000
Det03
1002
}
1001
AUSTER_FOLIE
1002
{
1000
NSB00341_S2
1002
}
  0
ARC
  5
D19E
330
20
100
AcDbEntity
  8
10000_FRONT
  6
Continuous
 62
     7
370
    20
100
AcDbCircle
 39
0.25
 10
-6.424329918853913
 20
396.9966837266379
 30
0.0
 40
1.85
100
AcDbArc
 50
73.83654999999966
 51
106.1634000000007
1001
AUSTER_ANSICHT
1002
{
1000
Det03
1002
}
1001
AUSTER_FOLIE
1002
{
1000
NSB00341_S2
1002
}
  0
ARC
  5
D19F
330
20
100
AcDbEntity
  8
10000_FRONT
  6
Continuous
 62
     7
370
    20
100
AcDbCircle
 39
0.25
 10
-6.424329918853913
 20
396.9966837266379
 30
0.0
 40
1.85
100
AcDbArc
 50
253.8365999999993
 51
286.1634000000007
1001
AUSTER_ANSICHT
1002
{
1000
Det03
1002
}
1001
AUSTER_FOLIE
1002
{
1000
NSB00341_S2
1002
}
  0
ARC
  5
D1A0
330
20
100
AcDbEntity
  8
10000_FRONT
  6
Continuous
 62
     7
370
    20
100
AcDbCircle
 39
0.25
 10
-6.424329918853913
 20
396.9966837266379
 30
0.0
 40
2.850490999999998
100
AcDbArc
 50
347.7603999999987
 51
12.23960000000126
1001
AUSTER_ANSICHT
1002
{
1000
Det03
1002
}
1001
AUSTER_FOLIE
1002
{
1000
NSB00341_S2
1002
}
  0
CIRCLE
  5
D1A1
330
20
100
AcDbEntity
  8
10000_FRONT
  6
Continuous
 62
     7
370
    20
100
AcDbCircle
 39
0.25
 10
-6.424329918853913
 20
396.9966837266379
 30
0.0
 40
3.1
1001
AUSTER_ANSICHT
1002
{
1000
Det03
1002
}
1001
AUSTER_FOLIE
1002
{
1000
NSB00341_S2
1002
}
  0
ARC
  5
D1A2
330
20
100
AcDbEntity
  8
10000_FRONT
  6
Continuous
 62
     7
370
    20
100
AcDbCircle
 39
0.25
 10
0.9756700811461767
 20
409.5965837266377
 30
0.0
 40
2.850490999999998
100
AcDbArc
 50
242.7604
 51
267.2395999999985
1001
AUSTER_ANSICHT
1002
{
1000
Det03
1002
}
1001
AUSTER_FOLIE
1002
{
1000
NSB00341_S2
1002
}
  0
ARC
  5
D1A3
330
20
100
AcDbEntity
  8
10000_FRONT
  6
Continuous
 62
     7
370
    20
100
AcDbCircle
 39
0.25
 10
0.9756700811461767
 20
409.5965837266377
 30
0.0
 40
1.85
100
AcDbArc
 50
148.8366000000029
 51
181.1633999999957
1001
AUSTER_ANSICHT
1002
{
1000
Det03
1002
}
1001
AUSTER_FOLIE
1002
{
1000
NSB00341_S2
1002
}
  0
ARC
  5
D1A4
330
20
100
AcDbEntity
  8
10000_FRONT
  6
Continuous
 62
     7
370
    20
100
AcDbCircle
 39
0.25
 10
0.9756700811461767
 20
409.5965837266377
 30
0.0
 40
1.85
100
AcDbArc
 50
328.8366000000029
 51
1.16339999999576
1001
AUSTER_ANSICHT
1002
{
1000
Det03
1002
}
1001
AUSTER_FOLIE
1002
{
1000
NSB00341_S2
1002
}
  0
ARC
  5
D1A5
330
20
100
AcDbEntity
  8
10000_FRONT
  6
Continuous
 62
     7
370
    20
100
AcDbCircle
 39
0.25
 10
0.9756700811461767
 20
409.5965837266377
 30
0.0
 40
2.850490999999998
100
AcDbArc
 50
62.76037000000112
 51
87.23962999999846
1001
AUSTER_ANSICHT
1002
{
1000
Det03
1002
}
1001
AUSTER_FOLIE
1002
{
1000
NSB00341_S2
1002
}
  0
ARC
  5
D1A6
330
20
100
AcDbEntity
  8
10000_FRONT
  6
Continuous
 62
     7
370
    20
100
AcDbCircle
 39
0.25
 10
-22.12432991885385
 20
409.5966837266378
 30
0.0
 40
2.850490999999998
100
AcDbArc
 50
302.760399999999
 51
327.239599999997
1001
AUSTER_ANSICHT
1002
{
1000
Det03
1002
}
1001
AUSTER_FOLIE
1002
{
1000
NSB00341_S2
1002
}
  0
ARC
  5
D1A7
330
20
100
AcDbEntity
  8
10000_FRONT
  6
Continuous
 62
     7
370
    20
100
AcDbCircle
 39
0.25
 10
-22.12432991885385
 20
409.5966837266378
 30
0.0
 40
1.85
100
AcDbArc
 50
208.8365999999971
 51
241.1634000000001
1001
AUSTER_ANSICHT
1002
{
1000
Det03
1002
}
1001
AUSTER_FOLIE
1002
{
1000
NSB00341_S2
1002
}
  0
ARC
  5
D1A8
330
20
100
AcDbEntity
  8
10000_FRONT
  6
Continuous
 62
     7
370
    20
100
AcDbCircle
 39
0.25
 10
-22.12432991885385
 20
409.5966837266378
 30
0.0
 40
1.85
100
AcDbArc
 50
28.83654999999966
 51
61.16345000000007
1001
AUSTER_ANSICHT
1002
{
1000
Det03
1002
}
1001
AUSTER_FOLIE
1002
{
1000
NSB00341_S2
1002
}
  0
ARC
  5
D1A9
330
20
100
AcDbEntity
  8
10000_FRONT
  6
Continuous
 62
     7
370
    20
100
AcDbCircle
 39
0.25
 10
-22.12432991885385
 20
409.5966837266378
 30
0.0
 40
2.850490999999998
100
AcDbArc
 50
122.760399999999
 51
147.239599999997
1001
AUSTER_ANSICHT
1002
{
1000
Det03
1002
}
1001
AUSTER_FOLIE
1002
{
1000
NSB00341_S2
1002
}
  0
CIRCLE
  5
D1AA
330
20
100
AcDbEntity
  8
10000_FRONT
  6
Continuous
 62
     7
370
    20
100
AcDbCircle
 39
0.25
 10
-22.12432991885385
 20
409.5966837266378
 30
0.0
 40
3.02
1001
AUSTER_ANSICHT
1002
{
1000
Det03
1002
}
1001
AUSTER_FOLIE
1002
{
1000
NSB00341_S2
1002
}
  0
ARC
  5
D1AB
330
20
100
AcDbEntity
  8
10000_FRONT
  6
Continuous
 62
     7
370
    20
100
AcDbCircle
 39
0.25
 10
-36.62432991885385
 20
387.7487837266378
 30
0.0
 40
1.0
100
AcDbArc
 50
180.0
 51
270.0
1001
AUSTER_ANSICHT
1002
{
1000
Det03
1002
}
1001
AUSTER_FOLIE
1002
{
1000
NSB00341_S2
1002
}
  0
ARC
  5
D1AC
330
20
100
AcDbEntity
  8
10000_FRONT
  6
Continuous
 62
     7
370
    20
100
AcDbCircle
 39
0.25
 10
6.375670081146153
 20
387.7466837266378
 30
0.0
 40
0.9999985
100
AcDbArc
 50
270.0
 51
0.0
1001
AUSTER_ANSICHT
1002
{
1000
Det03
1002
}
1001
AUSTER_FOLIE
1002
{
1000
NSB00341_S2
1002
}
  0
CIRCLE
  5
D1AD
330
20
100
AcDbEntity
  8
10000_FRONT
  6
Continuous
 62
     7
370
    20
100
AcDbCircle
 39
0.25
 10
-33.57432991885378
 20
409.5966837266378
 30
0.0
 40
2.9
1001
AUSTER_ANSICHT
1002
{
1000
Det03
1002
}
1001
AUSTER_FOLIE
1002
{
1000
NSB00341_S2
1002
}
  0
CIRCLE
  5
D1AE
330
20
100
AcDbEntity
  8
10000_FRONT
  6
Continuous
 62
     7
370
    20
100
AcDbCircle
 39
0.25
 10
0.9756700811461767
 20
409.5966837266378
 30
0.0
 40
4.0
1001
AUSTER_ANSICHT
1002
{
1000
Det03
1002
}
1001
AUSTER_FOLIE
1002
{
1000
NSB00341_S2
1002
}
  0
ARC
  5
D1AF
330
20
100
AcDbEntity
  8
11000_Left
  6
Continuous
 62
     7
370
    50
100
AcDbCircle
 39
0.7
 10
-61.95581485270929
 20
419.7453837266379
 30
0.0
 40
249.9892
100
AcDbArc
 50
352.5458000000035
 51
4.718699999999974
1001
AUSTER_ANSICHT
1002
{
1000
Det03
1002
}
1001
AUSTER_FOLIE
1002
{
1000
NSB00341_S2
1002
}
  0
ARC
  5
D1B0
330
20
100
AcDbEntity
  8
11000_Left
  6
Continuous
 62
     7
370
    50
100
AcDbCircle
 39
0.7
 10
164.5612851472906
 20
386.1453837266379
 30
0.0
 40
0.6
100
AcDbArc
 50
353.9215999999988
 51
89.99689999999915
1001
AUSTER_ANSICHT
1002
{
1000
Det03
1002
}
1001
AUSTER_FOLIE
1002
{
1000
NSB00341_S2
1002
}
  0
ARC
  5
D1B1
330
20
100
AcDbEntity
  8
11000_Left
  6
Continuous
 62
     7
370
    50
100
AcDbCircle
 39
0.7
 10
162.1405851472907
 20
368.2452837266378
 30
0.0
 40
0.6
100
AcDbArc
 50
270.0
 51
350.5030000000024
1001
AUSTER_ANSICHT
1002
{
1000
Det03
1002
}
1001
AUSTER_FOLIE
1002
{
1000
NSB00341_S2
1002
}
  0
ARC
  5
D1B2
330
20
100
AcDbEntity
  8
11000_Left
  6
Continuous
 62
     7
370
    50
100
AcDbCircle
 39
0.7
 10
89.44418514729079
 20
368.0452837266379
 30
0.0
 40
0.4
100
AcDbArc
 50
180.0
 51
270.0
1001
AUSTER_ANSICHT
1002
{
1000
Det03
1002
}
1001
AUSTER_FOLIE
1002
{
1000
NSB00341_S2
1002
}
  0
ARC
  5
D1B3
330
20
100
AcDbEntity
  8
11000_Left
  6
Continuous
 62
     7
370
    50
100
AcDbCircle
 39
0.7
 10
89.44418514729079
 20
422.2452837266378
 30
0.0
 40
0.4
100
AcDbArc
 50
90.0
 51
180.0
1001
AUSTER_ANSICHT
1002
{
1000
Det03
1002
}
1001
AUSTER_FOLIE
1002
{
1000
NSB00341_S2
1002
}
  0
ARC
  5
D1B4
330
20
100
AcDbEntity
  8
11000_Left
  6
Continuous
 62
     7
370
    20
100
AcDbCircle
 39
0.7
 10
146.9721851472906
 20
415.0452837266378
 30
0.0
 40
0.4
100
AcDbArc
 50
270.0
 51
340.0000000000031
1001
AUSTER_ANSICHT
1002
{
1000
Det03
1002
}
1001
AUSTER_FOLIE
1002
{
1000
NSB00341_S2
1002
}
  0
ARC
  5
D1B5
330
20
100
AcDbEntity
  8
11000_Left
  6
Continuous
 62
     7
370
    20
100
AcDbCircle
 39
0.7
 10
147.9441851472908
 20
417.7158837266378
 30
0.0
 40
0.4
100
AcDbArc
 50
340.0000000000031
 51
0.0
1001
AUSTER_ANSICHT
1002
{
1000
Det03
1002
}
1001
AUSTER_FOLIE
1002
{
1000
NSB00341_S2
1002
}
  0
ARC
  5
D1B6
330
20
100
AcDbEntity
  8
11000_Left
  6
Continuous
 62
     7
370
    20
100
AcDbCircle
 39
0.7
 10
148.7441851472907
 20
422.2452837266378
 30
0.0
 40
0.4
100
AcDbArc
 50
90.0
 51
180.0
1001
AUSTER_ANSICHT
1002
{
1000
Det03
1002
}
1001
AUSTER_FOLIE
1002
{
1000
NSB00341_S2
1002
}
  0
ARC
  5
D1B7
330
20
100
AcDbEntity
  8
11000_Left
  6
Continuous
 62
     7
370
    50
100
AcDbCircle
 39
0.7
 10
140.9198851472907
 20
427.2452837266378
 30
0.0
 40
1.199999999999999
100
AcDbArc
 50
90.0
 51
134.9999999999997
1001
AUSTER_ANSICHT
1002
{
1000
Det03
1002
}
1001
AUSTER_FOLIE
1002
{
1000
NSB00341_S2
1002
}
  0
ARC
  5
D1B8
330
20
100
AcDbEntity
  8
11000_Left
  6
Continuous
 62
     7
370
    50
100
AcDbCircle
 39
0.7
 10
134.1257851472906
 20
423.8452837266378
 30
0.0
 40
1.199999999999999
100
AcDbArc
 50
270.0
 51
314.9999999999998
1001
AUSTER_ANSICHT
1002
{
1000
Det03
1002
}
1001
AUSTER_FOLIE
1002
{
1000
NSB00341_S2
1002
}
  0
ARC
  5
D1B9
330
20
100
AcDbEntity
  8
11000_Left
  6
Continuous
 62
     7
370
    50
100
AcDbCircle
 39
0.7
 10
174.3028851472908
 20
430.4452837266378
 30
0.0
 40
2.0
100
AcDbArc
 50
270.0
 51
340.0000000000031
1001
AUSTER_ANSICHT
1002
{
1000
Det03
1002
}
1001
AUSTER_FOLIE
1002
{
1000
NSB00341_S2
1002
}
  0
ARC
  5
D1BA
330
20
100
AcDbEntity
  8
11000_Left
  6
Continuous
 62
     7
370
    50
100
AcDbCircle
 39
0.7
 10
181.3843851472907
 20
440.5452837266379
 30
0.0
 40
1.199999999999999
100
AcDbArc
 50
90.0
 51
160.0000000000031
1001
AUSTER_ANSICHT
1002
{
1000
Det03
1002
}
1001
AUSTER_FOLIE
1002
{
1000
NSB00341_S2
1002
}
  0
ARC
  5
D1BB
330
20
100
AcDbEntity
  8
11000_Left
  6
Continuous
 62
     7
370
    50
100
AcDbCircle
 39
0.7
 10
185.1550851472907
 20
387.5453837266379
 30
0.0
 40
0.8
100
AcDbArc
 50
270.0
 51
343.1525000000025
1001
AUSTER_ANSICHT
1002
{
1000
Det03
1002
}
1001
AUSTER_FOLIE
1002
{
1000
NSB00341_S2
1002
}
  0
ARC
  5
D1BC
330
20
100
AcDbEntity
  8
11000_Left
  6
Continuous
 62
     7
370
    50
100
AcDbCircle
 39
0.7
 10
186.3407851472907
 20
440.9453837266378
 30
0.0
 40
0.8
100
AcDbArc
 50
27.59416000000389
 51
90.0
1001
AUSTER_ANSICHT
1002
{
1000
Det03
1002
}
1001
AUSTER_FOLIE
1002
{
1000
NSB00341_S2
1002
}
  0
ARC
  5
D1BD
330
20
100
AcDbEntity
  8
11000_Left
  6
Continuous
 62
     7
370
    50
100
AcDbCircle
 39
0.7
 10
-109.9601186676102
 20
414.1739763339862
 30
0.0
 40
276.5485460064081
100
AcDbArc
 50
350.6087067597042
 51
354.1697711830368
1001
AUSTER_ANSICHT
1002
{
1000
Det03
1002
}
1001
AUSTER_FOLIE
1002
{
1000
NSB00341_S2
1002
}
  0
ARC
  5
D1BE
330
20
100
AcDbEntity
  8
11000_Left
  6
Continuous
 62
     7
370
    50
100
AcDbCircle
 39
0.7
 10
120.5441851472907
 20
366.0452837266379
 30
0.0
 40
0.4
100
AcDbArc
 50
180.0
 51
270.0
1001
AUSTER_ANSICHT
1002
{
1000
Det03
1002
}
1001
AUSTER_FOLIE
1002
{
1000
NSB00341_S2
1002
}
  0
ARC
  5
D1BF
330
20
100
AcDbEntity
  8
11000_Left
  6
DASHED
 62
     7
370
    20
100
AcDbCircle
 39
0.25
 10
74.0441851472907
 20
495.5953837266378
 30
0.0
 40
1.0
100
AcDbArc
 50
90.0
 51
180.0
1001
AUSTER_ANSICHT
1002
{
1000
Det03
1002
}
1001
AUSTER_FOLIE
1002
{
1000
NSB00341_S2
1002
}
  0
ARC
  5
D1C0
330
20
100
AcDbEntity
  8
11000_Left
  6
DASHED
 62
     7
370
    20
100
AcDbCircle
 39
0.25
 10
74.0441851472907
 20
472.5953837266378
 30
0.0
 40
1.0
100
AcDbArc
 50
180.0
 51
270.0
1001
AUSTER_ANSICHT
1002
{
1000
Det03
1002
}
1001
AUSTER_FOLIE
1002
{
1000
NSB00341_S2
1002
}
  0
ARC
  5
D1C1
330
20
100
AcDbEntity
  8
11000_Left
  6
DASHED
 62
     7
370
    20
100
AcDbCircle
 39
0.25
 10
76.64418514729074
 20
469.6953837266378
 30
-1.0
 40
1.9
100
AcDbArc
 50
0.0000000107542442
 51
90.0
1001
AUSTER_ANSICHT
1002
{
1000
Det03
1002
}
1001
AUSTER_FOLIE
1002
{
1000
NSB00341_S2
1002
}
  0
ARC
  5
D1C2
330
20
100
AcDbEntity
  8
11000_Left
  6
DASHED
 62
     7
370
    20
100
AcDbCircle
 39
0.25
 10
76.64418514729074
 20
498.4953837266377
 30
-1.0
 40
1.9
100
AcDbArc
 50
270.0
 51
0.0
1001
AUSTER_ANSICHT
1002
{
1000
Det03
1002
}
1001
AUSTER_FOLIE
1002
{
1000
NSB00341_S2
1002
}
  0
ARC
  5
D1C3
330
20
100
AcDbEntity
  8
11000_Left
  6
DASHED
 62
     7
370
    20
100
AcDbCircle
 39
0.25
 10
76.5441851472907
 20
474.5953837266378
 30
-1.0
 40
1.0
100
AcDbArc
 50
180.0
 51
270.0
1001
AUSTER_ANSICHT
1002
{
1000
Det03
1002
}
1001
AUSTER_FOLIE
1002
{
1000
NSB00341_S2
1002
}
  0
ARC
  5
D1C4
330
20
100
AcDbEntity
  8
11000_Left
  6
DASHED
 62
     7
370
    20
100
AcDbCircle
 39
0.25
 10
76.5441851472907
 20
493.5953837266378
 30
-1.0
 40
1.0
100
AcDbArc
 50
90.0
 51
180.0
1001
AUSTER_ANSICHT
1002
{
1000
Det03
1002
}
1001
AUSTER_FOLIE
1002
{
1000
NSB00341_S2
1002
}
  0
ARC
  5
D1C5
330
20
100
AcDbEntity
  8
11000_Left
  6
DASHED
 62
     7
370
    20
100
AcDbCircle
 39
0.25
 10
78.84418514729076
 20
468.7453837266379
 30
0.0
 40
0.7
100
AcDbArc
 50
0.0
 51
90.0
1001
AUSTER_ANSICHT
1002
{
1000
Det03
1002
}
1001
AUSTER_FOLIE
1002
{
1000
NSB00341_S2
1002
}
  0
ARC
  5
D1C6
330
20
100
AcDbEntity
  8
11000_Left
  6
DASHED
 62
     7
370
    20
100
AcDbCircle
 39
0.25
 10
59.0441851472907
 20
495.5953837266378
 30
0.0
 40
1.0
100
AcDbArc
 50
90.0
 51
180.0
1001
AUSTER_ANSICHT
1002
{
1000
Det03
1002
}
1001
AUSTER_FOLIE
1002
{
1000
NSB00341_S2
1002
}
  0
ARC
  5
D1C7
330
20
100
AcDbEntity
  8
11000_Left
  6
DASHED
 62
     7
370
    20
100
AcDbCircle
 39
0.25
 10
59.0441851472907
 20
472.5953837266378
 30
0.0
 40
1.0
100
AcDbArc
 50
180.0
 51
270.0
1001
AUSTER_ANSICHT
1002
{
1000
Det03
1002
}
1001
AUSTER_FOLIE
1002
{
1000
NSB00341_S2
1002
}
  0
ARC
  5
D1C8
330
20
100
AcDbEntity
  8
11000_Left
  6
DASHED
 62
     7
370
    20
100
AcDbCircle
 39
0.25
 10
61.64418514729073
 20
469.6953837266378
 30
-1.0
 40
1.9
100
AcDbArc
 50
0.0000000107542442
 51
90.0
1001
AUSTER_ANSICHT
1002
{
1000
Det03
1002
}
1001
AUSTER_FOLIE
1002
{
1000
NSB00341_S2
1002
}
  0
ARC
  5
D1C9
330
20
100
AcDbEntity
  8
11000_Left
  6
DASHED
 62
     7
370
    20
100
AcDbCircle
 39
0.25
 10
61.64418514729073
 20
498.4953837266377
 30
-1.0
 40
1.9
100
AcDbArc
 50
270.0
 51
0.0
1001
AUSTER_ANSICHT
1002
{
1000
Det03
1002
}
1001
AUSTER_FOLIE
1002
{
1000
NSB00341_S2
1002
}
  0
ARC
  5
D1CA
330
20
100
AcDbEntity
  8
11000_Left
  6
DASHED
 62
     7
370
    20
100
AcDbCircle
 39
0.25
 10
61.5441851472907
 20
474.5953837266378
 30
-1.0
 40
1.0
100
AcDbArc
 50
180.0
 51
270.0
1001
AUSTER_ANSICHT
1002
{
1000
Det03
1002
}
1001
AUSTER_FOLIE
1002
{
1000
NSB00341_S2
1002
}
  0
ARC
  5
D1CB
330
20
100
AcDbEntity
  8
11000_Left
  6
DASHED
 62
     7
370
    20
100
AcDbCircle
 39
0.25
 10
61.5441851472907
 20
493.5953837266378
 30
-1.0
 40
1.0
100
AcDbArc
 50
90.0
 51
180.0
1001
AUSTER_ANSICHT
1002
{
1000
Det03
1002
}
1001
AUSTER_FOLIE
1002
{
1000
NSB00341_S2
1002
}
  0
ARC
  5
D1CC
330
20
100
AcDbEntity
  8
11000_Left
  6
DASHED
 62
     7
370
    20
100
AcDbCircle
 39
0.25
 10
63.84418514729077
 20
468.7453837266379
 30
0.0
 40
0.7
100
AcDbArc
 50
0.0
 51
90.0
1001
AUSTER_ANSICHT
1002
{
1000
Det03
1002
}
1001
AUSTER_FOLIE
1002
{
1000
NSB00341_S2
1002
}
  0
TEXT
  5
D1F5
330
20
100
AcDbEntity
  8
10000_FRONT
  6
Continuous
 62
     7
370
    20
100
AcDbText
 39
0.25
 10
-36.1349299188538
 20
433.2456837266378
 30
0.0
 40
3.0
  1
SIEMENS
 41
0.6600000000000002
100
AcDbText
1001
AUSTER_ANSICHT
1002
{
1000
Det03
1002
}
1001
AUSTER_FOLIE
1002
{
1000
NSB00341_S2
1002
}
  0
TEXT
  5
D1F6
330
20
100
AcDbEntity
  8
10000_FRONT
  6
Continuous
 62
     7
370
    20
100
AcDbText
 39
0.25
 10
4.197170081146167
 20
418.6966837266377
 30
0.0
 40
1.5
  1
1
 41
0.6600000000000002
100
AcDbText
1001
AUSTER_ANSICHT
1002
{
1000
Det03
1002
}
1001
AUSTER_FOLIE
1002
{
1000
NSB00341_S2
1002
}
  0
TEXT
  5
D1F7
330
20
100
AcDbEntity
  8
10000_FRONT
  6
Continuous
 62
     7
370
    20
100
AcDbText
 39
0.25
 10
-3.302829918853831
 20
418.6966837266377
 30
0.0
 40
1.5
  1
0
 41
0.6600000000000002
100
AcDbText
1001
AUSTER_ANSICHT
1002
{
1000
Det03
1002
}
1001
AUSTER_FOLIE
1002
{
1000
NSB00341_S2
1002
}
  0
TEXT
  5
D1F8
330
20
100
AcDbEntity
  8
10000_FRONT
  6
Continuous
 62
     7
370
    20
100
AcDbText
 39
0.25
 10
-1.472729918853814
 20
421.6618837266378
 30
0.0
 40
1.5
  1
Test
 41
0.6600000000000002
100
AcDbText
1001
AUSTER_ANSICHT
1002
{
1000
Det03
1002
}
1001
AUSTER_FOLIE
1002
{
1000
NSB00341_S2
1002
}
  0
TEXT
  5
D1F9
330
20
100
AcDbEntity
  8
10000_FRONT
  6
Continuous
 62
     7
370
    20
100
AcDbText
 39
0.25
 10
4.197170081146167
 20
418.6966837266377
 30
0.0
 40
1.5
  1
1
 41
0.6600000000000002
100
AcDbText
1001
AUSTER_ANSICHT
1002
{
1000
Det03
1002
}
1001
AUSTER_FOLIE
1002
{
1000
NSB00341_S2
1002
}
  0
TEXT
  5
D1FA
330
20
100
AcDbEntity
  8
10000_FRONT
  6
Continuous
 62
     7
370
    20
100
AcDbText
 39
0.25
 10
-3.302829918853831
 20
418.6966837266377
 30
0.0
 40
1.5
  1
0
 41
0.6600000000000002
100
AcDbText
1001
AUSTER_ANSICHT
1002
{
1000
Det03
1002
}
1001
AUSTER_FOLIE
1002
{
1000
NSB00341_S2
1002
}
  0
TEXT
  5
D1FB
330
20
100
AcDbEntity
  8
10000_FRONT
  6
Continuous
 62
     7
370
    20
100
AcDbText
 39
0.25
 10
-1.472729918853814
 20
421.6618837266378
 30
0.0
 40
1.5
  1
Test
 41
0.6600000000000002
100
AcDbText
1001
AUSTER_ANSICHT
1002
{
1000
Det03
1002
}
1001
AUSTER_FOLIE
1002
{
1000
NSB00341_S2
1002
}
  0
TEXT
  5
D1FC
330
20
100
AcDbEntity
  8
10000_FRONT
  6
Continuous
 62
     7
370
    20
100
AcDbText
 39
0.25
 10
-35.97432991885387
 20
404.5966837266376
 30
0.0
 40
1.5
  1
STOP
 41
0.6600000000000002
100
AcDbText
1001
AUSTER_ANSICHT
1002
{
1000
Det03
1002
}
1001
AUSTER_FOLIE
1002
{
1000
NSB00341_S2
1002
}
  0
TEXT
  5
D1FD
330
20
100
AcDbEntity
  8
10000_FRONT
  6
Continuous
 62
     7
370
    20
100
AcDbText
 39
0.25
 10
-35.97432991885387
 20
404.5966837266376
 30
0.0
 40
1.5
  1
STOP
 41
0.6600000000000002
100
AcDbText
1001
AUSTER_ANSICHT
1002
{
1000
Det03
1002
}
1001
AUSTER_FOLIE
1002
{
1000
NSB00341_S2
1002
}
  0
TEXT
  5
D1FE
330
20
100
AcDbEntity
  8
10000_FRONT
  6
Continuous
 62
     7
370
    20
100
AcDbText
 39
0.25
 10
-24.97432991885387
 20
404.5966837266376
 30
0.0
 40
1.5
  1
RESET
 41
0.6600000000000002
100
AcDbText
1001
AUSTER_ANSICHT
1002
{
1000
Det03
1002
}
1001
AUSTER_FOLIE
1002
{
1000
NSB00341_S2
1002
}
  0
TEXT
  5
D1FF
330
20
100
AcDbEntity
  8
10000_FRONT
  6
Continuous
 62
     7
370
    20
100
AcDbText
 39
0.25
 10
-19.51792991885383
 20
413.6714837266378
 30
0.0
 40
2.0
  1
A
 41
0.6600000000000002
100
AcDbText
1001
AUSTER_ANSICHT
1002
{
1000
Det03
1002
}
1001
AUSTER_FOLIE
1002
{
1000
NSB00341_S2
1002
}
  0
TEXT
  5
D200
330
20
100
AcDbEntity
  8
10000_FRONT
  6
Continuous
 62
     7
370
    20
100
AcDbText
 39
0.25
 10
-26.51792991885384
 20
413.6714837266378
 30
0.0
 40
2.0
  1
H
 41
0.6600000000000002
100
AcDbText
1001
AUSTER_ANSICHT
1002
{
1000
Det03
1002
}
1001
AUSTER_FOLIE
1002
{
1000
NSB00341_S2
1002
}
  0
TEXT
  5
D201
330
20
100
AcDbEntity
  8
10000_FRONT
  6
Continuous
 62
     7
370
    20
100
AcDbText
 39
0.25
 10
-24.97432991885387
 20
404.5966837266376
 30
0.0
 40
1.5
  1
RESET
 41
0.6600000000000002
100
AcDbText
1001
AUSTER_ANSICHT
1002
{
1000
Det03
1002
}
1001
AUSTER_FOLIE
1002
{
1000
NSB00341_S2
1002
}
  0
TEXT
  5
D202
330
20
100
AcDbEntity
  8
10000_FRONT
  6
Continuous
 62
     7
370
    20
100
AcDbText
 39
0.25
 10
-19.51792991885383
 20
413.6714837266378
 30
0.0
 40
2.0
  1
A
 41
0.6600000000000002
100
AcDbText
1001
AUSTER_ANSICHT
1002
{
1000
Det03
1002
}
1001
AUSTER_FOLIE
1002
{
1000
NSB00341_S2
1002
}
  0
TEXT
  5
D203
330
20
100
AcDbEntity
  8
10000_FRONT
  6
Continuous
 62
     7
370
    20
100
AcDbText
 39
0.25
 10
-26.51792991885384
 20
413.6714837266378
 30
0.0
 40
2.0
  1
H
 41
0.6600000000000002
100
AcDbText
1001
AUSTER_ANSICHT
1002
{
1000
Det03
1002
}
1001
AUSTER_FOLIE
1002
{
1000
NSB00341_S2
1002
}
  0
LINE
  5
D204
330
20
100
AcDbEntity
  8
11000_Left
  6
Continuous
 62
     7
370
    20
100
AcDbLine
 39
0.7
 10
164.5613176104149
 20
386.7452837266379
 30
0.0
 11
158.8441851472907
 21
386.7452837266378
 31
0.0
1001
AUSTER_ANSICHT
1002
{
1000
Det03
1002
}
1001
AUSTER_FOLIE
1002
{
1000
NSB00341_S2
1002
}
  0
LINE
  5
D205
330
20
100
AcDbEntity
  8
11000_Left
  6
Continuous
 62
     7
370
    50
100
AcDbLine
 39
0.7
 10
147.2644851472908
 20
441.4452837266377
 30
0.0
 11
147.2644851472908
 21
438.4452837266378
 31
0.0
1001
AUSTER_ANSICHT
1002
{
1000
Det03
1002
}
1001
AUSTER_FOLIE
1002
{
1000
NSB00341_S2
1002
}
  0
DIMENSION
  5
D20A
330
20
100
AcDbEntity
  8
10100_FRONT_DIM
  6
Continuous
 62
     7
370
    13
100
AcDbDimension
  2
*D1
 10
12.26527006762676
 20
356.2597368956344
 30
0.0
 11
-15.13472992561353
 21
356.2597368956344
 31
0.0
 70
    32
 71
     5
 42
54.79999998648057
  3
H035
100
AcDbAlignedDimension
 13
-42.53472991885383
 23
369.1456837266378
 33
0.0
 14
12.26527006762676
 24
369.1448229936538
 34
0.0
100
AcDbRotatedDimension
1001
ACAD
1000
DSTYLE
1002
{
1070
    40
1040
1.0
1070
    77
1070
     0
1070
   147
1040
1.5
1070
   272
1070
     0
1070
   279
1070
     1
1070
   288
1070
     1
1002
}
  0
DIMENSION
  5
D217
330
20
100
AcDbEntity
  8
10100_FRONT_DIM
  6
Continuous
 62
     7
370
    13
100
AcDbDimension
  2
*D2
 10
33.14669379408668
 20
536.7453727104068
 30
0.0
 11
33.14669379408659
 21
451.1955282185223
 31
0.0
 70
    32
 71
     5
 42
171.0996889837691
  3
H035
100
AcDbAlignedDimension
 13
10.21527008114617
 23
365.6456837266378
 33
0.0
 14
10.87101886984949
 24
536.7453727104068
 34
0.0
 50
90.0
100
AcDbRotatedDimension
1001
ACAD
1000
DSTYLE
1002
{
1070
    40
1040
1.0
1070
    77
1070
     0
1070
   147
1040
1.5
1070
   272
1070
     0
1070
   279
1070
     1
1070
   288
1070
     1
1002
}
  0
DIMENSION
  5
D224
330
20
100
AcDbEntity
  8
11100_LEFT_DIM
  6
Continuous
 62
     7
370
    13
100
AcDbDimension
  2
*D3
 10
192.5678851472908
 20
356.7330078300667
 30
0.0
 11
140.8060351472907
 21
356.7330078300667
 31
0.0
 70
    32
 71
     5
 42
103.5237000000001
  3
DSTYLE1
100
AcDbAlignedDimension
 13
89.04418514729071
 23
369.1452837266379
 33
0.0
 14
192.5678851472908
 24
409.6452837266379
 34
0.0
100
AcDbRotatedDimension
1001
ACAD
1000
DSTYLE
1002
{
1070
    41
1040
2.0
1070
    42
1040
1.0
1070
    43
1040
1.0
1070
    47
1040
0.005
1070
    48
1040
-0.005
1070
    77
1070
     0
1070
    78
1070
     0
1070
   140
1040
3.5
1070
   143
1040
25.4
1070
   171
1070
     0
1070
   172
1070
     1
1070
   271
1070
     0
1070
   272
1070
     1
1070
   277
1070
     6
1070
   279
1070
     0
1002
}
  0
DIMENSION
  5
D231
330
20
100
AcDbEntity
  8
11100_LEFT_DIM
  6
Continuous
 62
     7
370
    13
100
AcDbDimension
  2
*D4
 10
192.5678851472908
 20
349.294229717324
 30
0.0
 11
136.5560351472907
 21
349.294229717324
 31
0.0
 70
    32
 71
     5
 42
112.0237000000001
  3
DSTYLE1
100
AcDbAlignedDimension
 13
80.5441851472907
 23
466.4453837266377
 33
0.0
 14
192.5678851472908
 24
409.6452837266379
 34
0.0
100
AcDbRotatedDimension
1001
ACAD
1000
DSTYLE
1002
{
1070
    41
1040
2.0
1070
    42
1040
1.0
1070
    43
1040
1.0
1070
    47
1040
0.005
1070
    48
1040
-0.005
1070
    77
1070
     0
1070
    78
1070
     0
1070
   140
1040
3.5
1070
   143
1040
25.4
1070
   171
1070
     0
1070
   172
1070
     1
1070
   271
1070
     0
1070
   272
1070
     1
1070
   277
1070
     6
1070
   279
1070
     0
1002
}
  0
DIMENSION
  5
D23E
330
20
100
AcDbEntity
  8
11100_LEFT_DIM
  6
Continuous
 62
     7
370
    13
100
AcDbDimension
  2
*D5
 10
192.5678851472908
 20
341.9650696073495
 30
0.0
 11
129.0560351472907
 21
341.9650696073495
 31
0.0
 70
    32
 71
     5
 42
127.0237
  3
DSTYLE1
100
AcDbAlignedDimension
 13
65.5441851472907
 23
466.4453837266377
 33
0.0
 14
192.5678851472908
 24
409.6452837266379
 34
0.0
100
AcDbRotatedDimension
1001
ACAD
1000
DSTYLE
1002
{
1070
    41
1040
2.0
1070
    42
1040
1.0
1070
    43
1040
1.0
1070
    47
1040
0.005
1070
    48
1040
-0.005
1070
    77
1070
     0
1070
    78
1070
     0
1070
   140
1040
3.5
1070
   143
1040
25.4
1070
   171
1070
     0
1070
   172
1070
     1
1070
   271
1070
     0
1070
   272
1070
     1
1070
   277
1070
     6
1070
   279
1070
     0
1002
}
  0
DIMENSION
  5
D266
330
20
100
AcDbEntity
  8
10100_FRONT_DIM
  6
Continuous
 62
     7
370
    13
100
AcDbDimension
  2
*D6
 10
24.4097211218035
 20
365.6456837266378
 30
0.0
 11
24.40972112180344
 21
403.6955337266378
 31
0.0
 70
    32
 71
     5
 42
76.0997000000001
  3
H035
100
AcDbAlignedDimension
 13
10.86527008114615
 23
441.7453837266378
 33
0.0
 14
10.21527008114617
 24
365.6456837266378
 34
0.0
 50
90.0
100
AcDbRotatedDimension
1001
ACAD
1000
DSTYLE
1002
{
1070
    40
1040
1.0
1070
    77
1070
     0
1070
   147
1040
1.5
1070
   272
1070
     0
1070
   279
1070
     1
1070
   288
1070
     1
1002
}
  0
DIMENSION
  5
D2E1
330
20
100
AcDbEntity
  8
30100_Drilling_Dim
  6
Continuous
370
    13
100
AcDbDimension
  2
*D7
 10
268.6327421474465
 20
519.6411429812433
 30
0.0
 11
266.1327421474465
 21
519.6411429812433
 31
0.0
 70
    32
 71
     5
 42
5.0
  3
DSTYLE1
100
AcDbAlignedDimension
 13
263.6327421474465
 23
531.7453837266379
 33
0.0
 14
268.6327421474465
 24
531.7453837266379
 34
0.0
100
AcDbRotatedDimension
1001
ACAD
1000
DSTYLE
1002
{
1070
   140
1040
3.0
1070
    41
1040
2.0
1070
    42
1040
1.0
1070
    43
1040
1.0
1070
    47
1040
0.005
1070
    48
1040
-0.005
1070
    77
1070
     0
1070
    78
1070
     0
1070
   143
1040
25.4
1070
   171
1070
     0
1070
   172
1070
     1
1070
   271
1070
     0
1070
   272
1070
     1
1070
   277
1070
     6
1002
}
  0
DIMENSION
  5
D2E2
330
20
100
AcDbEntity
  8
30100_Drilling_Dim
  6
Continuous
370
    13
100
AcDbDimension
  2
*D8
 10
211.8086624262887
 20
531.745383726638
 30
0.0
 11
211.8086624262887
 21
484.4953037266378
 31
0.0
 70
   160
 71
     5
 42
94.50015999999999
  3
DSTYLE1
100
AcDbAlignedDimension
 13
218.6322421474465
 23
437.2452237266378
 33
0.0
 14
263.7327421474466
 24
531.7453837266379
 34
0.0
 50
90.0
100
AcDbRotatedDimension
1001
ACAD
1000
DSTYLE
1002
{
1070
   140
1040
3.0
1070
    41
1040
2.0
1070
    42
1040
1.0
1070
    43
1040
1.0
1070
    47
1040
0.005
1070
    48
1040
-0.005
1070
    77
1070
     0
1070
    78
1070
     0
1070
   143
1040
25.4
1070
   171
1070
     0
1070
   172
1070
     1
1070
   271
1070
     0
1070
   272
1070
     1
1070
   277
1070
     6
1002
}
  0
DIMENSION
  5
D2E3
330
20
100
AcDbEntity
  8
30100_Drilling_Dim
  6
Continuous
370
    13
100
AcDbDimension
  2
*D9
 10
266.1327421474465
 20
542.1505541094098
 30
0.0
 11
243.6324921474465
 21
542.1505541094098
 31
0.0
 70
    32
 71
     5
 42
45.00049999999998
  3
DSTYLE1
100
AcDbAlignedDimension
 13
221.1322421474465
 23
439.7452237266377
 33
0.0
 14
266.1327421474465
 24
534.145383726638
 34
0.0
100
AcDbRotatedDimension
1001
ACAD
1000
DSTYLE
1002
{
1070
   140
1040
3.0
1070
    41
1040
2.0
1070
    42
1040
1.0
1070
    43
1040
1.0
1070
    47
1040
0.005
1070
    48
1040
-0.005
1070
    77
1070
     0
1070
    78
1070
     0
1070
   143
1040
25.4
1070
   171
1070
     0
1070
   172
1070
     1
1070
   271
1070
     0
1070
   272
1070
     1
1070
   277
1070
     6
1002
}
  0
CIRCLE
  5
D2E4
330
20
100
AcDbEntity
  8
30000_Drilling
  6
Continuous
370
    50
100
AcDbCircle
 39
0.25
 10
266.1327421474465
 20
531.7453837266379
 30
0.0
 40
2.5
1001
AUSTER_ANSICHT
1002
{
1000
Det03
1002
}
1001
AUSTER_FOLIE
1002
{
1000
EGH_KUNDENKATALOG
1002
}
  0
CIRCLE
  5
D2E5
330
20
100
AcDbEntity
  8
30000_Drilling
  6
Continuous
370
    50
100
AcDbCircle
 39
0.25
 10
221.1322421474465
 20
437.2452237266378
 30
0.0
 40
2.5
  0
ENDSEC
  0
SECTION
  2
OBJECTS
  0
DICTIONARY
  5
C
330
0
100
AcDbDictionary
281
     1
  3
ACAD_COLOR
350
1B
  3
ACAD_GROUP
350
D
  3
ACAD_LAYOUT
350
19
  3
ACAD_MATERIAL
350
1A
  3
ACAD_MLINESTYLE
350
16
  3
ACAD_PLOTSETTINGS
350
18
  3
ACAD_PLOTSTYLENAME
350
E
  3
ACDBHEADERROUNDTRIPXREC
350
D41B
  3
AcDbVariableDictionary
350
687E
  3
DWGPROPS
350
D41A
  0
DICTIONARY
  5
1B
102
{ACAD_REACTORS
330
C
102
}
330
C
100
AcDbDictionary
281
     1
  0
DICTIONARY
  5
D
102
{ACAD_REACTORS
330
C
102
}
330
C
100
AcDbDictionary
281
     1
  0
DICTIONARY
  5
19
102
{ACAD_REACTORS
330
C
102
}
330
C
100
AcDbDictionary
281
     1
  3
Layout1
350
1F
  3
Model
350
23
  0
DICTIONARY
  5
1A
102
{ACAD_REACTORS
330
C
102
}
330
C
100
AcDbDictionary
281
     1
  0
DICTIONARY
  5
16
102
{ACAD_REACTORS
330
C
102
}
330
C
100
AcDbDictionary
281
     1
  3
Standard
350
17
  0
DICTIONARY
  5
18
102
{ACAD_REACTORS
330
C
102
}
330
C
100
AcDbDictionary
281
     1
  0
ACDBDICTIONARYWDFLT
  5
E
102
{ACAD_REACTORS
330
C
102
}
330
C
100
AcDbDictionary
281
     1
  3
Normal
350
F
100
AcDbDictionaryWithDefault
340
F
  0
DICTIONARY
  5
D41B
102
{ACAD_REACTORS
330
C
102
}
330
C
100
AcDbDictionary
281
     1
  3
COLORDICT
350
D41D
  3
MATERIALDICT
350
D41C
  0
DICTIONARY
  5
687E
102
{ACAD_REACTORS
330
C
102
}
330
C
100
AcDbDictionary
281
     1
  3
DIMASSOC
350
687F
  3
PROJECTNAME
350
6880
  0
XRECORD
  5
D41A
102
{ACAD_REACTORS
330
C
102
}
330
C
100
AcDbXrecord
280
     1
  1
DWGPROPS COOKIE
  2

  3

  4

  6

  7

  8

  9

300
=
301
=
302
=
303
=
304
=
305
=
306
=
307
=
308
=
309
=
 40
2.116981655092592
 41
2452829.417613079
 42
2453424.68293485
  1

 90
        0
  0
LAYOUT
  5
1F
102
{ACAD_XDICTIONARY
360
D41E
102
}
102
{ACAD_REACTORS
330
19
102
}
330
19
100
AcDbPlotSettings
  1

  2
HP LaserJet 5000 Series PS
  4

  6

 40
0.0
 41
0.0
 42
0.0
 43
0.0
 44
0.0
 45
0.0
 46
0.0
 47
0.0
 48
0.0
 49
0.0
140
0.0
141
0.0
142
1.0
143
1.0
 70
   688
 72
     0
 73
     0
 74
     5
  7
monochrome.ctb
 75
    16
147
1.0
148
0.0
149
0.0
100
AcDbLayout
  1
Layout1
 70
     1
 71
     1
 10
0.0
 20
0.0
 11
12.0
 21
9.0
 12
0.0
 22
0.0
 32
0.0
 14
1.000000000000000E+20
 24
1.000000000000000E+20
 34
1.000000000000000E+20
 15
-1.000000000000000E+20
 25
-1.000000000000000E+20
 35
-1.000000000000000E+20
146
0.0
 13
0.0
 23
0.0
 33
0.0
 16
1.0
 26
0.0
 36
0.0
 17
0.0
 27
1.0
 37
0.0
 76
     0
330
1C
  0
LAYOUT
  5
23
102
{ACAD_XDICTIONARY
360
D420
102
}
102
{ACAD_REACTORS
330
19
102
}
330
19
100
AcDbPlotSettings
  1

  2
\\AMBW779A\A_P00873 (Canon iR2200-3300 PCL6)
  4
A3
  6

 40
4.815416812896728
 41
4.815412044525146
 42
4.815399169921875
 43
4.8154296875
 44
296.9259948730469
 45
419.9466552734373
 46
0.0
 47
0.0
 48
0.0
 49
0.0
140
0.0
141
0.0
142
1.0
143
1.0
 70
 11952
 72
     1
 73
     1
 74
     1
  7
monochrome.ctb
 75
    16
147
1.0
148
70.61413508068778
149
-288.7597800509186
100
AcDbLayout
  1
Model
 70
     1
 71
     0
 10
0.0
 20
0.0
 11
12.0
 21
9.0
 12
0.0
 22
0.0
 32
0.0
 14
0.0
 24
0.0
 34
0.0
 15
0.0
 25
0.0
 35
0.0
146
0.0
 13
0.0
 23
0.0
 33
0.0
 16
1.0
 26
0.0
 36
0.0
 17
0.0
 27
1.0
 37
0.0
 76
     0
330
20
  0
MLINESTYLE
  5
17
102
{ACAD_REACTORS
330
16
102
}
330
16
100
AcDbMlineStyle
  2
STANDARD
 70
     0
  3

 62
   256
 51
90.0
 52
90.0
 71
     2
 49
0.5
 62
   256
  6
BYLAYER
 49
-0.5
 62
   256
  6
BYLAYER
  0
ACDBPLACEHOLDER
  5
F
102
{ACAD_REACTORS
330
E
102
}
330
E
  0
XRECORD
  5
D41D
102
{ACAD_REACTORS
330
D41B
102
}
330
D41B
100
AcDbXrecord
280
     1
340
1B
  0
XRECORD
  5
D41C
102
{ACAD_REACTORS
330
D41B
102
}
330
D41B
100
AcDbXrecord
280
     1
340
1A
  0
DICTIONARYVAR
  5
687F
102
{ACAD_REACTORS
330
687E
102
}
330
687E
100
DictionaryVariables
280
     0
  1
1
  0
DICTIONARYVAR
  5
6880
102
{ACAD_REACTORS
330
687E
102
}
330
687E
100
DictionaryVariables
280
     0
  1

  0
DICTIONARY
  5
D41E
330
1F
100
AcDbDictionary
280
     1
281
     1
  3
ACAD_XREC_ROUNDTRIP
360
D41F
  0
DICTIONARY
  5
D420
330
23
100
AcDbDictionary
280
     1
281
     1
  3
ACAD_XREC_ROUNDTRIP
360
D421
  0
XRECORD
  5
D41F
102
{ACAD_REACTORS
330
D41E
102
}
330
D41E
100
AcDbXrecord
280
     1
102
SHADEPLOT
 70
     0
102
SHADEPLOTRESLEVEL
 70
     2
102
SHADEPLOTCUSTOMDPI
 70
   300
  0
XRECORD
  5
D421
102
{ACAD_REACTORS
330
D420
102
}
330
D420
100
AcDbXrecord
280
     1
102
SHADEPLOT
 70
     1
102
SHADEPLOTRESLEVEL
 70
     2
102
SHADEPLOTCUSTOMDPI
 70
   300
  0
ENDSEC
  0
EOF
