  0
SECTION
  2
HEADER
  9
$ACADVER
  1
AC1015
  9
$ACADMAINTVER
 70
    20
  9
$DWGCODEPAGE
  3
ANSI_1252
  9
$INSBASE
 10
0.0
 20
0.0
 30
0.0
  9
$EXTMIN
 10
1055.895140728961
 20
202.2395242259448
 30
-1.000091548543316
  9
$EXTMAX
 10
1325.999379384564
 20
402.2815919863519
 30
0.5000915625135818
  9
$LIMMIN
 10
0.0
 20
0.0
  9
$LIMMAX
 10
420.0
 20
297.0
  9
$ORTHOMODE
 70
     0
  9
$REGENMODE
 70
     1
  9
$FILLMODE
 70
     1
  9
$QTEXTMODE
 70
     0
  9
$MIRRTEXT
 70
     1
  9
$LTSCALE
 40
1.0
  9
$ATTMODE
 70
     1
  9
$TEXTSIZE
 40
2.5
  9
$TRACEWID
 40
1.0
  9
$TEXTSTYLE
  7
Standard
  9
$CLAYER
  8
0
  9
$CELTYPE
  6
ByLayer
  9
$CECOLOR
 62
   256
  9
$CELTSCALE
 40
1.0
  9
$DISPSILH
 70
     0
  9
$DIMSCALE
 40
1.0
  9
$DIMASZ
 40
2.5
  9
$DIMEXO
 40
0.625
  9
$DIMDLI
 40
3.75
  9
$DIMRND
 40
0.0
  9
$DIMDLE
 40
0.0
  9
$DIMEXE
 40
1.25
  9
$DIMTP
 40
0.0
  9
$DIMTM
 40
0.0
  9
$DIMTXT
 40
2.5
  9
$DIMCEN
 40
2.5
  9
$DIMTSZ
 40
0.0
  9
$DIMTOL
 70
     0
  9
$DIMLIM
 70
     0
  9
$DIMTIH
 70
     0
  9
$DIMTOH
 70
     0
  9
$DIMSE1
 70
     0
  9
$DIMSE2
 70
     0
  9
$DIMTAD
 70
     0
  9
$DIMZIN
 70
     8
  9
$DIMBLK
  1

  9
$DIMASO
 70
     1
  9
$DIMSHO
 70
     1
  9
$DIMPOST
  1

  9
$DIMAPOST
  1

  9
$DIMALT
 70
     0
  9
$DIMALTD
 70
     3
  9
$DIMALTF
 40
0.03937007874016
  9
$DIMLFAC
 40
1.0
  9
$DIMTOFL
 70
     1
  9
$DIMTVP
 40
0.0
  9
$DIMTIX
 70
     0
  9
$DIMSOXD
 70
     0
  9
$DIMSAH
 70
     0
  9
$DIMBLK1
  1

  9
$DIMBLK2
  1

  9
$DIMSTYLE
  2
ISO-25
  9
$DIMCLRD
 70
     0
  9
$DIMCLRE
 70
     0
  9
$DIMCLRT
 70
     0
  9
$DIMTFAC
 40
1.0
  9
$DIMGAP
 40
0.625
  9
$DIMJUST
 70
     0
  9
$DIMSD1
 70
     0
  9
$DIMSD2
 70
     0
  9
$DIMTOLJ
 70
     0
  9
$DIMTZIN
 70
     8
  9
$DIMALTZ
 70
     0
  9
$DIMALTTZ
 70
     0
  9
$DIMUPT
 70
     0
  9
$DIMDEC
 70
     2
  9
$DIMTDEC
 70
     2
  9
$DIMALTU
 70
     2
  9
$DIMALTTD
 70
     3
  9
$DIMTXSTY
  7
Standard
  9
$DIMAUNIT
 70
     0
  9
$DIMADEC
 70
     0
  9
$DIMALTRND
 40
0.0
  9
$DIMAZIN
 70
     0
  9
$DIMDSEP
 70
    44
  9
$DIMATFIT
 70
     3
  9
$DIMFRAC
 70
     0
  9
$DIMLDRBLK
  1

  9
$DIMLUNIT
 70
     2
  9
$DIMLWD
 70
    -2
  9
$DIMLWE
 70
    -2
  9
$DIMTMOVE
 70
     0
  9
$LUNITS
 70
     2
  9
$LUPREC
 70
     4
  9
$SKETCHINC
 40
1.0
  9
$FILLETRAD
 40
10.0
  9
$AUNITS
 70
     0
  9
$AUPREC
 70
     0
  9
$MENU
  1
.
  9
$ELEVATION
 40
0.0
  9
$PELEVATION
 40
0.0
  9
$THICKNESS
 40
0.0
  9
$LIMCHECK
 70
     0
  9
$CHAMFERA
 40
10.0
  9
$CHAMFERB
 40
10.0
  9
$CHAMFERC
 40
20.0
  9
$CHAMFERD
 40
0.0
  9
$SKPOLY
 70
     0
  9
$TDCREATE
 40
2452662.472983287
  9
$TDUCREATE
 40
2452662.389649954
  9
$TDUPDATE
 40
2453944.595890058
  9
$TDUUPDATE
 40
2453944.512556725
  9
$TDINDWG
 40
0.2115446296
  9
$TDUSRTIMER
 40
0.2115427431
  9
$USRTIMER
 70
     1
  9
$ANGBASE
 50
0.0
  9
$ANGDIR
 70
     0
  9
$PDMODE
 70
     0
  9
$PDSIZE
 40
0.0
  9
$PLINEWID
 40
0.0
  9
$SPLFRAME
 70
     0
  9
$SPLINETYPE
 70
     6
  9
$SPLINESEGS
 70
     8
  9
$HANDSEED
  5
3E0E
  9
$SURFTAB1
 70
     6
  9
$SURFTAB2
 70
     6
  9
$SURFTYPE
 70
     6
  9
$SURFU
 70
     6
  9
$SURFV
 70
     6
  9
$UCSBASE
  2

  9
$UCSNAME
  2

  9
$UCSORG
 10
0.0
 20
0.0
 30
0.0
  9
$UCSXDIR
 10
1.0
 20
0.0
 30
0.0
  9
$UCSYDIR
 10
0.0
 20
1.0
 30
0.0
  9
$UCSORTHOREF
  2

  9
$UCSORTHOVIEW
 70
     0
  9
$UCSORGTOP
 10
0.0
 20
0.0
 30
0.0
  9
$UCSORGBOTTOM
 10
0.0
 20
0.0
 30
0.0
  9
$UCSORGLEFT
 10
0.0
 20
0.0
 30
0.0
  9
$UCSORGRIGHT
 10
0.0
 20
0.0
 30
0.0
  9
$UCSORGFRONT
 10
0.0
 20
0.0
 30
0.0
  9
$UCSORGBACK
 10
0.0
 20
0.0
 30
0.0
  9
$PUCSBASE
  2

  9
$PUCSNAME
  2

  9
$PUCSORG
 10
0.0
 20
0.0
 30
0.0
  9
$PUCSXDIR
 10
1.0
 20
0.0
 30
0.0
  9
$PUCSYDIR
 10
0.0
 20
1.0
 30
0.0
  9
$PUCSORTHOREF
  2

  9
$PUCSORTHOVIEW
 70
     0
  9
$PUCSORGTOP
 10
0.0
 20
0.0
 30
0.0
  9
$PUCSORGBOTTOM
 10
0.0
 20
0.0
 30
0.0
  9
$PUCSORGLEFT
 10
0.0
 20
0.0
 30
0.0
  9
$PUCSORGRIGHT
 10
0.0
 20
0.0
 30
0.0
  9
$PUCSORGFRONT
 10
0.0
 20
0.0
 30
0.0
  9
$PUCSORGBACK
 10
0.0
 20
0.0
 30
0.0
  9
$USERI1
 70
     0
  9
$USERI2
 70
     0
  9
$USERI3
 70
     0
  9
$USERI4
 70
     0
  9
$USERI5
 70
     0
  9
$USERR1
 40
0.0
  9
$USERR2
 40
0.0
  9
$USERR3
 40
0.0
  9
$USERR4
 40
0.0
  9
$USERR5
 40
0.0
  9
$WORLDVIEW
 70
     1
  9
$SHADEDGE
 70
     3
  9
$SHADEDIF
 70
    70
  9
$TILEMODE
 70
     1
  9
$MAXACTVP
 70
    64
  9
$PINSBASE
 10
0.0
 20
0.0
 30
0.0
  9
$PLIMCHECK
 70
     0
  9
$PEXTMIN
 10
0.0
 20
0.0
 30
0.0
  9
$PEXTMAX
 10
0.0
 20
0.0
 30
0.0
  9
$PLIMMIN
 10
0.0
 20
0.0
  9
$PLIMMAX
 10
12.0
 20
9.0
  9
$UNITMODE
 70
     0
  9
$VISRETAIN
 70
     1
  9
$PLINEGEN
 70
     0
  9
$PSLTSCALE
 70
     1
  9
$TREEDEPTH
 70
  3020
  9
$CMLSTYLE
  2
Standard
  9
$CMLJUST
 70
     0
  9
$CMLSCALE
 40
20.0
  9
$PROXYGRAPHICS
 70
     1
  9
$MEASUREMENT
 70
     1
  9
$CELWEIGHT
370
    -1
  9
$ENDCAPS
280
     0
  9
$JOINSTYLE
280
     0
  9
$LWDISPLAY
290
     0
  9
$INSUNITS
 70
     4
  9
$HYPERLINKBASE
  1

  9
$STYLESHEET
  1
MONOCHROME.CTB
  9
$XEDIT
290
     1
  9
$CEPSNTYPE
380
     0
  9
$PSTYLEMODE
290
     1
  9
$FINGERPRINTGUID
  2
{FDEAD578-A652-11D2-9A35-0060089B3A3F}
  9
$VERSIONGUID
  2
{7F4F636D-682E-4647-ACEA-4F1CCEF0E4EE}
  9
$EXTNAMES
290
     1
  9
$PSVPSCALE
 40
0.0
  9
$OLESTARTUP
290
     0
  0
ENDSEC
  0
SECTION
  2
CLASSES
  0
CLASS
  1
ACDBDICTIONARYWDFLT
  2
AcDbDictionaryWithDefault
  3
ObjectDBX Classes
 90
        0
280
     0
281
     0
  0
CLASS
  1
DICTIONARYVAR
  2
AcDbDictionaryVar
  3
ObjectDBX Classes
 90
        0
280
     0
281
     0
  0
CLASS
  1
DIMASSOC
  2
AcDbDimAssoc
  3
"AcDbDimAssoc|Product Desc:     AcDim ARX App For Dimension|Company:          Autodesk, Inc.|WEB Address:      www.autodesk.com"
 90
    32768
280
     0
281
     0
  0
CLASS
  1
ACDBPLACEHOLDER
  2
AcDbPlaceHolder
  3
ObjectDBX Classes
 90
        0
280
     0
281
     0
  0
CLASS
  1
LAYOUT
  2
AcDbLayout
  3
ObjectDBX Classes
 90
        0
280
     0
281
     0
  0
CLASS
  1
MATERIAL
  2
AcDbMaterial
  3
ObjectDBX Classes
 90
     1024
280
     0
281
     0
  0
CLASS
  1
VISUALSTYLE
  2
AcDbVisualStyle
  3
ObjectDBX Classes
 90
     4095
280
     0
281
     0
  0
CLASS
  1
TABLESTYLE
  2
AcDbTableStyle
  3
ObjectDBX Classes
 90
     4095
280
     0
281
     0
  0
CLASS
  1
SORTENTSTABLE
  2
AcDbSortentsTable
  3
ObjectDBX Classes
 90
        0
280
     0
281
     0
  0
ENDSEC
  0
SECTION
  2
TABLES
  0
TABLE
  2
VPORT
  5
8
330
0
100
AcDbSymbolTable
 70
     1
  0
VPORT
  5
3DB6
330
8
100
AcDbSymbolTableRecord
100
AcDbViewportTableRecord
  2
*Active
 70
     0
 10
0.0
 20
0.0
 11
1.0
 21
1.0
 12
1190.947260056762
 22
302.2605581061484
 13
0.0
 23
0.0
 14
10.0
 24
10.0
 15
10.0
 25
10.0
 16
0.0
 26
0.0
 36
1.0
 17
0.0
 27
0.0
 37
0.0
 40
201.2768953391751
 41
1.918640576725025
 42
50.0
 43
0.0
 44
0.0
 50
0.0
 51
0.0
 71
     0
 72
   100
 73
     1
 74
     3
 75
     0
 76
     0
 77
     0
 78
     0
281
     0
 65
     1
110
0.0
120
0.0
130
0.0
111
1.0
121
0.0
131
0.0
112
0.0
122
1.0
132
0.0
 79
     0
146
0.0
  0
ENDTAB
  0
TABLE
  2
LTYPE
  5
5
330
0
100
AcDbSymbolTable
 70
     3
  0
LTYPE
  5
14
330
5
100
AcDbSymbolTableRecord
100
AcDbLinetypeTableRecord
  2
ByBlock
 70
     0
  3

 72
    65
 73
     0
 40
0.0
  0
LTYPE
  5
15
330
5
100
AcDbSymbolTableRecord
100
AcDbLinetypeTableRecord
  2
ByLayer
 70
     0
  3

 72
    65
 73
     0
 40
0.0
  0
LTYPE
  5
16
330
5
100
AcDbSymbolTableRecord
100
AcDbLinetypeTableRecord
  2
Continuous
 70
     0
  3
Solid line
 72
    65
 73
     0
 40
0.0
  0
LTYPE
  5
2083
330
5
100
AcDbSymbolTableRecord
100
AcDbLinetypeTableRecord
  2
CENTER
 70
     0
  3
____ _ ____ _ ____ _ ____ _ ____ _ ____ _ ____
 72
    65
 73
     4
 40
0.6
 49
0.375
 74
     0
 49
-0.075
 74
     0
 49
0.075
 74
     0
 49
-0.075
 74
     0
  0
ENDTAB
  0
TABLE
  2
LAYER
  5
2
330
0
100
AcDbSymbolTable
 70
    10
  0
LAYER
  5
10
330
2
100
AcDbSymbolTableRecord
100
AcDbLayerTableRecord
  2
0
 70
     0
 62
     7
  6
Continuous
370
    -3
390
F
  0
LAYER
  5
1F03
330
2
100
AcDbSymbolTableRecord
100
AcDbLayerTableRecord
  2
Defpoints
 70
     0
 62
     7
  6
Continuous
290
     0
370
    -3
390
F
  0
LAYER
  5
2084
330
2
100
AcDbSymbolTableRecord
100
AcDbLayerTableRecord
  2
91000_TIP
 70
     0
 62
     7
  6
Continuous
370
    -3
390
F
  0
LAYER
  5
2085
330
2
100
AcDbSymbolTableRecord
100
AcDbLayerTableRecord
  2
11000_Left
 70
     0
 62
     7
  6
Continuous
370
    -3
390
F
  0
LAYER
  5
214D
330
2
100
AcDbSymbolTableRecord
100
AcDbLayerTableRecord
  2
10000_FRONT
 70
     0
 62
     7
  6
Continuous
370
    -3
390
F
  0
LAYER
  5
214E
330
2
100
AcDbSymbolTableRecord
100
AcDbLayerTableRecord
  2
10100_FRONT_DIM
 70
     0
 62
     7
  6
Continuous
370
    -3
390
F
  0
LAYER
  5
214F
330
2
100
AcDbSymbolTableRecord
100
AcDbLayerTableRecord
  2
90000_FRAME
 70
     0
 62
     7
  6
Continuous
370
    -3
390
F
  0
LAYER
  5
2150
330
2
100
AcDbSymbolTableRecord
100
AcDbLayerTableRecord
  2
11100_LEFT_DIM
 70
     0
 62
     7
  6
Continuous
370
    -3
390
F
  0
LAYER
  5
3312
330
2
100
AcDbSymbolTableRecord
100
AcDbLayerTableRecord
  2
30000_Drilling
 70
     0
 62
     7
  6
Continuous
370
    -3
390
F
  0
LAYER
  5
3313
330
2
100
AcDbSymbolTableRecord
100
AcDbLayerTableRecord
  2
30100_Drilling_DIM
 70
     0
 62
     7
  6
Continuous
370
    -3
390
F
  0
ENDTAB
  0
TABLE
  2
STYLE
  5
3
330
0
100
AcDbSymbolTable
 70
     1
  0
STYLE
  5
11
330
3
100
AcDbSymbolTableRecord
100
AcDbTextStyleTableRecord
  2
Standard
 70
     0
 40
0.0
 41
1.0
 50
0.0
 71
     0
 42
2.5
  3
txt
  4

  0
ENDTAB
  0
TABLE
  2
VIEW
  5
6
330
0
100
AcDbSymbolTable
 70
     0
  0
ENDTAB
  0
TABLE
  2
UCS
  5
7
330
0
100
AcDbSymbolTable
 70
     0
  0
ENDTAB
  0
TABLE
  2
APPID
  5
9
330
0
100
AcDbSymbolTable
 70
     4
  0
APPID
  5
12
330
9
100
AcDbSymbolTableRecord
100
AcDbRegAppTableRecord
  2
ACAD
 70
     0
  0
APPID
  5
1C6
330
9
100
AcDbSymbolTableRecord
100
AcDbRegAppTableRecord
  2
AUSTER_ANSICHT
 70
     0
  0
APPID
  5
1C7
330
9
100
AcDbSymbolTableRecord
100
AcDbRegAppTableRecord
  2
AUSTER_FOLIE
 70
     0
  0
APPID
  5
3DF5
330
9
100
AcDbSymbolTableRecord
100
AcDbRegAppTableRecord
  2
ACAD_EXEMPT_FROM_CAD_STANDARDS
 70
     0
  0
ENDTAB
  0
TABLE
  2
DIMSTYLE
  5
A
330
0
100
AcDbSymbolTable
 70
     4
100
AcDbDimStyleTable
 71
     2
340
27
340
2086
  0
DIMSTYLE
105
27
330
A
100
AcDbSymbolTableRecord
100
AcDbDimStyleTableRecord
  2
ISO-25
 70
     0
 41
2.5
 42
0.625
 43
3.75
 44
1.25
 73
     0
 74
     0
 78
     8
140
2.5
141
2.5
143
0.03937007874016
147
0.625
171
     3
172
     1
271
     2
272
     2
274
     3
278
    44
283
     0
284
     8
340
11
  0
DIMSTYLE
105
EE
330
A
100
AcDbSymbolTableRecord
100
AcDbDimStyleTableRecord
  2
Standard
 70
     0
340
11
  0
DIMSTYLE
105
2086
102
{ACAD_REACTORS
330
2B2C
330
2B2D
330
2B27
330
2B26
330
2B25
330
2B28
330
2B29
330
2B2A
330
2B2B
102
}
330
A
100
AcDbSymbolTableRecord
100
AcDbDimStyleTableRecord
  2
DSTYLE1
 70
     0
 41
3.0
 42
0.0
 44
1.0
 73
     0
 74
     0
 77
     1
 78
     3
140
2.5
143
0.039370079
147
1.0
271
     3
272
     3
274
     0
279
     2
340
11
  0
ENDTAB
  0
TABLE
  2
BLOCK_RECORD
  5
1
330
0
100
AcDbSymbolTable
 70
    12
  0
BLOCK_RECORD
  5
1F
102
{ACAD_XDICTIONARY
360
3DF2
102
}
330
1
100
AcDbSymbolTableRecord
100
AcDbBlockTableRecord
  2
*Model_Space
340
22
  0
BLOCK_RECORD
  5
50
330
1
100
AcDbSymbolTableRecord
100
AcDbBlockTableRecord
  2
*Paper_Space
340
51
  0
BLOCK_RECORD
  5
55
330
1
100
AcDbSymbolTableRecord
100
AcDbBlockTableRecord
  2
*Paper_Space0
340
56
  0
BLOCK_RECORD
  5
6C
330
1
100
AcDbSymbolTableRecord
100
AcDbBlockTableRecord
  2
SIEMENS_OUTLINE_BL0
340
0
102
{BLKREFS
331
117
102
}
  0
BLOCK_RECORD
  5
317A
330
1
100
AcDbSymbolTableRecord
100
AcDbBlockTableRecord
  2
*D2
340
0
  0
BLOCK_RECORD
  5
3187
330
1
100
AcDbSymbolTableRecord
100
AcDbBlockTableRecord
  2
*D3
340
0
  0
BLOCK_RECORD
  5
3194
330
1
100
AcDbSymbolTableRecord
100
AcDbBlockTableRecord
  2
*D4
340
0
  0
BLOCK_RECORD
  5
31A2
330
1
100
AcDbSymbolTableRecord
100
AcDbBlockTableRecord
  2
*D5
340
0
  0
BLOCK_RECORD
  5
31AF
330
1
100
AcDbSymbolTableRecord
100
AcDbBlockTableRecord
  2
*D6
340
0
  0
BLOCK_RECORD
  5
31BC
330
1
100
AcDbSymbolTableRecord
100
AcDbBlockTableRecord
  2
*D7
340
0
  0
BLOCK_RECORD
  5
31CB
330
1
100
AcDbSymbolTableRecord
100
AcDbBlockTableRecord
  2
*D8
340
0
  0
BLOCK_RECORD
  5
31D8
330
1
100
AcDbSymbolTableRecord
100
AcDbBlockTableRecord
  2
*D9
340
0
  0
BLOCK_RECORD
  5
31E7
330
1
100
AcDbSymbolTableRecord
100
AcDbBlockTableRecord
  2
*D10
340
0
  0
ENDTAB
  0
ENDSEC
  0
SECTION
  2
BLOCKS
  0
BLOCK
  5
20
330
1F
100
AcDbEntity
  8
0
100
AcDbBlockBegin
  2
*Model_Space
 70
     0
 10
0.0
 20
0.0
 30
0.0
  3
*Model_Space
  1

  0
ENDBLK
  5
21
330
1F
100
AcDbEntity
  8
0
100
AcDbBlockEnd
  0
BLOCK
  5
52
330
50
100
AcDbEntity
 67
     1
  8
0
100
AcDbBlockBegin
  2
*Paper_Space
 70
     0
 10
0.0
 20
0.0
 30
0.0
  3
*Paper_Space
  1

  0
ENDBLK
  5
53
330
50
100
AcDbEntity
 67
     1
  8
0
100
AcDbBlockEnd
  0
BLOCK
  5
57
330
55
100
AcDbEntity
 67
     1
  8
0
100
AcDbBlockBegin
  2
*Paper_Space0
 70
     0
 10
0.0
 20
0.0
 30
0.0
  3
*Paper_Space0
  1

  0
ENDBLK
  5
58
330
55
100
AcDbEntity
 67
     1
  8
0
100
AcDbBlockEnd
  0
BLOCK
  5
D5
330
6C
100
AcDbEntity
  8
0
  6
Continuous
 62
     7
100
AcDbBlockBegin
  2
SIEMENS_OUTLINE_BL0
 70
     0
 10
0.0
 20
0.0
 30
0.0
  3
SIEMENS_OUTLINE_BL0
  1

  0
LINE
  5
6D
330
6C
100
AcDbEntity
  8
0
  6
Continuous
 62
     7
100
AcDbLine
 10
79.186200508
 20
21.4145478991
 30
0.0
 11
79.186200508
 21
16.6612788158
 31
0.0
  0
LINE
  5
6E
330
6C
100
AcDbEntity
  8
0
  6
Continuous
 62
     7
100
AcDbLine
 10
80.61218123299999
 20
21.4145478991
 30
0.0
 11
80.61218123299999
 21
16.6612788158
 31
0.0
  0
LINE
  5
6F
330
6C
100
AcDbEntity
  8
0
  6
Continuous
 62
     7
100
AcDbLine
 10
79.186200508
 20
16.6612788158
 30
0.0
 11
80.61218123299999
 21
16.6612788158
 31
0.0
  0
LINE
  5
70
330
6C
100
AcDbEntity
  8
0
  6
Continuous
 62
     7
100
AcDbLine
 10
79.186200508
 20
21.4145478991
 30
0.0
 11
80.61218123299999
 21
21.4145478991
 31
0.0
  0
LINE
  5
71
330
6C
100
AcDbEntity
  8
0
  6
Continuous
 62
     7
100
AcDbLine
 10
81.7054331221
 20
21.4145478991
 30
0.0
 11
81.7054331221
 21
16.6612788158
 31
0.0
  0
LINE
  5
72
330
6C
100
AcDbEntity
  8
0
  6
Continuous
 62
     7
100
AcDbLine
 10
81.7054331221
 20
16.6612788158
 30
0.0
 11
85.2703849346
 21
16.6612788158
 31
0.0
  0
LINE
  5
73
330
6C
100
AcDbEntity
  8
0
  6
Continuous
 62
     7
100
AcDbLine
 10
85.2703849346
 20
17.56439994169999
 30
0.0
 11
83.0838811563
 21
17.56439994169999
 31
0.0
  0
LINE
  5
74
330
6C
100
AcDbEntity
  8
0
  6
Continuous
 62
     7
100
AcDbLine
 10
85.2703849346
 20
17.56439994169999
 30
0.0
 11
85.2703849346
 21
16.6612788158
 31
0.0
  0
LINE
  5
75
330
6C
100
AcDbEntity
  8
0
  6
Continuous
 62
     7
100
AcDbLine
 10
85.2228522438
 20
21.4145478991
 30
0.0
 11
81.7054331221
 21
21.4145478991
 31
0.0
  0
LINE
  5
76
330
6C
100
AcDbEntity
  8
0
  6
Continuous
 62
     7
100
AcDbLine
 10
85.2228522438
 20
20.5351931187
 30
0.0
 11
83.0838811563
 21
20.5351931187
 31
0.0
  0
LINE
  5
77
330
6C
100
AcDbEntity
  8
0
  6
Continuous
 62
     7
100
AcDbLine
 10
85.2228522438
 20
21.4145478991
 30
0.0
 11
85.2228522438
 21
20.5351931187
 31
0.0
  0
LINE
  5
78
330
6C
100
AcDbEntity
  8
0
  6
Continuous
 62
     7
100
AcDbLine
 10
84.9376560988
 20
18.68141817619999
 30
0.0
 11
83.0838811563
 21
18.68141817619999
 31
0.0
  0
LINE
  5
79
330
6C
100
AcDbEntity
  8
0
  6
Continuous
 62
     7
100
AcDbLine
 10
84.9376560988
 20
19.46570757499999
 30
0.0
 11
84.9376560988
 21
18.68141817619999
 31
0.0
  0
LINE
  5
7A
330
6C
100
AcDbEntity
  8
0
  6
Continuous
 62
     7
100
AcDbLine
 10
84.9376560988
 20
19.46570757499999
 30
0.0
 11
83.0838811563
 21
19.46570757499999
 31
0.0
  0
LINE
  5
7B
330
6C
100
AcDbEntity
  8
0
  6
Continuous
 62
     7
100
AcDbLine
 10
83.0838811563
 20
20.5351931187
 30
0.0
 11
83.0838811563
 21
19.46570757499999
 31
0.0
  0
LINE
  5
7C
330
6C
100
AcDbEntity
  8
0
  6
Continuous
 62
     7
100
AcDbLine
 10
83.0838811563
 20
18.68141817619999
 30
0.0
 11
83.0838811563
 21
17.56439994169999
 31
0.0
  0
LINE
  5
7D
330
6C
100
AcDbEntity
  8
0
  6
Continuous
 62
     7
100
AcDbLine
 10
86.0784406788
 20
16.6612788158
 30
0.0
 11
86.0784406788
 21
21.4145478991
 31
0.0
  0
LINE
  5
7E
330
6C
100
AcDbEntity
  8
0
  6
Continuous
 62
     7
100
AcDbLine
 10
86.0784406788
 20
16.6612788158
 30
0.0
 11
87.02909449539999
 21
16.6612788158
 31
0.0
  0
LINE
  5
7F
330
6C
100
AcDbEntity
  8
0
  6
Continuous
 62
     7
100
AcDbLine
 10
91.92496165120001
 20
21.4145478991
 30
0.0
 11
91.92496165120001
 21
16.6612788158
 31
0.0
  0
LINE
  5
80
330
6C
100
AcDbEntity
  8
0
  6
Continuous
 62
     7
100
AcDbLine
 10
91.92496165120001
 20
16.6612788158
 30
0.0
 11
90.54651361700001
 21
16.6612788158
 31
0.0
  0
LINE
  5
81
330
6C
100
AcDbEntity
  8
0
  6
Continuous
 62
     7
100
AcDbLine
 10
88.3600098387
 20
16.61374612499999
 30
0.0
 11
89.21559827370002
 21
16.61374612499999
 31
0.0
  0
LINE
  5
82
330
6C
100
AcDbEntity
  8
0
  6
Continuous
 62
     7
100
AcDbLine
 10
88.3600098387
 20
16.61374612499999
 30
0.0
 11
87.02909449539999
 21
19.7033710291
 31
0.0
  0
LINE
  5
83
330
6C
100
AcDbEntity
  8
0
  6
Continuous
 62
     7
100
AcDbLine
 10
87.02909449539999
 20
16.6612788158
 30
0.0
 11
87.02909449539999
 21
19.7033710291
 31
0.0
  0
LINE
  5
84
330
6C
100
AcDbEntity
  8
0
  6
Continuous
 62
     7
100
AcDbLine
 10
90.54651361700001
 20
19.75090372
 30
0.0
 11
89.21559827370002
 21
16.61374612499999
 31
0.0
  0
LINE
  5
85
330
6C
100
AcDbEntity
  8
0
  6
Continuous
 62
     7
100
AcDbLine
 10
87.78961754870001
 20
21.4145478991
 30
0.0
 11
86.0784406788
 21
21.4145478991
 31
0.0
  0
LINE
  5
86
330
6C
100
AcDbEntity
  8
0
  6
Continuous
 62
     7
100
AcDbLine
 10
91.92496165120001
 20
21.4145478991
 30
0.0
 11
90.2137847812
 21
21.4145478991
 31
0.0
  0
LINE
  5
87
330
6C
100
AcDbEntity
  8
0
  6
Continuous
 62
     7
100
AcDbLine
 10
87.78961754870001
 20
21.4145478991
 30
0.0
 11
89.0254675104
 21
18.51505375829999
 31
0.0
  0
LINE
  5
88
330
6C
100
AcDbEntity
  8
0
  6
Continuous
 62
     7
100
AcDbLine
 10
90.2137847812
 20
21.4145478991
 30
0.0
 11
89.0254675104
 21
18.51505375829999
 31
0.0
  0
LINE
  5
89
330
6C
100
AcDbEntity
  8
0
  6
Continuous
 62
     7
100
AcDbLine
 10
90.54651361700001
 20
19.75090372
 30
0.0
 11
90.54651361700001
 21
16.6612788158
 31
0.0
  0
LINE
  5
8A
330
6C
100
AcDbEntity
  8
0
  6
Continuous
 62
     7
100
AcDbLine
 10
93.01821354030002
 20
21.4145478991
 30
0.0
 11
93.01821354030002
 21
16.6612788158
 31
0.0
  0
LINE
  5
8B
330
6C
100
AcDbEntity
  8
0
  6
Continuous
 62
     7
100
AcDbLine
 10
93.01821354030002
 20
16.6612788158
 30
0.0
 11
96.5831653528
 21
16.6612788158
 31
0.0
  0
LINE
  5
8C
330
6C
100
AcDbEntity
  8
0
  6
Continuous
 62
     7
100
AcDbLine
 10
96.5831653528
 20
17.56439994169999
 30
0.0
 11
94.3966615745
 21
17.56439994169999
 31
0.0
  0
LINE
  5
8D
330
6C
100
AcDbEntity
  8
0
  6
Continuous
 62
     7
100
AcDbLine
 10
96.5831653528
 20
17.56439994169999
 30
0.0
 11
96.5831653528
 21
16.6612788158
 31
0.0
  0
LINE
  5
8E
330
6C
100
AcDbEntity
  8
0
  6
Continuous
 62
     7
100
AcDbLine
 10
96.53563266200002
 20
21.4145478991
 30
0.0
 11
93.01821354030002
 21
21.4145478991
 31
0.0
  0
LINE
  5
8F
330
6C
100
AcDbEntity
  8
0
  6
Continuous
 62
     7
100
AcDbLine
 10
96.53563266200002
 20
20.5351931187
 30
0.0
 11
94.3966615745
 21
20.5351931187
 31
0.0
  0
LINE
  5
90
330
6C
100
AcDbEntity
  8
0
  6
Continuous
 62
     7
100
AcDbLine
 10
96.53563266200002
 20
21.4145478991
 30
0.0
 11
96.53563266200002
 21
20.5351931187
 31
0.0
  0
LINE
  5
91
330
6C
100
AcDbEntity
  8
0
  6
Continuous
 62
     7
100
AcDbLine
 10
96.25043651700002
 20
18.68141817619999
 30
0.0
 11
94.3966615745
 21
18.68141817619999
 31
0.0
  0
LINE
  5
92
330
6C
100
AcDbEntity
  8
0
  6
Continuous
 62
     7
100
AcDbLine
 10
96.25043651700002
 20
19.46570757499999
 30
0.0
 11
96.25043651700002
 21
18.68141817619999
 31
0.0
  0
LINE
  5
93
330
6C
100
AcDbEntity
  8
0
  6
Continuous
 62
     7
100
AcDbLine
 10
96.25043651700002
 20
19.46570757499999
 30
0.0
 11
94.3966615745
 21
19.46570757499999
 31
0.0
  0
LINE
  5
94
330
6C
100
AcDbEntity
  8
0
  6
Continuous
 62
     7
100
AcDbLine
 10
94.3966615745
 20
20.5351931187
 30
0.0
 11
94.3966615745
 21
19.46570757499999
 31
0.0
  0
LINE
  5
95
330
6C
100
AcDbEntity
  8
0
  6
Continuous
 62
     7
100
AcDbLine
 10
94.3966615745
 20
18.68141817619999
 30
0.0
 11
94.3966615745
 21
17.56439994169999
 31
0.0
  0
LINE
  5
96
330
6C
100
AcDbEntity
  8
0
  6
Continuous
 62
     7
100
AcDbLine
 10
97.3674547515
 20
16.6612788158
 30
0.0
 11
97.3674547515
 21
21.4145478991
 31
0.0
  0
LINE
  5
97
330
6C
100
AcDbEntity
  8
0
  6
Continuous
 62
     7
100
AcDbLine
 10
101.5503315447999
 20
21.4145478991
 30
0.0
 11
101.5503315447999
 21
16.6612788158
 31
0.0
  0
LINE
  5
98
330
6C
100
AcDbEntity
  8
0
  6
Continuous
 62
     7
100
AcDbLine
 10
97.3674547515
 20
16.6612788158
 30
0.0
 11
98.3181085682
 21
16.6612788158
 31
0.0
  0
LINE
  5
99
330
6C
100
AcDbEntity
  8
0
  6
Continuous
 62
     7
100
AcDbLine
 10
101.5503315447999
 20
21.4145478991
 30
0.0
 11
100.5996777281999
 21
21.4145478991
 31
0.0
  0
LINE
  5
9A
330
6C
100
AcDbEntity
  8
0
  6
Continuous
 62
     7
100
AcDbLine
 10
98.91226720360002
 20
21.4145478991
 30
0.0
 11
97.3674547515
 21
21.4145478991
 31
0.0
  0
LINE
  5
9B
330
6C
100
AcDbEntity
  8
0
  6
Continuous
 62
     7
100
AcDbLine
 10
101.5503315447999
 20
16.6612788158
 30
0.0
 11
100.0292854381999
 21
16.6612788158
 31
0.0
  0
LINE
  5
9C
330
6C
100
AcDbEntity
  8
0
  6
Continuous
 62
     7
100
AcDbLine
 10
100.0292854381999
 20
16.6612788158
 30
0.0
 11
98.3181085682
 21
19.7033710291
 31
0.0
  0
LINE
  5
9D
330
6C
100
AcDbEntity
  8
0
  6
Continuous
 62
     7
100
AcDbLine
 10
98.91226720360002
 20
21.4145478991
 30
0.0
 11
100.5996777281999
 21
18.4675210675
 31
0.0
  0
LINE
  5
9E
330
6C
100
AcDbEntity
  8
0
  6
Continuous
 62
     7
100
AcDbLine
 10
100.5996777281999
 20
21.4145478991
 30
0.0
 11
100.5996777281999
 21
18.4675210675
 31
0.0
  0
LINE
  5
9F
330
6C
100
AcDbEntity
  8
0
  6
Continuous
 62
     7
100
AcDbLine
 10
98.3181085682
 20
16.6612788158
 30
0.0
 11
98.3181085682
 21
19.7033710291
 31
0.0
  0
LINE
  5
A0
330
6C
100
AcDbEntity
  8
0
  6
Continuous
 62
     7
100
AcDbLine
 10
102.3583872889999
 20
16.75634419749999
 30
0.0
 11
102.3583872889999
 21
17.7069980142
 31
0.0
  0
LINE
  5
A1
330
6C
100
AcDbEntity
  8
0
  6
Continuous
 62
     7
100
AcDbLine
 10
105.6856756473
 20
20.4163613916
 30
0.0
 11
105.6856756473
 21
21.36701520829999
 31
0.0
  0
ARC
  5
A2
330
6C
100
AcDbEntity
  8
0
  6
Continuous
 62
     7
100
AcDbCircle
 10
104.063028414
 20
18.61843736089998
 30
0.0
 40
1.111619360599997
100
AcDbArc
 50
277.7099956934
 51
295.6884927745999
  0
ARC
  5
A3
330
6C
100
AcDbEntity
  8
0
  6
Continuous
 62
     7
100
AcDbCircle
 10
104.3473383967
 20
17.8936115972
 30
0.0
 40
0.3401689265
100
AcDbArc
 50
305.503221255
 51
72.46528985229999
  0
ARC
  5
A4
330
6C
100
AcDbEntity
  8
0
  6
Continuous
 62
     7
100
AcDbCircle
 10
103.7813445885999
 20
21.2953185068
 30
0.0
 40
4.756794641099999
100
AcDbArc
 50
252.5939200548001
 51
280.9816604255999
  0
ARC
  5
A5
330
6C
100
AcDbEntity
  8
0
  6
Continuous
 62
     7
100
AcDbCircle
 10
104.2361799517
 20
18.6773047703
 30
0.0
 40
2.100726595299998
100
AcDbArc
 50
282.4058358519999
 51
311.8644433928
  0
ARC
  5
A6
330
6C
100
AcDbEntity
  8
0
  6
Continuous
 62
     7
100
AcDbCircle
 10
103.9626156045999
 20
20.2856464918
 30
0.0
 40
0.3029626476
100
AcDbArc
 50
154.4400348282
 51
221.8201698800999
  0
ARC
  5
A7
330
6C
100
AcDbEntity
  8
0
  6
Continuous
 62
     7
100
AcDbCircle
 10
104.0418367559
 20
20.2064253405
 30
0.0
 40
0.4103089737
100
AcDbArc
 50
102.8287828680999
 51
149.2259639003
  0
ARC
  5
A8
330
6C
100
AcDbEntity
  8
0
  6
Continuous
 62
     7
100
AcDbCircle
 10
104.4588635915999
 20
18.46409001059999
 30
0.0
 40
2.201836557
100
AcDbArc
 50
84.0400061857
 51
103.3427657870999
  0
ARC
  5
A9
330
6C
100
AcDbEntity
  8
0
  6
Continuous
 62
     7
100
AcDbCircle
 10
104.1178997669
 20
16.0467260867
 30
0.0
 40
4.642373736499997
100
AcDbArc
 50
70.2625858546
 51
82.95241863799999
  0
ARC
  5
AA
330
6C
100
AcDbEntity
  8
0
  6
Continuous
 62
     7
100
AcDbCircle
 10
103.6038815646999
 20
20.7183489764
 30
0.0
 40
3.258755990899997
100
AcDbArc
 50
247.5300206145
 51
280.7579522143
  0
ARC
  5
AB
330
6C
100
AcDbEntity
  8
0
  6
Continuous
 62
     7
100
AcDbCircle
 10
97.21891509270001
 20
2.4668290159
 30
0.0
 40
17.3316084133
100
AcDbArc
 50
65.34146746500001
 51
67.39977707359999
  0
ARC
  5
AC
330
6C
100
AcDbEntity
  8
0
  6
Continuous
 62
     7
100
AcDbCircle
 10
108.0147774981
 20
28.259255379
 30
0.0
 40
10.6291642039
100
AcDbArc
 50
242.8620101252001
 51
247.1042029186
  0
ARC
  5
AD
330
6C
100
AcDbEntity
  8
0
  6
Continuous
 62
     7
100
AcDbCircle
 10
104.1598762715
 20
20.725323882
 30
0.0
 40
2.166291629199998
100
AcDbArc
 50
227.3119280793999
 51
242.7040315235
  0
ARC
  5
AE
330
6C
100
AcDbEntity
  8
0
  6
Continuous
 62
     7
100
AcDbCircle
 10
103.5558454618999
 20
20.0196462412
 30
0.0
 40
1.238521734
100
AcDbArc
 50
194.7952194236
 51
225.7176549047
  0
ARC
  5
AF
330
6C
100
AcDbEntity
  8
0
  6
Continuous
 62
     7
100
AcDbCircle
 10
103.6180035961
 20
20.05986621039999
 30
0.0
 40
1.309092072899999
100
AcDbArc
 50
164.1974860461
 51
195.8025139539
  0
ARC
  5
B0
330
6C
100
AcDbEntity
  8
0
  6
Continuous
 62
     7
100
AcDbCircle
 10
104.1750273167
 20
19.1715990505
 30
0.0
 40
2.366924815299999
100
AcDbArc
 50
86.22180229280001
 51
120.4272602309
  0
ARC
  5
B1
330
6C
100
AcDbEntity
  8
0
  6
Continuous
 62
     7
100
AcDbCircle
 10
103.9061705341999
 20
12.4754312294
 30
0.0
 40
9.0679051661
100
AcDbArc
 50
78.68270492259998
 51
87.3147599624
  0
ARC
  5
B2
330
6C
100
AcDbEntity
  8
0
  6
Continuous
 62
     7
100
AcDbCircle
 10
103.4501013557999
 20
20.1673739729
 30
0.0
 40
1.119747444
100
AcDbArc
 50
142.8139179029999
 51
167.1522951416999
  0
ARC
  5
B3
330
6C
100
AcDbEntity
  8
0
  6
Continuous
 62
     7
100
AcDbCircle
 10
103.7954106973999
 20
19.86079227619999
 30
0.0
 40
1.580546684499998
100
AcDbArc
 50
121.2140948535
 51
141.5254768286
  0
ARC
  5
B4
330
6C
100
AcDbEntity
  8
0
  6
Continuous
 62
     7
100
AcDbCircle
 10
104.372585063
 20
20.6718496049
 30
0.0
 40
0.8661276051999998
100
AcDbArc
 50
222.7760387596
 51
239.0362434679
  0
ARC
  5
B5
330
6C
100
AcDbEntity
  8
0
  6
Continuous
 62
     7
100
AcDbCircle
 10
101.8658754847
 20
13.3415774063
 30
0.0
 40
6.858773576299999
100
AcDbArc
 50
59.90202725599999
 51
68.2036481279
  0
ARC
  5
B6
330
6C
100
AcDbEntity
  8
0
  6
Continuous
 62
     7
100
AcDbCircle
 10
105.2743699785
 20
22.26746391349999
 30
0.0
 40
2.698741017099999
100
AcDbArc
 50
240.0481997804
 51
251.3779673736999
  0
ARC
  5
B7
330
6C
100
AcDbEntity
  8
0
  6
Continuous
 62
     7
100
AcDbCircle
 10
104.6089128116999
 20
18.1105652982
 30
0.0
 40
1.4334474881
100
AcDbArc
 50
315.8904553224
 51
333.5229264372999
  0
ARC
  5
B8
330
6C
100
AcDbEntity
  8
0
  6
Continuous
 62
     7
100
AcDbCircle
 10
104.6135510555
 20
18.057158148
 30
0.0
 40
1.406228711899998
100
AcDbArc
 50
335.3867972702
 51
24.39151194019999
  0
ARC
  5
B9
330
6C
100
AcDbEntity
  8
0
  6
Continuous
 62
     7
100
AcDbCircle
 10
104.5413461519
 20
17.97930145619999
 30
0.0
 40
1.504702514799999
100
AcDbArc
 50
25.95629166050001
 51
59.4834829668
  0
LINE
  5
BA
330
6C
100
AcDbEntity
  8
0
  6
Continuous
 62
     7
100
AcDbLine
 10
74.7656602606
 20
16.75634419749999
 30
0.0
 11
74.7656602606
 21
17.7069980142
 31
0.0
  0
LINE
  5
BB
330
6C
100
AcDbEntity
  8
0
  6
Continuous
 62
     7
100
AcDbLine
 10
78.09294861879997
 20
20.4163613916
 30
0.0
 11
78.09294861879997
 21
21.36701520829999
 31
0.0
  0
ARC
  5
BC
330
6C
100
AcDbEntity
  8
0
  6
Continuous
 62
     7
100
AcDbCircle
 10
76.4703013855
 20
18.61843736089998
 30
0.0
 40
1.111619360599997
100
AcDbArc
 50
277.7099956934
 51
295.6884927745999
  0
ARC
  5
BD
330
6C
100
AcDbEntity
  8
0
  6
Continuous
 62
     7
100
AcDbCircle
 10
76.7546113683
 20
17.8936115972
 30
0.0
 40
0.3401689265
100
AcDbArc
 50
305.5032212556
 51
72.4652898515
  0
ARC
  5
BE
330
6C
100
AcDbEntity
  8
0
  6
Continuous
 62
     7
100
AcDbCircle
 10
76.1886175602
 20
21.2953185068
 30
0.0
 40
4.756794641099999
100
AcDbArc
 50
252.5939200545
 51
280.9816604253
  0
ARC
  5
BF
330
6C
100
AcDbEntity
  8
0
  6
Continuous
 62
     7
100
AcDbCircle
 10
76.64345292330001
 20
18.6773047703
 30
0.0
 40
2.100726595299998
100
AcDbArc
 50
282.4058358513
 51
311.8644433923
  0
ARC
  5
C0
330
6C
100
AcDbEntity
  8
0
  6
Continuous
 62
     7
100
AcDbCircle
 10
76.3698885762
 20
20.2856464918
 30
0.0
 40
0.3029626476
100
AcDbArc
 50
154.4400348282
 51
221.8201698800999
  0
ARC
  5
C1
330
6C
100
AcDbEntity
  8
0
  6
Continuous
 62
     7
100
AcDbCircle
 10
76.4491097276
 20
20.2064253405
 30
0.0
 40
0.4103089737
100
AcDbArc
 50
102.8287828727
 51
149.2259639027
  0
ARC
  5
C2
330
6C
100
AcDbEntity
  8
0
  6
Continuous
 62
     7
100
AcDbCircle
 10
76.8661365632
 20
18.46409001059999
 30
0.0
 40
2.201836557
100
AcDbArc
 50
84.0400061859
 51
103.3427657871999
  0
ARC
  5
C3
330
6C
100
AcDbEntity
  8
0
  6
Continuous
 62
     7
100
AcDbCircle
 10
76.5251727384
 20
16.0467260867
 30
0.0
 40
4.642373736499997
100
AcDbArc
 50
70.2625858546
 51
82.9524186379
  0
ARC
  5
C4
330
6C
100
AcDbEntity
  8
0
  6
Continuous
 62
     7
100
AcDbCircle
 10
76.0111545363
 20
20.7183489764
 30
0.0
 40
3.258755990899997
100
AcDbArc
 50
247.5300206148
 51
280.7579522145
  0
ARC
  5
C5
330
6C
100
AcDbEntity
  8
0
  6
Continuous
 62
     7
100
AcDbCircle
 10
69.6261880643
 20
2.4668290159
 30
0.0
 40
17.3316084133
100
AcDbArc
 50
65.34146746500001
 51
67.39977707359999
  0
ARC
  5
C6
330
6C
100
AcDbEntity
  8
0
  6
Continuous
 62
     7
100
AcDbCircle
 10
80.4220504697
 20
28.259255379
 30
0.0
 40
10.6291642039
100
AcDbArc
 50
242.8620101252001
 51
247.1042029184999
  0
ARC
  5
C7
330
6C
100
AcDbEntity
  8
0
  6
Continuous
 62
     7
100
AcDbCircle
 10
76.56714924310001
 20
20.725323882
 30
0.0
 40
2.166291629199998
100
AcDbArc
 50
227.3119280793999
 51
242.7040315235
  0
ARC
  5
C8
330
6C
100
AcDbEntity
  8
0
  6
Continuous
 62
     7
100
AcDbCircle
 10
75.9631184335
 20
20.0196462412
 30
0.0
 40
1.238521734
100
AcDbArc
 50
194.7952194234
 51
225.7176549041999
  0
ARC
  5
C9
330
6C
100
AcDbEntity
  8
0
  6
Continuous
 62
     7
100
AcDbCircle
 10
76.58230028830002
 20
19.1715990505
 30
0.0
 40
2.366924815299999
100
AcDbArc
 50
86.22180229280001
 51
120.4272602309
  0
ARC
  5
CA
330
6C
100
AcDbEntity
  8
0
  6
Continuous
 62
     7
100
AcDbCircle
 10
76.3134435058
 20
12.4754312294
 30
0.0
 40
9.0679051661
100
AcDbArc
 50
78.68270492259998
 51
87.3147599624
  0
ARC
  5
CB
330
6C
100
AcDbEntity
  8
0
  6
Continuous
 62
     7
100
AcDbCircle
 10
76.20268366899998
 20
19.86079227619999
 30
0.0
 40
1.580546684599998
100
AcDbArc
 50
121.2140948540999
 51
141.5254768289999
  0
ARC
  5
CC
330
6C
100
AcDbEntity
  8
0
  6
Continuous
 62
     7
100
AcDbCircle
 10
76.7798580346
 20
20.6718496049
 30
0.0
 40
0.8661276051999998
100
AcDbArc
 50
222.7760387596
 51
239.0362434679
  0
ARC
  5
CD
330
6C
100
AcDbEntity
  8
0
  6
Continuous
 62
     7
100
AcDbCircle
 10
74.2731484563
 20
13.3415774063
 30
0.0
 40
6.858773576299999
100
AcDbArc
 50
59.90202725620001
 51
68.20364812820002
  0
ARC
  5
CE
330
6C
100
AcDbEntity
  8
0
  6
Continuous
 62
     7
100
AcDbCircle
 10
77.6816429501
 20
22.26746391349999
 30
0.0
 40
2.698741017099999
100
AcDbArc
 50
240.0481997804
 51
251.3779673734
  0
ARC
  5
CF
330
6C
100
AcDbEntity
  8
0
  6
Continuous
 62
     7
100
AcDbCircle
 10
77.0161857833
 20
18.1105652982
 30
0.0
 40
1.4334474881
100
AcDbArc
 50
315.8904553225998
 51
333.5229264375
  0
ARC
  5
D0
330
6C
100
AcDbEntity
  8
0
  6
Continuous
 62
     7
100
AcDbCircle
 10
77.020824027
 20
18.057158148
 30
0.0
 40
1.406228711899998
100
AcDbArc
 50
335.3867972703
 51
24.3915119403
  0
ARC
  5
D1
330
6C
100
AcDbEntity
  8
0
  6
Continuous
 62
     7
100
AcDbCircle
 10
76.94861912350001
 20
17.97930145619999
 30
0.0
 40
1.504702514699999
100
AcDbArc
 50
25.9562916611
 51
59.4834829676
  0
LINE
  5
D2
330
6C
100
AcDbEntity
  8
0
  6
Continuous
 62
     7
100
AcDbLine
 10
74.9574888499
 20
20.8337423583
 30
0.0
 11
75.2315546745
 21
21.10781543579999
 31
0.0
  0
ARC
  5
D3
330
6C
100
AcDbEntity
  8
0
  6
Continuous
 62
     7
100
AcDbCircle
 10
76.0252765676
 20
20.05986621039999
 30
0.0
 40
1.309092072899999
100
AcDbArc
 50
164.1974860461
 51
195.8025139539
  0
ARC
  5
D4
330
6C
100
AcDbEntity
  8
0
  6
Continuous
 62
     7
100
AcDbCircle
 10
75.8573743274
 20
20.1673739729
 30
0.0
 40
1.119747444
100
AcDbArc
 50
142.8139179029999
 51
167.1522951416999
  0
ENDBLK
  5
D6
330
6C
100
AcDbEntity
  8
0
100
AcDbBlockEnd
  0
BLOCK
  5
3185
330
317A
100
AcDbEntity
  8
0
100
AcDbBlockBegin
  2
*D2
 70
     1
 10
0.0
 20
0.0
 30
0.0
  3
*D2
  1

  0
LINE
  5
3D7D
330
317A
100
AcDbEntity
  8
30100_Drilling_DIM
  6
Continuous
 62
     0
370
    -2
100
AcDbLine
 10
1252.546443455403
 20
287.5824344690016
 30
0.0
 11
1252.546443455403
 21
277.1494344690016
 31
0.0
  0
LINE
  5
3D7E
330
317A
100
AcDbEntity
  8
30100_Drilling_DIM
  6
Continuous
 62
     0
370
    -2
100
AcDbLine
 10
1287.546443455402
 20
286.0824344690016
 30
0.0
 11
1287.546443455402
 21
277.1494344690016
 31
0.0
  0
LINE
  5
3D7F
330
317A
100
AcDbEntity
  8
30100_Drilling_DIM
  6
Continuous
 62
     0
370
    -2
100
AcDbLine
 10
1254.546443455403
 20
278.1494344690015
 30
0.0
 11
1266.963110122069
 21
278.1494344690015
 31
0.0
  0
LINE
  5
3D80
330
317A
100
AcDbEntity
  8
30100_Drilling_DIM
  6
Continuous
 62
     0
370
    -2
100
AcDbLine
 10
1285.546443455402
 20
278.1494344690015
 30
0.0
 11
1273.129776788736
 21
278.1494344690015
 31
0.0
  0
SOLID
  5
3D81
330
317A
100
AcDbEntity
  8
30100_Drilling_DIM
  6
Continuous
 62
     0
100
AcDbTrace
 10
1254.546443455403
 20
278.4827678023349
 30
0.0
 11
1254.546443455403
 21
277.8161011356683
 31
0.0
 12
1252.546443455403
 22
278.1494344690015
 32
0.0
 13
1252.546443455403
 23
278.1494344690015
 33
0.0
  0
SOLID
  5
3D82
330
317A
100
AcDbEntity
  8
30100_Drilling_DIM
  6
Continuous
 62
     0
100
AcDbTrace
 10
1285.546443455402
 20
278.4827678023349
 30
0.0
 11
1285.546443455402
 21
277.8161011356683
 31
0.0
 12
1287.546443455402
 22
278.1494344690015
 32
0.0
 13
1287.546443455402
 23
278.1494344690015
 33
0.0
  0
MTEXT
  5
3D83
330
317A
100
AcDbEntity
  8
30100_Drilling_DIM
  6
Continuous
 62
     0
370
    13
100
AcDbMText
 10
1270.046443455403
 20
278.1494344690015
 30
0.0
 40
2.5
 41
0.0
 71
     5
 72
     1
  1
\A1;35
 73
     1
 44
1.0
1001
ACAD
1000
MTEXTBEGIN
1070
    73
1070
     1
1070
    44
1040
1.0
1070
    74
1070
     0
1000
MTEXTEND
  0
POINT
  5
3D84
330
317A
100
AcDbEntity
  8
Defpoints
  6
Continuous
 62
     0
100
AcDbPoint
 10
1252.546443455403
 20
288.5824344690016
 30
0.0
  0
POINT
  5
3D85
330
317A
100
AcDbEntity
  8
Defpoints
  6
Continuous
 62
     0
100
AcDbPoint
 10
1287.546443455402
 20
287.0824344690015
 30
0.0
  0
POINT
  5
3D86
330
317A
100
AcDbEntity
  8
Defpoints
  6
Continuous
 62
     0
100
AcDbPoint
 10
1287.546443455402
 20
278.1494344690015
 30
0.0
  0
ENDBLK
  5
3186
330
317A
100
AcDbEntity
  8
0
100
AcDbBlockEnd
  0
BLOCK
  5
3192
330
3187
100
AcDbEntity
  8
0
100
AcDbBlockBegin
  2
*D3
 70
     1
 10
0.0
 20
0.0
 30
0.0
  3
*D3
  1

  0
LINE
  5
3D73
330
3187
100
AcDbEntity
  8
30100_Drilling_DIM
  6
Continuous
 62
     0
370
    -2
100
AcDbLine
 10
1288.546743455402
 20
338.5824344690017
 30
0.0
 11
1301.066743455402
 21
338.5824344690017
 31
0.0
  0
LINE
  5
3D74
330
3187
100
AcDbEntity
  8
30100_Drilling_DIM
  6
Continuous
 62
     0
370
    -2
100
AcDbLine
 10
1288.546443455402
 20
288.5824344690016
 30
0.0
 11
1301.066743455402
 21
288.5824344690016
 31
0.0
  0
LINE
  5
3D75
330
3187
100
AcDbEntity
  8
30100_Drilling_DIM
  6
Continuous
 62
     0
370
    -2
100
AcDbLine
 10
1300.066743455402
 20
336.5824344690017
 30
0.0
 11
1300.066743455402
 21
316.4574344690016
 31
0.0
  0
LINE
  5
3D76
330
3187
100
AcDbEntity
  8
30100_Drilling_DIM
  6
Continuous
 62
     0
370
    -2
100
AcDbLine
 10
1300.066743455402
 20
290.5824344690016
 30
0.0
 11
1300.066743455402
 21
310.7074344690016
 31
0.0
  0
SOLID
  5
3D77
330
3187
100
AcDbEntity
  8
30100_Drilling_DIM
  6
Continuous
 62
     0
100
AcDbTrace
 10
1299.733410122069
 20
336.5824344690017
 30
0.0
 11
1300.400076788736
 21
336.5824344690017
 31
0.0
 12
1300.066743455402
 22
338.5824344690017
 32
0.0
 13
1300.066743455402
 23
338.5824344690017
 33
0.0
  0
SOLID
  5
3D78
330
3187
100
AcDbEntity
  8
30100_Drilling_DIM
  6
Continuous
 62
     0
100
AcDbTrace
 10
1299.733410122069
 20
290.5824344690016
 30
0.0
 11
1300.400076788736
 21
290.5824344690016
 31
0.0
 12
1300.066743455402
 22
288.5824344690016
 32
0.0
 13
1300.066743455402
 23
288.5824344690016
 33
0.0
  0
MTEXT
  5
3D79
330
3187
100
AcDbEntity
  8
30100_Drilling_DIM
  6
Continuous
 62
     0
370
    13
100
AcDbMText
 10
1300.066743455402
 20
313.5824344690018
 30
0.0
 40
2.5
 41
0.0
 71
     5
 72
     1
  1
\A1;50
 11
0.0000000000000001
 21
1.0
 31
0.0
 73
     1
 44
1.0
1001
ACAD
1000
MTEXTBEGIN
1070
    73
1070
     1
1070
    44
1040
1.0
1070
    74
1070
     0
1000
MTEXTEND
  0
POINT
  5
3D7A
330
3187
100
AcDbEntity
  8
Defpoints
  6
Continuous
 62
     0
100
AcDbPoint
 10
1287.546743455402
 20
338.5824344690017
 30
0.0
  0
POINT
  5
3D7B
330
3187
100
AcDbEntity
  8
Defpoints
  6
Continuous
 62
     0
100
AcDbPoint
 10
1287.546443455402
 20
288.5824344690016
 30
0.0
  0
POINT
  5
3D7C
330
3187
100
AcDbEntity
  8
Defpoints
  6
Continuous
 62
     0
100
AcDbPoint
 10
1300.066743455402
 20
288.5824344690016
 30
0.0
  0
ENDBLK
  5
3193
330
3187
100
AcDbEntity
  8
0
100
AcDbBlockEnd
  0
BLOCK
  5
31A0
330
3194
100
AcDbEntity
  8
0
100
AcDbBlockBegin
  2
*D4
 70
     1
 10
0.0
 20
0.0
 30
0.0
  3
*D4
  1

  0
LINE
  5
3D67
330
3194
100
AcDbEntity
  8
30100_Drilling_DIM
  6
Continuous
 62
     0
370
    -2
100
AcDbLine
 10
1253.560585534458
 20
341.0824344690015
 30
0.0
 11
1266.078743455402
 21
341.0824344690015
 31
0.0
  0
LINE
  5
3D68
330
3194
100
AcDbEntity
  8
30100_Drilling_DIM
  6
Continuous
 62
     0
370
    -2
100
AcDbLine
 10
1253.560585534458
 20
336.0824344690017
 30
0.0
 11
1266.078743455402
 21
336.0824344690017
 31
0.0
  0
LINE
  5
3D69
330
3194
100
AcDbEntity
  8
30100_Drilling_DIM
  6
Continuous
 62
     0
370
    -2
100
AcDbLine
 10
1265.078743455402
 20
343.0824344690015
 30
0.0
 11
1265.078743455402
 21
345.0824344690015
 31
0.0
  0
LINE
  5
3D6A
330
3194
100
AcDbEntity
  8
30100_Drilling_DIM
  6
Continuous
 62
     0
370
    -2
100
AcDbLine
 10
1265.078743455402
 20
334.0824344690016
 30
0.0
 11
1265.078743455402
 21
332.0824344690017
 31
0.0
  0
LINE
  5
3D6B
330
3194
100
AcDbEntity
  8
30100_Drilling_DIM
  6
Continuous
 62
     0
370
    -2
100
AcDbLine
 10
1265.078743455402
 20
341.0824344690015
 30
0.0
 11
1265.078743455402
 21
340.4157678023349
 31
0.0
  0
LINE
  5
3D6C
330
3194
100
AcDbEntity
  8
30100_Drilling_DIM
  6
Continuous
 62
     0
370
    -2
100
AcDbLine
 10
1265.078743455402
 20
336.0824344690017
 30
0.0
 11
1265.078743455402
 21
336.7491011356683
 31
0.0
  0
SOLID
  5
3D6D
330
3194
100
AcDbEntity
  8
30100_Drilling_DIM
  6
Continuous
 62
     0
100
AcDbTrace
 10
1264.745410122069
 20
343.0824344690015
 30
0.0
 11
1265.412076788736
 21
343.0824344690015
 31
0.0
 12
1265.078743455402
 22
341.0824344690015
 32
0.0
 13
1265.078743455402
 23
341.0824344690015
 33
0.0
  0
SOLID
  5
3D6E
330
3194
100
AcDbEntity
  8
30100_Drilling_DIM
  6
Continuous
 62
     0
100
AcDbTrace
 10
1264.745410122069
 20
334.0824344690016
 30
0.0
 11
1265.412076788736
 21
334.0824344690016
 31
0.0
 12
1265.078743455402
 22
336.0824344690017
 32
0.0
 13
1265.078743455402
 23
336.0824344690017
 33
0.0
  0
MTEXT
  5
3D6F
330
3194
100
AcDbEntity
  8
30100_Drilling_DIM
  6
Continuous
 62
     0
370
    13
100
AcDbMText
 10
1265.078743455402
 20
338.5824344690018
 30
0.0
 40
2.5
 41
0.0
 71
     5
 72
     1
  1
\A1;5
 11
0.0000000000000001
 21
1.0
 31
0.0
 73
     1
 44
1.0
1001
ACAD
1000
MTEXTBEGIN
1070
    73
1070
     1
1070
    44
1040
1.0
1070
    74
1070
     0
1000
MTEXTEND
  0
POINT
  5
3D70
330
3194
100
AcDbEntity
  8
Defpoints
  6
Continuous
 62
     0
100
AcDbPoint
 10
1252.560585534459
 20
341.0824344690015
 30
0.0
  0
POINT
  5
3D71
330
3194
100
AcDbEntity
  8
Defpoints
  6
Continuous
 62
     0
100
AcDbPoint
 10
1252.560585534459
 20
336.0824344690017
 30
0.0
  0
POINT
  5
3D72
330
3194
100
AcDbEntity
  8
Defpoints
  6
Continuous
 62
     0
100
AcDbPoint
 10
1265.078743455402
 20
336.0824344690017
 30
0.0
  0
ENDBLK
  5
31A1
330
3194
100
AcDbEntity
  8
0
100
AcDbBlockEnd
  0
BLOCK
  5
31AD
330
31A2
100
AcDbEntity
  8
0
100
AcDbBlockBegin
  2
*D5
 70
     1
 10
0.0
 20
0.0
 30
0.0
  3
*D5
  1

  0
LINE
  5
3D5D
330
31A2
100
AcDbEntity
  8
10100_FRONT_DIM
  6
Continuous
 62
     0
370
    -2
100
AcDbLine
 10
1090.940298242834
 20
343.3024744690016
 30
0.0
 11
1090.940298242834
 21
360.5174344690015
 31
0.0
  0
LINE
  5
3D5E
330
31A2
100
AcDbEntity
  8
10100_FRONT_DIM
  6
Continuous
 62
     0
370
    -2
100
AcDbLine
 10
1135.940298242834
 20
343.3024744690016
 30
0.0
 11
1135.940298242834
 21
360.5174344690015
 31
0.0
  0
LINE
  5
3D5F
330
31A2
100
AcDbEntity
  8
10100_FRONT_DIM
  6
Continuous
 62
     0
370
    -2
100
AcDbLine
 10
1092.940298242834
 20
359.5174344690016
 30
0.0
 11
1110.356964909501
 21
359.5174344690016
 31
0.0
  0
LINE
  5
3D60
330
31A2
100
AcDbEntity
  8
10100_FRONT_DIM
  6
Continuous
 62
     0
370
    -2
100
AcDbLine
 10
1133.940298242834
 20
359.5174344690016
 30
0.0
 11
1116.523631576168
 21
359.5174344690016
 31
0.0
  0
SOLID
  5
3D61
330
31A2
100
AcDbEntity
  8
10100_FRONT_DIM
  6
Continuous
 62
     0
100
AcDbTrace
 10
1092.940298242834
 20
359.8507678023349
 30
0.0
 11
1092.940298242834
 21
359.1841011356682
 31
0.0
 12
1090.940298242834
 22
359.5174344690016
 32
0.0
 13
1090.940298242834
 23
359.5174344690016
 33
0.0
  0
SOLID
  5
3D62
330
31A2
100
AcDbEntity
  8
10100_FRONT_DIM
  6
Continuous
 62
     0
100
AcDbTrace
 10
1133.940298242834
 20
359.8507678023349
 30
0.0
 11
1133.940298242834
 21
359.1841011356682
 31
0.0
 12
1135.940298242834
 22
359.5174344690016
 32
0.0
 13
1135.940298242834
 23
359.5174344690016
 33
0.0
  0
MTEXT
  5
3D63
330
31A2
100
AcDbEntity
  8
10100_FRONT_DIM
  6
Continuous
 62
     0
370
    13
100
AcDbMText
 10
1113.440298242834
 20
359.5174344690016
 30
0.0
 40
2.5
 41
0.0
 71
     5
 72
     1
  1
\A1;45
 73
     1
 44
1.0
1001
ACAD
1000
MTEXTBEGIN
1070
    73
1070
     1
1070
    44
1040
1.0
1070
    74
1070
     0
1000
MTEXTEND
  0
POINT
  5
3D64
330
31A2
100
AcDbEntity
  8
Defpoints
  6
Continuous
 62
     0
100
AcDbPoint
 10
1090.940298242834
 20
342.3024744690017
 30
0.0
  0
POINT
  5
3D65
330
31A2
100
AcDbEntity
  8
Defpoints
  6
Continuous
 62
     0
100
AcDbPoint
 10
1135.940298242834
 20
342.3024744690017
 30
0.0
  0
POINT
  5
3D66
330
31A2
100
AcDbEntity
  8
Defpoints
  6
Continuous
 62
     0
100
AcDbPoint
 10
1135.940298242834
 20
359.5174344690016
 30
0.0
  0
ENDBLK
  5
31AE
330
31A2
100
AcDbEntity
  8
0
100
AcDbBlockEnd
  0
BLOCK
  5
31BA
330
31AF
100
AcDbEntity
  8
0
100
AcDbBlockBegin
  2
*D6
 70
     1
 10
0.0
 20
0.0
 30
0.0
  3
*D6
  1

  0
LINE
  5
3D53
330
31AF
100
AcDbEntity
  8
10100_FRONT_DIM
  6
Continuous
 62
     0
370
    -2
100
AcDbLine
 10
1096.240298242834
 20
332.5524344690017
 30
0.0
 11
1096.240298242834
 21
353.5374344690016
 31
0.0
  0
LINE
  5
3D54
330
31AF
100
AcDbEntity
  8
10100_FRONT_DIM
  6
Continuous
 62
     0
370
    -2
100
AcDbLine
 10
1104.840218242833
 20
332.5524744690016
 30
0.0
 11
1104.840218242833
 21
353.5374344690016
 31
0.0
  0
LINE
  5
3D55
330
31AF
100
AcDbEntity
  8
10100_FRONT_DIM
  6
Continuous
 62
     0
370
    -2
100
AcDbLine
 10
1098.240298242834
 20
352.5374344690017
 30
0.0
 11
1098.706924909501
 21
352.5374344690017
 31
0.0
  0
LINE
  5
3D56
330
31AF
100
AcDbEntity
  8
10100_FRONT_DIM
  6
Continuous
 62
     0
370
    -2
100
AcDbLine
 10
1102.840218242833
 20
352.5374344690017
 30
0.0
 11
1102.373591576168
 21
352.5374344690017
 31
0.0
  0
SOLID
  5
3D57
330
31AF
100
AcDbEntity
  8
10100_FRONT_DIM
  6
Continuous
 62
     0
100
AcDbTrace
 10
1098.240298242834
 20
352.870767802335
 30
0.0
 11
1098.240298242834
 21
352.2041011356683
 31
0.0
 12
1096.240298242834
 22
352.5374344690017
 32
0.0
 13
1096.240298242834
 23
352.5374344690017
 33
0.0
  0
SOLID
  5
3D58
330
31AF
100
AcDbEntity
  8
10100_FRONT_DIM
  6
Continuous
 62
     0
100
AcDbTrace
 10
1102.840218242833
 20
352.870767802335
 30
0.0
 11
1102.840218242833
 21
352.2041011356683
 31
0.0
 12
1104.840218242833
 22
352.5374344690017
 32
0.0
 13
1104.840218242833
 23
352.5374344690017
 33
0.0
  0
MTEXT
  5
3D59
330
31AF
100
AcDbEntity
  8
10100_FRONT_DIM
  6
Continuous
 62
     0
370
    13
100
AcDbMText
 10
1100.540258242834
 20
352.5374344690017
 30
0.0
 40
2.5
 41
0.0
 71
     5
 72
     1
  1
\A1;9
 73
     1
 44
1.0
1001
ACAD
1000
MTEXTBEGIN
1070
    73
1070
     1
1070
    44
1040
1.0
1070
    74
1070
     0
1000
MTEXTEND
  0
POINT
  5
3D5A
330
31AF
100
AcDbEntity
  8
Defpoints
  6
Continuous
 62
     0
100
AcDbPoint
 10
1096.240298242834
 20
331.5524344690016
 30
0.0
  0
POINT
  5
3D5B
330
31AF
100
AcDbEntity
  8
Defpoints
  6
Continuous
 62
     0
100
AcDbPoint
 10
1104.840218242833
 20
331.5524744690017
 30
0.0
  0
POINT
  5
3D5C
330
31AF
100
AcDbEntity
  8
Defpoints
  6
Continuous
 62
     0
100
AcDbPoint
 10
1104.840218242833
 20
352.5374344690017
 30
0.0
  0
ENDBLK
  5
31BB
330
31AF
100
AcDbEntity
  8
0
100
AcDbBlockEnd
  0
BLOCK
  5
31C9
330
31BC
100
AcDbEntity
  8
0
100
AcDbBlockBegin
  2
*D7
 70
     1
 10
0.0
 20
0.0
 30
0.0
  3
*D7
  1

  0
LINE
  5
3D47
330
31BC
100
AcDbEntity
  8
10100_FRONT_DIM
  6
Continuous
 62
     0
370
    -2
100
AcDbLine
 10
1096.240298242834
 20
332.5524344690017
 30
0.0
 11
1096.240298242834
 21
353.535893928461
 31
0.0
  0
LINE
  5
3D48
330
31BC
100
AcDbEntity
  8
10100_FRONT_DIM
  6
Continuous
 62
     0
370
    -2
100
AcDbLine
 10
1090.940298242834
 20
343.3024344690017
 30
0.0
 11
1090.940298242834
 21
353.535893928461
 31
0.0
  0
LINE
  5
3D49
330
31BC
100
AcDbEntity
  8
10100_FRONT_DIM
  6
Continuous
 62
     0
370
    -2
100
AcDbLine
 10
1098.240298242834
 20
352.5358939284608
 30
0.0
 11
1100.240298242834
 21
352.5358939284608
 31
0.0
  0
LINE
  5
3D4A
330
31BC
100
AcDbEntity
  8
10100_FRONT_DIM
  6
Continuous
 62
     0
370
    -2
100
AcDbLine
 10
1088.940298242834
 20
352.5358939284608
 30
0.0
 11
1086.940298242834
 21
352.5358939284608
 31
0.0
  0
LINE
  5
3D4B
330
31BC
100
AcDbEntity
  8
10100_FRONT_DIM
  6
Continuous
 62
     0
370
    -2
100
AcDbLine
 10
1096.240298242834
 20
352.5358939284608
 30
0.0
 11
1095.423631576168
 21
352.5358939284608
 31
0.0
  0
LINE
  5
3D4C
330
31BC
100
AcDbEntity
  8
10100_FRONT_DIM
  6
Continuous
 62
     0
370
    -2
100
AcDbLine
 10
1090.940298242834
 20
352.5358939284608
 30
0.0
 11
1091.756964909501
 21
352.5358939284608
 31
0.0
  0
SOLID
  5
3D4D
330
31BC
100
AcDbEntity
  8
10100_FRONT_DIM
  6
Continuous
 62
     0
100
AcDbTrace
 10
1098.240298242834
 20
352.8692272617943
 30
0.0
 11
1098.240298242834
 21
352.2025605951276
 31
0.0
 12
1096.240298242834
 22
352.5358939284608
 32
0.0
 13
1096.240298242834
 23
352.5358939284608
 33
0.0
  0
SOLID
  5
3D4E
330
31BC
100
AcDbEntity
  8
10100_FRONT_DIM
  6
Continuous
 62
     0
100
AcDbTrace
 10
1088.940298242834
 20
352.8692272617943
 30
0.0
 11
1088.940298242834
 21
352.2025605951276
 31
0.0
 12
1090.940298242834
 22
352.5358939284608
 32
0.0
 13
1090.940298242834
 23
352.5358939284608
 33
0.0
  0
MTEXT
  5
3D4F
330
31BC
100
AcDbEntity
  8
10100_FRONT_DIM
  6
Continuous
 62
     0
370
    13
100
AcDbMText
 10
1093.590298242834
 20
352.5358939284608
 30
0.0
 40
2.5
 41
0.0
 71
     5
 72
     1
  1
\A1;5
 73
     1
 44
1.0
1001
ACAD
1000
MTEXTBEGIN
1070
    73
1070
     1
1070
    44
1040
1.0
1070
    74
1070
     0
1000
MTEXTEND
  0
POINT
  5
3D50
330
31BC
100
AcDbEntity
  8
Defpoints
  6
Continuous
 62
     0
100
AcDbPoint
 10
1096.240298242834
 20
331.5524344690016
 30
0.0
  0
POINT
  5
3D51
330
31BC
100
AcDbEntity
  8
Defpoints
  6
Continuous
 62
     0
100
AcDbPoint
 10
1090.940298242834
 20
342.3024344690016
 30
0.0
  0
POINT
  5
3D52
330
31BC
100
AcDbEntity
  8
Defpoints
  6
Continuous
 62
     0
100
AcDbPoint
 10
1090.940298242834
 20
352.5358939284608
 30
0.0
  0
ENDBLK
  5
31CA
330
31BC
100
AcDbEntity
  8
0
100
AcDbBlockEnd
  0
BLOCK
  5
31D6
330
31CB
100
AcDbEntity
  8
0
100
AcDbBlockBegin
  2
*D8
 70
     1
 10
0.0
 20
0.0
 30
0.0
  3
*D8
  1

  0
LINE
  5
3D3D
330
31CB
100
AcDbEntity
  8
10100_FRONT_DIM
  6
Continuous
 62
     0
370
    -2
100
AcDbLine
 10
1135.439228242834
 20
343.5824944690016
 30
0.0
 11
1145.649798242834
 21
343.5824944690016
 31
0.0
  0
LINE
  5
3D3E
330
31CB
100
AcDbEntity
  8
10100_FRONT_DIM
  6
Continuous
 62
     0
370
    -2
100
AcDbLine
 10
1135.439228242834
 20
283.5824944690017
 30
0.0
 11
1145.649798242834
 21
283.5824944690017
 31
0.0
  0
LINE
  5
3D3F
330
31CB
100
AcDbEntity
  8
10100_FRONT_DIM
  6
Continuous
 62
     0
370
    -2
100
AcDbLine
 10
1144.649798242834
 20
341.5824944690016
 30
0.0
 11
1144.649798242834
 21
316.4574944690016
 31
0.0
  0
LINE
  5
3D40
330
31CB
100
AcDbEntity
  8
10100_FRONT_DIM
  6
Continuous
 62
     0
370
    -2
100
AcDbLine
 10
1144.649798242834
 20
285.5824944690017
 30
0.0
 11
1144.649798242834
 21
310.7074944690016
 31
0.0
  0
SOLID
  5
3D41
330
31CB
100
AcDbEntity
  8
10100_FRONT_DIM
  6
Continuous
 62
     0
100
AcDbTrace
 10
1144.316464909501
 20
341.5824944690016
 30
0.0
 11
1144.983131576168
 21
341.5824944690016
 31
0.0
 12
1144.649798242834
 22
343.5824944690016
 32
0.0
 13
1144.649798242834
 23
343.5824944690016
 33
0.0
  0
SOLID
  5
3D42
330
31CB
100
AcDbEntity
  8
10100_FRONT_DIM
  6
Continuous
 62
     0
100
AcDbTrace
 10
1144.316464909501
 20
285.5824944690017
 30
0.0
 11
1144.983131576168
 21
285.5824944690017
 31
0.0
 12
1144.649798242834
 22
283.5824944690017
 32
0.0
 13
1144.649798242834
 23
283.5824944690017
 33
0.0
  0
MTEXT
  5
3D43
330
31CB
100
AcDbEntity
  8
10100_FRONT_DIM
  6
Continuous
 62
     0
370
    13
100
AcDbMText
 10
1144.649798242834
 20
313.5824944690018
 30
0.0
 40
2.5
 41
0.0
 71
     5
 72
     1
  1
\A1;60
 11
0.0000000000000001
 21
1.0
 31
0.0
 73
     1
 44
1.0
1001
ACAD
1000
MTEXTBEGIN
1070
    73
1070
     1
1070
    44
1040
1.0
1070
    74
1070
     0
1000
MTEXTEND
  0
POINT
  5
3D44
330
31CB
100
AcDbEntity
  8
Defpoints
  6
Continuous
 62
     0
100
AcDbPoint
 10
1134.439228242834
 20
343.5824944690016
 30
0.0
  0
POINT
  5
3D45
330
31CB
100
AcDbEntity
  8
Defpoints
  6
Continuous
 62
     0
100
AcDbPoint
 10
1134.439228242834
 20
283.5824944690017
 30
0.0
  0
POINT
  5
3D46
330
31CB
100
AcDbEntity
  8
Defpoints
  6
Continuous
 62
     0
100
AcDbPoint
 10
1144.649798242834
 20
283.5824944690017
 30
0.0
  0
ENDBLK
  5
31D7
330
31CB
100
AcDbEntity
  8
0
100
AcDbBlockEnd
  0
BLOCK
  5
31E5
330
31D8
100
AcDbEntity
  8
0
100
AcDbBlockBegin
  2
*D9
 70
     1
 10
0.0
 20
0.0
 30
0.0
  3
*D9
  1

  0
LINE
  5
3DE5
330
31D8
100
AcDbEntity
  8
11100_LEFT_DIM
  6
Continuous
 62
     0
370
    -2
100
AcDbLine
 10
1159.959734268741
 20
343.2824744690016
 30
0.0
 11
1159.959734268741
 21
353.1864344690016
 31
0.0
  0
LINE
  5
3DE6
330
31D8
100
AcDbEntity
  8
11100_LEFT_DIM
  6
Continuous
 62
     0
370
    -2
100
AcDbLine
 10
1164.959734268741
 20
335.5324744690016
 30
0.0
 11
1164.959734268741
 21
353.1864344690016
 31
0.0
  0
LINE
  5
3DE7
330
31D8
100
AcDbEntity
  8
11100_LEFT_DIM
  6
Continuous
 62
     0
370
    -2
100
AcDbLine
 10
1157.959734268741
 20
352.1864344690016
 30
0.0
 11
1155.959734268741
 21
352.1864344690016
 31
0.0
  0
LINE
  5
3DE8
330
31D8
100
AcDbEntity
  8
11100_LEFT_DIM
  6
Continuous
 62
     0
370
    -2
100
AcDbLine
 10
1166.959734268741
 20
352.1864344690016
 30
0.0
 11
1168.959734268741
 21
352.1864344690016
 31
0.0
  0
LINE
  5
3DE9
330
31D8
100
AcDbEntity
  8
11100_LEFT_DIM
  6
Continuous
 62
     0
370
    -2
100
AcDbLine
 10
1159.959734268741
 20
352.1864344690016
 30
0.0
 11
1160.626400935407
 21
352.1864344690016
 31
0.0
  0
LINE
  5
3DEA
330
31D8
100
AcDbEntity
  8
11100_LEFT_DIM
  6
Continuous
 62
     0
370
    -2
100
AcDbLine
 10
1164.959734268741
 20
352.1864344690016
 30
0.0
 11
1164.293067602074
 21
352.1864344690016
 31
0.0
  0
SOLID
  5
3DEB
330
31D8
100
AcDbEntity
  8
11100_LEFT_DIM
  6
Continuous
 62
     0
100
AcDbTrace
 10
1157.959734268741
 20
352.5197678023349
 30
0.0
 11
1157.959734268741
 21
351.8531011356683
 31
0.0
 12
1159.959734268741
 22
352.1864344690016
 32
0.0
 13
1159.959734268741
 23
352.1864344690016
 33
0.0
  0
SOLID
  5
3DEC
330
31D8
100
AcDbEntity
  8
11100_LEFT_DIM
  6
Continuous
 62
     0
100
AcDbTrace
 10
1166.959734268741
 20
352.5197678023349
 30
0.0
 11
1166.959734268741
 21
351.8531011356683
 31
0.0
 12
1164.959734268741
 22
352.1864344690016
 32
0.0
 13
1164.959734268741
 23
352.1864344690016
 33
0.0
  0
MTEXT
  5
3DED
330
31D8
100
AcDbEntity
  8
11100_LEFT_DIM
  6
Continuous
 62
     0
370
    50
100
AcDbMText
 10
1162.459734268741
 20
352.1864344690016
 30
0.0
 40
2.5
 41
0.0
 71
     5
 72
     1
  1
\A1;5
 73
     1
 44
1.0
1001
ACAD
1000
MTEXTBEGIN
1070
    73
1070
     1
1070
    44
1040
1.0
1070
    74
1070
     0
1000
MTEXTEND
  0
POINT
  5
3DEE
330
31D8
100
AcDbEntity
  8
Defpoints
  6
Continuous
 62
     0
100
AcDbPoint
 10
1159.959734268741
 20
342.2824744690016
 30
0.0
  0
POINT
  5
3DEF
330
31D8
100
AcDbEntity
  8
Defpoints
  6
Continuous
 62
     0
100
AcDbPoint
 10
1164.959734268741
 20
334.5324744690016
 30
0.0
  0
POINT
  5
3DF0
330
31D8
100
AcDbEntity
  8
Defpoints
  6
Continuous
 62
     0
100
AcDbPoint
 10
1164.959734268741
 20
352.1864344690016
 30
0.0
  0
ENDBLK
  5
31E6
330
31D8
100
AcDbEntity
  8
0
100
AcDbBlockEnd
  0
BLOCK
  5
31F2
330
31E7
100
AcDbEntity
  8
0
100
AcDbBlockBegin
  2
*D10
 70
     1
 10
0.0
 20
0.0
 30
0.0
  3
*D10
  1

  0
LINE
  5
3DDB
330
31E7
100
AcDbEntity
  8
11100_LEFT_DIM
  6
Continuous
 62
     0
370
    -2
100
AcDbLine
 10
1164.960034268741
 20
335.5324344690016
 30
0.0
 11
1164.960034268741
 21
353.1864844690016
 31
0.0
  0
LINE
  5
3DDC
330
31E7
100
AcDbEntity
  8
11100_LEFT_DIM
  6
Continuous
 62
     0
370
    -2
100
AcDbLine
 10
1232.459734268742
 20
329.8288844690016
 30
0.0
 11
1232.459734268742
 21
353.1864844690016
 31
0.0
  0
LINE
  5
3DDD
330
31E7
100
AcDbEntity
  8
11100_LEFT_DIM
  6
Continuous
 62
     0
370
    -2
100
AcDbLine
 10
1166.960034268741
 20
352.1864844690016
 30
0.0
 11
1195.626550935408
 21
352.1864844690016
 31
0.0
  0
LINE
  5
3DDE
330
31E7
100
AcDbEntity
  8
11100_LEFT_DIM
  6
Continuous
 62
     0
370
    -2
100
AcDbLine
 10
1230.459734268742
 20
352.1864844690016
 30
0.0
 11
1201.793217602075
 21
352.1864844690016
 31
0.0
  0
SOLID
  5
3DDF
330
31E7
100
AcDbEntity
  8
11100_LEFT_DIM
  6
Continuous
 62
     0
100
AcDbTrace
 10
1166.960034268741
 20
352.5198178023349
 30
0.0
 11
1166.960034268741
 21
351.8531511356683
 31
0.0
 12
1164.960034268741
 22
352.1864844690016
 32
0.0
 13
1164.960034268741
 23
352.1864844690016
 33
0.0
  0
SOLID
  5
3DE0
330
31E7
100
AcDbEntity
  8
11100_LEFT_DIM
  6
Continuous
 62
     0
100
AcDbTrace
 10
1230.459734268742
 20
352.5198178023349
 30
0.0
 11
1230.459734268742
 21
351.8531511356683
 31
0.0
 12
1232.459734268742
 22
352.1864844690016
 32
0.0
 13
1232.459734268742
 23
352.1864844690016
 33
0.0
  0
MTEXT
  5
3DE1
330
31E7
100
AcDbEntity
  8
11100_LEFT_DIM
  6
Continuous
 62
     0
370
    50
100
AcDbMText
 10
1198.709884268741
 20
352.1864844690016
 30
0.0
 40
2.5
 41
0.0
 71
     5
 72
     1
  1
\A1;67
 73
     1
 44
1.0
1001
ACAD
1000
MTEXTBEGIN
1070
    73
1070
     1
1070
    44
1040
1.0
1070
    74
1070
     0
1000
MTEXTEND
  0
POINT
  5
3DE2
330
31E7
100
AcDbEntity
  8
Defpoints
  6
Continuous
 62
     0
100
AcDbPoint
 10
1164.960034268741
 20
334.5324344690016
 30
0.0
  0
POINT
  5
3DE3
330
31E7
100
AcDbEntity
  8
Defpoints
  6
Continuous
 62
     0
100
AcDbPoint
 10
1232.459734268742
 20
328.8288844690016
 30
0.0
  0
POINT
  5
3DE4
330
31E7
100
AcDbEntity
  8
Defpoints
  6
Continuous
 62
     0
100
AcDbPoint
 10
1232.459734268742
 20
352.1864844690016
 30
0.0
  0
ENDBLK
  5
31F3
330
31E7
100
AcDbEntity
  8
0
100
AcDbBlockEnd
  0
ENDSEC
  0
SECTION
  2
ENTITIES
  0
INSERT
  5
117
330
1F
100
AcDbEntity
  8
90000_FRAME
  6
Continuous
 62
     7
100
AcDbBlockReference
  2
SIEMENS_OUTLINE_BL0
 10
1113.564341719631
 20
201.9187786897147
 30
0.0
  0
LINE
  5
118
330
1F
100
AcDbEntity
  8
90000_FRAME
  6
Continuous
 62
     7
100
AcDbLine
 10
1180.91844433571
 20
212.257037917318
 30
0.0
 11
1315.91844433571
 21
212.257037917318
 31
0.0
  0
LINE
  5
119
330
1F
100
AcDbEntity
  8
90000_FRAME
  6
Continuous
 62
     7
100
AcDbLine
 10
1180.91844433571
 20
212.257037917318
 30
0.0
 11
1180.91844433571
 21
230.257037917318
 31
0.0
  0
LINE
  5
11A
330
1F
100
AcDbEntity
  8
90000_FRAME
  6
Continuous
 62
     7
100
AcDbLine
 10
1230.91844433571
 20
218.257037917318
 30
0.0
 11
1315.91844433571
 21
218.257037917318
 31
0.0
  0
LINE
  5
11B
330
1F
100
AcDbEntity
  8
90000_FRAME
  6
Continuous
 62
     7
100
AcDbLine
 10
1180.91844433571
 20
230.257037917318
 30
0.0
 11
1315.91844433571
 21
230.257037917318
 31
0.0
  0
LINE
  5
11C
330
1F
100
AcDbEntity
  8
90000_FRAME
  6
Continuous
 62
     7
100
AcDbLine
 10
1230.91844433571
 20
212.257037917318
 30
0.0
 11
1230.91844433571
 21
230.257037917318
 31
0.0
  0
LINE
  5
11D
330
1F
100
AcDbEntity
  8
90000_FRAME
  6
Continuous
 62
     7
100
AcDbLine
 10
1273.41844433571
 20
212.257037917318
 30
0.0
 11
1273.41844433571
 21
218.257037917318
 31
0.0
  0
LINE
  5
11E
330
1F
100
AcDbEntity
  8
90000_FRAME
  6
Continuous
 62
     7
100
AcDbLine
 10
1315.91844433571
 20
212.257037917318
 30
0.0
 11
1315.91844433571
 21
230.257037917318
 31
0.0
  0
TEXT
  5
11F
330
1F
100
AcDbEntity
  8
90000_FRAME
  6
Continuous
 62
     7
100
AcDbText
 10
1231.57844433571
 20
214.157037917318
 30
0.0
 40
2.2
  1
Format / Size: DIN A4
 41
0.7994987468660261
 72
     5
 11
1264.99749195471
 21
214.157037917318
 31
0.0
100
AcDbText
  0
TEXT
  5
120
330
1F
100
AcDbEntity
  8
90000_FRAME
  6
Continuous
 62
     7
100
AcDbText
 10
1274.07844433571
 20
214.157037917318
 30
0.0
 40
2.2
  1
Massstab / Scale: 1:1
 41
0.7732634338148433
 72
     5
 11
1304.98320624051
 21
214.157037917318
 31
0.0
100
AcDbText
  0
TEXT
  5
121
330
1F
100
AcDbEntity
  8
90000_FRAME
  6
Continuous
 62
     7
100
AcDbText
 10
1244.224368859661
 20
222.507037917318
 30
0.0
 40
3.5
  1
3RT101__00000088_000_ALL.dxf
 41
0.6476313523457506
 72
     5
 11
1300.136542278844
 21
222.507037917318
 31
0.0
100
AcDbText
  0
LINE
  5
124
330
1F
100
AcDbEntity
  8
90000_FRAME
  6
Continuous
 62
     7
100
AcDbLine
 10
1055.918444335711
 20
202.257037917318
 30
0.0
 11
1325.918444335711
 21
202.257037917318
 31
0.0
  0
LINE
  5
126
330
1F
100
AcDbEntity
  8
90000_FRAME
  6
Continuous
 62
     7
100
AcDbLine
 10
1325.918444335711
 20
202.257037917318
 30
0.0
 11
1325.918444335711
 21
402.2570379173179
 31
0.0
  0
TEXT
  5
129
330
1F
100
AcDbEntity
  8
91000_TIP
  6
Continuous
 62
     7
100
AcDbText
 10
1059.971794118375
 20
210.9892745389946
 30
0.0
 40
2.5
  1
Alle Bemassungswerte sind in Millimeter (mm) angegeben.
 41
0.6056311217924568
 72
     5
 11
1133.656913936457
 21
210.9892745389946
 31
0.0
100
AcDbText
  0
TEXT
  5
12A
330
1F
100
AcDbEntity
  8
91000_TIP
  6
Continuous
 62
     7
100
AcDbText
 10
1059.971794118375
 20
205.7392745389947
 30
0.0
 40
2.5
  1
All dimensions are in millimeters (mm).
 41
0.7513350295680256
 72
     5
 11
1120.078596483817
 21
205.7392745389947
 31
0.0
100
AcDbText
  0
LINE
  5
2093
330
1F
100
AcDbEntity
  8
91000_TIP
  6
Continuous
 62
     7
100
AcDbLine
 10
1155.733114439736
 20
223.5807754396886
 30
0.0
 11
1165.733114235536
 21
226.0807753886886
 31
0.0
  0
LINE
  5
2094
330
1F
100
AcDbEntity
  8
91000_TIP
  6
CENTER
 62
     7
100
AcDbLine
 10
1154.453603967735
 20
221.0807754907886
 30
0.0
 11
1178.055593231835
 21
221.0807754907886
 31
0.0
  0
LINE
  5
2095
330
1F
100
AcDbEntity
  8
91000_TIP
  6
Continuous
 62
     7
100
AcDbLine
 10
1155.733114439736
 20
218.5807755418886
 30
0.0
 11
1165.733114235536
 21
216.0807755928885
 31
0.0
  0
LINE
  5
2096
330
1F
100
AcDbEntity
  8
91000_TIP
  6
Continuous
 62
     7
100
AcDbLine
 10
1155.733114439736
 20
223.5807754396886
 30
0.0
 11
1155.733114439736
 21
218.5807755418886
 31
0.0
  0
LINE
  5
2097
330
1F
100
AcDbEntity
  8
91000_TIP
  6
Continuous
 62
     7
100
AcDbLine
 10
1165.733114235536
 20
226.0807753886886
 30
0.0
 11
1165.733114235536
 21
216.0807755928885
 31
0.0
  0
LINE
  5
2098
330
1F
100
AcDbEntity
  8
91000_TIP
  6
CENTER
 62
     7
100
AcDbLine
 10
1172.233114102736
 20
215.3592942843886
 30
0.0
 11
1172.233114102736
 21
226.6426802843886
 31
0.0
  0
CIRCLE
  5
2099
330
1F
100
AcDbEntity
  8
91000_TIP
  6
Continuous
 62
     7
100
AcDbCircle
 10
1172.233114102736
 20
221.0807754907886
 30
0.0
 40
4.9999998979
  0
CIRCLE
  5
209A
330
1F
100
AcDbEntity
  8
91000_TIP
  6
Continuous
 62
     7
100
AcDbCircle
 10
1172.233114102736
 20
221.0807754907886
 30
0.0
 40
2.499999948899997
  0
TEXT
  5
296B
330
1F
100
AcDbEntity
  8
10000_FRONT
  6
Continuous
 62
     7
370
    13
100
AcDbText
 39
0.25
 10
1092.940298242834
 20
325.1524744690016
 30
0.0
 40
2.5
  1
SIEMENS
 41
0.6600000000000003
100
AcDbText
1001
AUSTER_ANSICHT
1002
{
1000
Det03
1002
}
1001
AUSTER_FOLIE
1002
{
1000
NSB00752A
1002
}
  0
ARC
  5
296C
330
1F
100
AcDbEntity
  8
11000_Left
370
    13
100
AcDbCircle
 39
0.25
 10
1160.959634268741
 20
323.1827844690017
 30
-1.0
 40
1.0
100
AcDbArc
 50
90.0
 51
180.0
1001
AUSTER_ANSICHT
1002
{
1000
Det03
1002
}
1001
AUSTER_FOLIE
1002
{
1000
NSB00752A
1002
}
  0
ARC
  5
296D
330
1F
100
AcDbEntity
  8
11000_Left
370
    13
100
AcDbCircle
 39
0.25
 10
1160.959634268741
 20
304.1827344690016
 30
-1.0
 40
1.0
100
AcDbArc
 50
180.0
 51
270.0
1001
AUSTER_ANSICHT
1002
{
1000
Det03
1002
}
1001
AUSTER_FOLIE
1002
{
1000
NSB00752A
1002
}
  0
ARC
  5
296E
330
1F
100
AcDbEntity
  8
11000_Left
370
    13
100
AcDbCircle
 39
0.25
 10
1161.059634268741
 20
328.0827844690016
 30
-1.0
 40
1.9
100
AcDbArc
 50
270.0
 51
0.0
1001
AUSTER_ANSICHT
1002
{
1000
Det03
1002
}
1001
AUSTER_FOLIE
1002
{
1000
NSB00752A
1002
}
  0
ARC
  5
296F
330
1F
100
AcDbEntity
  8
11000_Left
370
    13
100
AcDbCircle
 39
0.25
 10
1163.459634268741
 20
328.8327844690016
 30
-1.0
 40
0.5
100
AcDbArc
 50
270.0
 51
0.0
1001
AUSTER_ANSICHT
1002
{
1000
Det03
1002
}
1001
AUSTER_FOLIE
1002
{
1000
NSB00752A
1002
}
  0
ARC
  5
2970
330
1F
100
AcDbEntity
  8
11000_Left
370
    13
100
AcDbCircle
 39
0.25
 10
1161.059634268741
 20
299.2827344690017
 30
-1.0
 40
1.9
100
AcDbArc
 50
0.0000000107509873
 51
90.0
1001
AUSTER_ANSICHT
1002
{
1000
Det03
1002
}
1001
AUSTER_FOLIE
1002
{
1000
NSB00752A
1002
}
  0
LINE
  5
2971
330
1F
100
AcDbEntity
  8
30000_Drilling
  6
CENTER
 62
     7
370
    13
100
AcDbLine
 39
0.25
 10
1251.046443455402
 20
288.5824344690016
 30
0.0
 11
1254.046443455402
 21
288.5824344690016
 31
0.0
1001
AUSTER_ANSICHT
1002
{
1000
Det03
1002
}
1001
AUSTER_FOLIE
1002
{
1000
NSB00752A
1002
}
  0
LINE
  5
2972
330
1F
100
AcDbEntity
  8
30000_Drilling
  6
CENTER
 62
     7
370
    13
100
AcDbLine
 39
0.25
 10
1252.546443455403
 20
290.0824344690016
 30
0.0
 11
1252.546443455403
 21
287.0824344690015
 31
0.0
1001
AUSTER_ANSICHT
1002
{
1000
Det03
1002
}
1001
AUSTER_FOLIE
1002
{
1000
NSB00752A
1002
}
  0
ARC
  5
2973
330
1F
100
AcDbEntity
  8
30000_Drilling
  6
Continuous
370
    50
100
AcDbCircle
 39
0.25
 10
1252.546443455403
 20
288.5824344690016
 30
0.0
 40
2.5
100
AcDbArc
 50
270.0
 51
90.0
1001
AUSTER_ANSICHT
1002
{
1000
Det03
1002
}
1001
AUSTER_FOLIE
1002
{
1000
NSB00752A
1002
}
  0
LINE
  5
2974
330
1F
100
AcDbEntity
  8
30000_Drilling
  6
CENTER
 62
     7
370
    13
100
AcDbLine
 39
0.25
 10
1286.046443455402
 20
288.5824344690016
 30
0.0
 11
1289.046443455403
 21
288.5824344690016
 31
0.0
1001
AUSTER_ANSICHT
1002
{
1000
Det03
1002
}
1001
AUSTER_FOLIE
1002
{
1000
NSB00752A
1002
}
  0
LINE
  5
2975
330
1F
100
AcDbEntity
  8
30000_Drilling
  6
CENTER
 62
     7
370
    13
100
AcDbLine
 39
0.25
 10
1287.546443455402
 20
290.0824344690016
 30
0.0
 11
1287.546443455402
 21
287.0824344690015
 31
0.0
1001
AUSTER_ANSICHT
1002
{
1000
Det03
1002
}
1001
AUSTER_FOLIE
1002
{
1000
NSB00752A
1002
}
  0
ARC
  5
2976
330
1F
100
AcDbEntity
  8
30000_Drilling
  6
Continuous
370
    50
100
AcDbCircle
 39
0.25
 10
1287.546443455402
 20
288.5824344690016
 30
0.0
 40
2.5
100
AcDbArc
 50
90.0
 51
270.0
1001
AUSTER_ANSICHT
1002
{
1000
Det03
1002
}
1001
AUSTER_FOLIE
1002
{
1000
NSB00752A
1002
}
  0
LINE
  5
2977
330
1F
100
AcDbEntity
  8
30000_Drilling
  6
CENTER
 62
     7
370
    13
100
AcDbLine
 39
0.25
 10
1286.046443455402
 20
338.5824744690017
 30
0.0
 11
1289.046443455403
 21
338.5824744690017
 31
0.0
1001
AUSTER_ANSICHT
1002
{
1000
Det03
1002
}
1001
AUSTER_FOLIE
1002
{
1000
NSB00752A
1002
}
  0
LINE
  5
2978
330
1F
100
AcDbEntity
  8
30000_Drilling
  6
CENTER
 62
     7
370
    13
100
AcDbLine
 39
0.25
 10
1287.546443455402
 20
340.0824744690016
 30
0.0
 11
1287.546443455402
 21
337.0824744690017
 31
0.0
1001
AUSTER_ANSICHT
1002
{
1000
Det03
1002
}
1001
AUSTER_FOLIE
1002
{
1000
NSB00752A
1002
}
  0
ARC
  5
2979
330
1F
100
AcDbEntity
  8
30000_Drilling
  6
Continuous
370
    50
100
AcDbCircle
 39
0.25
 10
1287.546443455402
 20
338.5824744690017
 30
0.0
 40
2.5
100
AcDbArc
 50
90.0
 51
270.0
1001
AUSTER_ANSICHT
1002
{
1000
Det03
1002
}
1001
AUSTER_FOLIE
1002
{
1000
NSB00752A
1002
}
  0
LINE
  5
297A
330
1F
100
AcDbEntity
  8
30000_Drilling
  6
CENTER
 62
     7
370
    13
100
AcDbLine
 39
0.25
 10
1251.046443455402
 20
338.5824744690017
 30
0.0
 11
1254.046443455402
 21
338.5824744690017
 31
0.0
1001
AUSTER_ANSICHT
1002
{
1000
Det03
1002
}
1001
AUSTER_FOLIE
1002
{
1000
NSB00752A
1002
}
  0
LINE
  5
297B
330
1F
100
AcDbEntity
  8
30000_Drilling
  6
CENTER
 62
     7
370
    13
100
AcDbLine
 39
0.25
 10
1252.546443455403
 20
340.0824744690016
 30
0.0
 11
1252.546443455403
 21
337.0824744690017
 31
0.0
1001
AUSTER_ANSICHT
1002
{
1000
Det03
1002
}
1001
AUSTER_FOLIE
1002
{
1000
NSB00752A
1002
}
  0
ARC
  5
297C
330
1F
100
AcDbEntity
  8
30000_Drilling
  6
Continuous
370
    50
100
AcDbCircle
 39
0.25
 10
1252.546443455403
 20
338.5824744690017
 30
0.0
 40
2.5
100
AcDbArc
 50
270.0
 51
90.0
1001
AUSTER_ANSICHT
1002
{
1000
Det03
1002
}
1001
AUSTER_FOLIE
1002
{
1000
NSB00752A
1002
}
  0
ARC
  5
29BF
330
1F
100
AcDbEntity
  8
11000_Left
370
    13
100
AcDbCircle
 39
0.25
 10
1158.459634268741
 20
302.1827344690016
 30
0.0
 40
1.0
100
AcDbArc
 50
180.0
 51
270.0
1001
AUSTER_ANSICHT
1002
{
1000
Det03
1002
}
1001
AUSTER_FOLIE
1002
{
1000
NSB00752A
1002
}
  0
ARC
  5
29C0
330
1F
100
AcDbEntity
  8
11000_Left
370
    13
100
AcDbCircle
 39
0.25
 10
1158.459634268741
 20
325.1827844690017
 30
0.0
 40
1.0
100
AcDbArc
 50
90.0
 51
180.0
1001
AUSTER_ANSICHT
1002
{
1000
Det03
1002
}
1001
AUSTER_FOLIE
1002
{
1000
NSB00752A
1002
}
  0
LINE
  5
29C1
330
1F
100
AcDbEntity
  8
11000_Left
  6
Continuous
370
    50
100
AcDbLine
 39
0.25
 10
1232.459734268742
 20
300.3324344690016
 30
0.0
 11
1232.459734268742
 21
326.8324744690017
 31
0.0
1001
AUSTER_ANSICHT
1002
{
1000
Det03
1002
}
1001
AUSTER_FOLIE
1002
{
1000
NSB00752A
1002
}
  0
LINE
  5
29C3
330
1F
100
AcDbEntity
  8
11000_Left
370
    13
100
AcDbLine
 39
0.5
 10
1164.959634268741
 20
296.0327344690016
 30
-1.0
 11
1164.959634268741
 21
301.1827344690015
 31
-1.0
1001
AUSTER_ANSICHT
1002
{
1000
Det03
1002
}
1001
AUSTER_FOLIE
1002
{
1000
NSB00752A
1002
}
  0
LINE
  5
29C4
330
1F
100
AcDbEntity
  8
11000_Left
370
    13
100
AcDbLine
 39
0.5
 10
1164.959634268741
 20
331.3327844690015
 30
-1.0
 11
1164.959634268741
 21
326.1827844690017
 31
-1.0
1001
AUSTER_ANSICHT
1002
{
1000
Det03
1002
}
1001
AUSTER_FOLIE
1002
{
1000
NSB00752A
1002
}
  0
LINE
  5
29C5
330
1F
100
AcDbEntity
  8
11000_Left
  6
Continuous
370
    13
100
AcDbLine
 39
0.5
 10
1163.959634268741
 20
296.0327344690016
 30
-1.0
 11
1164.959634268741
 21
296.0327344690016
 31
-1.0
1001
AUSTER_ANSICHT
1002
{
1000
Det03
1002
}
1001
AUSTER_FOLIE
1002
{
1000
NSB00752A
1002
}
  0
LINE
  5
29C6
330
1F
100
AcDbEntity
  8
11000_Left
  6
Continuous
370
    50
100
AcDbLine
 39
0.5
 10
1164.959734268741
 20
296.0336344690016
 30
0.0
 11
1164.959734268741
 21
294.0324344690016
 31
0.0
1001
AUSTER_ANSICHT
1002
{
1000
Det03
1002
}
1001
AUSTER_FOLIE
1002
{
1000
NSB00752A
1002
}
  0
LINE
  5
29C7
330
1F
100
AcDbEntity
  8
11000_Left
  6
Continuous
370
    50
100
AcDbLine
 39
0.5
 10
1159.959734268741
 20
294.0324344690016
 30
0.0
 11
1164.959734268741
 21
294.0324344690016
 31
0.0
1001
AUSTER_ANSICHT
1002
{
1000
Det03
1002
}
1001
AUSTER_FOLIE
1002
{
1000
NSB00752A
1002
}
  0
LINE
  5
29C8
330
1F
100
AcDbEntity
  8
11000_Left
  6
Continuous
370
    50
100
AcDbLine
 39
0.5
 10
1159.959734268741
 20
334.5324744690016
 30
0.0
 11
1164.959734268741
 21
334.5324744690016
 31
0.0
1001
AUSTER_ANSICHT
1002
{
1000
Det03
1002
}
1001
AUSTER_FOLIE
1002
{
1000
NSB00752A
1002
}
  0
LINE
  5
29C9
330
1F
100
AcDbEntity
  8
11000_Left
  6
Continuous
370
    50
100
AcDbLine
 39
0.5
 10
1167.559734268741
 20
337.5324744690015
 30
0.0
 11
1190.059734268741
 21
337.5324744690015
 31
0.0
1001
AUSTER_ANSICHT
1002
{
1000
Det03
1002
}
1001
AUSTER_FOLIE
1002
{
1000
NSB00752A
1002
}
  0
LINE
  5
29CA
330
1F
100
AcDbEntity
  8
11000_Left
  6
Continuous
370
    50
100
AcDbLine
 39
0.5
 10
1164.959734268741
 20
334.5324744690016
 30
0.0
 11
1164.959734268741
 21
296.0336344690016
 31
0.0
1001
AUSTER_ANSICHT
1002
{
1000
Det03
1002
}
1001
AUSTER_FOLIE
1002
{
1000
NSB00752A
1002
}
  0
LINE
  5
29CB
330
1F
100
AcDbEntity
  8
11000_Left
  6
Continuous
 62
     7
370
    13
100
AcDbLine
 39
0.25
 10
1196.159734268741
 20
335.7824744690016
 30
0.0
 11
1197.198934268741
 21
336.3824744690016
 31
0.0
1001
AUSTER_ANSICHT
1002
{
1000
Det03
1002
}
1001
AUSTER_FOLIE
1002
{
1000
NSB00752A
1002
}
  0
LINE
  5
29CC
330
1F
100
AcDbEntity
  8
11000_Left
  6
Continuous
 62
     7
370
    13
100
AcDbLine
 39
0.25
 10
1196.159734268741
 20
291.2824344690016
 30
0.0
 11
1196.159734268741
 21
294.2824344690016
 31
0.0
1001
AUSTER_ANSICHT
1002
{
1000
Det03
1002
}
1001
AUSTER_FOLIE
1002
{
1000
NSB00752A
1002
}
  0
LINE
  5
29CD
330
1F
100
AcDbEntity
  8
11000_Left
  6
Continuous
 62
     7
370
    13
100
AcDbLine
 39
0.25
 10
1196.159734268741
 20
332.7824744690015
 30
0.0
 11
1196.159734268741
 21
335.7824744690016
 31
0.0
1001
AUSTER_ANSICHT
1002
{
1000
Det03
1002
}
1001
AUSTER_FOLIE
1002
{
1000
NSB00752A
1002
}
  0
LINE
  5
29CE
330
1F
100
AcDbEntity
  8
11000_Left
  6
Continuous
 62
     7
370
    13
100
AcDbLine
 39
0.25
 10
1197.198934268741
 20
290.6824344690016
 30
0.0
 11
1196.159734268741
 21
291.2824344690016
 31
0.0
1001
AUSTER_ANSICHT
1002
{
1000
Det03
1002
}
1001
AUSTER_FOLIE
1002
{
1000
NSB00752A
1002
}
  0
LINE
  5
29CF
330
1F
100
AcDbEntity
  8
11000_Left
  6
Continuous
 62
     7
370
    13
100
AcDbLine
 39
0.25
 10
1196.159734268741
 20
294.2824344690016
 30
0.0
 11
1196.159734268741
 21
299.2824344690016
 31
0.0
1001
AUSTER_ANSICHT
1002
{
1000
Det03
1002
}
1001
AUSTER_FOLIE
1002
{
1000
NSB00752A
1002
}
  0
LINE
  5
29D0
330
1F
100
AcDbEntity
  8
11000_Left
  6
Continuous
 62
     7
370
    13
100
AcDbLine
 39
0.25
 10
1196.159734268741
 20
327.7824744690016
 30
0.0
 11
1196.159734268741
 21
332.7824744690015
 31
0.0
1001
AUSTER_ANSICHT
1002
{
1000
Det03
1002
}
1001
AUSTER_FOLIE
1002
{
1000
NSB00752A
1002
}
  0
LINE
  5
29D1
330
1F
100
AcDbEntity
  8
11000_Left
  6
Continuous
370
    50
100
AcDbLine
 39
0.5
 10
1190.059734268741
 20
289.5324344690016
 30
0.0
 11
1167.559734268741
 21
289.5324344690016
 31
0.0
1001
AUSTER_ANSICHT
1002
{
1000
Det03
1002
}
1001
AUSTER_FOLIE
1002
{
1000
NSB00752A
1002
}
  0
LINE
  5
29D2
330
1F
100
AcDbEntity
  8
11000_Left
  6
Continuous
370
    13
100
AcDbLine
 39
0.5
 10
1163.559734268741
 20
334.5324744690016
 30
0.0
 11
1163.559734268741
 21
330.5324744690016
 31
0.0
1001
AUSTER_ANSICHT
1002
{
1000
Det03
1002
}
1001
AUSTER_FOLIE
1002
{
1000
NSB00752A
1002
}
  0
LINE
  5
29D3
330
1F
100
AcDbEntity
  8
11000_Left
  6
Continuous
370
    13
100
AcDbLine
 39
0.5
 10
1163.059734268741
 20
329.5324744690016
 30
0.0
 11
1163.559734268741
 21
330.5324744690016
 31
0.0
1001
AUSTER_ANSICHT
1002
{
1000
Det03
1002
}
1001
AUSTER_FOLIE
1002
{
1000
NSB00752A
1002
}
  0
LINE
  5
29D4
330
1F
100
AcDbEntity
  8
11000_Left
  6
Continuous
370
    13
100
AcDbLine
 39
0.5
 10
1162.359734268741
 20
329.5324744690016
 30
0.0
 11
1163.059734268741
 21
329.5324744690016
 31
0.0
1001
AUSTER_ANSICHT
1002
{
1000
Det03
1002
}
1001
AUSTER_FOLIE
1002
{
1000
NSB00752A
1002
}
  0
LINE
  5
29D5
330
1F
100
AcDbEntity
  8
11000_Left
  6
Continuous
370
    13
100
AcDbLine
 39
0.5
 10
1161.059734268741
 20
334.5324744690016
 30
0.0
 11
1162.359734268741
 21
329.5324744690016
 31
0.0
1001
AUSTER_ANSICHT
1002
{
1000
Det03
1002
}
1001
AUSTER_FOLIE
1002
{
1000
NSB00752A
1002
}
  0
LINE
  5
29D6
330
1F
100
AcDbEntity
  8
11000_Left
  6
Continuous
370
    13
100
AcDbLine
 39
0.5
 10
1163.241734268742
 20
297.0324344690016
 30
0.0
 11
1160.059734268741
 21
294.0324344690016
 31
0.0
1001
AUSTER_ANSICHT
1002
{
1000
Det03
1002
}
1001
AUSTER_FOLIE
1002
{
1000
NSB00752A
1002
}
  0
LINE
  5
29D7
330
1F
100
AcDbEntity
  8
11000_Left
  6
Continuous
370
    13
100
AcDbLine
 39
0.5
 10
1163.741734268741
 20
297.0324344690016
 30
0.0
 11
1163.241734268742
 21
297.0324344690016
 31
0.0
1001
AUSTER_ANSICHT
1002
{
1000
Det03
1002
}
1001
AUSTER_FOLIE
1002
{
1000
NSB00752A
1002
}
  0
LINE
  5
29D8
330
1F
100
AcDbEntity
  8
11000_Left
  6
Continuous
370
    13
100
AcDbLine
 39
0.5
 10
1164.009734268741
 20
296.0324344690016
 30
0.0
 11
1163.741734268741
 21
297.0324344690016
 31
0.0
1001
AUSTER_ANSICHT
1002
{
1000
Det03
1002
}
1001
AUSTER_FOLIE
1002
{
1000
NSB00752A
1002
}
  0
LINE
  5
29D9
330
1F
100
AcDbEntity
  8
11000_Left
  6
Continuous
370
    50
100
AcDbLine
 39
0.5
 10
1167.559734268741
 20
337.5324744690015
 30
0.0
 11
1190.059734268741
 21
337.5324744690015
 31
0.0
1001
AUSTER_ANSICHT
1002
{
1000
Det03
1002
}
1001
AUSTER_FOLIE
1002
{
1000
NSB00752A
1002
}
  0
LINE
  5
29DA
330
1F
100
AcDbEntity
  8
11000_Left
  6
Continuous
370
    50
100
AcDbLine
 39
0.5
 10
1159.959734268741
 20
294.0324344690016
 30
0.0
 11
1164.959734268741
 21
294.0324344690016
 31
0.0
1001
AUSTER_ANSICHT
1002
{
1000
Det03
1002
}
1001
AUSTER_FOLIE
1002
{
1000
NSB00752A
1002
}
  0
LINE
  5
29DB
330
1F
100
AcDbEntity
  8
11000_Left
  6
Continuous
370
    50
100
AcDbLine
 39
0.5
 10
1159.959734268741
 20
334.5324744690016
 30
0.0
 11
1164.959734268741
 21
334.5324744690016
 31
0.0
1001
AUSTER_ANSICHT
1002
{
1000
Det03
1002
}
1001
AUSTER_FOLIE
1002
{
1000
NSB00752A
1002
}
  0
LINE
  5
29DC
330
1F
100
AcDbEntity
  8
11000_Left
  6
Continuous
370
    50
100
AcDbLine
 39
0.5
 10
1164.959734268741
 20
334.5324744690016
 30
0.0
 11
1164.959734268741
 21
296.0336344690016
 31
0.0
1001
AUSTER_ANSICHT
1002
{
1000
Det03
1002
}
1001
AUSTER_FOLIE
1002
{
1000
NSB00752A
1002
}
  0
LINE
  5
29DD
330
1F
100
AcDbEntity
  8
11000_Left
  6
Continuous
370
    50
100
AcDbLine
 39
0.5
 10
1164.959734268741
 20
296.0336344690016
 30
0.0
 11
1164.959734268741
 21
294.0324344690016
 31
0.0
1001
AUSTER_ANSICHT
1002
{
1000
Det03
1002
}
1001
AUSTER_FOLIE
1002
{
1000
NSB00752A
1002
}
  0
LINE
  5
29DE
330
1F
100
AcDbEntity
  8
11000_Left
  6
Continuous
370
    13
100
AcDbLine
 39
0.25
 10
1164.009734268741
 20
296.0324344690016
 30
0.0
 11
1164.959734268741
 21
296.0336344690016
 31
0.0
1001
AUSTER_ANSICHT
1002
{
1000
Det03
1002
}
1001
AUSTER_FOLIE
1002
{
1000
NSB00752A
1002
}
  0
LINE
  5
29E0
330
1F
100
AcDbEntity
  8
11000_Left
370
    13
100
AcDbLine
 39
0.25
 10
1163.959634268741
 20
298.5327344690016
 30
-1.0
 11
1163.959634268741
 21
296.0327344690016
 31
-1.0
1001
AUSTER_ANSICHT
1002
{
1000
Det03
1002
}
1001
AUSTER_FOLIE
1002
{
1000
NSB00752A
1002
}
  0
LINE
  5
29E1
330
1F
100
AcDbEntity
  8
11000_Left
370
    13
100
AcDbLine
 39
0.25
 10
1163.959634268741
 20
331.3327844690015
 30
-1.0
 11
1164.959634268741
 21
331.3327844690015
 31
-1.0
1001
AUSTER_ANSICHT
1002
{
1000
Det03
1002
}
1001
AUSTER_FOLIE
1002
{
1000
NSB00752A
1002
}
  0
LINE
  5
29E2
330
1F
100
AcDbEntity
  8
11000_Left
370
    13
100
AcDbLine
 39
0.25
 10
1163.959634268741
 20
328.8327844690016
 30
-1.0
 11
1163.959634268741
 21
331.3327844690015
 31
-1.0
1001
AUSTER_ANSICHT
1002
{
1000
Det03
1002
}
1001
AUSTER_FOLIE
1002
{
1000
NSB00752A
1002
}
  0
LINE
  5
29E3
330
1F
100
AcDbEntity
  8
11000_Left
370
    13
100
AcDbLine
 39
0.25
 10
1159.959634268741
 20
323.1827844690017
 30
-1.0
 11
1159.959634268741
 21
313.6827844690017
 31
-1.0
1001
AUSTER_ANSICHT
1002
{
1000
Det03
1002
}
1001
AUSTER_FOLIE
1002
{
1000
NSB00752A
1002
}
  0
LINE
  5
29E4
330
1F
100
AcDbEntity
  8
11000_Left
370
    13
100
AcDbLine
 39
0.25
 10
1159.959634268741
 20
304.1827344690016
 30
-1.0
 11
1159.959634268741
 21
313.6827844690017
 31
-1.0
1001
AUSTER_ANSICHT
1002
{
1000
Det03
1002
}
1001
AUSTER_FOLIE
1002
{
1000
NSB00752A
1002
}
  0
LINE
  5
29E5
330
1F
100
AcDbEntity
  8
11000_Left
370
    13
100
AcDbLine
 39
0.25
 10
1162.959634268741
 20
328.0827844690016
 30
-1.0
 11
1162.959634268741
 21
328.3327844690016
 31
-1.0
1001
AUSTER_ANSICHT
1002
{
1000
Det03
1002
}
1001
AUSTER_FOLIE
1002
{
1000
NSB00752A
1002
}
  0
LINE
  5
29E6
330
1F
100
AcDbEntity
  8
11000_Left
370
    13
100
AcDbLine
 39
0.25
 10
1163.459634268741
 20
328.3327844690016
 30
-1.0
 11
1162.959634268741
 21
328.3327844690016
 31
-1.0
1001
AUSTER_ANSICHT
1002
{
1000
Det03
1002
}
1001
AUSTER_FOLIE
1002
{
1000
NSB00752A
1002
}
  0
LINE
  5
29E7
330
1F
100
AcDbEntity
  8
11000_Left
370
    13
100
AcDbLine
 39
0.25
 10
1164.959634268741
 20
326.1827844690017
 30
-1.0
 11
1162.959634268741
 21
324.1827844690017
 31
-1.0
1001
AUSTER_ANSICHT
1002
{
1000
Det03
1002
}
1001
AUSTER_FOLIE
1002
{
1000
NSB00752A
1002
}
  0
LINE
  5
29E8
330
1F
100
AcDbEntity
  8
11000_Left
370
    13
100
AcDbLine
 39
0.25
 10
1162.959634268741
 20
299.2827344690017
 30
-1.0
 11
1162.959634268741
 21
299.0327344690016
 31
-1.0
1001
AUSTER_ANSICHT
1002
{
1000
Det03
1002
}
1001
AUSTER_FOLIE
1002
{
1000
NSB00752A
1002
}
  0
LINE
  5
29E9
330
1F
100
AcDbEntity
  8
11000_Left
370
    13
100
AcDbLine
 39
0.25
 10
1163.459634268741
 20
299.0327344690016
 30
-1.0
 11
1162.959634268741
 21
299.0327344690016
 31
-1.0
1001
AUSTER_ANSICHT
1002
{
1000
Det03
1002
}
1001
AUSTER_FOLIE
1002
{
1000
NSB00752A
1002
}
  0
LINE
  5
29EA
330
1F
100
AcDbEntity
  8
11000_Left
370
    13
100
AcDbLine
 39
0.25
 10
1164.959634268741
 20
301.1827344690015
 30
-1.0
 11
1162.959634268741
 21
303.1827344690015
 31
-1.0
1001
AUSTER_ANSICHT
1002
{
1000
Det03
1002
}
1001
AUSTER_FOLIE
1002
{
1000
NSB00752A
1002
}
  0
LINE
  5
29EB
330
1F
100
AcDbEntity
  8
11000_Left
370
    13
100
AcDbLine
 39
0.25
 10
1160.959634268741
 20
324.1827844690017
 30
-1.0
 11
1162.959634268741
 21
324.1827844690017
 31
-1.0
1001
AUSTER_ANSICHT
1002
{
1000
Det03
1002
}
1001
AUSTER_FOLIE
1002
{
1000
NSB00752A
1002
}
  0
LINE
  5
29EC
330
1F
100
AcDbEntity
  8
11000_Left
370
    13
100
AcDbLine
 39
0.25
 10
1160.959634268741
 20
303.1827344690015
 30
-1.0
 11
1162.959634268741
 21
303.1827344690015
 31
-1.0
1001
AUSTER_ANSICHT
1002
{
1000
Det03
1002
}
1001
AUSTER_FOLIE
1002
{
1000
NSB00752A
1002
}
  0
LINE
  5
29ED
330
1F
100
AcDbEntity
  8
11000_Left
370
    13
100
AcDbLine
 39
0.25
 10
1161.059634268741
 20
301.1827344690015
 30
0.0
 11
1158.459634268741
 21
301.1827344690015
 31
0.0
1001
AUSTER_ANSICHT
1002
{
1000
Det03
1002
}
1001
AUSTER_FOLIE
1002
{
1000
NSB00752A
1002
}
  0
LINE
  5
29EE
330
1F
100
AcDbEntity
  8
11000_Left
370
    13
100
AcDbLine
 39
0.25
 10
1157.459634268741
 20
325.1827844690017
 30
0.0
 11
1157.459634268741
 21
302.1827344690016
 31
0.0
1001
AUSTER_ANSICHT
1002
{
1000
Det03
1002
}
1001
AUSTER_FOLIE
1002
{
1000
NSB00752A
1002
}
  0
LINE
  5
29EF
330
1F
100
AcDbEntity
  8
11000_Left
370
    13
100
AcDbLine
 39
0.25
 10
1161.059634268741
 20
326.1827844690017
 30
0.0
 11
1158.459634268741
 21
326.1827844690017
 31
0.0
1001
AUSTER_ANSICHT
1002
{
1000
Det03
1002
}
1001
AUSTER_FOLIE
1002
{
1000
NSB00752A
1002
}
  0
LINE
  5
29F0
330
1F
100
AcDbEntity
  8
30000_Drilling
  6
Continuous
370
    50
100
AcDbLine
 39
0.25
 10
1250.046443455402
 20
291.0824344690015
 30
0.0
 11
1252.546443455403
 21
291.0824344690015
 31
0.0
1001
AUSTER_ANSICHT
1002
{
1000
Det03
1002
}
1001
AUSTER_FOLIE
1002
{
1000
NSB00752A
1002
}
  0
LINE
  5
29F1
330
1F
100
AcDbEntity
  8
30000_Drilling
  6
Continuous
370
    50
100
AcDbLine
 39
0.25
 10
1250.046443455402
 20
286.1124344690016
 30
0.0
 11
1250.046443455402
 21
291.0824344690015
 31
0.0
1001
AUSTER_ANSICHT
1002
{
1000
Det03
1002
}
1001
AUSTER_FOLIE
1002
{
1000
NSB00752A
1002
}
  0
LINE
  5
29F2
330
1F
100
AcDbEntity
  8
30000_Drilling
  6
Continuous
370
    50
100
AcDbLine
 39
0.25
 10
1250.046443455402
 20
286.1124344690016
 30
0.0
 11
1252.546443455403
 21
286.0824344690016
 31
0.0
1001
AUSTER_ANSICHT
1002
{
1000
Det03
1002
}
1001
AUSTER_FOLIE
1002
{
1000
NSB00752A
1002
}
  0
LINE
  5
29F3
330
1F
100
AcDbEntity
  8
30000_Drilling
  6
Continuous
370
    50
100
AcDbLine
 39
0.25
 10
1290.046443455402
 20
291.0824344690015
 30
0.0
 11
1287.546443455402
 21
291.0824344690015
 31
0.0
1001
AUSTER_ANSICHT
1002
{
1000
Det03
1002
}
1001
AUSTER_FOLIE
1002
{
1000
NSB00752A
1002
}
  0
LINE
  5
29F4
330
1F
100
AcDbEntity
  8
30000_Drilling
  6
Continuous
370
    50
100
AcDbLine
 39
0.25
 10
1290.046443455402
 20
286.1124344690016
 30
0.0
 11
1290.046443455402
 21
291.0824344690015
 31
0.0
1001
AUSTER_ANSICHT
1002
{
1000
Det03
1002
}
1001
AUSTER_FOLIE
1002
{
1000
NSB00752A
1002
}
  0
LINE
  5
29F5
330
1F
100
AcDbEntity
  8
30000_Drilling
  6
Continuous
370
    50
100
AcDbLine
 39
0.25
 10
1290.046443455402
 20
286.1124344690016
 30
0.0
 11
1287.546443455402
 21
286.0824344690016
 31
0.0
1001
AUSTER_ANSICHT
1002
{
1000
Det03
1002
}
1001
AUSTER_FOLIE
1002
{
1000
NSB00752A
1002
}
  0
LINE
  5
29F6
330
1F
100
AcDbEntity
  8
30000_Drilling
  6
Continuous
370
    50
100
AcDbLine
 39
0.25
 10
1290.046443455402
 20
336.0824744690016
 30
0.0
 11
1287.546443455402
 21
336.0824744690016
 31
0.0
1001
AUSTER_ANSICHT
1002
{
1000
Det03
1002
}
1001
AUSTER_FOLIE
1002
{
1000
NSB00752A
1002
}
  0
LINE
  5
29F7
330
1F
100
AcDbEntity
  8
30000_Drilling
  6
Continuous
370
    50
100
AcDbLine
 39
0.25
 10
1290.046443455402
 20
341.0524744690016
 30
0.0
 11
1290.046443455402
 21
336.0824744690016
 31
0.0
1001
AUSTER_ANSICHT
1002
{
1000
Det03
1002
}
1001
AUSTER_FOLIE
1002
{
1000
NSB00752A
1002
}
  0
LINE
  5
29F8
330
1F
100
AcDbEntity
  8
30000_Drilling
  6
Continuous
370
    50
100
AcDbLine
 39
0.25
 10
1290.046443455402
 20
341.0524744690016
 30
0.0
 11
1287.546443455402
 21
341.0824744690017
 31
0.0
1001
AUSTER_ANSICHT
1002
{
1000
Det03
1002
}
1001
AUSTER_FOLIE
1002
{
1000
NSB00752A
1002
}
  0
LINE
  5
29F9
330
1F
100
AcDbEntity
  8
30000_Drilling
  6
Continuous
370
    50
100
AcDbLine
 39
0.25
 10
1250.046443455402
 20
336.0824744690016
 30
0.0
 11
1252.546443455403
 21
336.0824744690016
 31
0.0
1001
AUSTER_ANSICHT
1002
{
1000
Det03
1002
}
1001
AUSTER_FOLIE
1002
{
1000
NSB00752A
1002
}
  0
LINE
  5
29FA
330
1F
100
AcDbEntity
  8
30000_Drilling
  6
Continuous
370
    50
100
AcDbLine
 39
0.25
 10
1250.046443455402
 20
341.0524744690016
 30
0.0
 11
1250.046443455402
 21
336.0824744690016
 31
0.0
1001
AUSTER_ANSICHT
1002
{
1000
Det03
1002
}
1001
AUSTER_FOLIE
1002
{
1000
NSB00752A
1002
}
  0
LINE
  5
29FB
330
1F
100
AcDbEntity
  8
30000_Drilling
  6
Continuous
370
    50
100
AcDbLine
 39
0.25
 10
1250.046443455402
 20
341.0524744690016
 30
0.0
 11
1252.546443455403
 21
341.0824744690017
 31
0.0
1001
AUSTER_ANSICHT
1002
{
1000
Det03
1002
}
1001
AUSTER_FOLIE
1002
{
1000
NSB00752A
1002
}
  0
LINE
  5
2A04
330
1F
100
AcDbEntity
  8
10000_FRONT
  6
Continuous
 62
     7
370
    13
100
AcDbLine
 39
0.25
 10
1100.213718242834
 20
308.6658744690016
 30
0.0
 11
1096.092928242834
 21
308.6658744690016
 31
0.0
1001
AUSTER_ANSICHT
1002
{
1000
Det03
1002
}
1001
AUSTER_FOLIE
1002
{
1000
NSB00752A
1002
}
  0
LINE
  5
2A05
330
1F
100
AcDbEntity
  8
10000_FRONT
  6
Continuous
 62
     7
370
    13
100
AcDbLine
 39
0.25
 10
1111.209828242834
 20
308.6658744690016
 30
0.0
 11
1107.091488242834
 21
308.6658744690016
 31
0.0
1001
AUSTER_ANSICHT
1002
{
1000
Det03
1002
}
1001
AUSTER_FOLIE
1002
{
1000
NSB00752A
1002
}
  0
LINE
  5
2A06
330
1F
100
AcDbEntity
  8
10000_FRONT
  6
Continuous
 62
     7
370
    13
100
AcDbLine
 39
0.25
 10
1111.209828242834
 20
308.6658744690016
 30
0.0
 11
1113.653608242834
 21
308.6658744690016
 31
0.0
1001
AUSTER_ANSICHT
1002
{
1000
Det03
1002
}
1001
AUSTER_FOLIE
1002
{
1000
NSB00752A
1002
}
  0
LINE
  5
2A07
330
1F
100
AcDbEntity
  8
10000_FRONT
  6
Continuous
 62
     7
370
    13
100
AcDbLine
 39
0.25
 10
1100.213718242834
 20
308.6658744690016
 30
0.0
 11
1107.091488242834
 21
308.6658744690016
 31
0.0
1001
AUSTER_ANSICHT
1002
{
1000
Det03
1002
}
1001
AUSTER_FOLIE
1002
{
1000
NSB00752A
1002
}
  0
LINE
  5
2A08
330
1F
100
AcDbEntity
  8
10000_FRONT
  6
Continuous
 62
     7
370
    13
100
AcDbLine
 39
0.25
 10
1093.653608242834
 20
308.6658744690016
 30
0.0
 11
1096.092928242834
 21
308.6658744690016
 31
0.0
1001
AUSTER_ANSICHT
1002
{
1000
Det03
1002
}
1001
AUSTER_FOLIE
1002
{
1000
NSB00752A
1002
}
  0
LINE
  5
2A0F
330
1F
100
AcDbEntity
  8
10000_FRONT
  6
Continuous
 62
     7
370
    13
100
AcDbLine
 39
0.25
 10
1115.240218242834
 20
307.6890744690016
 30
0.0
 11
1115.240218242834
 21
301.5158344690017
 31
0.0
1001
AUSTER_ANSICHT
1002
{
1000
Det03
1002
}
1001
AUSTER_FOLIE
1002
{
1000
NSB00752A
1002
}
  0
LINE
  5
2A26
330
1F
100
AcDbEntity
  8
10000_FRONT
  6
Continuous
 62
     7
370
    13
100
AcDbLine
 39
0.25
 10
1093.653608242834
 20
308.6658744690016
 30
0.0
 11
1093.653608242834
 21
301.5158344690017
 31
0.0
1001
AUSTER_ANSICHT
1002
{
1000
Det03
1002
}
1001
AUSTER_FOLIE
1002
{
1000
NSB00752A
1002
}
  0
LINE
  5
2A27
330
1F
100
AcDbEntity
  8
10000_FRONT
  6
Continuous
 62
     7
370
    13
100
AcDbLine
 39
0.25
 10
1093.653608242834
 20
301.5158344690017
 30
0.0
 11
1115.240218242834
 21
301.5158344690017
 31
0.0
1001
AUSTER_ANSICHT
1002
{
1000
Det03
1002
}
1001
AUSTER_FOLIE
1002
{
1000
NSB00752A
1002
}
  0
LINE
  5
2A28
330
1F
100
AcDbEntity
  8
10000_FRONT
  6
Continuous
 62
     7
370
    13
100
AcDbLine
 39
0.25
 10
1113.653608242834
 20
308.6658744690016
 30
0.0
 11
1113.653608242834
 21
301.5158344690017
 31
0.0
1001
AUSTER_ANSICHT
1002
{
1000
Det03
1002
}
1001
AUSTER_FOLIE
1002
{
1000
NSB00752A
1002
}
  0
LINE
  5
2A29
330
1F
100
AcDbEntity
  8
10000_FRONT
  6
Continuous
 62
     7
370
    13
100
AcDbLine
 39
0.25
 10
1113.653608242834
 20
307.6890744690016
 30
0.0
 11
1115.240218242834
 21
307.6890744690016
 31
0.0
1001
AUSTER_ANSICHT
1002
{
1000
Det03
1002
}
1001
AUSTER_FOLIE
1002
{
1000
NSB00752A
1002
}
  0
LINE
  5
2A2A
330
1F
100
AcDbEntity
  8
10000_FRONT
  6
Continuous
 62
     7
370
    13
100
AcDbLine
 39
0.25
 10
1111.109058242834
 20
311.2524744690016
 30
0.0
 11
1111.109058242834
 21
315.8524744690016
 31
0.0
1001
AUSTER_ANSICHT
1002
{
1000
Det03
1002
}
1001
AUSTER_FOLIE
1002
{
1000
NSB00752A
1002
}
  0
LINE
  5
2A2B
330
1F
100
AcDbEntity
  8
10000_FRONT
  6
Continuous
 62
     7
370
    13
100
AcDbLine
 39
0.25
 10
1111.109058242834
 20
315.8524744690016
 30
0.0
 11
1107.170228242834
 21
315.8524544690016
 31
0.0
1001
AUSTER_ANSICHT
1002
{
1000
Det03
1002
}
1001
AUSTER_FOLIE
1002
{
1000
NSB00752A
1002
}
  0
LINE
  5
2A2C
330
1F
100
AcDbEntity
  8
10000_FRONT
  6
Continuous
 62
     7
370
    13
100
AcDbLine
 39
0.25
 10
1111.109058242834
 20
311.2524744690016
 30
0.0
 11
1107.170228242834
 21
311.2524944690016
 31
0.0
1001
AUSTER_ANSICHT
1002
{
1000
Det03
1002
}
1001
AUSTER_FOLIE
1002
{
1000
NSB00752A
1002
}
  0
LINE
  5
2ADF
330
1F
100
AcDbEntity
  8
11000_Left
  6
Continuous
370
    50
100
AcDbLine
 39
0.25
 10
1167.559734268741
 20
289.5324344690016
 30
0.0
 11
1206.857834268741
 21
289.5324344690016
 31
0.0
1001
AUSTER_ANSICHT
1002
{
1000
Det03
1002
}
1001
AUSTER_FOLIE
1002
{
1000
NSB00752A
1002
}
  0
LINE
  5
2AE0
330
1F
100
AcDbEntity
  8
11000_Left
  6
Continuous
370
    13
100
AcDbLine
 39
0.25
 10
1206.857834268741
 20
290.6824344690016
 30
0.0
 11
1206.858346734805
 21
289.5324131101962
 31
0.0
1001
AUSTER_ANSICHT
1002
{
1000
Det03
1002
}
1001
AUSTER_FOLIE
1002
{
1000
NSB00752A
1002
}
  0
LINE
  5
2AE1
330
1F
100
AcDbEntity
  8
11000_Left
  6
Continuous
370
    13
100
AcDbLine
 39
0.25
 10
1206.859734268741
 20
341.0824744690017
 30
0.0
 11
1206.857834268741
 21
337.5324744690015
 31
0.0
1001
AUSTER_ANSICHT
1002
{
1000
Det03
1002
}
1001
AUSTER_FOLIE
1002
{
1000
NSB00752A
1002
}
  0
LINE
  5
2AE4
330
1F
100
AcDbEntity
  8
11000_Left
  6
Continuous
370
    50
100
AcDbLine
 39
0.25
 10
1190.059734268741
 20
337.5324744690015
 30
0.0
 11
1206.259734268742
 21
337.5324744690015
 31
0.0
1001
AUSTER_ANSICHT
1002
{
1000
Det03
1002
}
1001
AUSTER_FOLIE
1002
{
1000
NSB00752A
1002
}
  0
LINE
  5
2AE5
330
1F
100
AcDbEntity
  8
11000_Left
  6
Continuous
370
    13
100
AcDbLine
 39
0.25
 10
1206.259734268742
 20
337.5324744690015
 30
0.0
 11
1206.857834268741
 21
337.5324744690015
 31
0.0
1001
AUSTER_ANSICHT
1002
{
1000
Det03
1002
}
1001
AUSTER_FOLIE
1002
{
1000
NSB00752A
1002
}
  0
LINE
  5
2AE7
330
1F
100
AcDbEntity
  8
11000_Left
  6
Continuous
370
    50
100
AcDbLine
 39
0.25
 10
1232.459734268742
 20
326.5824744690017
 30
0.0
 11
1232.459734268742
 21
300.5824344690016
 31
0.0
1001
AUSTER_ANSICHT
1002
{
1000
Det03
1002
}
1001
AUSTER_FOLIE
1002
{
1000
NSB00752A
1002
}
  0
LINE
  5
2AEB
330
1F
100
AcDbEntity
  8
11000_Left
  6
Continuous
370
    50
100
AcDbLine
 39
0.5
 10
1159.959734268741
 20
342.2824744690016
 30
0.0
 11
1159.959734268741
 21
334.5324744690016
 31
0.0
1001
AUSTER_ANSICHT
1002
{
1000
Det03
1002
}
1001
AUSTER_FOLIE
1002
{
1000
NSB00752A
1002
}
  0
LINE
  5
2AEC
330
1F
100
AcDbEntity
  8
11000_Left
  6
Continuous
370
    50
100
AcDbLine
 39
0.5
 10
1159.959734268741
 20
284.7824344690016
 30
0.0
 11
1159.959734268741
 21
294.0324344690016
 31
0.0
1001
AUSTER_ANSICHT
1002
{
1000
Det03
1002
}
1001
AUSTER_FOLIE
1002
{
1000
NSB00752A
1002
}
  0
LINE
  5
2AED
330
1F
100
AcDbEntity
  8
11000_Left
  6
Continuous
370
    50
100
AcDbLine
 39
0.5
 10
1159.959734268741
 20
284.7824344690016
 30
0.0
 11
1167.559734268741
 21
284.7824344690016
 31
0.0
1001
AUSTER_ANSICHT
1002
{
1000
Det03
1002
}
1001
AUSTER_FOLIE
1002
{
1000
NSB00752A
1002
}
  0
LINE
  5
2AEE
330
1F
100
AcDbEntity
  8
11000_Left
  6
Continuous
370
    50
100
AcDbLine
 39
0.5
 10
1159.959734268741
 20
342.2824744690016
 30
0.0
 11
1167.559734268741
 21
342.2824744690016
 31
0.0
1001
AUSTER_ANSICHT
1002
{
1000
Det03
1002
}
1001
AUSTER_FOLIE
1002
{
1000
NSB00752A
1002
}
  0
LINE
  5
2AEF
330
1F
100
AcDbEntity
  8
11000_Left
  6
Continuous
370
    50
100
AcDbLine
 39
0.5
 10
1167.559734268741
 20
284.7824344690016
 30
0.0
 11
1167.559734268741
 21
289.5324344690016
 31
0.0
1001
AUSTER_ANSICHT
1002
{
1000
Det03
1002
}
1001
AUSTER_FOLIE
1002
{
1000
NSB00752A
1002
}
  0
LINE
  5
2AF0
330
1F
100
AcDbEntity
  8
11000_Left
  6
Continuous
370
    50
100
AcDbLine
 39
0.5
 10
1167.559734268741
 20
342.2824744690016
 30
0.0
 11
1167.559734268741
 21
337.5324744690015
 31
0.0
1001
AUSTER_ANSICHT
1002
{
1000
Det03
1002
}
1001
AUSTER_FOLIE
1002
{
1000
NSB00752A
1002
}
  0
LINE
  5
2AF5
330
1F
100
AcDbEntity
  8
11000_Left
  6
Continuous
370
    50
100
AcDbLine
 39
0.25
 10
1190.059734268741
 20
337.5324744690015
 30
0.0
 11
1206.259734268742
 21
337.5324744690015
 31
0.0
1001
AUSTER_ANSICHT
1002
{
1000
Det03
1002
}
1001
AUSTER_FOLIE
1002
{
1000
NSB00752A
1002
}
  0
LINE
  5
2AF6
330
1F
100
AcDbEntity
  8
11000_Left
  6
Continuous
370
    13
100
AcDbLine
 39
0.25
 10
1206.259734268742
 20
289.5324344690016
 30
0.0
 11
1190.059734268741
 21
289.5324344690016
 31
0.0
1001
AUSTER_ANSICHT
1002
{
1000
Det03
1002
}
1001
AUSTER_FOLIE
1002
{
1000
NSB00752A
1002
}
  0
LINE
  5
2AF7
330
1F
100
AcDbEntity
  8
11000_Left
  6
Continuous
370
    13
100
AcDbLine
 39
0.25
 10
1206.857834268741
 20
289.5324344690016
 30
0.0
 11
1206.259734268742
 21
289.5324344690016
 31
0.0
1001
AUSTER_ANSICHT
1002
{
1000
Det03
1002
}
1001
AUSTER_FOLIE
1002
{
1000
NSB00752A
1002
}
  0
LINE
  5
2AF8
330
1F
100
AcDbEntity
  8
11000_Left
  6
Continuous
370
    13
100
AcDbLine
 39
0.25
 10
1206.259734268742
 20
337.5324744690015
 30
0.0
 11
1206.857834268741
 21
337.5324744690015
 31
0.0
1001
AUSTER_ANSICHT
1002
{
1000
Det03
1002
}
1001
AUSTER_FOLIE
1002
{
1000
NSB00752A
1002
}
  0
LINE
  5
2AFB
330
1F
100
AcDbEntity
  8
11000_Left
  6
Continuous
 62
     7
370
    13
100
AcDbLine
 39
0.25
 10
1230.959734268741
 20
317.9324744690016
 30
0.0
 11
1230.959734268741
 21
309.2324744690016
 31
0.0
1001
AUSTER_ANSICHT
1002
{
1000
Det03
1002
}
1001
AUSTER_FOLIE
1002
{
1000
NSB00752A
1002
}
  0
LINE
  5
2AFC
330
1F
100
AcDbEntity
  8
11000_Left
  6
Continuous
 62
     7
370
    13
100
AcDbLine
 39
0.25
 10
1227.359734268741
 20
317.9346444690015
 30
0.0
 11
1230.959734268741
 21
317.9324744690016
 31
0.0
1001
AUSTER_ANSICHT
1002
{
1000
Det03
1002
}
1001
AUSTER_FOLIE
1002
{
1000
NSB00752A
1002
}
  0
LINE
  5
2AFD
330
1F
100
AcDbEntity
  8
11000_Left
  6
Continuous
 62
     7
370
    13
100
AcDbLine
 39
0.25
 10
1227.359734268741
 20
317.9346444690015
 30
0.0
 11
1227.359734268741
 21
343.5824344690017
 31
0.0
1001
AUSTER_ANSICHT
1002
{
1000
Det03
1002
}
1001
AUSTER_FOLIE
1002
{
1000
NSB00752A
1002
}
  0
LINE
  5
2AFE
330
1F
100
AcDbEntity
  8
11000_Left
  6
Continuous
 62
     7
370
    13
100
AcDbLine
 39
0.25
 10
1230.959734268741
 20
309.2324744690016
 30
0.0
 11
1227.359734268741
 21
309.2303144690016
 31
0.0
1001
AUSTER_ANSICHT
1002
{
1000
Det03
1002
}
1001
AUSTER_FOLIE
1002
{
1000
NSB00752A
1002
}
  0
LINE
  5
2AFF
330
1F
100
AcDbEntity
  8
11000_Left
  6
Continuous
 62
     7
370
    13
100
AcDbLine
 39
0.25
 10
1227.359734268741
 20
287.0824344690015
 30
0.0
 11
1227.359734268741
 21
309.2303144690016
 31
0.0
1001
AUSTER_ANSICHT
1002
{
1000
Det03
1002
}
1001
AUSTER_FOLIE
1002
{
1000
NSB00752A
1002
}
  0
LINE
  5
2B00
330
1F
100
AcDbEntity
  8
11000_Left
  6
Continuous
 62
     7
370
    13
100
AcDbLine
 39
0.25
 10
1227.359734268741
 20
283.5824344690016
 30
0.0
 11
1227.359734268741
 21
287.0824344690015
 31
0.0
1001
AUSTER_ANSICHT
1002
{
1000
Det03
1002
}
1001
AUSTER_FOLIE
1002
{
1000
NSB00752A
1002
}
  0
LINE
  5
2B05
330
1F
100
AcDbEntity
  8
11000_Left
  6
Continuous
 62
     7
370
    13
100
AcDbLine
 39
0.25
 10
1210.959734268741
 20
314.8324744690015
 30
0.0
 11
1227.359734268741
 21
314.8324744690015
 31
0.0
1001
AUSTER_ANSICHT
1002
{
1000
Det03
1002
}
1001
AUSTER_FOLIE
1002
{
1000
NSB00752A
1002
}
  0
LINE
  5
2B06
330
1F
100
AcDbEntity
  8
11000_Left
  6
Continuous
 62
     7
370
    13
100
AcDbLine
 39
0.25
 10
1210.959734268741
 20
312.3324744690017
 30
0.0
 11
1210.959734268741
 21
314.8324744690015
 31
0.0
1001
AUSTER_ANSICHT
1002
{
1000
Det03
1002
}
1001
AUSTER_FOLIE
1002
{
1000
NSB00752A
1002
}
  0
LINE
  5
2B07
330
1F
100
AcDbEntity
  8
11000_Left
  6
Continuous
 62
     7
370
    13
100
AcDbLine
 39
0.25
 10
1227.359734268741
 20
312.3324744690017
 30
0.0
 11
1210.959734268741
 21
312.3324744690017
 31
0.0
1001
AUSTER_ANSICHT
1002
{
1000
Det03
1002
}
1001
AUSTER_FOLIE
1002
{
1000
NSB00752A
1002
}
  0
LINE
  5
2B08
330
1F
100
AcDbEntity
  8
11000_Left
  6
Continuous
 62
     7
370
    13
100
AcDbLine
 39
0.25
 10
1227.359734268741
 20
309.2303144690016
 30
0.0
 11
1227.359734268741
 21
312.3324744690017
 31
0.0
1001
AUSTER_ANSICHT
1002
{
1000
Det03
1002
}
1001
AUSTER_FOLIE
1002
{
1000
NSB00752A
1002
}
  0
LINE
  5
2B0B
330
1F
100
AcDbEntity
  8
11000_Left
  6
Continuous
 62
     7
370
    13
100
AcDbLine
 39
0.25
 10
1227.359734268741
 20
314.8324744690015
 30
0.0
 11
1227.359734268741
 21
317.9346444690015
 31
0.0
1001
AUSTER_ANSICHT
1002
{
1000
Det03
1002
}
1001
AUSTER_FOLIE
1002
{
1000
NSB00752A
1002
}
  0
LINE
  5
2B0D
330
1F
100
AcDbEntity
  8
11000_Left
  6
Continuous
370
    50
100
AcDbLine
 39
0.5
 10
1159.959734268741
 20
284.7824344690016
 30
0.0
 11
1167.559734268741
 21
284.7824344690016
 31
0.0
1001
AUSTER_ANSICHT
1002
{
1000
Det03
1002
}
1001
AUSTER_FOLIE
1002
{
1000
NSB00752A
1002
}
  0
LINE
  5
2B0E
330
1F
100
AcDbEntity
  8
11000_Left
  6
Continuous
370
    50
100
AcDbLine
 39
0.5
 10
1159.959734268741
 20
342.2824744690016
 30
0.0
 11
1167.559734268741
 21
342.2824744690016
 31
0.0
1001
AUSTER_ANSICHT
1002
{
1000
Det03
1002
}
1001
AUSTER_FOLIE
1002
{
1000
NSB00752A
1002
}
  0
LINE
  5
2B12
330
1F
100
AcDbEntity
  8
11000_Left
  6
Continuous
370
    13
100
AcDbLine
 39
0.25
 10
1206.859734268741
 20
336.3824744690016
 30
0.0
 11
1206.859363288764
 21
337.5324761221877
 31
0.0
1001
AUSTER_ANSICHT
1002
{
1000
Det03
1002
}
1001
AUSTER_FOLIE
1002
{
1000
NSB00752A
1002
}
  0
LINE
  5
2B13
330
1F
100
AcDbEntity
  8
11000_Left
  6
Continuous
 62
     7
370
    13
100
AcDbLine
 39
0.25
 10
1197.198934268741
 20
290.6824344690016
 30
0.0
 11
1206.859734268741
 21
290.6824344690016
 31
0.0
1001
AUSTER_ANSICHT
1002
{
1000
Det03
1002
}
1001
AUSTER_FOLIE
1002
{
1000
NSB00752A
1002
}
  0
LINE
  5
2B14
330
1F
100
AcDbEntity
  8
11000_Left
  6
Continuous
 62
     7
370
    13
100
AcDbLine
 39
0.25
 10
1197.198934268741
 20
336.3824744690016
 30
0.0
 11
1206.859734268741
 21
336.3824744690016
 31
0.0
1001
AUSTER_ANSICHT
1002
{
1000
Det03
1002
}
1001
AUSTER_FOLIE
1002
{
1000
NSB00752A
1002
}
  0
LINE
  5
2B1B
330
1F
100
AcDbEntity
  8
11000_Left
  6
Continuous
370
    50
100
AcDbLine
 39
0.5
 10
1167.559734268741
 20
284.7824344690016
 30
0.0
 11
1167.559734268741
 21
289.5324344690016
 31
0.0
1001
AUSTER_ANSICHT
1002
{
1000
Det03
1002
}
1001
AUSTER_FOLIE
1002
{
1000
NSB00752A
1002
}
  0
LINE
  5
2B1C
330
1F
100
AcDbEntity
  8
11000_Left
  6
Continuous
370
    50
100
AcDbLine
 39
0.5
 10
1159.959734268741
 20
284.7824344690016
 30
0.0
 11
1159.959734268741
 21
294.0324344690016
 31
0.0
1001
AUSTER_ANSICHT
1002
{
1000
Det03
1002
}
1001
AUSTER_FOLIE
1002
{
1000
NSB00752A
1002
}
  0
LINE
  5
2B1D
330
1F
100
AcDbEntity
  8
11000_Left
  6
Continuous
370
    50
100
AcDbLine
 39
0.5
 10
1167.559734268741
 20
342.2824744690016
 30
0.0
 11
1167.559734268741
 21
337.5324744690015
 31
0.0
1001
AUSTER_ANSICHT
1002
{
1000
Det03
1002
}
1001
AUSTER_FOLIE
1002
{
1000
NSB00752A
1002
}
  0
LINE
  5
2B1E
330
1F
100
AcDbEntity
  8
11000_Left
  6
Continuous
370
    50
100
AcDbLine
 39
0.5
 10
1159.959734268741
 20
342.2824744690016
 30
0.0
 11
1159.959734268741
 21
334.5324744690016
 31
0.0
1001
AUSTER_ANSICHT
1002
{
1000
Det03
1002
}
1001
AUSTER_FOLIE
1002
{
1000
NSB00752A
1002
}
  0
LINE
  5
2B1F
330
1F
100
AcDbEntity
  8
11000_Left
  6
Continuous
370
    50
100
AcDbLine
 39
0.25
 10
1232.459734268742
 20
326.5824744690017
 30
0.0
 11
1232.459734268742
 21
300.5824344690016
 31
0.0
1001
AUSTER_ANSICHT
1002
{
1000
Det03
1002
}
1001
AUSTER_FOLIE
1002
{
1000
NSB00752A
1002
}
  0
LINE
  5
2B21
330
1F
100
AcDbEntity
  8
11000_Left
  6
Continuous
 62
     7
370
    13
100
AcDbLine
 39
0.25
 10
1196.159734268741
 20
299.2824344690016
 30
0.0
 11
1196.159734268741
 21
327.7824744690016
 31
0.0
1001
AUSTER_ANSICHT
1002
{
1000
Det03
1002
}
1001
AUSTER_FOLIE
1002
{
1000
NSB00752A
1002
}
  0
LINE
  5
2B23
330
1F
100
AcDbEntity
  8
11000_Left
370
    50
100
AcDbLine
 39
0.5
 10
1232.459734268742
 20
325.3324744690015
 30
0.0
 11
1232.459734268742
 21
301.8324344690015
 31
0.0
1001
AUSTER_ANSICHT
1002
{
1000
Det03
1002
}
1001
AUSTER_FOLIE
1002
{
1000
NSB00752A
1002
}
  0
LINE
  5
2B24
330
1F
100
AcDbEntity
  8
10000_FRONT
  6
Continuous
 62
     7
370
    13
100
AcDbLine
 39
0.25
 10
1107.170228242834
 20
315.8524544690016
 30
0.0
 11
1107.170228242834
 21
311.2524944690016
 31
0.0
1001
AUSTER_ANSICHT
1002
{
1000
Det03
1002
}
1001
AUSTER_FOLIE
1002
{
1000
NSB00752A
1002
}
  0
DIMENSION
  5
2B25
330
1F
100
AcDbEntity
  8
30100_Drilling_DIM
  6
Continuous
370
    13
100
AcDbDimension
  2
*D2
 10
1287.546443455402
 20
278.1494344690015
 30
0.0
 11
1270.046443455403
 21
278.1494344690015
 31
0.0
 70
    32
 71
     5
 42
34.99999999999909
  3
DSTYLE1
100
AcDbAlignedDimension
 13
1252.546443455403
 23
288.5824344690016
 33
0.0
 14
1287.546443455402
 24
287.0824344690015
 34
0.0
100
AcDbRotatedDimension
1001
AUSTER_FOLIE
1002
{
1000
NSB00752A
1002
}
1001
AUSTER_ANSICHT
1002
{
1000
Det03
1002
}
1001
ACAD
1000
DSTYLE
1002
{
1070
    41
1040
2.0
1070
    42
1040
1.0
1070
    43
1040
1.0
1070
    47
1040
0.005
1070
    48
1040
-0.005
1070
    77
1070
     0
1070
    78
1070
     0
1070
   143
1040
25.4
1070
   171
1070
     0
1070
   172
1070
     1
1070
   271
1070
     0
1070
   272
1070
     1
1070
   277
1070
     6
1002
}
  0
DIMENSION
  5
2B26
330
1F
100
AcDbEntity
  8
30100_Drilling_DIM
  6
Continuous
370
    13
100
AcDbDimension
  2
*D3
 10
1300.066743455402
 20
288.5824344690016
 30
0.0
 11
1300.066743455402
 21
313.5824344690018
 31
0.0
 70
    32
 71
     5
 42
50.0000000000001
  3
DSTYLE1
100
AcDbAlignedDimension
 13
1287.546743455402
 23
338.5824344690017
 33
0.0
 14
1287.546443455402
 24
288.5824344690016
 34
0.0
 50
90.0
100
AcDbRotatedDimension
1001
AUSTER_FOLIE
1002
{
1000
NSB00752A
1002
}
1001
AUSTER_ANSICHT
1002
{
1000
Det03
1002
}
1001
ACAD
1000
DSTYLE
1002
{
1070
    41
1040
2.0
1070
    42
1040
1.0
1070
    43
1040
1.0
1070
    47
1040
0.005
1070
    48
1040
-0.005
1070
    77
1070
     0
1070
    78
1070
     0
1070
   143
1040
25.4
1070
   171
1070
     0
1070
   172
1070
     1
1070
   271
1070
     0
1070
   272
1070
     1
1070
   277
1070
     6
1002
}
  0
DIMENSION
  5
2B27
330
1F
100
AcDbEntity
  8
30100_Drilling_DIM
  6
Continuous
370
    13
100
AcDbDimension
  2
*D4
 10
1265.078743455402
 20
336.0824344690017
 30
0.0
 11
1265.078743455402
 21
338.5824344690018
 31
0.0
 70
    32
 71
     5
 42
4.999999999999886
  3
DSTYLE1
100
AcDbAlignedDimension
 13
1252.560585534459
 23
341.0824344690015
 33
0.0
 14
1252.560585534459
 24
336.0824344690017
 34
0.0
 50
90.0
100
AcDbRotatedDimension
1001
AUSTER_FOLIE
1002
{
1000
NSB00752A
1002
}
1001
AUSTER_ANSICHT
1002
{
1000
Det03
1002
}
1001
ACAD
1000
DSTYLE
1002
{
1070
    41
1040
2.0
1070
    42
1040
1.0
1070
    43
1040
1.0
1070
    47
1040
0.005
1070
    48
1040
-0.005
1070
    77
1070
     0
1070
    78
1070
     0
1070
   143
1040
25.4
1070
   171
1070
     0
1070
   172
1070
     1
1070
   271
1070
     0
1070
   272
1070
     1
1070
   277
1070
     6
1002
}
  0
DIMENSION
  5
2B28
330
1F
100
AcDbEntity
  8
10100_FRONT_DIM
  6
Continuous
370
    13
100
AcDbDimension
  2
*D5
 10
1135.940298242834
 20
359.5174344690016
 30
0.0
 11
1113.440298242834
 21
359.5174344690016
 31
0.0
 70
    32
 71
     5
 42
45.0
  3
DSTYLE1
100
AcDbAlignedDimension
 13
1090.940298242834
 23
342.3024744690017
 33
0.0
 14
1135.940298242834
 24
342.3024744690017
 34
0.0
100
AcDbRotatedDimension
1001
AUSTER_FOLIE
1002
{
1000
NSB00752A
1002
}
1001
AUSTER_ANSICHT
1002
{
1000
Det03
1002
}
1001
ACAD
1000
DSTYLE
1002
{
1070
    41
1040
2.0
1070
    42
1040
1.0
1070
    43
1040
1.0
1070
    47
1040
0.005
1070
    48
1040
-0.005
1070
    77
1070
     0
1070
    78
1070
     0
1070
   143
1040
25.4
1070
   171
1070
     0
1070
   172
1070
     1
1070
   271
1070
     0
1070
   272
1070
     1
1070
   277
1070
     6
1070
   279
1070
     0
1002
}
  0
DIMENSION
  5
2B29
330
1F
100
AcDbEntity
  8
10100_FRONT_DIM
  6
Continuous
370
    13
100
AcDbDimension
  2
*D6
 10
1104.840218242833
 20
352.5374344690017
 30
0.0
 11
1100.540258242834
 21
352.5374344690017
 31
0.0
 70
   160
 71
     5
 42
8.599919999998974
  3
DSTYLE1
100
AcDbAlignedDimension
 13
1096.240298242834
 23
331.5524344690016
 33
0.0
 14
1104.840218242833
 24
331.5524744690017
 34
0.0
100
AcDbRotatedDimension
1001
AUSTER_FOLIE
1002
{
1000
NSB00752A
1002
}
1001
AUSTER_ANSICHT
1002
{
1000
Det03
1002
}
1001
ACAD
1000
DSTYLE
1002
{
1070
    41
1040
2.0
1070
    42
1040
1.0
1070
    43
1040
1.0
1070
    47
1040
0.005
1070
    48
1040
-0.005
1070
    77
1070
     0
1070
    78
1070
     0
1070
   143
1040
25.4
1070
   171
1070
     0
1070
   172
1070
     1
1070
   271
1070
     0
1070
   272
1070
     1
1070
   277
1070
     6
1070
   279
1070
     0
1002
}
  0
DIMENSION
  5
2B2A
330
1F
100
AcDbEntity
  8
10100_FRONT_DIM
  6
Continuous
370
    13
100
AcDbDimension
  2
*D7
 10
1090.940298242834
 20
352.5358939284608
 30
0.0
 11
1093.590298242834
 21
352.5358939284608
 31
0.0
 70
    32
 71
     5
 42
5.299999999999954
  3
DSTYLE1
100
AcDbAlignedDimension
 13
1096.240298242834
 23
331.5524344690016
 33
0.0
 14
1090.940298242834
 24
342.3024344690016
 34
0.0
100
AcDbRotatedDimension
1001
AUSTER_FOLIE
1002
{
1000
NSB00752A
1002
}
1001
AUSTER_ANSICHT
1002
{
1000
Det03
1002
}
1001
ACAD
1000
DSTYLE
1002
{
1070
    41
1040
2.0
1070
    42
1040
1.0
1070
    43
1040
1.0
1070
    47
1040
0.005
1070
    48
1040
-0.005
1070
    77
1070
     0
1070
    78
1070
     0
1070
   143
1040
25.4
1070
   171
1070
     0
1070
   172
1070
     1
1070
   271
1070
     0
1070
   272
1070
     1
1070
   277
1070
     6
1070
   279
1070
     0
1002
}
  0
DIMENSION
  5
2B2B
330
1F
100
AcDbEntity
  8
10100_FRONT_DIM
  6
Continuous
370
    13
100
AcDbDimension
  2
*D8
 10
1144.649798242834
 20
283.5824944690017
 30
0.0
 11
1144.649798242834
 21
313.5824944690018
 31
0.0
 70
    32
 71
     5
 42
60.0
  3
DSTYLE1
100
AcDbAlignedDimension
 13
1134.439228242834
 23
343.5824944690016
 33
0.0
 14
1134.439228242834
 24
283.5824944690017
 34
0.0
 50
90.0
100
AcDbRotatedDimension
1001
AUSTER_FOLIE
1002
{
1000
NSB00752A
1002
}
1001
AUSTER_ANSICHT
1002
{
1000
Det03
1002
}
1001
ACAD
1000
DSTYLE
1002
{
1070
    41
1040
2.0
1070
    42
1040
1.0
1070
    43
1040
1.0
1070
    47
1040
0.005
1070
    48
1040
-0.005
1070
    77
1070
     0
1070
    78
1070
     0
1070
   143
1040
25.4
1070
   171
1070
     0
1070
   172
1070
     1
1070
   271
1070
     0
1070
   272
1070
     1
1070
   277
1070
     6
1070
   279
1070
     0
1002
}
  0
DIMENSION
  5
2B2C
330
1F
100
AcDbEntity
  8
11100_LEFT_DIM
  6
Continuous
370
    50
100
AcDbDimension
  2
*D9
 10
1164.959734268741
 20
352.1864344690016
 30
0.0
 11
1162.459734268741
 21
352.1864344690016
 31
0.0
 70
   160
 71
     5
 42
5.0
  3
DSTYLE1
100
AcDbAlignedDimension
 13
1159.959734268741
 23
342.2824744690016
 33
0.0
 14
1164.959734268741
 24
334.5324744690016
 34
0.0
100
AcDbRotatedDimension
1001
AUSTER_FOLIE
1002
{
1000
NSB00752A
1002
}
1001
AUSTER_ANSICHT
1002
{
1000
Det03
1002
}
1001
ACAD
1000
DSTYLE
1002
{
1070
    41
1040
2.0
1070
    42
1040
1.0
1070
    43
1040
1.0
1070
    47
1040
0.005
1070
    48
1040
-0.005
1070
    77
1070
     0
1070
    78
1070
     0
1070
   143
1040
25.4
1070
   171
1070
     0
1070
   172
1070
     1
1070
   271
1070
     0
1070
   272
1070
     1
1070
   277
1070
     6
1070
   279
1070
     0
1002
}
  0
DIMENSION
  5
2B2D
330
1F
100
AcDbEntity
  8
11100_LEFT_DIM
  6
Continuous
370
    50
100
AcDbDimension
  2
*D10
 10
1232.459734268742
 20
352.1864844690016
 30
0.0
 11
1198.709884268741
 21
352.1864844690016
 31
0.0
 70
    32
 71
     5
 42
67.49970000000098
  3
DSTYLE1
100
AcDbAlignedDimension
 13
1164.960034268741
 23
334.5324344690016
 33
0.0
 14
1232.459734268742
 24
328.8288844690016
 34
0.0
100
AcDbRotatedDimension
1001
AUSTER_FOLIE
1002
{
1000
NSB00752A
1002
}
1001
AUSTER_ANSICHT
1002
{
1000
Det03
1002
}
1001
ACAD
1000
DSTYLE
1002
{
1070
    41
1040
2.0
1070
    42
1040
1.0
1070
    43
1040
1.0
1070
    47
1040
0.005
1070
    48
1040
-0.005
1070
    77
1070
     0
1070
    78
1070
     0
1070
   143
1040
25.4
1070
   171
1070
     0
1070
   172
1070
     1
1070
   271
1070
     0
1070
   272
1070
     1
1070
   277
1070
     6
1070
   279
1070
     0
1002
}
  0
LINE
  5
3AAD
330
1F
100
AcDbEntity
  8
11000_Left
  6
Continuous
370
    50
100
AcDbLine
 39
0.25
 10
1230.411734268741
 20
343.5824344690015
 30
0.0
 11
1207.857734268741
 21
343.5824344690015
 31
0.0
1001
AUSTER_ANSICHT
1002
{
1000
Det03
1002
}
1001
AUSTER_FOLIE
1002
{
1000
NSB_S00_KOPPEL_CC
1002
}
  0
LINE
  5
3AAE
330
1F
100
AcDbEntity
  8
11000_Left
  6
Continuous
370
    50
100
AcDbLine
 39
0.25
 10
1230.411734268741
 20
283.5824344690016
 30
0.0
 11
1207.857734268741
 21
283.5824344690016
 31
0.0
1001
AUSTER_ANSICHT
1002
{
1000
Det03
1002
}
1001
AUSTER_FOLIE
1002
{
1000
NSB_S00_KOPPEL_CC
1002
}
  0
ARC
  5
3AAF
330
1F
100
AcDbEntity
  8
11000_Left
  6
Continuous
370
    50
100
AcDbCircle
 39
0.25
 10
1230.411734268741
 20
342.0824344690016
 30
0.0
 40
1.5
100
AcDbArc
 50
2.020999999999262
 51
90.0
1001
AUSTER_ANSICHT
1002
{
1000
Det03
1002
}
1001
AUSTER_FOLIE
1002
{
1000
NSB_S00_KOPPEL_CC
1002
}
  0
LINE
  5
3AB0
330
1F
100
AcDbEntity
  8
11000_Left
  6
Continuous
370
    50
100
AcDbLine
 39
0.25
 10
1232.459734268742
 20
326.5824344690015
 30
0.0
 11
1231.910734268741
 21
342.1354344690016
 31
0.0
1001
AUSTER_ANSICHT
1002
{
1000
Det03
1002
}
1001
AUSTER_FOLIE
1002
{
1000
NSB_S00_KOPPEL_CC
1002
}
  0
ARC
  5
3AB1
330
1F
100
AcDbEntity
  8
11000_Left
  6
Continuous
370
    50
100
AcDbCircle
 39
0.25
 10
1207.857734268741
 20
342.5824344690017
 30
0.0
 40
1.0
100
AcDbArc
 50
90.0
 51
180.0150000000004
1001
AUSTER_ANSICHT
1002
{
1000
Det03
1002
}
1001
AUSTER_FOLIE
1002
{
1000
NSB_S00_KOPPEL_CC
1002
}
  0
ARC
  5
3AB2
330
1F
100
AcDbEntity
  8
11000_Left
  6
Continuous
370
    50
100
AcDbCircle
 39
0.25
 10
1230.411734268741
 20
285.0824344690015
 30
0.0
 40
1.5
100
AcDbArc
 50
270.0
 51
357.9790000000007
1001
AUSTER_ANSICHT
1002
{
1000
Det03
1002
}
1001
AUSTER_FOLIE
1002
{
1000
NSB_S00_KOPPEL_CC
1002
}
  0
LINE
  5
3AB3
330
1F
100
AcDbEntity
  8
11000_Left
  6
Continuous
370
    50
100
AcDbLine
 39
0.25
 10
1232.459734268742
 20
300.5824344690017
 30
0.0
 11
1231.910734268741
 21
285.0294344690015
 31
0.0
1001
AUSTER_ANSICHT
1002
{
1000
Det03
1002
}
1001
AUSTER_FOLIE
1002
{
1000
NSB_S00_KOPPEL_CC
1002
}
  0
ARC
  5
3AB4
330
1F
100
AcDbEntity
  8
11000_Left
  6
Continuous
370
    50
100
AcDbCircle
 39
0.25
 10
1207.857734268741
 20
284.5824344690015
 30
0.0
 40
1.0
100
AcDbArc
 50
179.9849999999995
 51
270.0
1001
AUSTER_ANSICHT
1002
{
1000
Det03
1002
}
1001
AUSTER_FOLIE
1002
{
1000
NSB_S00_KOPPEL_CC
1002
}
  0
ARC
  5
3AB5
330
1F
100
AcDbEntity
  8
10000_FRONT
  6
Continuous
 62
     7
370
    13
100
AcDbCircle
 39
0.25
 10
1128.612228242834
 20
335.1014944690017
 30
0.0
 40
1.966
100
AcDbArc
 50
193.0450000000005
 51
346.9549999999995
1001
AUSTER_ANSICHT
1002
{
1000
Det03
1002
}
1001
AUSTER_FOLIE
1002
{
1000
NSB_S00_KOPPEL_CC
1002
}
  0
ARC
  5
3AB6
330
1F
100
AcDbEntity
  8
10000_FRONT
  6
Continuous
 62
     7
370
    13
100
AcDbCircle
 39
0.25
 10
1128.612228242834
 20
336.2634944690017
 30
0.0
 40
1.966
100
AcDbArc
 50
13.04500000000056
 51
166.9549999999994
1001
AUSTER_ANSICHT
1002
{
1000
Det03
1002
}
1001
AUSTER_FOLIE
1002
{
1000
NSB_S00_KOPPEL_CC
1002
}
  0
ARC
  5
3AB7
330
1F
100
AcDbEntity
  8
10000_FRONT
  6
Continuous
 62
     7
370
    13
100
AcDbCircle
 39
0.25
 10
1132.661228242834
 20
336.2634944690017
 30
0.0
 40
1.966
100
AcDbArc
 50
13.04500000000056
 51
166.9549999999994
1001
AUSTER_ANSICHT
1002
{
1000
Det03
1002
}
1001
AUSTER_FOLIE
1002
{
1000
NSB_S00_KOPPEL_CC
1002
}
  0
ARC
  5
3AB8
330
1F
100
AcDbEntity
  8
10000_FRONT
  6
Continuous
 62
     7
370
    13
100
AcDbCircle
 39
0.25
 10
1132.661228242834
 20
335.1014944690017
 30
0.0
 40
1.966
100
AcDbArc
 50
193.0450000000005
 51
346.9549999999995
1001
AUSTER_ANSICHT
1002
{
1000
Det03
1002
}
1001
AUSTER_FOLIE
1002
{
1000
NSB_S00_KOPPEL_CC
1002
}
  0
ARC
  5
3AB9
330
1F
100
AcDbEntity
  8
10000_FRONT
  6
Continuous
 62
     7
370
    13
100
AcDbCircle
 39
0.25
 10
1120.012228242834
 20
336.6014944690016
 30
0.0
 40
1.966
100
AcDbArc
 50
193.0450000000005
 51
346.9549999999995
1001
AUSTER_ANSICHT
1002
{
1000
Det03
1002
}
1001
AUSTER_FOLIE
1002
{
1000
NSB_S00_KOPPEL_CC
1002
}
  0
ARC
  5
3ABA
330
1F
100
AcDbEntity
  8
10000_FRONT
  6
Continuous
 62
     7
370
    13
100
AcDbCircle
 39
0.25
 10
1120.012228242834
 20
337.7634944690017
 30
0.0
 40
1.966
100
AcDbArc
 50
13.04500000000056
 51
166.9549999999994
1001
AUSTER_ANSICHT
1002
{
1000
Det03
1002
}
1001
AUSTER_FOLIE
1002
{
1000
NSB_S00_KOPPEL_CC
1002
}
  0
ARC
  5
3ABB
330
1F
100
AcDbEntity
  8
10000_FRONT
  6
Continuous
 62
     7
370
    13
100
AcDbCircle
 39
0.25
 10
1124.061228242834
 20
337.7634944690017
 30
0.0
 40
1.966
100
AcDbArc
 50
13.04500000000056
 51
166.9549999999994
1001
AUSTER_ANSICHT
1002
{
1000
Det03
1002
}
1001
AUSTER_FOLIE
1002
{
1000
NSB_S00_KOPPEL_CC
1002
}
  0
ARC
  5
3ABC
330
1F
100
AcDbEntity
  8
10000_FRONT
  6
Continuous
 62
     7
370
    13
100
AcDbCircle
 39
0.25
 10
1124.061228242834
 20
336.6014944690016
 30
0.0
 40
1.966
100
AcDbArc
 50
193.0450000000005
 51
346.9549999999995
1001
AUSTER_ANSICHT
1002
{
1000
Det03
1002
}
1001
AUSTER_FOLIE
1002
{
1000
NSB_S00_KOPPEL_CC
1002
}
  0
ARC
  5
3ABD
330
1F
100
AcDbEntity
  8
10000_FRONT
  6
Continuous
 62
     7
370
    13
100
AcDbCircle
 39
0.25
 10
1111.412228242834
 20
336.6014944690016
 30
0.0
 40
1.966
100
AcDbArc
 50
193.0450000000005
 51
346.9549999999995
1001
AUSTER_ANSICHT
1002
{
1000
Det03
1002
}
1001
AUSTER_FOLIE
1002
{
1000
NSB_S00_KOPPEL_CC
1002
}
  0
ARC
  5
3ABE
330
1F
100
AcDbEntity
  8
10000_FRONT
  6
Continuous
 62
     7
370
    13
100
AcDbCircle
 39
0.25
 10
1111.412228242834
 20
337.7634944690017
 30
0.0
 40
1.966
100
AcDbArc
 50
13.04500000000056
 51
166.9549999999994
1001
AUSTER_ANSICHT
1002
{
1000
Det03
1002
}
1001
AUSTER_FOLIE
1002
{
1000
NSB_S00_KOPPEL_CC
1002
}
  0
ARC
  5
3ABF
330
1F
100
AcDbEntity
  8
10000_FRONT
  6
Continuous
 62
     7
370
    13
100
AcDbCircle
 39
0.25
 10
1115.461228242834
 20
337.7634944690017
 30
0.0
 40
1.966
100
AcDbArc
 50
13.04500000000056
 51
166.9549999999994
1001
AUSTER_ANSICHT
1002
{
1000
Det03
1002
}
1001
AUSTER_FOLIE
1002
{
1000
NSB_S00_KOPPEL_CC
1002
}
  0
ARC
  5
3AC0
330
1F
100
AcDbEntity
  8
10000_FRONT
  6
Continuous
 62
     7
370
    13
100
AcDbCircle
 39
0.25
 10
1115.461228242834
 20
336.6014944690016
 30
0.0
 40
1.966
100
AcDbArc
 50
193.0450000000005
 51
346.9549999999995
1001
AUSTER_ANSICHT
1002
{
1000
Det03
1002
}
1001
AUSTER_FOLIE
1002
{
1000
NSB_S00_KOPPEL_CC
1002
}
  0
ARC
  5
3AC1
330
1F
100
AcDbEntity
  8
10000_FRONT
  6
Continuous
 62
     7
370
    13
100
AcDbCircle
 39
0.25
 10
1102.812228242834
 20
336.6014944690016
 30
0.0
 40
1.966
100
AcDbArc
 50
193.0450000000005
 51
346.9549999999995
1001
AUSTER_ANSICHT
1002
{
1000
Det03
1002
}
1001
AUSTER_FOLIE
1002
{
1000
NSB_S00_KOPPEL_CC
1002
}
  0
ARC
  5
3AC2
330
1F
100
AcDbEntity
  8
10000_FRONT
  6
Continuous
 62
     7
370
    13
100
AcDbCircle
 39
0.25
 10
1094.212228242834
 20
336.6014944690016
 30
0.0
 40
1.966
100
AcDbArc
 50
193.0450000000005
 51
346.9549999999995
1001
AUSTER_ANSICHT
1002
{
1000
Det03
1002
}
1001
AUSTER_FOLIE
1002
{
1000
NSB_S00_KOPPEL_CC
1002
}
  0
ARC
  5
3AC3
330
1F
100
AcDbEntity
  8
10000_FRONT
  6
Continuous
 62
     7
370
    13
100
AcDbCircle
 39
0.25
 10
1102.812228242834
 20
337.7634944690017
 30
0.0
 40
1.966
100
AcDbArc
 50
13.04500000000056
 51
166.9549999999994
1001
AUSTER_ANSICHT
1002
{
1000
Det03
1002
}
1001
AUSTER_FOLIE
1002
{
1000
NSB_S00_KOPPEL_CC
1002
}
  0
ARC
  5
3AC4
330
1F
100
AcDbEntity
  8
10000_FRONT
  6
Continuous
 62
     7
370
    13
100
AcDbCircle
 39
0.25
 10
1094.212228242834
 20
337.7634944690017
 30
0.0
 40
1.966
100
AcDbArc
 50
13.04500000000056
 51
166.9549999999994
1001
AUSTER_ANSICHT
1002
{
1000
Det03
1002
}
1001
AUSTER_FOLIE
1002
{
1000
NSB_S00_KOPPEL_CC
1002
}
  0
ARC
  5
3AC5
330
1F
100
AcDbEntity
  8
10000_FRONT
  6
Continuous
 62
     7
370
    13
100
AcDbCircle
 39
0.25
 10
1106.861228242834
 20
337.7634944690017
 30
0.0
 40
1.966
100
AcDbArc
 50
13.04500000000056
 51
166.9549999999994
1001
AUSTER_ANSICHT
1002
{
1000
Det03
1002
}
1001
AUSTER_FOLIE
1002
{
1000
NSB_S00_KOPPEL_CC
1002
}
  0
ARC
  5
3AC6
330
1F
100
AcDbEntity
  8
10000_FRONT
  6
Continuous
 62
     7
370
    13
100
AcDbCircle
 39
0.25
 10
1098.261228242834
 20
337.7634944690017
 30
0.0
 40
1.966
100
AcDbArc
 50
13.04500000000056
 51
166.9549999999994
1001
AUSTER_ANSICHT
1002
{
1000
Det03
1002
}
1001
AUSTER_FOLIE
1002
{
1000
NSB_S00_KOPPEL_CC
1002
}
  0
ARC
  5
3AC7
330
1F
100
AcDbEntity
  8
10000_FRONT
  6
Continuous
 62
     7
370
    13
100
AcDbCircle
 39
0.25
 10
1106.861228242834
 20
336.6014944690016
 30
0.0
 40
1.966
100
AcDbArc
 50
193.0450000000005
 51
346.9549999999995
1001
AUSTER_ANSICHT
1002
{
1000
Det03
1002
}
1001
AUSTER_FOLIE
1002
{
1000
NSB_S00_KOPPEL_CC
1002
}
  0
ARC
  5
3AC8
330
1F
100
AcDbEntity
  8
10000_FRONT
  6
Continuous
 62
     7
370
    13
100
AcDbCircle
 39
0.25
 10
1098.261228242834
 20
336.6014944690016
 30
0.0
 40
1.966
100
AcDbArc
 50
193.0450000000005
 51
346.9549999999995
1001
AUSTER_ANSICHT
1002
{
1000
Det03
1002
}
1001
AUSTER_FOLIE
1002
{
1000
NSB_S00_KOPPEL_CC
1002
}
  0
ARC
  5
3AC9
330
1F
100
AcDbEntity
  8
10000_FRONT
  6
Continuous
370
    50
100
AcDbCircle
 39
0.25
 10
1134.439228242834
 20
342.0824944690016
 30
0.0
 40
1.5
100
AcDbArc
 50
0.0
 51
90.0
1001
AUSTER_ANSICHT
1002
{
1000
Det03
1002
}
1001
AUSTER_FOLIE
1002
{
1000
NSB_S00_KOPPEL_CC
1002
}
  0
ARC
  5
3ACA
330
1F
100
AcDbEntity
  8
10000_FRONT
  6
Continuous
370
    50
100
AcDbCircle
 39
0.25
 10
1092.439228242835
 20
342.0824944690016
 30
0.0
 40
1.5
100
AcDbArc
 50
90.0
 51
180.0
1001
AUSTER_ANSICHT
1002
{
1000
Det03
1002
}
1001
AUSTER_FOLIE
1002
{
1000
NSB_S00_KOPPEL_CC
1002
}
  0
LINE
  5
3ACB
330
1F
100
AcDbEntity
  8
10000_FRONT
  6
Continuous
 62
     7
370
    13
100
AcDbLine
 39
0.25
 10
1126.836228242834
 20
328.0524944690017
 30
0.0
 11
1126.836228242834
 21
331.5524944690017
 31
0.0
1001
AUSTER_ANSICHT
1002
{
1000
Det03
1002
}
1001
AUSTER_FOLIE
1002
{
1000
NSB_S00_KOPPEL_CC
1002
}
  0
LINE
  5
3ACC
330
1F
100
AcDbEntity
  8
10000_FRONT
  6
Continuous
 62
     7
370
    13
100
AcDbLine
 39
0.25
 10
1118.236228242834
 20
329.5524944690017
 30
0.0
 11
1118.236228242834
 21
333.0524944690016
 31
0.0
1001
AUSTER_ANSICHT
1002
{
1000
Det03
1002
}
1001
AUSTER_FOLIE
1002
{
1000
NSB_S00_KOPPEL_CC
1002
}
  0
LINE
  5
3ACD
330
1F
100
AcDbEntity
  8
10000_FRONT
  6
Continuous
 62
     7
370
    13
100
AcDbLine
 39
0.25
 10
1109.636228242834
 20
329.5524944690017
 30
0.0
 11
1109.636228242834
 21
333.0524944690016
 31
0.0
1001
AUSTER_ANSICHT
1002
{
1000
Det03
1002
}
1001
AUSTER_FOLIE
1002
{
1000
NSB_S00_KOPPEL_CC
1002
}
  0
LINE
  5
3ACE
330
1F
100
AcDbEntity
  8
10000_FRONT
  6
Continuous
 62
     7
370
    13
100
AcDbLine
 39
0.25
 10
1101.036228242834
 20
329.5524944690017
 30
0.0
 11
1101.036228242834
 21
333.0524944690016
 31
0.0
1001
AUSTER_ANSICHT
1002
{
1000
Det03
1002
}
1001
AUSTER_FOLIE
1002
{
1000
NSB_S00_KOPPEL_CC
1002
}
  0
LINE
  5
3ACF
330
1F
100
AcDbEntity
  8
10000_FRONT
  6
Continuous
 62
     7
370
    13
100
AcDbLine
 39
0.25
 10
1092.436228242834
 20
329.5524944690017
 30
0.0
 11
1092.436228242834
 21
333.0524944690016
 31
0.0
1001
AUSTER_ANSICHT
1002
{
1000
Det03
1002
}
1001
AUSTER_FOLIE
1002
{
1000
NSB_S00_KOPPEL_CC
1002
}
  0
LINE
  5
3AD0
330
1F
100
AcDbEntity
  8
10000_FRONT
  6
Continuous
370
    50
100
AcDbLine
 39
0.25
 10
1090.939228242834
 20
342.0824944690016
 30
0.0
 11
1090.939228242834
 21
285.0824944690016
 31
0.0
1001
AUSTER_ANSICHT
1002
{
1000
Det03
1002
}
1001
AUSTER_FOLIE
1002
{
1000
NSB_S00_KOPPEL_CC
1002
}
  0
LINE
  5
3AD1
330
1F
100
AcDbEntity
  8
10000_FRONT
  6
Continuous
370
    50
100
AcDbLine
 39
0.25
 10
1135.939228242834
 20
342.0824944690016
 30
0.0
 11
1135.939228242834
 21
285.0824944690016
 31
0.0
1001
AUSTER_ANSICHT
1002
{
1000
Det03
1002
}
1001
AUSTER_FOLIE
1002
{
1000
NSB_S00_KOPPEL_CC
1002
}
  0
LINE
  5
3AD2
330
1F
100
AcDbEntity
  8
10000_FRONT
  6
Continuous
370
    50
100
AcDbLine
 39
0.25
 10
1092.439228242835
 20
343.5824944690016
 30
0.0
 11
1134.439228242834
 21
343.5824944690016
 31
0.0
1001
AUSTER_ANSICHT
1002
{
1000
Det03
1002
}
1001
AUSTER_FOLIE
1002
{
1000
NSB_S00_KOPPEL_CC
1002
}
  0
LINE
  5
3AD3
330
1F
100
AcDbEntity
  8
10000_FRONT
  6
Continuous
 62
     7
370
    13
100
AcDbLine
 39
0.25
 10
1130.527228242834
 20
336.7064944690016
 30
0.0
 11
1130.527228242834
 21
334.6574944690017
 31
0.0
1001
AUSTER_ANSICHT
1002
{
1000
Det03
1002
}
1001
AUSTER_FOLIE
1002
{
1000
NSB_S00_KOPPEL_CC
1002
}
  0
LINE
  5
3AD4
330
1F
100
AcDbEntity
  8
10000_FRONT
  6
Continuous
 62
     7
370
    13
100
AcDbLine
 39
0.25
 10
1130.747228242834
 20
336.7064944690016
 30
0.0
 11
1130.747228242834
 21
334.6574944690017
 31
0.0
1001
AUSTER_ANSICHT
1002
{
1000
Det03
1002
}
1001
AUSTER_FOLIE
1002
{
1000
NSB_S00_KOPPEL_CC
1002
}
  0
LINE
  5
3AD5
330
1F
100
AcDbEntity
  8
10000_FRONT
  6
Continuous
 62
     7
370
    13
100
AcDbLine
 39
0.25
 10
1126.697228242834
 20
334.6574944690017
 30
0.0
 11
1126.697228242834
 21
336.7064944690016
 31
0.0
1001
AUSTER_ANSICHT
1002
{
1000
Det03
1002
}
1001
AUSTER_FOLIE
1002
{
1000
NSB_S00_KOPPEL_CC
1002
}
  0
LINE
  5
3AD6
330
1F
100
AcDbEntity
  8
10000_FRONT
  6
Continuous
 62
     7
370
    13
100
AcDbLine
 39
0.25
 10
1134.576228242834
 20
334.6574944690017
 30
0.0
 11
1134.576228242834
 21
336.7064944690016
 31
0.0
1001
AUSTER_ANSICHT
1002
{
1000
Det03
1002
}
1001
AUSTER_FOLIE
1002
{
1000
NSB_S00_KOPPEL_CC
1002
}
  0
LINE
  5
3AD7
330
1F
100
AcDbEntity
  8
10000_FRONT
  6
Continuous
 62
     7
370
    13
100
AcDbLine
 39
0.25
 10
1126.836228242834
 20
331.5524944690017
 30
0.0
 11
1130.386228242834
 21
331.5524944690017
 31
0.0
1001
AUSTER_ANSICHT
1002
{
1000
Det03
1002
}
1001
AUSTER_FOLIE
1002
{
1000
NSB_S00_KOPPEL_CC
1002
}
  0
LINE
  5
3AD8
330
1F
100
AcDbEntity
  8
10000_FRONT
  6
Continuous
 62
     7
370
    13
100
AcDbLine
 39
0.25
 10
1118.236228242834
 20
333.0524944690016
 30
0.0
 11
1121.786228242834
 21
333.0524944690016
 31
0.0
1001
AUSTER_ANSICHT
1002
{
1000
Det03
1002
}
1001
AUSTER_FOLIE
1002
{
1000
NSB_S00_KOPPEL_CC
1002
}
  0
LINE
  5
3AD9
330
1F
100
AcDbEntity
  8
10000_FRONT
  6
Continuous
 62
     7
370
    13
100
AcDbLine
 39
0.25
 10
1109.636228242834
 20
333.0524944690016
 30
0.0
 11
1113.186228242834
 21
333.0524944690016
 31
0.0
1001
AUSTER_ANSICHT
1002
{
1000
Det03
1002
}
1001
AUSTER_FOLIE
1002
{
1000
NSB_S00_KOPPEL_CC
1002
}
  0
LINE
  5
3ADA
330
1F
100
AcDbEntity
  8
10000_FRONT
  6
Continuous
 62
     7
370
    13
100
AcDbLine
 39
0.25
 10
1101.036228242834
 20
333.0524944690016
 30
0.0
 11
1104.586228242834
 21
333.0524944690016
 31
0.0
1001
AUSTER_ANSICHT
1002
{
1000
Det03
1002
}
1001
AUSTER_FOLIE
1002
{
1000
NSB_S00_KOPPEL_CC
1002
}
  0
LINE
  5
3ADB
330
1F
100
AcDbEntity
  8
10000_FRONT
  6
Continuous
 62
     7
370
    13
100
AcDbLine
 39
0.25
 10
1092.436228242834
 20
333.0524944690016
 30
0.0
 11
1095.986228242834
 21
333.0524944690016
 31
0.0
1001
AUSTER_ANSICHT
1002
{
1000
Det03
1002
}
1001
AUSTER_FOLIE
1002
{
1000
NSB_S00_KOPPEL_CC
1002
}
  0
LINE
  5
3ADC
330
1F
100
AcDbEntity
  8
10000_FRONT
  6
Continuous
 62
     7
370
    13
100
AcDbLine
 39
0.25
 10
1130.386228242834
 20
331.5524944690017
 30
0.0
 11
1130.386228242834
 21
328.0524944690017
 31
0.0
1001
AUSTER_ANSICHT
1002
{
1000
Det03
1002
}
1001
AUSTER_FOLIE
1002
{
1000
NSB_S00_KOPPEL_CC
1002
}
  0
LINE
  5
3ADD
330
1F
100
AcDbEntity
  8
10000_FRONT
  6
Continuous
 62
     7
370
    13
100
AcDbLine
 39
0.25
 10
1121.786228242834
 20
333.0524944690016
 30
0.0
 11
1121.786228242834
 21
329.5524944690017
 31
0.0
1001
AUSTER_ANSICHT
1002
{
1000
Det03
1002
}
1001
AUSTER_FOLIE
1002
{
1000
NSB_S00_KOPPEL_CC
1002
}
  0
LINE
  5
3ADE
330
1F
100
AcDbEntity
  8
10000_FRONT
  6
Continuous
 62
     7
370
    13
100
AcDbLine
 39
0.25
 10
1113.186228242834
 20
333.0524944690016
 30
0.0
 11
1113.186228242834
 21
329.5524944690017
 31
0.0
1001
AUSTER_ANSICHT
1002
{
1000
Det03
1002
}
1001
AUSTER_FOLIE
1002
{
1000
NSB_S00_KOPPEL_CC
1002
}
  0
LINE
  5
3ADF
330
1F
100
AcDbEntity
  8
10000_FRONT
  6
Continuous
 62
     7
370
    13
100
AcDbLine
 39
0.25
 10
1104.586228242834
 20
333.0524944690016
 30
0.0
 11
1104.586228242834
 21
329.5524944690017
 31
0.0
1001
AUSTER_ANSICHT
1002
{
1000
Det03
1002
}
1001
AUSTER_FOLIE
1002
{
1000
NSB_S00_KOPPEL_CC
1002
}
  0
LINE
  5
3AE0
330
1F
100
AcDbEntity
  8
10000_FRONT
  6
Continuous
 62
     7
370
    13
100
AcDbLine
 39
0.25
 10
1095.986228242834
 20
333.0524944690016
 30
0.0
 11
1095.986228242834
 21
329.5524944690017
 31
0.0
1001
AUSTER_ANSICHT
1002
{
1000
Det03
1002
}
1001
AUSTER_FOLIE
1002
{
1000
NSB_S00_KOPPEL_CC
1002
}
  0
LINE
  5
3AE1
330
1F
100
AcDbEntity
  8
10000_FRONT
  6
Continuous
 62
     7
370
    13
100
AcDbLine
 39
0.25
 10
1121.786228242834
 20
329.4024944690017
 30
0.0
 11
1118.236228242834
 21
329.4024944690017
 31
0.0
1001
AUSTER_ANSICHT
1002
{
1000
Det03
1002
}
1001
AUSTER_FOLIE
1002
{
1000
NSB_S00_KOPPEL_CC
1002
}
  0
LINE
  5
3AE2
330
1F
100
AcDbEntity
  8
10000_FRONT
  6
Continuous
 62
     7
370
    13
100
AcDbLine
 39
0.25
 10
1113.186228242834
 20
329.4024944690017
 30
0.0
 11
1109.636228242834
 21
329.4024944690017
 31
0.0
1001
AUSTER_ANSICHT
1002
{
1000
Det03
1002
}
1001
AUSTER_FOLIE
1002
{
1000
NSB_S00_KOPPEL_CC
1002
}
  0
LINE
  5
3AE3
330
1F
100
AcDbEntity
  8
10000_FRONT
  6
Continuous
 62
     7
370
    13
100
AcDbLine
 39
0.25
 10
1104.586228242834
 20
329.4024944690017
 30
0.0
 11
1101.036228242834
 21
329.4024944690017
 31
0.0
1001
AUSTER_ANSICHT
1002
{
1000
Det03
1002
}
1001
AUSTER_FOLIE
1002
{
1000
NSB_S00_KOPPEL_CC
1002
}
  0
LINE
  5
3AE4
330
1F
100
AcDbEntity
  8
10000_FRONT
  6
Continuous
 62
     7
370
    13
100
AcDbLine
 39
0.25
 10
1095.986228242834
 20
329.4024944690017
 30
0.0
 11
1092.436228242834
 21
329.4024944690017
 31
0.0
1001
AUSTER_ANSICHT
1002
{
1000
Det03
1002
}
1001
AUSTER_FOLIE
1002
{
1000
NSB_S00_KOPPEL_CC
1002
}
  0
LINE
  5
3AE5
330
1F
100
AcDbEntity
  8
10000_FRONT
  6
Continuous
 62
     7
370
    13
100
AcDbLine
 39
0.25
 10
1125.836228242834
 20
329.4024944690017
 30
0.0
 11
1122.286228242834
 21
329.4024944690017
 31
0.0
1001
AUSTER_ANSICHT
1002
{
1000
Det03
1002
}
1001
AUSTER_FOLIE
1002
{
1000
NSB_S00_KOPPEL_CC
1002
}
  0
LINE
  5
3AE6
330
1F
100
AcDbEntity
  8
10000_FRONT
  6
Continuous
 62
     7
370
    13
100
AcDbLine
 39
0.25
 10
1117.236228242834
 20
329.4024944690017
 30
0.0
 11
1113.686228242834
 21
329.4024944690017
 31
0.0
1001
AUSTER_ANSICHT
1002
{
1000
Det03
1002
}
1001
AUSTER_FOLIE
1002
{
1000
NSB_S00_KOPPEL_CC
1002
}
  0
LINE
  5
3AE7
330
1F
100
AcDbEntity
  8
10000_FRONT
  6
Continuous
 62
     7
370
    13
100
AcDbLine
 39
0.25
 10
1108.636228242834
 20
329.4024944690017
 30
0.0
 11
1105.086228242834
 21
329.4024944690017
 31
0.0
1001
AUSTER_ANSICHT
1002
{
1000
Det03
1002
}
1001
AUSTER_FOLIE
1002
{
1000
NSB_S00_KOPPEL_CC
1002
}
  0
LINE
  5
3AE8
330
1F
100
AcDbEntity
  8
10000_FRONT
  6
Continuous
 62
     7
370
    13
100
AcDbLine
 39
0.25
 10
1100.036228242834
 20
329.4024944690017
 30
0.0
 11
1096.486228242834
 21
329.4024944690017
 31
0.0
1001
AUSTER_ANSICHT
1002
{
1000
Det03
1002
}
1001
AUSTER_FOLIE
1002
{
1000
NSB_S00_KOPPEL_CC
1002
}
  0
LINE
  5
3AE9
330
1F
100
AcDbEntity
  8
10000_FRONT
  6
Continuous
 62
     7
370
    13
100
AcDbLine
 39
0.25
 10
1130.886228242834
 20
328.0524944690017
 30
0.0
 11
1130.886228242834
 21
331.5524944690017
 31
0.0
1001
AUSTER_ANSICHT
1002
{
1000
Det03
1002
}
1001
AUSTER_FOLIE
1002
{
1000
NSB_S00_KOPPEL_CC
1002
}
  0
LINE
  5
3AEA
330
1F
100
AcDbEntity
  8
10000_FRONT
  6
Continuous
 62
     7
370
    13
100
AcDbLine
 39
0.25
 10
1122.286228242834
 20
329.5524944690017
 30
0.0
 11
1122.286228242834
 21
333.0524944690016
 31
0.0
1001
AUSTER_ANSICHT
1002
{
1000
Det03
1002
}
1001
AUSTER_FOLIE
1002
{
1000
NSB_S00_KOPPEL_CC
1002
}
  0
LINE
  5
3AEB
330
1F
100
AcDbEntity
  8
10000_FRONT
  6
Continuous
 62
     7
370
    13
100
AcDbLine
 39
0.25
 10
1113.686228242834
 20
329.5524944690017
 30
0.0
 11
1113.686228242834
 21
333.0524944690016
 31
0.0
1001
AUSTER_ANSICHT
1002
{
1000
Det03
1002
}
1001
AUSTER_FOLIE
1002
{
1000
NSB_S00_KOPPEL_CC
1002
}
  0
LINE
  5
3AEC
330
1F
100
AcDbEntity
  8
10000_FRONT
  6
Continuous
 62
     7
370
    13
100
AcDbLine
 39
0.25
 10
1105.086228242834
 20
329.5524944690017
 30
0.0
 11
1105.086228242834
 21
333.0524944690016
 31
0.0
1001
AUSTER_ANSICHT
1002
{
1000
Det03
1002
}
1001
AUSTER_FOLIE
1002
{
1000
NSB_S00_KOPPEL_CC
1002
}
  0
LINE
  5
3AED
330
1F
100
AcDbEntity
  8
10000_FRONT
  6
Continuous
 62
     7
370
    13
100
AcDbLine
 39
0.25
 10
1096.486228242834
 20
329.5524944690017
 30
0.0
 11
1096.486228242834
 21
333.0524944690016
 31
0.0
1001
AUSTER_ANSICHT
1002
{
1000
Det03
1002
}
1001
AUSTER_FOLIE
1002
{
1000
NSB_S00_KOPPEL_CC
1002
}
  0
LINE
  5
3AEE
330
1F
100
AcDbEntity
  8
10000_FRONT
  6
Continuous
 62
     7
370
    13
100
AcDbLine
 39
0.25
 10
1130.886228242834
 20
331.5524944690017
 30
0.0
 11
1134.436228242834
 21
331.5524944690017
 31
0.0
1001
AUSTER_ANSICHT
1002
{
1000
Det03
1002
}
1001
AUSTER_FOLIE
1002
{
1000
NSB_S00_KOPPEL_CC
1002
}
  0
LINE
  5
3AEF
330
1F
100
AcDbEntity
  8
10000_FRONT
  6
Continuous
 62
     7
370
    13
100
AcDbLine
 39
0.25
 10
1122.286228242834
 20
333.0524944690016
 30
0.0
 11
1125.836228242834
 21
333.0524944690016
 31
0.0
1001
AUSTER_ANSICHT
1002
{
1000
Det03
1002
}
1001
AUSTER_FOLIE
1002
{
1000
NSB_S00_KOPPEL_CC
1002
}
  0
LINE
  5
3AF0
330
1F
100
AcDbEntity
  8
10000_FRONT
  6
Continuous
 62
     7
370
    13
100
AcDbLine
 39
0.25
 10
1113.686228242834
 20
333.0524944690016
 30
0.0
 11
1117.236228242834
 21
333.0524944690016
 31
0.0
1001
AUSTER_ANSICHT
1002
{
1000
Det03
1002
}
1001
AUSTER_FOLIE
1002
{
1000
NSB_S00_KOPPEL_CC
1002
}
  0
LINE
  5
3AF1
330
1F
100
AcDbEntity
  8
10000_FRONT
  6
Continuous
 62
     7
370
    13
100
AcDbLine
 39
0.25
 10
1105.086228242834
 20
333.0524944690016
 30
0.0
 11
1108.636228242834
 21
333.0524944690016
 31
0.0
1001
AUSTER_ANSICHT
1002
{
1000
Det03
1002
}
1001
AUSTER_FOLIE
1002
{
1000
NSB_S00_KOPPEL_CC
1002
}
  0
LINE
  5
3AF2
330
1F
100
AcDbEntity
  8
10000_FRONT
  6
Continuous
 62
     7
370
    13
100
AcDbLine
 39
0.25
 10
1096.486228242834
 20
333.0524944690016
 30
0.0
 11
1100.036228242834
 21
333.0524944690016
 31
0.0
1001
AUSTER_ANSICHT
1002
{
1000
Det03
1002
}
1001
AUSTER_FOLIE
1002
{
1000
NSB_S00_KOPPEL_CC
1002
}
  0
LINE
  5
3AF3
330
1F
100
AcDbEntity
  8
10000_FRONT
  6
Continuous
 62
     7
370
    13
100
AcDbLine
 39
0.25
 10
1134.436228242834
 20
331.5524944690017
 30
0.0
 11
1134.436228242834
 21
328.0524944690017
 31
0.0
1001
AUSTER_ANSICHT
1002
{
1000
Det03
1002
}
1001
AUSTER_FOLIE
1002
{
1000
NSB_S00_KOPPEL_CC
1002
}
  0
LINE
  5
3AF4
330
1F
100
AcDbEntity
  8
10000_FRONT
  6
Continuous
 62
     7
370
    13
100
AcDbLine
 39
0.25
 10
1125.836228242834
 20
333.0524944690016
 30
0.0
 11
1125.836228242834
 21
329.5524944690017
 31
0.0
1001
AUSTER_ANSICHT
1002
{
1000
Det03
1002
}
1001
AUSTER_FOLIE
1002
{
1000
NSB_S00_KOPPEL_CC
1002
}
  0
LINE
  5
3AF5
330
1F
100
AcDbEntity
  8
10000_FRONT
  6
Continuous
 62
     7
370
    13
100
AcDbLine
 39
0.25
 10
1117.236228242834
 20
333.0524944690016
 30
0.0
 11
1117.236228242834
 21
329.5524944690017
 31
0.0
1001
AUSTER_ANSICHT
1002
{
1000
Det03
1002
}
1001
AUSTER_FOLIE
1002
{
1000
NSB_S00_KOPPEL_CC
1002
}
  0
LINE
  5
3AF6
330
1F
100
AcDbEntity
  8
10000_FRONT
  6
Continuous
 62
     7
370
    13
100
AcDbLine
 39
0.25
 10
1108.636228242834
 20
333.0524944690016
 30
0.0
 11
1108.636228242834
 21
329.5524944690017
 31
0.0
1001
AUSTER_ANSICHT
1002
{
1000
Det03
1002
}
1001
AUSTER_FOLIE
1002
{
1000
NSB_S00_KOPPEL_CC
1002
}
  0
LINE
  5
3AF7
330
1F
100
AcDbEntity
  8
10000_FRONT
  6
Continuous
 62
     7
370
    13
100
AcDbLine
 39
0.25
 10
1100.036228242834
 20
333.0524944690016
 30
0.0
 11
1100.036228242834
 21
329.5524944690017
 31
0.0
1001
AUSTER_ANSICHT
1002
{
1000
Det03
1002
}
1001
AUSTER_FOLIE
1002
{
1000
NSB_S00_KOPPEL_CC
1002
}
  0
LINE
  5
3AF8
330
1F
100
AcDbEntity
  8
10000_FRONT
  6
Continuous
 62
     7
370
    13
100
AcDbLine
 39
0.25
 10
1121.927228242834
 20
338.2064944690017
 30
0.0
 11
1121.927228242834
 21
336.1574944690017
 31
0.0
1001
AUSTER_ANSICHT
1002
{
1000
Det03
1002
}
1001
AUSTER_FOLIE
1002
{
1000
NSB_S00_KOPPEL_CC
1002
}
  0
LINE
  5
3AF9
330
1F
100
AcDbEntity
  8
10000_FRONT
  6
Continuous
 62
     7
370
    13
100
AcDbLine
 39
0.25
 10
1122.147228242834
 20
338.2064944690017
 30
0.0
 11
1122.147228242834
 21
336.1574944690017
 31
0.0
1001
AUSTER_ANSICHT
1002
{
1000
Det03
1002
}
1001
AUSTER_FOLIE
1002
{
1000
NSB_S00_KOPPEL_CC
1002
}
  0
LINE
  5
3AFA
330
1F
100
AcDbEntity
  8
10000_FRONT
  6
Continuous
 62
     7
370
    13
100
AcDbLine
 39
0.25
 10
1118.097228242834
 20
336.1574944690017
 30
0.0
 11
1118.097228242834
 21
338.2064944690017
 31
0.0
1001
AUSTER_ANSICHT
1002
{
1000
Det03
1002
}
1001
AUSTER_FOLIE
1002
{
1000
NSB_S00_KOPPEL_CC
1002
}
  0
LINE
  5
3AFB
330
1F
100
AcDbEntity
  8
10000_FRONT
  6
Continuous
 62
     7
370
    13
100
AcDbLine
 39
0.25
 10
1125.976228242834
 20
336.1574944690017
 30
0.0
 11
1125.976228242834
 21
338.2064944690017
 31
0.0
1001
AUSTER_ANSICHT
1002
{
1000
Det03
1002
}
1001
AUSTER_FOLIE
1002
{
1000
NSB_S00_KOPPEL_CC
1002
}
  0
LINE
  5
3AFC
330
1F
100
AcDbEntity
  8
10000_FRONT
  6
Continuous
 62
     7
370
    13
100
AcDbLine
 39
0.25
 10
1113.327228242834
 20
338.2064944690017
 30
0.0
 11
1113.327228242834
 21
336.1574944690017
 31
0.0
1001
AUSTER_ANSICHT
1002
{
1000
Det03
1002
}
1001
AUSTER_FOLIE
1002
{
1000
NSB_S00_KOPPEL_CC
1002
}
  0
LINE
  5
3AFD
330
1F
100
AcDbEntity
  8
10000_FRONT
  6
Continuous
 62
     7
370
    13
100
AcDbLine
 39
0.25
 10
1113.547228242834
 20
338.2064944690017
 30
0.0
 11
1113.547228242834
 21
336.1574944690017
 31
0.0
1001
AUSTER_ANSICHT
1002
{
1000
Det03
1002
}
1001
AUSTER_FOLIE
1002
{
1000
NSB_S00_KOPPEL_CC
1002
}
  0
LINE
  5
3AFE
330
1F
100
AcDbEntity
  8
10000_FRONT
  6
Continuous
 62
     7
370
    13
100
AcDbLine
 39
0.25
 10
1109.497228242834
 20
336.1574944690017
 30
0.0
 11
1109.497228242834
 21
338.2064944690017
 31
0.0
1001
AUSTER_ANSICHT
1002
{
1000
Det03
1002
}
1001
AUSTER_FOLIE
1002
{
1000
NSB_S00_KOPPEL_CC
1002
}
  0
LINE
  5
3AFF
330
1F
100
AcDbEntity
  8
10000_FRONT
  6
Continuous
 62
     7
370
    13
100
AcDbLine
 39
0.25
 10
1117.376228242834
 20
336.1574944690017
 30
0.0
 11
1117.376228242834
 21
338.2064944690017
 31
0.0
1001
AUSTER_ANSICHT
1002
{
1000
Det03
1002
}
1001
AUSTER_FOLIE
1002
{
1000
NSB_S00_KOPPEL_CC
1002
}
  0
LINE
  5
3B00
330
1F
100
AcDbEntity
  8
10000_FRONT
  6
Continuous
 62
     7
370
    13
100
AcDbLine
 39
0.25
 10
1104.727228242834
 20
338.2064944690017
 30
0.0
 11
1104.727228242834
 21
336.1574944690017
 31
0.0
1001
AUSTER_ANSICHT
1002
{
1000
Det03
1002
}
1001
AUSTER_FOLIE
1002
{
1000
NSB_S00_KOPPEL_CC
1002
}
  0
LINE
  5
3B01
330
1F
100
AcDbEntity
  8
10000_FRONT
  6
Continuous
 62
     7
370
    13
100
AcDbLine
 39
0.25
 10
1096.127228242834
 20
338.2064944690017
 30
0.0
 11
1096.127228242834
 21
336.1574944690017
 31
0.0
1001
AUSTER_ANSICHT
1002
{
1000
Det03
1002
}
1001
AUSTER_FOLIE
1002
{
1000
NSB_S00_KOPPEL_CC
1002
}
  0
LINE
  5
3B02
330
1F
100
AcDbEntity
  8
10000_FRONT
  6
Continuous
 62
     7
370
    13
100
AcDbLine
 39
0.25
 10
1104.947228242834
 20
338.2064944690017
 30
0.0
 11
1104.947228242834
 21
336.1574944690017
 31
0.0
1001
AUSTER_ANSICHT
1002
{
1000
Det03
1002
}
1001
AUSTER_FOLIE
1002
{
1000
NSB_S00_KOPPEL_CC
1002
}
  0
LINE
  5
3B03
330
1F
100
AcDbEntity
  8
10000_FRONT
  6
Continuous
 62
     7
370
    13
100
AcDbLine
 39
0.25
 10
1096.347228242834
 20
338.2064944690017
 30
0.0
 11
1096.347228242834
 21
336.1574944690017
 31
0.0
1001
AUSTER_ANSICHT
1002
{
1000
Det03
1002
}
1001
AUSTER_FOLIE
1002
{
1000
NSB_S00_KOPPEL_CC
1002
}
  0
LINE
  5
3B04
330
1F
100
AcDbEntity
  8
10000_FRONT
  6
Continuous
 62
     7
370
    13
100
AcDbLine
 39
0.25
 10
1100.897228242834
 20
336.1574944690017
 30
0.0
 11
1100.897228242834
 21
338.2064944690017
 31
0.0
1001
AUSTER_ANSICHT
1002
{
1000
Det03
1002
}
1001
AUSTER_FOLIE
1002
{
1000
NSB_S00_KOPPEL_CC
1002
}
  0
LINE
  5
3B05
330
1F
100
AcDbEntity
  8
10000_FRONT
  6
Continuous
 62
     7
370
    13
100
AcDbLine
 39
0.25
 10
1092.297228242834
 20
336.1574944690017
 30
0.0
 11
1092.297228242834
 21
338.2064944690017
 31
0.0
1001
AUSTER_ANSICHT
1002
{
1000
Det03
1002
}
1001
AUSTER_FOLIE
1002
{
1000
NSB_S00_KOPPEL_CC
1002
}
  0
LINE
  5
3B06
330
1F
100
AcDbEntity
  8
10000_FRONT
  6
Continuous
 62
     7
370
    13
100
AcDbLine
 39
0.25
 10
1108.776228242834
 20
336.1574944690017
 30
0.0
 11
1108.776228242834
 21
338.2064944690017
 31
0.0
1001
AUSTER_ANSICHT
1002
{
1000
Det03
1002
}
1001
AUSTER_FOLIE
1002
{
1000
NSB_S00_KOPPEL_CC
1002
}
  0
LINE
  5
3B07
330
1F
100
AcDbEntity
  8
10000_FRONT
  6
Continuous
 62
     7
370
    13
100
AcDbLine
 39
0.25
 10
1100.176228242834
 20
336.1574944690017
 30
0.0
 11
1100.176228242834
 21
338.2064944690017
 31
0.0
1001
AUSTER_ANSICHT
1002
{
1000
Det03
1002
}
1001
AUSTER_FOLIE
1002
{
1000
NSB_S00_KOPPEL_CC
1002
}
  0
ARC
  5
3B08
330
1F
100
AcDbEntity
  8
10000_FRONT
  6
Continuous
 62
     7
370
    13
100
AcDbCircle
 39
0.25
 10
1128.612228242834
 20
292.0634944690017
 30
0.0
 40
1.966
100
AcDbArc
 50
13.04500000000056
 51
166.9549999999994
1001
AUSTER_ANSICHT
1002
{
1000
Det03
1002
}
1001
AUSTER_FOLIE
1002
{
1000
NSB_S00_KOPPEL_CC
1002
}
  0
ARC
  5
3B09
330
1F
100
AcDbEntity
  8
10000_FRONT
  6
Continuous
 62
     7
370
    13
100
AcDbCircle
 39
0.25
 10
1128.612228242834
 20
290.9014944690016
 30
0.0
 40
1.966
100
AcDbArc
 50
193.0450000000005
 51
346.9549999999995
1001
AUSTER_ANSICHT
1002
{
1000
Det03
1002
}
1001
AUSTER_FOLIE
1002
{
1000
NSB_S00_KOPPEL_CC
1002
}
  0
ARC
  5
3B0A
330
1F
100
AcDbEntity
  8
10000_FRONT
  6
Continuous
 62
     7
370
    13
100
AcDbCircle
 39
0.25
 10
1132.661228242834
 20
290.9014944690016
 30
0.0
 40
1.966
100
AcDbArc
 50
193.0450000000005
 51
346.9549999999995
1001
AUSTER_ANSICHT
1002
{
1000
Det03
1002
}
1001
AUSTER_FOLIE
1002
{
1000
NSB_S00_KOPPEL_CC
1002
}
  0
ARC
  5
3B0B
330
1F
100
AcDbEntity
  8
10000_FRONT
  6
Continuous
 62
     7
370
    13
100
AcDbCircle
 39
0.25
 10
1132.661228242834
 20
292.0634944690017
 30
0.0
 40
1.966
100
AcDbArc
 50
13.04500000000056
 51
166.9549999999994
1001
AUSTER_ANSICHT
1002
{
1000
Det03
1002
}
1001
AUSTER_FOLIE
1002
{
1000
NSB_S00_KOPPEL_CC
1002
}
  0
ARC
  5
3B0C
330
1F
100
AcDbEntity
  8
10000_FRONT
  6
Continuous
 62
     7
370
    13
100
AcDbCircle
 39
0.25
 10
1120.012228242834
 20
290.5634944690017
 30
0.0
 40
1.966
100
AcDbArc
 50
13.04500000000056
 51
166.9549999999994
1001
AUSTER_ANSICHT
1002
{
1000
Det03
1002
}
1001
AUSTER_FOLIE
1002
{
1000
NSB_S00_KOPPEL_CC
1002
}
  0
ARC
  5
3B0D
330
1F
100
AcDbEntity
  8
10000_FRONT
  6
Continuous
 62
     7
370
    13
100
AcDbCircle
 39
0.25
 10
1120.012228242834
 20
289.4014944690017
 30
0.0
 40
1.966
100
AcDbArc
 50
193.0450000000005
 51
346.9549999999995
1001
AUSTER_ANSICHT
1002
{
1000
Det03
1002
}
1001
AUSTER_FOLIE
1002
{
1000
NSB_S00_KOPPEL_CC
1002
}
  0
ARC
  5
3B0E
330
1F
100
AcDbEntity
  8
10000_FRONT
  6
Continuous
 62
     7
370
    13
100
AcDbCircle
 39
0.25
 10
1124.061228242834
 20
289.4014944690017
 30
0.0
 40
1.966
100
AcDbArc
 50
193.0450000000005
 51
346.9549999999995
1001
AUSTER_ANSICHT
1002
{
1000
Det03
1002
}
1001
AUSTER_FOLIE
1002
{
1000
NSB_S00_KOPPEL_CC
1002
}
  0
ARC
  5
3B0F
330
1F
100
AcDbEntity
  8
10000_FRONT
  6
Continuous
 62
     7
370
    13
100
AcDbCircle
 39
0.25
 10
1124.061228242834
 20
290.5634944690017
 30
0.0
 40
1.966
100
AcDbArc
 50
13.04500000000056
 51
166.9549999999994
1001
AUSTER_ANSICHT
1002
{
1000
Det03
1002
}
1001
AUSTER_FOLIE
1002
{
1000
NSB_S00_KOPPEL_CC
1002
}
  0
ARC
  5
3B10
330
1F
100
AcDbEntity
  8
10000_FRONT
  6
Continuous
370
    50
100
AcDbCircle
 39
0.25
 10
1134.439228242834
 20
285.0824944690016
 30
0.0
 40
1.5
100
AcDbArc
 50
270.0
 51
0.0
1001
AUSTER_ANSICHT
1002
{
1000
Det03
1002
}
1001
AUSTER_FOLIE
1002
{
1000
NSB_S00_KOPPEL_CC
1002
}
  0
LINE
  5
3B11
330
1F
100
AcDbEntity
  8
10000_FRONT
  6
Continuous
 62
     7
370
    13
100
AcDbLine
 39
0.25
 10
1129.539228242834
 20
308.4524944690016
 30
0.0
 11
1133.739228242834
 21
308.4524944690016
 31
0.0
1001
AUSTER_ANSICHT
1002
{
1000
Det03
1002
}
1001
AUSTER_FOLIE
1002
{
1000
NSB_S00_KOPPEL_CC
1002
}
  0
LINE
  5
3B12
330
1F
100
AcDbEntity
  8
10000_FRONT
  6
Continuous
 62
     7
370
    13
100
AcDbLine
 39
0.25
 10
1129.539228242834
 20
318.6524944690017
 30
0.0
 11
1133.739228242834
 21
318.6524944690017
 31
0.0
1001
AUSTER_ANSICHT
1002
{
1000
Det03
1002
}
1001
AUSTER_FOLIE
1002
{
1000
NSB_S00_KOPPEL_CC
1002
}
  0
LINE
  5
3B13
330
1F
100
AcDbEntity
  8
10000_FRONT
  6
Continuous
 62
     7
370
    13
100
AcDbLine
 39
0.25
 10
1133.739228242834
 20
309.9024944690017
 30
0.0
 11
1129.539228242834
 21
309.9024944690017
 31
0.0
1001
AUSTER_ANSICHT
1002
{
1000
Det03
1002
}
1001
AUSTER_FOLIE
1002
{
1000
NSB_S00_KOPPEL_CC
1002
}
  0
LINE
  5
3B14
330
1F
100
AcDbEntity
  8
10000_FRONT
  6
Continuous
 62
     7
370
    13
100
AcDbLine
 39
0.25
 10
1133.739228242834
 20
317.2024944690016
 30
0.0
 11
1129.539228242834
 21
317.2024944690016
 31
0.0
1001
AUSTER_ANSICHT
1002
{
1000
Det03
1002
}
1001
AUSTER_FOLIE
1002
{
1000
NSB_S00_KOPPEL_CC
1002
}
  0
LINE
  5
3B15
330
1F
100
AcDbEntity
  8
10000_FRONT
  6
Continuous
 62
     7
370
    13
100
AcDbLine
 39
0.25
 10
1129.539228242834
 20
305.1524944690017
 30
0.0
 11
1129.539228242834
 21
303.6524944690017
 31
0.0
1001
AUSTER_ANSICHT
1002
{
1000
Det03
1002
}
1001
AUSTER_FOLIE
1002
{
1000
NSB_S00_KOPPEL_CC
1002
}
  0
LINE
  5
3B16
330
1F
100
AcDbEntity
  8
10000_FRONT
  6
Continuous
 62
     7
370
    13
100
AcDbLine
 39
0.25
 10
1131.439228242834
 20
305.1524944690017
 30
0.0
 11
1129.539228242834
 21
305.1524944690017
 31
0.0
1001
AUSTER_ANSICHT
1002
{
1000
Det03
1002
}
1001
AUSTER_FOLIE
1002
{
1000
NSB_S00_KOPPEL_CC
1002
}
  0
LINE
  5
3B17
330
1F
100
AcDbEntity
  8
10000_FRONT
  6
Continuous
 62
     7
370
    13
100
AcDbLine
 39
0.25
 10
1131.439228242834
 20
306.5524944690017
 30
0.0
 11
1131.439228242834
 21
305.1524944690017
 31
0.0
1001
AUSTER_ANSICHT
1002
{
1000
Det03
1002
}
1001
AUSTER_FOLIE
1002
{
1000
NSB_S00_KOPPEL_CC
1002
}
  0
LINE
  5
3B18
330
1F
100
AcDbEntity
  8
10000_FRONT
  6
Continuous
 62
     7
370
    13
100
AcDbLine
 39
0.25
 10
1133.739228242834
 20
306.5524944690017
 30
0.0
 11
1131.439228242834
 21
306.5524944690017
 31
0.0
1001
AUSTER_ANSICHT
1002
{
1000
Det03
1002
}
1001
AUSTER_FOLIE
1002
{
1000
NSB_S00_KOPPEL_CC
1002
}
  0
LINE
  5
3B19
330
1F
100
AcDbEntity
  8
10000_FRONT
  6
Continuous
 62
     7
370
    13
100
AcDbLine
 39
0.25
 10
1133.739228242834
 20
302.2524944690017
 30
0.0
 11
1133.739228242834
 21
306.5524944690017
 31
0.0
1001
AUSTER_ANSICHT
1002
{
1000
Det03
1002
}
1001
AUSTER_FOLIE
1002
{
1000
NSB_S00_KOPPEL_CC
1002
}
  0
LINE
  5
3B1A
330
1F
100
AcDbEntity
  8
10000_FRONT
  6
Continuous
 62
     7
370
    13
100
AcDbLine
 39
0.25
 10
1131.439228242834
 20
302.2524944690017
 30
0.0
 11
1133.739228242834
 21
302.2524944690017
 31
0.0
1001
AUSTER_ANSICHT
1002
{
1000
Det03
1002
}
1001
AUSTER_FOLIE
1002
{
1000
NSB_S00_KOPPEL_CC
1002
}
  0
LINE
  5
3B1B
330
1F
100
AcDbEntity
  8
10000_FRONT
  6
Continuous
 62
     7
370
    13
100
AcDbLine
 39
0.25
 10
1131.439228242834
 20
303.6524944690017
 30
0.0
 11
1131.439228242834
 21
302.2524944690017
 31
0.0
1001
AUSTER_ANSICHT
1002
{
1000
Det03
1002
}
1001
AUSTER_FOLIE
1002
{
1000
NSB_S00_KOPPEL_CC
1002
}
  0
LINE
  5
3B1C
330
1F
100
AcDbEntity
  8
10000_FRONT
  6
Continuous
 62
     7
370
    13
100
AcDbLine
 39
0.25
 10
1129.539228242834
 20
303.6524944690017
 30
0.0
 11
1131.439228242834
 21
303.6524944690017
 31
0.0
1001
AUSTER_ANSICHT
1002
{
1000
Det03
1002
}
1001
AUSTER_FOLIE
1002
{
1000
NSB_S00_KOPPEL_CC
1002
}
  0
LINE
  5
3B1D
330
1F
100
AcDbEntity
  8
10000_FRONT
  6
Continuous
 62
     7
370
    13
100
AcDbLine
 39
0.25
 10
1133.739228242834
 20
308.4524944690016
 30
0.0
 11
1133.739228242834
 21
309.9024944690017
 31
0.0
1001
AUSTER_ANSICHT
1002
{
1000
Det03
1002
}
1001
AUSTER_FOLIE
1002
{
1000
NSB_S00_KOPPEL_CC
1002
}
  0
LINE
  5
3B1E
330
1F
100
AcDbEntity
  8
10000_FRONT
  6
Continuous
 62
     7
370
    13
100
AcDbLine
 39
0.25
 10
1129.539228242834
 20
308.4524944690016
 30
0.0
 11
1129.539228242834
 21
309.9024944690017
 31
0.0
1001
AUSTER_ANSICHT
1002
{
1000
Det03
1002
}
1001
AUSTER_FOLIE
1002
{
1000
NSB_S00_KOPPEL_CC
1002
}
  0
LINE
  5
3B1F
330
1F
100
AcDbEntity
  8
10000_FRONT
  6
Continuous
 62
     7
370
    13
100
AcDbLine
 39
0.25
 10
1129.539228242834
 20
321.9524944690016
 30
0.0
 11
1129.539228242834
 21
323.4524944690016
 31
0.0
1001
AUSTER_ANSICHT
1002
{
1000
Det03
1002
}
1001
AUSTER_FOLIE
1002
{
1000
NSB_S00_KOPPEL_CC
1002
}
  0
LINE
  5
3B20
330
1F
100
AcDbEntity
  8
10000_FRONT
  6
Continuous
 62
     7
370
    13
100
AcDbLine
 39
0.25
 10
1131.439228242834
 20
321.9524944690016
 30
0.0
 11
1129.539228242834
 21
321.9524944690016
 31
0.0
1001
AUSTER_ANSICHT
1002
{
1000
Det03
1002
}
1001
AUSTER_FOLIE
1002
{
1000
NSB_S00_KOPPEL_CC
1002
}
  0
LINE
  5
3B21
330
1F
100
AcDbEntity
  8
10000_FRONT
  6
Continuous
 62
     7
370
    13
100
AcDbLine
 39
0.25
 10
1131.439228242834
 20
320.5524944690016
 30
0.0
 11
1131.439228242834
 21
321.9524944690016
 31
0.0
1001
AUSTER_ANSICHT
1002
{
1000
Det03
1002
}
1001
AUSTER_FOLIE
1002
{
1000
NSB_S00_KOPPEL_CC
1002
}
  0
LINE
  5
3B22
330
1F
100
AcDbEntity
  8
10000_FRONT
  6
Continuous
 62
     7
370
    13
100
AcDbLine
 39
0.25
 10
1133.739228242834
 20
320.5524944690016
 30
0.0
 11
1131.439228242834
 21
320.5524944690016
 31
0.0
1001
AUSTER_ANSICHT
1002
{
1000
Det03
1002
}
1001
AUSTER_FOLIE
1002
{
1000
NSB_S00_KOPPEL_CC
1002
}
  0
LINE
  5
3B23
330
1F
100
AcDbEntity
  8
10000_FRONT
  6
Continuous
 62
     7
370
    13
100
AcDbLine
 39
0.25
 10
1133.739228242834
 20
324.8524944690017
 30
0.0
 11
1133.739228242834
 21
320.5524944690016
 31
0.0
1001
AUSTER_ANSICHT
1002
{
1000
Det03
1002
}
1001
AUSTER_FOLIE
1002
{
1000
NSB_S00_KOPPEL_CC
1002
}
  0
LINE
  5
3B24
330
1F
100
AcDbEntity
  8
10000_FRONT
  6
Continuous
 62
     7
370
    13
100
AcDbLine
 39
0.25
 10
1131.439228242834
 20
324.8524944690017
 30
0.0
 11
1133.739228242834
 21
324.8524944690017
 31
0.0
1001
AUSTER_ANSICHT
1002
{
1000
Det03
1002
}
1001
AUSTER_FOLIE
1002
{
1000
NSB_S00_KOPPEL_CC
1002
}
  0
LINE
  5
3B25
330
1F
100
AcDbEntity
  8
10000_FRONT
  6
Continuous
 62
     7
370
    13
100
AcDbLine
 39
0.25
 10
1131.439228242834
 20
323.4524944690016
 30
0.0
 11
1131.439228242834
 21
324.8524944690017
 31
0.0
1001
AUSTER_ANSICHT
1002
{
1000
Det03
1002
}
1001
AUSTER_FOLIE
1002
{
1000
NSB_S00_KOPPEL_CC
1002
}
  0
LINE
  5
3B26
330
1F
100
AcDbEntity
  8
10000_FRONT
  6
Continuous
 62
     7
370
    13
100
AcDbLine
 39
0.25
 10
1129.539228242834
 20
323.4524944690016
 30
0.0
 11
1131.439228242834
 21
323.4524944690016
 31
0.0
1001
AUSTER_ANSICHT
1002
{
1000
Det03
1002
}
1001
AUSTER_FOLIE
1002
{
1000
NSB_S00_KOPPEL_CC
1002
}
  0
LINE
  5
3B27
330
1F
100
AcDbEntity
  8
10000_FRONT
  6
Continuous
 62
     7
370
    13
100
AcDbLine
 39
0.25
 10
1133.739228242834
 20
318.6524944690017
 30
0.0
 11
1133.739228242834
 21
317.2024944690016
 31
0.0
1001
AUSTER_ANSICHT
1002
{
1000
Det03
1002
}
1001
AUSTER_FOLIE
1002
{
1000
NSB_S00_KOPPEL_CC
1002
}
  0
LINE
  5
3B28
330
1F
100
AcDbEntity
  8
10000_FRONT
  6
Continuous
 62
     7
370
    13
100
AcDbLine
 39
0.25
 10
1129.539228242834
 20
318.6524944690017
 30
0.0
 11
1129.539228242834
 21
317.2024944690016
 31
0.0
1001
AUSTER_ANSICHT
1002
{
1000
Det03
1002
}
1001
AUSTER_FOLIE
1002
{
1000
NSB_S00_KOPPEL_CC
1002
}
  0
LINE
  5
3B29
330
1F
100
AcDbEntity
  8
10000_FRONT
  6
Continuous
 62
     7
370
    13
100
AcDbLine
 39
0.25
 10
1126.836228242834
 20
299.1124944690016
 30
0.0
 11
1126.836228242834
 21
295.6124944690017
 31
0.0
1001
AUSTER_ANSICHT
1002
{
1000
Det03
1002
}
1001
AUSTER_FOLIE
1002
{
1000
NSB_S00_KOPPEL_CC
1002
}
  0
LINE
  5
3B2A
330
1F
100
AcDbEntity
  8
10000_FRONT
  6
Continuous
 62
     7
370
    13
100
AcDbLine
 39
0.25
 10
1118.236228242834
 20
294.1124944690017
 30
0.0
 11
1121.786228242834
 21
294.1124944690017
 31
0.0
1001
AUSTER_ANSICHT
1002
{
1000
Det03
1002
}
1001
AUSTER_FOLIE
1002
{
1000
NSB_S00_KOPPEL_CC
1002
}
  0
LINE
  5
3B2B
330
1F
100
AcDbEntity
  8
10000_FRONT
  6
Continuous
 62
     7
370
    13
100
AcDbLine
 39
0.25
 10
1121.786228242834
 20
294.1124944690017
 30
0.0
 11
1121.786228242834
 21
297.6124944690017
 31
0.0
1001
AUSTER_ANSICHT
1002
{
1000
Det03
1002
}
1001
AUSTER_FOLIE
1002
{
1000
NSB_S00_KOPPEL_CC
1002
}
  0
LINE
  5
3B2C
330
1F
100
AcDbEntity
  8
10000_FRONT
  6
Continuous
 62
     7
370
    13
100
AcDbLine
 39
0.25
 10
1121.786228242834
 20
297.7624944690017
 30
0.0
 11
1118.236228242834
 21
297.7624944690017
 31
0.0
1001
AUSTER_ANSICHT
1002
{
1000
Det03
1002
}
1001
AUSTER_FOLIE
1002
{
1000
NSB_S00_KOPPEL_CC
1002
}
  0
LINE
  5
3B2D
330
1F
100
AcDbEntity
  8
10000_FRONT
  6
Continuous
 62
     7
370
    13
100
AcDbLine
 39
0.25
 10
1125.836228242834
 20
297.7624944690017
 30
0.0
 11
1122.286228242834
 21
297.7624944690017
 31
0.0
1001
AUSTER_ANSICHT
1002
{
1000
Det03
1002
}
1001
AUSTER_FOLIE
1002
{
1000
NSB_S00_KOPPEL_CC
1002
}
  0
LINE
  5
3B2E
330
1F
100
AcDbEntity
  8
10000_FRONT
  6
Continuous
 62
     7
370
    13
100
AcDbLine
 39
0.25
 10
1122.286228242834
 20
297.6124944690017
 30
0.0
 11
1122.286228242834
 21
294.1124944690017
 31
0.0
1001
AUSTER_ANSICHT
1002
{
1000
Det03
1002
}
1001
AUSTER_FOLIE
1002
{
1000
NSB_S00_KOPPEL_CC
1002
}
  0
LINE
  5
3B2F
330
1F
100
AcDbEntity
  8
10000_FRONT
  6
Continuous
 62
     7
370
    13
100
AcDbLine
 39
0.25
 10
1122.286228242834
 20
294.1124944690017
 30
0.0
 11
1125.836228242834
 21
294.1124944690017
 31
0.0
1001
AUSTER_ANSICHT
1002
{
1000
Det03
1002
}
1001
AUSTER_FOLIE
1002
{
1000
NSB_S00_KOPPEL_CC
1002
}
  0
LINE
  5
3B30
330
1F
100
AcDbEntity
  8
10000_FRONT
  6
Continuous
 62
     7
370
    13
100
AcDbLine
 39
0.25
 10
1125.836228242834
 20
294.1124944690017
 30
0.0
 11
1125.836228242834
 21
297.6124944690017
 31
0.0
1001
AUSTER_ANSICHT
1002
{
1000
Det03
1002
}
1001
AUSTER_FOLIE
1002
{
1000
NSB_S00_KOPPEL_CC
1002
}
  0
LINE
  5
3B31
330
1F
100
AcDbEntity
  8
10000_FRONT
  6
Continuous
370
    50
100
AcDbLine
 39
0.25
 10
1134.439228242834
 20
283.5824944690017
 30
0.0
 11
1092.439228242835
 21
283.5824944690017
 31
0.0
1001
AUSTER_ANSICHT
1002
{
1000
Det03
1002
}
1001
AUSTER_FOLIE
1002
{
1000
NSB_S00_KOPPEL_CC
1002
}
  0
LINE
  5
3B32
330
1F
100
AcDbEntity
  8
10000_FRONT
  6
Continuous
 62
     7
370
    13
100
AcDbLine
 39
0.25
 10
1130.527228242834
 20
290.4574944690016
 30
0.0
 11
1130.527228242834
 21
292.5074944690016
 31
0.0
1001
AUSTER_ANSICHT
1002
{
1000
Det03
1002
}
1001
AUSTER_FOLIE
1002
{
1000
NSB_S00_KOPPEL_CC
1002
}
  0
LINE
  5
3B33
330
1F
100
AcDbEntity
  8
10000_FRONT
  6
Continuous
 62
     7
370
    13
100
AcDbLine
 39
0.25
 10
1130.747228242834
 20
290.4574944690016
 30
0.0
 11
1130.747228242834
 21
292.5074944690016
 31
0.0
1001
AUSTER_ANSICHT
1002
{
1000
Det03
1002
}
1001
AUSTER_FOLIE
1002
{
1000
NSB_S00_KOPPEL_CC
1002
}
  0
LINE
  5
3B34
330
1F
100
AcDbEntity
  8
10000_FRONT
  6
Continuous
 62
     7
370
    13
100
AcDbLine
 39
0.25
 10
1126.697228242834
 20
292.5074944690016
 30
0.0
 11
1126.697228242834
 21
290.4574944690016
 31
0.0
1001
AUSTER_ANSICHT
1002
{
1000
Det03
1002
}
1001
AUSTER_FOLIE
1002
{
1000
NSB_S00_KOPPEL_CC
1002
}
  0
LINE
  5
3B35
330
1F
100
AcDbEntity
  8
10000_FRONT
  6
Continuous
 62
     7
370
    13
100
AcDbLine
 39
0.25
 10
1134.576228242834
 20
292.5074944690016
 30
0.0
 11
1134.576228242834
 21
290.4574944690016
 31
0.0
1001
AUSTER_ANSICHT
1002
{
1000
Det03
1002
}
1001
AUSTER_FOLIE
1002
{
1000
NSB_S00_KOPPEL_CC
1002
}
  0
LINE
  5
3B36
330
1F
100
AcDbEntity
  8
10000_FRONT
  6
Continuous
 62
     7
370
    13
100
AcDbLine
 39
0.25
 10
1126.836228242834
 20
295.6124944690017
 30
0.0
 11
1130.386228242834
 21
295.6124944690017
 31
0.0
1001
AUSTER_ANSICHT
1002
{
1000
Det03
1002
}
1001
AUSTER_FOLIE
1002
{
1000
NSB_S00_KOPPEL_CC
1002
}
  0
LINE
  5
3B37
330
1F
100
AcDbEntity
  8
10000_FRONT
  6
Continuous
 62
     7
370
    13
100
AcDbLine
 39
0.25
 10
1130.386228242834
 20
295.6124944690017
 30
0.0
 11
1130.386228242834
 21
299.1124944690016
 31
0.0
1001
AUSTER_ANSICHT
1002
{
1000
Det03
1002
}
1001
AUSTER_FOLIE
1002
{
1000
NSB_S00_KOPPEL_CC
1002
}
  0
LINE
  5
3B38
330
1F
100
AcDbEntity
  8
10000_FRONT
  6
Continuous
 62
     7
370
    13
100
AcDbLine
 39
0.25
 10
1130.386228242834
 20
299.2624944690017
 30
0.0
 11
1126.836228242834
 21
299.2624944690017
 31
0.0
1001
AUSTER_ANSICHT
1002
{
1000
Det03
1002
}
1001
AUSTER_FOLIE
1002
{
1000
NSB_S00_KOPPEL_CC
1002
}
  0
LINE
  5
3B39
330
1F
100
AcDbEntity
  8
10000_FRONT
  6
Continuous
 62
     7
370
    13
100
AcDbLine
 39
0.25
 10
1134.436228242834
 20
299.2624944690017
 30
0.0
 11
1130.886228242834
 21
299.2624944690017
 31
0.0
1001
AUSTER_ANSICHT
1002
{
1000
Det03
1002
}
1001
AUSTER_FOLIE
1002
{
1000
NSB_S00_KOPPEL_CC
1002
}
  0
LINE
  5
3B3A
330
1F
100
AcDbEntity
  8
10000_FRONT
  6
Continuous
 62
     7
370
    13
100
AcDbLine
 39
0.25
 10
1130.886228242834
 20
299.1124944690016
 30
0.0
 11
1130.886228242834
 21
295.6124944690017
 31
0.0
1001
AUSTER_ANSICHT
1002
{
1000
Det03
1002
}
1001
AUSTER_FOLIE
1002
{
1000
NSB_S00_KOPPEL_CC
1002
}
  0
LINE
  5
3B3B
330
1F
100
AcDbEntity
  8
10000_FRONT
  6
Continuous
 62
     7
370
    13
100
AcDbLine
 39
0.25
 10
1130.886228242834
 20
295.6124944690017
 30
0.0
 11
1134.436228242834
 21
295.6124944690017
 31
0.0
1001
AUSTER_ANSICHT
1002
{
1000
Det03
1002
}
1001
AUSTER_FOLIE
1002
{
1000
NSB_S00_KOPPEL_CC
1002
}
  0
LINE
  5
3B3C
330
1F
100
AcDbEntity
  8
10000_FRONT
  6
Continuous
 62
     7
370
    13
100
AcDbLine
 39
0.25
 10
1134.436228242834
 20
295.6124944690017
 30
0.0
 11
1134.436228242834
 21
299.1124944690016
 31
0.0
1001
AUSTER_ANSICHT
1002
{
1000
Det03
1002
}
1001
AUSTER_FOLIE
1002
{
1000
NSB_S00_KOPPEL_CC
1002
}
  0
LINE
  5
3B3D
330
1F
100
AcDbEntity
  8
10000_FRONT
  6
Continuous
 62
     7
370
    13
100
AcDbLine
 39
0.25
 10
1121.927228242834
 20
288.9574944690016
 30
0.0
 11
1121.927228242834
 21
291.0074944690016
 31
0.0
1001
AUSTER_ANSICHT
1002
{
1000
Det03
1002
}
1001
AUSTER_FOLIE
1002
{
1000
NSB_S00_KOPPEL_CC
1002
}
  0
LINE
  5
3B3E
330
1F
100
AcDbEntity
  8
10000_FRONT
  6
Continuous
 62
     7
370
    13
100
AcDbLine
 39
0.25
 10
1122.147228242834
 20
288.9574944690016
 30
0.0
 11
1122.147228242834
 21
291.0074944690016
 31
0.0
1001
AUSTER_ANSICHT
1002
{
1000
Det03
1002
}
1001
AUSTER_FOLIE
1002
{
1000
NSB_S00_KOPPEL_CC
1002
}
  0
LINE
  5
3B3F
330
1F
100
AcDbEntity
  8
10000_FRONT
  6
Continuous
 62
     7
370
    13
100
AcDbLine
 39
0.25
 10
1125.976228242834
 20
291.0074944690016
 30
0.0
 11
1125.976228242834
 21
288.9574944690016
 31
0.0
1001
AUSTER_ANSICHT
1002
{
1000
Det03
1002
}
1001
AUSTER_FOLIE
1002
{
1000
NSB_S00_KOPPEL_CC
1002
}
  0
LINE
  5
3B40
330
1F
100
AcDbEntity
  8
10000_FRONT
  6
Continuous
 62
     7
370
    13
100
AcDbLine
 39
0.25
 10
1130.386228242834
 20
327.9024944690017
 30
0.0
 11
1126.836228242834
 21
327.9024944690017
 31
0.0
1001
AUSTER_ANSICHT
1002
{
1000
Det03
1002
}
1001
AUSTER_FOLIE
1002
{
1000
NSB_S00_KOPPEL_CC
1002
}
  0
LINE
  5
3B41
330
1F
100
AcDbEntity
  8
10000_FRONT
  6
Continuous
 62
     7
370
    13
100
AcDbLine
 39
0.25
 10
1134.436228242834
 20
327.9024944690017
 30
0.0
 11
1130.886228242834
 21
327.9024944690017
 31
0.0
1001
AUSTER_ANSICHT
1002
{
1000
Det03
1002
}
1001
AUSTER_FOLIE
1002
{
1000
NSB_S00_KOPPEL_CC
1002
}
  0
ARC
  5
3B42
330
1F
100
AcDbEntity
  8
10000_FRONT
  6
Continuous
 62
     7
370
    13
100
AcDbCircle
 39
0.25
 10
1094.212228242834
 20
290.5634944690017
 30
0.0
 40
1.966
100
AcDbArc
 50
13.04500000000056
 51
166.9549999999994
1001
AUSTER_ANSICHT
1002
{
1000
Det03
1002
}
1001
AUSTER_FOLIE
1002
{
1000
NSB_S00_KOPPEL_CC
1002
}
  0
ARC
  5
3B43
330
1F
100
AcDbEntity
  8
10000_FRONT
  6
Continuous
 62
     7
370
    13
100
AcDbCircle
 39
0.25
 10
1094.212228242834
 20
289.4014944690017
 30
0.0
 40
1.966
100
AcDbArc
 50
193.0450000000005
 51
346.9549999999995
1001
AUSTER_ANSICHT
1002
{
1000
Det03
1002
}
1001
AUSTER_FOLIE
1002
{
1000
NSB_S00_KOPPEL_CC
1002
}
  0
ARC
  5
3B44
330
1F
100
AcDbEntity
  8
10000_FRONT
  6
Continuous
 62
     7
370
    13
100
AcDbCircle
 39
0.25
 10
1098.261228242834
 20
289.4014944690017
 30
0.0
 40
1.966
100
AcDbArc
 50
193.0450000000005
 51
346.9549999999995
1001
AUSTER_ANSICHT
1002
{
1000
Det03
1002
}
1001
AUSTER_FOLIE
1002
{
1000
NSB_S00_KOPPEL_CC
1002
}
  0
ARC
  5
3B45
330
1F
100
AcDbEntity
  8
10000_FRONT
  6
Continuous
 62
     7
370
    13
100
AcDbCircle
 39
0.25
 10
1098.261228242834
 20
290.5634944690017
 30
0.0
 40
1.966
100
AcDbArc
 50
13.04500000000056
 51
166.9549999999994
1001
AUSTER_ANSICHT
1002
{
1000
Det03
1002
}
1001
AUSTER_FOLIE
1002
{
1000
NSB_S00_KOPPEL_CC
1002
}
  0
ARC
  5
3B46
330
1F
100
AcDbEntity
  8
10000_FRONT
  6
Continuous
 62
     7
370
    13
100
AcDbCircle
 39
0.25
 10
1111.412228242834
 20
290.5634944690017
 30
0.0
 40
1.966
100
AcDbArc
 50
13.04500000000056
 51
166.9549999999994
1001
AUSTER_ANSICHT
1002
{
1000
Det03
1002
}
1001
AUSTER_FOLIE
1002
{
1000
NSB_S00_KOPPEL_CC
1002
}
  0
ARC
  5
3B47
330
1F
100
AcDbEntity
  8
10000_FRONT
  6
Continuous
 62
     7
370
    13
100
AcDbCircle
 39
0.25
 10
1111.412228242834
 20
289.4014944690017
 30
0.0
 40
1.966
100
AcDbArc
 50
193.0450000000005
 51
346.9549999999995
1001
AUSTER_ANSICHT
1002
{
1000
Det03
1002
}
1001
AUSTER_FOLIE
1002
{
1000
NSB_S00_KOPPEL_CC
1002
}
  0
ARC
  5
3B48
330
1F
100
AcDbEntity
  8
10000_FRONT
  6
Continuous
 62
     7
370
    13
100
AcDbCircle
 39
0.25
 10
1115.461228242834
 20
289.4014944690017
 30
0.0
 40
1.966
100
AcDbArc
 50
193.0450000000005
 51
346.9549999999995
1001
AUSTER_ANSICHT
1002
{
1000
Det03
1002
}
1001
AUSTER_FOLIE
1002
{
1000
NSB_S00_KOPPEL_CC
1002
}
  0
ARC
  5
3B49
330
1F
100
AcDbEntity
  8
10000_FRONT
  6
Continuous
 62
     7
370
    13
100
AcDbCircle
 39
0.25
 10
1115.461228242834
 20
290.5634944690017
 30
0.0
 40
1.966
100
AcDbArc
 50
13.04500000000056
 51
166.9549999999994
1001
AUSTER_ANSICHT
1002
{
1000
Det03
1002
}
1001
AUSTER_FOLIE
1002
{
1000
NSB_S00_KOPPEL_CC
1002
}
  0
ARC
  5
3B4A
330
1F
100
AcDbEntity
  8
10000_FRONT
  6
Continuous
 62
     7
370
    13
100
AcDbCircle
 39
0.25
 10
1102.812228242834
 20
290.5634944690017
 30
0.0
 40
1.966
100
AcDbArc
 50
13.04500000000056
 51
166.9549999999994
1001
AUSTER_ANSICHT
1002
{
1000
Det03
1002
}
1001
AUSTER_FOLIE
1002
{
1000
NSB_S00_KOPPEL_CC
1002
}
  0
ARC
  5
3B4B
330
1F
100
AcDbEntity
  8
10000_FRONT
  6
Continuous
 62
     7
370
    13
100
AcDbCircle
 39
0.25
 10
1102.812228242834
 20
289.4014944690017
 30
0.0
 40
1.966
100
AcDbArc
 50
193.0450000000005
 51
346.9549999999995
1001
AUSTER_ANSICHT
1002
{
1000
Det03
1002
}
1001
AUSTER_FOLIE
1002
{
1000
NSB_S00_KOPPEL_CC
1002
}
  0
ARC
  5
3B4C
330
1F
100
AcDbEntity
  8
10000_FRONT
  6
Continuous
 62
     7
370
    13
100
AcDbCircle
 39
0.25
 10
1106.861228242834
 20
289.4014944690017
 30
0.0
 40
1.966
100
AcDbArc
 50
193.0450000000005
 51
346.9549999999995
1001
AUSTER_ANSICHT
1002
{
1000
Det03
1002
}
1001
AUSTER_FOLIE
1002
{
1000
NSB_S00_KOPPEL_CC
1002
}
  0
ARC
  5
3B4D
330
1F
100
AcDbEntity
  8
10000_FRONT
  6
Continuous
 62
     7
370
    13
100
AcDbCircle
 39
0.25
 10
1106.861228242834
 20
290.5634944690017
 30
0.0
 40
1.966
100
AcDbArc
 50
13.04500000000056
 51
166.9549999999994
1001
AUSTER_ANSICHT
1002
{
1000
Det03
1002
}
1001
AUSTER_FOLIE
1002
{
1000
NSB_S00_KOPPEL_CC
1002
}
  0
ARC
  5
3B4E
330
1F
100
AcDbEntity
  8
10000_FRONT
  6
Continuous
370
    50
100
AcDbCircle
 39
0.25
 10
1092.439228242835
 20
285.0824944690016
 30
0.0
 40
1.5
100
AcDbArc
 50
180.0
 51
270.0
1001
AUSTER_ANSICHT
1002
{
1000
Det03
1002
}
1001
AUSTER_FOLIE
1002
{
1000
NSB_S00_KOPPEL_CC
1002
}
  0
LINE
  5
3B4F
330
1F
100
AcDbEntity
  8
10000_FRONT
  6
Continuous
 62
     7
370
    13
100
AcDbLine
 39
0.25
 10
1118.236228242834
 20
297.6124944690017
 30
0.0
 11
1118.236228242834
 21
294.1124944690017
 31
0.0
1001
AUSTER_ANSICHT
1002
{
1000
Det03
1002
}
1001
AUSTER_FOLIE
1002
{
1000
NSB_S00_KOPPEL_CC
1002
}
  0
LINE
  5
3B50
330
1F
100
AcDbEntity
  8
10000_FRONT
  6
Continuous
 62
     7
370
    13
100
AcDbLine
 39
0.25
 10
1109.636228242834
 20
297.6124944690017
 30
0.0
 11
1109.636228242834
 21
294.1124944690017
 31
0.0
1001
AUSTER_ANSICHT
1002
{
1000
Det03
1002
}
1001
AUSTER_FOLIE
1002
{
1000
NSB_S00_KOPPEL_CC
1002
}
  0
LINE
  5
3B51
330
1F
100
AcDbEntity
  8
10000_FRONT
  6
Continuous
 62
     7
370
    13
100
AcDbLine
 39
0.25
 10
1109.636228242834
 20
294.1124944690017
 30
0.0
 11
1113.186228242834
 21
294.1124944690017
 31
0.0
1001
AUSTER_ANSICHT
1002
{
1000
Det03
1002
}
1001
AUSTER_FOLIE
1002
{
1000
NSB_S00_KOPPEL_CC
1002
}
  0
LINE
  5
3B52
330
1F
100
AcDbEntity
  8
10000_FRONT
  6
Continuous
 62
     7
370
    13
100
AcDbLine
 39
0.25
 10
1113.186228242834
 20
294.1124944690017
 30
0.0
 11
1113.186228242834
 21
297.6124944690017
 31
0.0
1001
AUSTER_ANSICHT
1002
{
1000
Det03
1002
}
1001
AUSTER_FOLIE
1002
{
1000
NSB_S00_KOPPEL_CC
1002
}
  0
LINE
  5
3B53
330
1F
100
AcDbEntity
  8
10000_FRONT
  6
Continuous
 62
     7
370
    13
100
AcDbLine
 39
0.25
 10
1113.186228242834
 20
297.7624944690017
 30
0.0
 11
1109.636228242834
 21
297.7624944690017
 31
0.0
1001
AUSTER_ANSICHT
1002
{
1000
Det03
1002
}
1001
AUSTER_FOLIE
1002
{
1000
NSB_S00_KOPPEL_CC
1002
}
  0
LINE
  5
3B54
330
1F
100
AcDbEntity
  8
10000_FRONT
  6
Continuous
 62
     7
370
    13
100
AcDbLine
 39
0.25
 10
1117.236228242834
 20
297.7624944690017
 30
0.0
 11
1113.686228242834
 21
297.7624944690017
 31
0.0
1001
AUSTER_ANSICHT
1002
{
1000
Det03
1002
}
1001
AUSTER_FOLIE
1002
{
1000
NSB_S00_KOPPEL_CC
1002
}
  0
LINE
  5
3B55
330
1F
100
AcDbEntity
  8
10000_FRONT
  6
Continuous
 62
     7
370
    13
100
AcDbLine
 39
0.25
 10
1113.686228242834
 20
297.6124944690017
 30
0.0
 11
1113.686228242834
 21
294.1124944690017
 31
0.0
1001
AUSTER_ANSICHT
1002
{
1000
Det03
1002
}
1001
AUSTER_FOLIE
1002
{
1000
NSB_S00_KOPPEL_CC
1002
}
  0
LINE
  5
3B56
330
1F
100
AcDbEntity
  8
10000_FRONT
  6
Continuous
 62
     7
370
    13
100
AcDbLine
 39
0.25
 10
1113.686228242834
 20
294.1124944690017
 30
0.0
 11
1117.236228242834
 21
294.1124944690017
 31
0.0
1001
AUSTER_ANSICHT
1002
{
1000
Det03
1002
}
1001
AUSTER_FOLIE
1002
{
1000
NSB_S00_KOPPEL_CC
1002
}
  0
LINE
  5
3B57
330
1F
100
AcDbEntity
  8
10000_FRONT
  6
Continuous
 62
     7
370
    13
100
AcDbLine
 39
0.25
 10
1117.236228242834
 20
294.1124944690017
 30
0.0
 11
1117.236228242834
 21
297.6124944690017
 31
0.0
1001
AUSTER_ANSICHT
1002
{
1000
Det03
1002
}
1001
AUSTER_FOLIE
1002
{
1000
NSB_S00_KOPPEL_CC
1002
}
  0
LINE
  5
3B58
330
1F
100
AcDbEntity
  8
10000_FRONT
  6
Continuous
 62
     7
370
    13
100
AcDbLine
 39
0.25
 10
1101.036228242834
 20
297.6124944690017
 30
0.0
 11
1101.036228242834
 21
294.1124944690017
 31
0.0
1001
AUSTER_ANSICHT
1002
{
1000
Det03
1002
}
1001
AUSTER_FOLIE
1002
{
1000
NSB_S00_KOPPEL_CC
1002
}
  0
LINE
  5
3B59
330
1F
100
AcDbEntity
  8
10000_FRONT
  6
Continuous
 62
     7
370
    13
100
AcDbLine
 39
0.25
 10
1101.036228242834
 20
294.1124944690017
 30
0.0
 11
1104.586228242834
 21
294.1124944690017
 31
0.0
1001
AUSTER_ANSICHT
1002
{
1000
Det03
1002
}
1001
AUSTER_FOLIE
1002
{
1000
NSB_S00_KOPPEL_CC
1002
}
  0
LINE
  5
3B5A
330
1F
100
AcDbEntity
  8
10000_FRONT
  6
Continuous
 62
     7
370
    13
100
AcDbLine
 39
0.25
 10
1104.586228242834
 20
294.1124944690017
 30
0.0
 11
1104.586228242834
 21
297.6124944690017
 31
0.0
1001
AUSTER_ANSICHT
1002
{
1000
Det03
1002
}
1001
AUSTER_FOLIE
1002
{
1000
NSB_S00_KOPPEL_CC
1002
}
  0
LINE
  5
3B5B
330
1F
100
AcDbEntity
  8
10000_FRONT
  6
Continuous
 62
     7
370
    13
100
AcDbLine
 39
0.25
 10
1104.586228242834
 20
297.7624944690017
 30
0.0
 11
1101.036228242834
 21
297.7624944690017
 31
0.0
1001
AUSTER_ANSICHT
1002
{
1000
Det03
1002
}
1001
AUSTER_FOLIE
1002
{
1000
NSB_S00_KOPPEL_CC
1002
}
  0
LINE
  5
3B5C
330
1F
100
AcDbEntity
  8
10000_FRONT
  6
Continuous
 62
     7
370
    13
100
AcDbLine
 39
0.25
 10
1108.636228242834
 20
297.7624944690017
 30
0.0
 11
1105.086228242834
 21
297.7624944690017
 31
0.0
1001
AUSTER_ANSICHT
1002
{
1000
Det03
1002
}
1001
AUSTER_FOLIE
1002
{
1000
NSB_S00_KOPPEL_CC
1002
}
  0
LINE
  5
3B5D
330
1F
100
AcDbEntity
  8
10000_FRONT
  6
Continuous
 62
     7
370
    13
100
AcDbLine
 39
0.25
 10
1105.086228242834
 20
297.6124944690017
 30
0.0
 11
1105.086228242834
 21
294.1124944690017
 31
0.0
1001
AUSTER_ANSICHT
1002
{
1000
Det03
1002
}
1001
AUSTER_FOLIE
1002
{
1000
NSB_S00_KOPPEL_CC
1002
}
  0
LINE
  5
3B5E
330
1F
100
AcDbEntity
  8
10000_FRONT
  6
Continuous
 62
     7
370
    13
100
AcDbLine
 39
0.25
 10
1105.086228242834
 20
294.1124944690017
 30
0.0
 11
1108.636228242834
 21
294.1124944690017
 31
0.0
1001
AUSTER_ANSICHT
1002
{
1000
Det03
1002
}
1001
AUSTER_FOLIE
1002
{
1000
NSB_S00_KOPPEL_CC
1002
}
  0
LINE
  5
3B5F
330
1F
100
AcDbEntity
  8
10000_FRONT
  6
Continuous
 62
     7
370
    13
100
AcDbLine
 39
0.25
 10
1108.636228242834
 20
294.1124944690017
 30
0.0
 11
1108.636228242834
 21
297.6124944690017
 31
0.0
1001
AUSTER_ANSICHT
1002
{
1000
Det03
1002
}
1001
AUSTER_FOLIE
1002
{
1000
NSB_S00_KOPPEL_CC
1002
}
  0
LINE
  5
3B60
330
1F
100
AcDbEntity
  8
10000_FRONT
  6
Continuous
 62
     7
370
    13
100
AcDbLine
 39
0.25
 10
1092.436228242834
 20
297.6124944690017
 30
0.0
 11
1092.436228242834
 21
294.1124944690017
 31
0.0
1001
AUSTER_ANSICHT
1002
{
1000
Det03
1002
}
1001
AUSTER_FOLIE
1002
{
1000
NSB_S00_KOPPEL_CC
1002
}
  0
LINE
  5
3B61
330
1F
100
AcDbEntity
  8
10000_FRONT
  6
Continuous
 62
     7
370
    13
100
AcDbLine
 39
0.25
 10
1092.436228242834
 20
294.1124944690017
 30
0.0
 11
1095.986228242834
 21
294.1124944690017
 31
0.0
1001
AUSTER_ANSICHT
1002
{
1000
Det03
1002
}
1001
AUSTER_FOLIE
1002
{
1000
NSB_S00_KOPPEL_CC
1002
}
  0
LINE
  5
3B62
330
1F
100
AcDbEntity
  8
10000_FRONT
  6
Continuous
 62
     7
370
    13
100
AcDbLine
 39
0.25
 10
1095.986228242834
 20
294.1124944690017
 30
0.0
 11
1095.986228242834
 21
297.6124944690017
 31
0.0
1001
AUSTER_ANSICHT
1002
{
1000
Det03
1002
}
1001
AUSTER_FOLIE
1002
{
1000
NSB_S00_KOPPEL_CC
1002
}
  0
LINE
  5
3B63
330
1F
100
AcDbEntity
  8
10000_FRONT
  6
Continuous
 62
     7
370
    13
100
AcDbLine
 39
0.25
 10
1095.986228242834
 20
297.7624944690017
 30
0.0
 11
1092.436228242834
 21
297.7624944690017
 31
0.0
1001
AUSTER_ANSICHT
1002
{
1000
Det03
1002
}
1001
AUSTER_FOLIE
1002
{
1000
NSB_S00_KOPPEL_CC
1002
}
  0
LINE
  5
3B64
330
1F
100
AcDbEntity
  8
10000_FRONT
  6
Continuous
 62
     7
370
    13
100
AcDbLine
 39
0.25
 10
1100.036228242834
 20
297.7624944690017
 30
0.0
 11
1096.486228242834
 21
297.7624944690017
 31
0.0
1001
AUSTER_ANSICHT
1002
{
1000
Det03
1002
}
1001
AUSTER_FOLIE
1002
{
1000
NSB_S00_KOPPEL_CC
1002
}
  0
LINE
  5
3B65
330
1F
100
AcDbEntity
  8
10000_FRONT
  6
Continuous
 62
     7
370
    13
100
AcDbLine
 39
0.25
 10
1096.486228242834
 20
297.6124944690017
 30
0.0
 11
1096.486228242834
 21
294.1124944690017
 31
0.0
1001
AUSTER_ANSICHT
1002
{
1000
Det03
1002
}
1001
AUSTER_FOLIE
1002
{
1000
NSB_S00_KOPPEL_CC
1002
}
  0
LINE
  5
3B66
330
1F
100
AcDbEntity
  8
10000_FRONT
  6
Continuous
 62
     7
370
    13
100
AcDbLine
 39
0.25
 10
1096.486228242834
 20
294.1124944690017
 30
0.0
 11
1100.036228242834
 21
294.1124944690017
 31
0.0
1001
AUSTER_ANSICHT
1002
{
1000
Det03
1002
}
1001
AUSTER_FOLIE
1002
{
1000
NSB_S00_KOPPEL_CC
1002
}
  0
LINE
  5
3B67
330
1F
100
AcDbEntity
  8
10000_FRONT
  6
Continuous
 62
     7
370
    13
100
AcDbLine
 39
0.25
 10
1100.036228242834
 20
294.1124944690017
 30
0.0
 11
1100.036228242834
 21
297.6124944690017
 31
0.0
1001
AUSTER_ANSICHT
1002
{
1000
Det03
1002
}
1001
AUSTER_FOLIE
1002
{
1000
NSB_S00_KOPPEL_CC
1002
}
  0
LINE
  5
3B68
330
1F
100
AcDbEntity
  8
10000_FRONT
  6
Continuous
 62
     7
370
    13
100
AcDbLine
 39
0.25
 10
1096.127228242834
 20
288.9574944690016
 30
0.0
 11
1096.127228242834
 21
291.0074944690016
 31
0.0
1001
AUSTER_ANSICHT
1002
{
1000
Det03
1002
}
1001
AUSTER_FOLIE
1002
{
1000
NSB_S00_KOPPEL_CC
1002
}
  0
LINE
  5
3B69
330
1F
100
AcDbEntity
  8
10000_FRONT
  6
Continuous
 62
     7
370
    13
100
AcDbLine
 39
0.25
 10
1096.347228242834
 20
288.9574944690016
 30
0.0
 11
1096.347228242834
 21
291.0074944690016
 31
0.0
1001
AUSTER_ANSICHT
1002
{
1000
Det03
1002
}
1001
AUSTER_FOLIE
1002
{
1000
NSB_S00_KOPPEL_CC
1002
}
  0
LINE
  5
3B6A
330
1F
100
AcDbEntity
  8
10000_FRONT
  6
Continuous
 62
     7
370
    13
100
AcDbLine
 39
0.25
 10
1092.297228242834
 20
291.0074944690016
 30
0.0
 11
1092.297228242834
 21
288.9574944690016
 31
0.0
1001
AUSTER_ANSICHT
1002
{
1000
Det03
1002
}
1001
AUSTER_FOLIE
1002
{
1000
NSB_S00_KOPPEL_CC
1002
}
  0
LINE
  5
3B6B
330
1F
100
AcDbEntity
  8
10000_FRONT
  6
Continuous
 62
     7
370
    13
100
AcDbLine
 39
0.25
 10
1100.176228242834
 20
291.0074944690016
 30
0.0
 11
1100.176228242834
 21
288.9574944690016
 31
0.0
1001
AUSTER_ANSICHT
1002
{
1000
Det03
1002
}
1001
AUSTER_FOLIE
1002
{
1000
NSB_S00_KOPPEL_CC
1002
}
  0
LINE
  5
3B6C
330
1F
100
AcDbEntity
  8
10000_FRONT
  6
Continuous
 62
     7
370
    13
100
AcDbLine
 39
0.25
 10
1118.097228242834
 20
291.0074944690016
 30
0.0
 11
1118.097228242834
 21
288.9574944690016
 31
0.0
1001
AUSTER_ANSICHT
1002
{
1000
Det03
1002
}
1001
AUSTER_FOLIE
1002
{
1000
NSB_S00_KOPPEL_CC
1002
}
  0
LINE
  5
3B6D
330
1F
100
AcDbEntity
  8
10000_FRONT
  6
Continuous
 62
     7
370
    13
100
AcDbLine
 39
0.25
 10
1113.327228242834
 20
288.9574944690016
 30
0.0
 11
1113.327228242834
 21
291.0074944690016
 31
0.0
1001
AUSTER_ANSICHT
1002
{
1000
Det03
1002
}
1001
AUSTER_FOLIE
1002
{
1000
NSB_S00_KOPPEL_CC
1002
}
  0
LINE
  5
3B6E
330
1F
100
AcDbEntity
  8
10000_FRONT
  6
Continuous
 62
     7
370
    13
100
AcDbLine
 39
0.25
 10
1113.547228242834
 20
288.9574944690016
 30
0.0
 11
1113.547228242834
 21
291.0074944690016
 31
0.0
1001
AUSTER_ANSICHT
1002
{
1000
Det03
1002
}
1001
AUSTER_FOLIE
1002
{
1000
NSB_S00_KOPPEL_CC
1002
}
  0
LINE
  5
3B6F
330
1F
100
AcDbEntity
  8
10000_FRONT
  6
Continuous
 62
     7
370
    13
100
AcDbLine
 39
0.25
 10
1109.497228242834
 20
291.0074944690016
 30
0.0
 11
1109.497228242834
 21
288.9574944690016
 31
0.0
1001
AUSTER_ANSICHT
1002
{
1000
Det03
1002
}
1001
AUSTER_FOLIE
1002
{
1000
NSB_S00_KOPPEL_CC
1002
}
  0
LINE
  5
3B70
330
1F
100
AcDbEntity
  8
10000_FRONT
  6
Continuous
 62
     7
370
    13
100
AcDbLine
 39
0.25
 10
1117.376228242834
 20
291.0074944690016
 30
0.0
 11
1117.376228242834
 21
288.9574944690016
 31
0.0
1001
AUSTER_ANSICHT
1002
{
1000
Det03
1002
}
1001
AUSTER_FOLIE
1002
{
1000
NSB_S00_KOPPEL_CC
1002
}
  0
LINE
  5
3B71
330
1F
100
AcDbEntity
  8
10000_FRONT
  6
Continuous
 62
     7
370
    13
100
AcDbLine
 39
0.25
 10
1104.727228242834
 20
288.9574944690016
 30
0.0
 11
1104.727228242834
 21
291.0074944690016
 31
0.0
1001
AUSTER_ANSICHT
1002
{
1000
Det03
1002
}
1001
AUSTER_FOLIE
1002
{
1000
NSB_S00_KOPPEL_CC
1002
}
  0
LINE
  5
3B72
330
1F
100
AcDbEntity
  8
10000_FRONT
  6
Continuous
 62
     7
370
    13
100
AcDbLine
 39
0.25
 10
1104.947228242834
 20
288.9574944690016
 30
0.0
 11
1104.947228242834
 21
291.0074944690016
 31
0.0
1001
AUSTER_ANSICHT
1002
{
1000
Det03
1002
}
1001
AUSTER_FOLIE
1002
{
1000
NSB_S00_KOPPEL_CC
1002
}
  0
LINE
  5
3B73
330
1F
100
AcDbEntity
  8
10000_FRONT
  6
Continuous
 62
     7
370
    13
100
AcDbLine
 39
0.25
 10
1100.897228242834
 20
291.0074944690016
 30
0.0
 11
1100.897228242834
 21
288.9574944690016
 31
0.0
1001
AUSTER_ANSICHT
1002
{
1000
Det03
1002
}
1001
AUSTER_FOLIE
1002
{
1000
NSB_S00_KOPPEL_CC
1002
}
  0
LINE
  5
3B74
330
1F
100
AcDbEntity
  8
10000_FRONT
  6
Continuous
 62
     7
370
    13
100
AcDbLine
 39
0.25
 10
1108.776228242834
 20
291.0074944690016
 30
0.0
 11
1108.776228242834
 21
288.9574944690016
 31
0.0
1001
AUSTER_ANSICHT
1002
{
1000
Det03
1002
}
1001
AUSTER_FOLIE
1002
{
1000
NSB_S00_KOPPEL_CC
1002
}
  0
LINE
  5
3BB4
330
1F
100
AcDbEntity
  8
10000_FRONT
  6
Continuous
 62
     7
370
    13
100
AcDbLine
 39
0.25
 10
1120.340218242834
 20
324.3524744690016
 30
0.0
 11
1115.340218242834
 21
324.3524744690016
 31
0.0
1001
AUSTER_ANSICHT
1002
{
1000
Det03
1002
}
1001
AUSTER_FOLIE
1002
{
1000
NSB00752A
1002
}
  0
LINE
  5
3BB5
330
1F
100
AcDbEntity
  8
10000_FRONT
  6
Continuous
 62
     7
370
    13
100
AcDbLine
 39
0.25
 10
1115.340218242834
 20
324.3524744690016
 30
0.0
 11
1115.340218242834
 21
310.3557044690016
 31
0.0
1001
AUSTER_ANSICHT
1002
{
1000
Det03
1002
}
1001
AUSTER_FOLIE
1002
{
1000
NSB00752A
1002
}
  0
LINE
  5
3BB6
330
1F
100
AcDbEntity
  8
10000_FRONT
  6
Continuous
 62
     7
370
    13
100
AcDbLine
 39
0.25
 10
1118.740218242834
 20
310.3557044690016
 30
0.0
 11
1118.740218242834
 21
319.1524744690016
 31
0.0
1001
AUSTER_ANSICHT
1002
{
1000
Det03
1002
}
1001
AUSTER_FOLIE
1002
{
1000
NSB00752A
1002
}
  0
LINE
  5
3BB7
330
1F
100
AcDbEntity
  8
10000_FRONT
  6
Continuous
 62
     7
370
    13
100
AcDbLine
 39
0.25
 10
1118.740218242834
 20
319.1524744690016
 30
0.0
 11
1120.340218242834
 21
319.1524744690016
 31
0.0
1001
AUSTER_ANSICHT
1002
{
1000
Det03
1002
}
1001
AUSTER_FOLIE
1002
{
1000
NSB00752A
1002
}
  0
LINE
  5
3BB8
330
1F
100
AcDbEntity
  8
10000_FRONT
  6
Continuous
 62
     7
370
    13
100
AcDbLine
 39
0.25
 10
1120.340218242834
 20
319.1524744690016
 30
0.0
 11
1120.340218242834
 21
324.3524744690016
 31
0.0
1001
AUSTER_ANSICHT
1002
{
1000
Det03
1002
}
1001
AUSTER_FOLIE
1002
{
1000
NSB00752A
1002
}
  0
LINE
  5
3BB9
330
1F
100
AcDbEntity
  8
10000_FRONT
  6
Continuous
 62
     7
370
    13
100
AcDbLine
 39
0.25
 10
1105.390218242835
 20
321.8524744690016
 30
0.0
 11
1112.890218242834
 21
321.8524744690016
 31
0.0
1001
AUSTER_ANSICHT
1002
{
1000
Det03
1002
}
1001
AUSTER_FOLIE
1002
{
1000
NSB00752A
1002
}
  0
LINE
  5
3BBA
330
1F
100
AcDbEntity
  8
10000_FRONT
  6
Continuous
 62
     7
370
    13
100
AcDbLine
 39
0.25
 10
1112.890218242834
 20
321.8524744690016
 30
0.0
 11
1112.890218242834
 21
310.3524744690016
 31
0.0
1001
AUSTER_ANSICHT
1002
{
1000
Det03
1002
}
1001
AUSTER_FOLIE
1002
{
1000
NSB00752A
1002
}
  0
LINE
  5
3BBB
330
1F
100
AcDbEntity
  8
10000_FRONT
  6
Continuous
 62
     7
370
    13
100
AcDbLine
 39
0.25
 10
1105.390218242835
 20
310.3524744690016
 30
0.0
 11
1105.390218242835
 21
321.8524744690016
 31
0.0
1001
AUSTER_ANSICHT
1002
{
1000
Det03
1002
}
1001
AUSTER_FOLIE
1002
{
1000
NSB00752A
1002
}
  0
LINE
  5
3BBC
330
1F
100
AcDbEntity
  8
10000_FRONT
  6
Continuous
 62
     7
370
    13
100
AcDbLine
 39
0.25
 10
1111.140218242834
 20
324.6544644690016
 30
0.0
 11
1111.140218242834
 21
321.8524744690016
 31
0.0
1001
AUSTER_ANSICHT
1002
{
1000
Det03
1002
}
1001
AUSTER_FOLIE
1002
{
1000
NSB00752A
1002
}
  0
LINE
  5
3BBD
330
1F
100
AcDbEntity
  8
10000_FRONT
  6
Continuous
 62
     7
370
    13
100
AcDbLine
 39
0.25
 10
1107.140218242834
 20
321.8524744690016
 30
0.0
 11
1107.140218242834
 21
321.9116044690017
 31
0.0
1001
AUSTER_ANSICHT
1002
{
1000
Det03
1002
}
1001
AUSTER_FOLIE
1002
{
1000
NSB00752A
1002
}
  0
LINE
  5
3BBE
330
1F
100
AcDbEntity
  8
10000_FRONT
  6
Continuous
 62
     7
370
    13
100
AcDbLine
 39
0.25
 10
1107.140218242834
 20
321.9116044690017
 30
0.0
 11
1107.140218242834
 21
324.6544644690016
 31
0.0
1001
AUSTER_ANSICHT
1002
{
1000
Det03
1002
}
1001
AUSTER_FOLIE
1002
{
1000
NSB00752A
1002
}
  0
LINE
  5
3BBF
330
1F
100
AcDbEntity
  8
10000_FRONT
  6
Continuous
 62
     7
370
    13
100
AcDbLine
 39
0.25
 10
1107.140218242834
 20
324.6544644690016
 30
0.0
 11
1111.140218242834
 21
324.6544644690016
 31
0.0
1001
AUSTER_ANSICHT
1002
{
1000
Det03
1002
}
1001
AUSTER_FOLIE
1002
{
1000
NSB00752A
1002
}
  0
LINE
  5
3BC0
330
1F
100
AcDbEntity
  8
10000_FRONT
  6
Continuous
 62
     7
370
    13
100
AcDbLine
 39
0.25
 10
1097.940218242834
 20
324.3524744690016
 30
0.0
 11
1102.940218242834
 21
324.3524744690016
 31
0.0
1001
AUSTER_ANSICHT
1002
{
1000
Det03
1002
}
1001
AUSTER_FOLIE
1002
{
1000
NSB00752A
1002
}
  0
LINE
  5
3BC1
330
1F
100
AcDbEntity
  8
10000_FRONT
  6
Continuous
 62
     7
370
    13
100
AcDbLine
 39
0.25
 10
1102.940218242834
 20
324.3524744690016
 30
0.0
 11
1102.940218242834
 21
310.3557044690016
 31
0.0
1001
AUSTER_ANSICHT
1002
{
1000
Det03
1002
}
1001
AUSTER_FOLIE
1002
{
1000
NSB00752A
1002
}
  0
LINE
  5
3BC2
330
1F
100
AcDbEntity
  8
10000_FRONT
  6
Continuous
 62
     7
370
    13
100
AcDbLine
 39
0.25
 10
1102.940218242834
 20
310.3557044690016
 30
0.0
 11
1099.540218242834
 21
310.3557044690016
 31
0.0
1001
AUSTER_ANSICHT
1002
{
1000
Det03
1002
}
1001
AUSTER_FOLIE
1002
{
1000
NSB00752A
1002
}
  0
LINE
  5
3BC3
330
1F
100
AcDbEntity
  8
10000_FRONT
  6
Continuous
 62
     7
370
    13
100
AcDbLine
 39
0.25
 10
1099.540218242834
 20
310.3557044690016
 30
0.0
 11
1099.540218242834
 21
319.1524744690016
 31
0.0
1001
AUSTER_ANSICHT
1002
{
1000
Det03
1002
}
1001
AUSTER_FOLIE
1002
{
1000
NSB00752A
1002
}
  0
LINE
  5
3BC4
330
1F
100
AcDbEntity
  8
10000_FRONT
  6
Continuous
 62
     7
370
    13
100
AcDbLine
 39
0.25
 10
1099.540218242834
 20
319.1524744690016
 30
0.0
 11
1097.940218242834
 21
319.1524744690016
 31
0.0
1001
AUSTER_ANSICHT
1002
{
1000
Det03
1002
}
1001
AUSTER_FOLIE
1002
{
1000
NSB00752A
1002
}
  0
LINE
  5
3BC5
330
1F
100
AcDbEntity
  8
10000_FRONT
  6
Continuous
 62
     7
370
    13
100
AcDbLine
 39
0.25
 10
1097.940218242834
 20
319.1524744690016
 30
0.0
 11
1097.940218242834
 21
324.3524744690016
 31
0.0
1001
AUSTER_ANSICHT
1002
{
1000
Det03
1002
}
1001
AUSTER_FOLIE
1002
{
1000
NSB00752A
1002
}
  0
LINE
  5
3BC6
330
1F
100
AcDbEntity
  8
10000_FRONT
  6
Continuous
 62
     7
370
    13
100
AcDbLine
 39
0.25
 10
1115.340218242834
 20
310.3557044690016
 30
0.0
 11
1118.740218242834
 21
310.3557044690016
 31
0.0
1001
AUSTER_ANSICHT
1002
{
1000
Det03
1002
}
1001
AUSTER_FOLIE
1002
{
1000
NSB00752A
1002
}
  0
LINE
  5
3BC7
330
1F
100
AcDbEntity
  8
10000_FRONT
  6
Continuous
 62
     7
370
    13
100
AcDbLine
 39
0.25
 10
1119.590218242834
 20
313.6026144690016
 30
0.0
 11
1121.090218242833
 21
313.6026144690016
 31
0.0
1001
AUSTER_ANSICHT
1002
{
1000
Det03
1002
}
1001
AUSTER_FOLIE
1002
{
1000
NSB00752A
1002
}
  0
LINE
  5
3BC8
330
1F
100
AcDbEntity
  8
10000_FRONT
  6
Continuous
 62
     7
370
    13
100
AcDbLine
 39
0.25
 10
1121.090218242833
 20
313.6026144690016
 30
0.0
 11
1121.090218242833
 21
305.6624244690016
 31
0.0
1001
AUSTER_ANSICHT
1002
{
1000
Det03
1002
}
1001
AUSTER_FOLIE
1002
{
1000
NSB00752A
1002
}
  0
LINE
  5
3BC9
330
1F
100
AcDbEntity
  8
10000_FRONT
  6
Continuous
 62
     7
370
    13
100
AcDbLine
 39
0.25
 10
1119.590218242834
 20
305.6624244690016
 30
0.0
 11
1119.590218242834
 21
313.6026144690016
 31
0.0
1001
AUSTER_ANSICHT
1002
{
1000
Det03
1002
}
1001
AUSTER_FOLIE
1002
{
1000
NSB00752A
1002
}
  0
LINE
  5
3BCA
330
1F
100
AcDbEntity
  8
10000_FRONT
  6
Continuous
 62
     7
370
    13
100
AcDbLine
 39
0.25
 10
1120.940218242834
 20
305.1026344690016
 30
0.0
 11
1120.940218242834
 21
301.6026344690016
 31
0.0
1001
AUSTER_ANSICHT
1002
{
1000
Det03
1002
}
1001
AUSTER_FOLIE
1002
{
1000
NSB00752A
1002
}
  0
LINE
  5
3BCB
330
1F
100
AcDbEntity
  8
10000_FRONT
  6
Continuous
 62
     7
370
    13
100
AcDbLine
 39
0.25
 10
1120.940218242834
 20
301.6026344690016
 30
0.0
 11
1119.740218242834
 21
301.6026344690016
 31
0.0
1001
AUSTER_ANSICHT
1002
{
1000
Det03
1002
}
1001
AUSTER_FOLIE
1002
{
1000
NSB00752A
1002
}
  0
LINE
  5
3BCC
330
1F
100
AcDbEntity
  8
10000_FRONT
  6
Continuous
 62
     7
370
    13
100
AcDbLine
 39
0.25
 10
1119.740218242834
 20
301.6026344690016
 30
0.0
 11
1119.740218242834
 21
305.0908344690016
 31
0.0
1001
AUSTER_ANSICHT
1002
{
1000
Det03
1002
}
1001
AUSTER_FOLIE
1002
{
1000
NSB00752A
1002
}
  0
LINE
  5
3BCD
330
1F
100
AcDbEntity
  8
10000_FRONT
  6
Continuous
 62
     7
370
    13
100
AcDbLine
 39
0.25
 10
1121.090218242833
 20
305.6624244690016
 30
0.0
 11
1120.940218242834
 21
305.1026344690016
 31
0.0
1001
AUSTER_ANSICHT
1002
{
1000
Det03
1002
}
1001
AUSTER_FOLIE
1002
{
1000
NSB00752A
1002
}
  0
LINE
  5
3BCE
330
1F
100
AcDbEntity
  8
10000_FRONT
  6
Continuous
 62
     7
370
    13
100
AcDbLine
 39
0.25
 10
1119.740218242834
 20
305.1026344690016
 30
0.0
 11
1119.590218242834
 21
305.6624244690016
 31
0.0
1001
AUSTER_ANSICHT
1002
{
1000
Det03
1002
}
1001
AUSTER_FOLIE
1002
{
1000
NSB00752A
1002
}
  0
LINE
  5
3BCF
330
1F
100
AcDbEntity
  8
10000_FRONT
  6
Continuous
 62
     7
370
    13
100
AcDbLine
 39
0.25
 10
1112.890218242834
 20
310.3524744690016
 30
0.0
 11
1105.390218242835
 21
310.3524744690016
 31
0.0
1001
AUSTER_ANSICHT
1002
{
1000
Det03
1002
}
1001
AUSTER_FOLIE
1002
{
1000
NSB00752A
1002
}
  0
LINE
  5
3CC4
330
1F
100
AcDbEntity
  8
90000_FRAME
  6
Continuous
 62
     7
100
AcDbLine
 10
1055.918444335711
 20
202.257037917318
 30
0.0
 11
1055.918444335711
 21
402.2570379173179
 31
0.0
  0
LINE
  5
3CC5
330
1F
100
AcDbEntity
  8
90000_FRAME
  6
Continuous
 62
     7
100
AcDbLine
 10
1055.918444335711
 20
402.2570379173179
 30
0.0
 11
1325.918444335711
 21
402.2570379173179
 31
0.0
  0
LINE
  5
3DF1
330
1F
100
AcDbEntity
  8
11000_Left
  6
Continuous
370
    50
100
AcDbLine
 39
0.25
 10
1206.859363288764
 20
337.5324761221877
 30
0.0
 11
1206.85773430301
 21
342.5821726696168
 31
0.0
1001
AUSTER_ANSICHT
1002
{
1000
Det03
1002
}
1001
AUSTER_FOLIE
1002
{
1000
NSB00752A
1002
}
  0
LINE
  5
3DFB
330
1F
100
AcDbEntity
  8
11000_Left
  6
Continuous
370
    50
100
AcDbLine
 39
0.25
 10
1206.858544133954
 20
289.5324344690016
 30
0.0
 11
1206.860519282305
 21
284.6570151020634
 31
0.0
1001
AUSTER_ANSICHT
1002
{
1000
Det03
1002
}
1001
AUSTER_FOLIE
1002
{
1000
NSB00752A
1002
}
  0
ENDSEC
  0
SECTION
  2
OBJECTS
  0
DICTIONARY
  5
C
330
0
100
AcDbDictionary
281
     1
  3
ACAD_COLOR
350
2081
  3
ACAD_GROUP
350
D
  3
ACAD_LAYOUT
350
1A
  3
ACAD_MATERIAL
350
2080
  3
ACAD_MLINESTYLE
350
17
  3
ACAD_PLOTSETTINGS
350
19
  3
ACAD_PLOTSTYLENAME
350
E
  3
ACAD_TABLESTYLE
350
3DD8
  3
ACAD_VISUALSTYLE
350
3DC7
  3
AcDbVariableDictionary
350
5E
  3
DWGPROPS
350
3DFF
  0
DICTIONARY
  5
3DF2
330
1F
100
AcDbDictionary
280
     1
281
     1
  3
ACAD_SORTENTS
360
3DF3
  0
DICTIONARY
  5
2081
102
{ACAD_REACTORS
330
C
102
}
330
C
100
AcDbDictionary
281
     1
  0
DICTIONARY
  5
D
102
{ACAD_REACTORS
330
C
102
}
330
C
100
AcDbDictionary
281
     1
  0
DICTIONARY
  5
1A
102
{ACAD_REACTORS
330
C
102
}
330
C
100
AcDbDictionary
281
     1
  3
Layout1
350
51
  3
Layout2
350
56
  3
Model
350
22
  0
DICTIONARY
  5
2080
102
{ACAD_REACTORS
330
C
102
}
330
C
100
AcDbDictionary
281
     1
  3
ByBlock
350
3DC5
  3
ByLayer
350
3DC4
  3
Global
350
3DC6
  0
DICTIONARY
  5
17
102
{ACAD_REACTORS
330
C
102
}
330
C
100
AcDbDictionary
281
     1
  3
Standard
350
18
  0
DICTIONARY
  5
19
102
{ACAD_REACTORS
330
C
102
}
330
C
100
AcDbDictionary
281
     1
  0
ACDBDICTIONARYWDFLT
  5
E
102
{ACAD_REACTORS
330
C
102
}
330
C
100
AcDbDictionary
281
     1
  3
Normal
350
F
100
AcDbDictionaryWithDefault
340
F
  0
DICTIONARY
  5
3DD8
102
{ACAD_REACTORS
330
C
102
}
330
C
100
AcDbDictionary
281
     1
  3
Standard
350
3DD9
  0
DICTIONARY
  5
3DC7
102
{ACAD_REACTORS
330
C
102
}
330
C
100
AcDbDictionary
281
     1
  3
2dWireframe
350
3DCD
  3
3D Hidden
350
3DCF
  3
3dWireframe
350
3DCE
  3
Basic
350
3DCC
  3
Brighten
350
3DD3
  3
ColorChange
350
3DD7
  3
Conceptual
350
3DD0
  3
Dim
350
3DD2
  3
Facepattern
350
3DD6
  3
Flat
350
3DC8
  3
FlatWithEdges
350
3DC9
  3
Gouraud
350
3DCA
  3
GouraudWithEdges
350
3DCB
  3
Linepattern
350
3DD5
  3
Realistic
350
3DD1
  3
Thicken
350
3DD4
  0
DICTIONARY
  5
5E
102
{ACAD_REACTORS
330
C
102
}
330
C
100
AcDbDictionary
281
     1
  3
CTABLESTYLE
350
3DFC
  3
DIMASSOC
350
5F
  3
HIDETEXT
350
63
  3
INDEXCTL
350
3DFE
  3
PROJECTNAME
350
3D8C
  3
SORTENTS
350
3DFD
  0
XRECORD
  5
3DFF
102
{ACAD_REACTORS
330
C
102
}
330
C
100
AcDbXrecord
280
     1
  1
DWGPROPS COOKIE
  2

  3

  4

  6

  7

  8
adgiro3
  9

300
=
301
=
302
=
303
=
304
=
305
=
306
=
307
=
308
=
309
=
 40
0.2115446296296296
 41
2452662.472983287
 42
2453944.595890058
  1

 90
        0
  0
SORTENTSTABLE
  5
3DF3
102
{ACAD_REACTORS
330
3DF2
102
}
330
3DF2
100
AcDbSortentsTable
330
1F
331
3AF2
  5
3AF4
331
2B08
  5
2B0B
331
3B14
  5
3B16
331
3B36
  5
3B38
331
3ABD
  5
3ABF
331
3ADF
  5
3AE1
331
3B58
  5
3B5A
331
3B72
  5
3B74
331
3BCC
  5
3BCE
331
3B25
  5
3B27
331
3B03
  5
3B05
331
2AF7
  5
2AF8
331
3ACE
  5
3AD0
331
29FB
  5
29FB
331
29E1
  5
29E1
331
29BF
  5
29BF
331
3B47
  5
3B49
331
3BBB
  5
3BBD
331
2B2D
  5
3AAE
331
29D0
  5
29D0
331
2976
  5
2976
331
11B
  5
11B
331
3AF0
  5
3AF2
331
3B12
  5
3B14
331
3B34
  5
3B36
331
3ABB
  5
3ABD
331
3B70
  5
3B72
331
3B56
  5
3B58
331
3ADD
  5
3ADF
331
3BCA
  5
3BCC
331
2AF5
  5
2AF6
331
2A2B
  5
2A2B
331
29F9
  5
29F9
331
119
  5
119
331
3B01
  5
3B03
331
3B23
  5
3B25
331
3ACC
  5
3ACE
331
3B45
  5
3B47
331
3AEE
  5
3AF0
331
3BB9
  5
3BBB
331
3B67
  5
3B69
331
2B2B
  5
2B2D
331
2B06
  5
2B07
331
2AE4
  5
2AE5
331
29CE
  5
29CE
331
2974
  5
2974
331
12A
  5
12A
331
117
  5
117
331
3B10
  5
3B12
331
3AB9
  5
3ABB
331
3B32
  5
3B34
331
3B54
  5
3B56
331
3ADB
  5
3ADD
331
3B6E
  5
3B70
331
3BC8
  5
3BCA
331
3B21
  5
3B23
331
3AFF
  5
3B01
331
3ACA
  5
3ACC
331
2A29
  5
2A29
331
29F7
  5
29F7
331
29DD
  5
29DD
331
3B43
  5
3B45
331
3AEC
  5
3AEE
331
3B65
  5
3B67
331
3BB7
  5
3BB9
331
2B29
  5
2B2B
331
2A08
  5
2A08
331
29EE
  5
29EE
331
29CC
  5
29CC
331
2972
  5
2972
331
2099
  5
2099
331
3B30
  5
3B32
331
3B52
  5
3B54
331
3AD9
  5
3ADB
331
3B6C
  5
3B6E
331
3BC6
  5
3BC8
331
3AFD
  5
3AFF
331
2B13
  5
2B1B
331
2A27
  5
2A27
331
29F5
  5
29F5
331
29DB
  5
29DB
331
3B1F
  5
3B21
331
3AC8
  5
3ACA
331
3B41
  5
3B43
331
3AEA
  5
3AEC
331
3B63
  5
3B65
331
3BB5
  5
3BB7
331
3B0E
  5
3B10
331
3AB7
  5
3AB9
331
2AE0
  5
2AE0
331
2A06
  5
2A06
331
29EC
  5
29EC
331
29CA
  5
29CA
331
2970
  5
2970
331
2097
  5
2097
331
126
  5
126
331
3B50
  5
3B52
331
3B6A
  5
3B6C
331
3BC4
  5
3BC6
331
2B26
  5
2B28
331
3AFB
  5
3AFD
331
2AEF
  5
2AF0
331
29F3
  5
29F3
331
29D9
  5
29D9
331
3B1D
  5
3B1F
331
3AC6
  5
3AC8
331
3B3F
  5
3B41
331
3AE8
  5
3AEA
331
3B61
  5
3B63
331
3CC5
  5
3DFB
331
3B0C
  5
3B0E
331
2B00
  5
2B05
331
3AB5
  5
3AB7
331
2A04
  5
2A04
331
29EA
  5
29EA
331
29C8
  5
29C8
331
296E
  5
296E
331
3B2E
  5
3B30
331
3AD7
  5
3AD9
331
2095
  5
2095
331
124
  5
124
331
3B68
  5
3B6A
331
3BC2
  5
3BC4
331
2B24
  5
2B26
331
3B1B
  5
3B1D
331
3AF9
  5
3AFB
331
2AED
  5
2AEE
331
3AC4
  5
3AC6
331
29F1
  5
29F1
331
3B3D
  5
3B3F
331
3AE6
  5
3AE8
331
3B5F
  5
3B61
331
3B0A
  5
3B0C
331
2AFE
  5
2AFF
331
3AB3
  5
3AB5
331
29E8
  5
29E8
331
29C6
  5
29C6
331
296C
  5
296C
331
3B2C
  5
3B2E
331
3B4E
  5
3B50
331
3AD5
  5
3AD7
331
29D7
  5
29D7
331
2093
  5
2093
331
3BC0
  5
3BC2
331
3AF7
  5
3AF9
331
2B0D
  5
2B0E
331
2AEB
  5
2AEC
331
3B19
  5
3B1B
331
3B3B
  5
3B3D
331
3AC2
  5
3AC4
331
3AE4
  5
3AE6
331
3B5D
  5
3B5F
331
3B08
  5
3B0A
331
2B1E
  5
2B21
331
2AFC
  5
2AFD
331
3B2A
  5
3B2C
331
3AB1
  5
3AB3
331
3AD3
  5
3AD5
331
29E6
  5
29E6
331
29C4
  5
29C4
331
3B4C
  5
3B4E
331
29D5
  5
29D5
331
297B
  5
297B
331
120
  5
120
331
3AF5
  5
3AF7
331
2B0B
  5
2B0D
331
3B17
  5
3B19
331
3B39
  5
3B3B
331
3AC0
  5
3AC2
331
3B5B
  5
3B5D
331
3AE2
  5
3AE4
331
3BCF
  5
3CC5
331
3B06
  5
3B08
331
2B1C
  5
2B1E
331
3B28
  5
3B2A
331
3AAF
  5
3AB1
331
3AD1
  5
3AD3
331
29E4
  5
29E4
331
3B4A
  5
3B4C
331
3BBE
  5
3BC0
331
2A0F
  5
2A0F
331
29D3
  5
29D3
331
2979
  5
2979
331
11E
  5
11E
331
3AF3
  5
3AF5
331
3DFB
  5
2AE1
331
3B15
  5
3B17
331
3B37
  5
3B39
331
3ABE
  5
3AC0
331
3AE0
  5
3AE2
331
3B59
  5
3B5B
331
3BCD
  5
3BCF
331
3B73
  5
3BB4
331
3B04
  5
3B06
331
2AF8
  5
2AFB
331
3B26
  5
3B28
331
3ACF
  5
3AD1
331
3AAD
  5
3AAF
331
29E2
  5
29E2
331
29C0
  5
29C0
331
3B48
  5
3B4A
331
3BBC
  5
3BBE
331
2AE7
  5
2AEB
331
29D1
  5
29D1
331
2977
  5
2977
331
11C
  5
11C
331
3AF1
  5
3AF3
331
3B13
  5
3B15
331
3B35
  5
3B37
331
3ABC
  5
3ABE
331
3B57
  5
3B59
331
3ADE
  5
3AE0
331
3B71
  5
3B73
331
3BCB
  5
3BCD
331
3B24
  5
3B26
331
3B02
  5
3B04
331
2AF6
  5
2AF7
331
3ACD
  5
3ACF
331
2A2C
  5
2A2C
331
29FA
  5
29FA
331
29E0
  5
29E0
331
3B46
  5
3B48
331
3AEF
  5
3AF1
331
3BBA
  5
3BBC
331
2B2C
  5
3AAD
331
2B07
  5
2B08
331
2AE5
  5
2AE7
331
29CF
  5
29CF
331
2975
  5
2975
331
11A
  5
11A
331
3B11
  5
3B13
331
3ABA
  5
3ABC
331
3B33
  5
3B35
331
3B55
  5
3B57
331
3ADC
  5
3ADE
331
3B6F
  5
3B71
331
3BC9
  5
3BCB
331
3B00
  5
3B02
331
2A2A
  5
2A2A
331
29F8
  5
29F8
331
29DE
  5
29DE
331
209A
  5
209A
331
3B22
  5
3B24
331
3ACB
  5
3ACD
331
3B44
  5
3B46
331
3AED
  5
3AEF
331
3B66
  5
3B68
331
3BB8
  5
3BBA
331
2B2A
  5
2B2C
331
2B05
  5
2B06
331
29EF
  5
29EF
331
29CD
  5
29CD
331
2973
  5
2973
331
129
  5
129
331
118
  5
118
331
3AB8
  5
3ABA
331
3B31
  5
3B33
331
3B53
  5
3B55
331
3ADA
  5
3ADC
331
3B6D
  5
3B6F
331
3BC7
  5
3BC9
331
3B20
  5
3B22
331
3AFE
  5
3B00
331
2B14
  5
2B1C
331
3AC9
  5
3ACB
331
2A28
  5
2A28
331
29F6
  5
29F6
331
29DC
  5
29DC
331
3B42
  5
3B44
331
3AEB
  5
3AED
331
3B64
  5
3B66
331
3BB6
  5
3BB8
331
2B28
  5
2B2A
331
3B0F
  5
3B11
331
2AE1
  5
2AE4
331
2A07
  5
2A07
331
29ED
  5
29ED
331
29CB
  5
29CB
331
2971
  5
2971
331
2098
  5
2098
331
3B51
  5
3B53
331
3AD8
  5
3ADA
331
3B6B
  5
3B6D
331
3BC5
  5
3BC7
331
2B27
  5
2B29
331
3B1E
  5
3B20
331
3AFC
  5
3AFE
331
2B12
  5
2B13
331
2AF0
  5
2AF5
331
3AC7
  5
3AC9
331
2A26
  5
2A26
331
29F4
  5
29F4
331
29DA
  5
29DA
331
3B40
  5
3B42
331
3AE9
  5
3AEB
331
3B62
  5
3B64
331
3BB4
  5
3BB6
331
3B0D
  5
3B0F
331
3AB6
  5
3AB8
331
2ADF
  5
2ADF
331
2A05
  5
2A05
331
29EB
  5
29EB
331
29C9
  5
29C9
331
296F
  5
296F
331
3B2F
  5
3B31
331
2096
  5
2096
331
3B69
  5
3B6B
331
3BC3
  5
3BC5
331
2B25
  5
2B27
331
3B1C
  5
3B1E
331
3AFA
  5
3AFC
331
2AEE
  5
2AEF
331
3AC5
  5
3AC7
331
29F2
  5
29F2
331
29D8
  5
29D8
331
3B3E
  5
3B40
331
3AE7
  5
3AE9
331
3B60
  5
3B62
331
3CC4
  5
3DF1
331
3B0B
  5
3B0D
331
3DF1
  5
2B14
331
2AFF
  5
2B00
331
3AB4
  5
3AB6
331
29E9
  5
29E9
331
29C7
  5
29C7
331
296D
  5
296D
331
3B2D
  5
3B2F
331
3B4F
  5
3B51
331
3AD6
  5
3AD8
331
2094
  5
2094
331
3BC1
  5
3BC3
331
2B23
  5
2B25
331
3AF8
  5
3AFA
331
2B0E
  5
2B12
331
2AEC
  5
2AED
331
29F0
  5
29F0
331
3B1A
  5
3B1C
331
3AC3
  5
3AC5
331
3B3C
  5
3B3E
331
3AE5
  5
3AE7
331
3B5E
  5
3B60
331
3B09
  5
3B0B
331
2B1F
  5
2B23
331
2AFD
  5
2AFE
331
3B2B
  5
3B2D
331
3AB2
  5
3AB4
331
3AD4
  5
3AD6
331
29E7
  5
29E7
331
29C5
  5
29C5
331
3B4D
  5
3B4F
331
29D6
  5
29D6
331
297C
  5
297C
331
296B
  5
296B
331
121
  5
121
331
3AF6
  5
3AF8
331
2B21
  5
2B24
331
3B18
  5
3B1A
331
3B3A
  5
3B3C
331
3AC1
  5
3AC3
331
3AE3
  5
3AE5
331
3B5C
  5
3B5E
331
3B07
  5
3B09
331
2B1D
  5
2B1F
331
2AFB
  5
2AFC
331
3B29
  5
3B2B
331
3AB0
  5
3AB2
331
3AD2
  5
3AD4
331
29E5
  5
29E5
331
29C3
  5
29C3
331
3B4B
  5
3B4D
331
3BBF
  5
3BC1
331
29D4
  5
29D4
331
297A
  5
297A
331
11F
  5
11F
331
3AF4
  5
3AF6
331
3B16
  5
3B18
331
3B38
  5
3B3A
331
3ABF
  5
3AC1
331
3AE1
  5
3AE3
331
3B5A
  5
3B5C
331
3BCE
  5
3CC4
331
3B74
  5
3BB5
331
3B05
  5
3B07
331
2B1B
  5
2B1D
331
3B27
  5
3B29
331
3AAE
  5
3AB0
331
3AD0
  5
3AD2
331
29E3
  5
29E3
331
29C1
  5
29C1
331
3B49
  5
3B4B
331
3BBD
  5
3BBF
331
29D2
  5
29D2
331
2978
  5
2978
331
11D
  5
11D
  0
LAYOUT
  5
51
102
{ACAD_XDICTIONARY
360
3E02
102
}
102
{ACAD_REACTORS
330
1A
102
}
330
1A
100
AcDbPlotSettings
  1

  2
None
  4

  6

 40
0.0
 41
0.0
 42
0.0
 43
0.0
 44
0.0
 45
0.0
 46
0.0
 47
0.0
 48
0.0
 49
0.0
140
0.0
141
0.0
142
1.0
143
1.0
 70
   688
 72
     0
 73
     0
 74
     5
  7

 75
    16
147
1.0
148
0.0
149
0.0
100
AcDbLayout
  1
Layout1
 70
     1
 71
     1
 10
0.0
 20
0.0
 11
12.0
 21
9.0
 12
0.0
 22
0.0
 32
0.0
 14
0.0
 24
0.0
 34
0.0
 15
0.0
 25
0.0
 35
0.0
146
0.0
 13
0.0
 23
0.0
 33
0.0
 16
1.0
 26
0.0
 36
0.0
 17
0.0
 27
1.0
 37
0.0
 76
     0
330
50
  0
LAYOUT
  5
56
102
{ACAD_XDICTIONARY
360
3E04
102
}
102
{ACAD_REACTORS
330
1A
102
}
330
1A
100
AcDbPlotSettings
  1

  2
None
  4

  6

 40
0.0
 41
0.0
 42
0.0
 43
0.0
 44
0.0
 45
0.0
 46
0.0
 47
0.0
 48
0.0
 49
0.0
140
0.0
141
0.0
142
1.0
143
1.0
 70
   688
 72
     0
 73
     0
 74
     5
  7

 75
    16
147
1.0
148
0.0
149
0.0
100
AcDbLayout
  1
Layout2
 70
     1
 71
     2
 10
0.0
 20
0.0
 11
12.0
 21
9.0
 12
0.0
 22
0.0
 32
0.0
 14
0.0
 24
0.0
 34
0.0
 15
0.0
 25
0.0
 35
0.0
146
0.0
 13
0.0
 23
0.0
 33
0.0
 16
1.0
 26
0.0
 36
0.0
 17
0.0
 27
1.0
 37
0.0
 76
     0
330
55
  0
LAYOUT
  5
22
102
{ACAD_XDICTIONARY
360
3E00
102
}
102
{ACAD_REACTORS
330
1A
102
}
330
1A
100
AcDbPlotSettings
  1

  2
\\AMBW779A\A_P00873 (Canon iR2200-3300 PCL6)
  4
A4
  6

 40
4.815417
 41
4.815412
 42
4.815413999999996
 43
4.81543
 44
209.973328
 45
296.925995
 46
0.0
 47
0.0
 48
0.0
 49
0.0
140
0.0
141
0.0
142
1.0
143
1.0
 70
 11952
 72
     1
 73
     1
 74
     1
  7
monochrome.ctb
 75
    16
147
1.0
148
-1055.862915891527
149
-202.2335948552433
100
AcDbLayout
  1
Model
 70
     1
 71
     0
 10
0.0
 20
0.0
 11
12.0
 21
9.0
 12
0.0
 22
0.0
 32
0.0
 14
0.0
 24
0.0
 34
0.0
 15
0.0
 25
0.0
 35
0.0
146
0.0
 13
0.0
 23
0.0
 33
0.0
 16
1.0
 26
0.0
 36
0.0
 17
0.0
 27
1.0
 37
0.0
 76
     0
330
1F
331
3DB6
  0
MATERIAL
  5
3DC5
102
{ACAD_XDICTIONARY
360
3E08
102
}
102
{ACAD_REACTORS
330
2080
102
}
330
2080
100
AcDbMaterial
  1
ByBlock
  0
MATERIAL
  5
3DC4
102
{ACAD_XDICTIONARY
360
3E06
102
}
102
{ACAD_REACTORS
330
2080
102
}
330
2080
100
AcDbMaterial
  1
ByLayer
  0
MATERIAL
  5
3DC6
102
{ACAD_XDICTIONARY
360
3E0A
102
}
102
{ACAD_REACTORS
330
2080
102
}
330
2080
100
AcDbMaterial
  1
Global
  0
MLINESTYLE
  5
18
102
{ACAD_REACTORS
330
17
102
}
330
17
100
AcDbMlineStyle
  2
STANDARD
 70
     0
  3

 62
   256
 51
90.0
 52
90.0
 71
     2
 49
0.5
 62
   256
  6
BYLAYER
 49
-0.5
 62
   256
  6
BYLAYER
  0
ACDBPLACEHOLDER
  5
F
102
{ACAD_REACTORS
330
E
102
}
330
E
  0
TABLESTYLE
  5
3DD9
102
{ACAD_XDICTIONARY
360
3E0C
102
}
102
{ACAD_REACTORS
330
3DD8
102
}
330
3DD8
100
AcDbTableStyle
  3
Standard
 70
     0
 71
     0
 40
1.5
 41
1.5
280
     0
281
     0
  7
Standard
140
4.5
170
     2
 62
     0
 63
     7
283
     0
274
    -2
284
     1
 64
     0
275
    -2
285
     1
 65
     0
276
    -2
286
     1
 66
     0
277
    -2
287
     1
 67
     0
278
    -2
288
     1
 68
     0
279
    -2
289
     1
 69
     0
  7
Standard
140
6.0
170
     5
 62
     0
 63
     7
283
     0
274
    -2
284
     1
 64
     0
275
    -2
285
     1
 65
     0
276
    -2
286
     1
 66
     0
277
    -2
287
     1
 67
     0
278
    -2
288
     1
 68
     0
279
    -2
289
     1
 69
     0
  7
Standard
140
4.5
170
     5
 62
     0
 63
     7
283
     0
274
    -2
284
     1
 64
     0
275
    -2
285
     1
 65
     0
276
    -2
286
     1
 66
     0
277
    -2
287
     1
 67
     0
278
    -2
288
     1
 68
     0
279
    -2
289
     1
 69
     0
  0
VISUALSTYLE
  5
3DCD
102
{ACAD_REACTORS
330
3DC7
102
}
330
3DC7
100
AcDbVisualStyle
  2
2dWireframe
 70
     4
 71
     0
 72
     2
 73
     0
 90
        0
 40
-0.6
 41
-30.0
 62
     5
 63
     7
 74
     1
 91
        4
 64
     7
 65
   257
 75
     1
175
     1
 42
1.0
 92
        0
 66
   257
 43
1.0
 76
     1
 77
     6
 78
     2
 67
     7
 79
     5
170
     0
171
     0
290
     0
174
     0
 93
        1
 44
0.0
173
     0
291
     0
 45
0.0
1001
ACAD
1000
AcDbSavedByObjectVersion
1070
     0
  0
VISUALSTYLE
  5
3DCF
102
{ACAD_REACTORS
330
3DC7
102
}
330
3DC7
100
AcDbVisualStyle
  2
3D Hidden
 70
     6
 71
     1
 72
     2
 73
     2
 90
        0
 40
-0.6
 41
-30.0
 62
     5
 63
     7
 74
     2
 91
        2
 64
     7
 65
   257
 75
     2
175
     1
 42
40.0
 92
        0
 66
   257
 43
1.0
 76
     1
 77
     6
 78
     2
 67
     7
 79
     3
170
     0
171
     0
290
     0
174
     0
 93
        1
 44
0.0
173
     0
291
     0
 45
0.0
1001
ACAD
1000
AcDbSavedByObjectVersion
1070
     0
  0
VISUALSTYLE
  5
3DCE
102
{ACAD_REACTORS
330
3DC7
102
}
330
3DC7
100
AcDbVisualStyle
  2
3dWireframe
 70
     5
 71
     0
 72
     2
 73
     0
 90
        0
 40
-0.6
 41
-30.0
 62
     5
 63
     7
 74
     1
 91
        4
 64
     7
 65
   257
 75
     1
175
     1
 42
1.0
 92
        0
 66
   257
 43
1.0
 76
     1
 77
     6
 78
     2
 67
     7
 79
     5
170
     0
171
     0
290
     0
174
     0
 93
        1
 44
0.0
173
     0
291
     0
 45
0.0
1001
ACAD
1000
AcDbSavedByObjectVersion
1070
     0
  0
VISUALSTYLE
  5
3DCC
102
{ACAD_REACTORS
330
3DC7
102
}
330
3DC7
100
AcDbVisualStyle
  2
Basic
 70
     7
 71
     1
 72
     0
 73
     1
 90
        0
 40
-0.6
 41
-30.0
 62
     5
 63
     7
 74
     0
 91
        4
 64
     7
 65
   257
 75
     1
175
     1
 42
1.0
 92
        8
 66
     7
 43
1.0
 76
     1
 77
     6
 78
     2
 67
     7
 79
     5
170
     0
171
     0
290
     0
174
     0
 93
        1
 44
0.0
173
     0
291
     1
 45
0.0
1001
ACAD
1000
AcDbSavedByObjectVersion
1070
     0
  0
VISUALSTYLE
  5
3DD3
102
{ACAD_REACTORS
330
3DC7
102
}
330
3DC7
100
AcDbVisualStyle
  2
Brighten
 70
    12
 71
     2
 72
     2
 73
     0
 90
        0
 40
-0.6
 41
-30.0
 62
     5
 63
     7
 74
     1
 91
        4
 64
     7
 65
   257
 75
     1
175
     1
 42
1.0
 92
        8
 66
     7
 43
1.0
 76
     1
 77
     6
 78
     2
 67
     7
 79
     5
170
     0
171
     0
290
     0
174
     0
 93
        1
 44
50.0
173
     0
291
     1
 45
0.0
1001
ACAD
1000
AcDbSavedByObjectVersion
1070
     0
  0
VISUALSTYLE
  5
3DD7
102
{ACAD_REACTORS
330
3DC7
102
}
330
3DC7
100
AcDbVisualStyle
  2
ColorChange
 70
    16
 71
     2
 72
     2
 73
     3
 90
        0
 40
-0.6
 41
-30.0
 62
     5
 63
     8
 74
     1
 91
        4
 64
     7
 65
   257
 75
     1
175
     1
 42
1.0
 92
        8
 66
     8
 43
1.0
 76
     1
 77
     6
 78
     2
 67
     7
 79
     5
170
     0
171
     0
290
     0
174
     0
 93
        1
 44
0.0
173
     0
291
     1
 45
0.0
1001
ACAD
1000
AcDbSavedByObjectVersion
1070
     0
  0
VISUALSTYLE
  5
3DD0
102
{ACAD_REACTORS
330
3DC7
102
}
330
3DC7
100
AcDbVisualStyle
  2
Conceptual
 70
     9
 71
     3
 72
     2
 73
     0
 90
        0
 40
-0.6
 41
-30.0
 62
     5
 63
     7
 74
     2
 91
        2
 64
     7
 65
   257
 75
     1
175
     1
 42
40.0
 92
        8
 66
     7
 43
1.0
 76
     1
 77
     6
 78
     2
 67
     7
 79
     3
170
     0
171
     0
290
     0
174
     0
 93
        1
 44
0.0
173
     0
291
     0
 45
0.0
1001
ACAD
1000
AcDbSavedByObjectVersion
1070
     0
  0
VISUALSTYLE
  5
3DD2
102
{ACAD_REACTORS
330
3DC7
102
}
330
3DC7
100
AcDbVisualStyle
  2
Dim
 70
    11
 71
     2
 72
     2
 73
     0
 90
        0
 40
-0.6
 41
-30.0
 62
     5
 63
     7
 74
     1
 91
        4
 64
     7
 65
   257
 75
     1
175
     1
 42
1.0
 92
        8
 66
     7
 43
1.0
 76
     1
 77
     6
 78
     2
 67
     7
 79
     5
170
     0
171
     0
290
     0
174
     0
 93
        1
 44
-50.0
173
     0
291
     1
 45
0.0
1001
ACAD
1000
AcDbSavedByObjectVersion
1070
     0
  0
VISUALSTYLE
  5
3DD6
102
{ACAD_REACTORS
330
3DC7
102
}
330
3DC7
100
AcDbVisualStyle
  2
Facepattern
 70
    15
 71
     2
 72
     2
 73
     0
 90
        0
 40
-0.6
 41
-30.0
 62
     5
 63
     7
 74
     1
 91
        4
 64
     7
 65
   257
 75
     1
175
     1
 42
1.0
 92
        8
 66
     7
 43
1.0
 76
     1
 77
     6
 78
     2
 67
     7
 79
     5
170
     0
171
     0
290
     0
174
     0
 93
        1
 44
0.0
173
     0
291
     1
 45
0.0
1001
ACAD
1000
AcDbSavedByObjectVersion
1070
     0
  0
VISUALSTYLE
  5
3DC8
102
{ACAD_REACTORS
330
3DC7
102
}
330
3DC7
100
AcDbVisualStyle
  2
Flat
 70
     0
 71
     2
 72
     1
 73
     1
 90
        2
 40
-0.6
 41
30.0
 62
     5
 63
     7
 74
     0
 91
        4
 64
     7
 65
   257
 75
     1
175
     1
 42
1.0
 92
        8
 66
     7
 43
1.0
 76
     1
 77
     6
 78
     2
 67
     7
 79
     5
170
     0
171
     0
290
     0
174
     0
 93
       13
 44
0.0
173
     0
291
     1
 45
0.0
1001
ACAD
1000
AcDbSavedByObjectVersion
1070
     0
  0
VISUALSTYLE
  5
3DC9
102
{ACAD_REACTORS
330
3DC7
102
}
330
3DC7
100
AcDbVisualStyle
  2
FlatWithEdges
 70
     1
 71
     2
 72
     1
 73
     1
 90
        2
 40
-0.6
 41
30.0
 62
     5
 63
     7
 74
     1
 91
        4
 64
     7
 65
   257
 75
     1
175
     1
 42
1.0
 92
        0
 66
   257
 43
1.0
 76
     1
 77
     6
 78
     2
 67
     7
 79
     5
170
     0
171
     0
290
     0
174
     0
 93
       13
 44
0.0
173
     0
291
     1
 45
0.0
1001
ACAD
1000
AcDbSavedByObjectVersion
1070
     0
  0
VISUALSTYLE
  5
3DCA
102
{ACAD_REACTORS
330
3DC7
102
}
330
3DC7
100
AcDbVisualStyle
  2
Gouraud
 70
     2
 71
     2
 72
     2
 73
     1
 90
        2
 40
-0.6
 41
30.0
 62
     5
 63
     7
 74
     0
 91
        4
 64
     7
 65
   257
 75
     1
175
     1
 42
1.0
 92
        0
 66
     7
 43
1.0
 76
     1
 77
     6
 78
     2
 67
     7
 79
     5
170
     0
171
     0
290
     0
174
     0
 93
       13
 44
0.0
173
     0
291
     1
 45
0.0
1001
ACAD
1000
AcDbSavedByObjectVersion
1070
     0
  0
VISUALSTYLE
  5
3DCB
102
{ACAD_REACTORS
330
3DC7
102
}
330
3DC7
100
AcDbVisualStyle
  2
GouraudWithEdges
 70
     3
 71
     2
 72
     2
 73
     1
 90
        2
 40
-0.6
 41
30.0
 62
     5
 63
     7
 74
     1
 91
        4
 64
     7
 65
   257
 75
     1
175
     1
 42
1.0
 92
        0
 66
   257
 43
1.0
 76
     1
 77
     6
 78
     2
 67
     7
 79
     5
170
     0
171
     0
290
     0
174
     0
 93
       13
 44
0.0
173
     0
291
     1
 45
0.0
1001
ACAD
1000
AcDbSavedByObjectVersion
1070
     0
  0
VISUALSTYLE
  5
3DD5
102
{ACAD_REACTORS
330
3DC7
102
}
330
3DC7
100
AcDbVisualStyle
  2
Linepattern
 70
    14
 71
     2
 72
     2
 73
     0
 90
        0
 40
-0.6
 41
-30.0
 62
     5
 63
     7
 74
     1
 91
        4
 64
     7
 65
   257
 75
     7
175
     7
 42
1.0
 92
        8
 66
     7
 43
1.0
 76
     1
 77
     6
 78
     2
 67
     7
 79
     5
170
     0
171
     0
290
     0
174
     0
 93
        1
 44
0.0
173
     0
291
     1
 45
0.0
1001
ACAD
1000
AcDbSavedByObjectVersion
1070
     0
  0
VISUALSTYLE
  5
3DD1
102
{ACAD_REACTORS
330
3DC7
102
}
330
3DC7
100
AcDbVisualStyle
  2
Realistic
 70
     8
 71
     2
 72
     2
 73
     0
 90
        0
 40
-0.6
 41
-30.0
 62
     5
 63
     7
 74
     1
 91
        0
 64
     7
 65
   257
 75
     1
175
     1
 42
1.0
 92
        8
 66
     8
 43
1.0
 76
     1
 77
     6
 78
     2
 67
     7
 79
     5
170
     0
171
     0
290
     0
174
     0
 93
       13
 44
0.0
173
     0
291
     0
 45
0.0
1001
ACAD
1000
AcDbSavedByObjectVersion
1070
     0
  0
VISUALSTYLE
  5
3DD4
102
{ACAD_REACTORS
330
3DC7
102
}
330
3DC7
100
AcDbVisualStyle
  2
Thicken
 70
    13
 71
     2
 72
     2
 73
     0
 90
        0
 40
-0.6
 41
-30.0
 62
     5
 63
     7
 74
     1
 91
        4
 64
     7
 65
   257
 75
     1
175
     1
 42
1.0
 92
       12
 66
     7
 43
1.0
 76
     1
 77
     6
 78
     2
 67
     7
 79
     5
170
     0
171
     0
290
     0
174
     0
 93
        1
 44
0.0
173
     0
291
     1
 45
0.0
1001
ACAD
1000
AcDbSavedByObjectVersion
1070
     0
  0
DICTIONARYVAR
  5
3DFC
102
{ACAD_REACTORS
330
5E
102
}
330
5E
100
DictionaryVariables
280
     0
  1
STANDARD
  0
DICTIONARYVAR
  5
5F
102
{ACAD_REACTORS
330
5E
102
}
330
5E
100
DictionaryVariables
280
     0
  1
2
  0
DICTIONARYVAR
  5
63
102
{ACAD_REACTORS
330
5E
102
}
330
5E
100
DictionaryVariables
280
     0
  1
1
  0
DICTIONARYVAR
  5
3DFE
102
{ACAD_REACTORS
330
5E
102
}
330
5E
100
DictionaryVariables
280
     0
  1
0
  0
DICTIONARYVAR
  5
3D8C
102
{ACAD_REACTORS
330
5E
102
}
330
5E
100
DictionaryVariables
280
     0
  1

  0
DICTIONARYVAR
  5
3DFD
102
{ACAD_REACTORS
330
5E
102
}
330
5E
100
DictionaryVariables
280
     0
  1
127
  0
DICTIONARY
  5
3E02
330
51
100
AcDbDictionary
280
     1
281
     1
  3
ACAD_XREC_ROUNDTRIP
360
3E03
  0
DICTIONARY
  5
3E04
330
56
100
AcDbDictionary
280
     1
281
     1
  3
ACAD_XREC_ROUNDTRIP
360
3E05
  0
DICTIONARY
  5
3E00
330
22
100
AcDbDictionary
280
     1
281
     1
  3
ACAD_XREC_ROUNDTRIP
360
3E01
  0
DICTIONARY
  5
3E08
330
3DC5
100
AcDbDictionary
280
     1
281
     1
  3
ACAD_XREC_ROUNDTRIP
360
3E09
  0
DICTIONARY
  5
3E06
330
3DC4
100
AcDbDictionary
280
     1
281
     1
  3
ACAD_XREC_ROUNDTRIP
360
3E07
  0
DICTIONARY
  5
3E0A
330
3DC6
100
AcDbDictionary
280
     1
281
     1
  3
ACAD_XREC_ROUNDTRIP
360
3E0B
  0
DICTIONARY
  5
3E0C
330
3DD9
100
AcDbDictionary
280
     1
281
     1
  3
ACAD_XREC_ROUNDTRIP
360
3E0D
  0
XRECORD
  5
3E03
102
{ACAD_REACTORS
330
3E02
102
}
330
3E02
100
AcDbXrecord
280
     1
102
SHADEPLOT
 70
     0
102
SHADEPLOTRESLEVEL
 70
     2
102
SHADEPLOTCUSTOMDPI
 70
   300
  0
XRECORD
  5
3E05
102
{ACAD_REACTORS
330
3E04
102
}
330
3E04
100
AcDbXrecord
280
     1
102
SHADEPLOT
 70
     0
102
SHADEPLOTRESLEVEL
 70
     2
102
SHADEPLOTCUSTOMDPI
 70
   300
  0
XRECORD
  5
3E01
102
{ACAD_REACTORS
330
3E00
102
}
330
3E00
100
AcDbXrecord
280
     1
102
SHADEPLOT
 70
     1
102
SHADEPLOTRESLEVEL
 70
     2
102
SHADEPLOTCUSTOMDPI
 70
   300
  0
XRECORD
  5
3E09
102
{ACAD_REACTORS
330
3E08
102
}
330
3E08
100
AcDbXrecord
280
     1
102
MATERIAL
148
0.0
149
0.0
149
0.0
 93
        0
 94
       63
282
     0
 72
     1
 77
     1
171
     1
175
     1
179
     1
273
     0
  0
XRECORD
  5
3E07
102
{ACAD_REACTORS
330
3E06
102
}
330
3E06
100
AcDbXrecord
280
     1
102
MATERIAL
148
0.0
149
0.0
149
0.0
 93
        0
 94
       63
282
     0
 72
     1
 77
     1
171
     1
175
     1
179
     1
273
     0
  0
XRECORD
  5
3E0B
102
{ACAD_REACTORS
330
3E0A
102
}
330
3E0A
100
AcDbXrecord
280
     1
102
MATERIAL
148
0.0
149
0.0
149
0.0
 93
        0
 94
       63
282
     0
 72
     1
 77
     1
171
     1
175
     1
179
     1
273
     0
  0
XRECORD
  5
3E0D
102
{ACAD_REACTORS
330
3E0C
102
}
330
3E0C
100
AcDbXrecord
280
     1
102
ACAD_ROUNDTRIP_PRE2007_TABLESTYLE
 90
      512
 91
        0
  1

 92
      512
 93
        0
  2

 94
      512
 95
        0
  3

  0
ENDSEC
  0
EOF
