  0
SECTION
  2
HEADER
  9
$ACADVER
  1
AC1014
  9
$ACADMAINTVER
 70
     9
  9
$DWGCODEPAGE
  3
ANSI_1252
  9
$INSBASE
 10
0.0
 20
0.0
 30
0.0
  9
$EXTMIN
 10
1.000000E+20
 20
1.000000E+20
 30
1.000000E+20
  9
$EXTMAX
 10
-1.000000E+20
 20
-1.000000E+20
 30
-1.000000E+20
  9
$LIMMIN
 10
0.0
 20
0.0
  9
$LIMMAX
 10
12.0
 20
9.0
  9
$ORTHOMODE
 70
     0
  9
$REGENMODE
 70
     1
  9
$FILLMODE
 70
     1
  9
$QTEXTMODE
 70
     0
  9
$MIRRTEXT
 70
     1
  9
$DRAGMODE
 70
     2
  9
$LTSCALE
 40
1.0
  9
$OSMODE
 70
    37
  9
$ATTMODE
 70
     1
  9
$TEXTSIZE
 40
0.2
  9
$TRACEWID
 40
0.05
  9
$TEXTSTYLE
  7
STANDARD
  9
$CLAYER
  8
0
  9
$CELTYPE
  6
BYLAYER
  9
$CECOLOR
 62
   256
  9
$CELTSCALE
 40
1.0
  9
$DELOBJ
 70
     1
  9
$DISPSILH
 70
     0
  9
$DIMSCALE
 40
1.0
  9
$DIMASZ
 40
0.18
  9
$DIMEXO
 40
0.0625
  9
$DIMDLI
 40
0.38
  9
$DIMRND
 40
0.0
  9
$DIMDLE
 40
0.0
  9
$DIMEXE
 40
0.18
  9
$DIMTP
 40
0.0
  9
$DIMTM
 40
0.0
  9
$DIMTXT
 40
0.18
  9
$DIMCEN
 40
0.09
  9
$DIMTSZ
 40
0.0
  9
$DIMTOL
 70
     0
  9
$DIMLIM
 70
     0
  9
$DIMTIH
 70
     1
  9
$DIMTOH
 70
     1
  9
$DIMSE1
 70
     0
  9
$DIMSE2
 70
     0
  9
$DIMTAD
 70
     0
  9
$DIMZIN
 70
     0
  9
$DIMBLK
  1

  9
$DIMASO
 70
     1
  9
$DIMSHO
 70
     1
  9
$DIMPOST
  1

  9
$DIMAPOST
  1

  9
$DIMALT
 70
     0
  9
$DIMALTD
 70
     2
  9
$DIMALTF
 40
25.4
  9
$DIMLFAC
 40
1.0
  9
$DIMTOFL
 70
     0
  9
$DIMTVP
 40
0.0
  9
$DIMTIX
 70
     0
  9
$DIMSOXD
 70
     0
  9
$DIMSAH
 70
     0
  9
$DIMBLK1
  1

  9
$DIMBLK2
  1

  9
$DIMSTYLE
  2
STANDARD
  9
$DIMCLRD
 70
     0
  9
$DIMCLRE
 70
     0
  9
$DIMCLRT
 70
     0
  9
$DIMTFAC
 40
1.0
  9
$DIMGAP
 40
0.09
  9
$DIMJUST
 70
     0
  9
$DIMSD1
 70
     0
  9
$DIMSD2
 70
     0
  9
$DIMTOLJ
 70
     1
  9
$DIMTZIN
 70
     0
  9
$DIMALTZ
 70
     0
  9
$DIMALTTZ
 70
     0
  9
$DIMFIT
 70
     3
  9
$DIMUPT
 70
     0
  9
$DIMUNIT
 70
     2
  9
$DIMDEC
 70
     4
  9
$DIMTDEC
 70
     4
  9
$DIMALTU
 70
     2
  9
$DIMALTTD
 70
     2
  9
$DIMTXSTY
  7
STANDARD
  9
$DIMAUNIT
 70
     0
  9
$LUNITS
 70
     2
  9
$LUPREC
 70
     4
  9
$SKETCHINC
 40
0.1
  9
$FILLETRAD
 40
0.5
  9
$AUNITS
 70
     0
  9
$AUPREC
 70
     0
  9
$MENU
  1
.
  9
$ELEVATION
 40
0.0
  9
$PELEVATION
 40
0.0
  9
$THICKNESS
 40
0.0
  9
$LIMCHECK
 70
     0
  9
$CHAMFERA
 40
0.5
  9
$CHAMFERB
 40
0.5
  9
$CHAMFERC
 40
1.0
  9
$CHAMFERD
 40
0.0
  9
$SKPOLY
 70
     0
  9
$TDCREATE
 40
2455209.495845984
  9
$TDUPDATE
 40
2455209.495845995
  9
$TDINDWG
 40
0.0000000116
  9
$TDUSRTIMER
 40
0.0000000116
  9
$USRTIMER
 70
     1
  9
$ANGBASE
 50
0.0
  9
$ANGDIR
 70
     0
  9
$PDMODE
 70
     0
  9
$PDSIZE
 40
0.0
  9
$PLINEWID
 40
0.0
  9
$COORDS
 70
     1
  9
$SPLFRAME
 70
     0
  9
$SPLINETYPE
 70
     6
  9
$SPLINESEGS
 70
     8
  9
$ATTDIA
 70
     0
  9
$ATTREQ
 70
     1
  9
$HANDLING
 70
     1
  9
$HANDSEED
  5
483
  9
$SURFTAB1
 70
     6
  9
$SURFTAB2
 70
     6
  9
$SURFTYPE
 70
     6
  9
$SURFU
 70
     6
  9
$SURFV
 70
     6
  9
$UCSNAME
  2

  9
$UCSORG
 10
0.0
 20
0.0
 30
0.0
  9
$UCSXDIR
 10
1.0
 20
0.0
 30
0.0
  9
$UCSYDIR
 10
0.0
 20
1.0
 30
0.0
  9
$PUCSNAME
  2

  9
$PUCSORG
 10
0.0
 20
0.0
 30
0.0
  9
$PUCSXDIR
 10
1.0
 20
0.0
 30
0.0
  9
$PUCSYDIR
 10
0.0
 20
1.0
 30
0.0
  9
$USERI1
 70
     0
  9
$USERI2
 70
     0
  9
$USERI3
 70
     0
  9
$USERI4
 70
     0
  9
$USERI5
 70
     0
  9
$USERR1
 40
0.0
  9
$USERR2
 40
0.0
  9
$USERR3
 40
0.0
  9
$USERR4
 40
0.0
  9
$USERR5
 40
0.0
  9
$WORLDVIEW
 70
     1
  9
$SHADEDGE
 70
     3
  9
$SHADEDIF
 70
    70
  9
$TILEMODE
 70
     1
  9
$MAXACTVP
 70
    64
  9
$PINSBASE
 10
0.0
 20
0.0
 30
0.0
  9
$PLIMCHECK
 70
     0
  9
$PEXTMIN
 10
1.000000E+20
 20
1.000000E+20
 30
1.000000E+20
  9
$PEXTMAX
 10
-1.000000E+20
 20
-1.000000E+20
 30
-1.000000E+20
  9
$PLIMMIN
 10
0.0
 20
0.0
  9
$PLIMMAX
 10
12.0
 20
9.0
  9
$UNITMODE
 70
     0
  9
$VISRETAIN
 70
     1
  9
$PLINEGEN
 70
     0
  9
$PSLTSCALE
 70
     1
  9
$TREEDEPTH
 70
  3020
  9
$PICKSTYLE
 70
     1
  9
$CMLSTYLE
  2
STANDARD
  9
$CMLJUST
 70
     0
  9
$CMLSCALE
 40
1.0
  9
$PROXYGRAPHICS
 70
     1
  9
$MEASUREMENT
 70
     0
  0
ENDSEC
  0
SECTION
  2
CLASSES
  0
CLASS
  1
ACDBDICTIONARYWDFLT
  2
AcDbDictionaryWithDefault
  3
ObjectDBX Classes
 90
        0
280
     0
281
     0
  0
CLASS
  1
VISUALSTYLE
  2
AcDbVisualStyle
  3
ObjectDBX Classes
 90
     4095
280
     0
281
     0
  0
CLASS
  1
XRECORD
  2
AcDbXrecord
  3
AutoCAD 2000
 90
        0
280
     0
281
     0
  0
CLASS
  1
LWPOLYLINE
  2
AcDbPolyline
  3
AutoCAD 2000
 90
        0
280
     0
281
     1
  0
CLASS
  1
HATCH
  2
AcDbHatch
  3
AutoCAD 2000
 90
        0
280
     0
281
     1
  0
CLASS
  1
ACDBPLACEHOLDER
  2
AcDbPlaceHolder
  3
ObjectDBX Classes
 90
        0
280
     0
281
     0
  0
CLASS
  1
LAYOUT
  2
AcDbLayout
  3
ObjectDBX Classes
 90
        0
280
     0
281
     0
  0
ENDSEC
  0
SECTION
  2
TABLES
  0
TABLE
  2
VPORT
  5
8
330
0
100
AcDbSymbolTable
 70
     1
  0
VPORT
  5
29
330
8
100
AcDbSymbolTableRecord
100
AcDbViewportTableRecord
  2
*ACTIVE
 70
     0
 10
0.0
 20
0.0
 11
1.0
 21
1.0
 12
10.429907
 22
4.5
 13
0.0
 23
0.0
 14
0.5
 24
0.5
 15
0.5
 25
0.5
 16
0.0
 26
0.0
 36
1.0
 17
0.0
 27
0.0
 37
0.0
 40
9.0
 41
1.972973
 42
50.0
 43
0.0
 44
0.0
 50
0.0
 51
0.0
 71
     0
 72
   100
 73
     1
 74
     3
 75
     0
 76
     0
 77
     0
 78
     0
  0
ENDTAB
  0
TABLE
  2
LTYPE
  5
5
330
0
100
AcDbSymbolTable
 70
     1
  0
LTYPE
  5
14
330
5
100
AcDbSymbolTableRecord
100
AcDbLinetypeTableRecord
  2
BYBLOCK
 70
     0
  3

 72
    65
 73
     0
 40
0.0
  0
LTYPE
  5
15
330
5
100
AcDbSymbolTableRecord
100
AcDbLinetypeTableRecord
  2
BYLAYER
 70
     0
  3

 72
    65
 73
     0
 40
0.0
  0
LTYPE
  5
16
330
5
100
AcDbSymbolTableRecord
100
AcDbLinetypeTableRecord
  2
CONTINUOUS
 70
     0
  3
Solid line
 72
    65
 73
     0
 40
0.0
  0
ENDTAB
  0
TABLE
  2
LAYER
  5
2
330
0
100
AcDbSymbolTable
 70
     7
  0
LAYER
  5
10
330
2
100
AcDbSymbolTableRecord
100
AcDbLayerTableRecord
  2
0
 70
     0
 62
     7
  6
CONTINUOUS
  0
LAYER
  5
3B
330
2
100
AcDbSymbolTableRecord
100
AcDbLayerTableRecord
  2
DIM
 70
     0
 62
     7
  6
CONTINUOUS
  0
LAYER
  5
3C
330
2
100
AcDbSymbolTableRecord
100
AcDbLayerTableRecord
  2
DRAW
 70
     0
 62
     7
  6
CONTINUOUS
  0
LAYER
  5
3D
330
2
100
AcDbSymbolTableRecord
100
AcDbLayerTableRecord
  2
CARTOUCHE
 70
     0
 62
     7
  6
CONTINUOUS
  0
LAYER
  5
3E
330
2
100
AcDbSymbolTableRecord
100
AcDbLayerTableRecord
  2
DRAW-TEXT
 70
     0
 62
     7
  6
CONTINUOUS
  0
LAYER
  5
3F
330
2
100
AcDbSymbolTableRecord
100
AcDbLayerTableRecord
  2
DEFPOINTS
 70
     0
 62
     7
  6
CONTINUOUS
  0
LAYER
  5
40
330
2
100
AcDbSymbolTableRecord
100
AcDbLayerTableRecord
  2
255
 70
     0
 62
     7
  6
CONTINUOUS
  0
ENDTAB
  0
TABLE
  2
STYLE
  5
3
330
0
100
AcDbSymbolTable
 70
    17
  0
STYLE
  5
11
330
3
100
AcDbSymbolTableRecord
100
AcDbTextStyleTableRecord
  2
STANDARD
 70
     0
 40
0.0
 41
1.0
 50
0.0
 71
     0
 42
0.2
  3
txt
  4

1001
ACAD
1000
txt
1071
        0
  0
STYLE
  5
41
330
3
100
AcDbSymbolTableRecord
100
AcDbTextStyleTableRecord
  2
DEFAULT
 70
     0
 40
0.0
 41
1.0
 50
0.0
 71
     0
 42
0.2
  3

  4

1001
ACAD
1000
txt
1071
        0
  0
STYLE
  5
42
330
3
100
AcDbSymbolTableRecord
100
AcDbTextStyleTableRecord
  2
FINDER
 70
     0
 40
0.0
 41
1.0
 50
0.0
 71
     0
 42
0.2
  3
ARIAL.TTF
  4

1001
ACAD
1000
Arial
1071
        0
  0
STYLE
  5
43
330
3
100
AcDbSymbolTableRecord
100
AcDbTextStyleTableRecord
  2
TSTYLE1
 70
     0
 40
0.0
 41
1.0
 50
0.0
 71
     0
 42
0.2
  3

  4

1001
ACAD
1000
Arial
1071
        0
  0
STYLE
  5
44
330
3
100
AcDbSymbolTableRecord
100
AcDbTextStyleTableRecord
  2
TSTYLE2
 70
     0
 40
0.0
 41
1.0
 50
0.0
 71
     0
 42
0.2
  3

  4

1001
ACAD
1000
Arial
1071
        0
  0
STYLE
  5
45
330
3
100
AcDbSymbolTableRecord
100
AcDbTextStyleTableRecord
  2
TSTYLE3
 70
     0
 40
0.0
 41
1.0
 50
0.0
 71
     0
 42
0.2
  3

  4

1001
ACAD
1000
Arial
1071
        0
  0
STYLE
  5
46
330
3
100
AcDbSymbolTableRecord
100
AcDbTextStyleTableRecord
  2
TSTYLE4
 70
     0
 40
0.0
 41
1.0
 50
0.0
 71
     0
 42
0.2
  3

  4

1001
ACAD
1000
Arial
1071
        0
  0
STYLE
  5
47
330
3
100
AcDbSymbolTableRecord
100
AcDbTextStyleTableRecord
  2
TSTYLE5
 70
     0
 40
0.0
 41
1.0
 50
0.0
 71
     0
 42
0.2
  3

  4

1001
ACAD
1000
txt
1071
        0
  0
STYLE
  5
48
330
3
100
AcDbSymbolTableRecord
100
AcDbTextStyleTableRecord
  2
ISO_FINDER
 70
     0
 40
0.0
 41
1.0
 50
0.0
 71
     0
 42
0.2
  3

  4

1001
ACAD
1000
Arial
1071
        0
  0
STYLE
  5
49
330
3
100
AcDbSymbolTableRecord
100
AcDbTextStyleTableRecord
  2
TSTYLE11
 70
     0
 40
0.0
 41
1.0
 50
0.0
 71
     0
 42
0.2
  3

  4

1001
ACAD
1000
Arial
1071
        0
  0
STYLE
  5
4A
330
3
100
AcDbSymbolTableRecord
100
AcDbTextStyleTableRecord
  2
TSTYLE23
 70
     0
 40
0.0
 41
1.0
 50
0.0
 71
     0
 42
0.2
  3

  4

1001
ACAD
1000
Arial
1071
        0
  0
STYLE
  5
4B
330
3
100
AcDbSymbolTableRecord
100
AcDbTextStyleTableRecord
  2
TSTYLE22
 70
     0
 40
0.0
 41
1.0
 50
0.0
 71
     0
 42
0.2
  3

  4

1001
ACAD
1000
Arial
1071
        0
  0
STYLE
  5
4C
330
3
100
AcDbSymbolTableRecord
100
AcDbTextStyleTableRecord
  2
ISO
 70
     0
 40
0.0
 41
1.0
 50
0.0
 71
     0
 42
0.2
  3

  4

1001
ACAD
1000
ISOCP
1071
        0
  0
STYLE
  5
4D
330
3
100
AcDbSymbolTableRecord
100
AcDbTextStyleTableRecord
  2
HELVETICAR
 70
     0
 40
0.0
 41
1.0
 50
0.0
 71
     0
 42
0.2
  3

  4

1001
ACAD
1000
Swis721 Cn BT
1071
        0
  0
STYLE
  5
4E
330
3
100
AcDbSymbolTableRecord
100
AcDbTextStyleTableRecord
  2
ROMANS
 70
     0
 40
0.0
 41
1.0
 50
0.0
 71
     0
 42
0.2
  3

  4

1001
ACAD
1000
romans
1071
        0
  0
STYLE
  5
4F
330
3
100
AcDbSymbolTableRecord
100
AcDbTextStyleTableRecord
  2
STD
 70
     0
 40
0.0
 41
1.0
 50
0.0
 71
     0
 42
0.2
  3

  4

1001
ACAD
1000
txt
1071
        0
  0
STYLE
  5
50
330
3
100
AcDbSymbolTableRecord
100
AcDbTextStyleTableRecord
  2
STYLE1
 70
     0
 40
0.0
 41
1.0
 50
0.0
 71
     0
 42
0.2
  3

  4

1001
ACAD
1000
Arial Black
1071
        0
  0
ENDTAB
  0
TABLE
  2
VIEW
  5
6
330
0
100
AcDbSymbolTable
 70
     0
  0
ENDTAB
  0
TABLE
  2
UCS
  5
7
330
0
100
AcDbSymbolTable
 70
     0
  0
ENDTAB
  0
TABLE
  2
APPID
  5
9
330
0
100
AcDbSymbolTable
 70
     1
  0
APPID
  5
12
330
9
100
AcDbSymbolTableRecord
100
AcDbRegAppTableRecord
  2
ACAD
 70
     0
  0
ENDTAB
  0
TABLE
  2
DIMSTYLE
  5
A
330
0
100
AcDbSymbolTable
 70
    14
  0
DIMSTYLE
105
27
330
A
100
AcDbSymbolTableRecord
100
AcDbDimStyleTableRecord
  2
STANDARD
 70
     0
  3
<>
  4

  5

  6

  7

 40
1.0
 41
0.18
 42
0.047846
 43
0.38
 44
0.137795
 45
0.0
 46
0.0
 47
0.0
 48
0.0
140
0.137795
141
0.09
142
0.0
143
25.4
144
1.0
145
0.0
146
1.0
147
0.137795
 71
     0
 72
     0
 73
     1
 74
     1
 75
     0
 76
     0
 77
     0
 78
     0
170
     0
171
     2
172
     0
173
     0
174
     0
175
     0
176
     0
177
     0
178
     2
270
     2
271
     4
272
     4
273
     2
274
     2
340
11
275
     0
280
     0
281
     0
282
     0
283
     1
284
     0
285
     0
286
     0
287
     3
288
     0
  0
DIMSTYLE
105
51
330
A
100
AcDbSymbolTableRecord
100
AcDbDimStyleTableRecord
  2
DEFAULT
 70
     0
  3
<>
  4

  5
CLOSED
  6

  7

 40
1.0
 41
0.172244
 42
0.041339
 43
0.38
 44
0.082677
 45
0.0
 46
0.0
 47
0.0
 48
0.0
140
0.137795
141
0.09
142
0.0
143
25.4
144
1.0
145
0.0
146
0.4
147
0.068898
 71
     0
 72
     0
 73
     0
 74
     0
 75
     0
 76
     0
 77
     1
 78
     8
170
     0
171
     2
172
     0
173
     0
174
     0
175
     0
176
     0
177
     0
178
     2
270
     2
271
     2
272
     3
273
     2
274
     2
340
41
275
     0
280
     0
281
     0
282
     0
283
     1
284
     8
285
     0
286
     0
287
     3
288
     0
  0
DIMSTYLE
105
59
330
A
100
AcDbSymbolTableRecord
100
AcDbDimStyleTableRecord
  2
DEFAULTDIMENSIONSTYLE
 70
     0
  3
<>
  4

  5

  6

  7

 40
1.0
 41
2.5
 42
2.0
 43
0.38
 44
1.25
 45
0.0
 46
0.0
 47
0.0
 48
0.0
140
1.8
141
0.09
142
0.0
143
25.4
144
1.0
145
0.0
146
1.0
147
1.25
 71
     0
 72
     0
 73
     0
 74
     0
 75
     0
 76
     0
 77
     1
 78
     8
170
     0
171
     2
172
     0
173
     0
174
     0
175
     0
176
     0
177
     0
178
     2
270
     2
271
     2
272
     2
273
     2
274
     2
340
42
275
     0
280
     0
281
     0
282
     0
283
     1
284
     8
285
     0
286
     0
287
     3
288
     0
  0
DIMSTYLE
105
5A
102
{ACAD_REACTORS
330
407
330
414
330
421
330
42E
330
43B
330
448
330
455
102
}
330
A
100
AcDbSymbolTableRecord
100
AcDbDimStyleTableRecord
  2
FINDER
 70
     0
  3
<>
  4

  5

  6

  7

 40
1.0
 41
2.5
 42
2.0
 43
0.38
 44
1.25
 45
0.0
 46
0.0
 47
0.0
 48
0.0
140
1.8
141
0.09
142
0.0
143
25.4
144
1.0
145
0.0
146
1.0
147
1.25
 71
     0
 72
     0
 73
     0
 74
     0
 75
     0
 76
     0
 77
     1
 78
     8
170
     0
171
     2
172
     0
173
     0
174
     0
175
     0
176
     0
177
     0
178
     2
270
     2
271
     2
272
     2
273
     2
274
     2
340
42
275
     0
280
     0
281
     0
282
     0
283
     1
284
     8
285
     0
286
     0
287
     3
288
     0
  0
DIMSTYLE
105
5B
330
A
100
AcDbSymbolTableRecord
100
AcDbDimStyleTableRecord
  2
FINDER1
 70
     0
  3
<>
  4

  5
DOT
  6

  7

 40
1.0
 41
2.5
 42
2.0
 43
0.38
 44
1.25
 45
0.0
 46
0.0
 47
0.0
 48
0.0
140
1.8
141
0.09
142
0.0
143
25.4
144
1.0
145
0.0
146
1.0
147
1.25
 71
     0
 72
     0
 73
     0
 74
     0
 75
     0
 76
     0
 77
     1
 78
     8
170
     0
171
     2
172
     0
173
     0
174
     0
175
     0
176
     0
177
     0
178
     2
270
     2
271
     2
272
     2
273
     2
274
     2
340
42
275
     0
280
     0
281
     0
282
     0
283
     1
284
     8
285
     0
286
     0
287
     3
288
     0
  0
DIMSTYLE
105
64
330
A
100
AcDbSymbolTableRecord
100
AcDbDimStyleTableRecord
  2
DSTYLE1
 70
     0
  3
<>
  4

  5

  6

  7

 40
1.0
 41
2.5
 42
1.111
 43
0.38
 44
0.833
 45
0.0
 46
0.0
 47
0.0
 48
0.0
140
2.5
141
0.09
142
0.0
143
25.4
144
1.0
145
0.0
146
0.6
147
0.875
 71
     0
 72
     0
 73
     0
 74
     0
 75
     0
 76
     0
 77
     1
 78
     8
170
     0
171
     2
172
     0
173
     0
174
     0
175
     0
176
     0
177
     0
178
     2
270
     2
271
     2
272
     4
273
     2
274
     2
340
47
275
     0
280
     0
281
     0
282
     0
283
     1
284
     0
285
     0
286
     0
287
     3
288
     0
  0
DIMSTYLE
105
65
330
A
100
AcDbSymbolTableRecord
100
AcDbDimStyleTableRecord
  2
DSTYLE2
 70
     0
  3
<>
  4

  5

  6

  7

 40
1.0
 41
2.5
 42
1.111
 43
0.38
 44
0.833
 45
0.0
 46
0.0
 47
0.0
 48
0.0
140
2.5
141
0.09
142
0.0
143
25.4
144
1.0
145
0.0
146
0.6
147
0.875
 71
     0
 72
     0
 73
     0
 74
     0
 75
     0
 76
     0
 77
     1
 78
     8
170
     0
171
     2
172
     0
173
     0
174
     0
175
     0
176
     0
177
     0
178
     2
270
     2
271
     2
272
     4
273
     2
274
     2
340
47
275
     0
280
     0
281
     0
282
     0
283
     1
284
     0
285
     0
286
     0
287
     3
288
     0
  0
DIMSTYLE
105
66
330
A
100
AcDbSymbolTableRecord
100
AcDbDimStyleTableRecord
  2
DSTYLE3
 70
     0
  3
<>
  4

  5

  6

  7

 40
1.0
 41
2.5
 42
16.265
 43
0.38
 44
0.833
 45
0.0
 46
0.0
 47
0.0
 48
0.0
140
2.5
141
0.09
142
0.0
143
25.4
144
1.0
145
0.0
146
0.6
147
0.875
 71
     0
 72
     0
 73
     0
 74
     0
 75
     0
 76
     0
 77
     1
 78
     8
170
     0
171
     2
172
     0
173
     0
174
     0
175
     0
176
     0
177
     0
178
     2
270
     2
271
     2
272
     4
273
     2
274
     2
340
47
275
     0
280
     0
281
     0
282
     0
283
     1
284
     0
285
     0
286
     0
287
     3
288
     0
  0
DIMSTYLE
105
67
330
A
100
AcDbSymbolTableRecord
100
AcDbDimStyleTableRecord
  2
DSTYLE4
 70
     0
  3
<>
  4

  5

  6

  7

 40
1.0
 41
2.5
 42
16.304
 43
0.38
 44
0.833
 45
0.0
 46
0.0
 47
0.0
 48
0.0
140
2.5
141
0.09
142
0.0
143
25.4
144
1.0
145
0.0
146
0.6
147
0.875
 71
     0
 72
     0
 73
     0
 74
     0
 75
     0
 76
     0
 77
     1
 78
     8
170
     0
171
     2
172
     0
173
     0
174
     0
175
     0
176
     0
177
     0
178
     2
270
     2
271
     2
272
     4
273
     2
274
     2
340
47
275
     0
280
     0
281
     0
282
     0
283
     1
284
     0
285
     0
286
     0
287
     3
288
     0
  0
DIMSTYLE
105
68
330
A
100
AcDbSymbolTableRecord
100
AcDbDimStyleTableRecord
  2
ISO-25
 70
     0
  3
<>
  4

  5

  6

  7

 40
1.0
 41
2.5
 42
2.0
 43
0.38
 44
1.25
 45
0.0
 46
0.0
 47
0.0
 48
0.0
140
1.8
141
0.09
142
0.0
143
25.4
144
1.0
145
0.0
146
1.0
147
1.25
 71
     0
 72
     0
 73
     0
 74
     0
 75
     0
 76
     0
 77
     1
 78
     8
170
     0
171
     2
172
     0
173
     0
174
     0
175
     0
176
     0
177
     0
178
     2
270
     2
271
     2
272
     2
273
     2
274
     2
340
42
275
     0
280
     0
281
     0
282
     0
283
     1
284
     8
285
     0
286
     0
287
     3
288
     0
  0
DIMSTYLE
105
69
330
A
100
AcDbSymbolTableRecord
100
AcDbDimStyleTableRecord
  2
ISO_FINDER
 70
     0
  3
<>
  4

  5
CLOSED
  6

  7

 40
1.0
 41
1.0
 42
0.041339
 43
0.38
 44
0.068898
 45
0.0
 46
0.0
 47
0.0
 48
0.0
140
0.137795
141
0.09
142
0.0
143
25.4
144
1.0
145
0.0
146
0.6
147
0.137795
 71
     0
 72
     0
 73
     0
 74
     0
 75
     0
 76
     0
 77
     1
 78
     8
170
     0
171
     2
172
     0
173
     0
174
     0
175
     0
176
     0
177
     0
178
     2
270
     2
271
     2
272
     3
273
     2
274
     2
340
48
275
     0
280
     0
281
     0
282
     0
283
     1
284
     8
285
     0
286
     0
287
     3
288
     0
  0
DIMSTYLE
105
6A
330
A
100
AcDbSymbolTableRecord
100
AcDbDimStyleTableRecord
  2
DSTYLE5
 70
     0
  3
<>
  4

  5

  6

  7

 40
1.0
 41
1.35
 42
0.000006
 43
0.38
 44
0.045932
 45
0.0
 46
0.0
 47
0.0
 48
0.0
140
0.137795
141
0.09
142
0.0
143
25.4
144
1.0
145
0.0
146
0.6
147
0.096457
 71
     0
 72
     0
 73
     0
 74
     0
 75
     0
 76
     0
 77
     1
 78
     8
170
     0
171
     2
172
     0
173
     0
174
     0
175
     0
176
     0
177
     0
178
     2
270
     2
271
     2
272
     4
273
     2
274
     2
340
4A
275
     0
280
     0
281
     0
282
     0
283
     1
284
     0
285
     0
286
     0
287
     3
288
     0
  0
DIMSTYLE
105
6B
330
A
100
AcDbSymbolTableRecord
100
AcDbDimStyleTableRecord
  2
ST0
 70
     0
  3
<>
  4

  5

  6

  7

 40
1.0
 41
1.4
 42
0.024114
 43
0.38
 44
0.024114
 45
0.0
 46
0.0
 47
0.0
 48
0.0
140
0.137795
141
0.09
142
0.0
143
25.4
144
1.0
145
0.0
146
0.5
147
0.057415
 71
     0
 72
     0
 73
     0
 74
     0
 75
     0
 76
     0
 77
     1
 78
     8
170
     0
171
     2
172
     0
173
     0
174
     0
175
     0
176
     0
177
     0
178
     2
270
     2
271
     1
272
     2
273
     2
274
     2
340
4C
275
     0
280
     0
281
     0
282
     0
283
     1
284
     0
285
     0
286
     0
287
     3
288
     0
  0
DIMSTYLE
105
6C
330
A
100
AcDbSymbolTableRecord
100
AcDbDimStyleTableRecord
  2
PUNTI
 70
     0
  3
<>
  4

  5
DOT
  6

  7

 40
1.0
 41
1.05
 42
0.024114
 43
0.38
 44
0.012057
 45
0.0
 46
0.0
 47
0.0
 48
0.0
140
0.137795
141
0.09
142
0.0
143
25.4
144
1.0
145
0.0
146
0.5
147
0.03376
 71
     0
 72
     0
 73
     0
 74
     0
 75
     0
 76
     0
 77
     1
 78
     8
170
     0
171
     2
172
     0
173
     0
174
     0
175
     0
176
     0
177
     0
178
     2
270
     2
271
     4
272
     4
273
     2
274
     2
340
4C
275
     0
280
     0
281
     0
282
     0
283
     1
284
     0
285
     0
286
     0
287
     3
288
     0
  0
ENDTAB
  0
TABLE
  2
BLOCK_RECORD
  5
1
330
0
100
AcDbSymbolTable
 70
    11
  0
BLOCK_RECORD
  5
1F
330
1
100
AcDbSymbolTableRecord
100
AcDbBlockTableRecord
  2
*MODEL_SPACE
  0
BLOCK_RECORD
  5
1B
330
1
100
AcDbSymbolTableRecord
100
AcDbBlockTableRecord
  2
*PAPER_SPACE
  0
BLOCK_RECORD
  5
52
330
1
100
AcDbSymbolTableRecord
100
AcDbBlockTableRecord
  2
_CLOSED
  0
BLOCK_RECORD
  5
5C
330
1
100
AcDbSymbolTableRecord
100
AcDbBlockTableRecord
  2
_DOT
  0
BLOCK_RECORD
  5
6D
330
1
100
AcDbSymbolTableRecord
100
AcDbBlockTableRecord
  2
LW_POLYLINE_15
  0
BLOCK_RECORD
  5
408
330
1
100
AcDbSymbolTableRecord
100
AcDbBlockTableRecord
  2
*D4
  0
BLOCK_RECORD
  5
415
330
1
100
AcDbSymbolTableRecord
100
AcDbBlockTableRecord
  2
*D5
  0
BLOCK_RECORD
  5
422
330
1
100
AcDbSymbolTableRecord
100
AcDbBlockTableRecord
  2
*D6
  0
BLOCK_RECORD
  5
42F
330
1
100
AcDbSymbolTableRecord
100
AcDbBlockTableRecord
  2
*D7
  0
BLOCK_RECORD
  5
43C
330
1
100
AcDbSymbolTableRecord
100
AcDbBlockTableRecord
  2
*D8
  0
BLOCK_RECORD
  5
449
330
1
100
AcDbSymbolTableRecord
100
AcDbBlockTableRecord
  2
*D9
  0
BLOCK_RECORD
  5
456
330
1
100
AcDbSymbolTableRecord
100
AcDbBlockTableRecord
  2
*D10
  0
ENDTAB
  0
ENDSEC
  0
SECTION
  2
BLOCKS
  0
BLOCK
  5
20
330
1F
100
AcDbEntity
  8
0
100
AcDbBlockBegin
  2
*MODEL_SPACE
 70
     0
 71
     0
 10
0.0
 20
0.0
 30
0.0
  3
*MODEL_SPACE
  1

  0
ENDBLK
  5
21
330
1F
100
AcDbEntity
  8
0
100
AcDbBlockEnd
  0
BLOCK
  5
1C
330
1B
100
AcDbEntity
 67
     1
  8
0
100
AcDbBlockBegin
  2
*PAPER_SPACE
 70
     0
 71
     0
 10
0.0
 20
0.0
 30
0.0
  3
*PAPER_SPACE
  1

  0
ENDBLK
  5
1D
330
1B
100
AcDbEntity
 67
     1
  8
0
100
AcDbBlockEnd
  0
BLOCK
  5
53
330
52
100
AcDbEntity
  8
0
100
AcDbBlockBegin
  2
_CLOSED
 70
     0
 71
     0
 10
0.0
 20
0.0
 30
0.0
  3
_CLOSED
  1

  0
LINE
  5
55
330
52
100
AcDbEntity
  8
0
  6
BYBLOCK
 62
     0
100
AcDbLine
 10
-1.0
 20
0.166667
 30
0.0
 11
0.0
 21
0.0
 31
0.0
  0
LINE
  5
56
330
52
100
AcDbEntity
  8
0
  6
BYBLOCK
 62
     0
100
AcDbLine
 10
0.0
 20
0.0
 30
0.0
 11
-1.0
 21
-0.166667
 31
0.0
  0
LINE
  5
57
330
52
100
AcDbEntity
  8
0
  6
BYBLOCK
 62
     0
100
AcDbLine
 10
-1.0
 20
0.166667
 30
0.0
 11
-1.0
 21
-0.166667
 31
0.0
  0
LINE
  5
58
330
52
100
AcDbEntity
  8
0
  6
BYBLOCK
 62
     0
100
AcDbLine
 10
0.0
 20
0.0
 30
0.0
 11
-1.0
 21
0.0
 31
0.0
  0
ENDBLK
  5
54
330
52
100
AcDbEntity
  8
0
100
AcDbBlockEnd
  0
BLOCK
  5
5D
330
5C
100
AcDbEntity
  8
0
100
AcDbBlockBegin
  2
_DOT
 70
     0
 71
     0
 10
0.0
 20
0.0
 30
0.0
  3
_DOT
  1

  0
POLYLINE
  5
5F
330
5C
100
AcDbEntity
  8
0
  6
BYBLOCK
 62
     0
100
AcDb2dPolyline
 66
     1
 10
0.0
 20
0.0
 30
0.0
 70
     1
 40
0.5
 41
0.5
  0
VERTEX
  5
62
330
5F
100
AcDbEntity
  8
0
  6
BYBLOCK
 62
     0
100
AcDbVertex
100
AcDb2dVertex
 10
-0.25
 20
0.0
 30
0.0
 42
1.0
  0
VERTEX
  5
63
330
5F
100
AcDbEntity
  8
0
  6
BYBLOCK
 62
     0
100
AcDbVertex
100
AcDb2dVertex
 10
0.25
 20
0.0
 30
0.0
 42
1.0
  0
SEQEND
  5
61
330
5F
100
AcDbEntity
  8
0
  6
BYBLOCK
 62
     0
  0
LINE
  5
60
330
5C
100
AcDbEntity
  8
0
  6
BYBLOCK
 62
     0
100
AcDbLine
 10
-0.5
 20
0.0
 30
0.0
 11
-1.0
 21
0.0
 31
0.0
  0
ENDBLK
  5
5E
330
5C
100
AcDbEntity
  8
0
100
AcDbBlockEnd
  0
BLOCK
  5
73
330
6D
100
AcDbEntity
  8
0
100
AcDbBlockBegin
  2
LW_POLYLINE_15
 70
     0
 71
     0
 10
1419.998759
 20
5367.506279
 30
0.0
  3
LW_POLYLINE_15
  1

  0
LINE
  5
6E
330
6D
100
AcDbEntity
  8
CARTOUCHE
  6
CONTINUOUS
 62
     0
100
AcDbLine
 10
55.905463
 20
211.319145
 30
0.0
 11
55.905463
 21
-75.680855
 31
0.0
  0
LINE
  5
6F
330
6D
100
AcDbEntity
  8
CARTOUCHE
  6
CONTINUOUS
 62
     0
100
AcDbLine
 10
55.905463
 20
-75.680855
 30
0.0
 11
-144.094574
 21
-75.681038
 31
0.0
  0
LINE
  5
70
330
6D
100
AcDbEntity
  8
CARTOUCHE
  6
CONTINUOUS
 62
     0
100
AcDbLine
 10
-144.094574
 20
-75.681038
 30
0.0
 11
-144.094574
 21
211.318962
 31
0.0
  0
LINE
  5
71
330
6D
100
AcDbEntity
  8
CARTOUCHE
  6
CONTINUOUS
 62
     0
100
AcDbLine
 10
-144.094574
 20
211.318962
 30
0.0
 11
55.9052
 21
211.319145
 31
0.0
  0
LINE
  5
72
330
6D
100
AcDbEntity
  8
CARTOUCHE
  6
CONTINUOUS
 62
     0
100
AcDbLine
 10
55.9052
 20
211.319145
 30
0.0
 11
55.905463
 21
211.319145
 31
0.0
  0
ENDBLK
  5
74
330
6D
100
AcDbEntity
  8
0
100
AcDbBlockEnd
  0
BLOCK
  5
412
330
408
100
AcDbEntity
  8
0
100
AcDbBlockBegin
  2
*D4
 70
     1
 71
     0
 10
0.0
 20
0.0
 30
0.0
  3
*D4
  1

  0
LINE
  5
409
330
408
100
AcDbEntity
  8
DIM
  6
CONTINUOUS
 62
     3
100
AcDbLine
 10
-2.394558
 20
57.879251
 30
0.0
 11
9.511313
 21
57.879251
 31
0.0
  0
LINE
  5
40A
330
408
100
AcDbEntity
  8
DIM
  6
CONTINUOUS
 62
     3
100
AcDbLine
 10
-2.394558
 20
102.879251
 30
0.0
 11
9.511313
 21
102.879251
 31
0.0
  0
LINE
  5
40B
330
408
100
AcDbEntity
  8
DIM
  6
CONTINUOUS
 62
     3
100
AcDbLine
 10
8.261313
 20
60.379251
 30
0.0
 11
8.261313
 21
100.379251
 31
0.0
  0
SOLID
  5
40C
330
408
100
AcDbEntity
  8
DIM
 62
     3
100
AcDbTrace
 10
7.844646
 20
60.379251
 30
0.0
 11
8.677979
 21
60.379251
 31
0.0
 12
8.261313
 22
57.879251
 32
0.0
 13
8.261313
 23
57.879251
 33
0.0
  0
SOLID
  5
40D
330
408
100
AcDbEntity
  8
DIM
 62
     3
100
AcDbTrace
 10
8.677979
 20
100.379251
 30
0.0
 11
7.844646
 21
100.379251
 31
0.0
 12
8.261313
 22
102.879251
 32
0.0
 13
8.261313
 23
102.879251
 33
0.0
  0
MTEXT
  5
40E
330
408
100
AcDbEntity
  8
DIM
 62
     2
100
AcDbMText
 10
6.096013
 20
80.379251
 30
0.0
 40
1.8
 41
0.0
 71
     5
 72
     1
  1
\A1;45
  7
FINDER
 11
-1.973729821555842E-17
 21
1.0
 31
0.0
  0
POINT
  5
40F
330
408
100
AcDbEntity
  8
DEFPOINTS
 62
     0
100
AcDbPoint
 10
-4.394558
 20
57.879251
 30
0.0
  0
POINT
  5
410
330
408
100
AcDbEntity
  8
DEFPOINTS
 62
     0
100
AcDbPoint
 10
-4.394558
 20
102.879251
 30
0.0
  0
POINT
  5
411
330
408
100
AcDbEntity
  8
DEFPOINTS
 62
     0
100
AcDbPoint
 10
8.261313
 20
102.879251
 30
0.0
  0
ENDBLK
  5
413
330
408
100
AcDbEntity
  8
0
100
AcDbBlockEnd
  0
BLOCK
  5
41F
330
415
100
AcDbEntity
  8
0
100
AcDbBlockBegin
  2
*D5
 70
     1
 71
     0
 10
0.0
 20
0.0
 30
0.0
  3
*D5
  1

  0
LINE
  5
416
330
415
100
AcDbEntity
  8
DIM
  6
CONTINUOUS
 62
     3
100
AcDbLine
 10
-32.494558
 20
122.379251
 30
0.0
 11
18.713522
 21
122.379251
 31
0.0
  0
LINE
  5
417
330
415
100
AcDbEntity
  8
DIM
  6
CONTINUOUS
 62
     3
100
AcDbLine
 10
-32.494558
 20
38.379251
 30
0.0
 11
18.713522
 21
38.379251
 31
0.0
  0
LINE
  5
418
330
415
100
AcDbEntity
  8
DIM
  6
CONTINUOUS
 62
     3
100
AcDbLine
 10
17.463522
 20
119.879251
 30
0.0
 11
17.463522
 21
40.879251
 31
0.0
  0
SOLID
  5
419
330
415
100
AcDbEntity
  8
DIM
 62
     3
100
AcDbTrace
 10
17.880189
 20
119.879251
 30
0.0
 11
17.046855
 21
119.879251
 31
0.0
 12
17.463522
 22
122.379251
 32
0.0
 13
17.463522
 23
122.379251
 33
0.0
  0
SOLID
  5
41A
330
415
100
AcDbEntity
  8
DIM
 62
     3
100
AcDbTrace
 10
17.046855
 20
40.879251
 30
0.0
 11
17.880189
 21
40.879251
 31
0.0
 12
17.463522
 22
38.379251
 32
0.0
 13
17.463522
 23
38.379251
 33
0.0
  0
MTEXT
  5
41B
330
415
100
AcDbEntity
  8
DIM
 62
     2
100
AcDbMText
 10
15.294622
 20
80.379251
 30
0.0
 40
1.8
 41
0.0
 71
     5
 72
     1
  1
\A1;84
  7
FINDER
 11
0.0
 21
1.0
 31
0.0
  0
POINT
  5
41C
330
415
100
AcDbEntity
  8
DEFPOINTS
 62
     0
100
AcDbPoint
 10
-34.494558
 20
122.379251
 30
0.0
  0
POINT
  5
41D
330
415
100
AcDbEntity
  8
DEFPOINTS
 62
     0
100
AcDbPoint
 10
-34.494558
 20
38.379251
 30
0.0
  0
POINT
  5
41E
330
415
100
AcDbEntity
  8
DEFPOINTS
 62
     0
100
AcDbPoint
 10
17.463522
 20
38.379251
 30
0.0
  0
ENDBLK
  5
420
330
415
100
AcDbEntity
  8
0
100
AcDbBlockEnd
  0
BLOCK
  5
42C
330
422
100
AcDbEntity
  8
0
100
AcDbBlockBegin
  2
*D6
 70
     1
 71
     0
 10
0.0
 20
0.0
 30
0.0
  3
*D6
  1

  0
LINE
  5
423
330
422
100
AcDbEntity
  8
DIM
  6
CONTINUOUS
 62
     3
100
AcDbLine
 10
-66.194558
 20
98.379249
 30
0.0
 11
-72.919903
 21
98.379249
 31
0.0
  0
LINE
  5
424
330
422
100
AcDbEntity
  8
DIM
  6
CONTINUOUS
 62
     3
100
AcDbLine
 10
-63.294557
 20
63.579252
 30
0.0
 11
-72.919903
 21
63.579252
 31
0.0
  0
LINE
  5
425
330
422
100
AcDbEntity
  8
DIM
  6
CONTINUOUS
 62
     3
100
AcDbLine
 10
-71.669903
 20
95.879249
 30
0.0
 11
-71.669903
 21
66.079252
 31
0.0
  0
SOLID
  5
426
330
422
100
AcDbEntity
  8
DIM
 62
     3
100
AcDbTrace
 10
-71.253236
 20
95.879249
 30
0.0
 11
-72.086569
 21
95.879249
 31
0.0
 12
-71.669903
 22
98.379249
 32
0.0
 13
-71.669903
 23
98.379249
 33
0.0
  0
SOLID
  5
427
330
422
100
AcDbEntity
  8
DIM
 62
     3
100
AcDbTrace
 10
-72.086569
 20
66.079252
 30
0.0
 11
-71.253236
 21
66.079252
 31
0.0
 12
-71.669903
 22
63.579252
 32
0.0
 13
-71.669903
 23
63.579252
 33
0.0
  0
MTEXT
  5
428
330
422
100
AcDbEntity
  8
DIM
 62
     2
100
AcDbMText
 10
-73.838803
 20
80.97925
 30
0.0
 40
1.8
 41
0.0
 71
     5
 72
     1
  1
\A1;34.8
  7
FINDER
 11
0.0
 21
1.0
 31
0.0
  0
POINT
  5
429
330
422
100
AcDbEntity
  8
DEFPOINTS
 62
     0
100
AcDbPoint
 10
-64.194558
 20
98.379249
 30
0.0
  0
POINT
  5
42A
330
422
100
AcDbEntity
  8
DEFPOINTS
 62
     0
100
AcDbPoint
 10
-61.294557
 20
63.579252
 30
0.0
  0
POINT
  5
42B
330
422
100
AcDbEntity
  8
DEFPOINTS
 62
     0
100
AcDbPoint
 10
-71.669903
 20
63.579252
 30
0.0
  0
ENDBLK
  5
42D
330
422
100
AcDbEntity
  8
0
100
AcDbBlockEnd
  0
BLOCK
  5
439
330
42F
100
AcDbEntity
  8
0
100
AcDbBlockBegin
  2
*D7
 70
     1
 71
     0
 10
0.0
 20
0.0
 30
0.0
  3
*D7
  1

  0
LINE
  5
430
330
42F
100
AcDbEntity
  8
DIM
  6
CONTINUOUS
 62
     3
100
AcDbLine
 10
-100.945673
 20
122.379251
 30
0.0
 11
-108.015665
 21
122.379251
 31
0.0
  0
LINE
  5
431
330
42F
100
AcDbEntity
  8
DIM
  6
CONTINUOUS
 62
     3
100
AcDbLine
 10
-97.695672
 20
34.879255
 30
0.0
 11
-108.015665
 21
34.879255
 31
0.0
  0
LINE
  5
432
330
42F
100
AcDbEntity
  8
DIM
  6
CONTINUOUS
 62
     3
100
AcDbLine
 10
-106.765665
 20
119.879251
 30
0.0
 11
-106.765665
 21
37.379255
 31
0.0
  0
SOLID
  5
433
330
42F
100
AcDbEntity
  8
DIM
 62
     3
100
AcDbTrace
 10
-106.348999
 20
119.879251
 30
0.0
 11
-107.182332
 21
119.879251
 31
0.0
 12
-106.765665
 22
122.379251
 32
0.0
 13
-106.765665
 23
122.379251
 33
0.0
  0
SOLID
  5
434
330
42F
100
AcDbEntity
  8
DIM
 62
     3
100
AcDbTrace
 10
-107.182332
 20
37.379255
 30
0.0
 11
-106.348999
 21
37.379255
 31
0.0
 12
-106.765665
 22
34.879255
 32
0.0
 13
-106.765665
 23
34.879255
 33
0.0
  0
MTEXT
  5
435
330
42F
100
AcDbEntity
  8
DIM
 62
     2
100
AcDbMText
 10
-108.934565
 20
78.629253
 30
0.0
 40
1.8
 41
0.0
 71
     5
 72
     1
  1
\A1;87.5
  7
FINDER
 11
0.0
 21
1.0
 31
0.0
  0
POINT
  5
436
330
42F
100
AcDbEntity
  8
DEFPOINTS
 62
     0
100
AcDbPoint
 10
-98.945673
 20
122.379251
 30
0.0
  0
POINT
  5
437
330
42F
100
AcDbEntity
  8
DEFPOINTS
 62
     0
100
AcDbPoint
 10
-95.695672
 20
34.879255
 30
0.0
  0
POINT
  5
438
330
42F
100
AcDbEntity
  8
DEFPOINTS
 62
     0
100
AcDbPoint
 10
-106.765665
 20
34.879255
 30
0.0
  0
ENDBLK
  5
43A
330
42F
100
AcDbEntity
  8
0
100
AcDbBlockEnd
  0
BLOCK
  5
446
330
43C
100
AcDbEntity
  8
0
100
AcDbBlockBegin
  2
*D8
 70
     1
 71
     0
 10
0.0
 20
0.0
 30
0.0
  3
*D8
  1

  0
LINE
  5
43D
330
43C
100
AcDbEntity
  8
DIM
  6
CONTINUOUS
 62
     3
100
AcDbLine
 10
-63.294557
 20
63.579252
 30
0.0
 11
-72.919903
 21
63.579252
 31
0.0
  0
LINE
  5
43E
330
43C
100
AcDbEntity
  8
DIM
  6
CONTINUOUS
 62
     3
100
AcDbLine
 10
-65.694558
 20
34.879255
 30
0.0
 11
-72.919903
 21
34.879255
 31
0.0
  0
LINE
  5
43F
330
43C
100
AcDbEntity
  8
DIM
  6
CONTINUOUS
 62
     3
100
AcDbLine
 10
-71.669903
 20
61.079252
 30
0.0
 11
-71.669903
 21
37.379255
 31
0.0
  0
SOLID
  5
440
330
43C
100
AcDbEntity
  8
DIM
 62
     3
100
AcDbTrace
 10
-71.253236
 20
61.079252
 30
0.0
 11
-72.086569
 21
61.079252
 31
0.0
 12
-71.669903
 22
63.579252
 32
0.0
 13
-71.669903
 23
63.579252
 33
0.0
  0
SOLID
  5
441
330
43C
100
AcDbEntity
  8
DIM
 62
     3
100
AcDbTrace
 10
-72.086569
 20
37.379255
 30
0.0
 11
-71.253236
 21
37.379255
 31
0.0
 12
-71.669903
 22
34.879255
 32
0.0
 13
-71.669903
 23
34.879255
 33
0.0
  0
MTEXT
  5
442
330
43C
100
AcDbEntity
  8
DIM
 62
     2
100
AcDbMText
 10
-73.838803
 20
49.229253
 30
0.0
 40
1.8
 41
0.0
 71
     5
 72
     1
  1
\A1;28.7
  7
FINDER
 11
0.0
 21
1.0
 31
0.0
  0
POINT
  5
443
330
43C
100
AcDbEntity
  8
DEFPOINTS
 62
     0
100
AcDbPoint
 10
-61.294557
 20
63.579252
 30
0.0
  0
POINT
  5
444
330
43C
100
AcDbEntity
  8
DEFPOINTS
 62
     0
100
AcDbPoint
 10
-63.694558
 20
34.879255
 30
0.0
  0
POINT
  5
445
330
43C
100
AcDbEntity
  8
DEFPOINTS
 62
     0
100
AcDbPoint
 10
-71.669903
 20
34.879255
 30
0.0
  0
ENDBLK
  5
447
330
43C
100
AcDbEntity
  8
0
100
AcDbBlockEnd
  0
BLOCK
  5
453
330
449
100
AcDbEntity
  8
0
100
AcDbBlockBegin
  2
*D9
 70
     1
 71
     0
 10
0.0
 20
0.0
 30
0.0
  3
*D9
  1

  0
LINE
  5
44A
330
449
100
AcDbEntity
  8
DIM
  6
CONTINUOUS
 62
     3
100
AcDbLine
 10
-99.045674
 20
122.379248
 30
0.0
 11
-99.045676
 21
129.708818
 31
0.0
  0
LINE
  5
44B
330
449
100
AcDbEntity
  8
DIM
  6
CONTINUOUS
 62
     3
100
AcDbLine
 10
-87.845674
 20
122.379251
 30
0.0
 11
-87.845676
 21
129.708821
 31
0.0
  0
LINE
  5
44C
330
449
100
AcDbEntity
  8
DIM
  6
CONTINUOUS
 62
     3
100
AcDbLine
 10
-96.545675
 20
128.458819
 30
0.0
 11
-90.345675
 21
128.458821
 31
0.0
  0
SOLID
  5
44D
330
449
100
AcDbEntity
  8
DIM
 62
     3
100
AcDbTrace
 10
-96.545675
 20
128.875486
 30
0.0
 11
-96.545675
 21
128.042152
 31
0.0
 12
-99.045675
 22
128.458818
 32
0.0
 13
-99.045675
 23
128.458818
 33
0.0
  0
SOLID
  5
44E
330
449
100
AcDbEntity
  8
DIM
 62
     3
100
AcDbTrace
 10
-90.345675
 20
128.042154
 30
0.0
 11
-90.345675
 21
128.875487
 31
0.0
 12
-87.845675
 22
128.458821
 32
0.0
 13
-87.845675
 23
128.458821
 33
0.0
  0
MTEXT
  5
44F
330
449
100
AcDbEntity
  8
DIM
 62
     2
100
AcDbMText
 10
-93.445676
 20
130.61242
 30
0.0
 40
1.8
 41
0.0
 71
     5
 72
     1
  1
\A1;11.2
  7
FINDER
 11
0.9999999999999643
 21
2.678571421808586E-7
 31
0.0
  0
POINT
  5
450
330
449
100
AcDbEntity
  8
DEFPOINTS
 62
     0
100
AcDbPoint
 10
-99.045673
 20
120.379248
 30
0.0
  0
POINT
  5
451
330
449
100
AcDbEntity
  8
DEFPOINTS
 62
     0
100
AcDbPoint
 10
-87.845673
 20
120.379251
 30
0.0
  0
POINT
  5
452
330
449
100
AcDbEntity
  8
DEFPOINTS
 62
     0
100
AcDbPoint
 10
-87.845675
 20
128.458821
 30
0.0
  0
ENDBLK
  5
454
330
449
100
AcDbEntity
  8
0
100
AcDbBlockEnd
  0
BLOCK
  5
460
330
456
100
AcDbEntity
  8
0
100
AcDbBlockBegin
  2
*D10
 70
     1
 71
     0
 10
0.0
 20
0.0
 30
0.0
  3
*D10
  1

  0
LINE
  5
457
330
456
100
AcDbEntity
  8
DIM
  6
CONTINUOUS
 62
     3
100
AcDbLine
 10
-64.194558
 20
112.379224
 30
0.0
 11
-64.194558
 21
129.708819
 31
0.0
  0
LINE
  5
458
330
456
100
AcDbEntity
  8
DIM
  6
CONTINUOUS
 62
     3
100
AcDbLine
 10
-16.394571
 20
112.49037
 30
0.0
 11
-16.394571
 21
129.708819
 31
0.0
  0
LINE
  5
459
330
456
100
AcDbEntity
  8
DIM
  6
CONTINUOUS
 62
     3
100
AcDbLine
 10
-61.694558
 20
128.458819
 30
0.0
 11
-18.894571
 21
128.458819
 31
0.0
  0
SOLID
  5
45A
330
456
100
AcDbEntity
  8
DIM
 62
     3
100
AcDbTrace
 10
-61.694558
 20
128.875486
 30
0.0
 11
-61.694558
 21
128.042152
 31
0.0
 12
-64.194558
 22
128.458819
 32
0.0
 13
-64.194558
 23
128.458819
 33
0.0
  0
SOLID
  5
45B
330
456
100
AcDbEntity
  8
DIM
 62
     3
100
AcDbTrace
 10
-18.894571
 20
128.042152
 30
0.0
 11
-18.894571
 21
128.875486
 31
0.0
 12
-16.394571
 22
128.458819
 32
0.0
 13
-16.394571
 23
128.458819
 33
0.0
  0
MTEXT
  5
45C
330
456
100
AcDbEntity
  8
DIM
 62
     2
100
AcDbMText
 10
-40.294565
 20
130.627719
 30
0.0
 40
1.8
 41
0.0
 71
     5
 72
     1
  1
\A1;47.8
  7
FINDER
  0
POINT
  5
45D
330
456
100
AcDbEntity
  8
DEFPOINTS
 62
     0
100
AcDbPoint
 10
-64.194558
 20
110.379224
 30
0.0
  0
POINT
  5
45E
330
456
100
AcDbEntity
  8
DEFPOINTS
 62
     0
100
AcDbPoint
 10
-16.394571
 20
110.49037
 30
0.0
  0
POINT
  5
45F
330
456
100
AcDbEntity
  8
DEFPOINTS
 62
     0
100
AcDbPoint
 10
-16.394571
 20
128.458819
 30
0.0
  0
ENDBLK
  5
461
330
456
100
AcDbEntity
  8
0
100
AcDbBlockEnd
  0
ENDSEC
  0
SECTION
  2
ENTITIES
  0
INSERT
  5
75
330
1F
100
AcDbEntity
  8
CARTOUCHE
  6
CONTINUOUS
 62
     7
100
AcDbBlockReference
  2
LW_POLYLINE_15
 10
1419.998759
 20
5367.506279
 30
0.0
  0
LINE
  5
76
330
1F
100
AcDbEntity
  8
CARTOUCHE
  6
CONTINUOUS
 62
     7
100
AcDbLine
 10
55.905463
 20
-43.835882
 30
0.0
 11
-144.094574
 21
-43.835576
 31
0.0
  0
LINE
  5
77
330
1F
100
AcDbEntity
  8
CARTOUCHE
  6
CONTINUOUS
 62
     7
100
AcDbLine
 10
55.905434
 20
-60.67823
 30
0.0
 11
-99.094601
 21
-60.677993
 31
0.0
  0
LINE
  5
78
330
1F
100
AcDbEntity
  8
CARTOUCHE
  6
CONTINUOUS
 62
     7
100
AcDbLine
 10
55.905463
 20
-70.680245
 30
0.0
 11
-144.094574
 21
-70.67997
 31
0.0
  0
LINE
  5
79
330
1F
100
AcDbEntity
  8
DRAW
  6
CONTINUOUS
 62
     7
100
AcDbLine
 10
-3.394558
 20
58.879251
 30
0.0
 11
-3.394558
 21
95.429251
 31
0.0
  0
LINE
  5
7A
330
1F
100
AcDbEntity
  8
DRAW
  6
CONTINUOUS
 62
     7
100
AcDbLine
 10
-5.394557
 20
95.179251
 30
0.0
 11
-5.394557
 21
59.879251
 31
0.0
  0
LINE
  5
7B
330
1F
100
AcDbEntity
  8
DRAW
  6
CONTINUOUS
 62
     7
100
AcDbLine
 10
-59.894558
 20
98.379249
 30
0.0
 11
-59.894558
 21
62.379251
 31
0.0
  0
LINE
  5
7C
330
1F
100
AcDbEntity
  8
DRAW
  6
CONTINUOUS
 62
     7
100
AcDbLine
 10
-57.894558
 20
59.879251
 30
0.0
 11
-57.894558
 21
100.879251
 31
0.0
  0
LINE
  5
7D
330
1F
100
AcDbEntity
  8
DRAW
  6
CONTINUOUS
 62
     7
100
AcDbLine
 10
-87.845674
 20
59.879252
 30
0.0
 11
-87.845674
 21
100.879253
 31
0.0
  0
LINE
  5
7E
330
1F
100
AcDbEntity
  8
DRAW
  6
CONTINUOUS
 62
     7
100
AcDbLine
 10
-99.045674
 20
100.879251
 30
0.0
 11
-99.045674
 21
59.879251
 31
0.0
  0
LINE
  5
7F
330
1F
100
AcDbEntity
  8
DRAW
  6
CONTINUOUS
 62
     7
100
AcDbLine
 10
-88.945674
 20
59.079252
 30
0.0
 11
-88.945674
 21
93.57925
 31
0.0
  0
LINE
  5
80
330
1F
100
AcDbEntity
  8
DRAW
  6
CONTINUOUS
 62
     7
100
AcDbLine
 10
-97.945674
 20
93.57925
 30
0.0
 11
-97.945674
 21
59.079252
 31
0.0
  0
HATCH
  5
81
330
1F
100
AcDbEntity
  8
DRAW-TEXT
  6
CONTINUOUS
 62
     1
100
AcDbHatch
 10
0.0
 20
0.0
 30
0.0
210
0.0
220
0.0
230
1.0
  2
ANSI_31
 70
     0
 71
     0
 91
        4
 92
        1
 93
        3
 72
     1
 10
-138.6297510330064
 20
-53.28153217627695
 11
-138.6297510330064
 21
-56.25229417627696
 72
     1
 10
-138.6297510330064
 20
-56.25229417627696
 11
-140.9197980330064
 21
-56.25229417627696
 72
     2
 10
-137.1949230330063
 20
-56.75562117627707
 40
3.75872700000016
 50
187.6955481858993
 51
247.5589807620779
 73
     0
 97
        0
 92
        0
 93
        6
 72
     1
 10
-137.6807010330064
 20
-53.02841717627695
 11
-137.6807010330064
 21
-56.91452417627695
 72
     2
 10
-138.1436200330064
 20
-56.82954517627697
 40
0.4706069999999741
 50
10.40206637069316
 51
69.41820895943854
 73
     0
 72
     1
 10
-137.9781510330064
 20
-57.27019417627696
 11
-138.2067510330064
 21
-57.27019417627696
 72
     1
 10
-138.2067510330064
 20
-57.27019417627696
 11
-136.7316510330064
 21
-58.87084417627696
 72
     1
 10
-136.7316510330064
 20
-58.87084417627696
 11
-136.7316510330064
 21
-53.02555317627696
 72
     2
 10
-137.1949230330065
 20
-56.75562117627622
 40
3.758726999999282
 50
82.92017098471516
 51
97.4256861882654
 73
     1
 97
        0
 92
        0
 93
       40
 72
     1
 10
-134.7409180330064
 20
-55.17769417627695
 11
-135.7713510330064
 21
-55.17769417627695
 72
     1
 10
-135.7713510330064
 20
-55.17769417627695
 11
-135.7713510330064
 21
-53.27690417627695
 72
     2
 10
-137.1949230330064
 20
-56.75562117627695
 40
3.758726999999999
 50
292.2555505518878
 51
532.1314361600666
 73
     0
 72
     1
 10
-140.9182610330064
 20
-57.27019417627696
 11
-139.7160510330064
 21
-57.27019417627696
 72
     1
 10
-139.7160510330064
 20
-57.27019417627696
 11
-136.9208750330064
 21
-60.01271017627698
 72
     1
 10
-136.9208750330064
 20
-60.01271017627698
 11
-136.8659570330064
 21
-60.04818517627697
 72
     1
 10
-136.8659570330064
 20
-60.04818517627697
 11
-136.8085610330064
 21
-60.07967517627696
 72
     1
 10
-136.8085610330064
 20
-60.07967517627696
 11
-136.7285760330064
 21
-60.11513717627695
 72
     1
 10
-136.7285760330064
 20
-60.11513717627695
 11
-136.6875670330064
 21
-60.12980917627695
 72
     1
 10
-136.6875670330064
 20
-60.12980917627695
 11
-136.6458380330064
 21
-60.14224117627696
 72
     1
 10
-136.6458380330064
 20
-60.14224117627696
 11
-136.6035210330064
 21
-60.15213117627695
 72
     1
 10
-136.6035210330064
 20
-60.15213117627695
 11
-136.5607450330064
 21
-60.15917817627695
 72
     1
 10
-136.5607450330064
 20
-60.15917817627695
 11
-136.5176400330064
 21
-60.16307817627695
 72
     1
 10
-136.5176400330064
 20
-60.16307817627695
 11
-136.4743830330064
 21
-60.16362217627695
 72
     1
 10
-136.4743830330064
 20
-60.16362217627695
 11
-136.4311180330064
 21
-60.16096817627695
 72
     1
 10
-136.4311180330064
 20
-60.16096817627695
 11
-136.3880350330064
 21
-60.15536017627696
 72
     1
 10
-136.3880350330064
 20
-60.15536017627696
 11
-136.3453250330064
 21
-60.14704417627696
 72
     1
 10
-136.3453250330064
 20
-60.14704417627696
 11
-136.3031760330064
 21
-60.13626317627696
 72
     1
 10
-136.3031760330064
 20
-60.13626317627696
 11
-136.2611740330064
 21
-60.12302817627695
 72
     1
 10
-136.2611740330064
 20
-60.12302817627695
 11
-136.2200190330064
 21
-60.10755917627696
 72
     1
 10
-136.2200190330064
 20
-60.10755917627696
 11
-136.1797870330064
 21
-60.08990917627695
 72
     1
 10
-136.1797870330064
 20
-60.08990917627695
 11
-136.1023870330064
 21
-60.04826317627697
 72
     1
 10
-136.1023870330064
 20
-60.04826317627697
 11
-136.0657030330064
 21
-60.02457117627696
 72
     1
 10
-136.0657030330064
 20
-60.02457117627696
 11
-136.0303800330064
 21
-59.99887417627695
 72
     1
 10
-136.0303800330064
 20
-59.99887417627695
 11
-135.9966540330064
 21
-59.97116417627697
 72
     1
 10
-135.9966540330064
 20
-59.97116417627697
 11
-135.9647590330064
 21
-59.941433176277
 72
     1
 10
-135.9647590330064
 20
-59.941433176277
 11
-135.9349310330064
 21
-59.90967317627696
 72
     1
 10
-135.9349310330064
 20
-59.90967317627696
 11
-135.9072620330064
 21
-59.87576017627696
 72
     1
 10
-135.9072620330064
 20
-59.87576017627696
 11
-135.8819660330064
 21
-59.83999317627695
 72
     1
 10
-135.8819660330064
 20
-59.83999317627695
 11
-135.8590940330064
 21
-59.80257217627695
 72
     1
 10
-135.8590940330064
 20
-59.80257217627695
 11
-135.8386970330064
 21
-59.76369817627695
 72
     1
 10
-135.8386970330064
 20
-59.76369817627695
 11
-135.8208240330064
 21
-59.72357017627695
 72
     1
 10
-135.8208240330064
 20
-59.72357017627695
 11
-135.8055450330064
 21
-59.68243317627698
 72
     1
 10
-135.8055450330064
 20
-59.68243317627698
 11
-135.7928970330064
 21
-59.64043617627695
 72
     1
 10
-135.7928970330064
 20
-59.64043617627695
 11
-135.7829420330064
 21
-59.59777017627696
 72
     1
 10
-135.7829420330064
 20
-59.59777017627696
 11
-135.7757390330064
 21
-59.55462617627695
 72
     1
 10
-135.7757390330064
 20
-59.55462617627695
 11
-135.7713510330064
 21
-59.51119417627696
 72
     1
 10
-135.7713510330064
 20
-59.51119417627696
 11
-135.7713510330064
 21
-56.17264417627695
 72
     1
 10
-135.7713510330064
 20
-56.17264417627695
 11
-134.6391510330064
 21
-56.17264417627695
 72
     2
 10
-134.6900350330064
 20
-55.67516917627696
 40
0.5000709999999928
 50
275.8401026338655
 51
455.8401224817064
 73
     1
 97
        0
 92
        0
 93
        1
 72
     2
 10
-137.1949280330064
 20
-56.7556161666632
 40
4.756722999999994
 50
359.9999998842003
 51
719.9999822841063
 73
     1
 97
        0
 75
     0
 76
     2
 52
0.0
 41
0.062992
 77
     0
 78
     1
 53
44.99999999988837
 43
0.0
 44
0.0
 45
-0.0055677587145937
 46
0.0055677587146154
 79
     0
 98
        0
  0
ARC
  5
82
330
1F
100
AcDbEntity
  8
DRAW-TEXT
  6
CONTINUOUS
 62
     1
100
AcDbCircle
 10
-137.194923
 20
-56.755621
 30
0.0
 40
3.758726999999998
100
AcDbArc
 50
187.868554
 51
67.744476
  0
CIRCLE
  5
83
330
1F
100
AcDbEntity
  8
DRAW-TEXT
  6
CONTINUOUS
 62
     1
100
AcDbCircle
 10
-137.194928
 20
-56.755616
 30
0.0
 40
4.756723
  0
LINE
  5
84
330
1F
100
AcDbEntity
  8
DRAW-TEXT
  6
CONTINUOUS
 62
     1
100
AcDbLine
 10
-139.716051
 20
-57.270194
 30
0.0
 11
-136.920875
 21
-60.01271
 31
0.0
  0
LINE
  5
85
330
1F
100
AcDbEntity
  8
DRAW-TEXT
  6
CONTINUOUS
 62
     1
100
AcDbLine
 10
-138.206751
 20
-57.270194
 30
0.0
 11
-137.978151
 21
-57.270194
 31
0.0
  0
LINE
  5
86
330
1F
100
AcDbEntity
  8
DRAW-TEXT
  6
CONTINUOUS
 62
     1
100
AcDbLine
 10
-136.731651
 20
-58.870844
 30
0.0
 11
-138.206751
 21
-57.270194
 31
0.0
  0
ARC
  5
87
330
1F
100
AcDbEntity
  8
DRAW-TEXT
  6
CONTINUOUS
 62
     1
100
AcDbCircle
 10
-137.194923
 20
-56.755621
 30
0.0
 40
3.758726999999998
100
AcDbArc
 50
112.441032
 51
172.30447
  0
LINE
  5
88
330
1F
100
AcDbEntity
  8
DRAW-TEXT
  6
CONTINUOUS
 62
     1
100
AcDbLine
 10
-138.629751
 20
-53.281532
 30
0.0
 11
-138.629751
 21
-56.252294
 31
0.0
  0
LINE
  5
89
330
1F
100
AcDbEntity
  8
DRAW-TEXT
  6
CONTINUOUS
 62
     1
100
AcDbLine
 10
-140.918261
 20
-57.270194
 30
0.0
 11
-139.716051
 21
-57.270194
 31
0.0
  0
LINE
  5
8A
330
1F
100
AcDbEntity
  8
DRAW-TEXT
  6
CONTINUOUS
 62
     1
100
AcDbLine
 10
-138.629751
 20
-56.252294
 30
0.0
 11
-140.919798
 21
-56.252294
 31
0.0
  0
LINE
  5
8B
330
1F
100
AcDbEntity
  8
CARTOUCHE
  6
CONTINUOUS
 62
     7
100
AcDbLine
 10
-99.094573
 20
-43.835645
 30
0.0
 11
-99.094573
 21
-75.680997
 31
0.0
  0
TEXT
  5
8C
330
1F
100
AcDbEntity
  8
DRAW-TEXT
  6
CONTINUOUS
 62
     1
100
AcDbText
 10
-129.737299
 20
-74.080061
 30
0.0
 40
1.8
  1
MOD. UT 902
 50
359.999908
 41
0.94
  7
FINDER
100
AcDbText
  0
TEXT
  5
8D
330
1F
100
AcDbEntity
  8
DRAW-TEXT
  6
CONTINUOUS
 62
     1
100
AcDbText
 10
-132.819834
 20
-66.372258
 30
0.0
 40
1.8
  1
www.findernet.com
 50
359.999908
 41
0.93
  7
FINDER
100
AcDbText
  0
HATCH
  5
8E
330
1F
100
AcDbEntity
  8
DRAW-TEXT
  6
CONTINUOUS
 62
     1
100
AcDbHatch
 10
0.0
 20
0.0
 30
0.0
210
0.0
220
0.0
230
1.0
  2
ANSI_31
 70
     0
 71
     0
 91
        2
 92
        1
 93
      122
 72
     1
 10
-110.0435010330064
 20
-58.43659417627695
 11
-109.9404510330064
 21
-58.43659417627695
 72
     1
 10
-109.9404510330064
 20
-58.43659417627695
 11
-106.8876510330064
 21
-58.42489417627696
 72
     1
 10
-106.8876510330064
 20
-58.42489417627696
 11
-106.8621960330064
 21
-58.31519117627697
 72
     1
 10
-106.8621960330064
 20
-58.31519117627697
 11
-106.8495260330064
 21
-58.23157617627695
 72
     1
 10
-106.8495260330064
 20
-58.23157617627695
 11
-106.8427000330064
 21
-58.14733517627697
 72
     1
 10
-106.8427000330064
 20
-58.14733517627697
 11
-106.8428390330064
 21
-58.03406917627695
 72
     1
 10
-106.8428390330064
 20
-58.03406917627695
 11
-106.8598640330064
 21
-57.86494217627696
 72
     1
 10
-106.8598640330064
 20
-57.86494217627696
 11
-106.8861090330064
 21
-57.72482517627695
 72
     1
 10
-106.8861090330064
 20
-57.72482517627695
 11
-106.9209950330064
 21
-57.58667017627697
 72
     1
 10
-106.9209950330064
 20
-57.58667017627697
 11
-106.9627790330064
 21
-57.45189217627695
 72
     1
 10
-106.9627790330064
 20
-57.45189217627695
 11
-107.0122320330064
 21
-57.31961717627696
 72
     1
 10
-107.0122320330064
 20
-57.31961717627696
 11
-107.0577120330064
 21
-57.21632217627695
 72
     1
 10
-107.0577120330064
 20
-57.21632217627695
 11
-107.1087130330064
 21
-57.11550317627696
 72
     1
 10
-107.1087130330064
 20
-57.11550317627696
 11
-107.1652940330064
 21
-57.01771517627696
 72
     1
 10
-107.1652940330064
 20
-57.01771517627696
 11
-107.2275130330064
 21
-56.92351117627695
 72
     1
 10
-107.2275130330064
 20
-56.92351117627695
 11
-107.2954290330064
 21
-56.83344317627695
 72
     1
 10
-107.2954290330064
 20
-56.83344317627695
 11
-107.3690500330064
 21
-56.74790817627695
 72
     1
 10
-107.3690500330064
 20
-56.74790817627695
 11
-107.4478550330064
 21
-56.66703417627697
 72
     1
 10
-107.4478550330064
 20
-56.66703417627697
 11
-107.5312650330064
 21
-56.59078317627695
 72
     1
 10
-107.5312650330064
 20
-56.59078317627695
 11
-107.7095780330064
 21
-56.45201217627694
 72
     1
 10
-107.7095780330064
 20
-56.45201217627694
 11
-107.8275880330064
 21
-56.37443317627695
 72
     1
 10
-107.8275880330064
 20
-56.37443317627695
 11
-107.9501240330064
 21
-56.30459617627696
 72
     1
 10
-107.9501240330064
 20
-56.30459617627696
 11
-108.0768550330064
 21
-56.24305217627696
 72
     1
 10
-108.0768550330064
 20
-56.24305217627696
 11
-108.2071780330064
 21
-56.18938917627696
 72
     1
 10
-108.2071780330064
 20
-56.18938917627696
 11
-108.4757020330064
 21
-56.10230417627695
 72
     1
 10
-108.4757020330064
 20
-56.10230417627695
 11
-108.7499220330064
 21
-56.03538917627696
 72
     1
 10
-108.7499220330064
 20
-56.03538917627696
 11
-109.0275690330064
 21
-55.98740817627696
 72
     1
 10
-109.0275690330064
 20
-55.98740817627696
 11
-109.3077960330064
 21
-55.95752317627695
 72
     1
 10
-109.3077960330064
 20
-55.95752317627695
 11
-109.8717190330064
 21
-55.94516417627696
 72
     1
 10
-109.8717190330064
 20
-55.94516417627696
 11
-110.4339880330064
 21
-55.98524317627695
 72
     1
 10
-110.4339880330064
 20
-55.98524317627695
 11
-110.7122740330064
 21
-56.02989917627696
 72
     1
 10
-110.7122740330064
 20
-56.02989917627696
 11
-110.9872910330064
 21
-56.09273817627695
 72
     1
 10
-110.9872910330064
 20
-56.09273817627695
 11
-111.2039810330064
 21
-56.15695817627695
 72
     1
 10
-111.2039810330064
 20
-56.15695817627695
 11
-111.3629880330064
 21
-56.21534117627696
 72
     1
 10
-111.3629880330064
 20
-56.21534117627696
 11
-111.5176640330064
 21
-56.28441317627696
 72
     1
 10
-111.5176640330064
 20
-56.28441317627696
 11
-111.6175680330064
 21
-56.33705917627695
 72
     1
 10
-111.6175680330064
 20
-56.33705917627695
 11
-111.7145070330064
 21
-56.39517517627696
 72
     1
 10
-111.7145070330064
 20
-56.39517517627696
 11
-111.8079610330064
 21
-56.45873217627695
 72
     1
 10
-111.8079610330064
 20
-56.45873217627695
 11
-111.8974090330064
 21
-56.52769817627696
 72
     1
 10
-111.8974090330064
 20
-56.52769817627696
 11
-111.9823310330064
 21
-56.60204317627696
 72
     1
 10
-111.9823310330064
 20
-56.60204317627696
 11
-112.0622540330064
 21
-56.68162417627696
 72
     1
 10
-112.0622540330064
 20
-56.68162417627696
 11
-112.1371050330064
 21
-56.76606417627696
 72
     1
 10
-112.1371050330064
 20
-56.76606417627696
 11
-112.2068510330064
 21
-56.85487417627696
 72
     1
 10
-112.2068510330064
 20
-56.85487417627696
 11
-112.2714610330064
 21
-56.94756917627695
 72
     1
 10
-112.2714610330064
 20
-56.94756917627695
 11
-112.3309050330064
 21
-57.04366317627695
 72
     1
 10
-112.3309050330064
 20
-57.04366317627695
 11
-112.4340830330064
 21
-57.24454917627695
 72
     1
 10
-112.4340830330064
 20
-57.24454917627695
 11
-112.4775130330064
 21
-57.34873917627696
 72
     1
 10
-112.4775130330064
 20
-57.34873917627696
 11
-112.5153170330064
 21
-57.45509517627695
 72
     1
 10
-112.5153170330064
 20
-57.45509517627695
 11
-112.5473520330064
 21
-57.56336417627696
 72
     1
 10
-112.5473520330064
 20
-57.56336417627696
 11
-112.5734700330064
 21
-57.67324817627696
 72
     1
 10
-112.5734700330064
 20
-57.67324817627696
 11
-112.5935230330064
 21
-57.78442517627695
 72
     1
 10
-112.5935230330064
 20
-57.78442517627695
 11
-112.6073510330064
 21
-57.89652617627695
 72
     1
 10
-112.6073510330064
 20
-57.89652617627695
 11
-112.6147960330064
 21
-58.00918217627696
 72
     1
 10
-112.6147960330064
 20
-58.00918217627696
 11
-112.6156980330064
 21
-58.12202417627694
 72
     1
 10
-112.6156980330064
 20
-58.12202417627694
 11
-112.6098160330064
 21
-58.23496617627695
 72
     1
 10
-112.6098160330064
 20
-58.23496617627695
 11
-112.5872710330064
 21
-58.40279517627696
 72
     1
 10
-112.5872710330064
 20
-58.40279517627696
 11
-112.5627320330064
 21
-58.51267517627696
 72
     1
 10
-112.5627320330064
 20
-58.51267517627696
 11
-112.5139130330064
 21
-58.67468417627695
 72
     1
 10
-112.5139130330064
 20
-58.67468417627695
 11
-112.4313980330064
 21
-58.88498717627696
 72
     1
 10
-112.4313980330064
 20
-58.88498717627696
 11
-112.3564720330064
 21
-59.03679517627697
 72
     1
 10
-112.3564720330064
 20
-59.03679517627697
 11
-112.2696980330064
 21
-59.18175317627695
 72
     1
 10
-112.2696980330064
 20
-59.18175317627695
 11
-112.1880090330064
 21
-59.29681817627695
 72
     1
 10
-112.1880090330064
 20
-59.29681817627695
 11
-112.0994990330064
 21
-59.40692417627695
 72
     1
 10
-112.0994990330064
 20
-59.40692417627695
 11
-112.0245980330064
 21
-59.49180617627695
 72
     1
 10
-112.0245980330064
 20
-59.49180617627695
 11
-111.9036680330064
 21
-59.61063017627695
 72
     1
 10
-111.9036680330064
 20
-59.61063017627695
 11
-111.8164340330064
 21
-59.68166517627696
 72
     1
 10
-111.8164340330064
 20
-59.68166517627696
 11
-111.6763670330064
 21
-59.77592317627697
 72
     1
 10
-111.6763670330064
 20
-59.77592317627697
 11
-111.5525820330064
 21
-59.84428117627696
 72
     1
 10
-111.5525820330064
 20
-59.84428117627696
 11
-111.4249430330064
 21
-59.90536517627695
 72
     1
 10
-111.4249430330064
 20
-59.90536517627695
 11
-111.2165660330064
 21
-59.99258117627695
 72
     1
 10
-111.2165660330064
 20
-59.99258117627695
 11
-110.8949680330064
 21
-60.09815717627696
 72
     1
 10
-110.8949680330064
 20
-60.09815717627696
 11
-110.6755590330064
 21
-60.14970017627695
 72
     1
 10
-110.6755590330064
 20
-60.14970017627695
 11
-110.3414210330064
 21
-60.20320017627696
 72
     1
 10
-110.3414210330064
 20
-60.20320017627696
 11
-110.0606940330064
 21
-60.23079517627696
 72
     1
 10
-110.0606940330064
 20
-60.23079517627696
 11
-109.7790920330064
 21
-60.24287617627699
 72
     1
 10
-109.7790920330064
 20
-60.24287617627699
 11
-109.2162500330064
 21
-60.21940317627696
 72
     1
 10
-109.2162500330064
 20
-60.21940317627696
 11
-108.9353820330064
 21
-60.18657017627699
 72
     1
 10
-108.9353820330064
 20
-60.18657017627699
 11
-108.6567700330064
 21
-60.13880317627695
 72
     1
 10
-108.6567700330064
 20
-60.13880317627695
 11
-108.3824560330064
 21
-60.07269417627695
 72
     1
 10
-108.3824560330064
 20
-60.07269417627695
 11
-108.1163520330064
 21
-59.98110417627696
 72
     1
 10
-108.1163520330064
 20
-59.98110417627696
 11
-107.8590100330064
 21
-59.86571417627696
 72
     1
 10
-107.8590100330064
 20
-59.86571417627696
 11
-107.7332750330064
 21
-59.80185217627699
 72
     1
 10
-107.7332750330064
 20
-59.80185217627699
 11
-107.6115940330064
 21
-59.73079317627696
 72
     1
 10
-107.6115940330064
 20
-59.73079317627696
 11
-107.5189560330064
 21
-59.66625617627695
 72
     1
 10
-107.5189560330064
 20
-59.66625617627695
 11
-107.4529530330064
 21
-59.61314317627695
 72
     1
 10
-107.4529530330064
 20
-59.61314317627695
 11
-107.3903980330064
 21
-59.55609117627695
 72
     1
 10
-107.3903980330064
 20
-59.55609117627695
 11
-107.3128640330064
 21
-59.47422317627698
 72
     1
 10
-107.3128640330064
 20
-59.47422317627698
 11
-107.2084490330064
 21
-59.34094917627696
 72
     1
 10
-107.2084490330064
 20
-59.34094917627696
 11
-107.1465060330064
 21
-59.24644517627696
 72
     1
 10
-107.1465060330064
 20
-59.24644517627696
 11
-107.1050280330064
 21
-59.17265217627697
 72
     1
 10
-107.1050280330064
 20
-59.17265217627697
 11
-107.0687640330064
 21
-59.09621017627697
 72
     1
 10
-107.0687640330064
 20
-59.09621017627697
 11
-107.0296210330064
 21
-58.99023217627696
 72
     1
 10
-107.0296210330064
 20
-58.99023217627696
 11
-107.0072240330064
 21
-58.90843817627697
 72
     1
 10
-107.0072240330064
 20
-58.90843817627697
 11
-106.9907010330064
 21
-58.82539417627696
 72
     1
 10
-106.9907010330064
 20
-58.82539417627696
 11
-108.7515510330064
 21
-58.82539417627696
 72
     1
 10
-108.7515510330064
 20
-58.82539417627696
 11
-108.8598140330064
 21
-58.90589917627695
 72
     1
 10
-108.8598140330064
 20
-58.90589917627695
 11
-108.9452320330064
 21
-58.96038317627696
 72
     1
 10
-108.9452320330064
 20
-58.96038317627696
 11
-109.0337980330064
 21
-59.00960517627696
 72
     1
 10
-109.0337980330064
 20
-59.00960517627696
 11
-109.1098160330064
 21
-59.04626517627696
 72
     1
 10
-109.1098160330064
 20
-59.04626517627696
 11
-109.1879980330064
 21
-59.07773117627695
 72
     1
 10
-109.1879980330064
 20
-59.07773117627695
 11
-109.2522970330064
 21
-59.09840317627696
 72
     1
 10
-109.2522970330064
 20
-59.09840317627696
 11
-109.3509230330064
 21
-59.12195017627695
 72
     1
 10
-109.3509230330064
 20
-59.12195017627695
 11
-109.4852370330064
 21
-59.14050217627695
 72
     1
 10
-109.4852370330064
 20
-59.14050217627695
 11
-109.5869350330064
 21
-59.14538217627697
 72
     1
 10
-109.5869350330064
 20
-59.14538217627697
 11
-109.6887650330064
 21
-59.14305717627696
 72
     1
 10
-109.6887650330064
 20
-59.14305717627696
 11
-109.8231820330064
 21
-59.12954217627695
 72
     1
 10
-109.8231820330064
 20
-59.12954217627695
 11
-109.9228930330064
 21
-59.11185017627696
 72
     1
 10
-109.9228930330064
 20
-59.11185017627696
 11
-110.0212450330064
 21
-59.08785217627695
 72
     1
 10
-110.0212450330064
 20
-59.08785217627695
 11
-110.1496900330064
 21
-59.04600117627696
 72
     1
 10
-110.1496900330064
 20
-59.04600117627696
 11
-110.2431790330064
 21
-59.00673717627696
 72
     1
 10
-110.2431790330064
 20
-59.00673717627696
 11
-110.3335930330064
 21
-58.96019217627695
 72
     1
 10
-110.3335930330064
 20
-58.96019217627695
 11
-110.3917340330064
 21
-58.92489817627696
 72
     1
 10
-110.3917340330064
 20
-58.92489817627696
 11
-110.4474970330064
 21
-58.88593417627696
 72
     1
 10
-110.4474970330064
 20
-58.88593417627696
 11
-110.5001240330064
 21
-58.84307117627696
 72
     1
 10
-110.5001240330064
 20
-58.84307117627696
 11
-110.5488550330064
 21
-58.79608217627696
 72
     1
 10
-110.5488550330064
 20
-58.79608217627696
 11
-110.5929320330064
 21
-58.74473817627695
 72
     1
 10
-110.5929320330064
 20
-58.74473817627695
 11
-110.6316970330064
 21
-58.68898817627696
 72
     1
 10
-110.6316970330064
 20
-58.68898817627696
 11
-110.6649050330064
 21
-58.62947617627695
 72
     1
 10
-110.6649050330064
 20
-58.62947617627695
 11
-110.6924130330064
 21
-58.56702517627696
 72
     1
 10
-110.6924130330064
 20
-58.56702517627696
 11
-110.7140760330064
 21
-58.50245717627696
 72
     1
 10
-110.7140760330064
 20
-58.50245717627696
 11
-110.7297510330064
 21
-58.43659417627695
 72
     1
 10
-110.7297510330064
 20
-58.43659417627695
 11
-110.0435010330064
 21
-58.43659417627695
 97
        0
 92
        0
 93
       43
 72
     1
 10
-110.7297510330064
 20
-57.60184417627695
 11
-109.9404510330064
 21
-57.60184417627695
 72
     1
 10
-109.9404510330064
 20
-57.60184417627695
 11
-108.7515510330064
 21
-57.60184417627695
 72
     1
 10
-108.7515510330064
 20
-57.60184417627695
 11
-108.7554750330064
 21
-57.56462217627696
 72
     1
 10
-108.7554750330064
 20
-57.56462217627696
 11
-108.7615720330064
 21
-57.52760717627695
 72
     1
 10
-108.7615720330064
 20
-57.52760717627695
 11
-108.7698820330064
 21
-57.49098917627696
 72
     1
 10
-108.7698820330064
 20
-57.49098917627696
 11
-108.7804420330064
 21
-57.45496017627695
 72
     1
 10
-108.7804420330064
 20
-57.45496017627695
 11
-108.7932890330064
 21
-57.41970917627695
 72
     1
 10
-108.7932890330064
 20
-57.41970917627695
 11
-108.8084180330064
 21
-57.38543217627695
 72
     1
 10
-108.8084180330064
 20
-57.38543217627695
 11
-108.8257100330064
 21
-57.35219217627697
 72
     1
 10
-108.8257100330064
 20
-57.35219217627697
 11
-108.8450070330064
 21
-57.32005617627696
 72
     1
 10
-108.8450070330064
 20
-57.32005617627696
 11
-108.8661490330064
 21
-57.28909417627695
 72
     1
 10
-108.8661490330064
 20
-57.28909417627695
 11
-108.8889790330064
 21
-57.25937417627696
 72
     1
 10
-108.8889790330064
 20
-57.25937417627696
 11
-108.9394160330064
 21
-57.20350417627697
 72
     1
 10
-108.9394160330064
 20
-57.20350417627697
 11
-108.9806860330064
 21
-57.16497917627696
 72
     1
 10
-108.9806860330064
 20
-57.16497917627696
 11
-109.0244250330064
 21
-57.12927017627696
 72
     1
 10
-109.0244250330064
 20
-57.12927017627696
 11
-109.0856770330064
 21
-57.08610217627697
 72
     1
 10
-109.0856770330064
 20
-57.08610217627697
 11
-109.1336800330064
 21
-57.05689417627696
 72
     1
 10
-109.1336800330064
 20
-57.05689417627696
 11
-109.1832230330064
 21
-57.03039517627696
 72
     1
 10
-109.1832230330064
 20
-57.03039517627696
 11
-109.2513610330064
 21
-56.99923617627698
 72
     1
 10
-109.2513610330064
 20
-56.99923617627698
 11
-109.3571110330064
 21
-56.96122717627695
 72
     1
 10
-109.3571110330064
 20
-56.96122717627695
 11
-109.4295400330064
 21
-56.94149217627695
 72
     1
 10
-109.4295400330064
 20
-56.94149217627695
 11
-109.5400990330064
 21
-56.92023117627696
 72
     1
 10
-109.5400990330064
 20
-56.92023117627696
 11
-109.6149920330064
 21
-56.91150417627696
 72
     1
 10
-109.6149920330064
 20
-56.91150417627696
 11
-109.7278960330064
 21
-56.90626817627695
 72
     1
 10
-109.7278960330064
 20
-56.90626817627695
 11
-109.8033450330064
 21
-56.90781217627695
 72
     1
 10
-109.8033450330064
 20
-56.90781217627695
 11
-109.9163300330064
 21
-56.91823617627696
 72
     1
 10
-109.9163300330064
 20
-56.91823617627696
 11
-109.9901860330064
 21
-56.93121417627697
 72
     1
 10
-109.9901860330064
 20
-56.93121417627697
 11
-110.0264890330064
 21
-56.94019117627695
 72
     1
 10
-110.0264890330064
 20
-56.94019117627695
 11
-110.0620600330064
 21
-56.95122717627696
 72
     1
 10
-110.0620600330064
 20
-56.95122717627696
 11
-110.0966620330064
 21
-56.96462017627695
 72
     1
 10
-110.0966620330064
 20
-56.96462017627695
 11
-110.1302300330064
 21
-56.98053017627696
 72
     1
 10
-110.1302300330064
 20
-56.98053017627696
 11
-110.2597310330064
 21
-57.05535717627696
 72
     1
 10
-110.2597310330064
 20
-57.05535717627696
 11
-110.4229800330064
 21
-57.14545717627695
 72
     1
 10
-110.4229800330064
 20
-57.14545717627695
 11
-110.4535980330064
 21
-57.16687817627696
 72
     1
 10
-110.4535980330064
 20
-57.16687817627696
 11
-110.4829490330064
 21
-57.19015817627696
 72
     1
 10
-110.4829490330064
 20
-57.19015817627696
 11
-110.5109830330064
 21
-57.21512717627696
 72
     1
 10
-110.5109830330064
 20
-57.21512717627696
 11
-110.5628930330064
 21
-57.26944817627695
 72
     1
 10
-110.5628930330064
 20
-57.26944817627695
 11
-110.6092330330064
 21
-57.32901317627696
 72
     1
 10
-110.6092330330064
 20
-57.32901317627696
 11
-110.6399530330064
 21
-57.37648717627695
 72
     1
 10
-110.6399530330064
 20
-57.37648717627695
 11
-110.6671170330064
 21
-57.42610617627696
 72
     1
 10
-110.6671170330064
 20
-57.42610617627696
 11
-110.6973740330064
 21
-57.49456517627698
 72
     1
 10
-110.6973740330064
 20
-57.49456517627698
 11
-110.7155940330064
 21
-57.54764317627695
 72
     1
 10
-110.7155940330064
 20
-57.54764317627695
 11
-110.7297510330064
 21
-57.60184417627695
 97
        0
 75
     0
 76
     2
 52
0.0
 41
0.062992
 77
     0
 78
     1
 53
44.99999999988837
 43
0.0
 44
0.0
 45
-0.0055677587145937
 46
0.0055677587146154
 79
     0
 98
        0
  0
SPLINE
  5
8F
330
1F
100
AcDbEntity
  8
DRAW-TEXT
  6
CONTINUOUS
 62
     1
100
AcDbSpline
210
0.0
220
0.0
230
1.0
 70
     8
 71
     3
 72
    46
 73
    42
 74
     0
 42
0.0
 43
0.0
 40
0.0
 40
0.0
 40
0.0
 40
0.0
 40
7.141872423117048
 40
14.32788339205629
 40
21.56452824128426
 40
28.73260723310206
 40
43.02372761525808
 40
57.32483142560349
 40
64.49077685295751
 40
71.64570452843448
 40
78.81591342873573
 40
85.98548637399568
 40
100.292851864308
 40
114.6199206745448
 40
128.9378004991008
 40
143.254461460293
 40
157.5786978189588
 40
171.8751577839548
 40
186.1655181681395
 40
200.4650255674368
 40
214.7607761140015
 40
221.9288243379806
 40
229.0817594820699
 40
243.3772532643953
 40
250.5465928815618
 40
257.7238799010737
 40
264.8624867625798
 40
272.0453123247322
 40
286.3697023069808
 40
300.6806894431282
 40
314.9993758194499
 40
329.3079876745119
 40
343.6654793012155
 40
350.8325242969386
 40
357.9807259228007
 40
365.1442326864873
 40
372.3022832119174
 40
379.4616753102728
 40
386.6185168232222
 40
393.7761247931966
 40
400.9349219159137
 40
400.9349219159137
 40
400.9349219159137
 40
400.9349219159137
 10
-106.8876510567938
 20
-58.42489456916025
 30
0.0
 10
-106.8625398260852
 20
-58.33459579188404
 30
0.0
 10
-106.8312091889158
 20
-58.14704464113006
 30
0.0
 10
-106.8530779094805
 20
-57.86302406372742
 30
0.0
 10
-106.9162067976476
 20
-57.58620328722087
 30
0.0
 10
-107.0363229617034
 20
-57.22891146091308
 30
0.0
 10
-107.2715080813088
 20
-56.81378759150011
 30
0.0
 10
-107.6267581375545
 20
-56.49650387774872
 30
0.0
 10
-107.9469633107828
 20
-56.29907488476555
 30
0.0
 10
-108.2055994040157
 20
-56.18437984829389
 30
0.0
 10
-108.4748810757402
 20
-56.0993041410845
 30
0.0
 10
-108.8402599918887
 20
-56.00991233177324
 30
0.0
 10
-109.3074045680221
 20
-55.94612058788367
 30
0.0
 10
-109.8717128739304
 20
-55.93789191417709
 30
0.0
 10
-110.4354540865232
 20
-55.97327058492658
 30
0.0
 10
-110.9902652528536
 20
-56.08048312863293
 30
0.0
 10
-111.5275407951887
 20
-56.26128485461371
 30
0.0
 10
-112.0032908810303
 20
-56.57971359373322
 30
0.0
 10
-112.3526360281045
 20
-57.03162439222911
 30
0.0
 10
-112.5719533506805
 20
-57.55638706735278
 30
0.0
 10
-112.6317126230105
 20
-58.02866364945996
 30
0.0
 10
-112.5956030501578
 20
-58.40426447449227
 30
0.0
 10
-112.493189519514
 20
-58.76655960393957
 30
0.0
 10
-112.3327202697315
 20
-59.11149860765502
 30
0.0
 10
-112.1027297155803
 20
-59.40968366519587
 30
0.0
 10
-111.9104531952852
 20
-59.61730836914643
 30
0.0
 10
-111.6795838929484
 20
-59.78292820589666
 30
0.0
 10
-111.342242282102
 20
-59.94995816812629
 30
0.0
 10
-110.8995198899878
 20
-60.1147372158223
 30
0.0
 10
-110.3423003103374
 20
-60.21258380013603
 30
0.0
 10
-109.7794105236689
 20
-60.25417564649106
 30
0.0
 10
-109.2147893717541
 20
-60.22793401062239
 30
0.0
 10
-108.7482128160821
 20
-60.16310562796003
 30
0.0
 10
-108.3814048133975
 20
-60.07741970255737
 30
0.0
 10
-108.1143670980831
 20
-59.98528168572476
 30
0.0
 10
-107.8582339156282
 20
-59.86766746809456
 30
0.0
 10
-107.6070129856559
 20
-59.73845950167708
 30
0.0
 10
-107.3832630704884
 20
-59.56324239712117
 30
0.0
 10
-107.2024708309844
 20
-59.34526387098053
 30
0.0
 10
-107.0575207511492
 20
-59.10134979734907
 30
0.0
 10
-107.0058287031838
 20
-58.91811609421791
 30
0.0
 10
-106.9907010567938
 20
-58.82539456916027
 30
0.0
  0
HATCH
  5
90
330
1F
100
AcDbEntity
  8
DRAW-TEXT
  6
CONTINUOUS
 62
     1
100
AcDbHatch
 10
0.0
 20
0.0
 30
0.0
210
0.0
220
0.0
230
1.0
  2
ANSI_31
 70
     0
 71
     0
 91
        1
 92
        1
 93
       12
 72
     2
 10
-121.6372500330064
 20
-58.20200417627693
 40
0.6511239999999728
 50
262.8493335533943
 51
360.0000000000025
 73
     0
 72
     1
 10
-120.9861510330064
 20
-58.20200417627696
 11
-120.9861510330064
 21
-60.04894417627697
 72
     1
 10
-120.9861510330064
 20
-60.04894417627697
 11
-119.2023510330064
 21
-60.04894417627697
 72
     1
 10
-119.2023510330064
 20
-60.04894417627697
 11
-119.2023510330064
 21
-57.35648517627695
 72
     2
 10
-120.4195460330065
 20
-57.41616517627701
 40
1.218658000000087
 50
2.806977534128201
 51
66.54578204501051
 73
     1
 72
     2
 10
-121.0271710330064
 20
-59.63577717627699
 40
3.51189200000003
 50
71.87239877900598
 51
120.4055336606955
 73
     1
 72
     1
 10
-122.8046010330064
 20
-56.60689417627695
 11
-122.8046010330064
 21
-56.17264417627695
 72
     1
 10
-122.8046010330064
 20
-56.17264417627695
 11
-124.5996510330064
 21
-56.17264417627695
 72
     1
 10
-124.5996510330064
 20
-56.17264417627695
 11
-124.5996510330064
 21
-60.04894417627697
 72
     1
 10
-124.5996510330064
 20
-60.04894417627697
 11
-122.8046010330064
 21
-60.04894417627697
 72
     1
 10
-122.8046010330064
 20
-60.04894417627697
 11
-122.8046010330064
 21
-58.24753917627697
 72
     2
 10
-121.6507640330064
 20
-58.86095917627697
 40
1.30676100000003
 50
207.9967033745325
 51
267.0374831484638
 73
     0
 97
        0
 75
     0
 76
     2
 52
0.0
 41
0.062992
 77
     0
 78
     1
 53
44.99999999988837
 43
0.0
 44
0.0
 45
-0.0055677587145937
 46
0.0055677587146154
 79
     0
 98
        0
  0
LINE
  5
91
330
1F
100
AcDbEntity
  8
DRAW-TEXT
  6
CONTINUOUS
 62
     1
100
AcDbLine
 10
-124.599651
 20
-60.048944
 30
0.0
 11
-122.804601
 21
-60.048944
 31
0.0
  0
LINE
  5
92
330
1F
100
AcDbEntity
  8
DRAW-TEXT
  6
CONTINUOUS
 62
     1
100
AcDbLine
 10
-122.804601
 20
-56.172644
 30
0.0
 11
-124.599651
 21
-56.172644
 31
0.0
  0
HATCH
  5
93
330
1F
100
AcDbEntity
  8
DRAW-TEXT
  6
CONTINUOUS
 62
     1
100
AcDbHatch
 10
0.0
 20
0.0
 30
0.0
210
0.0
220
0.0
230
1.0
  2
ANSI_31
 70
     0
 71
     0
 91
        1
 92
        1
 93
        4
 72
     1
 10
-127.2866010330064
 20
-56.17264417627695
 11
-127.2866010330064
 21
-60.04894417627697
 72
     1
 10
-127.2866010330064
 20
-60.04894417627697
 11
-125.4686010330064
 21
-60.04894417627697
 72
     1
 10
-125.4686010330064
 20
-60.04894417627697
 11
-125.4686010330064
 21
-56.17264417627695
 72
     1
 10
-125.4686010330064
 20
-56.17264417627695
 11
-127.2866010330064
 21
-56.17264417627695
 97
        0
 75
     0
 76
     2
 52
0.0
 41
0.062992
 77
     0
 78
     1
 53
44.99999999988837
 43
0.0
 44
0.0
 45
-0.0055677587145937
 46
0.0055677587146154
 79
     0
 98
        0
  0
HATCH
  5
94
330
1F
100
AcDbEntity
  8
DRAW-TEXT
  6
CONTINUOUS
 62
     1
100
AcDbHatch
 10
0.0
 20
0.0
 30
0.0
210
0.0
220
0.0
230
1.0
  2
ANSI_31
 70
     0
 71
     0
 91
        1
 92
        1
 93
       16
 72
     1
 10
-128.4155210330064
 20
-55.74919417627695
 11
-128.0070510330064
 21
-55.74919417627695
 72
     1
 10
-128.0070510330064
 20
-55.74919417627695
 11
-128.0070510330064
 21
-54.84604417627696
 72
     1
 10
-128.0070510330064
 20
-54.84604417627696
 11
-129.5143150330064
 21
-54.84604417627696
 72
     2
 10
-129.5143150330064
 20
-55.75163717627694
 40
0.9056389999999922
 50
89.99998127603085
 51
180.0000198478429
 73
     1
 72
     1
 10
-130.4199510330064
 20
-55.75163717627695
 11
-130.4199510330064
 21
-56.17264417627695
 72
     1
 10
-130.4199510330064
 20
-56.17264417627695
 11
-130.9572510330064
 21
-56.17264417627695
 72
     1
 10
-130.9572510330064
 20
-56.17264417627695
 11
-130.9572510330064
 21
-57.27019417627696
 72
     1
 10
-130.9572510330064
 20
-57.27019417627696
 11
-130.4199510330064
 21
-57.27019417627696
 72
     1
 10
-130.4199510330064
 20
-57.27019417627696
 11
-130.4199510330064
 21
-60.04894417627697
 72
     1
 10
-130.4199510330064
 20
-60.04894417627697
 11
-128.6244510330064
 21
-60.04894417627697
 72
     1
 10
-128.6244510330064
 20
-60.04894417627697
 11
-128.6244510330064
 21
-57.27019417627696
 72
     1
 10
-128.6244510330064
 20
-57.27019417627696
 11
-128.0070510330064
 21
-57.27019417627696
 72
     1
 10
-128.0070510330064
 20
-57.27019417627696
 11
-128.0070510330064
 21
-56.17264417627695
 72
     1
 10
-128.0070510330064
 20
-56.17264417627695
 11
-128.6816010330064
 21
-56.17264417627695
 72
     1
 10
-128.6816010330064
 20
-56.17264417627695
 11
-128.6334950330064
 21
-55.91241617627696
 72
     2
 10
-128.3885860330064
 20
-56.01232217627703
 40
0.264503000000062
 50
202.1921825436351
 51
264.1553335516183
 73
     0
 97
        0
 75
     0
 76
     2
 52
0.0
 41
0.062992
 77
     0
 78
     1
 53
44.99999999988837
 43
0.0
 44
0.0
 45
-0.0055677587145937
 46
0.0055677587146154
 79
     0
 98
        0
  0
SPLINE
  5
95
330
1F
100
AcDbEntity
  8
DRAW-TEXT
  6
CONTINUOUS
 62
     1
100
AcDbSpline
210
0.0
220
0.0
230
1.0
 70
     8
 71
     3
 72
    14
 73
    10
 74
     0
 42
0.0
 43
0.0
 40
0.0
 40
0.0
 40
0.0
 40
0.0
 40
5.538762586192294
 40
11.08357334402836
 40
16.60471716903697
 40
22.17307472664428
 40
27.66286437415174
 40
33.1572768546899
 40
38.69134613294703
 40
38.69134613294703
 40
38.69134613294703
 40
38.69134613294703
 10
-135.7713510567938
 20
-59.51119456916027
 30
0.0
 10
-135.7762858185887
 20
-59.5837140372472
 30
0.0
 10
-135.8101328312974
 20
-59.72802577060214
 30
0.0
 10
-135.9250909482893
 20
-59.9179648606119
 30
0.0
 10
-136.098188632258
 20
-60.05697581357854
 30
0.0
 10
-136.2989994052983
 20
-60.14535872939936
 30
0.0
 10
-136.5185270872517
 20
-60.17743250241337
 30
0.0
 10
-136.7326285610844
 20
-60.12307735296873
 30
0.0
 10
-136.8613181789705
 20
-60.05427275029351
 30
0.0
 10
-136.9208750538973
 20
-60.01271010268665
 30
0.0
  0
LINE
  5
96
330
1F
100
AcDbEntity
  8
DRAW-TEXT
  6
CONTINUOUS
 62
     1
100
AcDbLine
 10
-125.468601
 20
-56.172644
 30
0.0
 11
-125.468601
 21
-60.048944
 31
0.0
  0
LINE
  5
97
330
1F
100
AcDbEntity
  8
DRAW-TEXT
  6
CONTINUOUS
 62
     1
100
AcDbLine
 10
-127.286601
 20
-60.048944
 30
0.0
 11
-127.286601
 21
-56.172644
 31
0.0
  0
LINE
  5
98
330
1F
100
AcDbEntity
  8
DRAW-TEXT
  6
CONTINUOUS
 62
     1
100
AcDbLine
 10
-128.624451
 20
-60.048944
 30
0.0
 11
-128.624451
 21
-57.270194
 31
0.0
  0
LINE
  5
99
330
1F
100
AcDbEntity
  8
DRAW-TEXT
  6
CONTINUOUS
 62
     1
100
AcDbLine
 10
-130.419951
 20
-57.270194
 30
0.0
 11
-130.419951
 21
-60.048944
 31
0.0
  0
LINE
  5
9A
330
1F
100
AcDbEntity
  8
DRAW-TEXT
  6
CONTINUOUS
 62
     1
100
AcDbLine
 10
-124.599651
 20
-56.172644
 30
0.0
 11
-124.599651
 21
-60.048944
 31
0.0
  0
LINE
  5
9B
330
1F
100
AcDbEntity
  8
DRAW-TEXT
  6
CONTINUOUS
 62
     1
100
AcDbLine
 10
-130.419951
 20
-60.048944
 30
0.0
 11
-128.624451
 21
-60.048944
 31
0.0
  0
LINE
  5
9C
330
1F
100
AcDbEntity
  8
DRAW-TEXT
  6
CONTINUOUS
 62
     1
100
AcDbLine
 10
-125.468601
 20
-60.048944
 30
0.0
 11
-127.286601
 21
-60.048944
 31
0.0
  0
LINE
  5
9D
330
1F
100
AcDbEntity
  8
DRAW-TEXT
  6
CONTINUOUS
 62
     1
100
AcDbLine
 10
-135.771351
 20
-55.177694
 30
0.0
 11
-135.771351
 21
-53.276904
 31
0.0
  0
LINE
  5
9E
330
1F
100
AcDbEntity
  8
DRAW-TEXT
  6
CONTINUOUS
 62
     1
100
AcDbLine
 10
-137.680701
 20
-56.914524
 30
0.0
 11
-137.680701
 21
-53.028417
 31
0.0
  0
LINE
  5
9F
330
1F
100
AcDbEntity
  8
DRAW-TEXT
  6
CONTINUOUS
 62
     1
100
AcDbLine
 10
-136.731651
 20
-53.025553
 30
0.0
 11
-136.731651
 21
-58.870844
 31
0.0
  0
ARC
  5
A0
330
1F
100
AcDbEntity
  8
DRAW-TEXT
  6
CONTINUOUS
 62
     1
100
AcDbCircle
 10
-134.690035
 20
-55.675169
 30
0.0
 40
0.5000710000000002
100
AcDbArc
 50
275.840125
 51
95.840125
  0
LINE
  5
A1
330
1F
100
AcDbEntity
  8
DRAW-TEXT
  6
CONTINUOUS
 62
     1
100
AcDbLine
 10
-134.740918
 20
-55.177694
 30
0.0
 11
-135.771351
 21
-55.177694
 31
0.0
  0
LINE
  5
A2
330
1F
100
AcDbEntity
  8
DRAW-TEXT
  6
CONTINUOUS
 62
     1
100
AcDbLine
 10
-135.771351
 20
-56.172644
 30
0.0
 11
-134.639151
 21
-56.172644
 31
0.0
  0
ARC
  5
A3
330
1F
100
AcDbEntity
  8
DRAW-TEXT
  6
CONTINUOUS
 62
     1
100
AcDbCircle
 10
-138.14362
 20
-56.829545
 30
0.0
 40
0.4706070000000002
100
AcDbArc
 50
290.581791
 51
349.597912
  0
LINE
  5
A4
330
1F
100
AcDbEntity
  8
DRAW-TEXT
  6
CONTINUOUS
 62
     1
100
AcDbLine
 10
-135.771351
 20
-59.511194
 30
0.0
 11
-135.771351
 21
-56.172644
 31
0.0
  0
ARC
  5
A5
330
1F
100
AcDbEntity
  8
DRAW-TEXT
  6
CONTINUOUS
 62
     1
100
AcDbCircle
 10
-137.194923
 20
-56.755621
 30
0.0
 40
3.758726999999998
100
AcDbArc
 50
82.920154
 51
97.425676
  0
ARC
  5
A6
330
1F
100
AcDbEntity
  8
DRAW-TEXT
  6
CONTINUOUS
 62
     1
100
AcDbCircle
 10
-128.388586
 20
-56.012322
 30
0.0
 40
0.2645029999999999
100
AcDbArc
 50
95.844673
 51
157.807812
  0
ARC
  5
A7
330
1F
100
AcDbEntity
  8
DRAW-TEXT
  6
CONTINUOUS
 62
     1
100
AcDbCircle
 10
-129.514315
 20
-55.751637
 30
0.0
 40
0.905639
100
AcDbArc
 50
90.0
 51
180.0
  0
LINE
  5
A8
330
1F
100
AcDbEntity
  8
DRAW-TEXT
  6
CONTINUOUS
 62
     1
100
AcDbLine
 10
-128.415521
 20
-55.749194
 30
0.0
 11
-128.007051
 21
-55.749194
 31
0.0
  0
LINE
  5
A9
330
1F
100
AcDbEntity
  8
DRAW-TEXT
  6
CONTINUOUS
 62
     1
100
AcDbLine
 10
-128.681601
 20
-56.172644
 30
0.0
 11
-128.633495
 21
-55.912416
 31
0.0
  0
LINE
  5
AA
330
1F
100
AcDbEntity
  8
DRAW-TEXT
  6
CONTINUOUS
 62
     1
100
AcDbLine
 10
-128.007051
 20
-56.172644
 30
0.0
 11
-128.681601
 21
-56.172644
 31
0.0
  0
LINE
  5
AB
330
1F
100
AcDbEntity
  8
DRAW-TEXT
  6
CONTINUOUS
 62
     1
100
AcDbLine
 10
-128.007051
 20
-57.270194
 30
0.0
 11
-128.007051
 21
-56.172644
 31
0.0
  0
LINE
  5
AC
330
1F
100
AcDbEntity
  8
DRAW-TEXT
  6
CONTINUOUS
 62
     1
100
AcDbLine
 10
-128.624451
 20
-57.270194
 30
0.0
 11
-128.007051
 21
-57.270194
 31
0.0
  0
LINE
  5
AD
330
1F
100
AcDbEntity
  8
DRAW-TEXT
  6
CONTINUOUS
 62
     1
100
AcDbLine
 10
-130.957251
 20
-57.270194
 30
0.0
 11
-130.419951
 21
-57.270194
 31
0.0
  0
LINE
  5
AE
330
1F
100
AcDbEntity
  8
DRAW-TEXT
  6
CONTINUOUS
 62
     1
100
AcDbLine
 10
-130.957251
 20
-56.172644
 30
0.0
 11
-130.957251
 21
-57.270194
 31
0.0
  0
LINE
  5
AF
330
1F
100
AcDbEntity
  8
DRAW-TEXT
  6
CONTINUOUS
 62
     1
100
AcDbLine
 10
-130.419951
 20
-56.172644
 30
0.0
 11
-130.957251
 21
-56.172644
 31
0.0
  0
LINE
  5
B0
330
1F
100
AcDbEntity
  8
DRAW-TEXT
  6
CONTINUOUS
 62
     1
100
AcDbLine
 10
-130.419951
 20
-55.749194
 30
0.0
 11
-130.419951
 21
-56.172644
 31
0.0
  0
LINE
  5
B1
330
1F
100
AcDbEntity
  8
DRAW-TEXT
  6
CONTINUOUS
 62
     1
100
AcDbLine
 10
-128.007051
 20
-54.846044
 30
0.0
 11
-129.505101
 21
-54.846044
 31
0.0
  0
LINE
  5
B2
330
1F
100
AcDbEntity
  8
DRAW-TEXT
  6
CONTINUOUS
 62
     1
100
AcDbLine
 10
-128.007051
 20
-55.749194
 30
0.0
 11
-128.007051
 21
-54.846044
 31
0.0
  0
HATCH
  5
B3
330
1F
100
AcDbEntity
  8
DRAW-TEXT
  6
CONTINUOUS
 62
     1
100
AcDbHatch
 10
0.0
 20
0.0
 30
0.0
210
0.0
220
0.0
230
1.0
  2
ANSI_31
 70
     0
 71
     0
 91
        1
 92
        1
 93
        4
 72
     1
 10
-127.2866010330064
 20
-54.84604417627696
 11
-127.2866010330064
 21
-55.73794417627695
 72
     1
 10
-127.2866010330064
 20
-55.73794417627695
 11
-125.4686010330064
 21
-55.73794417627695
 72
     1
 10
-125.4686010330064
 20
-55.73794417627695
 11
-125.4686010330064
 21
-54.84604417627696
 72
     1
 10
-125.4686010330064
 20
-54.84604417627696
 11
-127.2866010330064
 21
-54.84604417627696
 97
        0
 75
     0
 76
     2
 52
0.0
 41
0.062992
 77
     0
 78
     1
 53
44.99999999988837
 43
0.0
 44
0.0
 45
-0.0055677587145937
 46
0.0055677587146154
 79
     0
 98
        0
  0
LINE
  5
B4
330
1F
100
AcDbEntity
  8
DRAW-TEXT
  6
CONTINUOUS
 62
     1
100
AcDbLine
 10
-125.468601
 20
-55.737944
 30
0.0
 11
-127.286601
 21
-55.737944
 31
0.0
  0
LINE
  5
B5
330
1F
100
AcDbEntity
  8
DRAW-TEXT
  6
CONTINUOUS
 62
     1
100
AcDbLine
 10
-125.468601
 20
-54.846044
 30
0.0
 11
-125.468601
 21
-55.737944
 31
0.0
  0
LINE
  5
B6
330
1F
100
AcDbEntity
  8
DRAW-TEXT
  6
CONTINUOUS
 62
     1
100
AcDbLine
 10
-127.286601
 20
-54.846044
 30
0.0
 11
-125.468601
 21
-54.846044
 31
0.0
  0
LINE
  5
B7
330
1F
100
AcDbEntity
  8
DRAW-TEXT
  6
CONTINUOUS
 62
     1
100
AcDbLine
 10
-127.286601
 20
-55.737944
 30
0.0
 11
-127.286601
 21
-54.846044
 31
0.0
  0
LINE
  5
B8
330
1F
100
AcDbEntity
  8
DRAW-TEXT
  6
CONTINUOUS
 62
     1
100
AcDbLine
 10
-127.286601
 20
-56.172644
 30
0.0
 11
-125.468601
 21
-56.172644
 31
0.0
  0
HATCH
  5
B9
330
1F
100
AcDbEntity
  8
DRAW-TEXT
  6
CONTINUOUS
 62
     1
100
AcDbHatch
 10
0.0
 20
0.0
 30
0.0
210
0.0
220
0.0
230
1.0
  2
ANSI_31
 70
     0
 71
     0
 91
        2
 92
        1
 93
       68
 72
     1
 10
-114.9030510330064
 20
-56.36113417627695
 11
-114.9579350330064
 21
-56.31557317627695
 72
     1
 10
-114.9579350330064
 20
-56.31557317627695
 11
-115.0012210330064
 21
-56.28408617627695
 72
     1
 10
-115.0012210330064
 20
-56.28408617627695
 11
-115.0464280330064
 21
-56.25552017627696
 72
     1
 10
-115.0464280330064
 20
-56.25552017627696
 11
-115.1092590330064
 21
-56.22279517627697
 72
     1
 10
-115.1092590330064
 20
-56.22279517627697
 11
-115.1581590330064
 21
-56.20185517627696
 72
     1
 10
-115.1581590330064
 20
-56.20185517627696
 11
-115.2081600330064
 21
-56.18368917627695
 72
     1
 10
-115.2081600330064
 20
-56.18368917627695
 11
-115.2942050330064
 21
-56.15836817627695
 72
     1
 10
-115.2942050330064
 20
-56.15836817627695
 11
-115.3815180330064
 21
-56.13790117627695
 72
     1
 10
-115.3815180330064
 20
-56.13790117627695
 11
-115.5585890330064
 21
-56.10387417627696
 72
     1
 10
-115.5585890330064
 20
-56.10387417627696
 11
-115.9107130330064
 21
-56.04939517627696
 72
     1
 10
-115.9107130330064
 20
-56.04939517627696
 11
-116.2648600330064
 21
-56.02742717627697
 72
     1
 10
-116.2648600330064
 20
-56.02742717627697
 11
-116.6214990330064
 21
-56.03827917627696
 72
     1
 10
-116.6214990330064
 20
-56.03827917627696
 11
-116.7990390330064
 21
-56.05347117627696
 72
     1
 10
-116.7990390330064
 20
-56.05347117627696
 11
-116.9751520330064
 21
-56.07911617627695
 72
     1
 10
-116.9751520330064
 20
-56.07911617627695
 11
-117.1141810330064
 21
-56.11016417627695
 72
     1
 10
-117.1141810330064
 20
-56.11016417627695
 11
-117.3183050330064
 21
-56.17411917627695
 72
     1
 10
-117.3183050330064
 20
-56.17411917627695
 11
-117.4507170330064
 21
-56.22759617627696
 72
     1
 10
-117.4507170330064
 20
-56.22759617627696
 11
-117.5473750330064
 21
-56.27356017627696
 72
     1
 10
-117.5473750330064
 20
-56.27356017627696
 11
-117.6412560330064
 21
-56.32483817627696
 72
     1
 10
-117.6412560330064
 20
-56.32483817627696
 11
-117.7612980330064
 21
-56.40149717627695
 72
     1
 10
-117.7612980330064
 20
-56.40149717627695
 11
-117.9303230330064
 21
-56.53235017627695
 72
     1
 10
-117.9303230330064
 20
-56.53235017627695
 11
-118.0356360330064
 21
-56.62868017627696
 72
     1
 10
-118.0356360330064
 20
-56.62868017627696
 11
-118.1818910330064
 21
-56.78492417627695
 72
     1
 10
-118.1818910330064
 20
-56.78492417627695
 11
-118.2711290330064
 21
-56.89610717627695
 72
     1
 10
-118.2711290330064
 20
-56.89610717627695
 11
-118.3907810330064
 21
-57.07321917627696
 72
     1
 10
-118.3907810330064
 20
-57.07321917627696
 11
-118.4597580330064
 21
-57.19801817627696
 72
     1
 10
-118.4597580330064
 20
-57.19801817627696
 11
-118.5054780330064
 21
-57.29472817627695
 72
     1
 10
-118.5054780330064
 20
-57.29472817627695
 11
-118.5459130330064
 21
-57.39374617627695
 72
     1
 10
-118.5459130330064
 20
-57.39374617627695
 11
-118.5914970330064
 21
-57.52890617627695
 72
     1
 10
-118.5914970330064
 20
-57.52890617627695
 11
-118.6421010330064
 21
-57.73683917627697
 72
     1
 10
-118.6421010330064
 20
-57.73683917627697
 11
-118.6639420330064
 21
-57.87788817627696
 72
     1
 10
-118.6639420330064
 20
-57.87788817627696
 11
-118.6735270330064
 21
-57.98445017627696
 72
     1
 10
-118.6735270330064
 20
-57.98445017627696
 11
-118.6767540330064
 21
-58.09130817627695
 72
     1
 10
-118.6767540330064
 20
-58.09130817627695
 11
-118.6707910330064
 21
-58.23368317627697
 72
     1
 10
-118.6707910330064
 20
-58.23368317627697
 11
-118.6425270330064
 21
-58.44577217627695
 72
     1
 10
-118.6425270330064
 20
-58.44577217627695
 11
-118.6127510330064
 21
-58.58535517627696
 72
     1
 10
-118.6127510330064
 20
-58.58535517627696
 11
-118.5516330330064
 21
-58.79030117627697
 72
     1
 10
-118.5516330330064
 20
-58.79030117627697
 11
-118.4993290330064
 21
-58.92289417627695
 72
     1
 10
-118.4993290330064
 20
-58.92289417627695
 11
-118.4539110330064
 21
-59.01971217627695
 72
     1
 10
-118.4539110330064
 20
-59.01971217627695
 11
-118.4031780330064
 21
-59.11387517627695
 72
     1
 10
-118.4031780330064
 20
-59.11387517627695
 11
-118.3272330330064
 21
-59.23473617627696
 72
     1
 10
-118.3272330330064
 20
-59.23473617627696
 11
-118.2642030330064
 21
-59.32126017627696
 72
     1
 10
-118.2642030330064
 20
-59.32126017627696
 11
-118.1960840330064
 21
-59.40378817627697
 72
     1
 10
-118.1960840330064
 20
-59.40378817627697
 11
-118.0978070330064
 21
-59.50695817627695
 72
     1
 10
-118.0978070330064
 20
-59.50695817627695
 11
-117.9365490330064
 21
-59.64727117627696
 72
     1
 10
-117.9365490330064
 20
-59.64727117627696
 11
-117.8213420330064
 21
-59.73146117627698
 72
     1
 10
-117.8213420330064
 20
-59.73146117627698
 11
-117.6390910330064
 21
-59.84365917627695
 72
     1
 10
-117.6390910330064
 20
-59.84365917627695
 11
-117.5122890330064
 21
-59.90884217627698
 72
     1
 10
-117.5122890330064
 20
-59.90884217627698
 11
-117.4145360330064
 21
-59.95209517627696
 72
     1
 10
-117.4145360330064
 20
-59.95209517627696
 11
-117.3146040330064
 21
-59.98991317627695
 72
     1
 10
-117.3146040330064
 20
-59.98991317627695
 11
-117.1781680330064
 21
-60.03130117627696
 72
     1
 10
-117.1781680330064
 20
-60.03130117627696
 11
-116.9687600330064
 21
-60.07495617627696
 72
     1
 10
-116.9687600330064
 20
-60.07495617627696
 11
-116.7918970330064
 21
-60.09630417627695
 72
     1
 10
-116.7918970330064
 20
-60.09630417627695
 11
-116.6140700330064
 21
-60.10729717627696
 72
     1
 10
-116.6140700330064
 20
-60.10729717627696
 11
-116.2581540330064
 21
-60.11014417627696
 72
     1
 10
-116.2581540330064
 20
-60.11014417627696
 11
-115.9017040330064
 21
-60.09493617627696
 72
     1
 10
-115.9017040330064
 20
-60.09493617627696
 11
-115.7599770330064
 21
-60.08103817627695
 72
     1
 10
-115.7599770330064
 20
-60.08103817627695
 11
-115.5493030330064
 21
-60.04515417627697
 72
     1
 10
-115.5493030330064
 20
-60.04515417627697
 11
-115.4117210330064
 21
-60.00802217627697
 72
     1
 10
-115.4117210330064
 20
-60.00802217627697
 11
-115.2771410330064
 21
-59.95988417627696
 72
     1
 10
-115.2771410330064
 20
-59.95988417627696
 11
-115.1467260330064
 21
-59.90121617627696
 72
     1
 10
-115.1467260330064
 20
-59.90121617627696
 11
-115.0216410330064
 21
-59.83249417627695
 72
     1
 10
-115.0216410330064
 20
-59.83249417627695
 11
-114.9030510330064
 21
-59.75419417627695
 72
     1
 10
-114.9030510330064
 20
-59.75419417627695
 11
-114.9030510330064
 21
-60.06019417627695
 72
     1
 10
-114.9030510330064
 20
-60.06019417627695
 11
-113.1080010330064
 21
-60.06019417627695
 72
     1
 10
-113.1080010330064
 20
-60.06019417627695
 11
-113.1080010330064
 21
-54.85729417627695
 72
     1
 10
-113.1080010330064
 20
-54.85729417627695
 11
-114.9030510330064
 21
-54.85729417627695
 72
     1
 10
-114.9030510330064
 20
-54.85729417627695
 11
-114.9030510330064
 21
-56.36113417627695
 97
        0
 92
        0
 93
       86
 72
     1
 10
-114.9030510330064
 20
-57.92179417627695
 11
-114.9093500330064
 21
-57.88360917627695
 72
     1
 10
-114.9093500330064
 20
-57.88360917627695
 11
-114.9178700330064
 21
-57.84578017627695
 72
     1
 10
-114.9178700330064
 20
-57.84578017627695
 11
-114.9286020330064
 21
-57.80847317627696
 72
     1
 10
-114.9286020330064
 20
-57.80847317627696
 11
-114.9415330330064
 21
-57.77185417627696
 72
     1
 10
-114.9415330330064
 20
-57.77185417627696
 11
-114.9566550330064
 21
-57.73608817627696
 72
     1
 10
-114.9566550330064
 20
-57.73608817627696
 11
-114.9739520330064
 21
-57.70131417627696
 72
     1
 10
-114.9739520330064
 20
-57.70131417627696
 11
-114.9933330330064
 21
-57.66766817627695
 72
     1
 10
-114.9933330330064
 20
-57.66766817627695
 11
-115.0147030330064
 21
-57.63525717627695
 72
     1
 10
-115.0147030330064
 20
-57.63525717627695
 11
-115.0379640330064
 21
-57.60419017627696
 72
     1
 10
-115.0379640330064
 20
-57.60419017627696
 11
-115.0630200330064
 21
-57.57457417627695
 72
     1
 10
-115.0630200330064
 20
-57.57457417627695
 11
-115.0897660330064
 21
-57.54649817627696
 72
     1
 10
-115.0897660330064
 20
-57.54649817627696
 11
-115.1180610330064
 21
-57.51997917627696
 72
     1
 10
-115.1180610330064
 20
-57.51997917627696
 11
-115.1630770330064
 21
-57.48311817627695
 72
     1
 10
-115.1630770330064
 20
-57.48311817627695
 11
-115.2107350330064
 21
-57.44975017627695
 72
     1
 10
-115.2107350330064
 20
-57.44975017627695
 11
-115.2771660330064
 21
-57.41078417627695
 72
     1
 10
-115.2771660330064
 20
-57.41078417627695
 11
-115.3819740330064
 21
-57.36233317627696
 72
     1
 10
-115.3819740330064
 20
-57.36233317627696
 11
-115.5654480330064
 21
-57.30079817627695
 72
     1
 10
-115.5654480330064
 20
-57.30079817627695
 11
-115.7532790330064
 21
-57.25423117627695
 72
     1
 10
-115.7532790330064
 20
-57.25423117627695
 11
-115.8292070330064
 21
-57.24231817627695
 72
     1
 10
-115.8292070330064
 20
-57.24231817627695
 11
-115.8865820330064
 21
-57.23685417627696
 72
     1
 10
-115.8865820330064
 20
-57.23685417627696
 11
-115.9441410330064
 21
-57.23485317627696
 72
     1
 10
-115.9441410330064
 20
-57.23485317627696
 11
-116.0213680330064
 21
-57.23809717627694
 72
     1
 10
-116.0213680330064
 20
-57.23809717627694
 11
-116.0790140330064
 21
-57.24476917627698
 72
     1
 10
-116.0790140330064
 20
-57.24476917627698
 11
-116.1361910330064
 21
-57.25478617627694
 72
     1
 10
-116.1361910330064
 20
-57.25478617627694
 11
-116.2117830330064
 21
-57.27308817627697
 72
     1
 10
-116.2117830330064
 20
-57.27308817627697
 11
-116.2674810330064
 21
-57.29034917627696
 72
     1
 10
-116.2674810330064
 20
-57.29034917627696
 11
-116.3221730330064
 21
-57.31055917627697
 72
     1
 10
-116.3221730330064
 20
-57.31055917627697
 11
-116.3929510330064
 21
-57.34187417627695
 72
     1
 10
-116.3929510330064
 20
-57.34187417627695
 11
-116.4443980330064
 21
-57.36879317627695
 72
     1
 10
-116.4443980330064
 20
-57.36879317627695
 11
-116.4941960330064
 21
-57.39873817627695
 72
     1
 10
-116.4941960330064
 20
-57.39873817627695
 11
-116.5571330330064
 21
-57.44305817627695
 72
     1
 10
-116.5571330330064
 20
-57.44305817627695
 11
-116.6162020330064
 21
-57.49262517627695
 72
     1
 10
-116.6162020330064
 20
-57.49262517627695
 11
-116.6708050330064
 21
-57.54726217627695
 72
     1
 10
-116.6708050330064
 20
-57.54726217627695
 11
-116.7203440330064
 21
-57.60679117627698
 72
     1
 10
-116.7203440330064
 20
-57.60679117627698
 11
-116.7642210330064
 21
-57.67103517627695
 72
     1
 10
-116.7642210330064
 20
-57.67103517627695
 11
-116.8017560330064
 21
-57.73964417627695
 72
     1
 10
-116.8017560330064
 20
-57.73964417627695
 11
-116.8320530330064
 21
-57.81179217627695
 72
     1
 10
-116.8320530330064
 20
-57.81179217627695
 11
-116.8441780330064
 21
-57.84888317627695
 72
     1
 10
-116.8441780330064
 20
-57.84888317627695
 11
-116.8541250330064
 21
-57.88648617627696
 72
     1
 10
-116.8541250330064
 20
-57.88648617627696
 11
-116.8617690330064
 21
-57.92447717627697
 72
     1
 10
-116.8617690330064
 20
-57.92447717627697
 11
-116.8669880330064
 21
-57.96273217627697
 72
     1
 10
-116.8669880330064
 20
-57.96273217627697
 11
-116.8696570330064
 21
-58.00112617627696
 72
     1
 10
-116.8696570330064
 20
-58.00112617627696
 11
-116.8696550330064
 21
-58.03953517627695
 72
     1
 10
-116.8696550330064
 20
-58.03953517627695
 11
-116.8668810330064
 21
-58.07809817627695
 72
     1
 10
-116.8668810330064
 20
-58.07809817627695
 11
-116.8614630330064
 21
-58.11642017627697
 72
     1
 10
-116.8614630330064
 20
-58.11642017627697
 11
-116.8535930330064
 21
-58.15437117627695
 72
     1
 10
-116.8535930330064
 20
-58.15437117627695
 11
-116.8434600330064
 21
-58.19182117627696
 72
     1
 10
-116.8434600330064
 20
-58.19182117627696
 11
-116.8312560330064
 21
-58.22863817627695
 72
     1
 10
-116.8312560330064
 20
-58.22863817627695
 11
-116.8009290330064
 21
-58.30061317627695
 72
     1
 10
-116.8009290330064
 20
-58.30061317627695
 11
-116.7735260330064
 21
-58.35233217627695
 72
     1
 10
-116.7735260330064
 20
-58.35233217627695
 11
-116.7424200330064
 21
-58.40193817627696
 72
     1
 10
-116.7424200330064
 20
-58.40193817627696
 11
-116.6959880330064
 21
-58.46392517627695
 72
     1
 10
-116.6959880330064
 20
-58.46392517627695
 11
-116.6573390330064
 21
-58.50726617627695
 72
     1
 10
-116.6573390330064
 20
-58.50726617627695
 11
-116.6155080330064
 21
-58.54748417627695
 72
     1
 10
-116.6155080330064
 20
-58.54748417627695
 11
-116.5553880330064
 21
-58.59555117627696
 72
     1
 10
-116.5553880330064
 20
-58.59555117627696
 11
-116.5073620330064
 21
-58.62768317627697
 72
     1
 10
-116.5073620330064
 20
-58.62768317627697
 11
-116.4573170330064
 21
-58.65655717627695
 72
     1
 10
-116.4573170330064
 20
-58.65655717627695
 11
-116.3875260330064
 21
-58.69051917627696
 72
     1
 10
-116.3875260330064
 20
-58.69051917627696
 11
-116.2789260330064
 21
-58.73245717627695
 72
     1
 10
-116.2789260330064
 20
-58.73245717627695
 11
-116.2049110330064
 21
-58.75533917627695
 72
     1
 10
-116.2049110330064
 20
-58.75533917627695
 11
-116.0918360330064
 21
-58.78187017627695
 72
     1
 10
-116.0918360330064
 20
-58.78187017627695
 11
-116.0156600330064
 21
-58.79379317627695
 72
     1
 10
-116.0156600330064
 20
-58.79379317627695
 11
-115.9003750330064
 21
-58.80239217627695
 72
     1
 10
-115.9003750330064
 20
-58.80239217627695
 11
-115.8231110330064
 21
-58.80152917627695
 72
     1
 10
-115.8231110330064
 20
-58.80152917627695
 11
-115.7076720330064
 21
-58.79013817627696
 72
     1
 10
-115.7076720330064
 20
-58.79013817627696
 11
-115.6317840330064
 21
-58.77591117627696
 72
     1
 10
-115.6317840330064
 20
-58.77591117627696
 11
-115.5569430330064
 21
-58.75648417627696
 72
     1
 10
-115.5569430330064
 20
-58.75648417627696
 11
-115.4835720330064
 21
-58.73199117627696
 72
     1
 10
-115.4835720330064
 20
-58.73199117627696
 11
-115.4120970330064
 21
-58.70256517627695
 72
     1
 10
-115.4120970330064
 20
-58.70256517627695
 11
-115.3429400330064
 21
-58.66834017627697
 72
     1
 10
-115.3429400330064
 20
-58.66834017627697
 11
-115.2760750330064
 21
-58.62919217627696
 72
     1
 10
-115.2760750330064
 20
-58.62919217627696
 11
-115.1813640330064
 21
-58.56191217627695
 72
     1
 10
-115.1813640330064
 20
-58.56191217627695
 11
-115.1224280330064
 21
-58.51143917627696
 72
     1
 10
-115.1224280330064
 20
-58.51143917627696
 11
-115.0812490330064
 21
-58.47037417627696
 72
     1
 10
-115.0812490330064
 20
-58.47037417627696
 11
-115.0433770330064
 21
-58.42629717627695
 72
     1
 10
-115.0433770330064
 20
-58.42629717627695
 11
-115.0203370330064
 21
-58.39525617627695
 72
     1
 10
-115.0203370330064
 20
-58.39525617627695
 11
-114.9991240330064
 21
-58.36289717627696
 72
     1
 10
-114.9991240330064
 20
-58.36289717627696
 11
-114.9798220330064
 21
-58.32933717627695
 72
     1
 10
-114.9798220330064
 20
-58.32933717627695
 11
-114.9625140330064
 21
-58.29469417627696
 72
     1
 10
-114.9625140330064
 20
-58.29469417627696
 11
-114.9472850330064
 21
-58.25908417627696
 72
     1
 10
-114.9472850330064
 20
-58.25908417627696
 11
-114.9341630330064
 21
-58.22251317627695
 72
     1
 10
-114.9341630330064
 20
-58.22251317627695
 11
-114.9231970330064
 21
-58.18524117627696
 72
     1
 10
-114.9231970330064
 20
-58.18524117627696
 11
-114.9143690330064
 21
-58.14741917627695
 72
     1
 10
-114.9143690330064
 20
-58.14741917627695
 11
-114.9076600330064
 21
-58.10920317627696
 72
     1
 10
-114.9076600330064
 20
-58.10920317627696
 11
-114.9030510330064
 21
-58.07074417627697
 72
     1
 10
-114.9030510330064
 20
-58.07074417627697
 11
-114.9030510330064
 21
-57.92179417627695
 97
        0
 75
     0
 76
     2
 52
0.0
 41
0.062992
 77
     0
 78
     1
 53
44.99999999988837
 43
0.0
 44
0.0
 45
-0.0055677587145937
 46
0.0055677587146154
 79
     0
 98
        0
  0
LINE
  5
BA
330
1F
100
AcDbEntity
  8
DRAW-TEXT
  6
CONTINUOUS
 62
     1
100
AcDbLine
 10
-114.903051
 20
-60.060194
 30
0.0
 11
-114.903051
 21
-59.754194
 31
0.0
  0
SPLINE
  5
BB
330
1F
100
AcDbEntity
  8
DRAW-TEXT
  6
CONTINUOUS
 62
     1
100
AcDbSpline
210
0.0
220
0.0
230
1.0
 70
     8
 71
     3
 72
    36
 73
    32
 74
     0
 42
0.0
 43
0.0
 40
0.0
 40
0.0
 40
0.0
 40
0.0
 40
4.523150288544236
 40
9.018070542264933
 40
13.57237184959539
 40
18.15227611371926
 40
27.2026295112361
 40
36.21525082266363
 40
45.2780811896826
 40
54.32055449123387
 40
63.36450863650692
 40
72.41679680611034
 40
81.455097759853
 40
90.50976300526442
 40
99.55261774412081
 40
108.5974436200299
 40
117.6479920323302
 40
126.694426807863
 40
135.7396858124719
 40
144.7901442161355
 40
153.8326590465836
 40
162.8822350699945
 40
171.9212897374024
 40
180.9748680097924
 40
190.0153547453014
 40
199.0614709656405
 40
208.1079744272093
 40
217.1485205132659
 40
226.2105843973628
 40
235.2504549869456
 40
253.2522081881651
 40
253.2522081881651
 40
253.2522081881651
 40
253.2522081881651
 10
-114.9030510567939
 20
-56.36113397914512
 30
0.0
 10
-114.9474928873369
 20
-56.32178418890101
 30
0.0
 10
-115.0424030172883
 20
-56.24930261005881
 30
0.0
 10
-115.2075491710798
 20
-56.17877061247244
 30
0.0
 10
-115.3815227174441
 20
-56.13608150684976
 30
0.0
 10
-115.6162255765616
 20
-56.09305547981909
 30
0.0
 10
-115.9093928628272
 20
-56.04303098085376
 30
0.0
 10
-116.2655775651582
 20
-56.02166903482738
 30
0.0
 10
-116.6213073081859
 20
-56.0348243299962
 30
0.0
 10
-116.976999115707
 20
-56.06860943324082
 30
0.0
 10
-117.3215820290155
 20
-56.1654672267438
 30
0.0
 10
-117.6470753909519
 20
-56.31443154793911
 30
0.0
 10
-117.9368170897372
 20
-56.52536010285783
 30
0.0
 10
-118.188479268495
 20
-56.77899139110881
 30
0.0
 10
-118.4000728505286
 20
-57.06756981259499
 30
0.0
 10
-118.5559482209854
 20
-57.39014214300879
 30
0.0
 10
-118.6517972173425
 20
-57.73480522522378
 30
0.0
 10
-118.6894151599981
 20
-58.09135762407622
 30
0.0
 10
-118.6510507488648
 20
-58.44752011020372
 30
0.0
 10
-118.561485604716
 20
-58.79354945021826
 30
0.0
 10
-118.4129955406642
 20
-59.11955328865951
 30
0.0
 10
-118.2053971922557
 20
-59.41184364385412
 30
0.0
 10
-117.9423612580825
 20
-59.65527921548219
 30
0.0
 10
-117.6436488398093
 20
-59.85130355057151
 30
0.0
 10
-117.3184152471202
 20
-60.00101172957876
 30
0.0
 10
-116.9699758028876
 20
-60.08422947672096
 30
0.0
 10
-116.6142119247715
 20
-60.11182378893776
 30
0.0
 10
-116.2578545931948
 20
-60.11223479063575
 30
0.0
 10
-115.9016871194324
 20
-60.10007806186081
 30
0.0
 10
-115.4303832152951
 20
-60.0430673592361
 30
0.0
 10
-115.0946421433231
 20
-59.89241120188378
 30
0.0
 10
-114.9030510567939
 20
-59.75419456916025
 30
0.0
  0
LINE
  5
BC
330
1F
100
AcDbEntity
  8
DRAW-TEXT
  6
CONTINUOUS
 62
     1
100
AcDbLine
 10
-113.108001
 20
-54.857294
 30
0.0
 11
-113.108001
 21
-60.060194
 31
0.0
  0
LINE
  5
BD
330
1F
100
AcDbEntity
  8
DRAW-TEXT
  6
CONTINUOUS
 62
     1
100
AcDbLine
 10
-122.804601
 20
-60.048944
 30
0.0
 11
-122.804601
 21
-58.247539
 31
0.0
  0
LINE
  5
BE
330
1F
100
AcDbEntity
  8
DRAW-TEXT
  6
CONTINUOUS
 62
     1
100
AcDbLine
 10
-119.202351
 20
-60.048944
 30
0.0
 11
-119.202351
 21
-57.356485
 31
0.0
  0
LINE
  5
BF
330
1F
100
AcDbEntity
  8
DRAW-TEXT
  6
CONTINUOUS
 62
     1
100
AcDbLine
 10
-120.986151
 20
-58.202004
 30
0.0
 11
-120.986151
 21
-60.048944
 31
0.0
  0
LINE
  5
C0
330
1F
100
AcDbEntity
  8
DRAW-TEXT
  6
CONTINUOUS
 62
     1
100
AcDbLine
 10
-120.986151
 20
-60.048944
 30
0.0
 11
-119.202351
 21
-60.048944
 31
0.0
  0
LINE
  5
C1
330
1F
100
AcDbEntity
  8
DRAW-TEXT
  6
CONTINUOUS
 62
     1
100
AcDbLine
 10
-113.108001
 20
-60.060194
 30
0.0
 11
-114.903051
 21
-60.060194
 31
0.0
  0
ARC
  5
C2
330
1F
100
AcDbEntity
  8
DRAW-TEXT
  6
CONTINUOUS
 62
     1
100
AcDbCircle
 10
-121.63725
 20
-58.202004
 30
0.0
 40
0.6511239999999998
100
AcDbArc
 50
0.0
 51
97.150683
  0
ARC
  5
C3
330
1F
100
AcDbEntity
  8
DRAW-TEXT
  6
CONTINUOUS
 62
     1
100
AcDbCircle
 10
-121.027171
 20
-59.635777
 30
0.0
 40
3.511892
100
AcDbArc
 50
71.872392
 51
120.405557
  0
ARC
  5
C4
330
1F
100
AcDbEntity
  8
DRAW-TEXT
  6
CONTINUOUS
 62
     1
100
AcDbCircle
 10
-121.650764
 20
-58.860959
 30
0.0
 40
1.306761
100
AcDbArc
 50
92.962513
 51
152.003324
  0
LINE
  5
C5
330
1F
100
AcDbEntity
  8
DRAW-TEXT
  6
CONTINUOUS
 62
     1
100
AcDbLine
 10
-122.804601
 20
-56.606894
 30
0.0
 11
-122.804601
 21
-56.172644
 31
0.0
  0
ARC
  5
C6
330
1F
100
AcDbEntity
  8
DRAW-TEXT
  6
CONTINUOUS
 62
     1
100
AcDbCircle
 10
-120.419546
 20
-57.416165
 30
0.0
 40
1.218658
100
AcDbArc
 50
2.806997
 51
66.545781
  0
LINE
  5
C7
330
1F
100
AcDbEntity
  8
DRAW-TEXT
  6
CONTINUOUS
 62
     1
100
AcDbLine
 10
-114.903051
 20
-54.857294
 30
0.0
 11
-113.108001
 21
-54.857294
 31
0.0
  0
LINE
  5
C8
330
1F
100
AcDbEntity
  8
DRAW-TEXT
  6
CONTINUOUS
 62
     1
100
AcDbLine
 10
-114.903051
 20
-58.070744
 30
0.0
 11
-114.903051
 21
-57.921794
 31
0.0
  0
SPLINE
  5
C9
330
1F
100
AcDbEntity
  8
DRAW-TEXT
  6
CONTINUOUS
 62
     1
100
AcDbSpline
210
0.0
220
0.0
230
1.0
 70
     8
 71
     3
 72
    32
 73
    28
 74
     0
 42
0.0
 43
0.0
 40
0.0
 40
0.0
 40
0.0
 40
0.0
 40
4.909509054523433
 40
9.821668919807824
 40
14.73383516812481
 40
19.61727672819435
 40
24.53265071111981
 40
29.44797053338268
 40
34.32079699678107
 40
39.2250705525019
 40
44.15685549479955
 40
49.06683229806852
 40
58.80730482208671
 40
68.542786686879
 40
73.44403205516403
 40
78.39049756650591
 40
83.29541340899793
 40
88.17598694903776
 40
93.10020236053552
 40
98.01522609607875
 40
102.9062058100611
 40
107.8107570446786
 40
117.5778292635732
 40
122.492186868012
 40
127.4063789732159
 40
132.3049728219404
 40
137.2189560338343
 40
137.2189560338343
 40
137.2189560338343
 40
137.2189560338343
 10
-114.9030510567939
 20
-57.92179456916026
 30
0.0
 10
-114.9116915990086
 20
-57.85794733248036
 30
0.0
 10
-114.947584780714
 20
-57.731807181352
 30
0.0
 10
-115.055943697005
 20
-57.56807920909687
 30
0.0
 10
-115.2064880987946
 20
-57.44353262457901
 30
0.0
 10
-115.3806716646466
 20
-57.35754198242128
 30
0.0
 10
-115.5650512629578
 20
-57.29937131118039
 30
0.0
 10
-115.7516692378639
 20
-57.24977871270974
 30
0.0
 10
-115.944515665663
 20
-57.22758156907599
 30
0.0
 10
-116.1378087494422
 20
-57.24911394890646
 30
0.0
 10
-116.324014069933
 20
-57.30515185995438
 30
0.0
 10
-116.5545186021044
 20
-57.42175928812699
 30
0.0
 10
-116.790254235046
 20
-57.65208184374828
 30
0.0
 10
-116.895391785656
 20
-57.97692965362766
 30
0.0
 10
-116.8389650323113
 20
-58.23240462908616
 30
0.0
 10
-116.7490457638141
 20
-58.40565281577625
 30
0.0
 10
-116.6214531065959
 20
-58.55373259321954
 30
0.0
 10
-116.4597438767853
 20
-58.66274192263607
 30
0.0
 10
-116.280314092702
 20
-58.73631144207128
 30
0.0
 10
-116.0931311355808
 20
-58.78662353365085
 30
0.0
 10
-115.9002920159725
 20
-58.80799509765224
 30
0.0
 10
-115.6430870368933
 20
-58.79169027687019
 30
0.0
 10
-115.393377342606
 20
-58.70840898901347
 30
0.0
 10
-115.1780213899923
 20
-58.56647727410793
 30
0.0
 10
-115.0362136666084
 20
-58.43245274177633
 30
0.0
 10
-114.9381765552162
 20
-58.26244866742321
 30
0.0
 10
-114.9089917611832
 20
-58.13495832261896
 30
0.0
 10
-114.9030510567939
 20
-58.07074456916025
 30
0.0
  0
LINE
  5
CA
330
1F
100
AcDbEntity
  8
DRAW-TEXT
  6
CONTINUOUS
 62
     1
100
AcDbLine
 10
-114.903051
 20
-56.361134
 30
0.0
 11
-114.903051
 21
-54.857294
 31
0.0
  0
HATCH
  5
CB
330
1F
100
AcDbEntity
  8
DRAW-TEXT
  6
CONTINUOUS
 62
     1
100
AcDbHatch
 10
0.0
 20
0.0
 30
0.0
210
0.0
220
0.0
230
1.0
  2
ANSI_31
 70
     0
 71
     0
 91
        1
 92
        1
 93
       78
 72
     1
 10
-106.3616010330064
 20
-56.17264417627695
 11
-106.3616010330064
 21
-60.04894417627697
 72
     1
 10
-106.3616010330064
 20
-60.04894417627697
 11
-104.6349510330064
 21
-60.04894417627697
 72
     1
 10
-104.6349510330064
 20
-60.04894417627697
 11
-104.6349510330064
 21
-57.89884417627695
 72
     1
 10
-104.6349510330064
 20
-57.89884417627695
 11
-104.6310860330064
 21
-57.85547517627696
 72
     1
 10
-104.6310860330064
 20
-57.85547517627696
 11
-104.6236280330064
 21
-57.81245217627696
 72
     1
 10
-104.6236280330064
 20
-57.81245217627696
 11
-104.6126950330064
 21
-57.77004717627696
 72
     1
 10
-104.6126950330064
 20
-57.77004717627696
 11
-104.5984020330064
 21
-57.72853417627695
 72
     1
 10
-104.5984020330064
 20
-57.72853417627695
 11
-104.5808670330064
 21
-57.68818717627695
 72
     1
 10
-104.5808670330064
 20
-57.68818717627695
 11
-104.5601880330064
 21
-57.64928317627695
 72
     1
 10
-104.5601880330064
 20
-57.64928317627695
 11
-104.5364520330064
 21
-57.61222417627696
 72
     1
 10
-104.5364520330064
 20
-57.61222417627696
 11
-104.5097330330064
 21
-57.57741417627695
 72
     1
 10
-104.5097330330064
 20
-57.57741417627695
 11
-104.4801010330064
 21
-57.54525817627695
 72
     1
 10
-104.4801010330064
 20
-57.54525817627695
 11
-104.4476310330064
 21
-57.51616017627695
 72
     1
 10
-104.4476310330064
 20
-57.51616017627695
 11
-104.4124650330064
 21
-57.49045117627695
 72
     1
 10
-104.4124650330064
 20
-57.49045117627695
 11
-104.3749480330064
 21
-57.46810517627696
 72
     1
 10
-104.3749480330064
 20
-57.46810517627696
 11
-104.3354910330064
 21
-57.44902617627696
 72
     1
 10
-104.3354910330064
 20
-57.44902617627696
 11
-104.2945070330064
 21
-57.43311817627696
 72
     1
 10
-104.2945070330064
 20
-57.43311817627696
 11
-104.2524080330064
 21
-57.42028317627697
 72
     1
 10
-104.2524080330064
 20
-57.42028317627697
 11
-104.2091190330064
 21
-57.41038317627696
 72
     1
 10
-104.2091190330064
 20
-57.41038317627696
 11
-104.1653330330064
 21
-57.40369417627696
 72
     1
 10
-104.1653330330064
 20
-57.40369417627696
 11
-104.1212670330064
 21
-57.40038917627696
 72
     1
 10
-104.1212670330064
 20
-57.40038917627696
 11
-104.0771410330064
 21
-57.40063717627695
 72
     1
 10
-104.0771410330064
 20
-57.40063717627695
 11
-104.0331750330064
 21
-57.40461017627695
 72
     1
 10
-104.0331750330064
 20
-57.40461017627695
 11
-103.9902550330064
 21
-57.41230217627697
 72
     1
 10
-103.9902550330064
 20
-57.41230217627697
 11
-103.9481030330064
 21
-57.42374417627695
 72
     1
 10
-103.9481030330064
 20
-57.42374417627695
 11
-103.9071180330064
 21
-57.43890217627696
 72
     1
 10
-103.9071180330064
 20
-57.43890217627696
 11
-103.8677010330064
 21
-57.45774517627697
 72
     1
 10
-103.8677010330064
 20
-57.45774517627697
 11
-103.8302530330064
 21
-57.48024117627696
 72
     1
 10
-103.8302530330064
 20
-57.48024117627696
 11
-103.7950700330064
 21
-57.50639617627695
 72
     1
 10
-103.7950700330064
 20
-57.50639617627695
 11
-103.7626270330064
 21
-57.53591917627695
 72
     1
 10
-103.7626270330064
 20
-57.53591917627695
 11
-103.7332830330064
 21
-57.56853917627696
 72
     1
 10
-103.7332830330064
 20
-57.56853917627696
 11
-103.7073930330064
 21
-57.60398417627695
 72
     1
 10
-103.7073930330064
 20
-57.60398417627695
 11
-103.6853170330064
 21
-57.64198217627696
 72
     1
 10
-103.6853170330064
 20
-57.64198217627696
 11
-103.6674450330064
 21
-57.68202717627695
 72
     1
 10
-103.6674450330064
 20
-57.68202717627695
 11
-103.6538420330064
 21
-57.72376117627694
 72
     1
 10
-103.6538420330064
 20
-57.72376117627694
 11
-103.6446440330064
 21
-57.76661517627696
 72
     1
 10
-103.6446440330064
 20
-57.76661517627696
 11
-103.6399850330064
 21
-57.81001617627695
 72
     1
 10
-103.6399850330064
 20
-57.81001617627695
 11
-103.6394000330064
 21
-57.83174417627696
 72
     1
 10
-103.6394000330064
 20
-57.83174417627696
 11
-103.6400010330064
 21
-57.85339417627695
 72
     1
 10
-103.6400010330064
 20
-57.85339417627695
 11
-103.6400010330064
 21
-58.09324417627697
 72
     1
 10
-103.6400010330064
 20
-58.09324417627697
 11
-101.8107510330064
 21
-58.09324417627697
 72
     1
 10
-101.8107510330064
 20
-58.09324417627697
 11
-101.7940940330064
 21
-57.93913717627695
 72
     1
 10
-101.7940940330064
 20
-57.93913717627695
 11
-101.7865400330064
 21
-57.78427417627695
 72
     1
 10
-101.7865400330064
 20
-57.78427417627695
 11
-101.7883510330064
 21
-57.62911717627696
 72
     1
 10
-101.7883510330064
 20
-57.62911717627696
 11
-101.7989260330064
 21
-57.47432217627696
 72
     1
 10
-101.7989260330064
 20
-57.47432217627696
 11
-101.8176660330064
 21
-57.32006617627695
 72
     1
 10
-101.8176660330064
 20
-57.32006617627695
 11
-101.8446740330064
 21
-57.16694117627695
 72
     1
 10
-101.8446740330064
 20
-57.16694117627695
 11
-101.8727000330064
 21
-57.04596617627696
 72
     1
 10
-101.8727000330064
 20
-57.04596617627696
 11
-101.8986540330064
 21
-56.95659317627695
 72
     1
 10
-101.8986540330064
 20
-56.95659317627695
 11
-101.9298940330064
 21
-56.86898917627697
 72
     1
 10
-101.9298940330064
 20
-56.86898917627697
 11
-101.9810750330064
 21
-56.75578817627696
 72
     1
 10
-101.9810750330064
 20
-56.75578817627696
 11
-102.0267070330064
 21
-56.67442317627695
 72
     1
 10
-102.0267070330064
 20
-56.67442317627695
 11
-102.0785170330064
 21
-56.59673817627695
 72
     1
 10
-102.0785170330064
 20
-56.59673817627695
 11
-102.1165560330064
 21
-56.54719017627696
 72
     1
 10
-102.1165560330064
 20
-56.54719017627696
 11
-102.1572870330064
 21
-56.49983017627695
 72
     1
 10
-102.1572870330064
 20
-56.49983017627695
 11
-102.2006570330064
 21
-56.45494117627695
 72
     1
 10
-102.2006570330064
 20
-56.45494117627695
 11
-102.2466110330064
 21
-56.41280817627695
 72
     1
 10
-102.2466110330064
 20
-56.41280817627695
 11
-102.2950980330064
 21
-56.37371217627695
 72
     1
 10
-102.2950980330064
 20
-56.37371217627695
 11
-102.3457270330064
 21
-56.33805717627696
 72
     1
 10
-102.3457270330064
 20
-56.33805717627696
 11
-102.3984870330064
 21
-56.30554117627697
 72
     1
 10
-102.3984870330064
 20
-56.30554117627697
 11
-102.4809170330064
 21
-56.26233517627695
 72
     1
 10
-102.4809170330064
 20
-56.26233517627695
 11
-102.5663320330064
 21
-56.22537417627696
 72
     1
 10
-102.5663320330064
 20
-56.22537417627696
 11
-102.6842890330064
 21
-56.18450417627696
 72
     1
 10
-102.6842890330064
 20
-56.18450417627696
 11
-102.8656940330064
 21
-56.13816617627695
 72
     1
 10
-102.8656940330064
 20
-56.13816617627695
 11
-102.9876030330064
 21
-56.11496317627695
 72
     1
 10
-102.9876030330064
 20
-56.11496317627695
 11
-103.1721880330064
 21
-56.09321717627694
 72
     1
 10
-103.1721880330064
 20
-56.09321717627694
 11
-103.2960700330064
 21
-56.08922217627696
 72
     1
 10
-103.2960700330064
 20
-56.08922217627696
 11
-103.4820060330064
 21
-56.09733517627695
 72
     1
 10
-103.4820060330064
 20
-56.09733517627695
 11
-103.6366480330064
 21
-56.11476417627696
 72
     1
 10
-103.6366480330064
 20
-56.11476417627696
 11
-103.7898580330064
 21
-56.14155617627696
 72
     1
 10
-103.7898580330064
 20
-56.14155617627696
 11
-103.9107690330064
 21
-56.16990317627697
 72
     1
 10
-103.9107690330064
 20
-56.16990317627697
 11
-104.0887750330064
 21
-56.22500817627696
 72
     1
 10
-104.0887750330064
 20
-56.22500817627696
 11
-104.2041400330064
 21
-56.27052017627696
 72
     1
 10
-104.2041400330064
 20
-56.27052017627696
 11
-104.3167570330064
 21
-56.32284017627695
 72
     1
 10
-104.3167570330064
 20
-56.32284017627695
 11
-104.4263100330064
 21
-56.38145817627695
 72
     1
 10
-104.4263100330064
 20
-56.38145817627695
 11
-104.6349510330064
 21
-56.51554417627695
 72
     1
 10
-104.6349510330064
 20
-56.51554417627695
 11
-104.6349510330064
 21
-56.17264417627695
 72
     1
 10
-104.6349510330064
 20
-56.17264417627695
 11
-106.3616010330064
 21
-56.17264417627695
 97
        0
 75
     0
 76
     2
 52
0.0
 41
0.062992
 77
     0
 78
     1
 53
44.99999999988837
 43
0.0
 44
0.0
 45
-0.0055677587145937
 46
0.0055677587146154
 79
     0
 98
        0
  0
LINE
  5
CC
330
1F
100
AcDbEntity
  8
DRAW-TEXT
  6
CONTINUOUS
 62
     1
100
AcDbLine
 10
-106.361601
 20
-60.048944
 30
0.0
 11
-106.361601
 21
-56.172644
 31
0.0
  0
LINE
  5
CD
330
1F
100
AcDbEntity
  8
DRAW-TEXT
  6
CONTINUOUS
 62
     1
100
AcDbLine
 10
-104.634951
 20
-57.898844
 30
0.0
 11
-104.634951
 21
-60.048944
 31
0.0
  0
LINE
  5
CE
330
1F
100
AcDbEntity
  8
DRAW-TEXT
  6
CONTINUOUS
 62
     1
100
AcDbLine
 10
-104.634951
 20
-60.048944
 30
0.0
 11
-106.361601
 21
-60.048944
 31
0.0
  0
SPLINE
  5
CF
330
1F
100
AcDbEntity
  8
DRAW-TEXT
  6
CONTINUOUS
 62
     1
100
AcDbSpline
210
0.0
220
0.0
230
1.0
 70
     8
 71
     3
 72
    20
 73
    16
 74
     0
 42
0.0
 43
0.0
 40
0.0
 40
0.0
 40
0.0
 40
0.0
 40
7.871901929511474
 40
15.75096927423194
 40
23.64445179997396
 40
31.5158964729773
 40
39.39436864954309
 40
47.29079680067253
 40
55.14314703034775
 40
63.06300284652718
 40
70.93122254616462
 40
78.80129490183184
 40
86.70098562537574
 40
94.58381201727138
 40
110.2973677554213
 40
110.2973677554213
 40
110.2973677554213
 40
110.2973677554213
 10
-101.8107510567939
 20
-58.09324456916026
 30
0.0
 10
-101.796715842593
 20
-57.99089662832456
 30
0.0
 10
-101.7801496349023
 20
-57.78426815136706
 30
0.0
 10
-101.793643694158
 20
-57.47356132917381
 30
0.0
 10
-101.8389189400809
 20
-57.16629310631233
 30
0.0
 10
-101.9183690539253
 20
-56.86462097210895
 30
0.0
 10
-102.0672451852474
 20
-56.58862886952197
 30
0.0
 10
-102.2843647761943
 20
-56.36029827776462
 30
0.0
 10
-102.5636075786465
 20
-56.21430183861796
 30
0.0
 10
-102.8638117445973
 20
-56.13291591023367
 30
0.0
 10
-103.171545324763
 20
-56.08379116593323
 30
0.0
 10
-103.483023582055
 20
-56.09132681180165
 30
0.0
 10
-103.7909169080378
 20
-56.13510430114376
 30
0.0
 10
-104.1907247913214
 20
-56.24454305584085
 30
0.0
 10
-104.4674268692484
 20
-56.39529430821053
 30
0.0
 10
-104.6349510567939
 20
-56.51554456916026
 30
0.0
  0
SPLINE
  5
D0
330
1F
100
AcDbEntity
  8
DRAW-TEXT
  6
CONTINUOUS
 62
     1
100
AcDbSpline
210
0.0
220
0.0
230
1.0
 70
     8
 71
     3
 72
    14
 73
    10
 74
     0
 42
0.0
 43
0.0
 40
0.0
 40
0.0
 40
0.0
 40
0.0
 40
5.491858232909907
 40
11.00819586140221
 40
16.50874681047815
 40
22.09149888634714
 40
27.61586722842942
 40
33.14265457079961
 40
38.66687707646717
 40
38.66687707646717
 40
38.66687707646717
 40
38.66687707646717
 10
-103.6400010567939
 20
-57.85339456916027
 30
0.0
 10
-103.6360032085043
 20
-57.78143390552511
 30
0.0
 10
-103.6681653182313
 20
-57.63223019639513
 30
0.0
 10
-103.8201789114559
 20
-57.46523239326341
 30
0.0
 10
-104.0326998442622
 20
-57.388471605238
 30
0.0
 10
-104.2546139056419
 20
-57.4075455838861
 30
0.0
 10
-104.4591802845771
 20
-57.50175908914245
 30
0.0
 10
-104.5938823663684
 20
-57.68215816445734
 30
0.0
 10
-104.6315681473397
 20
-57.82642718246004
 30
0.0
 10
-104.6349510567939
 20
-57.89884456916026
 30
0.0
  0
LINE
  5
D1
330
1F
100
AcDbEntity
  8
DRAW-TEXT
  6
CONTINUOUS
 62
     1
100
AcDbLine
 10
-106.887651
 20
-58.424894
 30
0.0
 11
-109.940451
 21
-58.436594
 31
0.0
  0
LINE
  5
D2
330
1F
100
AcDbEntity
  8
DRAW-TEXT
  6
CONTINUOUS
 62
     1
100
AcDbLine
 10
-108.751551
 20
-58.825394
 30
0.0
 11
-106.990701
 21
-58.825394
 31
0.0
  0
SPLINE
  5
D3
330
1F
100
AcDbEntity
  8
DRAW-TEXT
  6
CONTINUOUS
 62
     1
100
AcDbSpline
210
0.0
220
0.0
230
1.0
 70
     8
 71
     3
 72
    21
 73
    17
 74
     0
 42
0.0
 43
0.0
 40
0.0
 40
0.0
 40
0.0
 40
0.0
 40
4.746148563687195
 40
9.488813410418746
 40
14.25918520601791
 40
19.01062926475993
 40
23.76397242741832
 40
28.52707144130222
 40
33.31029833199518
 40
38.10616806837039
 40
42.83568377244993
 40
47.57566469741018
 40
52.31181706452112
 40
57.06028519616684
 40
61.83957166340087
 40
66.57835234202905
 40
66.57835234202905
 40
66.57835234202905
 40
66.57835234202905
 10
-108.7515510567939
 20
-57.60184456916026
 30
0.0
 10
-108.7563000100013
 20
-57.5397404608566
 30
0.0
 10
-108.7835881249877
 20
-57.4157164973418
 30
0.0
 10
-108.8828047089254
 20
-57.25359881111659
 30
0.0
 10
-109.0204693106857
 20
-57.12436110221878
 30
0.0
 10
-109.1807732896348
 20
-57.02537470176118
 30
0.0
 10
-109.355839783688
 20
-56.95651610142622
 30
0.0
 10
-109.5396746269661
 20
-56.91559655013177
 30
0.0
 10
-109.7281769850637
 20
-56.90217982625838
 30
0.0
 10
-109.9155519344723
 20
-56.91321544267943
 30
0.0
 10
-110.1018260501763
 20
-56.95357795081094
 30
0.0
 10
-110.2570861780018
 20
-57.06035686702111
 30
0.0
 10
-110.4281682153633
 20
-57.13710937605786
 30
0.0
 10
-110.5693252861236
 20
-57.26482096396045
 30
0.0
 10
-110.6735690979399
 20
-57.42211415738903
 30
0.0
 10
-110.7163537331247
 20
-57.54111608355367
 30
0.0
 10
-110.7297510567939
 20
-57.60184456916026
 30
0.0
  0
SPLINE
  5
D4
330
1F
100
AcDbEntity
  8
DRAW-TEXT
  6
CONTINUOUS
 62
     1
100
AcDbSpline
210
0.0
220
0.0
230
1.0
 70
     8
 71
     3
 72
    15
 73
    11
 74
     0
 42
0.0
 43
0.0
 40
0.0
 40
0.0
 40
0.0
 40
0.0
 40
8.563687786120157
 40
17.12756062282142
 40
25.69825177341967
 40
34.25886555898576
 40
42.85679109147988
 40
47.14477908422067
 40
51.4266799691854
 40
59.98754176510481
 40
59.98754176510481
 40
59.98754176510481
 40
59.98754176510481
 10
-110.7297510567939
 20
-58.43659456916026
 30
0.0
 10
-110.7086962115039
 20
-58.54698902802122
 30
0.0
 10
-110.6154854464828
 20
-58.76383624589155
 30
0.0
 10
-110.3402646484751
 20
-58.97458891209401
 30
0.0
 10
-110.0245872788166
 20
-59.09922817657688
 30
0.0
 10
-109.6891788538189
 20
-59.15547553820548
 30
0.0
 10
-109.4050793362485
 20
-59.1404128140767
 30
0.0
 10
-109.1864470916252
 20
-59.08216443145482
 30
0.0
 10
-108.9812913184673
 20
-58.98881271968874
 30
0.0
 10
-108.8388463362718
 20
-58.89611544820049
 30
0.0
 10
-108.7515510567939
 20
-58.82539456916027
 30
0.0
  0
LINE
  5
D5
330
1F
100
AcDbEntity
  8
DRAW-TEXT
  6
CONTINUOUS
 62
     1
100
AcDbLine
 10
-110.729751
 20
-57.601844
 30
0.0
 11
-109.940451
 21
-57.601844
 31
0.0
  0
LINE
  5
D6
330
1F
100
AcDbEntity
  8
DRAW-TEXT
  6
CONTINUOUS
 62
     1
100
AcDbLine
 10
-109.940451
 20
-57.601844
 30
0.0
 11
-108.751551
 21
-57.601844
 31
0.0
  0
LINE
  5
D7
330
1F
100
AcDbEntity
  8
DRAW-TEXT
  6
CONTINUOUS
 62
     1
100
AcDbLine
 10
-110.043501
 20
-58.436594
 30
0.0
 11
-110.729751
 21
-58.436594
 31
0.0
  0
LINE
  5
D8
330
1F
100
AcDbEntity
  8
DRAW-TEXT
  6
CONTINUOUS
 62
     1
100
AcDbLine
 10
-109.940451
 20
-58.436594
 30
0.0
 11
-110.043501
 21
-58.436594
 31
0.0
  0
LINE
  5
D9
330
1F
100
AcDbEntity
  8
DRAW-TEXT
  6
CONTINUOUS
 62
     1
100
AcDbLine
 10
-104.634951
 20
-56.172644
 30
0.0
 11
-104.634951
 21
-56.515544
 31
0.0
  0
LINE
  5
DA
330
1F
100
AcDbEntity
  8
DRAW-TEXT
  6
CONTINUOUS
 62
     1
100
AcDbLine
 10
-106.361601
 20
-56.172644
 30
0.0
 11
-104.634951
 21
-56.172644
 31
0.0
  0
LINE
  5
DB
330
1F
100
AcDbEntity
  8
DRAW-TEXT
  6
CONTINUOUS
 62
     1
100
AcDbLine
 10
-103.640001
 20
-58.093244
 30
0.0
 11
-103.640001
 21
-57.853394
 31
0.0
  0
LINE
  5
DC
330
1F
100
AcDbEntity
  8
DRAW-TEXT
  6
CONTINUOUS
 62
     1
100
AcDbLine
 10
-101.810751
 20
-58.093244
 30
0.0
 11
-103.640001
 21
-58.093244
 31
0.0
  0
LINE
  5
DD
330
1F
100
AcDbEntity
  8
DRAW
  6
CONTINUOUS
 62
     7
100
AcDbLine
 10
-91.905039
 20
44.67907
 30
0.0
 11
-92.430013
 21
43.492559
 31
0.0
  0
LINE
  5
DE
330
1F
100
AcDbEntity
  8
DRAW
  6
CONTINUOUS
 62
     7
100
AcDbLine
 10
-97.205039
 20
44.67907
 30
0.0
 11
-97.730013
 21
43.492559
 31
0.0
  0
LINE
  5
DF
330
1F
100
AcDbEntity
  8
DRAW
  6
CONTINUOUS
 62
     7
100
AcDbLine
 10
-95.240054
 20
43.809657
 30
0.0
 11
-94.895616
 21
44.588132
 31
0.0
  0
LINE
  5
E0
330
1F
100
AcDbEntity
  8
DRAW
  6
CONTINUOUS
 62
     7
100
AcDbLine
 10
-99.045673
 20
49.379253
 30
0.0
 11
-99.045673
 21
40.379251
 31
0.0
  0
ARC
  5
E1
330
1F
100
AcDbEntity
  8
DRAW
  6
CONTINUOUS
 62
     7
100
AcDbCircle
 10
-96.095673
 20
43.47925
 30
0.0
 40
2.35
100
AcDbArc
 50
90.000001
 51
269.999999
  0
ARC
  5
E2
330
1F
100
AcDbEntity
  8
DRAW
  6
CONTINUOUS
 62
     7
100
AcDbCircle
 10
-96.095673
 20
43.479249
 30
0.0
 40
2.35
100
AcDbArc
 50
270.0
 51
90.0
  0
ARC
  5
E3
330
1F
100
AcDbEntity
  8
DRAW
  6
CONTINUOUS
 62
     7
100
AcDbCircle
 10
-90.795673
 20
43.479249
 30
0.0
 40
2.35
100
AcDbArc
 50
90.0
 51
270.0
  0
LINE
  5
E4
330
1F
100
AcDbEntity
  8
DRAW
  6
CONTINUOUS
 62
     7
100
AcDbLine
 10
-89.940054
 20
43.809657
 30
0.0
 11
-89.595616
 21
44.588132
 31
0.0
  0
LINE
  5
E5
330
1F
100
AcDbEntity
  8
DRAW
  6
CONTINUOUS
 62
     7
100
AcDbLine
 10
-87.845673
 20
40.37925
 30
0.0
 11
-87.845673
 21
49.379251
 31
0.0
  0
ARC
  5
E6
330
1F
100
AcDbEntity
  8
DRAW
  6
CONTINUOUS
 62
     7
100
AcDbCircle
 10
-90.795673
 20
43.479251
 30
0.0
 40
2.35
100
AcDbArc
 50
270.0
 51
90.0
  0
LINE
  5
E7
330
1F
100
AcDbEntity
  8
DRAW
  6
CONTINUOUS
 62
     7
100
AcDbLine
 10
-97.730013
 20
43.492559
 30
0.0
 11
-96.951539
 21
43.148121
 31
0.0
  0
SPLINE
  5
E8
330
1F
100
AcDbEntity
  8
DRAW
  6
CONTINUOUS
 62
     7
100
AcDbSpline
210
0.0
220
0.0
230
1.0
 70
     8
 71
     3
 72
    11
 73
     7
 74
     0
 42
0.0
 43
0.0
 40
0.0
 40
0.0
 40
0.0
 40
0.0
 40
0.0971384075870546
 40
0.2309270276904131
 40
0.3898564959741779
 40
0.475441765320457
 40
0.475441765320457
 40
0.475441765320457
 40
0.475441765320457
 10
-97.37795157394557
 20
41.56950343463988
 30
0.0
 10
-97.37795157535538
 20
41.56950343464005
 30
0.0
 10
-97.37279130674791
 20
41.58116632056795
 30
0.0
 10
-97.34442074958272
 20
41.64528748136676
 30
0.0
 10
-97.29896901036172
 20
41.74801433084877
 30
0.0
 10
-97.26590743298665
 20
41.82273779743076
 30
0.0
 10
-97.2543984189856
 20
41.84874966615183
 30
0.0
  0
LINE
  5
E9
330
1F
100
AcDbEntity
  8
DRAW
  6
CONTINUOUS
 62
     7
100
AcDbLine
 10
-97.295977
 20
42.369647
 30
0.0
 11
-97.068465
 21
42.268984
 31
0.0
  0
LINE
  5
EA
330
1F
100
AcDbEntity
  8
DRAW
  6
CONTINUOUS
 62
     7
100
AcDbLine
 10
-96.951539
 20
43.148121
 30
0.0
 11
-97.295977
 21
42.369647
 31
0.0
  0
LINE
  5
EB
330
1F
100
AcDbEntity
  8
DRAW
  6
CONTINUOUS
 62
     7
100
AcDbLine
 10
-95.695672
 20
35.374437
 30
0.0
 11
-97.595671
 21
35.374437
 31
0.0
  0
LINE
  5
EC
330
1F
100
AcDbEntity
  8
DRAW
  6
CONTINUOUS
 62
     7
100
AcDbLine
 10
-89.295671
 20
38.37925
 30
0.0
 11
-97.595671
 21
38.37925
 31
0.0
  0
LINE
  5
ED
330
1F
100
AcDbEntity
  8
DRAW
  6
CONTINUOUS
 62
     7
100
AcDbLine
 10
-98.945673
 20
39.479251
 30
0.0
 11
-98.945673
 21
38.379251
 31
0.0
  0
LINE
  5
EE
330
1F
100
AcDbEntity
  8
DRAW
  6
CONTINUOUS
 62
     7
100
AcDbLine
 10
-97.595671
 20
38.379252
 30
0.0
 11
-97.595671
 21
35.374437
 31
0.0
  0
LINE
  5
EF
330
1F
100
AcDbEntity
  8
DRAW
  6
CONTINUOUS
 62
     7
100
AcDbLine
 10
-98.945673
 20
38.379251
 30
0.0
 11
-97.595671
 21
38.379251
 31
0.0
  0
LINE
  5
F0
330
1F
100
AcDbEntity
  8
DRAW
  6
CONTINUOUS
 62
     7
100
AcDbLine
 10
-99.045673
 20
40.379251
 30
0.0
 11
-98.945673
 21
40.379251
 31
0.0
  0
LINE
  5
F1
330
1F
100
AcDbEntity
  8
DRAW
  6
CONTINUOUS
 62
     7
100
AcDbLine
 10
-98.945673
 20
39.479251
 30
0.0
 11
-98.945673
 21
40.379251
 31
0.0
  0
LINE
  5
F2
330
1F
100
AcDbEntity
  8
DRAW
  6
CONTINUOUS
 62
     7
100
AcDbLine
 10
-90.465028
 20
42.623147
 30
0.0
 11
-89.686554
 21
42.278709
 31
0.0
  0
LINE
  5
F3
330
1F
100
AcDbEntity
  8
DRAW
  6
CONTINUOUS
 62
     7
100
AcDbLine
 10
-89.295671
 20
35.374437
 30
0.0
 11
-91.195672
 21
35.374437
 31
0.0
  0
LINE
  5
F4
330
1F
100
AcDbEntity
  8
DRAW
  6
CONTINUOUS
 62
     7
100
AcDbLine
 10
-95.695672
 20
34.879255
 30
0.0
 11
-93.445672
 21
34.879255
 31
0.0
  0
LINE
  5
F5
330
1F
100
AcDbEntity
  8
DRAW
  6
CONTINUOUS
 62
     7
100
AcDbLine
 10
-91.195672
 20
35.374437
 30
0.0
 11
-95.695672
 21
35.374437
 31
0.0
  0
LINE
  5
F6
330
1F
100
AcDbEntity
  8
DRAW
  6
CONTINUOUS
 62
     7
100
AcDbLine
 10
-95.795671
 20
36.479255
 30
0.0
 11
-91.095672
 21
36.479255
 31
0.0
  0
LINE
  5
F7
330
1F
100
AcDbEntity
  8
DRAW
  6
CONTINUOUS
 62
     7
100
AcDbLine
 10
-95.795671
 20
37.379254
 30
0.0
 11
-91.095672
 21
37.379254
 31
0.0
  0
LINE
  5
F8
330
1F
100
AcDbEntity
  8
DRAW
  6
CONTINUOUS
 62
     7
100
AcDbLine
 10
-95.795671
 20
36.479255
 30
0.0
 11
-95.795671
 21
37.379254
 31
0.0
  0
LINE
  5
F9
330
1F
100
AcDbEntity
  8
DRAW
  6
CONTINUOUS
 62
     7
100
AcDbLine
 10
-95.695672
 20
34.879255
 30
0.0
 11
-95.695672
 21
35.374437
 31
0.0
  0
LINE
  5
FA
330
1F
100
AcDbEntity
  8
DRAW
  6
CONTINUOUS
 62
     7
100
AcDbLine
 10
-93.445672
 20
34.879255
 30
0.0
 11
-91.195672
 21
34.879255
 31
0.0
  0
LINE
  5
FB
330
1F
100
AcDbEntity
  8
DRAW
  6
CONTINUOUS
 62
     7
100
AcDbLine
 10
-91.095672
 20
37.379254
 30
0.0
 11
-91.095672
 21
36.479255
 31
0.0
  0
LINE
  5
FC
330
1F
100
AcDbEntity
  8
DRAW
  6
CONTINUOUS
 62
     7
100
AcDbLine
 10
-91.195672
 20
34.879255
 30
0.0
 11
-91.195672
 21
35.374437
 31
0.0
  0
SPLINE
  5
FD
330
1F
100
AcDbEntity
  8
DRAW
  6
CONTINUOUS
 62
     7
100
AcDbSpline
210
0.0
220
0.0
230
1.0
 70
     8
 71
     3
 72
    11
 73
     7
 74
     0
 42
0.0
 43
0.0
 40
0.0
 40
0.0
 40
0.0
 40
0.0
 40
0.0971384075870362
 40
0.2309270276903851
 40
0.3898564959741972
 40
0.4754417653202684
 40
0.4754417653202684
 40
0.4754417653202684
 40
0.4754417653202684
 10
-96.64636247552345
 20
41.24581007500778
 30
0.0
 10
-96.6463624769333
 20
41.24581007500796
 30
0.0
 10
-96.6412022083258
 20
41.25747296093584
 30
0.0
 10
-96.61283165116049
 20
41.32159412173461
 30
0.0
 10
-96.56737991193963
 20
41.42432097121662
 30
0.0
 10
-96.53431833456456
 20
41.49904443779877
 30
0.0
 10
-96.52280932056372
 20
41.52505630651979
 30
0.0
  0
LINE
  5
FE
330
1F
100
AcDbEntity
  8
DRAW
  6
CONTINUOUS
 62
     7
100
AcDbLine
 10
-96.522809
 20
41.525057
 30
0.0
 11
-96.336876
 21
41.94529
 31
0.0
  0
LINE
  5
FF
330
1F
100
AcDbEntity
  8
DRAW
  6
CONTINUOUS
 62
     7
100
AcDbLine
 10
-97.068465
 20
42.268984
 30
0.0
 11
-97.254398
 21
41.84875
 31
0.0
  0
LINE
  5
100
330
1F
100
AcDbEntity
  8
DRAW
  6
CONTINUOUS
 62
     7
100
AcDbLine
 10
-96.917524
 20
42.610129
 30
0.0
 11
-96.185935
 21
42.286436
 31
0.0
  0
LINE
  5
101
330
1F
100
AcDbEntity
  8
DRAW
  6
CONTINUOUS
 62
     7
100
AcDbLine
 10
-96.336876
 20
41.94529
 30
0.0
 11
-96.185935
 21
42.286436
 31
0.0
  0
LINE
  5
102
330
1F
100
AcDbEntity
  8
DRAW
  6
CONTINUOUS
 62
     7
100
AcDbLine
 10
-97.068465
 20
42.268984
 30
0.0
 11
-96.917524
 21
42.610129
 31
0.0
  0
LINE
  5
103
330
1F
100
AcDbEntity
  8
DRAW
  6
CONTINUOUS
 62
     7
100
AcDbLine
 10
-96.336876
 20
41.94529
 30
0.0
 11
-96.109466
 21
41.844672
 31
0.0
  0
LINE
  5
104
330
1F
100
AcDbEntity
  8
DRAW
  6
CONTINUOUS
 62
     7
100
AcDbLine
 10
-96.109466
 20
41.844672
 30
0.0
 11
-95.765028
 21
42.623147
 31
0.0
  0
LINE
  5
105
330
1F
100
AcDbEntity
  8
DRAW
  6
CONTINUOUS
 62
     7
100
AcDbLine
 10
-95.765028
 20
42.623147
 30
0.0
 11
-94.986554
 21
42.278709
 31
0.0
  0
LINE
  5
106
330
1F
100
AcDbEntity
  8
DRAW
  6
CONTINUOUS
 62
     7
100
AcDbLine
 10
-94.46158
 20
43.46522
 30
0.0
 11
-95.240054
 21
43.809657
 31
0.0
  0
LINE
  5
107
330
1F
100
AcDbEntity
  8
DRAW
  6
CONTINUOUS
 62
     7
100
AcDbLine
 10
-94.986554
 20
42.278709
 30
0.0
 11
-94.46158
 21
43.46522
 31
0.0
  0
SPLINE
  5
108
330
1F
100
AcDbEntity
  8
DRAW
  6
CONTINUOUS
 62
     7
100
AcDbSpline
210
0.0
220
0.0
230
1.0
 70
     8
 71
     3
 72
    11
 73
     7
 74
     0
 42
0.0
 43
0.0
 40
0.0
 40
0.0
 40
0.0
 40
0.0
 40
0.0971384075870546
 40
0.2309270276904131
 40
0.3898564959741779
 40
0.475441765320457
 40
0.475441765320457
 40
0.475441765320457
 40
0.475441765320457
 10
-92.07795138321079
 20
41.56950343463988
 30
0.0
 10
-92.07795138462073
 20
41.56950343464005
 30
0.0
 10
-92.07279111601326
 20
41.58116632056795
 30
0.0
 10
-92.04442055884785
 20
41.64528748136676
 30
0.0
 10
-91.99896881962697
 20
41.74801433084877
 30
0.0
 10
-91.96590724225176
 20
41.82273779743076
 30
0.0
 10
-91.95439822825097
 20
41.84874966615183
 30
0.0
  0
LINE
  5
109
330
1F
100
AcDbEntity
  8
DRAW
  6
CONTINUOUS
 62
     7
100
AcDbLine
 10
-91.768465
 20
42.268984
 30
0.0
 11
-91.954398
 21
41.84875
 31
0.0
  0
LINE
  5
10A
330
1F
100
AcDbEntity
  8
DRAW
  6
CONTINUOUS
 62
     7
100
AcDbLine
 10
-91.768465
 20
42.268984
 30
0.0
 11
-91.617524
 21
42.610129
 31
0.0
  0
LINE
  5
10B
330
1F
100
AcDbEntity
  8
DRAW
  6
CONTINUOUS
 62
     7
100
AcDbLine
 10
-91.995977
 20
42.369647
 30
0.0
 11
-91.768465
 21
42.268984
 31
0.0
  0
LINE
  5
10C
330
1F
100
AcDbEntity
  8
DRAW
  6
CONTINUOUS
 62
     7
100
AcDbLine
 10
-91.651539
 20
43.148121
 30
0.0
 11
-91.995977
 21
42.369647
 31
0.0
  0
LINE
  5
10D
330
1F
100
AcDbEntity
  8
DRAW
  6
CONTINUOUS
 62
     7
100
AcDbLine
 10
-92.430013
 20
43.492559
 30
0.0
 11
-91.651539
 21
43.148121
 31
0.0
  0
LINE
  5
10E
330
1F
100
AcDbEntity
  8
DRAW
  6
CONTINUOUS
 62
     7
100
AcDbLine
 10
-91.617524
 20
42.610129
 30
0.0
 11
-90.885935
 21
42.286436
 31
0.0
  0
SPLINE
  5
10F
330
1F
100
AcDbEntity
  8
DRAW
  6
CONTINUOUS
 62
     7
100
AcDbSpline
210
0.0
220
0.0
230
1.0
 70
     8
 71
     3
 72
    11
 73
     7
 74
     0
 42
0.0
 43
0.0
 40
0.0
 40
0.0
 40
0.0
 40
0.0
 40
0.0971384075870362
 40
0.2309270276903851
 40
0.3898564959741972
 40
0.4754417653202684
 40
0.4754417653202684
 40
0.4754417653202684
 40
0.4754417653202684
 10
-91.34636228478857
 20
41.24581007500778
 30
0.0
 10
-91.34636228619844
 20
41.24581007500796
 30
0.0
 10
-91.34120201759094
 20
41.25747296093584
 30
0.0
 10
-91.31283146042576
 20
41.32159412173461
 30
0.0
 10
-91.26737972120483
 20
41.42432097121662
 30
0.0
 10
-91.23431814382967
 20
41.49904443779877
 30
0.0
 10
-91.22280912982887
 20
41.52505630651979
 30
0.0
  0
LINE
  5
110
330
1F
100
AcDbEntity
  8
DRAW
  6
CONTINUOUS
 62
     7
100
AcDbLine
 10
-91.222809
 20
41.525057
 30
0.0
 11
-91.036875
 21
41.94529
 31
0.0
  0
LINE
  5
111
330
1F
100
AcDbEntity
  8
DRAW
  6
CONTINUOUS
 62
     7
100
AcDbLine
 10
-91.036875
 20
41.94529
 30
0.0
 11
-90.885935
 21
42.286436
 31
0.0
  0
LINE
  5
112
330
1F
100
AcDbEntity
  8
DRAW
  6
CONTINUOUS
 62
     7
100
AcDbLine
 10
-91.036875
 20
41.94529
 30
0.0
 11
-90.809466
 21
41.844672
 31
0.0
  0
LINE
  5
113
330
1F
100
AcDbEntity
  8
DRAW
  6
CONTINUOUS
 62
     7
100
AcDbLine
 10
-90.809466
 20
41.844672
 30
0.0
 11
-90.465028
 21
42.623147
 31
0.0
  0
LINE
  5
114
330
1F
100
AcDbEntity
  8
DRAW
  6
CONTINUOUS
 62
     7
100
AcDbLine
 10
-87.945673
 20
39.479251
 30
0.0
 11
-87.945673
 21
38.379251
 31
0.0
  0
LINE
  5
115
330
1F
100
AcDbEntity
  8
DRAW
  6
CONTINUOUS
 62
     7
100
AcDbLine
 10
-89.295671
 20
38.379252
 30
0.0
 11
-89.295671
 21
35.374437
 31
0.0
  0
LINE
  5
116
330
1F
100
AcDbEntity
  8
DRAW
  6
CONTINUOUS
 62
     7
100
AcDbLine
 10
-87.945673
 20
38.379251
 30
0.0
 11
-89.295671
 21
38.379251
 31
0.0
  0
LINE
  5
117
330
1F
100
AcDbEntity
  8
DRAW
  6
CONTINUOUS
 62
     7
100
AcDbLine
 10
-87.845673
 20
40.37925
 30
0.0
 11
-87.945673
 21
40.37925
 31
0.0
  0
LINE
  5
118
330
1F
100
AcDbEntity
  8
DRAW
  6
CONTINUOUS
 62
     7
100
AcDbLine
 10
-89.161579
 20
43.46522
 30
0.0
 11
-89.940054
 21
43.809657
 31
0.0
  0
LINE
  5
119
330
1F
100
AcDbEntity
  8
DRAW
  6
CONTINUOUS
 62
     7
100
AcDbLine
 10
-89.686554
 20
42.278709
 30
0.0
 11
-89.161579
 21
43.46522
 31
0.0
  0
LINE
  5
11A
330
1F
100
AcDbEntity
  8
DRAW
  6
CONTINUOUS
 62
     7
100
AcDbLine
 10
-87.945673
 20
40.37925
 30
0.0
 11
-87.945673
 21
39.479251
 31
0.0
  0
LINE
  5
11B
330
1F
100
AcDbEntity
  8
DRAW
  6
CONTINUOUS
 62
     7
100
AcDbLine
 10
-97.730013
 20
54.492898
 30
0.0
 11
-96.951539
 21
54.14846
 31
0.0
  0
LINE
  5
11C
330
1F
100
AcDbEntity
  8
DRAW
  6
CONTINUOUS
 62
     7
100
AcDbLine
 10
-97.205038
 20
55.679409
 30
0.0
 11
-97.730013
 21
54.492898
 31
0.0
  0
SPLINE
  5
11D
330
1F
100
AcDbEntity
  8
DRAW
  6
CONTINUOUS
 62
     7
100
AcDbSpline
210
0.0
220
0.0
230
1.0
 70
     8
 71
     3
 72
    11
 73
     7
 74
     0
 42
0.0
 43
0.0
 40
0.0
 40
0.0
 40
0.0
 40
0.0
 40
0.0971384075870546
 40
0.2309270276904131
 40
0.3898564959741779
 40
0.475441765320457
 40
0.475441765320457
 40
0.475441765320457
 40
0.475441765320457
 10
-97.37795252589969
 20
52.56984265624573
 30
0.0
 10
-97.37795252731085
 20
52.56984265624605
 30
0.0
 10
-97.37279225257221
 20
52.58150553946005
 30
0.0
 10
-97.34442166168583
 20
52.64562668533717
 30
0.0
 10
-97.29896986843629
 20
52.74835351091325
 30
0.0
 10
-97.26590825175934
 20
52.82307696010582
 30
0.0
 10
-97.25439922407725
 20
52.84908882277353
 30
0.0
  0
LINE
  5
11E
330
1F
100
AcDbEntity
  8
DRAW
  6
CONTINUOUS
 62
     7
100
AcDbLine
 10
-97.295977
 20
53.369986
 30
0.0
 11
-97.068465
 21
53.269323
 31
0.0
  0
LINE
  5
11F
330
1F
100
AcDbEntity
  8
DRAW
  6
CONTINUOUS
 62
     7
100
AcDbLine
 10
-96.951539
 20
54.14846
 30
0.0
 11
-97.295977
 21
53.369986
 31
0.0
  0
LINE
  5
120
330
1F
100
AcDbEntity
  8
DRAW
  6
CONTINUOUS
 62
     7
100
AcDbLine
 10
-98.945674
 20
49.379253
 30
0.0
 11
-96.095674
 21
49.379253
 31
0.0
  0
ARC
  5
121
330
1F
100
AcDbEntity
  8
DRAW
  6
CONTINUOUS
 62
     7
100
AcDbCircle
 10
-96.095674
 20
54.479252
 30
0.0
 40
2.35
100
AcDbArc
 50
90.000001
 51
269.999999
  0
LINE
  5
122
330
1F
100
AcDbEntity
  8
DRAW
  6
CONTINUOUS
 62
     7
100
AcDbLine
 10
-98.945674
 20
57.879251
 30
0.0
 11
-93.445674
 21
57.879251
 31
0.0
  0
LINE
  5
123
330
1F
100
AcDbEntity
  8
DRAW
  6
CONTINUOUS
 62
     7
100
AcDbLine
 10
-97.945674
 20
59.07925
 30
0.0
 11
-88.945674
 21
59.07925
 31
0.0
  0
LINE
  5
124
330
1F
100
AcDbEntity
  8
DRAW
  6
CONTINUOUS
 62
     7
100
AcDbLine
 10
-99.045674
 20
57.879251
 30
0.0
 11
-99.045674
 21
51.379255
 31
0.0
  0
LINE
  5
125
330
1F
100
AcDbEntity
  8
DRAW
  6
CONTINUOUS
 62
     7
100
AcDbLine
 10
-98.945674
 20
50.079253
 30
0.0
 11
-98.945674
 21
49.379253
 31
0.0
  0
LINE
  5
126
330
1F
100
AcDbEntity
  8
DRAW
  6
CONTINUOUS
 62
     7
100
AcDbLine
 10
-99.045673
 20
49.379253
 30
0.0
 11
-98.945673
 21
49.379253
 31
0.0
  0
LINE
  5
127
330
1F
100
AcDbEntity
  8
DRAW
  6
CONTINUOUS
 62
     7
100
AcDbLine
 10
-99.045674
 20
51.379255
 30
0.0
 11
-98.945674
 21
51.379255
 31
0.0
  0
LINE
  5
128
330
1F
100
AcDbEntity
  8
DRAW
  6
CONTINUOUS
 62
     7
100
AcDbLine
 10
-99.045673
 20
52.129251
 30
0.0
 11
-99.195674
 21
52.129251
 31
0.0
  0
LINE
  5
129
330
1F
100
AcDbEntity
  8
DRAW
  6
CONTINUOUS
 62
     7
100
AcDbLine
 10
-99.045673
 20
54.629251
 30
0.0
 11
-99.195674
 21
54.629251
 31
0.0
  0
LINE
  5
12A
330
1F
100
AcDbEntity
  8
DRAW
  6
CONTINUOUS
 62
     7
100
AcDbLine
 10
-99.195674
 20
52.129251
 30
0.0
 11
-99.195674
 21
54.629251
 31
0.0
  0
LINE
  5
12B
330
1F
100
AcDbEntity
  8
DRAW
  6
CONTINUOUS
 62
     7
100
AcDbLine
 10
-98.945674
 20
50.079253
 30
0.0
 11
-98.945674
 21
51.379255
 31
0.0
  0
LINE
  5
12C
330
1F
100
AcDbEntity
  8
DRAW
  6
CONTINUOUS
 62
     7
100
AcDbLine
 10
-98.945674
 20
58.879251
 30
0.0
 11
-98.945674
 21
59.879251
 31
0.0
  0
LINE
  5
12D
330
1F
100
AcDbEntity
  8
DRAW
  6
CONTINUOUS
 62
     7
100
AcDbLine
 10
-99.045674
 20
59.879251
 30
0.0
 11
-98.945674
 21
59.879251
 31
0.0
  0
LINE
  5
12E
330
1F
100
AcDbEntity
  8
DRAW
  6
CONTINUOUS
 62
     7
100
AcDbLine
 10
-98.945674
 20
58.879251
 30
0.0
 11
-98.945674
 21
57.879251
 31
0.0
  0
LINE
  5
12F
330
1F
100
AcDbEntity
  8
DRAW
  6
CONTINUOUS
 62
     7
100
AcDbLine
 10
-99.045674
 20
57.879251
 30
0.0
 11
-98.945674
 21
57.879251
 31
0.0
  0
LINE
  5
130
330
1F
100
AcDbEntity
  8
DRAW
  6
CONTINUOUS
 62
     7
100
AcDbLine
 10
-95.123025
 20
55.689087
 30
0.0
 11
-94.937041
 21
56.109435
 31
0.0
  0
LINE
  5
131
330
1F
100
AcDbEntity
  8
DRAW
  6
CONTINUOUS
 62
     7
100
AcDbLine
 10
-95.854614
 20
56.012781
 30
0.0
 11
-96.005555
 21
55.671636
 31
0.0
  0
LINE
  5
132
330
1F
100
AcDbEntity
  8
DRAW
  6
CONTINUOUS
 62
     7
100
AcDbLine
 10
-96.082126
 20
56.113445
 30
0.0
 11
-96.426564
 21
55.334971
 31
0.0
  0
ARC
  5
133
330
1F
100
AcDbEntity
  8
DRAW
  6
CONTINUOUS
 62
     7
100
AcDbCircle
 10
-96.095674
 20
54.479252
 30
0.0
 40
2.35
100
AcDbArc
 50
270.0
 51
90.0
  0
ARC
  5
134
330
1F
100
AcDbEntity
  8
DRAW
  6
CONTINUOUS
 62
     7
100
AcDbCircle
 10
-90.795674
 20
54.479252
 30
0.0
 40
2.35
100
AcDbArc
 50
90.0
 51
270.0
  0
LINE
  5
135
330
1F
100
AcDbEntity
  8
DRAW
  6
CONTINUOUS
 62
     7
100
AcDbLine
 10
-87.845674
 20
51.37925
 30
0.0
 11
-87.845674
 21
57.879251
 31
0.0
  0
ARC
  5
136
330
1F
100
AcDbEntity
  8
DRAW
  6
CONTINUOUS
 62
     7
100
AcDbCircle
 10
-90.795674
 20
54.479251
 30
0.0
 40
2.35
100
AcDbArc
 50
270.0
 51
90.0
  0
LINE
  5
137
330
1F
100
AcDbEntity
  8
DRAW
  6
CONTINUOUS
 62
     7
100
AcDbLine
 10
-89.823025
 20
55.689087
 30
0.0
 11
-89.637041
 21
56.109435
 31
0.0
  0
LINE
  5
138
330
1F
100
AcDbEntity
  8
DRAW
  6
CONTINUOUS
 62
     7
100
AcDbLine
 10
-90.554614
 20
56.012781
 30
0.0
 11
-90.705554
 21
55.671636
 31
0.0
  0
LINE
  5
139
330
1F
100
AcDbEntity
  8
DRAW
  6
CONTINUOUS
 62
     7
100
AcDbLine
 10
-90.782126
 20
56.113445
 30
0.0
 11
-91.126564
 21
55.334971
 31
0.0
  0
LINE
  5
13A
330
1F
100
AcDbEntity
  8
DRAW
  6
CONTINUOUS
 62
     7
100
AcDbLine
 10
-90.705554
 20
55.671636
 30
0.0
 11
-89.973966
 21
55.347942
 31
0.0
  0
LINE
  5
13B
330
1F
100
AcDbEntity
  8
DRAW
  6
CONTINUOUS
 62
     7
100
AcDbLine
 10
-90.465029
 20
53.623485
 30
0.0
 11
-89.686555
 21
53.279047
 31
0.0
  0
LINE
  5
13C
330
1F
100
AcDbEntity
  8
DRAW
  6
CONTINUOUS
 62
     7
100
AcDbLine
 10
-87.945674
 20
49.379251
 30
0.0
 11
-90.795674
 21
49.379251
 31
0.0
  0
LINE
  5
13D
330
1F
100
AcDbEntity
  8
DRAW
  6
CONTINUOUS
 62
     7
100
AcDbLine
 10
-90.368631
 20
45.43279
 30
0.0
 11
-90.554614
 21
45.012443
 31
0.0
  0
LINE
  5
13E
330
1F
100
AcDbEntity
  8
DRAW
  6
CONTINUOUS
 62
     7
100
AcDbLine
 10
-90.705555
 20
44.671297
 30
0.0
 11
-89.973966
 21
44.347604
 31
0.0
  0
LINE
  5
13F
330
1F
100
AcDbEntity
  8
DRAW
  6
CONTINUOUS
 62
     7
100
AcDbLine
 10
-90.795674
 20
49.379252
 30
0.0
 11
-96.095674
 21
49.379252
 31
0.0
  0
LINE
  5
140
330
1F
100
AcDbEntity
  8
DRAW
  6
CONTINUOUS
 62
     7
100
AcDbLine
 10
-94.813489
 20
45.388343
 30
0.0
 11
-94.937042
 21
45.109097
 31
0.0
  0
LINE
  5
141
330
1F
100
AcDbEntity
  8
DRAW
  6
CONTINUOUS
 62
     7
100
AcDbLine
 10
-95.123026
 20
44.688749
 30
0.0
 11
-94.937042
 21
45.109097
 31
0.0
  0
LINE
  5
142
330
1F
100
AcDbEntity
  8
DRAW
  6
CONTINUOUS
 62
     7
100
AcDbLine
 10
-95.668631
 20
45.43279
 30
0.0
 11
-95.854615
 21
45.012443
 31
0.0
  0
LINE
  5
143
330
1F
100
AcDbEntity
  8
DRAW
  6
CONTINUOUS
 62
     7
100
AcDbLine
 10
-96.005555
 20
44.671297
 30
0.0
 11
-95.273966
 21
44.347604
 31
0.0
  0
LINE
  5
144
330
1F
100
AcDbEntity
  8
DRAW
  6
CONTINUOUS
 62
     7
100
AcDbLine
 10
-95.123026
 20
44.688749
 30
0.0
 11
-95.273966
 21
44.347604
 31
0.0
  0
LINE
  5
145
330
1F
100
AcDbEntity
  8
DRAW
  6
CONTINUOUS
 62
     7
100
AcDbLine
 10
-95.854615
 20
45.012443
 30
0.0
 11
-96.005555
 21
44.671297
 31
0.0
  0
LINE
  5
146
330
1F
100
AcDbEntity
  8
DRAW
  6
CONTINUOUS
 62
     7
100
AcDbLine
 10
-94.895616
 20
44.588132
 30
0.0
 11
-95.123026
 21
44.688749
 31
0.0
  0
LINE
  5
147
330
1F
100
AcDbEntity
  8
DRAW
  6
CONTINUOUS
 62
     7
100
AcDbLine
 10
-95.854615
 20
45.012443
 30
0.0
 11
-96.082127
 21
45.113106
 31
0.0
  0
LINE
  5
148
330
1F
100
AcDbEntity
  8
DRAW
  6
CONTINUOUS
 62
     7
100
AcDbLine
 10
-96.426565
 20
44.334632
 30
0.0
 11
-97.205039
 21
44.67907
 31
0.0
  0
LINE
  5
149
330
1F
100
AcDbEntity
  8
DRAW
  6
CONTINUOUS
 62
     7
100
AcDbLine
 10
-96.082127
 20
45.113106
 30
0.0
 11
-96.426565
 21
44.334632
 31
0.0
  0
LINE
  5
14A
330
1F
100
AcDbEntity
  8
DRAW
  6
CONTINUOUS
 62
     7
100
AcDbLine
 10
-95.545078
 20
45.712036
 30
0.0
 11
-95.668631
 21
45.43279
 31
0.0
  0
LINE
  5
14B
330
1F
100
AcDbEntity
  8
DRAW
  6
CONTINUOUS
 62
     7
100
AcDbLine
 10
-91.126564
 20
44.334632
 30
0.0
 11
-91.905039
 21
44.67907
 31
0.0
  0
LINE
  5
14C
330
1F
100
AcDbEntity
  8
DRAW
  6
CONTINUOUS
 62
     7
100
AcDbLine
 10
-90.554614
 20
45.012443
 30
0.0
 11
-90.705555
 21
44.671297
 31
0.0
  0
LINE
  5
14D
330
1F
100
AcDbEntity
  8
DRAW
  6
CONTINUOUS
 62
     7
100
AcDbLine
 10
-90.554614
 20
45.012443
 30
0.0
 11
-90.782127
 21
45.113106
 31
0.0
  0
LINE
  5
14E
330
1F
100
AcDbEntity
  8
DRAW
  6
CONTINUOUS
 62
     7
100
AcDbLine
 10
-90.782127
 20
45.113106
 30
0.0
 11
-91.126564
 21
44.334632
 31
0.0
  0
SPLINE
  5
14F
330
1F
100
AcDbEntity
  8
DRAW
  6
CONTINUOUS
 62
     7
100
AcDbSpline
210
0.0
220
0.0
230
1.0
 70
     8
 71
     3
 72
    11
 73
     7
 74
     0
 42
0.0
 43
0.0
 40
0.0
 40
0.0
 40
0.0
 40
0.0
 40
0.0971384075870362
 40
0.2309270276903851
 40
0.3898564959741972
 40
0.4754417653202684
 40
0.4754417653202684
 40
0.4754417653202684
 40
0.4754417653202684
 10
-96.64636359773044
 20
52.24614891182055
 30
0.0
 10
-96.64636359914162
 20
52.24614891182085
 30
0.0
 10
-96.64120332440304
 20
52.2578117950348
 30
0.0
 10
-96.61283273351647
 20
52.32193294091183
 30
0.0
 10
-96.56738094026707
 20
52.42465976648781
 30
0.0
 10
-96.53431932359011
 20
52.49938321568055
 30
0.0
 10
-96.5228102959078
 20
52.5253950783483
 30
0.0
  0
LINE
  5
150
330
1F
100
AcDbEntity
  8
DRAW
  6
CONTINUOUS
 62
     7
100
AcDbLine
 10
-96.52281
 20
52.525395
 30
0.0
 11
-96.336876
 21
52.945629
 31
0.0
  0
LINE
  5
151
330
1F
100
AcDbEntity
  8
DRAW
  6
CONTINUOUS
 62
     7
100
AcDbLine
 10
-97.068465
 20
53.269323
 30
0.0
 11
-97.254399
 21
52.849089
 31
0.0
  0
LINE
  5
152
330
1F
100
AcDbEntity
  8
DRAW
  6
CONTINUOUS
 62
     7
100
AcDbLine
 10
-96.917524
 20
53.610468
 30
0.0
 11
-96.185936
 21
53.286775
 31
0.0
  0
LINE
  5
153
330
1F
100
AcDbEntity
  8
DRAW
  6
CONTINUOUS
 62
     7
100
AcDbLine
 10
-96.336876
 20
52.945629
 30
0.0
 11
-96.185936
 21
53.286775
 31
0.0
  0
LINE
  5
154
330
1F
100
AcDbEntity
  8
DRAW
  6
CONTINUOUS
 62
     7
100
AcDbLine
 10
-97.068465
 20
53.269323
 30
0.0
 11
-96.917524
 21
53.610468
 31
0.0
  0
LINE
  5
155
330
1F
100
AcDbEntity
  8
DRAW
  6
CONTINUOUS
 62
     7
100
AcDbLine
 10
-96.005555
 20
55.671636
 30
0.0
 11
-95.273966
 21
55.347942
 31
0.0
  0
LINE
  5
156
330
1F
100
AcDbEntity
  8
DRAW
  6
CONTINUOUS
 62
     7
100
AcDbLine
 10
-95.123025
 20
55.689087
 30
0.0
 11
-95.273966
 21
55.347942
 31
0.0
  0
LINE
  5
157
330
1F
100
AcDbEntity
  8
DRAW
  6
CONTINUOUS
 62
     7
100
AcDbLine
 10
-96.336876
 20
52.945629
 30
0.0
 11
-96.109467
 21
52.845011
 31
0.0
  0
LINE
  5
158
330
1F
100
AcDbEntity
  8
DRAW
  6
CONTINUOUS
 62
     7
100
AcDbLine
 10
-94.895615
 20
55.588469
 30
0.0
 11
-95.123025
 21
55.689087
 31
0.0
  0
LINE
  5
159
330
1F
100
AcDbEntity
  8
DRAW
  6
CONTINUOUS
 62
     7
100
AcDbLine
 10
-96.109467
 20
52.845011
 30
0.0
 11
-95.765029
 21
53.623485
 31
0.0
  0
LINE
  5
15A
330
1F
100
AcDbEntity
  8
DRAW
  6
CONTINUOUS
 62
     7
100
AcDbLine
 10
-96.426564
 20
55.334971
 30
0.0
 11
-97.205038
 21
55.679409
 31
0.0
  0
LINE
  5
15B
330
1F
100
AcDbEntity
  8
DRAW
  6
CONTINUOUS
 62
     7
100
AcDbLine
 10
-95.240054
 20
54.809995
 30
0.0
 11
-94.895615
 21
55.588469
 31
0.0
  0
LINE
  5
15C
330
1F
100
AcDbEntity
  8
DRAW
  6
CONTINUOUS
 62
     7
100
AcDbLine
 10
-95.765029
 20
53.623485
 30
0.0
 11
-94.986555
 21
53.279047
 31
0.0
  0
LINE
  5
15D
330
1F
100
AcDbEntity
  8
DRAW
  6
CONTINUOUS
 62
     7
100
AcDbLine
 10
-94.46158
 20
54.465557
 30
0.0
 11
-95.240054
 21
54.809995
 31
0.0
  0
LINE
  5
15E
330
1F
100
AcDbEntity
  8
DRAW
  6
CONTINUOUS
 62
     7
100
AcDbLine
 10
-94.986555
 20
53.279047
 30
0.0
 11
-94.46158
 21
54.465557
 31
0.0
  0
LINE
  5
15F
330
1F
100
AcDbEntity
  8
DRAW
  6
CONTINUOUS
 62
     7
100
AcDbLine
 10
-91.905038
 20
55.679409
 30
0.0
 11
-92.430013
 21
54.492898
 31
0.0
  0
LINE
  5
160
330
1F
100
AcDbEntity
  8
DRAW
  6
CONTINUOUS
 62
     7
100
AcDbLine
 10
-91.617524
 20
53.610468
 30
0.0
 11
-90.885935
 21
53.286775
 31
0.0
  0
LINE
  5
161
330
1F
100
AcDbEntity
  8
DRAW
  6
CONTINUOUS
 62
     7
100
AcDbLine
 10
-91.126564
 20
55.334971
 30
0.0
 11
-91.905038
 21
55.679409
 31
0.0
  0
SPLINE
  5
162
330
1F
100
AcDbEntity
  8
DRAW
  6
CONTINUOUS
 62
     7
100
AcDbSpline
210
0.0
220
0.0
230
1.0
 70
     8
 71
     3
 72
    11
 73
     7
 74
     0
 42
0.0
 43
0.0
 40
0.0
 40
0.0
 40
0.0
 40
0.0
 40
0.0971384075870362
 40
0.2309270276903851
 40
0.3898564959741972
 40
0.4754417653202684
 40
0.4754417653202684
 40
0.4754417653202684
 40
0.4754417653202684
 10
-91.34636340699548
 20
52.24614891182055
 30
0.0
 10
-91.34636340840676
 20
52.24614891182085
 30
0.0
 10
-91.34120313366815
 20
52.2578117950348
 30
0.0
 10
-91.31283254278141
 20
52.32193294091183
 30
0.0
 10
-91.2673807495322
 20
52.42465976648781
 30
0.0
 10
-91.23431913285528
 20
52.49938321568055
 30
0.0
 10
-91.22281010517293
 20
52.5253950783483
 30
0.0
  0
LINE
  5
163
330
1F
100
AcDbEntity
  8
DRAW
  6
CONTINUOUS
 62
     7
100
AcDbLine
 10
-91.22281
 20
52.525395
 30
0.0
 11
-91.036876
 21
52.945629
 31
0.0
  0
LINE
  5
164
330
1F
100
AcDbEntity
  8
DRAW
  6
CONTINUOUS
 62
     7
100
AcDbLine
 10
-91.036876
 20
52.945629
 30
0.0
 11
-90.885935
 21
53.286775
 31
0.0
  0
LINE
  5
165
330
1F
100
AcDbEntity
  8
DRAW
  6
CONTINUOUS
 62
     7
100
AcDbLine
 10
-91.036876
 20
52.945629
 30
0.0
 11
-90.809467
 21
52.845011
 31
0.0
  0
LINE
  5
166
330
1F
100
AcDbEntity
  8
DRAW
  6
CONTINUOUS
 62
     7
100
AcDbLine
 10
-90.809467
 20
52.845011
 30
0.0
 11
-90.465029
 21
53.623485
 31
0.0
  0
SPLINE
  5
167
330
1F
100
AcDbEntity
  8
DRAW
  6
CONTINUOUS
 62
     7
100
AcDbSpline
210
0.0
220
0.0
230
1.0
 70
     8
 71
     3
 72
    11
 73
     7
 74
     0
 42
0.0
 43
0.0
 40
0.0
 40
0.0
 40
0.0
 40
0.0
 40
0.0971384075870546
 40
0.2309270276904131
 40
0.3898564959741779
 40
0.475441765320457
 40
0.475441765320457
 40
0.475441765320457
 40
0.475441765320457
 10
-92.07795233516478
 20
52.56984265624573
 30
0.0
 10
-92.077952336576
 20
52.56984265624605
 30
0.0
 10
-92.07279206183739
 20
52.58150553946005
 30
0.0
 10
-92.04442147095094
 20
52.64562668533717
 30
0.0
 10
-91.99896967770141
 20
52.74835351091325
 30
0.0
 10
-91.9659080610247
 20
52.82307696010582
 30
0.0
 10
-91.95439903334236
 20
52.84908882277353
 30
0.0
  0
LINE
  5
168
330
1F
100
AcDbEntity
  8
DRAW
  6
CONTINUOUS
 62
     7
100
AcDbLine
 10
-91.768465
 20
53.269323
 30
0.0
 11
-91.954399
 21
52.849089
 31
0.0
  0
LINE
  5
169
330
1F
100
AcDbEntity
  8
DRAW
  6
CONTINUOUS
 62
     7
100
AcDbLine
 10
-91.768465
 20
53.269323
 30
0.0
 11
-91.617524
 21
53.610468
 31
0.0
  0
LINE
  5
16A
330
1F
100
AcDbEntity
  8
DRAW
  6
CONTINUOUS
 62
     7
100
AcDbLine
 10
-91.995977
 20
53.369986
 30
0.0
 11
-91.768465
 21
53.269323
 31
0.0
  0
LINE
  5
16B
330
1F
100
AcDbEntity
  8
DRAW
  6
CONTINUOUS
 62
     7
100
AcDbLine
 10
-91.651539
 20
54.14846
 30
0.0
 11
-91.995977
 21
53.369986
 31
0.0
  0
LINE
  5
16C
330
1F
100
AcDbEntity
  8
DRAW
  6
CONTINUOUS
 62
     7
100
AcDbLine
 10
-92.430013
 20
54.492898
 30
0.0
 11
-91.651539
 21
54.14846
 31
0.0
  0
LINE
  5
16D
330
1F
100
AcDbEntity
  8
DRAW
  6
CONTINUOUS
 62
     7
100
AcDbLine
 10
-87.945674
 20
50.079251
 30
0.0
 11
-87.945674
 21
49.379251
 31
0.0
  0
LINE
  5
16E
330
1F
100
AcDbEntity
  8
DRAW
  6
CONTINUOUS
 62
     7
100
AcDbLine
 10
-87.845673
 20
49.379251
 30
0.0
 11
-87.945673
 21
49.379251
 31
0.0
  0
LINE
  5
16F
330
1F
100
AcDbEntity
  8
DRAW
  6
CONTINUOUS
 62
     7
100
AcDbLine
 10
-89.513489
 20
45.388343
 30
0.0
 11
-89.637042
 21
45.109097
 31
0.0
  0
LINE
  5
170
330
1F
100
AcDbEntity
  8
DRAW
  6
CONTINUOUS
 62
     7
100
AcDbLine
 10
-89.823025
 20
44.688749
 30
0.0
 11
-89.637042
 21
45.109097
 31
0.0
  0
LINE
  5
171
330
1F
100
AcDbEntity
  8
DRAW
  6
CONTINUOUS
 62
     7
100
AcDbLine
 10
-89.823025
 20
44.688749
 30
0.0
 11
-89.973966
 21
44.347604
 31
0.0
  0
LINE
  5
172
330
1F
100
AcDbEntity
  8
DRAW
  6
CONTINUOUS
 62
     7
100
AcDbLine
 10
-89.595616
 20
44.588132
 30
0.0
 11
-89.823025
 21
44.688749
 31
0.0
  0
LINE
  5
173
330
1F
100
AcDbEntity
  8
DRAW
  6
CONTINUOUS
 62
     7
100
AcDbLine
 10
-90.245078
 20
45.712036
 30
0.0
 11
-90.368631
 21
45.43279
 31
0.0
  0
LINE
  5
174
330
1F
100
AcDbEntity
  8
DRAW
  6
CONTINUOUS
 62
     7
100
AcDbLine
 10
-87.795674
 20
51.479251
 30
0.0
 11
-87.795674
 21
55.279251
 31
0.0
  0
LINE
  5
175
330
1F
100
AcDbEntity
  8
DRAW
  6
CONTINUOUS
 62
     7
100
AcDbLine
 10
-87.845674
 20
51.37925
 30
0.0
 11
-87.945674
 21
51.37925
 31
0.0
  0
ARC
  5
176
330
1F
100
AcDbEntity
  8
DRAW
  6
CONTINUOUS
 62
     7
100
AcDbCircle
 10
87.995674
 20
55.279251
 30
0.0
 40
0.2000000029802322
210
0.0
220
0.0
230
-1.0
100
AcDbArc
 50
138.59076
 51
180.0
  0
LINE
  5
177
330
1F
100
AcDbEntity
  8
DRAW
  6
CONTINUOUS
 62
     7
100
AcDbLine
 10
-89.161579
 20
54.465557
 30
0.0
 11
-89.940053
 21
54.809995
 31
0.0
  0
LINE
  5
178
330
1F
100
AcDbEntity
  8
DRAW
  6
CONTINUOUS
 62
     7
100
AcDbLine
 10
-89.686555
 20
53.279047
 30
0.0
 11
-89.161579
 21
54.465557
 31
0.0
  0
LINE
  5
179
330
1F
100
AcDbEntity
  8
DRAW
  6
CONTINUOUS
 62
     7
100
AcDbLine
 10
-89.823025
 20
55.689087
 30
0.0
 11
-89.973966
 21
55.347942
 31
0.0
  0
LINE
  5
17A
330
1F
100
AcDbEntity
  8
DRAW
  6
CONTINUOUS
 62
     7
100
AcDbLine
 10
-89.595615
 20
55.588469
 30
0.0
 11
-89.823025
 21
55.689087
 31
0.0
  0
LINE
  5
17B
330
1F
100
AcDbEntity
  8
DRAW
  6
CONTINUOUS
 62
     7
100
AcDbLine
 10
-89.940053
 20
54.809995
 30
0.0
 11
-89.595615
 21
55.588469
 31
0.0
  0
ARC
  5
17C
330
1F
100
AcDbEntity
  8
DRAW
  6
CONTINUOUS
 62
     7
100
AcDbCircle
 10
-87.995674
 20
51.479251
 30
0.0
 40
0.2000000029802322
100
AcDbArc
 50
284.477774
 51
0.0
  0
LINE
  5
17D
330
1F
100
AcDbEntity
  8
DRAW
  6
CONTINUOUS
 62
     7
100
AcDbLine
 10
-87.945674
 20
51.37925
 30
0.0
 11
-87.945674
 21
50.079251
 31
0.0
  0
LINE
  5
17E
330
1F
100
AcDbEntity
  8
DRAW
  6
CONTINUOUS
 62
     7
100
AcDbLine
 10
-87.945674
 20
57.879251
 30
0.0
 11
-93.445674
 21
57.879251
 31
0.0
  0
LINE
  5
17F
330
1F
100
AcDbEntity
  8
DRAW
  6
CONTINUOUS
 62
     7
100
AcDbLine
 10
-90.445673
 20
61.679249
 30
0.0
 11
-92.445673
 21
61.679249
 31
0.0
  0
LINE
  5
180
330
1F
100
AcDbEntity
  8
DRAW
  6
CONTINUOUS
 62
     7
100
AcDbLine
 10
-90.445673
 20
63.679249
 30
0.0
 11
-92.445673
 21
63.679249
 31
0.0
  0
LINE
  5
181
330
1F
100
AcDbEntity
  8
DRAW
  6
CONTINUOUS
 62
     7
100
AcDbLine
 10
-90.36863
 20
56.433128
 30
0.0
 11
-90.554614
 21
56.012781
 31
0.0
  0
LINE
  5
182
330
1F
100
AcDbEntity
  8
DRAW
  6
CONTINUOUS
 62
     7
100
AcDbLine
 10
-94.813488
 20
56.388681
 30
0.0
 11
-94.937041
 21
56.109435
 31
0.0
  0
LINE
  5
183
330
1F
100
AcDbEntity
  8
DRAW
  6
CONTINUOUS
 62
     7
100
AcDbLine
 10
-95.545077
 20
56.712374
 30
0.0
 11
-95.66863
 21
56.433128
 31
0.0
  0
LINE
  5
184
330
1F
100
AcDbEntity
  8
DRAW
  6
CONTINUOUS
 62
     7
100
AcDbLine
 10
-95.66863
 20
56.433128
 30
0.0
 11
-95.854614
 21
56.012781
 31
0.0
  0
LINE
  5
185
330
1F
100
AcDbEntity
  8
DRAW
  6
CONTINUOUS
 62
     7
100
AcDbLine
 10
-95.854614
 20
56.012781
 30
0.0
 11
-96.082126
 21
56.113445
 31
0.0
  0
LINE
  5
186
330
1F
100
AcDbEntity
  8
DRAW
  6
CONTINUOUS
 62
     7
100
AcDbLine
 10
-90.554614
 20
56.012781
 30
0.0
 11
-90.782126
 21
56.113445
 31
0.0
  0
LINE
  5
187
330
1F
100
AcDbEntity
  8
DRAW
  6
CONTINUOUS
 62
     7
100
AcDbLine
 10
-92.445673
 20
63.679249
 30
0.0
 11
-92.445673
 21
61.679249
 31
0.0
  0
LINE
  5
188
330
1F
100
AcDbEntity
  8
DRAW
  6
CONTINUOUS
 62
     7
100
AcDbLine
 10
-87.845674
 20
59.879252
 30
0.0
 11
-87.945674
 21
59.879252
 31
0.0
  0
LINE
  5
189
330
1F
100
AcDbEntity
  8
DRAW
  6
CONTINUOUS
 62
     7
100
AcDbLine
 10
-87.945674
 20
58.879251
 30
0.0
 11
-87.945674
 21
59.879252
 31
0.0
  0
LINE
  5
18A
330
1F
100
AcDbEntity
  8
DRAW
  6
CONTINUOUS
 62
     7
100
AcDbLine
 10
-87.945674
 20
58.879251
 30
0.0
 11
-87.945674
 21
57.879251
 31
0.0
  0
LINE
  5
18B
330
1F
100
AcDbEntity
  8
DRAW
  6
CONTINUOUS
 62
     7
100
AcDbLine
 10
-87.845674
 20
57.879251
 30
0.0
 11
-87.945674
 21
57.879251
 31
0.0
  0
LINE
  5
18C
330
1F
100
AcDbEntity
  8
DRAW
  6
CONTINUOUS
 62
     7
100
AcDbLine
 10
-89.513488
 20
56.388681
 30
0.0
 11
-89.637041
 21
56.109435
 31
0.0
  0
LINE
  5
18D
330
1F
100
AcDbEntity
  8
DRAW
  6
CONTINUOUS
 62
     7
100
AcDbLine
 10
-90.245076
 20
56.712374
 30
0.0
 11
-90.36863
 21
56.433128
 31
0.0
  0
LINE
  5
18E
330
1F
100
AcDbEntity
  8
DRAW
  6
CONTINUOUS
 62
     7
100
AcDbLine
 10
-90.445673
 20
63.679249
 30
0.0
 11
-90.445673
 21
61.679249
 31
0.0
  0
TEXT
  5
18F
330
1F
100
AcDbEntity
  8
DRAW-TEXT
  6
CONTINUOUS
 62
     1
100
AcDbText
 10
-29.474309
 20
-48.245071
 30
0.0
 40
1.8
  1
PRODUCT TYPE
 50
359.999908
 41
0.71
  7
FINDER
100
AcDbText
  0
TEXT
  5
190
330
1F
100
AcDbEntity
  8
DRAW-TEXT
  6
CONTINUOUS
 62
     1
100
AcDbText
 10
-73.913882
 20
-68.90476
 30
0.0
 40
2.1
  1
0
 50
359.999908
  7
FINDER
100
AcDbText
  0
TEXT
  5
191
330
1F
100
AcDbEntity
  8
DRAW-TEXT
  6
CONTINUOUS
 62
     1
100
AcDbText
 10
-75.608862
 20
-64.056733
 30
0.0
 40
1.8
  1
REV.
 50
359.999908
 41
0.75
  7
FINDER
100
AcDbText
  0
LINE
  5
192
330
1F
100
AcDbEntity
  8
CARTOUCHE
  6
CONTINUOUS
 62
     7
100
AcDbLine
 10
-47.427923
 20
-60.678072
 30
0.0
 11
-47.427923
 21
-70.680014
 31
0.0
  0
TEXT
  5
193
330
1F
100
AcDbEntity
  8
DRAW-TEXT
  6
CONTINUOUS
 62
     1
100
AcDbText
 10
-26.162455
 20
-68.904832
 30
0.0
 40
2.1
  1
30/06/09
 50
359.999908
 41
0.71
  7
FINDER
100
AcDbText
  0
TEXT
  5
194
330
1F
100
AcDbEntity
  8
DRAW-TEXT
  6
CONTINUOUS
 62
     1
100
AcDbText
 10
-24.277161
 20
-64.05681
 30
0.0
 40
1.8
  1
DATE
 50
359.999908
 41
0.73
  7
FINDER
100
AcDbText
  0
TEXT
  5
195
330
1F
100
AcDbEntity
  8
DRAW-TEXT
  6
CONTINUOUS
 62
     1
100
AcDbText
 10
-25.789672
 20
-58.245076
 30
0.0
 40
3.0
  1
19.21
 50
359.999908
 41
0.79
  7
FINDER
100
AcDbText
  0
LINE
  5
196
330
1F
100
AcDbEntity
  8
CARTOUCHE
  6
CONTINUOUS
 62
     7
100
AcDbLine
 10
4.238756
 20
-60.678151
 30
0.0
 11
4.238756
 21
-70.680093
 31
0.0
  0
LINE
  5
197
330
1F
100
AcDbEntity
  8
DRAW
  6
CONTINUOUS
 62
     7
100
AcDbLine
 10
-5.394557
 20
59.879251
 30
0.0
 11
-57.894558
 21
59.879251
 31
0.0
  0
LINE
  5
198
330
1F
100
AcDbEntity
  8
DRAW
  6
CONTINUOUS
 62
     7
100
AcDbLine
 10
-62.194557
 20
57.879251
 30
0.0
 11
-16.394558
 21
57.879251
 31
0.0
  0
LINE
  5
199
330
1F
100
AcDbEntity
  8
DRAW
  6
CONTINUOUS
 62
     7
100
AcDbLine
 10
-16.394558
 20
51.379255
 30
0.0
 11
-35.894557
 21
51.379255
 31
0.0
  0
LINE
  5
19A
330
1F
100
AcDbEntity
  8
DRAW
  6
CONTINUOUS
 62
     7
100
AcDbLine
 10
-33.394558
 20
49.379252
 30
0.0
 11
-17.094558
 21
49.379252
 31
0.0
  0
LINE
  5
19B
330
1F
100
AcDbEntity
  8
DRAW
  6
CONTINUOUS
 62
     7
100
AcDbLine
 10
-38.894565
 20
51.379255
 30
0.0
 11
-62.194557
 21
51.379255
 31
0.0
  0
LINE
  5
19C
330
1F
100
AcDbEntity
  8
DRAW
  6
CONTINUOUS
 62
     7
100
AcDbLine
 10
-33.394558
 20
40.379251
 30
0.0
 11
-61.294556
 21
40.379251
 31
0.0
  0
LINE
  5
19D
330
1F
100
AcDbEntity
  8
DRAW
  6
CONTINUOUS
 62
     7
100
AcDbLine
 10
-62.194557
 20
49.379252
 30
0.0
 11
-33.394558
 21
49.379252
 31
0.0
  0
LINE
  5
19E
330
1F
100
AcDbEntity
  8
DRAW
  6
CONTINUOUS
 62
     7
100
AcDbLine
 10
-34.494558
 20
38.379251
 30
0.0
 11
-59.894558
 21
38.379251
 31
0.0
  0
LINE
  5
19F
330
1F
100
AcDbEntity
  8
DRAW
  6
CONTINUOUS
 62
     7
100
AcDbLine
 10
-62.194557
 20
41.379255
 30
0.0
 11
-62.194557
 21
49.379252
 31
0.0
  0
LINE
  5
1A0
330
1F
100
AcDbEntity
  8
DRAW
  6
CONTINUOUS
 62
     7
100
AcDbLine
 10
-64.194557
 20
53.729254
 30
0.0
 11
-64.194557
 21
41.379255
 31
0.0
  0
LINE
  5
1A1
330
1F
100
AcDbEntity
  8
DRAW
  6
CONTINUOUS
 62
     7
100
AcDbLine
 10
-63.694558
 20
34.879255
 30
0.0
 11
-61.494556
 21
34.879255
 31
0.0
  0
LINE
  5
1A2
330
1F
100
AcDbEntity
  8
DRAW
  6
CONTINUOUS
 62
     7
100
AcDbLine
 10
-64.194557
 20
35.479254
 30
0.0
 11
-61.494556
 21
35.479254
 31
0.0
  0
LINE
  5
1A3
330
1F
100
AcDbEntity
  8
DRAW
  6
CONTINUOUS
 62
     7
100
AcDbLine
 10
-64.194557
 20
41.379255
 30
0.0
 11
-62.194557
 21
41.379255
 31
0.0
  0
LINE
  5
1A4
330
1F
100
AcDbEntity
  8
DRAW
  6
CONTINUOUS
 62
     7
100
AcDbLine
 10
-64.194557
 20
41.379255
 30
0.0
 11
-64.194557
 21
35.479254
 31
0.0
  0
LINE
  5
1A5
330
1F
100
AcDbEntity
  8
DRAW
  6
CONTINUOUS
 62
     7
100
AcDbLine
 10
-64.194557
 20
35.479254
 30
0.0
 11
-64.194557
 21
35.379255
 31
0.0
  0
LINE
  5
1A6
330
1F
100
AcDbEntity
  8
DRAW
  6
CONTINUOUS
 62
     7
100
AcDbLine
 10
-63.694558
 20
34.879255
 30
0.0
 11
-64.194558
 21
35.379255
 31
0.0
  0
LINE
  5
1A7
330
1F
100
AcDbEntity
  8
DRAW
  6
CONTINUOUS
 62
     7
100
AcDbLine
 10
-61.294557
 20
39.879255
 30
0.0
 11
-61.294557
 21
38.379252
 31
0.0
  0
LINE
  5
1A8
330
1F
100
AcDbEntity
  8
DRAW
  6
CONTINUOUS
 62
     7
100
AcDbLine
 10
-59.894558
 20
39.879255
 30
0.0
 11
-59.894558
 21
38.379251
 31
0.0
  0
LINE
  5
1A9
330
1F
100
AcDbEntity
  8
DRAW
  6
CONTINUOUS
 62
     7
100
AcDbLine
 10
-59.294557
 20
35.374437
 30
0.0
 11
-61.294564
 21
35.479253
 31
0.0
  0
LINE
  5
1AA
330
1F
100
AcDbEntity
  8
DRAW
  6
CONTINUOUS
 62
     7
100
AcDbLine
 10
-61.494556
 20
35.479254
 30
0.0
 11
-61.294564
 21
35.479254
 31
0.0
  0
LINE
  5
1AB
330
1F
100
AcDbEntity
  8
DRAW
  6
CONTINUOUS
 62
     7
100
AcDbLine
 10
-61.494556
 20
34.879255
 30
0.0
 11
-61.494556
 21
35.479254
 31
0.0
  0
LINE
  5
1AC
330
1F
100
AcDbEntity
  8
DRAW
  6
CONTINUOUS
 62
     7
100
AcDbLine
 10
-61.294557
 20
38.379252
 30
0.0
 11
-59.894558
 21
38.379252
 31
0.0
  0
LINE
  5
1AD
330
1F
100
AcDbEntity
  8
DRAW
  6
CONTINUOUS
 62
     7
100
AcDbLine
 10
-59.294557
 20
38.379252
 30
0.0
 11
-59.294557
 21
35.374437
 31
0.0
  0
LINE
  5
1AE
330
1F
100
AcDbEntity
  8
DRAW
  6
CONTINUOUS
 62
     7
100
AcDbLine
 10
-61.294556
 20
39.879255
 30
0.0
 11
-61.294556
 21
40.379251
 31
0.0
  0
LINE
  5
1AF
330
1F
100
AcDbEntity
  8
DRAW
  6
CONTINUOUS
 62
     7
100
AcDbLine
 10
-61.294556
 20
41.379255
 30
0.0
 11
-62.194557
 21
41.379255
 31
0.0
  0
LINE
  5
1B0
330
1F
100
AcDbEntity
  8
DRAW
  6
CONTINUOUS
 62
     7
100
AcDbLine
 10
-61.294556
 20
40.379251
 30
0.0
 11
-61.294556
 21
41.379255
 31
0.0
  0
LINE
  5
1B1
330
1F
100
AcDbEntity
  8
DRAW
  6
CONTINUOUS
 62
     7
100
AcDbLine
 10
-61.294556
 20
39.879255
 30
0.0
 11
-59.894558
 21
39.879255
 31
0.0
  0
LINE
  5
1B2
330
1F
100
AcDbEntity
  8
DRAW
  6
CONTINUOUS
 62
     7
100
AcDbLine
 10
-62.194557
 20
55.729256
 30
0.0
 11
-62.194557
 21
57.879251
 31
0.0
  0
LINE
  5
1B3
330
1F
100
AcDbEntity
  8
DRAW
  6
CONTINUOUS
 62
     7
100
AcDbLine
 10
-64.194558
 20
62.379251
 30
0.0
 11
-64.194557
 21
55.729256
 31
0.0
  0
LINE
  5
1B4
330
1F
100
AcDbEntity
  8
DRAW
  6
CONTINUOUS
 62
     7
100
AcDbLine
 10
-64.194557
 20
55.729256
 30
0.0
 11
-62.194557
 21
55.729256
 31
0.0
  0
LINE
  5
1B5
330
1F
100
AcDbEntity
  8
DRAW
  6
CONTINUOUS
 62
     7
100
AcDbLine
 10
-64.194557
 20
53.729254
 30
0.0
 11
-62.194557
 21
53.729254
 31
0.0
  0
LINE
  5
1B6
330
1F
100
AcDbEntity
  8
DRAW
  6
CONTINUOUS
 62
     7
100
AcDbLine
 10
-64.194557
 20
55.729256
 30
0.0
 11
-64.194557
 21
54.279253
 31
0.0
  0
LINE
  5
1B7
330
1F
100
AcDbEntity
  8
DRAW
  6
CONTINUOUS
 62
     7
100
AcDbLine
 10
-64.194557
 20
53.979253
 30
0.0
 11
-64.194557
 21
54.279253
 31
0.0
  0
LINE
  5
1B8
330
1F
100
AcDbEntity
  8
DRAW
  6
CONTINUOUS
 62
     7
100
AcDbLine
 10
-64.194557
 20
53.729254
 30
0.0
 11
-64.194557
 21
53.979253
 31
0.0
  0
LINE
  5
1B9
330
1F
100
AcDbEntity
  8
DRAW
  6
CONTINUOUS
 62
     7
100
AcDbLine
 10
-59.894558
 20
55.729256
 30
0.0
 11
-59.894558
 21
53.729254
 31
0.0
  0
LINE
  5
1BA
330
1F
100
AcDbEntity
  8
DRAW
  6
CONTINUOUS
 62
     7
100
AcDbLine
 10
-62.194557
 20
51.379255
 30
0.0
 11
-62.194557
 21
53.729254
 31
0.0
  0
LINE
  5
1BB
330
1F
100
AcDbEntity
  8
DRAW
  6
CONTINUOUS
 62
     7
100
AcDbLine
 10
-62.194557
 20
55.729256
 30
0.0
 11
-59.894558
 21
55.729256
 31
0.0
  0
LINE
  5
1BC
330
1F
100
AcDbEntity
  8
DRAW
  6
CONTINUOUS
 62
     7
100
AcDbLine
 10
-62.194557
 20
53.729254
 30
0.0
 11
-59.894558
 21
53.729254
 31
0.0
  0
LINE
  5
1BD
330
1F
100
AcDbEntity
  8
DRAW
  6
CONTINUOUS
 62
     7
100
AcDbLine
 10
-64.194557
 20
62.734098
 30
0.0
 11
-62.394557
 21
64.879254
 31
0.0
  0
LINE
  5
1BE
330
1F
100
AcDbEntity
  8
DRAW
  6
CONTINUOUS
 62
     7
100
AcDbLine
 10
-64.194558
 20
62.379251
 30
0.0
 11
-59.894558
 21
62.379251
 31
0.0
  0
LINE
  5
1BF
330
1F
100
AcDbEntity
  8
DRAW
  6
CONTINUOUS
 62
     7
100
AcDbLine
 10
-64.194557
 20
62.734098
 30
0.0
 11
-64.194557
 21
62.379251
 31
0.0
  0
LINE
  5
1C0
330
1F
100
AcDbEntity
  8
DRAW
  6
CONTINUOUS
 62
     7
100
AcDbLine
 10
-62.394557
 20
64.879254
 30
0.0
 11
-61.294557
 21
64.879254
 31
0.0
  0
LINE
  5
1C1
330
1F
100
AcDbEntity
  8
DRAW
  6
CONTINUOUS
 62
     7
100
AcDbLine
 10
-61.294557
 20
64.879254
 30
0.0
 11
-61.294557
 21
63.579252
 31
0.0
  0
LINE
  5
1C2
330
1F
100
AcDbEntity
  8
DRAW
  6
CONTINUOUS
 62
     7
100
AcDbLine
 10
-61.294557
 20
63.579252
 30
0.0
 11
-60.094557
 21
63.579252
 31
0.0
  0
LINE
  5
1C3
330
1F
100
AcDbEntity
  8
DRAW
  6
CONTINUOUS
 62
     7
100
AcDbLine
 10
-60.094557
 20
63.579252
 30
0.0
 11
-60.094557
 21
62.379251
 31
0.0
  0
LINE
  5
1C4
330
1F
100
AcDbEntity
  8
DRAW
  6
CONTINUOUS
 62
     7
100
AcDbLine
 10
-61.294557
 20
63.579252
 30
0.0
 11
-61.294557
 21
62.379251
 31
0.0
  0
LINE
  5
1C5
330
1F
100
AcDbEntity
  8
DRAW
  6
CONTINUOUS
 62
     7
100
AcDbLine
 10
-33.394558
 20
49.379253
 30
0.0
 11
-33.394558
 21
40.379251
 31
0.0
  0
ARC
  5
1C6
330
1F
100
AcDbEntity
  8
DRAW
  6
CONTINUOUS
 62
     7
100
AcDbCircle
 10
-34.494558
 20
39.479251
 30
0.0
 40
1.100000023841856
100
AcDbArc
 50
270.0
 51
0.0
  0
LINE
  5
1C7
330
1F
100
AcDbEntity
  8
DRAW
  6
CONTINUOUS
 62
     7
100
AcDbLine
 10
-33.394558
 20
39.479251
 30
0.0
 11
-33.394558
 21
40.379251
 31
0.0
  0
ARC
  5
1C8
330
1F
100
AcDbEntity
  8
DRAW
  6
CONTINUOUS
 62
     7
100
AcDbCircle
 10
37.394561
 20
53.379251
 30
0.0
 40
2.5
210
0.0
220
0.0
230
-1.0
100
AcDbArc
 50
306.870024
 51
90.0
  0
ARC
  5
1C9
330
1F
100
AcDbEntity
  8
DRAW
  6
CONTINUOUS
 62
     7
100
AcDbCircle
 10
37.394561
 20
53.379251
 30
0.0
 40
2.5
210
0.0
220
0.0
230
-1.0
100
AcDbArc
 50
90.0
 51
233.129976
  0
ARC
  5
1CA
330
1F
100
AcDbEntity
  8
DRAW
  6
CONTINUOUS
 62
     7
100
AcDbCircle
 10
37.394561
 20
53.379251
 30
0.0
 40
2.5
210
0.0
220
0.0
230
-1.0
100
AcDbArc
 50
233.129976
 51
306.870024
  0
LINE
  5
1CB
330
1F
100
AcDbEntity
  8
DRAW
  6
CONTINUOUS
 62
     7
100
AcDbLine
 10
-4.394558
 20
57.879251
 30
0.0
 11
-16.394558
 21
57.879251
 31
0.0
  0
LINE
  5
1CC
330
1F
100
AcDbEntity
  8
DRAW
  6
CONTINUOUS
 62
     7
100
AcDbLine
 10
-16.394558
 20
57.879251
 30
0.0
 11
-16.394558
 21
51.379255
 31
0.0
  0
ARC
  5
1CD
330
1F
100
AcDbEntity
  8
DRAW
  6
CONTINUOUS
 62
     7
100
AcDbCircle
 10
-17.094558
 20
50.079253
 30
0.0
 40
0.6999999880790709
100
AcDbArc
 50
270.0
 51
0.0
  0
LINE
  5
1CE
330
1F
100
AcDbEntity
  8
DRAW
  6
CONTINUOUS
 62
     7
100
AcDbLine
 10
-16.394558
 20
50.079253
 30
0.0
 11
-16.394558
 21
51.379255
 31
0.0
  0
ARC
  5
1CF
330
1F
100
AcDbEntity
  8
DRAW
  6
CONTINUOUS
 62
     7
100
AcDbCircle
 10
-4.394558
 20
58.879251
 30
0.0
 40
0.9999999999999999
100
AcDbArc
 50
270.0
 51
0.0
  0
LINE
  5
1D0
330
1F
100
AcDbEntity
  8
DRAW
  6
CONTINUOUS
 62
     7
100
AcDbLine
 10
-87.845673
 20
111.379249
 30
0.0
 11
-87.845673
 21
120.379251
 31
0.0
  0
LINE
  5
1D1
330
1F
100
AcDbEntity
  8
DRAW
  6
CONTINUOUS
 62
     7
100
AcDbLine
 10
-99.045673
 20
120.379248
 30
0.0
 11
-99.045673
 21
111.379251
 31
0.0
  0
LINE
  5
1D2
330
1F
100
AcDbEntity
  8
DRAW
  6
CONTINUOUS
 62
     7
100
AcDbLine
 10
-89.695676
 20
86.37925
 30
0.0
 11
-89.695676
 21
74.37925
 31
0.0
  0
LINE
  5
1D3
330
1F
100
AcDbEntity
  8
DRAW
  6
CONTINUOUS
 62
     7
100
AcDbLine
 10
-94.945676
 20
86.37925
 30
0.0
 11
-94.945676
 21
74.37925
 31
0.0
  0
LINE
  5
1D4
330
1F
100
AcDbEntity
  8
DRAW
  6
CONTINUOUS
 62
     7
100
AcDbLine
 10
-94.945676
 20
74.37925
 30
0.0
 11
-89.695676
 21
74.37925
 31
0.0
  0
LINE
  5
1D5
330
1F
100
AcDbEntity
  8
DRAW
  6
CONTINUOUS
 62
     7
100
AcDbLine
 10
-94.445676
 20
81.279251
 30
0.0
 11
-90.195676
 21
81.279251
 31
0.0
  0
LINE
  5
1D6
330
1F
100
AcDbEntity
  8
DRAW
  6
CONTINUOUS
 62
     7
100
AcDbLine
 10
-94.445676
 20
80.679251
 30
0.0
 11
-90.195676
 21
80.679251
 31
0.0
  0
LINE
  5
1D7
330
1F
100
AcDbEntity
  8
DRAW
  6
CONTINUOUS
 62
     7
100
AcDbLine
 10
-94.445676
 20
79.479251
 30
0.0
 11
-90.195676
 21
79.479251
 31
0.0
  0
LINE
  5
1D8
330
1F
100
AcDbEntity
  8
DRAW
  6
CONTINUOUS
 62
     7
100
AcDbLine
 10
-94.445676
 20
80.079251
 30
0.0
 11
-90.195676
 21
80.079251
 31
0.0
  0
LINE
  5
1D9
330
1F
100
AcDbEntity
  8
DRAW
  6
CONTINUOUS
 62
     7
100
AcDbLine
 10
-90.195676
 20
81.679251
 30
0.0
 11
-94.445676
 21
81.679251
 31
0.0
  0
LINE
  5
1DA
330
1F
100
AcDbEntity
  8
DRAW
  6
CONTINUOUS
 62
     7
100
AcDbLine
 10
-89.695676
 20
86.37925
 30
0.0
 11
-94.945676
 21
86.37925
 31
0.0
  0
LINE
  5
1DB
330
1F
100
AcDbEntity
  8
DRAW
  6
CONTINUOUS
 62
     7
100
AcDbLine
 10
-90.195676
 20
79.079251
 30
0.0
 11
-94.445676
 21
79.079251
 31
0.0
  0
LINE
  5
1DC
330
1F
100
AcDbEntity
  8
DRAW
  6
CONTINUOUS
 62
     7
100
AcDbLine
 10
-94.445676
 20
80.679251
 30
0.0
 11
-94.445676
 21
80.979251
 31
0.0
  0
LINE
  5
1DD
330
1F
100
AcDbEntity
  8
DRAW
  6
CONTINUOUS
 62
     7
100
AcDbLine
 10
-94.445676
 20
80.379251
 30
0.0
 11
-94.445676
 21
80.679251
 31
0.0
  0
LINE
  5
1DE
330
1F
100
AcDbEntity
  8
DRAW
  6
CONTINUOUS
 62
     7
100
AcDbLine
 10
-94.445676
 20
81.579251
 30
0.0
 11
-94.445676
 21
81.679251
 31
0.0
  0
LINE
  5
1DF
330
1F
100
AcDbEntity
  8
DRAW
  6
CONTINUOUS
 62
     7
100
AcDbLine
 10
-94.445676
 20
81.279251
 30
0.0
 11
-94.445676
 21
81.579251
 31
0.0
  0
LINE
  5
1E0
330
1F
100
AcDbEntity
  8
DRAW
  6
CONTINUOUS
 62
     7
100
AcDbLine
 10
-94.445676
 20
80.979251
 30
0.0
 11
-94.445676
 21
81.279251
 31
0.0
  0
LINE
  5
1E1
330
1F
100
AcDbEntity
  8
DRAW
  6
CONTINUOUS
 62
     7
100
AcDbLine
 10
-94.445676
 20
79.079251
 30
0.0
 11
-94.445676
 21
79.179251
 31
0.0
  0
LINE
  5
1E2
330
1F
100
AcDbEntity
  8
DRAW
  6
CONTINUOUS
 62
     7
100
AcDbLine
 10
-94.445676
 20
79.179251
 30
0.0
 11
-94.445676
 21
79.479251
 31
0.0
  0
LINE
  5
1E3
330
1F
100
AcDbEntity
  8
DRAW
  6
CONTINUOUS
 62
     7
100
AcDbLine
 10
-94.445676
 20
79.779251
 30
0.0
 11
-94.445676
 21
80.079251
 31
0.0
  0
LINE
  5
1E4
330
1F
100
AcDbEntity
  8
DRAW
  6
CONTINUOUS
 62
     7
100
AcDbLine
 10
-94.445676
 20
79.479251
 30
0.0
 11
-94.445676
 21
79.779251
 31
0.0
  0
LINE
  5
1E5
330
1F
100
AcDbEntity
  8
DRAW
  6
CONTINUOUS
 62
     7
100
AcDbLine
 10
-94.445676
 20
80.079251
 30
0.0
 11
-94.445676
 21
80.379251
 31
0.0
  0
LINE
  5
1E6
330
1F
100
AcDbEntity
  8
DRAW
  6
CONTINUOUS
 62
     7
100
AcDbLine
 10
-90.195676
 20
80.679251
 30
0.0
 11
-90.195676
 21
80.979251
 31
0.0
  0
LINE
  5
1E7
330
1F
100
AcDbEntity
  8
DRAW
  6
CONTINUOUS
 62
     7
100
AcDbLine
 10
-90.195676
 20
80.379251
 30
0.0
 11
-90.195676
 21
80.679251
 31
0.0
  0
LINE
  5
1E8
330
1F
100
AcDbEntity
  8
DRAW
  6
CONTINUOUS
 62
     7
100
AcDbLine
 10
-90.195676
 20
81.579251
 30
0.0
 11
-90.195676
 21
81.679251
 31
0.0
  0
LINE
  5
1E9
330
1F
100
AcDbEntity
  8
DRAW
  6
CONTINUOUS
 62
     7
100
AcDbLine
 10
-90.195676
 20
81.279251
 30
0.0
 11
-90.195676
 21
81.579251
 31
0.0
  0
LINE
  5
1EA
330
1F
100
AcDbEntity
  8
DRAW
  6
CONTINUOUS
 62
     7
100
AcDbLine
 10
-90.195676
 20
80.979251
 30
0.0
 11
-90.195676
 21
81.279251
 31
0.0
  0
LINE
  5
1EB
330
1F
100
AcDbEntity
  8
DRAW
  6
CONTINUOUS
 62
     7
100
AcDbLine
 10
-90.195676
 20
79.079251
 30
0.0
 11
-90.195676
 21
79.179251
 31
0.0
  0
LINE
  5
1EC
330
1F
100
AcDbEntity
  8
DRAW
  6
CONTINUOUS
 62
     7
100
AcDbLine
 10
-90.195676
 20
79.179251
 30
0.0
 11
-90.195676
 21
79.479251
 31
0.0
  0
LINE
  5
1ED
330
1F
100
AcDbEntity
  8
DRAW
  6
CONTINUOUS
 62
     7
100
AcDbLine
 10
-90.195676
 20
79.779251
 30
0.0
 11
-90.195676
 21
80.079251
 31
0.0
  0
LINE
  5
1EE
330
1F
100
AcDbEntity
  8
DRAW
  6
CONTINUOUS
 62
     7
100
AcDbLine
 10
-90.195676
 20
79.479251
 30
0.0
 11
-90.195676
 21
79.779251
 31
0.0
  0
LINE
  5
1EF
330
1F
100
AcDbEntity
  8
DRAW
  6
CONTINUOUS
 62
     7
100
AcDbLine
 10
-90.195676
 20
80.079251
 30
0.0
 11
-90.195676
 21
80.379251
 31
0.0
  0
LINE
  5
1F0
330
1F
100
AcDbEntity
  8
DRAW
  6
CONTINUOUS
 62
     7
100
AcDbLine
 10
-97.729814
 20
106.29294
 30
0.0
 11
-96.951337
 21
105.948508
 31
0.0
  0
LINE
  5
1F1
330
1F
100
AcDbEntity
  8
DRAW
  6
CONTINUOUS
 62
     7
100
AcDbLine
 10
-97.204849
 20
107.479455
 30
0.0
 11
-97.729814
 21
106.29294
 31
0.0
  0
SPLINE
  5
1F2
330
1F
100
AcDbEntity
  8
DRAW
  6
CONTINUOUS
 62
     7
100
AcDbSpline
210
0.0
220
0.0
230
1.0
 70
     8
 71
     3
 72
    11
 73
     7
 74
     0
 42
0.0
 43
0.0
 40
0.0
 40
0.0
 40
0.0
 40
0.0
 40
0.0971384075870545
 40
0.2309270276904138
 40
0.3898564959742481
 40
0.4754417653202679
 40
0.4754417653202679
 40
0.4754417653202679
 40
0.4754417653202679
 10
-97.37788998029394
 20
104.3698189537075
 30
0.0
 10
-97.37788998170325
 20
104.3698189540787
 30
0.0
 10
-97.37272980580099
 20
104.3814818819132
 30
0.0
 10
-97.34435975832425
 20
104.4456032695272
 30
0.0
 10
-97.29890883566395
 20
104.548330481056
 30
0.0
 10
-97.26584785225566
 20
104.6230542105657
 30
0.0
 10
-97.25433904501959
 20
104.6490661707695
 30
0.0
  0
LINE
  5
1F3
330
1F
100
AcDbEntity
  8
DRAW
  6
CONTINUOUS
 62
     7
100
AcDbLine
 10
-97.295769
 20
105.170031
 30
0.0
 11
-97.068359
 21
105.069415
 31
0.0
  0
LINE
  5
1F4
330
1F
100
AcDbEntity
  8
DRAW
  6
CONTINUOUS
 62
     7
100
AcDbLine
 10
-96.951337
 20
105.948508
 30
0.0
 11
-97.295769
 21
105.170031
 31
0.0
  0
ARC
  5
1F5
330
1F
100
AcDbEntity
  8
DRAW
  6
CONTINUOUS
 62
     7
100
AcDbCircle
 10
-96.095674
 20
106.279251
 30
0.0
 40
2.35
100
AcDbArc
 50
90.0
 51
270.0
  0
LINE
  5
1F6
330
1F
100
AcDbEntity
  8
DRAW
  6
CONTINUOUS
 62
     7
100
AcDbLine
 10
-98.945674
 20
111.379251
 30
0.0
 11
-96.095674
 21
111.379251
 31
0.0
  0
LINE
  5
1F7
330
1F
100
AcDbEntity
  8
DRAW
  6
CONTINUOUS
 62
     7
100
AcDbLine
 10
-98.445674
 20
102.879251
 30
0.0
 11
-93.445674
 21
102.879251
 31
0.0
  0
LINE
  5
1F8
330
1F
100
AcDbEntity
  8
DRAW
  6
CONTINUOUS
 62
     7
100
AcDbLine
 10
-88.945674
 20
93.57925
 30
0.0
 11
-97.945674
 21
93.57925
 31
0.0
  0
LINE
  5
1F9
330
1F
100
AcDbEntity
  8
DRAW
  6
CONTINUOUS
 62
     7
100
AcDbLine
 10
-88.945674
 20
97.015038
 30
0.0
 11
-98.945674
 21
97.015038
 31
0.0
  0
LINE
  5
1FA
330
1F
100
AcDbEntity
  8
DRAW
  6
CONTINUOUS
 62
     7
100
AcDbLine
 10
-99.045674
 20
95.929251
 30
0.0
 11
-87.845674
 21
95.929251
 31
0.0
  0
LINE
  5
1FB
330
1F
100
AcDbEntity
  8
DRAW
  6
CONTINUOUS
 62
     7
100
AcDbLine
 10
-98.945674
 20
100.929252
 30
0.0
 11
-87.945674
 21
100.929252
 31
0.0
  0
LINE
  5
1FC
330
1F
100
AcDbEntity
  8
DRAW
  6
CONTINUOUS
 62
     7
100
AcDbLine
 10
-88.945674
 20
99.843465
 30
0.0
 11
-98.945674
 21
99.843465
 31
0.0
  0
LINE
  5
1FD
330
1F
100
AcDbEntity
  8
DRAW
  6
CONTINUOUS
 62
     7
100
AcDbLine
 10
-98.945674
 20
101.879251
 30
0.0
 11
-98.945674
 21
102.879251
 31
0.0
  0
LINE
  5
1FE
330
1F
100
AcDbEntity
  8
DRAW
  6
CONTINUOUS
 62
     7
100
AcDbLine
 10
-98.945674
 20
101.879251
 30
0.0
 11
-98.945674
 21
101.429252
 31
0.0
  0
LINE
  5
1FF
330
1F
100
AcDbEntity
  8
DRAW
  6
CONTINUOUS
 62
     7
100
AcDbLine
 10
-98.945674
 20
100.929252
 30
0.0
 11
-98.945674
 21
101.429252
 31
0.0
  0
LINE
  5
200
330
1F
100
AcDbEntity
  8
DRAW
  6
CONTINUOUS
 62
     7
100
AcDbLine
 10
-98.945674
 20
100.929252
 30
0.0
 11
-98.945674
 21
100.879251
 31
0.0
  0
LINE
  5
201
330
1F
100
AcDbEntity
  8
DRAW
  6
CONTINUOUS
 62
     7
100
AcDbLine
 10
-99.045674
 20
100.879251
 30
0.0
 11
-98.945674
 21
100.879251
 31
0.0
  0
ARC
  5
202
330
1F
100
AcDbEntity
  8
DRAW
  6
CONTINUOUS
 62
     7
100
AcDbCircle
 10
99.445674
 20
98.429252
 30
0.0
 40
1.500000021855246
210
0.0
220
0.0
230
-1.0
100
AcDbArc
 50
109.471211
 51
250.528789
  0
LINE
  5
203
330
1F
100
AcDbEntity
  8
DRAW
  6
CONTINUOUS
 62
     7
100
AcDbLine
 10
-99.195674
 20
106.129251
 30
0.0
 11
-99.195674
 21
108.629251
 31
0.0
  0
LINE
  5
204
330
1F
100
AcDbEntity
  8
DRAW
  6
CONTINUOUS
 62
     7
100
AcDbLine
 10
-99.045674
 20
109.379255
 30
0.0
 11
-99.045674
 21
102.879251
 31
0.0
  0
LINE
  5
205
330
1F
100
AcDbEntity
  8
DRAW
  6
CONTINUOUS
 62
     7
100
AcDbLine
 10
-99.045673
 20
106.129251
 30
0.0
 11
-99.195674
 21
106.129251
 31
0.0
  0
LINE
  5
206
330
1F
100
AcDbEntity
  8
DRAW
  6
CONTINUOUS
 62
     7
100
AcDbLine
 10
-98.945674
 20
102.879251
 30
0.0
 11
-98.445674
 21
102.879251
 31
0.0
  0
LINE
  5
207
330
1F
100
AcDbEntity
  8
DRAW
  6
CONTINUOUS
 62
     7
100
AcDbLine
 10
-99.045674
 20
102.879251
 30
0.0
 11
-98.945674
 21
102.879251
 31
0.0
  0
LINE
  5
208
330
1F
100
AcDbEntity
  8
DRAW
  6
CONTINUOUS
 62
     7
100
AcDbLine
 10
-98.945674
 20
109.379255
 30
0.0
 11
-98.945674
 21
110.679251
 31
0.0
  0
LINE
  5
209
330
1F
100
AcDbEntity
  8
DRAW
  6
CONTINUOUS
 62
     7
100
AcDbLine
 10
-99.045674
 20
109.379255
 30
0.0
 11
-98.945674
 21
109.379255
 31
0.0
  0
LINE
  5
20A
330
1F
100
AcDbEntity
  8
DRAW
  6
CONTINUOUS
 62
     7
100
AcDbLine
 10
-99.045673
 20
111.379251
 30
0.0
 11
-98.945673
 21
111.379251
 31
0.0
  0
LINE
  5
20B
330
1F
100
AcDbEntity
  8
DRAW
  6
CONTINUOUS
 62
     7
100
AcDbLine
 10
-98.945674
 20
110.679251
 30
0.0
 11
-98.945674
 21
111.379251
 31
0.0
  0
LINE
  5
20C
330
1F
100
AcDbEntity
  8
DRAW
  6
CONTINUOUS
 62
     7
100
AcDbLine
 10
-99.045673
 20
108.629251
 30
0.0
 11
-99.195674
 21
108.629251
 31
0.0
  0
LINE
  5
20D
330
1F
100
AcDbEntity
  8
DRAW
  6
CONTINUOUS
 62
     7
100
AcDbLine
 10
-87.945674
 20
102.879251
 30
0.0
 11
-87.945674
 21
101.87925
 31
0.0
  0
LINE
  5
20E
330
1F
100
AcDbEntity
  8
DRAW
  6
CONTINUOUS
 62
     7
100
AcDbLine
 10
-87.945674
 20
100.879253
 30
0.0
 11
-87.945674
 21
100.929252
 31
0.0
  0
LINE
  5
20F
330
1F
100
AcDbEntity
  8
DRAW
  6
CONTINUOUS
 62
     7
100
AcDbLine
 10
-87.845674
 20
100.879253
 30
0.0
 11
-87.945674
 21
100.879253
 31
0.0
  0
LINE
  5
210
330
1F
100
AcDbEntity
  8
DRAW
  6
CONTINUOUS
 62
     7
100
AcDbLine
 10
-87.945674
 20
101.429252
 30
0.0
 11
-87.945674
 21
100.929252
 31
0.0
  0
LINE
  5
211
330
1F
100
AcDbEntity
  8
DRAW
  6
CONTINUOUS
 62
     7
100
AcDbLine
 10
-87.945674
 20
101.87925
 30
0.0
 11
-87.945674
 21
101.429252
 31
0.0
  0
LINE
  5
212
330
1F
100
AcDbEntity
  8
DRAW
  6
CONTINUOUS
 62
     7
100
AcDbLine
 10
-88.945674
 20
99.843466
 30
0.0
 11
-87.945674
 21
99.843466
 31
0.0
  0
LINE
  5
213
330
1F
100
AcDbEntity
  8
DRAW
  6
CONTINUOUS
 62
     7
100
AcDbLine
 10
-88.945674
 20
97.015037
 30
0.0
 11
-87.945674
 21
97.015037
 31
0.0
  0
ARC
  5
214
330
1F
100
AcDbEntity
  8
DRAW
  6
CONTINUOUS
 62
     7
100
AcDbCircle
 10
87.445676
 20
98.429252
 30
0.0
 40
1.499999978144229
210
0.0
220
0.0
230
-1.0
100
AcDbArc
 50
289.471146
 51
70.528854
  0
LINE
  5
215
330
1F
100
AcDbEntity
  8
DRAW
  6
CONTINUOUS
 62
     7
100
AcDbLine
 10
-87.945674
 20
111.379249
 30
0.0
 11
-90.795674
 21
111.379249
 31
0.0
  0
ARC
  5
216
330
1F
100
AcDbEntity
  8
DRAW
  6
CONTINUOUS
 62
     7
100
AcDbCircle
 10
-90.795674
 20
106.279251
 30
0.0
 40
2.35
100
AcDbArc
 50
270.000001
 51
89.999999
  0
LINE
  5
217
330
1F
100
AcDbEntity
  8
DRAW
  6
CONTINUOUS
 62
     7
100
AcDbLine
 10
-90.3686
 20
108.233119
 30
0.0
 11
-90.55453
 21
107.812884
 31
0.0
  0
LINE
  5
218
330
1F
100
AcDbEntity
  8
DRAW
  6
CONTINUOUS
 62
     7
100
AcDbLine
 10
-89.973876
 20
107.14805
 30
0.0
 11
-90.705468
 21
107.471737
 31
0.0
  0
LINE
  5
219
330
1F
100
AcDbEntity
  8
DRAW
  6
CONTINUOUS
 62
     7
100
AcDbLine
 10
-90.464822
 20
105.423543
 30
0.0
 11
-89.686345
 21
105.079111
 31
0.0
  0
LINE
  5
21A
330
1F
100
AcDbEntity
  8
DRAW
  6
CONTINUOUS
 62
     7
100
AcDbLine
 10
-93.445674
 20
102.879251
 30
0.0
 11
-88.945674
 21
102.879251
 31
0.0
  0
LINE
  5
21B
330
1F
100
AcDbEntity
  8
DRAW
  6
CONTINUOUS
 62
     7
100
AcDbLine
 10
-90.55453
 20
107.812884
 30
0.0
 11
-90.705468
 21
107.471737
 31
0.0
  0
LINE
  5
21C
330
1F
100
AcDbEntity
  8
DRAW
  6
CONTINUOUS
 62
     7
100
AcDbLine
 10
-90.781941
 20
107.9135
 30
0.0
 11
-91.126372
 21
107.135023
 31
0.0
  0
LINE
  5
21D
330
1F
100
AcDbEntity
  8
DRAW
  6
CONTINUOUS
 62
     7
100
AcDbLine
 10
-95.122939
 20
107.489196
 30
0.0
 11
-94.937009
 21
107.909432
 31
0.0
  0
LINE
  5
21E
330
1F
100
AcDbEntity
  8
DRAW
  6
CONTINUOUS
 62
     7
100
AcDbLine
 10
-95.85453
 20
107.812884
 30
0.0
 11
-96.005468
 21
107.471737
 31
0.0
  0
LINE
  5
21F
330
1F
100
AcDbEntity
  8
DRAW
  6
CONTINUOUS
 62
     7
100
AcDbLine
 10
-96.081941
 20
107.9135
 30
0.0
 11
-96.426372
 21
107.135023
 31
0.0
  0
ARC
  5
220
330
1F
100
AcDbEntity
  8
DRAW
  6
CONTINUOUS
 62
     7
100
AcDbCircle
 10
-96.095674
 20
106.27925
 30
0.0
 40
2.35
100
AcDbArc
 50
270.0
 51
90.0
  0
ARC
  5
221
330
1F
100
AcDbEntity
  8
DRAW
  6
CONTINUOUS
 62
     7
100
AcDbCircle
 10
-90.795674
 20
106.27925
 30
0.0
 40
2.35
100
AcDbArc
 50
90.0
 51
270.0
  0
SPLINE
  5
222
330
1F
100
AcDbEntity
  8
DRAW
  6
CONTINUOUS
 62
     7
100
AcDbSpline
210
0.0
220
0.0
230
1.0
 70
     8
 71
     3
 72
    11
 73
     7
 74
     0
 42
0.0
 43
0.0
 40
0.0
 40
0.0
 40
0.0
 40
0.0
 40
0.0971384075870362
 40
0.2309270276903825
 40
0.3898564959742092
 40
0.4754417653204563
 40
0.4754417653204563
 40
0.4754417653204563
 40
0.4754417653204563
 10
-96.64629830890384
 20
104.0461314093802
 30
0.0
 10
-96.64629831031311
 20
104.0461314097514
 30
0.0
 10
-96.64113813441088
 20
104.0577943375861
 30
0.0
 10
-96.61276808693388
 20
104.1219157252
 30
0.0
 10
-96.56731716427383
 20
104.2246429367289
 30
0.0
 10
-96.5342561808653
 20
104.2993666662386
 30
0.0
 10
-96.52274737362937
 20
104.3253786264422
 30
0.0
  0
LINE
  5
223
330
1F
100
AcDbEntity
  8
DRAW
  6
CONTINUOUS
 62
     7
100
AcDbLine
 10
-97.068359
 20
105.069415
 30
0.0
 11
-97.254339
 21
104.649066
 31
0.0
  0
LINE
  5
224
330
1F
100
AcDbEntity
  8
DRAW
  6
CONTINUOUS
 62
     7
100
AcDbLine
 10
-96.522747
 20
104.325379
 30
0.0
 11
-96.336767
 21
104.745728
 31
0.0
  0
LINE
  5
225
330
1F
100
AcDbEntity
  8
DRAW
  6
CONTINUOUS
 62
     7
100
AcDbLine
 10
-95.273877
 20
107.14805
 30
0.0
 11
-96.005468
 21
107.471737
 31
0.0
  0
LINE
  5
226
330
1F
100
AcDbEntity
  8
DRAW
  6
CONTINUOUS
 62
     7
100
AcDbLine
 10
-95.122939
 20
107.489196
 30
0.0
 11
-95.273877
 21
107.14805
 31
0.0
  0
LINE
  5
227
330
1F
100
AcDbEntity
  8
DRAW
  6
CONTINUOUS
 62
     7
100
AcDbLine
 10
-96.185829
 20
105.086874
 30
0.0
 11
-96.917421
 21
105.410562
 31
0.0
  0
LINE
  5
228
330
1F
100
AcDbEntity
  8
DRAW
  6
CONTINUOUS
 62
     7
100
AcDbLine
 10
-97.068359
 20
105.069415
 30
0.0
 11
-96.917421
 21
105.410562
 31
0.0
  0
LINE
  5
229
330
1F
100
AcDbEntity
  8
DRAW
  6
CONTINUOUS
 62
     7
100
AcDbLine
 10
-96.336767
 20
104.745728
 30
0.0
 11
-96.185829
 21
105.086874
 31
0.0
  0
LINE
  5
22A
330
1F
100
AcDbEntity
  8
DRAW
  6
CONTINUOUS
 62
     7
100
AcDbLine
 10
-94.895426
 20
107.388535
 30
0.0
 11
-95.122939
 21
107.489196
 31
0.0
  0
LINE
  5
22B
330
1F
100
AcDbEntity
  8
DRAW
  6
CONTINUOUS
 62
     7
100
AcDbLine
 10
-96.336767
 20
104.745728
 30
0.0
 11
-96.109254
 21
104.645066
 31
0.0
  0
LINE
  5
22C
330
1F
100
AcDbEntity
  8
DRAW
  6
CONTINUOUS
 62
     7
100
AcDbLine
 10
-95.239857
 20
106.610058
 30
0.0
 11
-94.895426
 21
107.388535
 31
0.0
  0
LINE
  5
22D
330
1F
100
AcDbEntity
  8
DRAW
  6
CONTINUOUS
 62
     7
100
AcDbLine
 10
-95.764822
 20
105.423543
 30
0.0
 11
-94.986346
 21
105.079111
 31
0.0
  0
LINE
  5
22E
330
1F
100
AcDbEntity
  8
DRAW
  6
CONTINUOUS
 62
     7
100
AcDbLine
 10
-96.109254
 20
104.645066
 30
0.0
 11
-95.764822
 21
105.423543
 31
0.0
  0
LINE
  5
22F
330
1F
100
AcDbEntity
  8
DRAW
  6
CONTINUOUS
 62
     7
100
AcDbLine
 10
-96.426372
 20
107.135023
 30
0.0
 11
-97.204849
 21
107.479455
 31
0.0
  0
LINE
  5
230
330
1F
100
AcDbEntity
  8
DRAW
  6
CONTINUOUS
 62
     7
100
AcDbLine
 10
-94.46138
 20
106.265626
 30
0.0
 11
-95.239857
 21
106.610058
 31
0.0
  0
LINE
  5
231
330
1F
100
AcDbEntity
  8
DRAW
  6
CONTINUOUS
 62
     7
100
AcDbLine
 10
-94.986346
 20
105.079111
 30
0.0
 11
-94.46138
 21
106.265626
 31
0.0
  0
SPLINE
  5
232
330
1F
100
AcDbEntity
  8
DRAW
  6
CONTINUOUS
 62
     7
100
AcDbSpline
210
0.0
220
0.0
230
1.0
 70
     8
 71
     3
 72
    11
 73
     7
 74
     0
 42
0.0
 43
0.0
 40
0.0
 40
0.0
 40
0.0
 40
0.0
 40
0.0971384075870362
 40
0.2309270276903825
 40
0.3898564959742092
 40
0.4754417653204563
 40
0.4754417653204563
 40
0.4754417653204563
 40
0.4754417653204563
 10
-91.34629811816887
 20
104.0461314093802
 30
0.0
 10
-91.34629811957822
 20
104.0461314097514
 30
0.0
 10
-91.34113794367624
 20
104.0577943375861
 30
0.0
 10
-91.31276789619905
 20
104.1219157252
 30
0.0
 10
-91.26731697353887
 20
104.2246429367289
 30
0.0
 10
-91.23425599013045
 20
104.2993666662386
 30
0.0
 10
-91.22274718289466
 20
104.3253786264422
 30
0.0
  0
LINE
  5
233
330
1F
100
AcDbEntity
  8
DRAW
  6
CONTINUOUS
 62
     7
100
AcDbLine
 10
-91.222747
 20
104.325379
 30
0.0
 11
-91.036767
 21
104.745728
 31
0.0
  0
LINE
  5
234
330
1F
100
AcDbEntity
  8
DRAW
  6
CONTINUOUS
 62
     7
100
AcDbLine
 10
-91.036767
 20
104.745728
 30
0.0
 11
-90.885829
 21
105.086874
 31
0.0
  0
LINE
  5
235
330
1F
100
AcDbEntity
  8
DRAW
  6
CONTINUOUS
 62
     7
100
AcDbLine
 10
-91.036767
 20
104.745728
 30
0.0
 11
-90.809254
 21
104.645066
 31
0.0
  0
LINE
  5
236
330
1F
100
AcDbEntity
  8
DRAW
  6
CONTINUOUS
 62
     7
100
AcDbLine
 10
-90.809254
 20
104.645066
 30
0.0
 11
-90.464822
 21
105.423543
 31
0.0
  0
SPLINE
  5
237
330
1F
100
AcDbEntity
  8
DRAW
  6
CONTINUOUS
 62
     7
100
AcDbSpline
210
0.0
220
0.0
230
1.0
 70
     8
 71
     3
 72
    11
 73
     7
 74
     0
 42
0.0
 43
0.0
 40
0.0
 40
0.0
 40
0.0
 40
0.0
 40
0.0971384075870545
 40
0.2309270276904138
 40
0.3898564959742481
 40
0.4754417653202679
 40
0.4754417653202679
 40
0.4754417653202679
 40
0.4754417653202679
 10
-92.0778897895591
 20
104.3698189537075
 30
0.0
 10
-92.07788979096836
 20
104.3698189540787
 30
0.0
 10
-92.07272961506624
 20
104.3814818819132
 30
0.0
 10
-92.04435956758935
 20
104.4456032695272
 30
0.0
 10
-91.99890864492909
 20
104.548330481056
 30
0.0
 10
-91.96584766152081
 20
104.6230542105657
 30
0.0
 10
-91.95433885428471
 20
104.6490661707695
 30
0.0
  0
LINE
  5
238
330
1F
100
AcDbEntity
  8
DRAW
  6
CONTINUOUS
 62
     7
100
AcDbLine
 10
-91.768358
 20
105.069415
 30
0.0
 11
-91.954339
 21
104.649066
 31
0.0
  0
LINE
  5
239
330
1F
100
AcDbEntity
  8
DRAW
  6
CONTINUOUS
 62
     7
100
AcDbLine
 10
-91.768358
 20
105.069415
 30
0.0
 11
-91.61742
 21
105.410562
 31
0.0
  0
LINE
  5
23A
330
1F
100
AcDbEntity
  8
DRAW
  6
CONTINUOUS
 62
     7
100
AcDbLine
 10
-91.995769
 20
105.170031
 30
0.0
 11
-91.768358
 21
105.069415
 31
0.0
  0
LINE
  5
23B
330
1F
100
AcDbEntity
  8
DRAW
  6
CONTINUOUS
 62
     7
100
AcDbLine
 10
-91.651337
 20
105.948508
 30
0.0
 11
-91.995769
 21
105.170031
 31
0.0
  0
LINE
  5
23C
330
1F
100
AcDbEntity
  8
DRAW
  6
CONTINUOUS
 62
     7
100
AcDbLine
 10
-92.429814
 20
106.29294
 30
0.0
 11
-91.651337
 21
105.948508
 31
0.0
  0
LINE
  5
23D
330
1F
100
AcDbEntity
  8
DRAW
  6
CONTINUOUS
 62
     7
100
AcDbLine
 10
-91.904849
 20
107.479455
 30
0.0
 11
-92.429814
 21
106.29294
 31
0.0
  0
LINE
  5
23E
330
1F
100
AcDbEntity
  8
DRAW
  6
CONTINUOUS
 62
     7
100
AcDbLine
 10
-90.885829
 20
105.086874
 30
0.0
 11
-91.61742
 21
105.410562
 31
0.0
  0
LINE
  5
23F
330
1F
100
AcDbEntity
  8
DRAW
  6
CONTINUOUS
 62
     7
100
AcDbLine
 10
-91.126372
 20
107.135023
 30
0.0
 11
-91.904849
 21
107.479455
 31
0.0
  0
LINE
  5
240
330
1F
100
AcDbEntity
  8
DRAW
  6
CONTINUOUS
 62
     7
100
AcDbLine
 10
-96.095674
 20
111.37925
 30
0.0
 11
-90.795674
 21
111.37925
 31
0.0
  0
LINE
  5
241
330
1F
100
AcDbEntity
  8
DRAW
  6
CONTINUOUS
 62
     7
100
AcDbLine
 10
-95.545049
 20
108.512366
 30
0.0
 11
-95.6686
 21
108.233119
 31
0.0
  0
LINE
  5
242
330
1F
100
AcDbEntity
  8
DRAW
  6
CONTINUOUS
 62
     7
100
AcDbLine
 10
-94.813458
 20
108.188679
 30
0.0
 11
-94.937009
 21
107.909432
 31
0.0
  0
LINE
  5
243
330
1F
100
AcDbEntity
  8
DRAW
  6
CONTINUOUS
 62
     7
100
AcDbLine
 10
-95.6686
 20
108.233119
 30
0.0
 11
-95.85453
 21
107.812884
 31
0.0
  0
LINE
  5
244
330
1F
100
AcDbEntity
  8
DRAW
  6
CONTINUOUS
 62
     7
100
AcDbLine
 10
-95.85453
 20
107.812884
 30
0.0
 11
-96.081941
 21
107.9135
 31
0.0
  0
LINE
  5
245
330
1F
100
AcDbEntity
  8
DRAW
  6
CONTINUOUS
 62
     7
100
AcDbLine
 10
-90.55453
 20
107.812884
 30
0.0
 11
-90.781941
 21
107.9135
 31
0.0
  0
LINE
  5
246
330
1F
100
AcDbEntity
  8
DRAW
  6
CONTINUOUS
 62
     7
100
AcDbLine
 10
-89.822938
 20
107.489196
 30
0.0
 11
-89.637008
 21
107.909432
 31
0.0
  0
LINE
  5
247
330
1F
100
AcDbEntity
  8
DRAW
  6
CONTINUOUS
 62
     7
100
AcDbLine
 10
-87.795674
 20
105.479251
 30
0.0
 11
-87.795674
 21
109.279251
 31
0.0
  0
LINE
  5
248
330
1F
100
AcDbEntity
  8
DRAW
  6
CONTINUOUS
 62
     7
100
AcDbLine
 10
-87.845674
 20
102.879251
 30
0.0
 11
-87.845674
 21
109.379254
 31
0.0
  0
ARC
  5
249
330
1F
100
AcDbEntity
  8
DRAW
  6
CONTINUOUS
 62
     7
100
AcDbCircle
 10
-87.995674
 20
105.479251
 30
0.0
 40
0.2000000029802322
100
AcDbArc
 50
318.59076
 51
0.0
  0
LINE
  5
24A
330
1F
100
AcDbEntity
  8
DRAW
  6
CONTINUOUS
 62
     7
100
AcDbLine
 10
-89.16138
 20
106.265626
 30
0.0
 11
-89.939857
 21
106.610058
 31
0.0
  0
LINE
  5
24B
330
1F
100
AcDbEntity
  8
DRAW
  6
CONTINUOUS
 62
     7
100
AcDbLine
 10
-89.686345
 20
105.079111
 30
0.0
 11
-89.16138
 21
106.265626
 31
0.0
  0
LINE
  5
24C
330
1F
100
AcDbEntity
  8
DRAW
  6
CONTINUOUS
 62
     7
100
AcDbLine
 10
-89.822938
 20
107.489196
 30
0.0
 11
-89.973876
 21
107.14805
 31
0.0
  0
LINE
  5
24D
330
1F
100
AcDbEntity
  8
DRAW
  6
CONTINUOUS
 62
     7
100
AcDbLine
 10
-89.595426
 20
107.388535
 30
0.0
 11
-89.822938
 21
107.489196
 31
0.0
  0
LINE
  5
24E
330
1F
100
AcDbEntity
  8
DRAW
  6
CONTINUOUS
 62
     7
100
AcDbLine
 10
-89.939857
 20
106.610058
 30
0.0
 11
-89.595426
 21
107.388535
 31
0.0
  0
LINE
  5
24F
330
1F
100
AcDbEntity
  8
DRAW
  6
CONTINUOUS
 62
     7
100
AcDbLine
 10
-87.845674
 20
102.879251
 30
0.0
 11
-87.945674
 21
102.879251
 31
0.0
  0
LINE
  5
250
330
1F
100
AcDbEntity
  8
DRAW
  6
CONTINUOUS
 62
     7
100
AcDbLine
 10
-88.945674
 20
102.879251
 30
0.0
 11
-87.945674
 21
102.879251
 31
0.0
  0
LINE
  5
251
330
1F
100
AcDbEntity
  8
DRAW
  6
CONTINUOUS
 62
     7
100
AcDbLine
 10
-87.945674
 20
109.379254
 30
0.0
 11
-87.945674
 21
110.679249
 31
0.0
  0
ARC
  5
252
330
1F
100
AcDbEntity
  8
DRAW
  6
CONTINUOUS
 62
     7
100
AcDbCircle
 10
87.995674
 20
109.279251
 30
0.0
 40
0.2000000029802322
210
0.0
220
0.0
230
-1.0
100
AcDbArc
 50
104.477774
 51
180.0
  0
LINE
  5
253
330
1F
100
AcDbEntity
  8
DRAW
  6
CONTINUOUS
 62
     7
100
AcDbLine
 10
-87.845674
 20
109.379254
 30
0.0
 11
-87.945674
 21
109.379254
 31
0.0
  0
LINE
  5
254
330
1F
100
AcDbEntity
  8
DRAW
  6
CONTINUOUS
 62
     7
100
AcDbLine
 10
-87.945674
 20
110.679249
 30
0.0
 11
-87.945674
 21
111.379249
 31
0.0
  0
LINE
  5
255
330
1F
100
AcDbEntity
  8
DRAW
  6
CONTINUOUS
 62
     7
100
AcDbLine
 10
-87.845673
 20
111.379249
 30
0.0
 11
-87.945673
 21
111.379249
 31
0.0
  0
LINE
  5
256
330
1F
100
AcDbEntity
  8
DRAW
  6
CONTINUOUS
 62
     7
100
AcDbLine
 10
-90.245049
 20
108.512366
 30
0.0
 11
-90.3686
 21
108.233119
 31
0.0
  0
LINE
  5
257
330
1F
100
AcDbEntity
  8
DRAW
  6
CONTINUOUS
 62
     7
100
AcDbLine
 10
-89.513457
 20
108.188679
 30
0.0
 11
-89.637008
 21
107.909432
 31
0.0
  0
SPLINE
  5
258
330
1F
100
AcDbEntity
  8
DRAW
  6
CONTINUOUS
 62
     7
100
AcDbSpline
210
0.0
220
0.0
230
1.0
 70
     8
 71
     3
 72
    11
 73
     7
 74
     0
 42
0.0
 43
0.0
 40
0.0
 40
0.0
 40
0.0
 40
0.0
 40
0.0971384075870545
 40
0.2309270276904138
 40
0.3898564959742481
 40
0.4754417653202679
 40
0.4754417653202679
 40
0.4754417653202679
 40
0.4754417653202679
 10
-97.37891437078086
 20
115.3700660897765
 30
0.0
 10
-97.37891437172823
 20
115.3700660897778
 30
0.0
 10
-97.37375419390482
 20
115.3817290163655
 30
0.0
 10
-97.34538414032556
 20
115.4458504006977
 30
0.0
 10
-97.2999332095425
 20
115.5485776082929
 30
0.0
 10
-97.26687222075395
 20
115.6233013353652
 30
0.0
 10
-97.25536341170096
 20
115.6493132947649
 30
0.0
  0
LINE
  5
259
330
1F
100
AcDbEntity
  8
DRAW
  6
CONTINUOUS
 62
     7
100
AcDbLine
 10
-97.730839
 20
117.293187
 30
0.0
 11
-96.952362
 21
116.948755
 31
0.0
  0
LINE
  5
25A
330
1F
100
AcDbEntity
  8
DRAW
  6
CONTINUOUS
 62
     7
100
AcDbLine
 10
-97.205873
 20
118.479702
 30
0.0
 11
-97.730839
 21
117.293187
 31
0.0
  0
LINE
  5
25B
330
1F
100
AcDbEntity
  8
DRAW
  6
CONTINUOUS
 62
     7
100
AcDbLine
 10
-97.296793
 20
116.170278
 30
0.0
 11
-97.069383
 21
116.069662
 31
0.0
  0
LINE
  5
25C
330
1F
100
AcDbEntity
  8
DRAW
  6
CONTINUOUS
 62
     7
100
AcDbLine
 10
-96.952362
 20
116.948755
 30
0.0
 11
-97.296793
 21
116.170278
 31
0.0
  0
ARC
  5
25D
330
1F
100
AcDbEntity
  8
DRAW
  6
CONTINUOUS
 62
     7
100
AcDbCircle
 10
-96.095673
 20
117.279251
 30
0.0
 40
2.35
100
AcDbArc
 50
90.0
 51
270.0
  0
LINE
  5
25E
330
1F
100
AcDbEntity
  8
DRAW
  6
CONTINUOUS
 62
     7
100
AcDbLine
 10
-98.945673
 20
121.279251
 30
0.0
 11
-96.095673
 21
121.279251
 31
0.0
  0
LINE
  5
25F
330
1F
100
AcDbEntity
  8
DRAW
  6
CONTINUOUS
 62
     7
100
AcDbLine
 10
-98.945673
 20
122.379251
 30
0.0
 11
-96.095673
 21
122.379251
 31
0.0
  0
LINE
  5
260
330
1F
100
AcDbEntity
  8
DRAW
  6
CONTINUOUS
 62
     7
100
AcDbLine
 10
-98.945673
 20
121.279251
 30
0.0
 11
-98.945673
 21
122.379251
 31
0.0
  0
LINE
  5
261
330
1F
100
AcDbEntity
  8
DRAW
  6
CONTINUOUS
 62
     7
100
AcDbLine
 10
-99.045673
 20
120.379248
 30
0.0
 11
-98.945673
 21
120.379248
 31
0.0
  0
LINE
  5
262
330
1F
100
AcDbEntity
  8
DRAW
  6
CONTINUOUS
 62
     7
100
AcDbLine
 10
-98.945673
 20
121.279251
 30
0.0
 11
-98.945673
 21
120.379248
 31
0.0
  0
LINE
  5
263
330
1F
100
AcDbEntity
  8
DRAW
  6
CONTINUOUS
 62
     7
100
AcDbLine
 10
-87.945673
 20
121.279251
 30
0.0
 11
-90.795673
 21
121.279251
 31
0.0
  0
LINE
  5
264
330
1F
100
AcDbEntity
  8
DRAW
  6
CONTINUOUS
 62
     7
100
AcDbLine
 10
-87.945673
 20
122.379251
 30
0.0
 11
-90.795673
 21
122.379251
 31
0.0
  0
ARC
  5
265
330
1F
100
AcDbEntity
  8
DRAW
  6
CONTINUOUS
 62
     7
100
AcDbCircle
 10
-90.795673
 20
117.279253
 30
0.0
 40
2.35
100
AcDbArc
 50
270.000001
 51
89.999999
  0
LINE
  5
266
330
1F
100
AcDbEntity
  8
DRAW
  6
CONTINUOUS
 62
     7
100
AcDbLine
 10
-90.369624
 20
119.233366
 30
0.0
 11
-90.555554
 21
118.813131
 31
0.0
  0
LINE
  5
267
330
1F
100
AcDbEntity
  8
DRAW
  6
CONTINUOUS
 62
     7
100
AcDbLine
 10
-89.974901
 20
118.148297
 30
0.0
 11
-90.706492
 21
118.471984
 31
0.0
  0
LINE
  5
268
330
1F
100
AcDbEntity
  8
DRAW
  6
CONTINUOUS
 62
     7
100
AcDbLine
 10
-90.465847
 20
116.42379
 30
0.0
 11
-89.68737
 21
116.079358
 31
0.0
  0
LINE
  5
269
330
1F
100
AcDbEntity
  8
DRAW
  6
CONTINUOUS
 62
     7
100
AcDbLine
 10
-95.546073
 20
119.512613
 30
0.0
 11
-95.669624
 21
119.233366
 31
0.0
  0
ARC
  5
26A
330
1F
100
AcDbEntity
  8
DRAW
  6
CONTINUOUS
 62
     7
100
AcDbCircle
 10
-96.095673
 20
117.279253
 30
0.0
 40
2.35
100
AcDbArc
 50
270.0
 51
90.0
  0
ARC
  5
26B
330
1F
100
AcDbEntity
  8
DRAW
  6
CONTINUOUS
 62
     7
100
AcDbCircle
 10
-90.795673
 20
117.279253
 30
0.0
 40
2.35
100
AcDbArc
 50
90.0
 51
270.0
  0
LINE
  5
26C
330
1F
100
AcDbEntity
  8
DRAW
  6
CONTINUOUS
 62
     7
100
AcDbLine
 10
-97.069383
 20
116.069662
 30
0.0
 11
-97.255363
 21
115.649314
 31
0.0
  0
LINE
  5
26D
330
1F
100
AcDbEntity
  8
DRAW
  6
CONTINUOUS
 62
     7
100
AcDbLine
 10
-96.523772
 20
115.325626
 30
0.0
 11
-96.337791
 21
115.745975
 31
0.0
  0
LINE
  5
26E
330
1F
100
AcDbEntity
  8
DRAW
  6
CONTINUOUS
 62
     7
100
AcDbLine
 10
-96.337791
 20
115.745975
 30
0.0
 11
-96.110278
 21
115.645313
 31
0.0
  0
LINE
  5
26F
330
1F
100
AcDbEntity
  8
DRAW
  6
CONTINUOUS
 62
     7
100
AcDbLine
 10
-96.110278
 20
115.645313
 30
0.0
 11
-95.765847
 21
116.42379
 31
0.0
  0
SPLINE
  5
270
330
1F
100
AcDbEntity
  8
DRAW
  6
CONTINUOUS
 62
     7
100
AcDbSpline
210
0.0
220
0.0
230
1.0
 70
     8
 71
     3
 72
    11
 73
     7
 74
     0
 42
0.0
 43
0.0
 40
0.0
 40
0.0
 40
0.0
 40
0.0
 40
0.0971384075870362
 40
0.2309270276903825
 40
0.3898564959742092
 40
0.4754417653204563
 40
0.4754417653204563
 40
0.4754417653204563
 40
0.4754417653204563
 10
-96.64732272200226
 20
115.0463784943434
 30
0.0
 10
-96.64732272294951
 20
115.0463784943446
 30
0.0
 10
-96.64216254512607
 20
115.0580414209324
 30
0.0
 10
-96.61379249154685
 20
115.1221628052645
 30
0.0
 10
-96.56834156076363
 20
115.2248900128599
 30
0.0
 10
-96.53528057197546
 20
115.299613739932
 30
0.0
 10
-96.52377176292235
 20
115.3256256993318
 30
0.0
  0
LINE
  5
271
330
1F
100
AcDbEntity
  8
DRAW
  6
CONTINUOUS
 62
     7
100
AcDbLine
 10
-94.814482
 20
119.188926
 30
0.0
 11
-94.938033
 21
118.909678
 31
0.0
  0
LINE
  5
272
330
1F
100
AcDbEntity
  8
DRAW
  6
CONTINUOUS
 62
     7
100
AcDbLine
 10
-95.669624
 20
119.233366
 30
0.0
 11
-95.855554
 21
118.813131
 31
0.0
  0
LINE
  5
273
330
1F
100
AcDbEntity
  8
DRAW
  6
CONTINUOUS
 62
     7
100
AcDbLine
 10
-95.123963
 20
118.489443
 30
0.0
 11
-94.938033
 21
118.909678
 31
0.0
  0
LINE
  5
274
330
1F
100
AcDbEntity
  8
DRAW
  6
CONTINUOUS
 62
     7
100
AcDbLine
 10
-95.274901
 20
118.148297
 30
0.0
 11
-96.006492
 21
118.471984
 31
0.0
  0
LINE
  5
275
330
1F
100
AcDbEntity
  8
DRAW
  6
CONTINUOUS
 62
     7
100
AcDbLine
 10
-95.855554
 20
118.813131
 30
0.0
 11
-96.006492
 21
118.471984
 31
0.0
  0
LINE
  5
276
330
1F
100
AcDbEntity
  8
DRAW
  6
CONTINUOUS
 62
     7
100
AcDbLine
 10
-95.123963
 20
118.489443
 30
0.0
 11
-95.274901
 21
118.148297
 31
0.0
  0
LINE
  5
277
330
1F
100
AcDbEntity
  8
DRAW
  6
CONTINUOUS
 62
     7
100
AcDbLine
 10
-96.186853
 20
116.087121
 30
0.0
 11
-96.918445
 21
116.410809
 31
0.0
  0
LINE
  5
278
330
1F
100
AcDbEntity
  8
DRAW
  6
CONTINUOUS
 62
     7
100
AcDbLine
 10
-97.069383
 20
116.069662
 30
0.0
 11
-96.918445
 21
116.410809
 31
0.0
  0
LINE
  5
279
330
1F
100
AcDbEntity
  8
DRAW
  6
CONTINUOUS
 62
     7
100
AcDbLine
 10
-96.337791
 20
115.745975
 30
0.0
 11
-96.186853
 21
116.087121
 31
0.0
  0
LINE
  5
27A
330
1F
100
AcDbEntity
  8
DRAW
  6
CONTINUOUS
 62
     7
100
AcDbLine
 10
-95.855554
 20
118.813131
 30
0.0
 11
-96.082965
 21
118.913747
 31
0.0
  0
LINE
  5
27B
330
1F
100
AcDbEntity
  8
DRAW
  6
CONTINUOUS
 62
     7
100
AcDbLine
 10
-94.89645
 20
118.388782
 30
0.0
 11
-95.123963
 21
118.489443
 31
0.0
  0
LINE
  5
27C
330
1F
100
AcDbEntity
  8
DRAW
  6
CONTINUOUS
 62
     7
100
AcDbLine
 10
-96.082965
 20
118.913747
 30
0.0
 11
-96.427396
 21
118.13527
 31
0.0
  0
LINE
  5
27D
330
1F
100
AcDbEntity
  8
DRAW
  6
CONTINUOUS
 62
     7
100
AcDbLine
 10
-95.240882
 20
117.610305
 30
0.0
 11
-94.89645
 21
118.388782
 31
0.0
  0
LINE
  5
27E
330
1F
100
AcDbEntity
  8
DRAW
  6
CONTINUOUS
 62
     7
100
AcDbLine
 10
-95.765847
 20
116.42379
 30
0.0
 11
-94.98737
 21
116.079358
 31
0.0
  0
LINE
  5
27F
330
1F
100
AcDbEntity
  8
DRAW
  6
CONTINUOUS
 62
     7
100
AcDbLine
 10
-96.427396
 20
118.13527
 30
0.0
 11
-97.205873
 21
118.479702
 31
0.0
  0
LINE
  5
280
330
1F
100
AcDbEntity
  8
DRAW
  6
CONTINUOUS
 62
     7
100
AcDbLine
 10
-94.462405
 20
117.265873
 30
0.0
 11
-95.240882
 21
117.610305
 31
0.0
  0
LINE
  5
281
330
1F
100
AcDbEntity
  8
DRAW
  6
CONTINUOUS
 62
     7
100
AcDbLine
 10
-94.98737
 20
116.079358
 30
0.0
 11
-94.462405
 21
117.265873
 31
0.0
  0
LINE
  5
282
330
1F
100
AcDbEntity
  8
DRAW
  6
CONTINUOUS
 62
     7
100
AcDbLine
 10
-91.223771
 20
115.325626
 30
0.0
 11
-91.037791
 21
115.745975
 31
0.0
  0
LINE
  5
283
330
1F
100
AcDbEntity
  8
DRAW
  6
CONTINUOUS
 62
     7
100
AcDbLine
 10
-91.037791
 20
115.745975
 30
0.0
 11
-90.810278
 21
115.645313
 31
0.0
  0
LINE
  5
284
330
1F
100
AcDbEntity
  8
DRAW
  6
CONTINUOUS
 62
     7
100
AcDbLine
 10
-90.810278
 20
115.645313
 30
0.0
 11
-90.465847
 21
116.42379
 31
0.0
  0
SPLINE
  5
285
330
1F
100
AcDbEntity
  8
DRAW
  6
CONTINUOUS
 62
     7
100
AcDbSpline
210
0.0
220
0.0
230
1.0
 70
     8
 71
     3
 72
    11
 73
     7
 74
     0
 42
0.0
 43
0.0
 40
0.0
 40
0.0
 40
0.0
 40
0.0
 40
0.0971384075870362
 40
0.2309270276903825
 40
0.3898564959742092
 40
0.4754417653204563
 40
0.4754417653204563
 40
0.4754417653204563
 40
0.4754417653204563
 10
-91.3473225312674
 20
115.0463784943434
 30
0.0
 10
-91.34732253221466
 20
115.0463784943446
 30
0.0
 10
-91.34216235439123
 20
115.0580414209324
 30
0.0
 10
-91.313792300812
 20
115.1221628052645
 30
0.0
 10
-91.26834137002855
 20
115.2248900128599
 30
0.0
 10
-91.2352803812406
 20
115.299613739932
 30
0.0
 10
-91.2237715721874
 20
115.3256256993318
 30
0.0
  0
LINE
  5
286
330
1F
100
AcDbEntity
  8
DRAW
  6
CONTINUOUS
 62
     7
100
AcDbLine
 10
-90.555554
 20
118.813131
 30
0.0
 11
-90.706492
 21
118.471984
 31
0.0
  0
LINE
  5
287
330
1F
100
AcDbEntity
  8
DRAW
  6
CONTINUOUS
 62
     7
100
AcDbLine
 10
-91.037791
 20
115.745975
 30
0.0
 11
-90.886853
 21
116.087121
 31
0.0
  0
LINE
  5
288
330
1F
100
AcDbEntity
  8
DRAW
  6
CONTINUOUS
 62
     7
100
AcDbLine
 10
-90.555554
 20
118.813131
 30
0.0
 11
-90.782965
 21
118.913747
 31
0.0
  0
LINE
  5
289
330
1F
100
AcDbEntity
  8
DRAW
  6
CONTINUOUS
 62
     7
100
AcDbLine
 10
-90.782965
 20
118.913747
 30
0.0
 11
-91.127396
 21
118.13527
 31
0.0
  0
LINE
  5
28A
330
1F
100
AcDbEntity
  8
DRAW
  6
CONTINUOUS
 62
     7
100
AcDbLine
 10
-91.769383
 20
116.069662
 30
0.0
 11
-91.955363
 21
115.649314
 31
0.0
  0
SPLINE
  5
28B
330
1F
100
AcDbEntity
  8
DRAW
  6
CONTINUOUS
 62
     7
100
AcDbSpline
210
0.0
220
0.0
230
1.0
 70
     8
 71
     3
 72
    11
 73
     7
 74
     0
 42
0.0
 43
0.0
 40
0.0
 40
0.0
 40
0.0
 40
0.0
 40
0.0971384075870545
 40
0.2309270276904138
 40
0.3898564959742481
 40
0.4754417653202679
 40
0.4754417653202679
 40
0.4754417653202679
 40
0.4754417653202679
 10
-92.07891418004597
 20
115.3700660897765
 30
0.0
 10
-92.07891418099335
 20
115.3700660897778
 30
0.0
 10
-92.07375400316992
 20
115.3817290163655
 30
0.0
 10
-92.0453839495907
 20
115.4458504006977
 30
0.0
 10
-91.99993301880734
 20
115.5485776082929
 30
0.0
 10
-91.96687203001906
 20
115.6233013353652
 30
0.0
 10
-91.95536322096606
 20
115.6493132947649
 30
0.0
  0
LINE
  5
28C
330
1F
100
AcDbEntity
  8
DRAW
  6
CONTINUOUS
 62
     7
100
AcDbLine
 10
-91.769383
 20
116.069662
 30
0.0
 11
-91.618445
 21
116.410809
 31
0.0
  0
LINE
  5
28D
330
1F
100
AcDbEntity
  8
DRAW
  6
CONTINUOUS
 62
     7
100
AcDbLine
 10
-91.996793
 20
116.170278
 30
0.0
 11
-91.769383
 21
116.069662
 31
0.0
  0
LINE
  5
28E
330
1F
100
AcDbEntity
  8
DRAW
  6
CONTINUOUS
 62
     7
100
AcDbLine
 10
-91.652362
 20
116.948755
 30
0.0
 11
-91.996793
 21
116.170278
 31
0.0
  0
LINE
  5
28F
330
1F
100
AcDbEntity
  8
DRAW
  6
CONTINUOUS
 62
     7
100
AcDbLine
 10
-92.430838
 20
117.293187
 30
0.0
 11
-91.652362
 21
116.948755
 31
0.0
  0
LINE
  5
290
330
1F
100
AcDbEntity
  8
DRAW
  6
CONTINUOUS
 62
     7
100
AcDbLine
 10
-91.905873
 20
118.479702
 30
0.0
 11
-92.430838
 21
117.293187
 31
0.0
  0
LINE
  5
291
330
1F
100
AcDbEntity
  8
DRAW
  6
CONTINUOUS
 62
     7
100
AcDbLine
 10
-90.886853
 20
116.087121
 30
0.0
 11
-91.618445
 21
116.410809
 31
0.0
  0
LINE
  5
292
330
1F
100
AcDbEntity
  8
DRAW
  6
CONTINUOUS
 62
     7
100
AcDbLine
 10
-91.127396
 20
118.13527
 30
0.0
 11
-91.905873
 21
118.479702
 31
0.0
  0
LINE
  5
293
330
1F
100
AcDbEntity
  8
DRAW
  6
CONTINUOUS
 62
     7
100
AcDbLine
 10
-96.095673
 20
121.279252
 30
0.0
 11
-90.795673
 21
121.279252
 31
0.0
  0
LINE
  5
294
330
1F
100
AcDbEntity
  8
DRAW
  6
CONTINUOUS
 62
     7
100
AcDbLine
 10
-96.095673
 20
122.379252
 30
0.0
 11
-90.795673
 21
122.379252
 31
0.0
  0
LINE
  5
295
330
1F
100
AcDbEntity
  8
DRAW
  6
CONTINUOUS
 62
     7
100
AcDbLine
 10
-90.246073
 20
119.512613
 30
0.0
 11
-90.369624
 21
119.233366
 31
0.0
  0
LINE
  5
296
330
1F
100
AcDbEntity
  8
DRAW
  6
CONTINUOUS
 62
     7
100
AcDbLine
 10
-89.162404
 20
117.265873
 30
0.0
 11
-89.940881
 21
117.610305
 31
0.0
  0
LINE
  5
297
330
1F
100
AcDbEntity
  8
DRAW
  6
CONTINUOUS
 62
     7
100
AcDbLine
 10
-89.68737
 20
116.079358
 30
0.0
 11
-89.162404
 21
117.265873
 31
0.0
  0
LINE
  5
298
330
1F
100
AcDbEntity
  8
DRAW
  6
CONTINUOUS
 62
     7
100
AcDbLine
 10
-89.514482
 20
119.188926
 30
0.0
 11
-89.638032
 21
118.909678
 31
0.0
  0
LINE
  5
299
330
1F
100
AcDbEntity
  8
DRAW
  6
CONTINUOUS
 62
     7
100
AcDbLine
 10
-89.823963
 20
118.489443
 30
0.0
 11
-89.638032
 21
118.909678
 31
0.0
  0
LINE
  5
29A
330
1F
100
AcDbEntity
  8
DRAW
  6
CONTINUOUS
 62
     7
100
AcDbLine
 10
-89.823963
 20
118.489443
 30
0.0
 11
-89.974901
 21
118.148297
 31
0.0
  0
LINE
  5
29B
330
1F
100
AcDbEntity
  8
DRAW
  6
CONTINUOUS
 62
     7
100
AcDbLine
 10
-89.59645
 20
118.388782
 30
0.0
 11
-89.823963
 21
118.489443
 31
0.0
  0
LINE
  5
29C
330
1F
100
AcDbEntity
  8
DRAW
  6
CONTINUOUS
 62
     7
100
AcDbLine
 10
-89.940881
 20
117.610305
 30
0.0
 11
-89.59645
 21
118.388782
 31
0.0
  0
LINE
  5
29D
330
1F
100
AcDbEntity
  8
DRAW
  6
CONTINUOUS
 62
     7
100
AcDbLine
 10
-87.945673
 20
121.279251
 30
0.0
 11
-87.945673
 21
122.379251
 31
0.0
  0
LINE
  5
29E
330
1F
100
AcDbEntity
  8
DRAW
  6
CONTINUOUS
 62
     7
100
AcDbLine
 10
-87.845673
 20
120.379251
 30
0.0
 11
-87.945673
 21
120.379251
 31
0.0
  0
LINE
  5
29F
330
1F
100
AcDbEntity
  8
DRAW
  6
CONTINUOUS
 62
     7
100
AcDbLine
 10
-87.945673
 20
120.379251
 30
0.0
 11
-87.945673
 21
121.279251
 31
0.0
  0
LINE
  5
2A0
330
1F
100
AcDbEntity
  8
DRAW
  6
CONTINUOUS
 62
     7
100
AcDbLine
 10
-35.894566
 20
109.379255
 30
0.0
 11
-16.394557
 21
109.379255
 31
0.0
  0
LINE
  5
2A1
330
1F
100
AcDbEntity
  8
DRAW
  6
CONTINUOUS
 62
     7
100
AcDbLine
 10
-17.094558
 20
111.379259
 30
0.0
 11
-33.394558
 21
111.379259
 31
0.0
  0
LINE
  5
2A2
330
1F
100
AcDbEntity
  8
DRAW
  6
CONTINUOUS
 62
     7
100
AcDbLine
 10
-57.894558
 20
100.879251
 30
0.0
 11
-5.394557
 21
100.879251
 31
0.0
  0
LINE
  5
2A3
330
1F
100
AcDbEntity
  8
DRAW
  6
CONTINUOUS
 62
     7
100
AcDbLine
 10
-16.394558
 20
102.87925
 30
0.0
 11
-62.194558
 21
102.87925
 31
0.0
  0
LINE
  5
2A4
330
1F
100
AcDbEntity
  8
DRAW
  6
CONTINUOUS
 62
     7
100
AcDbLine
 10
-33.394558
 20
120.379248
 30
0.0
 11
-33.394558
 21
111.379251
 31
0.0
  0
LINE
  5
2A5
330
1F
100
AcDbEntity
  8
DRAW
  6
CONTINUOUS
 62
     7
100
AcDbLine
 10
-55.337048
 20
113.528837
 30
0.0
 11
-55.114548
 21
113.655837
 31
0.0
  0
LINE
  5
2A6
330
1F
100
AcDbEntity
  8
DRAW
  6
CONTINUOUS
 62
     7
100
AcDbLine
 10
-58.094048
 20
113.662337
 30
0.0
 11
-57.878048
 21
113.528837
 31
0.0
  0
LINE
  5
2A7
330
1F
100
AcDbEntity
  8
DRAW
  6
CONTINUOUS
 62
     7
100
AcDbLine
 10
-61.987367
 20
111.379253
 30
0.0
 11
-60.400426
 21
120.379241
 31
0.0
  0
LINE
  5
2A8
330
1F
100
AcDbEntity
  8
DRAW
  6
CONTINUOUS
 62
     7
100
AcDbLine
 10
-64.194558
 20
110.379224
 30
0.0
 11
-62.078629
 21
122.379251
 31
0.0
  0
LINE
  5
2A9
330
1F
100
AcDbEntity
  8
DRAW
  6
CONTINUOUS
 62
     7
100
AcDbLine
 10
-56.613798
 20
113.204837
 30
0.0
 11
-56.340798
 21
113.217587
 31
0.0
  0
LINE
  5
2AA
330
1F
100
AcDbEntity
  8
DRAW
  6
CONTINUOUS
 62
     7
100
AcDbLine
 10
-62.194558
 20
109.379255
 30
0.0
 11
-38.894557
 21
109.379255
 31
0.0
  0
LINE
  5
2AB
330
1F
100
AcDbEntity
  8
DRAW
  6
CONTINUOUS
 62
     7
100
AcDbLine
 10
-33.394558
 20
111.379259
 30
0.0
 11
-61.987367
 21
111.379259
 31
0.0
  0
LINE
  5
2AC
330
1F
100
AcDbEntity
  8
DRAW
  6
CONTINUOUS
 62
     7
100
AcDbLine
 10
-64.194558
 20
98.379249
 30
0.0
 11
-64.194558
 21
110.379224
 31
0.0
  0
LINE
  5
2AD
330
1F
100
AcDbEntity
  8
DRAW
  6
CONTINUOUS
 62
     7
100
AcDbLine
 10
-63.29456
 20
98.379249
 30
0.0
 11
-61.094559
 21
98.379249
 31
0.0
  0
LINE
  5
2AE
330
1F
100
AcDbEntity
  8
DRAW
  6
CONTINUOUS
 62
     7
100
AcDbLine
 10
-63.29456
 20
98.379246
 30
0.0
 11
-62.139858
 21
96.379248
 31
0.0
  0
LINE
  5
2AF
330
1F
100
AcDbEntity
  8
DRAW
  6
CONTINUOUS
 62
     7
100
AcDbLine
 10
-64.194558
 20
98.379249
 30
0.0
 11
-63.29456
 21
98.379249
 31
0.0
  0
LINE
  5
2B0
330
1F
100
AcDbEntity
  8
DRAW
  6
CONTINUOUS
 62
     7
100
AcDbLine
 10
-59.894558
 20
97.379248
 30
0.0
 11
-60.344559
 21
95.379248
 31
0.0
  0
LINE
  5
2B1
330
1F
100
AcDbEntity
  8
DRAW
  6
CONTINUOUS
 62
     7
100
AcDbLine
 10
-59.894558
 20
93.379248
 30
0.0
 11
-60.344559
 21
95.379248
 31
0.0
  0
LINE
  5
2B2
330
1F
100
AcDbEntity
  8
DRAW
  6
CONTINUOUS
 62
     7
100
AcDbLine
 10
-61.094559
 20
98.379249
 30
0.0
 11
-59.894558
 21
98.379249
 31
0.0
  0
LINE
  5
2B3
330
1F
100
AcDbEntity
  8
DRAW
  6
CONTINUOUS
 62
     7
100
AcDbLine
 10
-62.139858
 20
96.379248
 30
0.0
 11
-61.630459
 21
96.379248
 31
0.0
  0
LINE
  5
2B4
330
1F
100
AcDbEntity
  8
DRAW
  6
CONTINUOUS
 62
     7
100
AcDbLine
 10
-61.094559
 20
98.379246
 30
0.0
 11
-61.630459
 21
96.379248
 31
0.0
  0
LINE
  5
2B5
330
1F
100
AcDbEntity
  8
DRAW
  6
CONTINUOUS
 62
     7
100
AcDbLine
 10
-62.194558
 20
102.87925
 30
0.0
 11
-62.194558
 21
109.379255
 31
0.0
  0
LINE
  5
2B6
330
1F
100
AcDbEntity
  8
DRAW
  6
CONTINUOUS
 62
     7
100
AcDbLine
 10
-57.147548
 20
113.262087
 30
0.0
 11
-56.613798
 21
113.204837
 31
0.0
  0
LINE
  5
2B7
330
1F
100
AcDbEntity
  8
DRAW
  6
CONTINUOUS
 62
     7
100
AcDbLine
 10
-57.643048
 20
113.414587
 30
0.0
 11
-57.401548
 21
113.331837
 31
0.0
  0
LINE
  5
2B8
330
1F
100
AcDbEntity
  8
DRAW
  6
CONTINUOUS
 62
     7
100
AcDbLine
 10
-57.878048
 20
113.528837
 30
0.0
 11
-57.643048
 21
113.414587
 31
0.0
  0
LINE
  5
2B9
330
1F
100
AcDbEntity
  8
DRAW
  6
CONTINUOUS
 62
     7
100
AcDbLine
 10
-57.401548
 20
113.331837
 30
0.0
 11
-57.147548
 21
113.262087
 31
0.0
  0
LINE
  5
2BA
330
1F
100
AcDbEntity
  8
DRAW
  6
CONTINUOUS
 62
     7
100
AcDbLine
 10
-55.572048
 20
113.414587
 30
0.0
 11
-55.337048
 21
113.528837
 31
0.0
  0
LINE
  5
2BB
330
1F
100
AcDbEntity
  8
DRAW
  6
CONTINUOUS
 62
     7
100
AcDbLine
 10
-56.073798
 20
113.262087
 30
0.0
 11
-55.572048
 21
113.414587
 31
0.0
  0
LINE
  5
2BC
330
1F
100
AcDbEntity
  8
DRAW
  6
CONTINUOUS
 62
     7
100
AcDbLine
 10
-56.340798
 20
113.217587
 30
0.0
 11
-56.073798
 21
113.262087
 31
0.0
  0
ARC
  5
2BD
330
1F
100
AcDbEntity
  8
DRAW
  6
CONTINUOUS
 62
     7
100
AcDbCircle
 10
37.394561
 20
107.379251
 30
0.0
 40
2.5
210
0.0
220
0.0
230
-1.0
100
AcDbArc
 50
126.869768
 51
53.130232
  0
ARC
  5
2BE
330
1F
100
AcDbEntity
  8
DRAW
  6
CONTINUOUS
 62
     7
100
AcDbCircle
 10
37.394561
 20
107.379251
 30
0.0
 40
2.5
210
0.0
220
0.0
230
-1.0
100
AcDbArc
 50
90.0
 51
126.869768
  0
ARC
  5
2BF
330
1F
100
AcDbEntity
  8
DRAW
  6
CONTINUOUS
 62
     7
100
AcDbCircle
 10
37.394561
 20
107.379251
 30
0.0
 40
2.5
210
0.0
220
0.0
230
-1.0
100
AcDbArc
 50
53.130232
 51
90.0
  0
LINE
  5
2C0
330
1F
100
AcDbEntity
  8
DRAW
  6
CONTINUOUS
 62
     7
100
AcDbLine
 10
-56.613798
 20
117.956587
 30
0.0
 11
-56.347048
 21
117.928689
 31
0.0
  0
LINE
  5
2C1
330
1F
100
AcDbEntity
  8
DRAW
  6
CONTINUOUS
 62
     7
100
AcDbLine
 10
-56.073798
 20
118.439337
 30
0.0
 11
-56.613798
 21
118.490087
 31
0.0
  0
LINE
  5
2C2
330
1F
100
AcDbEntity
  8
DRAW
  6
CONTINUOUS
 62
     7
100
AcDbLine
 10
-56.188298
 20
113.821087
 30
0.0
 11
-56.613798
 21
113.776587
 31
0.0
  0
LINE
  5
2C3
330
1F
100
AcDbEntity
  8
DRAW
  6
CONTINUOUS
 62
     7
100
AcDbLine
 10
-56.518548
 20
114.094087
 30
0.0
 11
-56.372548
 21
113.992587
 31
0.0
  0
LINE
  5
2C4
330
1F
100
AcDbEntity
  8
DRAW
  6
CONTINUOUS
 62
     7
100
AcDbLine
 10
-56.347048
 20
114.672337
 30
0.0
 11
-57.166548
 21
115.561587
 31
0.0
  0
LINE
  5
2C5
330
1F
100
AcDbEntity
  8
DRAW
  6
CONTINUOUS
 62
     7
100
AcDbLine
 10
-60.400426
 20
120.379248
 30
0.0
 11
-33.394558
 21
120.379248
 31
0.0
  0
LINE
  5
2C6
330
1F
100
AcDbEntity
  8
DRAW
  6
CONTINUOUS
 62
     7
100
AcDbLine
 10
-62.078629
 20
122.379251
 30
0.0
 11
-34.494558
 21
122.379251
 31
0.0
  0
LINE
  5
2C7
330
1F
100
AcDbEntity
  8
DRAW
  6
CONTINUOUS
 62
     7
100
AcDbLine
 10
-56.931548
 20
115.637837
 30
0.0
 11
-56.880548
 21
115.733087
 31
0.0
  0
LINE
  5
2C8
330
1F
100
AcDbEntity
  8
DRAW
  6
CONTINUOUS
 62
     7
100
AcDbLine
 10
-57.039548
 20
115.561587
 30
0.0
 11
-56.931548
 21
115.637837
 31
0.0
  0
LINE
  5
2C9
330
1F
100
AcDbEntity
  8
DRAW
  6
CONTINUOUS
 62
     7
100
AcDbLine
 10
-57.166548
 20
115.561587
 30
0.0
 11
-57.039548
 21
115.561587
 31
0.0
  0
LINE
  5
2CA
330
1F
100
AcDbEntity
  8
DRAW
  6
CONTINUOUS
 62
     7
100
AcDbLine
 10
-56.874298
 20
115.860087
 30
0.0
 11
-56.874298
 21
117.93282
 31
0.0
  0
LINE
  5
2CB
330
1F
100
AcDbEntity
  8
DRAW
  6
CONTINUOUS
 62
     7
100
AcDbLine
 10
-56.880548
 20
115.733087
 30
0.0
 11
-56.874298
 21
115.860087
 31
0.0
  0
LINE
  5
2CC
330
1F
100
AcDbEntity
  8
DRAW
  6
CONTINUOUS
 62
     7
100
AcDbLine
 10
-56.874298
 20
117.93282
 30
0.0
 11
-56.613798
 21
117.956587
 31
0.0
  0
LINE
  5
2CD
330
1F
100
AcDbEntity
  8
DRAW
  6
CONTINUOUS
 62
     7
100
AcDbLine
 10
-56.613798
 20
118.490087
 30
0.0
 11
-57.147548
 21
118.432837
 31
0.0
  0
LINE
  5
2CE
330
1F
100
AcDbEntity
  8
DRAW
  6
CONTINUOUS
 62
     7
100
AcDbLine
 10
-59.269298
 20
115.860087
 30
0.0
 11
-59.212048
 21
115.326587
 31
0.0
  0
LINE
  5
2CF
330
1F
100
AcDbEntity
  8
DRAW
  6
CONTINUOUS
 62
     7
100
AcDbLine
 10
-58.690326
 20
115.561587
 30
0.0
 11
-58.005048
 21
115.561587
 31
0.0
  0
LINE
  5
2D0
330
1F
100
AcDbEntity
  8
DRAW
  6
CONTINUOUS
 62
     7
100
AcDbLine
 10
-58.672048
 20
115.440837
 30
0.0
 11
-58.690326
 21
115.561587
 31
0.0
  0
LINE
  5
2D1
330
1F
100
AcDbEntity
  8
DRAW
  6
CONTINUOUS
 62
     7
100
AcDbLine
 10
-58.621298
 20
115.237587
 30
0.0
 11
-58.672048
 21
115.440837
 31
0.0
  0
LINE
  5
2D2
330
1F
100
AcDbEntity
  8
DRAW
  6
CONTINUOUS
 62
     7
100
AcDbLine
 10
-58.551298
 20
115.047087
 30
0.0
 11
-58.621298
 21
115.237587
 31
0.0
  0
LINE
  5
2D3
330
1F
100
AcDbEntity
  8
DRAW
  6
CONTINUOUS
 62
     7
100
AcDbLine
 10
-59.212048
 20
115.326587
 30
0.0
 11
-59.142048
 21
115.072587
 31
0.0
  0
LINE
  5
2D4
330
1F
100
AcDbEntity
  8
DRAW
  6
CONTINUOUS
 62
     7
100
AcDbLine
 10
-58.653048
 20
116.311087
 30
0.0
 11
-58.532298
 21
116.698587
 31
0.0
  0
LINE
  5
2D5
330
1F
100
AcDbEntity
  8
DRAW
  6
CONTINUOUS
 62
     7
100
AcDbLine
 10
-58.675321
 20
116.127087
 30
0.0
 11
-58.653048
 21
116.311087
 31
0.0
  0
LINE
  5
2D6
330
1F
100
AcDbEntity
  8
DRAW
  6
CONTINUOUS
 62
     7
100
AcDbLine
 10
-57.401548
 20
116.127087
 30
0.0
 11
-58.675321
 21
116.127087
 31
0.0
  0
LINE
  5
2D7
330
1F
100
AcDbEntity
  8
DRAW
  6
CONTINUOUS
 62
     7
100
AcDbLine
 10
-57.401548
 20
117.803507
 30
0.0
 11
-57.401548
 21
116.127087
 31
0.0
  0
LINE
  5
2D8
330
1F
100
AcDbEntity
  8
DRAW
  6
CONTINUOUS
 62
     7
100
AcDbLine
 10
-57.420548
 20
117.797587
 30
0.0
 11
-57.401548
 21
117.803507
 31
0.0
  0
LINE
  5
2D9
330
1F
100
AcDbEntity
  8
DRAW
  6
CONTINUOUS
 62
     7
100
AcDbLine
 10
-57.776298
 20
117.607087
 30
0.0
 11
-57.420548
 21
117.797587
 31
0.0
  0
LINE
  5
2DA
330
1F
100
AcDbEntity
  8
DRAW
  6
CONTINUOUS
 62
     7
100
AcDbLine
 10
-58.087548
 20
117.353087
 30
0.0
 11
-57.776298
 21
117.607087
 31
0.0
  0
LINE
  5
2DB
330
1F
100
AcDbEntity
  8
DRAW
  6
CONTINUOUS
 62
     7
100
AcDbLine
 10
-58.221048
 20
117.213337
 30
0.0
 11
-58.087548
 21
117.353087
 31
0.0
  0
LINE
  5
2DC
330
1F
100
AcDbEntity
  8
DRAW
  6
CONTINUOUS
 62
     7
100
AcDbLine
 10
-58.335298
 20
117.048087
 30
0.0
 11
-58.221048
 21
117.213337
 31
0.0
  0
LINE
  5
2DD
330
1F
100
AcDbEntity
  8
DRAW
  6
CONTINUOUS
 62
     7
100
AcDbLine
 10
-58.532298
 20
116.698587
 30
0.0
 11
-58.335298
 21
117.048087
 31
0.0
  0
LINE
  5
2DE
330
1F
100
AcDbEntity
  8
DRAW
  6
CONTINUOUS
 62
     7
100
AcDbLine
 10
-59.205798
 20
116.393837
 30
0.0
 11
-59.269298
 21
115.860087
 31
0.0
  0
LINE
  5
2DF
330
1F
100
AcDbEntity
  8
DRAW
  6
CONTINUOUS
 62
     7
100
AcDbLine
 10
-59.046798
 20
116.889337
 30
0.0
 11
-59.205798
 21
116.393837
 31
0.0
  0
LINE
  5
2E0
330
1F
100
AcDbEntity
  8
DRAW
  6
CONTINUOUS
 62
     7
100
AcDbLine
 10
-58.932548
 20
117.118087
 30
0.0
 11
-59.046798
 21
116.889337
 31
0.0
  0
LINE
  5
2E1
330
1F
100
AcDbEntity
  8
DRAW
  6
CONTINUOUS
 62
     7
100
AcDbLine
 10
-58.799048
 20
117.333837
 30
0.0
 11
-58.932548
 21
117.118087
 31
0.0
  0
LINE
  5
2E2
330
1F
100
AcDbEntity
  8
DRAW
  6
CONTINUOUS
 62
     7
100
AcDbLine
 10
-58.481548
 20
117.721337
 30
0.0
 11
-58.799048
 21
117.333837
 31
0.0
  0
LINE
  5
2E3
330
1F
100
AcDbEntity
  8
DRAW
  6
CONTINUOUS
 62
     7
100
AcDbLine
 10
-58.087548
 20
118.039087
 30
0.0
 11
-58.481548
 21
117.721337
 31
0.0
  0
LINE
  5
2E4
330
1F
100
AcDbEntity
  8
DRAW
  6
CONTINUOUS
 62
     7
100
AcDbLine
 10
-57.643048
 20
118.280587
 30
0.0
 11
-58.087548
 21
118.039087
 31
0.0
  0
LINE
  5
2E5
330
1F
100
AcDbEntity
  8
DRAW
  6
CONTINUOUS
 62
     7
100
AcDbLine
 10
-57.401548
 20
118.369337
 30
0.0
 11
-57.643048
 21
118.280587
 31
0.0
  0
LINE
  5
2E6
330
1F
100
AcDbEntity
  8
DRAW
  6
CONTINUOUS
 62
     7
100
AcDbLine
 10
-57.147548
 20
118.432837
 30
0.0
 11
-57.401548
 21
118.369337
 31
0.0
  0
LINE
  5
2E7
330
1F
100
AcDbEntity
  8
DRAW
  6
CONTINUOUS
 62
     7
100
AcDbLine
 10
-56.664798
 20
114.246587
 30
0.0
 11
-56.518548
 21
114.094087
 31
0.0
  0
LINE
  5
2E8
330
1F
100
AcDbEntity
  8
DRAW
  6
CONTINUOUS
 62
     7
100
AcDbLine
 10
-57.033048
 20
113.821087
 30
0.0
 11
-57.236298
 21
113.871837
 31
0.0
  0
LINE
  5
2E9
330
1F
100
AcDbEntity
  8
DRAW
  6
CONTINUOUS
 62
     7
100
AcDbLine
 10
-56.823548
 20
113.789337
 30
0.0
 11
-57.033048
 21
113.821087
 31
0.0
  0
LINE
  5
2EA
330
1F
100
AcDbEntity
  8
DRAW
  6
CONTINUOUS
 62
     7
100
AcDbLine
 10
-56.613798
 20
113.776587
 30
0.0
 11
-56.823548
 21
113.789337
 31
0.0
  0
LINE
  5
2EB
330
1F
100
AcDbEntity
  8
DRAW
  6
CONTINUOUS
 62
     7
100
AcDbLine
 10
-58.094048
 20
114.380087
 30
0.0
 11
-58.348048
 21
114.691337
 31
0.0
  0
LINE
  5
2EC
330
1F
100
AcDbEntity
  8
DRAW
  6
CONTINUOUS
 62
     7
100
AcDbLine
 10
-57.782798
 20
114.132337
 30
0.0
 11
-58.094048
 21
114.380087
 31
0.0
  0
LINE
  5
2ED
330
1F
100
AcDbEntity
  8
DRAW
  6
CONTINUOUS
 62
     7
100
AcDbLine
 10
-57.427048
 20
113.935337
 30
0.0
 11
-57.782798
 21
114.132337
 31
0.0
  0
LINE
  5
2EE
330
1F
100
AcDbEntity
  8
DRAW
  6
CONTINUOUS
 62
     7
100
AcDbLine
 10
-58.297298
 20
113.814587
 30
0.0
 11
-58.094048
 21
113.662337
 31
0.0
  0
LINE
  5
2EF
330
1F
100
AcDbEntity
  8
DRAW
  6
CONTINUOUS
 62
     7
100
AcDbLine
 10
-58.487798
 20
113.986087
 30
0.0
 11
-58.297298
 21
113.814587
 31
0.0
  0
LINE
  5
2F0
330
1F
100
AcDbEntity
  8
DRAW
  6
CONTINUOUS
 62
     7
100
AcDbLine
 10
-58.659298
 20
114.176837
 30
0.0
 11
-58.487798
 21
113.986087
 31
0.0
  0
LINE
  5
2F1
330
1F
100
AcDbEntity
  8
DRAW
  6
CONTINUOUS
 62
     7
100
AcDbLine
 10
-58.811798
 20
114.380087
 30
0.0
 11
-58.659298
 21
114.176837
 31
0.0
  0
LINE
  5
2F2
330
1F
100
AcDbEntity
  8
DRAW
  6
CONTINUOUS
 62
     7
100
AcDbLine
 10
-58.945298
 20
114.596087
 30
0.0
 11
-58.811798
 21
114.380087
 31
0.0
  0
LINE
  5
2F3
330
1F
100
AcDbEntity
  8
DRAW
  6
CONTINUOUS
 62
     7
100
AcDbLine
 10
-59.059548
 20
114.831087
 30
0.0
 11
-58.945298
 21
114.596087
 31
0.0
  0
LINE
  5
2F4
330
1F
100
AcDbEntity
  8
DRAW
  6
CONTINUOUS
 62
     7
100
AcDbLine
 10
-57.236298
 20
113.871837
 30
0.0
 11
-57.427048
 21
113.935337
 31
0.0
  0
LINE
  5
2F5
330
1F
100
AcDbEntity
  8
DRAW
  6
CONTINUOUS
 62
     7
100
AcDbLine
 10
-58.005048
 20
115.561587
 30
0.0
 11
-56.664798
 21
114.246587
 31
0.0
  0
LINE
  5
2F6
330
1F
100
AcDbEntity
  8
DRAW
  6
CONTINUOUS
 62
     7
100
AcDbLine
 10
-58.348048
 20
114.691337
 30
0.0
 11
-58.551298
 21
115.047087
 31
0.0
  0
LINE
  5
2F7
330
1F
100
AcDbEntity
  8
DRAW
  6
CONTINUOUS
 62
     7
100
AcDbLine
 10
-59.142048
 20
115.072587
 30
0.0
 11
-59.059548
 21
114.831087
 31
0.0
  0
LINE
  5
2F8
330
1F
100
AcDbEntity
  8
DRAW
  6
CONTINUOUS
 62
     7
100
AcDbLine
 10
-42.600298
 20
115.930087
 30
0.0
 11
-42.746298
 21
115.758587
 31
0.0
  0
LINE
  5
2F9
330
1F
100
AcDbEntity
  8
DRAW
  6
CONTINUOUS
 62
     7
100
AcDbLine
 10
-42.778048
 20
114.532587
 30
0.0
 11
-42.682798
 21
114.399087
 31
0.0
  0
LINE
  5
2FA
330
1F
100
AcDbEntity
  8
DRAW
  6
CONTINUOUS
 62
     7
100
AcDbLine
 10
-48.609798
 20
116.171337
 30
0.0
 11
-49.607048
 21
116.171337
 31
0.0
  0
LINE
  5
2FB
330
1F
100
AcDbEntity
  8
DRAW
  6
CONTINUOUS
 62
     7
100
AcDbLine
 10
-49.607048
 20
114.017837
 30
0.0
 11
-48.609798
 21
114.017837
 31
0.0
  0
LINE
  5
2FC
330
1F
100
AcDbEntity
  8
DRAW
  6
CONTINUOUS
 62
     7
100
AcDbLine
 10
-53.139048
 20
115.561587
 30
0.0
 11
-52.840548
 21
115.561587
 31
0.0
  0
LINE
  5
2FD
330
1F
100
AcDbEntity
  8
DRAW
  6
CONTINUOUS
 62
     7
100
AcDbLine
 10
-52.840548
 20
116.171337
 30
0.0
 11
-53.139048
 21
116.171337
 31
0.0
  0
LINE
  5
2FE
330
1F
100
AcDbEntity
  8
DRAW
  6
CONTINUOUS
 62
     7
100
AcDbLine
 10
-53.139048
 20
116.171337
 30
0.0
 11
-53.139048
 21
115.561587
 31
0.0
  0
LINE
  5
2FF
330
1F
100
AcDbEntity
  8
DRAW
  6
CONTINUOUS
 62
     7
100
AcDbLine
 10
-54.523798
 20
115.860087
 30
0.0
 11
-54.568298
 21
115.440837
 31
0.0
  0
LINE
  5
300
330
1F
100
AcDbEntity
  8
DRAW
  6
CONTINUOUS
 62
     7
100
AcDbLine
 10
-53.945798
 20
115.587087
 30
0.0
 11
-53.939548
 21
115.860087
 31
0.0
  0
LINE
  5
301
330
1F
100
AcDbEntity
  8
DRAW
  6
CONTINUOUS
 62
     7
100
AcDbLine
 10
-54.568298
 20
115.440837
 30
0.0
 11
-54.689048
 21
115.053337
 31
0.0
  0
LINE
  5
302
330
1F
100
AcDbEntity
  8
DRAW
  6
CONTINUOUS
 62
     7
100
AcDbLine
 10
-53.990298
 20
115.326587
 30
0.0
 11
-53.945798
 21
115.587087
 31
0.0
  0
LINE
  5
303
330
1F
100
AcDbEntity
  8
DRAW
  6
CONTINUOUS
 62
     7
100
AcDbLine
 10
-54.053798
 20
115.066087
 30
0.0
 11
-53.990298
 21
115.326587
 31
0.0
  0
LINE
  5
304
330
1F
100
AcDbEntity
  8
DRAW
  6
CONTINUOUS
 62
     7
100
AcDbLine
 10
-54.568298
 20
116.285837
 30
0.0
 11
-54.523798
 21
115.860087
 31
0.0
  0
LINE
  5
305
330
1F
100
AcDbEntity
  8
DRAW
  6
CONTINUOUS
 62
     7
100
AcDbLine
 10
-54.689048
 20
116.673337
 30
0.0
 11
-54.568298
 21
116.285837
 31
0.0
  0
LINE
  5
306
330
1F
100
AcDbEntity
  8
DRAW
  6
CONTINUOUS
 62
     7
100
AcDbLine
 10
-54.886048
 20
117.029087
 30
0.0
 11
-54.689048
 21
116.673337
 31
0.0
  0
LINE
  5
307
330
1F
100
AcDbEntity
  8
DRAW
  6
CONTINUOUS
 62
     7
100
AcDbLine
 10
-55.140048
 20
117.340337
 30
0.0
 11
-54.886048
 21
117.029087
 31
0.0
  0
LINE
  5
308
330
1F
100
AcDbEntity
  8
DRAW
  6
CONTINUOUS
 62
     7
100
AcDbLine
 10
-55.445048
 20
117.594337
 30
0.0
 11
-55.140048
 21
117.340337
 31
0.0
  0
LINE
  5
309
330
1F
100
AcDbEntity
  8
DRAW
  6
CONTINUOUS
 62
     7
100
AcDbLine
 10
-55.800798
 20
117.791337
 30
0.0
 11
-55.445048
 21
117.594337
 31
0.0
  0
LINE
  5
30A
330
1F
100
AcDbEntity
  8
DRAW
  6
CONTINUOUS
 62
     7
100
AcDbLine
 10
-55.813548
 20
117.79531
 30
0.0
 11
-55.800798
 21
117.791337
 31
0.0
  0
LINE
  5
30B
330
1F
100
AcDbEntity
  8
DRAW
  6
CONTINUOUS
 62
     7
100
AcDbLine
 10
-55.813548
 20
116.724087
 30
0.0
 11
-55.813548
 21
117.79531
 31
0.0
  0
LINE
  5
30C
330
1F
100
AcDbEntity
  8
DRAW
  6
CONTINUOUS
 62
     7
100
AcDbLine
 10
-55.184548
 20
116.724087
 30
0.0
 11
-55.813548
 21
116.724087
 31
0.0
  0
LINE
  5
30D
330
1F
100
AcDbEntity
  8
DRAW
  6
CONTINUOUS
 62
     7
100
AcDbLine
 10
-55.082798
 20
116.692337
 30
0.0
 11
-55.184548
 21
116.724087
 31
0.0
  0
LINE
  5
30E
330
1F
100
AcDbEntity
  8
DRAW
  6
CONTINUOUS
 62
     7
100
AcDbLine
 10
-55.000298
 20
116.622587
 30
0.0
 11
-55.082798
 21
116.692337
 31
0.0
  0
LINE
  5
30F
330
1F
100
AcDbEntity
  8
DRAW
  6
CONTINUOUS
 62
     7
100
AcDbLine
 10
-54.949548
 20
116.533587
 30
0.0
 11
-55.000298
 21
116.622587
 31
0.0
  0
LINE
  5
310
330
1F
100
AcDbEntity
  8
DRAW
  6
CONTINUOUS
 62
     7
100
AcDbLine
 10
-54.936798
 20
116.425587
 30
0.0
 11
-54.949548
 21
116.533587
 31
0.0
  0
LINE
  5
311
330
1F
100
AcDbEntity
  8
DRAW
  6
CONTINUOUS
 62
     7
100
AcDbLine
 10
-54.962298
 20
116.330337
 30
0.0
 11
-54.936798
 21
116.425587
 31
0.0
  0
LINE
  5
312
330
1F
100
AcDbEntity
  8
DRAW
  6
CONTINUOUS
 62
     7
100
AcDbLine
 10
-55.013048
 20
116.254087
 30
0.0
 11
-54.962298
 21
116.330337
 31
0.0
  0
LINE
  5
313
330
1F
100
AcDbEntity
  8
DRAW
  6
CONTINUOUS
 62
     7
100
AcDbLine
 10
-55.089298
 20
116.196837
 30
0.0
 11
-55.013048
 21
116.254087
 31
0.0
  0
LINE
  5
314
330
1F
100
AcDbEntity
  8
DRAW
  6
CONTINUOUS
 62
     7
100
AcDbLine
 10
-55.184548
 20
116.171337
 30
0.0
 11
-55.089298
 21
116.196837
 31
0.0
  0
LINE
  5
315
330
1F
100
AcDbEntity
  8
DRAW
  6
CONTINUOUS
 62
     7
100
AcDbLine
 10
-55.813548
 20
116.171337
 30
0.0
 11
-55.184548
 21
116.171337
 31
0.0
  0
LINE
  5
316
330
1F
100
AcDbEntity
  8
DRAW
  6
CONTINUOUS
 62
     7
100
AcDbLine
 10
-55.127298
 20
118.051837
 30
0.0
 11
-55.578298
 21
118.293087
 31
0.0
  0
LINE
  5
317
330
1F
100
AcDbEntity
  8
DRAW
  6
CONTINUOUS
 62
     7
100
AcDbLine
 10
-54.733548
 20
117.727837
 30
0.0
 11
-55.127298
 21
118.051837
 31
0.0
  0
LINE
  5
318
330
1F
100
AcDbEntity
  8
DRAW
  6
CONTINUOUS
 62
     7
100
AcDbLine
 10
-54.403298
 20
117.340337
 30
0.0
 11
-54.733548
 21
117.727837
 31
0.0
  0
LINE
  5
319
330
1F
100
AcDbEntity
  8
DRAW
  6
CONTINUOUS
 62
     7
100
AcDbLine
 10
-54.263548
 20
117.124337
 30
0.0
 11
-54.403298
 21
117.340337
 31
0.0
  0
LINE
  5
31A
330
1F
100
AcDbEntity
  8
DRAW
  6
CONTINUOUS
 62
     7
100
AcDbLine
 10
-54.155548
 20
116.889337
 30
0.0
 11
-54.263548
 21
117.124337
 31
0.0
  0
LINE
  5
31B
330
1F
100
AcDbEntity
  8
DRAW
  6
CONTINUOUS
 62
     7
100
AcDbLine
 10
-54.060048
 20
116.647837
 30
0.0
 11
-54.155548
 21
116.889337
 31
0.0
  0
LINE
  5
31C
330
1F
100
AcDbEntity
  8
DRAW
  6
CONTINUOUS
 62
     7
100
AcDbLine
 10
-53.996548
 20
116.393837
 30
0.0
 11
-54.060048
 21
116.647837
 31
0.0
  0
LINE
  5
31D
330
1F
100
AcDbEntity
  8
DRAW
  6
CONTINUOUS
 62
     7
100
AcDbLine
 10
-53.939548
 20
115.860087
 30
0.0
 11
-53.996548
 21
116.393837
 31
0.0
  0
LINE
  5
31E
330
1F
100
AcDbEntity
  8
DRAW
  6
CONTINUOUS
 62
     7
100
AcDbLine
 10
-55.578298
 20
118.293087
 30
0.0
 11
-56.073798
 21
118.439337
 31
0.0
  0
LINE
  5
31F
330
1F
100
AcDbEntity
  8
DRAW
  6
CONTINUOUS
 62
     7
100
AcDbLine
 10
-55.889548
 20
114.113337
 30
0.0
 11
-55.813548
 21
114.316587
 31
0.0
  0
LINE
  5
320
330
1F
100
AcDbEntity
  8
DRAW
  6
CONTINUOUS
 62
     7
100
AcDbLine
 10
-56.061298
 20
113.986087
 30
0.0
 11
-55.889548
 21
114.113337
 31
0.0
  0
LINE
  5
321
330
1F
100
AcDbEntity
  8
DRAW
  6
CONTINUOUS
 62
     7
100
AcDbLine
 10
-56.226298
 20
113.954337
 30
0.0
 11
-56.061298
 21
113.986087
 31
0.0
  0
LINE
  5
322
330
1F
100
AcDbEntity
  8
DRAW
  6
CONTINUOUS
 62
     7
100
AcDbLine
 10
-56.372548
 20
113.992587
 30
0.0
 11
-56.226298
 21
113.954337
 31
0.0
  0
LINE
  5
323
330
1F
100
AcDbEntity
  8
DRAW
  6
CONTINUOUS
 62
     7
100
AcDbLine
 10
-55.800798
 20
113.941837
 30
0.0
 11
-56.188298
 21
113.821087
 31
0.0
  0
LINE
  5
324
330
1F
100
AcDbEntity
  8
DRAW
  6
CONTINUOUS
 62
     7
100
AcDbLine
 10
-55.445048
 20
114.138587
 30
0.0
 11
-55.800798
 21
113.941837
 31
0.0
  0
LINE
  5
325
330
1F
100
AcDbEntity
  8
DRAW
  6
CONTINUOUS
 62
     7
100
AcDbLine
 10
-55.140048
 20
114.392837
 30
0.0
 11
-55.445048
 21
114.138587
 31
0.0
  0
LINE
  5
326
330
1F
100
AcDbEntity
  8
DRAW
  6
CONTINUOUS
 62
     7
100
AcDbLine
 10
-54.886048
 20
114.704087
 30
0.0
 11
-55.140048
 21
114.392837
 31
0.0
  0
LINE
  5
327
330
1F
100
AcDbEntity
  8
DRAW
  6
CONTINUOUS
 62
     7
100
AcDbLine
 10
-54.257048
 20
114.589587
 30
0.0
 11
-54.149048
 21
114.824837
 31
0.0
  0
LINE
  5
328
330
1F
100
AcDbEntity
  8
DRAW
  6
CONTINUOUS
 62
     7
100
AcDbLine
 10
-54.396798
 20
114.373587
 30
0.0
 11
-54.257048
 21
114.589587
 31
0.0
  0
LINE
  5
329
330
1F
100
AcDbEntity
  8
DRAW
  6
CONTINUOUS
 62
     7
100
AcDbLine
 10
-54.720798
 20
113.979837
 30
0.0
 11
-54.396798
 21
114.373587
 31
0.0
  0
LINE
  5
32A
330
1F
100
AcDbEntity
  8
DRAW
  6
CONTINUOUS
 62
     7
100
AcDbLine
 10
-54.911298
 20
113.808337
 30
0.0
 11
-54.720798
 21
113.979837
 31
0.0
  0
LINE
  5
32B
330
1F
100
AcDbEntity
  8
DRAW
  6
CONTINUOUS
 62
     7
100
AcDbLine
 10
-55.114548
 20
113.655837
 30
0.0
 11
-54.911298
 21
113.808337
 31
0.0
  0
LINE
  5
32C
330
1F
100
AcDbEntity
  8
DRAW
  6
CONTINUOUS
 62
     7
100
AcDbLine
 10
-56.347048
 20
117.928689
 30
0.0
 11
-56.347048
 21
114.672337
 31
0.0
  0
LINE
  5
32D
330
1F
100
AcDbEntity
  8
DRAW
  6
CONTINUOUS
 62
     7
100
AcDbLine
 10
-55.813548
 20
114.316587
 30
0.0
 11
-55.813548
 21
116.171337
 31
0.0
  0
LINE
  5
32E
330
1F
100
AcDbEntity
  8
DRAW
  6
CONTINUOUS
 62
     7
100
AcDbLine
 10
-54.689048
 20
115.053337
 30
0.0
 11
-54.886048
 21
114.704087
 31
0.0
  0
LINE
  5
32F
330
1F
100
AcDbEntity
  8
DRAW
  6
CONTINUOUS
 62
     7
100
AcDbLine
 10
-54.149048
 20
114.824837
 30
0.0
 11
-54.053798
 21
115.066087
 31
0.0
  0
LINE
  5
330
330
1F
100
AcDbEntity
  8
DRAW
  6
CONTINUOUS
 62
     7
100
AcDbLine
 10
-50.089798
 20
116.412837
 30
0.0
 11
-50.089798
 21
116.908337
 31
0.0
  0
LINE
  5
331
330
1F
100
AcDbEntity
  8
DRAW
  6
CONTINUOUS
 62
     7
100
AcDbLine
 10
-50.089798
 20
114.017837
 30
0.0
 11
-50.089798
 21
116.171337
 31
0.0
  0
LINE
  5
332
330
1F
100
AcDbEntity
  8
DRAW
  6
CONTINUOUS
 62
     7
100
AcDbLine
 10
-49.607048
 20
116.171337
 30
0.0
 11
-49.607048
 21
114.017837
 31
0.0
  0
LINE
  5
333
330
1F
100
AcDbEntity
  8
DRAW
  6
CONTINUOUS
 62
     7
100
AcDbLine
 10
-52.332298
 20
116.908337
 30
0.0
 11
-52.529298
 21
116.870337
 31
0.0
  0
LINE
  5
334
330
1F
100
AcDbEntity
  8
DRAW
  6
CONTINUOUS
 62
     7
100
AcDbLine
 10
-52.840548
 20
116.406587
 30
0.0
 11
-52.840548
 21
116.171337
 31
0.0
  0
LINE
  5
335
330
1F
100
AcDbEntity
  8
DRAW
  6
CONTINUOUS
 62
     7
100
AcDbLine
 10
-52.802298
 20
116.603337
 30
0.0
 11
-52.840548
 21
116.406587
 31
0.0
  0
LINE
  5
336
330
1F
100
AcDbEntity
  8
DRAW
  6
CONTINUOUS
 62
     7
100
AcDbLine
 10
-52.688048
 20
116.762337
 30
0.0
 11
-52.802298
 21
116.603337
 31
0.0
  0
LINE
  5
337
330
1F
100
AcDbEntity
  8
DRAW
  6
CONTINUOUS
 62
     7
100
AcDbLine
 10
-52.529298
 20
116.870337
 30
0.0
 11
-52.688048
 21
116.762337
 31
0.0
  0
LINE
  5
338
330
1F
100
AcDbEntity
  8
DRAW
  6
CONTINUOUS
 62
     7
100
AcDbLine
 10
-51.500048
 20
115.561587
 30
0.0
 11
-51.500048
 21
116.171337
 31
0.0
  0
LINE
  5
339
330
1F
100
AcDbEntity
  8
DRAW
  6
CONTINUOUS
 62
     7
100
AcDbLine
 10
-51.843048
 20
115.561587
 30
0.0
 11
-51.500048
 21
115.561587
 31
0.0
  0
LINE
  5
33A
330
1F
100
AcDbEntity
  8
DRAW
  6
CONTINUOUS
 62
     7
100
AcDbLine
 10
-51.500048
 20
116.406587
 30
0.0
 11
-51.500048
 21
116.908337
 31
0.0
  0
LINE
  5
33B
330
1F
100
AcDbEntity
  8
DRAW
  6
CONTINUOUS
 62
     7
100
AcDbLine
 10
-51.697048
 20
116.406587
 30
0.0
 11
-51.500048
 21
116.406587
 31
0.0
  0
LINE
  5
33C
330
1F
100
AcDbEntity
  8
DRAW
  6
CONTINUOUS
 62
     7
100
AcDbLine
 10
-51.786048
 20
116.387337
 30
0.0
 11
-51.697048
 21
116.406587
 31
0.0
  0
LINE
  5
33D
330
1F
100
AcDbEntity
  8
DRAW
  6
CONTINUOUS
 62
     7
100
AcDbLine
 10
-51.843048
 20
116.343087
 30
0.0
 11
-51.786048
 21
116.387337
 31
0.0
  0
LINE
  5
33E
330
1F
100
AcDbEntity
  8
DRAW
  6
CONTINUOUS
 62
     7
100
AcDbLine
 10
-51.874798
 20
116.171337
 30
0.0
 11
-51.843048
 21
116.343087
 31
0.0
  0
LINE
  5
33F
330
1F
100
AcDbEntity
  8
DRAW
  6
CONTINUOUS
 62
     7
100
AcDbLine
 10
-51.500048
 20
116.171337
 30
0.0
 11
-51.874798
 21
116.171337
 31
0.0
  0
LINE
  5
340
330
1F
100
AcDbEntity
  8
DRAW
  6
CONTINUOUS
 62
     7
100
AcDbLine
 10
-51.500048
 20
116.908337
 30
0.0
 11
-52.332298
 21
116.908337
 31
0.0
  0
LINE
  5
341
330
1F
100
AcDbEntity
  8
DRAW
  6
CONTINUOUS
 62
     7
100
AcDbLine
 10
-51.099798
 20
116.908337
 30
0.0
 11
-51.099798
 21
116.412837
 31
0.0
  0
LINE
  5
342
330
1F
100
AcDbEntity
  8
DRAW
  6
CONTINUOUS
 62
     7
100
AcDbLine
 10
-52.840548
 20
114.017837
 30
0.0
 11
-51.843048
 21
114.017837
 31
0.0
  0
LINE
  5
343
330
1F
100
AcDbEntity
  8
DRAW
  6
CONTINUOUS
 62
     7
100
AcDbLine
 10
-52.840548
 20
115.561587
 30
0.0
 11
-52.840548
 21
114.017837
 31
0.0
  0
LINE
  5
344
330
1F
100
AcDbEntity
  8
DRAW
  6
CONTINUOUS
 62
     7
100
AcDbLine
 10
-51.099798
 20
116.171337
 30
0.0
 11
-51.099798
 21
114.017837
 31
0.0
  0
LINE
  5
345
330
1F
100
AcDbEntity
  8
DRAW
  6
CONTINUOUS
 62
     7
100
AcDbLine
 10
-51.843048
 20
114.017837
 30
0.0
 11
-51.843048
 21
115.561587
 31
0.0
  0
LINE
  5
346
330
1F
100
AcDbEntity
  8
DRAW
  6
CONTINUOUS
 62
     7
100
AcDbLine
 10
-51.099798
 20
114.017837
 30
0.0
 11
-50.089798
 21
114.017837
 31
0.0
  0
LINE
  5
347
330
1F
100
AcDbEntity
  8
DRAW
  6
CONTINUOUS
 62
     7
100
AcDbLine
 10
-50.089798
 20
116.171337
 30
0.0
 11
-51.099798
 21
116.171337
 31
0.0
  0
LINE
  5
348
330
1F
100
AcDbEntity
  8
DRAW
  6
CONTINUOUS
 62
     7
100
AcDbLine
 10
-51.099798
 20
116.412837
 30
0.0
 11
-50.089798
 21
116.412837
 31
0.0
  0
LINE
  5
349
330
1F
100
AcDbEntity
  8
DRAW
  6
CONTINUOUS
 62
     7
100
AcDbLine
 10
-50.089798
 20
116.908337
 30
0.0
 11
-51.099798
 21
116.908337
 31
0.0
  0
LINE
  5
34A
330
1F
100
AcDbEntity
  8
DRAW
  6
CONTINUOUS
 62
     7
100
AcDbLine
 10
-46.113048
 20
115.739587
 30
0.0
 11
-46.221048
 21
115.548837
 31
0.0
  0
LINE
  5
34B
330
1F
100
AcDbEntity
  8
DRAW
  6
CONTINUOUS
 62
     7
100
AcDbLine
 10
-46.227548
 20
114.665837
 30
0.0
 11
-46.125798
 21
114.475337
 31
0.0
  0
LINE
  5
34C
330
1F
100
AcDbEntity
  8
DRAW
  6
CONTINUOUS
 62
     7
100
AcDbLine
 10
-46.627798
 20
115.644087
 30
0.0
 11
-46.710298
 21
115.834837
 31
0.0
  0
LINE
  5
34D
330
1F
100
AcDbEntity
  8
DRAW
  6
CONTINUOUS
 62
     7
100
AcDbLine
 10
-46.608548
 20
115.447337
 30
0.0
 11
-46.627798
 21
115.644087
 31
0.0
  0
LINE
  5
34E
330
1F
100
AcDbEntity
  8
DRAW
  6
CONTINUOUS
 62
     7
100
AcDbLine
 10
-46.291048
 20
115.332837
 30
0.0
 11
-46.316548
 21
115.104337
 31
0.0
  0
LINE
  5
34F
330
1F
100
AcDbEntity
  8
DRAW
  6
CONTINUOUS
 62
     7
100
AcDbLine
 10
-46.221048
 20
115.548837
 30
0.0
 11
-46.291048
 21
115.332837
 31
0.0
  0
LINE
  5
350
330
1F
100
AcDbEntity
  8
DRAW
  6
CONTINUOUS
 62
     7
100
AcDbLine
 10
-46.812048
 20
115.961837
 30
0.0
 11
-47.015298
 21
116.101587
 31
0.0
  0
LINE
  5
351
330
1F
100
AcDbEntity
  8
DRAW
  6
CONTINUOUS
 62
     7
100
AcDbLine
 10
-46.710298
 20
115.834837
 30
0.0
 11
-46.812048
 21
115.961837
 31
0.0
  0
LINE
  5
352
330
1F
100
AcDbEntity
  8
DRAW
  6
CONTINUOUS
 62
     7
100
AcDbLine
 10
-48.419048
 20
115.256587
 30
0.0
 11
-48.241298
 21
115.358337
 31
0.0
  0
LINE
  5
353
330
1F
100
AcDbEntity
  8
DRAW
  6
CONTINUOUS
 62
     7
100
AcDbLine
 10
-48.533548
 20
115.142337
 30
0.0
 11
-48.419048
 21
115.256587
 31
0.0
  0
LINE
  5
354
330
1F
100
AcDbEntity
  8
DRAW
  6
CONTINUOUS
 62
     7
100
AcDbLine
 10
-48.578048
 20
115.072587
 30
0.0
 11
-48.533548
 21
115.142337
 31
0.0
  0
LINE
  5
355
330
1F
100
AcDbEntity
  8
DRAW
  6
CONTINUOUS
 62
     7
100
AcDbLine
 10
-48.609798
 20
114.977087
 30
0.0
 11
-48.578048
 21
115.072587
 31
0.0
  0
LINE
  5
356
330
1F
100
AcDbEntity
  8
DRAW
  6
CONTINUOUS
 62
     7
100
AcDbLine
 10
-47.637798
 20
115.205837
 30
0.0
 11
-47.599548
 21
115.047087
 31
0.0
  0
LINE
  5
357
330
1F
100
AcDbEntity
  8
DRAW
  6
CONTINUOUS
 62
     7
100
AcDbLine
 10
-47.695048
 20
115.294837
 30
0.0
 11
-47.637798
 21
115.205837
 31
0.0
  0
LINE
  5
358
330
1F
100
AcDbEntity
  8
DRAW
  6
CONTINUOUS
 62
     7
100
AcDbLine
 10
-47.796548
 20
115.364587
 30
0.0
 11
-47.695048
 21
115.294837
 31
0.0
  0
LINE
  5
359
330
1F
100
AcDbEntity
  8
DRAW
  6
CONTINUOUS
 62
     7
100
AcDbLine
 10
-48.006298
 20
115.402837
 30
0.0
 11
-47.796548
 21
115.364587
 31
0.0
  0
LINE
  5
35A
330
1F
100
AcDbEntity
  8
DRAW
  6
CONTINUOUS
 62
     7
100
AcDbLine
 10
-48.126798
 20
115.396337
 30
0.0
 11
-48.006298
 21
115.402837
 31
0.0
  0
LINE
  5
35B
330
1F
100
AcDbEntity
  8
DRAW
  6
CONTINUOUS
 62
     7
100
AcDbLine
 10
-48.241298
 20
115.358337
 30
0.0
 11
-48.126798
 21
115.396337
 31
0.0
  0
LINE
  5
35C
330
1F
100
AcDbEntity
  8
DRAW
  6
CONTINUOUS
 62
     7
100
AcDbLine
 10
-48.323798
 20
116.076087
 30
0.0
 11
-48.539798
 21
115.974587
 31
0.0
  0
LINE
  5
35D
330
1F
100
AcDbEntity
  8
DRAW
  6
CONTINUOUS
 62
     7
100
AcDbLine
 10
-48.609798
 20
115.930087
 30
0.0
 11
-48.609798
 21
116.171337
 31
0.0
  0
LINE
  5
35E
330
1F
100
AcDbEntity
  8
DRAW
  6
CONTINUOUS
 62
     7
100
AcDbLine
 10
-48.539798
 20
115.974587
 30
0.0
 11
-48.609798
 21
115.930087
 31
0.0
  0
LINE
  5
35F
330
1F
100
AcDbEntity
  8
DRAW
  6
CONTINUOUS
 62
     7
100
AcDbLine
 10
-47.739298
 20
116.190587
 30
0.0
 11
-47.968048
 21
116.165087
 31
0.0
  0
LINE
  5
360
330
1F
100
AcDbEntity
  8
DRAW
  6
CONTINUOUS
 62
     7
100
AcDbLine
 10
-47.479048
 20
116.184087
 30
0.0
 11
-47.739298
 21
116.190587
 31
0.0
  0
LINE
  5
361
330
1F
100
AcDbEntity
  8
DRAW
  6
CONTINUOUS
 62
     7
100
AcDbLine
 10
-47.231298
 20
116.158837
 30
0.0
 11
-47.479048
 21
116.184087
 31
0.0
  0
LINE
  5
362
330
1F
100
AcDbEntity
  8
DRAW
  6
CONTINUOUS
 62
     7
100
AcDbLine
 10
-47.968048
 20
116.165087
 30
0.0
 11
-48.323798
 21
116.076087
 31
0.0
  0
LINE
  5
363
330
1F
100
AcDbEntity
  8
DRAW
  6
CONTINUOUS
 62
     7
100
AcDbLine
 10
-47.015298
 20
116.101587
 30
0.0
 11
-47.231298
 21
116.158837
 31
0.0
  0
LINE
  5
364
330
1F
100
AcDbEntity
  8
DRAW
  6
CONTINUOUS
 62
     7
100
AcDbLine
 10
-46.291048
 20
114.875587
 30
0.0
 11
-46.227548
 21
114.665837
 31
0.0
  0
LINE
  5
365
330
1F
100
AcDbEntity
  8
DRAW
  6
CONTINUOUS
 62
     7
100
AcDbLine
 10
-47.599548
 20
114.017837
 30
0.0
 11
-46.608548
 21
114.017837
 31
0.0
  0
LINE
  5
366
330
1F
100
AcDbEntity
  8
DRAW
  6
CONTINUOUS
 62
     7
100
AcDbLine
 10
-48.609798
 20
114.017837
 30
0.0
 11
-48.609798
 21
114.977087
 31
0.0
  0
LINE
  5
367
330
1F
100
AcDbEntity
  8
DRAW
  6
CONTINUOUS
 62
     7
100
AcDbLine
 10
-46.608548
 20
114.017837
 30
0.0
 11
-46.608548
 21
115.447337
 31
0.0
  0
LINE
  5
368
330
1F
100
AcDbEntity
  8
DRAW
  6
CONTINUOUS
 62
     7
100
AcDbLine
 10
-47.599548
 20
115.047087
 30
0.0
 11
-47.599548
 21
114.017837
 31
0.0
  0
LINE
  5
369
330
1F
100
AcDbEntity
  8
DRAW
  6
CONTINUOUS
 62
     7
100
AcDbLine
 10
-46.316548
 20
115.104337
 30
0.0
 11
-46.291048
 21
114.875587
 31
0.0
  0
LINE
  5
36A
330
1F
100
AcDbEntity
  8
DRAW
  6
CONTINUOUS
 62
     7
100
AcDbLine
 10
-42.746298
 20
115.758587
 30
0.0
 11
-42.854298
 21
115.561587
 31
0.0
  0
LINE
  5
36B
330
1F
100
AcDbEntity
  8
DRAW
  6
CONTINUOUS
 62
     7
100
AcDbLine
 10
-42.924298
 20
115.345587
 30
0.0
 11
-42.949548
 21
115.104337
 31
0.0
  0
LINE
  5
36C
330
1F
100
AcDbEntity
  8
DRAW
  6
CONTINUOUS
 62
     7
100
AcDbLine
 10
-42.854298
 20
115.561587
 30
0.0
 11
-42.924298
 21
115.345587
 31
0.0
  0
LINE
  5
36D
330
1F
100
AcDbEntity
  8
DRAW
  6
CONTINUOUS
 62
     7
100
AcDbLine
 10
-44.398048
 20
115.466337
 30
0.0
 11
-44.277298
 21
115.352087
 31
0.0
  0
LINE
  5
36E
330
1F
100
AcDbEntity
  8
DRAW
  6
CONTINUOUS
 62
     7
100
AcDbLine
 10
-44.220048
 20
116.06662
 30
0.0
 11
-44.302798
 21
116.127087
 31
0.0
  0
LINE
  5
36F
330
1F
100
AcDbEntity
  8
DRAW
  6
CONTINUOUS
 62
     7
100
AcDbLine
 10
-44.569548
 20
115.548837
 30
0.0
 11
-44.398048
 21
115.466337
 31
0.0
  0
LINE
  5
370
330
1F
100
AcDbEntity
  8
DRAW
  6
CONTINUOUS
 62
     7
100
AcDbLine
 10
-44.772798
 20
115.580587
 30
0.0
 11
-44.569548
 21
115.548837
 31
0.0
  0
LINE
  5
371
330
1F
100
AcDbEntity
  8
DRAW
  6
CONTINUOUS
 62
     7
100
AcDbLine
 10
-44.982548
 20
115.548837
 30
0.0
 11
-44.772798
 21
115.580587
 31
0.0
  0
LINE
  5
372
330
1F
100
AcDbEntity
  8
DRAW
  6
CONTINUOUS
 62
     7
100
AcDbLine
 10
-45.154048
 20
115.453587
 30
0.0
 11
-44.982548
 21
115.548837
 31
0.0
  0
LINE
  5
373
330
1F
100
AcDbEntity
  8
DRAW
  6
CONTINUOUS
 62
     7
100
AcDbLine
 10
-45.268298
 20
115.313837
 30
0.0
 11
-45.154048
 21
115.453587
 31
0.0
  0
LINE
  5
374
330
1F
100
AcDbEntity
  8
DRAW
  6
CONTINUOUS
 62
     7
100
AcDbLine
 10
-45.312798
 20
115.142337
 30
0.0
 11
-45.268298
 21
115.313837
 31
0.0
  0
LINE
  5
375
330
1F
100
AcDbEntity
  8
DRAW
  6
CONTINUOUS
 62
     7
100
AcDbLine
 10
-45.300048
 20
115.059837
 30
0.0
 11
-45.312798
 21
115.142337
 31
0.0
  0
LINE
  5
376
330
1F
100
AcDbEntity
  8
DRAW
  6
CONTINUOUS
 62
     7
100
AcDbLine
 10
-45.268298
 20
114.977087
 30
0.0
 11
-45.300048
 21
115.059837
 31
0.0
  0
LINE
  5
377
330
1F
100
AcDbEntity
  8
DRAW
  6
CONTINUOUS
 62
     7
100
AcDbLine
 10
-45.967048
 20
115.911087
 30
0.0
 11
-46.113048
 21
115.739587
 31
0.0
  0
LINE
  5
378
330
1F
100
AcDbEntity
  8
DRAW
  6
CONTINUOUS
 62
     7
100
AcDbLine
 10
-45.789298
 20
116.057087
 30
0.0
 11
-45.967048
 21
115.911087
 31
0.0
  0
LINE
  5
379
330
1F
100
AcDbEntity
  8
DRAW
  6
CONTINUOUS
 62
     7
100
AcDbLine
 10
-45.592298
 20
116.158837
 30
0.0
 11
-45.789298
 21
116.057087
 31
0.0
  0
LINE
  5
37A
330
1F
100
AcDbEntity
  8
DRAW
  6
CONTINUOUS
 62
     7
100
AcDbLine
 10
-45.376298
 20
116.222337
 30
0.0
 11
-45.592298
 21
116.158837
 31
0.0
  0
LINE
  5
37B
330
1F
100
AcDbEntity
  8
DRAW
  6
CONTINUOUS
 62
     7
100
AcDbLine
 10
-45.147548
 20
116.247587
 30
0.0
 11
-45.376298
 21
116.222337
 31
0.0
  0
LINE
  5
37C
330
1F
100
AcDbEntity
  8
DRAW
  6
CONTINUOUS
 62
     7
100
AcDbLine
 10
-44.861798
 20
116.247587
 30
0.0
 11
-45.147548
 21
116.247587
 31
0.0
  0
LINE
  5
37D
330
1F
100
AcDbEntity
  8
DRAW
  6
CONTINUOUS
 62
     7
100
AcDbLine
 10
-44.550548
 20
116.203337
 30
0.0
 11
-44.861798
 21
116.247587
 31
0.0
  0
LINE
  5
37E
330
1F
100
AcDbEntity
  8
DRAW
  6
CONTINUOUS
 62
     7
100
AcDbLine
 10
-44.302798
 20
116.127087
 30
0.0
 11
-44.550548
 21
116.203337
 31
0.0
  0
LINE
  5
37F
330
1F
100
AcDbEntity
  8
DRAW
  6
CONTINUOUS
 62
     7
100
AcDbLine
 10
-44.277298
 20
115.352087
 30
0.0
 11
-44.220048
 21
115.199587
 31
0.0
  0
LINE
  5
380
330
1F
100
AcDbEntity
  8
DRAW
  6
CONTINUOUS
 62
     7
100
AcDbLine
 10
-44.220048
 20
115.116837
 30
0.0
 11
-44.271048
 21
114.958087
 31
0.0
  0
LINE
  5
381
330
1F
100
AcDbEntity
  8
DRAW
  6
CONTINUOUS
 62
     7
100
AcDbLine
 10
-44.220048
 20
115.199587
 30
0.0
 11
-44.220048
 21
115.116837
 31
0.0
  0
LINE
  5
382
330
1F
100
AcDbEntity
  8
DRAW
  6
CONTINUOUS
 62
     7
100
AcDbLine
 10
-44.220048
 20
116.902087
 30
0.0
 11
-44.220048
 21
116.06662
 31
0.0
  0
LINE
  5
383
330
1F
100
AcDbEntity
  8
DRAW
  6
CONTINUOUS
 62
     7
100
AcDbLine
 10
-43.222798
 20
116.902087
 30
0.0
 11
-44.220048
 21
116.902087
 31
0.0
  0
LINE
  5
384
330
1F
100
AcDbEntity
  8
DRAW
  6
CONTINUOUS
 62
     7
100
AcDbLine
 10
-42.867048
 20
114.697587
 30
0.0
 11
-42.778048
 21
114.532587
 31
0.0
  0
LINE
  5
385
330
1F
100
AcDbEntity
  8
DRAW
  6
CONTINUOUS
 62
     7
100
AcDbLine
 10
-42.924298
 20
114.888337
 30
0.0
 11
-42.867048
 21
114.697587
 31
0.0
  0
LINE
  5
386
330
1F
100
AcDbEntity
  8
DRAW
  6
CONTINUOUS
 62
     7
100
AcDbLine
 10
-44.353548
 20
114.100587
 30
0.0
 11
-44.220048
 21
114.181587
 31
0.0
  0
LINE
  5
387
330
1F
100
AcDbEntity
  8
DRAW
  6
CONTINUOUS
 62
     7
100
AcDbLine
 10
-44.982548
 20
114.748587
 30
0.0
 11
-45.154048
 21
114.837337
 31
0.0
  0
LINE
  5
388
330
1F
100
AcDbEntity
  8
DRAW
  6
CONTINUOUS
 62
     7
100
AcDbLine
 10
-44.880798
 20
114.723087
 30
0.0
 11
-44.982548
 21
114.748587
 31
0.0
  0
LINE
  5
389
330
1F
100
AcDbEntity
  8
DRAW
  6
CONTINUOUS
 62
     7
100
AcDbLine
 10
-44.772798
 20
114.710337
 30
0.0
 11
-44.880798
 21
114.723087
 31
0.0
  0
LINE
  5
38A
330
1F
100
AcDbEntity
  8
DRAW
  6
CONTINUOUS
 62
     7
100
AcDbLine
 10
-44.563048
 20
114.742087
 30
0.0
 11
-44.772798
 21
114.710337
 31
0.0
  0
LINE
  5
38B
330
1F
100
AcDbEntity
  8
DRAW
  6
CONTINUOUS
 62
     7
100
AcDbLine
 10
-44.391548
 20
114.831087
 30
0.0
 11
-44.563048
 21
114.742087
 31
0.0
  0
LINE
  5
38C
330
1F
100
AcDbEntity
  8
DRAW
  6
CONTINUOUS
 62
     7
100
AcDbLine
 10
-44.588548
 20
114.017837
 30
0.0
 11
-44.353548
 21
114.100587
 31
0.0
  0
LINE
  5
38D
330
1F
100
AcDbEntity
  8
DRAW
  6
CONTINUOUS
 62
     7
100
AcDbLine
 10
-44.893548
 20
113.986087
 30
0.0
 11
-44.588548
 21
114.017837
 31
0.0
  0
LINE
  5
38E
330
1F
100
AcDbEntity
  8
DRAW
  6
CONTINUOUS
 62
     7
100
AcDbLine
 10
-45.185798
 20
113.986087
 30
0.0
 11
-44.893548
 21
113.986087
 31
0.0
  0
LINE
  5
38F
330
1F
100
AcDbEntity
  8
DRAW
  6
CONTINUOUS
 62
     7
100
AcDbLine
 10
-45.414298
 20
114.011587
 30
0.0
 11
-45.185798
 21
113.986087
 31
0.0
  0
LINE
  5
390
330
1F
100
AcDbEntity
  8
DRAW
  6
CONTINUOUS
 62
     7
100
AcDbLine
 10
-45.624048
 20
114.075087
 30
0.0
 11
-45.414298
 21
114.011587
 31
0.0
  0
LINE
  5
391
330
1F
100
AcDbEntity
  8
DRAW
  6
CONTINUOUS
 62
     7
100
AcDbLine
 10
-45.814548
 20
114.176837
 30
0.0
 11
-45.624048
 21
114.075087
 31
0.0
  0
LINE
  5
392
330
1F
100
AcDbEntity
  8
DRAW
  6
CONTINUOUS
 62
     7
100
AcDbLine
 10
-45.986048
 20
114.310087
 30
0.0
 11
-45.814548
 21
114.176837
 31
0.0
  0
LINE
  5
393
330
1F
100
AcDbEntity
  8
DRAW
  6
CONTINUOUS
 62
     7
100
AcDbLine
 10
-46.125798
 20
114.475337
 30
0.0
 11
-45.986048
 21
114.310087
 31
0.0
  0
LINE
  5
394
330
1F
100
AcDbEntity
  8
DRAW
  6
CONTINUOUS
 62
     7
100
AcDbLine
 10
-44.220048
 20
114.181587
 30
0.0
 11
-44.220048
 21
114.011587
 31
0.0
  0
LINE
  5
395
330
1F
100
AcDbEntity
  8
DRAW
  6
CONTINUOUS
 62
     7
100
AcDbLine
 10
-44.220048
 20
114.011587
 30
0.0
 11
-43.222798
 21
114.011587
 31
0.0
  0
LINE
  5
396
330
1F
100
AcDbEntity
  8
DRAW
  6
CONTINUOUS
 62
     7
100
AcDbLine
 10
-44.271048
 20
114.958087
 30
0.0
 11
-44.391548
 21
114.831087
 31
0.0
  0
LINE
  5
397
330
1F
100
AcDbEntity
  8
DRAW
  6
CONTINUOUS
 62
     7
100
AcDbLine
 10
-45.154048
 20
114.837337
 30
0.0
 11
-45.268298
 21
114.977087
 31
0.0
  0
LINE
  5
398
330
1F
100
AcDbEntity
  8
DRAW
  6
CONTINUOUS
 62
     7
100
AcDbLine
 10
-43.222798
 20
114.011587
 30
0.0
 11
-43.222798
 21
116.902087
 31
0.0
  0
LINE
  5
399
330
1F
100
AcDbEntity
  8
DRAW
  6
CONTINUOUS
 62
     7
100
AcDbLine
 10
-42.949548
 20
115.104337
 30
0.0
 11
-42.924298
 21
114.888337
 31
0.0
  0
LINE
  5
39A
330
1F
100
AcDbEntity
  8
DRAW
  6
CONTINUOUS
 62
     7
100
AcDbLine
 10
-38.515548
 20
116.171337
 30
0.0
 11
-39.474798
 21
116.171337
 31
0.0
  0
LINE
  5
39B
330
1F
100
AcDbEntity
  8
DRAW
  6
CONTINUOUS
 62
     7
100
AcDbLine
 10
-39.474798
 20
114.017837
 30
0.0
 11
-38.515548
 21
114.017837
 31
0.0
  0
LINE
  5
39C
330
1F
100
AcDbEntity
  8
DRAW
  6
CONTINUOUS
 62
     7
100
AcDbLine
 10
-39.868548
 20
115.606087
 30
0.0
 11
-40.008298
 21
115.822087
 31
0.0
  0
LINE
  5
39D
330
1F
100
AcDbEntity
  8
DRAW
  6
CONTINUOUS
 62
     7
100
AcDbLine
 10
-39.779798
 20
115.364587
 30
0.0
 11
-39.868548
 21
115.606087
 31
0.0
  0
LINE
  5
39E
330
1F
100
AcDbEntity
  8
DRAW
  6
CONTINUOUS
 62
     7
100
AcDbLine
 10
-39.754298
 20
115.104337
 30
0.0
 11
-39.779798
 21
115.364587
 31
0.0
  0
LINE
  5
39F
330
1F
100
AcDbEntity
  8
DRAW
  6
CONTINUOUS
 62
     7
100
AcDbLine
 10
-39.748048
 20
115.008837
 30
0.0
 11
-39.754298
 21
115.104337
 31
0.0
  0
LINE
  5
3A0
330
1F
100
AcDbEntity
  8
DRAW
  6
CONTINUOUS
 62
     7
100
AcDbLine
 10
-39.767048
 20
114.920087
 30
0.0
 11
-39.748048
 21
115.008837
 31
0.0
  0
LINE
  5
3A1
330
1F
100
AcDbEntity
  8
DRAW
  6
CONTINUOUS
 62
     7
100
AcDbLine
 10
-40.008298
 20
115.822087
 30
0.0
 11
-40.192548
 21
115.993587
 31
0.0
  0
LINE
  5
3A2
330
1F
100
AcDbEntity
  8
DRAW
  6
CONTINUOUS
 62
     7
100
AcDbLine
 10
-41.101048
 20
115.720337
 30
0.0
 11
-40.935798
 21
115.625087
 31
0.0
  0
LINE
  5
3A3
330
1F
100
AcDbEntity
  8
DRAW
  6
CONTINUOUS
 62
     7
100
AcDbLine
 10
-41.730048
 20
115.631587
 30
0.0
 11
-41.545798
 21
115.733087
 31
0.0
  0
LINE
  5
3A4
330
1F
100
AcDbEntity
  8
DRAW
  6
CONTINUOUS
 62
     7
100
AcDbLine
 10
-41.463048
 20
115.377337
 30
0.0
 11
-41.901548
 21
115.377337
 31
0.0
  0
LINE
  5
3A5
330
1F
100
AcDbEntity
  8
DRAW
  6
CONTINUOUS
 62
     7
100
AcDbLine
 10
-40.802548
 20
115.377337
 30
0.0
 11
-41.463048
 21
115.377337
 31
0.0
  0
LINE
  5
3A6
330
1F
100
AcDbEntity
  8
DRAW
  6
CONTINUOUS
 62
     7
100
AcDbLine
 10
-40.834298
 20
115.498087
 30
0.0
 11
-40.802548
 21
115.377337
 31
0.0
  0
LINE
  5
3A7
330
1F
100
AcDbEntity
  8
DRAW
  6
CONTINUOUS
 62
     7
100
AcDbLine
 10
-40.935798
 20
115.625087
 30
0.0
 11
-40.834298
 21
115.498087
 31
0.0
  0
LINE
  5
3A8
330
1F
100
AcDbEntity
  8
DRAW
  6
CONTINUOUS
 62
     7
100
AcDbLine
 10
-41.850548
 20
115.504337
 30
0.0
 11
-41.730048
 21
115.631587
 31
0.0
  0
LINE
  5
3A9
330
1F
100
AcDbEntity
  8
DRAW
  6
CONTINUOUS
 62
     7
100
AcDbLine
 10
-41.901548
 20
115.377337
 30
0.0
 11
-41.850548
 21
115.504337
 31
0.0
  0
LINE
  5
3AA
330
1F
100
AcDbEntity
  8
DRAW
  6
CONTINUOUS
 62
     7
100
AcDbLine
 10
-41.520298
 20
114.913587
 30
0.0
 11
-41.463048
 21
114.913587
 31
0.0
  0
LINE
  5
3AB
330
1F
100
AcDbEntity
  8
DRAW
  6
CONTINUOUS
 62
     7
100
AcDbLine
 10
-41.901548
 20
114.913587
 30
0.0
 11
-41.520298
 21
114.913587
 31
0.0
  0
LINE
  5
3AC
330
1F
100
AcDbEntity
  8
DRAW
  6
CONTINUOUS
 62
     7
100
AcDbLine
 10
-41.329798
 20
115.752087
 30
0.0
 11
-41.101048
 21
115.720337
 31
0.0
  0
LINE
  5
3AD
330
1F
100
AcDbEntity
  8
DRAW
  6
CONTINUOUS
 62
     7
100
AcDbLine
 10
-41.437798
 20
115.758587
 30
0.0
 11
-41.329798
 21
115.752087
 31
0.0
  0
LINE
  5
3AE
330
1F
100
AcDbEntity
  8
DRAW
  6
CONTINUOUS
 62
     7
100
AcDbLine
 10
-41.545798
 20
115.733087
 30
0.0
 11
-41.437798
 21
115.758587
 31
0.0
  0
LINE
  5
3AF
330
1F
100
AcDbEntity
  8
DRAW
  6
CONTINUOUS
 62
     7
100
AcDbLine
 10
-42.593798
 20
115.930087
 30
0.0
 11
-42.600298
 21
115.930087
 31
0.0
  0
LINE
  5
3B0
330
1F
100
AcDbEntity
  8
DRAW
  6
CONTINUOUS
 62
     7
100
AcDbLine
 10
-42.390548
 20
116.082587
 30
0.0
 11
-42.593798
 21
115.930087
 31
0.0
  0
LINE
  5
3B1
330
1F
100
AcDbEntity
  8
DRAW
  6
CONTINUOUS
 62
     7
100
AcDbLine
 10
-42.111048
 20
116.196837
 30
0.0
 11
-42.390548
 21
116.082587
 31
0.0
  0
LINE
  5
3B2
330
1F
100
AcDbEntity
  8
DRAW
  6
CONTINUOUS
 62
     7
100
AcDbLine
 10
-41.755298
 20
116.273087
 30
0.0
 11
-42.111048
 21
116.196837
 31
0.0
  0
LINE
  5
3B3
330
1F
100
AcDbEntity
  8
DRAW
  6
CONTINUOUS
 62
     7
100
AcDbLine
 10
-41.361548
 20
116.298587
 30
0.0
 11
-41.755298
 21
116.273087
 31
0.0
  0
LINE
  5
3B4
330
1F
100
AcDbEntity
  8
DRAW
  6
CONTINUOUS
 62
     7
100
AcDbLine
 10
-40.993048
 20
116.279337
 30
0.0
 11
-41.361548
 21
116.298587
 31
0.0
  0
LINE
  5
3B5
330
1F
100
AcDbEntity
  8
DRAW
  6
CONTINUOUS
 62
     7
100
AcDbLine
 10
-40.669048
 20
116.215837
 30
0.0
 11
-40.993048
 21
116.279337
 31
0.0
  0
LINE
  5
3B6
330
1F
100
AcDbEntity
  8
DRAW
  6
CONTINUOUS
 62
     7
100
AcDbLine
 10
-40.402298
 20
116.120587
 30
0.0
 11
-40.669048
 21
116.215837
 31
0.0
  0
LINE
  5
3B7
330
1F
100
AcDbEntity
  8
DRAW
  6
CONTINUOUS
 62
     7
100
AcDbLine
 10
-41.463048
 20
114.913587
 30
0.0
 11
-39.767048
 21
114.920087
 31
0.0
  0
LINE
  5
3B8
330
1F
100
AcDbEntity
  8
DRAW
  6
CONTINUOUS
 62
     7
100
AcDbLine
 10
-40.192548
 20
115.993587
 30
0.0
 11
-40.402298
 21
116.120587
 31
0.0
  0
LINE
  5
3B9
330
1F
100
AcDbEntity
  8
DRAW
  6
CONTINUOUS
 62
     7
100
AcDbLine
 10
-39.868548
 20
114.545087
 30
0.0
 11
-39.824298
 21
114.697587
 31
0.0
  0
LINE
  5
3BA
330
1F
100
AcDbEntity
  8
DRAW
  6
CONTINUOUS
 62
     7
100
AcDbLine
 10
-39.944798
 20
114.411837
 30
0.0
 11
-39.868548
 21
114.545087
 31
0.0
  0
LINE
  5
3BB
330
1F
100
AcDbEntity
  8
DRAW
  6
CONTINUOUS
 62
     7
100
AcDbLine
 10
-40.040298
 20
114.297587
 30
0.0
 11
-39.944798
 21
114.411837
 31
0.0
  0
LINE
  5
3BC
330
1F
100
AcDbEntity
  8
DRAW
  6
CONTINUOUS
 62
     7
100
AcDbLine
 10
-40.167298
 20
114.195837
 30
0.0
 11
-40.040298
 21
114.297587
 31
0.0
  0
LINE
  5
3BD
330
1F
100
AcDbEntity
  8
DRAW
  6
CONTINUOUS
 62
     7
100
AcDbLine
 10
-40.923298
 20
114.615087
 30
0.0
 11
-41.043798
 21
114.557837
 31
0.0
  0
LINE
  5
3BE
330
1F
100
AcDbEntity
  8
DRAW
  6
CONTINUOUS
 62
     7
100
AcDbLine
 10
-40.802548
 20
114.697587
 30
0.0
 11
-40.923298
 21
114.615087
 31
0.0
  0
LINE
  5
3BF
330
1F
100
AcDbEntity
  8
DRAW
  6
CONTINUOUS
 62
     7
100
AcDbLine
 10
-40.497548
 20
114.037087
 30
0.0
 11
-40.319798
 21
114.113337
 31
0.0
  0
LINE
  5
3C0
330
1F
100
AcDbEntity
  8
DRAW
  6
CONTINUOUS
 62
     7
100
AcDbLine
 10
-40.904048
 20
113.941837
 30
0.0
 11
-40.497548
 21
114.037087
 31
0.0
  0
LINE
  5
3C1
330
1F
100
AcDbEntity
  8
DRAW
  6
CONTINUOUS
 62
     7
100
AcDbLine
 10
-41.348798
 20
113.909837
 30
0.0
 11
-40.904048
 21
113.941837
 31
0.0
  0
LINE
  5
3C2
330
1F
100
AcDbEntity
  8
DRAW
  6
CONTINUOUS
 62
     7
100
AcDbLine
 10
-41.660048
 20
113.929087
 30
0.0
 11
-41.348798
 21
113.909837
 31
0.0
  0
LINE
  5
3C3
330
1F
100
AcDbEntity
  8
DRAW
  6
CONTINUOUS
 62
     7
100
AcDbLine
 10
-41.952298
 20
113.979837
 30
0.0
 11
-41.660048
 21
113.929087
 31
0.0
  0
LINE
  5
3C4
330
1F
100
AcDbEntity
  8
DRAW
  6
CONTINUOUS
 62
     7
100
AcDbLine
 10
-42.206298
 20
114.062337
 30
0.0
 11
-41.952298
 21
113.979837
 31
0.0
  0
LINE
  5
3C5
330
1F
100
AcDbEntity
  8
DRAW
  6
CONTINUOUS
 62
     7
100
AcDbLine
 10
-42.422298
 20
114.157587
 30
0.0
 11
-42.206298
 21
114.062337
 31
0.0
  0
LINE
  5
3C6
330
1F
100
AcDbEntity
  8
DRAW
  6
CONTINUOUS
 62
     7
100
AcDbLine
 10
-42.505048
 20
114.221337
 30
0.0
 11
-42.422298
 21
114.157587
 31
0.0
  0
LINE
  5
3C7
330
1F
100
AcDbEntity
  8
DRAW
  6
CONTINUOUS
 62
     7
100
AcDbLine
 10
-42.682798
 20
114.399087
 30
0.0
 11
-42.505048
 21
114.221337
 31
0.0
  0
LINE
  5
3C8
330
1F
100
AcDbEntity
  8
DRAW
  6
CONTINUOUS
 62
     7
100
AcDbLine
 10
-41.825298
 20
114.742087
 30
0.0
 11
-41.869798
 21
114.824837
 31
0.0
  0
LINE
  5
3C9
330
1F
100
AcDbEntity
  8
DRAW
  6
CONTINUOUS
 62
     7
100
AcDbLine
 10
-41.679048
 20
114.621337
 30
0.0
 11
-41.825298
 21
114.742087
 31
0.0
  0
LINE
  5
3CA
330
1F
100
AcDbEntity
  8
DRAW
  6
CONTINUOUS
 62
     7
100
AcDbLine
 10
-41.482298
 20
114.545087
 30
0.0
 11
-41.679048
 21
114.621337
 31
0.0
  0
LINE
  5
3CB
330
1F
100
AcDbEntity
  8
DRAW
  6
CONTINUOUS
 62
     7
100
AcDbLine
 10
-41.285298
 20
114.519837
 30
0.0
 11
-41.482298
 21
114.545087
 31
0.0
  0
LINE
  5
3CC
330
1F
100
AcDbEntity
  8
DRAW
  6
CONTINUOUS
 62
     7
100
AcDbLine
 10
-41.043798
 20
114.557837
 30
0.0
 11
-41.285298
 21
114.519837
 31
0.0
  0
LINE
  5
3CD
330
1F
100
AcDbEntity
  8
DRAW
  6
CONTINUOUS
 62
     7
100
AcDbLine
 10
-39.824298
 20
114.697587
 30
0.0
 11
-40.802548
 21
114.697587
 31
0.0
  0
LINE
  5
3CE
330
1F
100
AcDbEntity
  8
DRAW
  6
CONTINUOUS
 62
     7
100
AcDbLine
 10
-40.319798
 20
114.113337
 30
0.0
 11
-40.167298
 21
114.195837
 31
0.0
  0
LINE
  5
3CF
330
1F
100
AcDbEntity
  8
DRAW
  6
CONTINUOUS
 62
     7
100
AcDbLine
 10
-39.474798
 20
116.171337
 30
0.0
 11
-39.474798
 21
114.017837
 31
0.0
  0
LINE
  5
3D0
330
1F
100
AcDbEntity
  8
DRAW
  6
CONTINUOUS
 62
     7
100
AcDbLine
 10
-41.869798
 20
114.824837
 30
0.0
 11
-41.901548
 21
114.913587
 31
0.0
  0
LINE
  5
3D1
330
1F
100
AcDbEntity
  8
DRAW
  6
CONTINUOUS
 62
     7
100
AcDbLine
 10
-36.959298
 20
115.587087
 30
0.0
 11
-37.010048
 21
115.777587
 31
0.0
  0
LINE
  5
3D2
330
1F
100
AcDbEntity
  8
DRAW
  6
CONTINUOUS
 62
     7
100
AcDbLine
 10
-38.121798
 20
115.472587
 30
0.0
 11
-38.026548
 21
115.409087
 31
0.0
  0
LINE
  5
3D3
330
1F
100
AcDbEntity
  8
DRAW
  6
CONTINUOUS
 62
     7
100
AcDbLine
 10
-38.267798
 20
115.485337
 30
0.0
 11
-38.121798
 21
115.472587
 31
0.0
  0
LINE
  5
3D4
330
1F
100
AcDbEntity
  8
DRAW
  6
CONTINUOUS
 62
     7
100
AcDbLine
 10
-38.407548
 20
115.428087
 30
0.0
 11
-38.267798
 21
115.485337
 31
0.0
  0
LINE
  5
3D5
330
1F
100
AcDbEntity
  8
DRAW
  6
CONTINUOUS
 62
     7
100
AcDbLine
 10
-38.483798
 20
115.332837
 30
0.0
 11
-38.407548
 21
115.428087
 31
0.0
  0
LINE
  5
3D6
330
1F
100
AcDbEntity
  8
DRAW
  6
CONTINUOUS
 62
     7
100
AcDbLine
 10
-38.515548
 20
115.212337
 30
0.0
 11
-38.483798
 21
115.332837
 31
0.0
  0
LINE
  5
3D7
330
1F
100
AcDbEntity
  8
DRAW
  6
CONTINUOUS
 62
     7
100
AcDbLine
 10
-36.933798
 20
115.250337
 30
0.0
 11
-36.959298
 21
115.587087
 31
0.0
  0
LINE
  5
3D8
330
1F
100
AcDbEntity
  8
DRAW
  6
CONTINUOUS
 62
     7
100
AcDbLine
 10
-36.946548
 20
115.104337
 30
0.0
 11
-36.933798
 21
115.250337
 31
0.0
  0
LINE
  5
3D9
330
1F
100
AcDbEntity
  8
DRAW
  6
CONTINUOUS
 62
     7
100
AcDbLine
 10
-37.962798
 20
115.104337
 30
0.0
 11
-36.946548
 21
115.104337
 31
0.0
  0
LINE
  5
3DA
330
1F
100
AcDbEntity
  8
DRAW
  6
CONTINUOUS
 62
     7
100
AcDbLine
 10
-37.962798
 20
115.237587
 30
0.0
 11
-37.962798
 21
115.104337
 31
0.0
  0
LINE
  5
3DB
330
1F
100
AcDbEntity
  8
DRAW
  6
CONTINUOUS
 62
     7
100
AcDbLine
 10
-37.975548
 20
115.326587
 30
0.0
 11
-37.962798
 21
115.237587
 31
0.0
  0
LINE
  5
3DC
330
1F
100
AcDbEntity
  8
DRAW
  6
CONTINUOUS
 62
     7
100
AcDbLine
 10
-38.026548
 20
115.409087
 30
0.0
 11
-37.975548
 21
115.326587
 31
0.0
  0
LINE
  5
3DD
330
1F
100
AcDbEntity
  8
DRAW
  6
CONTINUOUS
 62
     7
100
AcDbLine
 10
-38.515548
 20
115.980837
 30
0.0
 11
-38.515548
 21
116.171337
 31
0.0
  0
LINE
  5
3DE
330
1F
100
AcDbEntity
  8
DRAW
  6
CONTINUOUS
 62
     7
100
AcDbLine
 10
-38.439298
 20
116.031587
 30
0.0
 11
-38.515548
 21
115.980837
 31
0.0
  0
LINE
  5
3DF
330
1F
100
AcDbEntity
  8
DRAW
  6
CONTINUOUS
 62
     7
100
AcDbLine
 10
-38.236048
 20
116.133337
 30
0.0
 11
-38.439298
 21
116.031587
 31
0.0
  0
LINE
  5
3E0
330
1F
100
AcDbEntity
  8
DRAW
  6
CONTINUOUS
 62
     7
100
AcDbLine
 10
-37.912048
 20
116.209587
 30
0.0
 11
-38.236048
 21
116.133337
 31
0.0
  0
LINE
  5
3E1
330
1F
100
AcDbEntity
  8
DRAW
  6
CONTINUOUS
 62
     7
100
AcDbLine
 10
-37.708798
 20
116.215837
 30
0.0
 11
-37.912048
 21
116.209587
 31
0.0
  0
LINE
  5
3E2
330
1F
100
AcDbEntity
  8
DRAW
  6
CONTINUOUS
 62
     7
100
AcDbLine
 10
-37.480048
 20
116.177837
 30
0.0
 11
-37.708798
 21
116.215837
 31
0.0
  0
LINE
  5
3E3
330
1F
100
AcDbEntity
  8
DRAW
  6
CONTINUOUS
 62
     7
100
AcDbLine
 10
-37.257798
 20
116.088837
 30
0.0
 11
-37.480048
 21
116.177837
 31
0.0
  0
LINE
  5
3E4
330
1F
100
AcDbEntity
  8
DRAW
  6
CONTINUOUS
 62
     7
100
AcDbLine
 10
-37.105298
 20
115.949087
 30
0.0
 11
-37.257798
 21
116.088837
 31
0.0
  0
LINE
  5
3E5
330
1F
100
AcDbEntity
  8
DRAW
  6
CONTINUOUS
 62
     7
100
AcDbLine
 10
-37.010048
 20
115.777587
 30
0.0
 11
-37.105298
 21
115.949087
 31
0.0
  0
LINE
  5
3E6
330
1F
100
AcDbEntity
  8
DRAW
  6
CONTINUOUS
 62
     7
100
AcDbLine
 10
-38.515548
 20
114.017837
 30
0.0
 11
-38.515548
 21
115.212337
 31
0.0
  0
ARC
  5
3E7
330
1F
100
AcDbEntity
  8
DRAW
  6
CONTINUOUS
 62
     7
100
AcDbCircle
 10
34.494558
 20
121.279251
 30
0.0
 40
1.100000023841856
210
0.0
220
0.0
230
-1.0
100
AcDbArc
 50
90.0
 51
180.0
  0
LINE
  5
3E8
330
1F
100
AcDbEntity
  8
DRAW
  6
CONTINUOUS
 62
     7
100
AcDbLine
 10
-33.394558
 20
121.279251
 30
0.0
 11
-33.394558
 21
120.379248
 31
0.0
  0
LINE
  5
3E9
330
1F
100
AcDbEntity
  8
DRAW
  6
CONTINUOUS
 62
     7
100
AcDbLine
 10
-3.394558
 20
81.679251
 30
0.0
 11
-3.194558
 21
81.679251
 31
0.0
  0
LINE
  5
3EA
330
1F
100
AcDbEntity
  8
DRAW
  6
CONTINUOUS
 62
     7
100
AcDbLine
 10
-3.394558
 20
81.279251
 30
0.0
 11
-3.094558
 21
81.579251
 31
0.0
  0
LINE
  5
3EB
330
1F
100
AcDbEntity
  8
DRAW
  6
CONTINUOUS
 62
     7
100
AcDbLine
 10
-3.094558
 20
80.979251
 30
0.0
 11
-3.394558
 21
81.279251
 31
0.0
  0
LINE
  5
3EC
330
1F
100
AcDbEntity
  8
DRAW
  6
CONTINUOUS
 62
     7
100
AcDbLine
 10
-3.394558
 20
80.679251
 30
0.0
 11
-3.094558
 21
80.979251
 31
0.0
  0
LINE
  5
3ED
330
1F
100
AcDbEntity
  8
DRAW
  6
CONTINUOUS
 62
     7
100
AcDbLine
 10
-3.094558
 20
80.379251
 30
0.0
 11
-3.394558
 21
80.679251
 31
0.0
  0
LINE
  5
3EE
330
1F
100
AcDbEntity
  8
DRAW
  6
CONTINUOUS
 62
     7
100
AcDbLine
 10
-3.094558
 20
81.579251
 30
0.0
 11
-3.194558
 21
81.679251
 31
0.0
  0
LINE
  5
3EF
330
1F
100
AcDbEntity
  8
DRAW
  6
CONTINUOUS
 62
     7
100
AcDbLine
 10
-3.394558
 20
79.079251
 30
0.0
 11
-3.194558
 21
79.079251
 31
0.0
  0
LINE
  5
3F0
330
1F
100
AcDbEntity
  8
DRAW
  6
CONTINUOUS
 62
     7
100
AcDbLine
 10
-3.094558
 20
79.179251
 30
0.0
 11
-3.394558
 21
79.479251
 31
0.0
  0
LINE
  5
3F1
330
1F
100
AcDbEntity
  8
DRAW
  6
CONTINUOUS
 62
     7
100
AcDbLine
 10
-3.094558
 20
79.779251
 30
0.0
 11
-3.394558
 21
80.079251
 31
0.0
  0
LINE
  5
3F2
330
1F
100
AcDbEntity
  8
DRAW
  6
CONTINUOUS
 62
     7
100
AcDbLine
 10
-3.394558
 20
79.479251
 30
0.0
 11
-3.094558
 21
79.779251
 31
0.0
  0
LINE
  5
3F3
330
1F
100
AcDbEntity
  8
DRAW
  6
CONTINUOUS
 62
     7
100
AcDbLine
 10
-3.194558
 20
79.079251
 30
0.0
 11
-3.094558
 21
79.179251
 31
0.0
  0
LINE
  5
3F4
330
1F
100
AcDbEntity
  8
DRAW
  6
CONTINUOUS
 62
     7
100
AcDbLine
 10
-3.394558
 20
80.079251
 30
0.0
 11
-3.094558
 21
80.379251
 31
0.0
  0
LINE
  5
3F5
330
1F
100
AcDbEntity
  8
DRAW
  6
CONTINUOUS
 62
     7
100
AcDbLine
 10
-4.394558
 20
102.879251
 30
0.0
 11
-16.394558
 21
102.87925
 31
0.0
  0
LINE
  5
3F6
330
1F
100
AcDbEntity
  8
DRAW
  6
CONTINUOUS
 62
     7
100
AcDbLine
 10
-16.394558
 20
109.379255
 30
0.0
 11
-16.394558
 21
102.879251
 31
0.0
  0
LINE
  5
3F7
330
1F
100
AcDbEntity
  8
DRAW
  6
CONTINUOUS
 62
     7
100
AcDbLine
 10
-16.394557
 20
109.379255
 30
0.0
 11
-16.394557
 21
110.679251
 31
0.0
  0
ARC
  5
3F8
330
1F
100
AcDbEntity
  8
DRAW
  6
CONTINUOUS
 62
     7
100
AcDbCircle
 10
17.094558
 20
110.679251
 30
0.0
 40
0.6999999880790709
210
0.0
220
0.0
230
-1.0
100
AcDbArc
 50
90.0
 51
180.0
  0
ARC
  5
3F9
330
1F
100
AcDbEntity
  8
DRAW
  6
CONTINUOUS
 62
     7
100
AcDbCircle
 10
4.394558
 20
101.879251
 30
0.0
 40
0.9999999999999999
210
0.0
220
0.0
230
-1.0
100
AcDbArc
 50
90.0
 51
180.0
  0
LINE
  5
3FA
330
1F
100
AcDbEntity
  8
DRAW
  6
CONTINUOUS
 62
     7
100
AcDbLine
 10
-5.394558
 20
101.679252
 30
0.0
 11
-5.394558
 21
95.179251
 31
0.0
  0
LINE
  5
3FB
330
1F
100
AcDbEntity
  8
DRAW
  6
CONTINUOUS
 62
     7
100
AcDbLine
 10
-5.394558
 20
95.179251
 30
0.0
 11
-4.294563
 21
95.179251
 31
0.0
  0
LINE
  5
3FC
330
1F
100
AcDbEntity
  8
DRAW
  6
CONTINUOUS
 62
     7
100
AcDbLine
 10
-4.294563
 20
95.929251
 30
0.0
 11
-3.683233
 21
95.929251
 31
0.0
  0
LINE
  5
3FD
330
1F
100
AcDbEntity
  8
DRAW
  6
CONTINUOUS
 62
     7
100
AcDbLine
 10
-3.683233
 20
95.929251
 30
0.0
 11
-3.394558
 21
95.429251
 31
0.0
  0
LINE
  5
3FE
330
1F
100
AcDbEntity
  8
DRAW
  6
CONTINUOUS
 62
     7
100
AcDbLine
 10
-4.294563
 20
95.179251
 30
0.0
 11
-4.294563
 21
95.929251
 31
0.0
  0
LINE
  5
3FF
330
1F
100
AcDbEntity
  8
DRAW
  6
CONTINUOUS
 62
     7
100
AcDbLine
 10
-4.294563
 20
101.679252
 30
0.0
 11
-5.394558
 21
101.679252
 31
0.0
  0
ARC
  5
400
330
1F
100
AcDbEntity
  8
DRAW
  6
CONTINUOUS
 62
     7
100
AcDbCircle
 10
5.894556
 20
98.429252
 30
0.0
 40
1.499999999999974
210
0.0
220
0.0
230
-1.0
100
AcDbArc
 50
109.471208
 51
250.528792
  0
LINE
  5
401
330
1F
100
AcDbEntity
  8
DRAW
  6
CONTINUOUS
 62
     7
100
AcDbLine
 10
-3.683233
 20
100.929252
 30
0.0
 11
-4.294563
 21
100.929252
 31
0.0
  0
LINE
  5
402
330
1F
100
AcDbEntity
  8
DRAW
  6
CONTINUOUS
 62
     7
100
AcDbLine
 10
-3.394558
 20
101.879251
 30
0.0
 11
-3.394558
 21
101.429252
 31
0.0
  0
LINE
  5
403
330
1F
100
AcDbEntity
  8
DRAW
  6
CONTINUOUS
 62
     7
100
AcDbLine
 10
-3.683233
 20
100.929252
 30
0.0
 11
-3.394558
 21
101.429252
 31
0.0
  0
LINE
  5
404
330
1F
100
AcDbEntity
  8
DRAW
  6
CONTINUOUS
 62
     7
100
AcDbLine
 10
-4.294563
 20
101.679252
 30
0.0
 11
-4.294563
 21
100.929252
 31
0.0
  0
TEXT
  5
405
330
1F
100
AcDbEntity
  8
DRAW-TEXT
  6
CONTINUOUS
 62
     1
100
AcDbText
 10
26.773636
 20
-64.056891
 30
0.0
 40
1.8
  1
SCALE
 50
359.999908
 41
0.72
  7
FINDER
100
AcDbText
  0
TEXT
  5
406
330
1F
100
AcDbEntity
  8
DRAW-TEXT
  6
CONTINUOUS
 62
     1
100
AcDbText
 10
28.440785
 20
-68.904914
 30
0.0
 40
2.1
  1
1:1
 50
359.999908
 41
0.88
  7
FINDER
100
AcDbText
  0
DIMENSION
  5
407
330
1F
100
AcDbEntity
  8
DIM
  6
CONTINUOUS
 62
     3
100
AcDbDimension
  2
*D4
 10
8.261313
 20
102.879251
 30
0.0
 11
6.096013
 21
80.379251
 31
0.0
 70
    33
  1
<>
  3
FINDER
100
AcDbAlignedDimension
 13
-4.394558
 23
57.879251
 33
0.0
 14
-4.394558
 24
102.879251
 34
0.0
1001
ACAD
1000
DSTYLE
1002
{
1070
   176
1070
     3
1070
   177
1070
     3
1070
    44
1040
1.25
1070
    42
1040
2.0
1070
   147
1040
1.25
1070
   140
1040
1.8
1002
}
  0
DIMENSION
  5
414
330
1F
100
AcDbEntity
  8
DIM
  6
CONTINUOUS
 62
     3
100
AcDbDimension
  2
*D5
 10
17.463522
 20
38.379251
 30
0.0
 11
15.294622
 21
80.379251
 31
0.0
 70
    33
  1
<>
  3
FINDER
100
AcDbAlignedDimension
 13
-34.494558
 23
122.379251
 33
0.0
 14
-34.494558
 24
38.379251
 34
0.0
1001
ACAD
1000
DSTYLE
1002
{
1070
     7
1000

1070
     6
1000

1070
   280
1070
     0
1070
    76
1070
     0
1070
    75
1070
     0
1070
   176
1070
     3
1070
   177
1070
     3
1070
    44
1040
1.25
1070
    42
1040
2.0
1070
   147
1040
1.25
1070
   140
1040
1.8
1002
}
  0
DIMENSION
  5
421
330
1F
100
AcDbEntity
  8
DIM
  6
CONTINUOUS
 62
     3
100
AcDbDimension
  2
*D6
 10
-71.669903
 20
63.579252
 30
0.0
 11
-73.838803
 21
80.97925
 31
0.0
 70
    32
  1
<>
  3
FINDER
100
AcDbAlignedDimension
 13
-64.194558
 23
98.379249
 33
0.0
 14
-61.294557
 24
63.579252
 34
0.0
 50
90.0
100
AcDbRotatedDimension
1001
ACAD
1000
DSTYLE
1002
{
1070
     7
1000

1070
     6
1000

1070
   280
1070
     0
1070
    76
1070
     0
1070
    75
1070
     0
1070
   176
1070
     3
1070
   177
1070
     3
1070
    44
1040
1.25
1070
    42
1040
2.0
1070
   147
1040
1.25
1070
   140
1040
1.8
1002
}
  0
DIMENSION
  5
42E
330
1F
100
AcDbEntity
  8
DIM
  6
CONTINUOUS
 62
     3
100
AcDbDimension
  2
*D7
 10
-106.765665
 20
34.879255
 30
0.0
 11
-108.934565
 21
78.629253
 31
0.0
 70
    32
  1
<>
  3
FINDER
100
AcDbAlignedDimension
 13
-98.945673
 23
122.379251
 33
0.0
 14
-95.695672
 24
34.879255
 34
0.0
 50
90.0
100
AcDbRotatedDimension
1001
ACAD
1000
DSTYLE
1002
{
1070
     7
1000

1070
     6
1000

1070
   280
1070
     0
1070
    76
1070
     0
1070
    75
1070
     0
1070
   176
1070
     3
1070
   177
1070
     3
1070
    44
1040
1.25
1070
    42
1040
2.0
1070
   147
1040
1.25
1070
   140
1040
1.8
1002
}
  0
DIMENSION
  5
43B
330
1F
100
AcDbEntity
  8
DIM
  6
CONTINUOUS
 62
     3
100
AcDbDimension
  2
*D8
 10
-71.669903
 20
34.879255
 30
0.0
 11
-73.838803
 21
49.229253
 31
0.0
 70
    32
  1
<>
  3
FINDER
100
AcDbAlignedDimension
 13
-61.294557
 23
63.579252
 33
0.0
 14
-63.694558
 24
34.879255
 34
0.0
 50
90.0
100
AcDbRotatedDimension
1001
ACAD
1000
DSTYLE
1002
{
1070
     7
1000

1070
     6
1000

1070
   280
1070
     0
1070
    76
1070
     0
1070
    75
1070
     0
1070
   176
1070
     3
1070
   177
1070
     3
1070
    44
1040
1.25
1070
    42
1040
2.0
1070
   147
1040
1.25
1070
   140
1040
1.8
1002
}
  0
DIMENSION
  5
448
330
1F
100
AcDbEntity
  8
DIM
  6
CONTINUOUS
 62
     3
100
AcDbDimension
  2
*D9
 10
-87.845675
 20
128.458821
 30
0.0
 11
-93.445676
 21
130.61242
 31
0.0
 70
    33
  1
<>
  3
FINDER
100
AcDbAlignedDimension
 13
-99.045673
 23
120.379248
 33
0.0
 14
-87.845673
 24
120.379251
 34
0.0
1001
ACAD
1000
DSTYLE
1002
{
1070
   176
1070
     3
1070
   177
1070
     3
1070
    44
1040
1.25
1070
    42
1040
2.0
1070
   147
1040
1.25
1070
   140
1040
1.8
1002
}
  0
DIMENSION
  5
455
330
1F
100
AcDbEntity
  8
DIM
  6
CONTINUOUS
 62
     3
100
AcDbDimension
  2
*D10
 10
-16.394571
 20
128.458819
 30
0.0
 11
-40.294565
 21
130.627719
 31
0.0
 70
    32
  1
<>
  3
FINDER
100
AcDbAlignedDimension
 13
-64.194558
 23
110.379224
 33
0.0
 14
-16.394571
 24
110.49037
 34
0.0
100
AcDbRotatedDimension
1001
ACAD
1000
DSTYLE
1002
{
1070
   176
1070
     3
1070
   177
1070
     3
1070
    44
1040
1.25
1070
    42
1040
2.0
1070
   147
1040
1.25
1070
   140
1040
1.8
1002
}
  0
ENDSEC
  0
SECTION
  2
OBJECTS
  0
DICTIONARY
  5
C
330
0
100
AcDbDictionary
  3
ACAD_GROUP
350
D
  3
ACAD_LAYOUT
350
1A
  3
ACAD_MLINESTYLE
350
17
  3
ACAD_PLOTSETTINGS
350
19
  3
ACAD_TABLESTYLE
350
482
  3
ACAD_VISUALSTYLE
350
2A
  3
ACDBHEADERROUNDTRIPXREC
350
462
  0
DICTIONARY
  5
D
102
{ACAD_REACTORS
330
C
102
}
330
C
100
AcDbDictionary
  0
DICTIONARY
  5
1A
102
{ACAD_REACTORS
330
C
102
}
330
C
100
AcDbDictionary
  0
DICTIONARY
  5
17
102
{ACAD_REACTORS
330
C
102
}
330
C
100
AcDbDictionary
  3
STANDARD
350
18
  0
DICTIONARY
  5
19
102
{ACAD_REACTORS
330
C
102
}
330
C
100
AcDbDictionary
  0
DICTIONARY
  5
482
102
{ACAD_REACTORS
330
C
102
}
330
C
100
AcDbDictionary
  0
DICTIONARY
  5
2A
102
{ACAD_REACTORS
330
C
102
}
330
C
100
AcDbDictionary
  3
2DWIREFRAME
350
2F
  3
3D_HIDDEN
350
31
  3
3DWIREFRAME
350
30
  3
BASIC
350
32
  3
BRIGHTEN
350
36
  3
COLORCHANGE
350
3A
  3
CONCEPTUAL
350
34
  3
DIM
350
35
  3
FACEPATTERN
350
39
  3
FLAT
350
2B
  3
FLATWITHEDGES
350
2C
  3
GOURAUD
350
2D
  3
GOURAUDWITHEDGES
350
2E
  3
LINEPATTERN
350
38
  3
REALISTIC
350
33
  3
THICKEN
350
37
  0
DICTIONARY
  5
462
102
{ACAD_REACTORS
330
C
102
}
330
C
100
AcDbDictionary
  3
CEPSNTYPE
350
46B
  3
DIMSTYLEDATA
350
481
  3
FINGERPRINTGUID
350
46C
  3
HYPERLINKBASE
350
465
  3
INSUNITS
350
46A
  3
LAYOUTDICT
350
467
  3
LWETCUNION
350
469
  3
PLOTSETDICT
350
468
  3
PSVPSCALE
350
46E
  3
PUCSBASE
350
471
  3
PUCSORGBACK
350
477
  3
PUCSORGBOTTOM
350
473
  3
PUCSORGFRONT
350
476
  3
PUCSORGLEFT
350
474
  3
PUCSORGRIGHT
350
475
  3
PUCSORGTOP
350
472
  3
PUCSORTHOREF
350
46F
  3
PUCSORTHOVIEW
350
470
  3
STYLESHEET
350
466
  3
TSTACKALIGN
350
463
  3
TSTACKSIZE
350
464
  3
UCSBASE
350
47A
  3
UCSORGBACK
350
480
  3
UCSORGBOTTOM
350
47C
  3
UCSORGFRONT
350
47F
  3
UCSORGLEFT
350
47D
  3
UCSORGRIGHT
350
47E
  3
UCSORGTOP
350
47B
  3
UCSORTHOREF
350
478
  3
UCSORTHOVIEW
350
479
  3
VERSIONGUID
350
46D
  0
MLINESTYLE
  5
18
102
{ACAD_REACTORS
330
17
102
}
330
17
100
AcDbMlineStyle
  2
Standard
 70
     0
  3

 62
   256
 51
90.0
 52
90.0
 71
     2
 49
0.5
 62
   256
  6
BYLAYER
 49
-0.5
 62
   256
  6
BYLAYER
  0
VISUALSTYLE
  5
2F
102
{ACAD_REACTORS
330
2A
102
}
330
2A
100
AcDbVisualStyle
  2
2dWireframe
 70
     4
 71
     0
 72
     2
 73
     0
 90
        0
 40
-0.6
 41
-30.0
 62
     5
 63
     7
 74
     1
 91
        4
 64
     7
 65
   257
 75
     1
175
     1
 42
1.0
 92
        0
 66
   257
 43
1.0
 76
     1
 77
     6
 78
     2
 67
     7
 79
     5
170
     0
171
     0
290
     0
174
     0
 93
        1
 44
0.0
173
     0
291
     0
 45
0.0
1001
ACAD
1000
AcDbSavedByObjectVersion
1070
     0
  0
VISUALSTYLE
  5
31
102
{ACAD_REACTORS
330
2A
102
}
330
2A
100
AcDbVisualStyle
  2
3D Hidden
 70
     6
 71
     1
 72
     2
 73
     2
 90
        0
 40
-0.6
 41
-30.0
 62
     5
 63
     7
 74
     2
 91
        2
 64
     7
 65
   257
 75
     2
175
     1
 42
40.0
 92
        0
 66
   257
 43
1.0
 76
     1
 77
     6
 78
     2
 67
     7
 79
     3
170
     0
171
     0
290
     0
174
     0
 93
        1
 44
0.0
173
     0
291
     0
 45
0.0
1001
ACAD
1000
AcDbSavedByObjectVersion
1070
     0
  0
VISUALSTYLE
  5
30
102
{ACAD_REACTORS
330
2A
102
}
330
2A
100
AcDbVisualStyle
  2
3dWireframe
 70
     5
 71
     0
 72
     2
 73
     0
 90
        0
 40
-0.6
 41
-30.0
 62
     5
 63
     7
 74
     1
 91
        4
 64
     7
 65
   257
 75
     1
175
     1
 42
1.0
 92
        0
 66
   257
 43
1.0
 76
     1
 77
     6
 78
     2
 67
     7
 79
     5
170
     0
171
     0
290
     0
174
     0
 93
        1
 44
0.0
173
     0
291
     0
 45
0.0
1001
ACAD
1000
AcDbSavedByObjectVersion
1070
     0
  0
VISUALSTYLE
  5
32
102
{ACAD_REACTORS
330
2A
102
}
330
2A
100
AcDbVisualStyle
  2
Basic
 70
     7
 71
     1
 72
     0
 73
     1
 90
        0
 40
-0.6
 41
-30.0
 62
     5
 63
     7
 74
     0
 91
        4
 64
     7
 65
   257
 75
     1
175
     1
 42
1.0
 92
        8
 66
     7
 43
1.0
 76
     1
 77
     6
 78
     2
 67
     7
 79
     5
170
     0
171
     0
290
     0
174
     0
 93
        1
 44
0.0
173
     0
291
     1
 45
0.0
1001
ACAD
1000
AcDbSavedByObjectVersion
1070
     0
  0
VISUALSTYLE
  5
36
102
{ACAD_REACTORS
330
2A
102
}
330
2A
100
AcDbVisualStyle
  2
Brighten
 70
    12
 71
     2
 72
     2
 73
     0
 90
        0
 40
-0.6
 41
-30.0
 62
     5
 63
     7
 74
     1
 91
        4
 64
     7
 65
   257
 75
     1
175
     1
 42
1.0
 92
        8
 66
     7
 43
1.0
 76
     1
 77
     6
 78
     2
 67
     7
 79
     5
170
     0
171
     0
290
     0
174
     0
 93
        1
 44
50.0
173
     0
291
     1
 45
0.0
1001
ACAD
1000
AcDbSavedByObjectVersion
1070
     0
  0
VISUALSTYLE
  5
3A
102
{ACAD_REACTORS
330
2A
102
}
330
2A
100
AcDbVisualStyle
  2
ColorChange
 70
    16
 71
     2
 72
     2
 73
     3
 90
        0
 40
-0.6
 41
-30.0
 62
     5
 63
     8
 74
     1
 91
        4
 64
     7
 65
   257
 75
     1
175
     1
 42
1.0
 92
        8
 66
     8
 43
1.0
 76
     1
 77
     6
 78
     2
 67
     7
 79
     5
170
     0
171
     0
290
     0
174
     0
 93
        1
 44
0.0
173
     0
291
     1
 45
0.0
1001
ACAD
1000
AcDbSavedByObjectVersion
1070
     0
  0
VISUALSTYLE
  5
34
102
{ACAD_REACTORS
330
2A
102
}
330
2A
100
AcDbVisualStyle
  2
Conceptual
 70
     9
 71
     3
 72
     2
 73
     0
 90
        0
 40
-0.6
 41
-30.0
 62
     5
 63
     7
 74
     2
 91
        2
 64
     7
 65
   257
 75
     1
175
     1
 42
40.0
 92
        8
 66
     7
 43
1.0
 76
     1
 77
     6
 78
     2
 67
     7
 79
     3
170
     0
171
     0
290
     0
174
     0
 93
        1
 44
0.0
173
     0
291
     0
 45
0.0
1001
ACAD
1000
AcDbSavedByObjectVersion
1070
     0
  0
VISUALSTYLE
  5
35
102
{ACAD_REACTORS
330
2A
102
}
330
2A
100
AcDbVisualStyle
  2
Dim
 70
    11
 71
     2
 72
     2
 73
     0
 90
        0
 40
-0.6
 41
-30.0
 62
     5
 63
     7
 74
     1
 91
        4
 64
     7
 65
   257
 75
     1
175
     1
 42
1.0
 92
        8
 66
     7
 43
1.0
 76
     1
 77
     6
 78
     2
 67
     7
 79
     5
170
     0
171
     0
290
     0
174
     0
 93
        1
 44
-50.0
173
     0
291
     1
 45
0.0
1001
ACAD
1000
AcDbSavedByObjectVersion
1070
     0
  0
VISUALSTYLE
  5
39
102
{ACAD_REACTORS
330
2A
102
}
330
2A
100
AcDbVisualStyle
  2
Facepattern
 70
    15
 71
     2
 72
     2
 73
     0
 90
        0
 40
-0.6
 41
-30.0
 62
     5
 63
     7
 74
     1
 91
        4
 64
     7
 65
   257
 75
     1
175
     1
 42
1.0
 92
        8
 66
     7
 43
1.0
 76
     1
 77
     6
 78
     2
 67
     7
 79
     5
170
     0
171
     0
290
     0
174
     0
 93
        1
 44
0.0
173
     0
291
     1
 45
0.0
1001
ACAD
1000
AcDbSavedByObjectVersion
1070
     0
  0
VISUALSTYLE
  5
2B
102
{ACAD_REACTORS
330
2A
102
}
330
2A
100
AcDbVisualStyle
  2
Flat
 70
     0
 71
     2
 72
     1
 73
     1
 90
        2
 40
-0.6
 41
30.0
 62
     5
 63
     7
 74
     0
 91
        4
 64
     7
 65
   257
 75
     1
175
     1
 42
1.0
 92
        8
 66
     7
 43
1.0
 76
     1
 77
     6
 78
     2
 67
     7
 79
     5
170
     0
171
     0
290
     0
174
     0
 93
       13
 44
0.0
173
     0
291
     1
 45
0.0
1001
ACAD
1000
AcDbSavedByObjectVersion
1070
     0
  0
VISUALSTYLE
  5
2C
102
{ACAD_REACTORS
330
2A
102
}
330
2A
100
AcDbVisualStyle
  2
FlatWithEdges
 70
     1
 71
     2
 72
     1
 73
     1
 90
        2
 40
-0.6
 41
30.0
 62
     5
 63
     7
 74
     1
 91
        4
 64
     7
 65
   257
 75
     1
175
     1
 42
1.0
 92
        0
 66
   257
 43
1.0
 76
     1
 77
     6
 78
     2
 67
     7
 79
     5
170
     0
171
     0
290
     0
174
     0
 93
       13
 44
0.0
173
     0
291
     1
 45
0.0
1001
ACAD
1000
AcDbSavedByObjectVersion
1070
     0
  0
VISUALSTYLE
  5
2D
102
{ACAD_REACTORS
330
2A
102
}
330
2A
100
AcDbVisualStyle
  2
Gouraud
 70
     2
 71
     2
 72
     2
 73
     1
 90
        2
 40
-0.6
 41
30.0
 62
     5
 63
     7
 74
     0
 91
        4
 64
     7
 65
   257
 75
     1
175
     1
 42
1.0
 92
        0
 66
     7
 43
1.0
 76
     1
 77
     6
 78
     2
 67
     7
 79
     5
170
     0
171
     0
290
     0
174
     0
 93
       13
 44
0.0
173
     0
291
     1
 45
0.0
1001
ACAD
1000
AcDbSavedByObjectVersion
1070
     0
  0
VISUALSTYLE
  5
2E
102
{ACAD_REACTORS
330
2A
102
}
330
2A
100
AcDbVisualStyle
  2
GouraudWithEdges
 70
     3
 71
     2
 72
     2
 73
     1
 90
        2
 40
-0.6
 41
30.0
 62
     5
 63
     7
 74
     1
 91
        4
 64
     7
 65
   257
 75
     1
175
     1
 42
1.0
 92
        0
 66
   257
 43
1.0
 76
     1
 77
     6
 78
     2
 67
     7
 79
     5
170
     0
171
     0
290
     0
174
     0
 93
       13
 44
0.0
173
     0
291
     1
 45
0.0
1001
ACAD
1000
AcDbSavedByObjectVersion
1070
     0
  0
VISUALSTYLE
  5
38
102
{ACAD_REACTORS
330
2A
102
}
330
2A
100
AcDbVisualStyle
  2
Linepattern
 70
    14
 71
     2
 72
     2
 73
     0
 90
        0
 40
-0.6
 41
-30.0
 62
     5
 63
     7
 74
     1
 91
        4
 64
     7
 65
   257
 75
     7
175
     7
 42
1.0
 92
        8
 66
     7
 43
1.0
 76
     1
 77
     6
 78
     2
 67
     7
 79
     5
170
     0
171
     0
290
     0
174
     0
 93
        1
 44
0.0
173
     0
291
     1
 45
0.0
1001
ACAD
1000
AcDbSavedByObjectVersion
1070
     0
  0
VISUALSTYLE
  5
33
102
{ACAD_REACTORS
330
2A
102
}
330
2A
100
AcDbVisualStyle
  2
Realistic
 70
     8
 71
     2
 72
     2
 73
     0
 90
        0
 40
-0.6
 41
-30.0
 62
     5
 63
     7
 74
     1
 91
        0
 64
     7
 65
   257
 75
     1
175
     1
 42
1.0
 92
        8
 66
     8
 43
1.0
 76
     1
 77
     6
 78
     2
 67
     7
 79
     5
170
     0
171
     0
290
     0
174
     0
 93
       13
 44
0.0
173
     0
291
     0
 45
0.0
1001
ACAD
1000
AcDbSavedByObjectVersion
1070
     0
  0
VISUALSTYLE
  5
37
102
{ACAD_REACTORS
330
2A
102
}
330
2A
100
AcDbVisualStyle
  2
Thicken
 70
    13
 71
     2
 72
     2
 73
     0
 90
        0
 40
-0.6
 41
-30.0
 62
     5
 63
     7
 74
     1
 91
        4
 64
     7
 65
   257
 75
     1
175
     1
 42
1.0
 92
       12
 66
     7
 43
1.0
 76
     1
 77
     6
 78
     2
 67
     7
 79
     5
170
     0
171
     0
290
     0
174
     0
 93
        1
 44
0.0
173
     0
291
     1
 45
0.0
1001
ACAD
1000
AcDbSavedByObjectVersion
1070
     0
  0
XRECORD
  5
46B
102
{ACAD_REACTORS
330
462
102
}
330
462
100
AcDbXrecord
 90
        0
  0
XRECORD
  5
481
102
{ACAD_REACTORS
330
462
102
}
330
462
100
AcDbXrecord
1000
DSTYLE
1002
{
1070
   340
340
11
1002
}
  0
XRECORD
  5
46C
102
{ACAD_REACTORS
330
462
102
}
330
462
100
AcDbXrecord
  1
{6B353703-CE71-4CF1-B0C6-4F49C4793570}
  0
XRECORD
  5
465
102
{ACAD_REACTORS
330
462
102
}
330
462
100
AcDbXrecord
  1

  0
XRECORD
  5
46A
102
{ACAD_REACTORS
330
462
102
}
330
462
100
AcDbXrecord
 90
        1
  0
XRECORD
  5
467
102
{ACAD_REACTORS
330
462
102
}
330
462
100
AcDbXrecord
340
1A
  0
XRECORD
  5
469
102
{ACAD_REACTORS
330
462
102
}
330
462
100
AcDbXrecord
 90
    10781
  0
XRECORD
  5
468
102
{ACAD_REACTORS
330
462
102
}
330
462
100
AcDbXrecord
340
19
  0
XRECORD
  5
46E
102
{ACAD_REACTORS
330
462
102
}
330
462
100
AcDbXrecord
 40
0.0
  0
XRECORD
  5
471
102
{ACAD_REACTORS
330
462
102
}
330
462
100
AcDbXrecord
340
0
  0
XRECORD
  5
477
102
{ACAD_REACTORS
330
462
102
}
330
462
100
AcDbXrecord
 10
0.0
 20
0.0
 30
0.0
  0
XRECORD
  5
473
102
{ACAD_REACTORS
330
462
102
}
330
462
100
AcDbXrecord
 10
0.0
 20
0.0
 30
0.0
  0
XRECORD
  5
476
102
{ACAD_REACTORS
330
462
102
}
330
462
100
AcDbXrecord
 10
0.0
 20
0.0
 30
0.0
  0
XRECORD
  5
474
102
{ACAD_REACTORS
330
462
102
}
330
462
100
AcDbXrecord
 10
0.0
 20
0.0
 30
0.0
  0
XRECORD
  5
475
102
{ACAD_REACTORS
330
462
102
}
330
462
100
AcDbXrecord
 10
0.0
 20
0.0
 30
0.0
  0
XRECORD
  5
472
102
{ACAD_REACTORS
330
462
102
}
330
462
100
AcDbXrecord
 10
0.0
 20
0.0
 30
0.0
  0
XRECORD
  5
46F
102
{ACAD_REACTORS
330
462
102
}
330
462
100
AcDbXrecord
340
0
  0
XRECORD
  5
470
102
{ACAD_REACTORS
330
462
102
}
330
462
100
AcDbXrecord
 70
     0
  0
XRECORD
  5
466
102
{ACAD_REACTORS
330
462
102
}
330
462
100
AcDbXrecord
  1

  0
XRECORD
  5
463
102
{ACAD_REACTORS
330
462
102
}
330
462
100
AcDbXrecord
 90
        1
  0
XRECORD
  5
464
102
{ACAD_REACTORS
330
462
102
}
330
462
100
AcDbXrecord
 90
       70
  0
XRECORD
  5
47A
102
{ACAD_REACTORS
330
462
102
}
330
462
100
AcDbXrecord
340
0
  0
XRECORD
  5
480
102
{ACAD_REACTORS
330
462
102
}
330
462
100
AcDbXrecord
 10
0.0
 20
0.0
 30
0.0
  0
XRECORD
  5
47C
102
{ACAD_REACTORS
330
462
102
}
330
462
100
AcDbXrecord
 10
0.0
 20
0.0
 30
0.0
  0
XRECORD
  5
47F
102
{ACAD_REACTORS
330
462
102
}
330
462
100
AcDbXrecord
 10
0.0
 20
0.0
 30
0.0
  0
XRECORD
  5
47D
102
{ACAD_REACTORS
330
462
102
}
330
462
100
AcDbXrecord
 10
0.0
 20
0.0
 30
0.0
  0
XRECORD
  5
47E
102
{ACAD_REACTORS
330
462
102
}
330
462
100
AcDbXrecord
 10
0.0
 20
0.0
 30
0.0
  0
XRECORD
  5
47B
102
{ACAD_REACTORS
330
462
102
}
330
462
100
AcDbXrecord
 10
0.0
 20
0.0
 30
0.0
  0
XRECORD
  5
478
102
{ACAD_REACTORS
330
462
102
}
330
462
100
AcDbXrecord
340
0
  0
XRECORD
  5
479
102
{ACAD_REACTORS
330
462
102
}
330
462
100
AcDbXrecord
 70
     0
  0
XRECORD
  5
46D
102
{ACAD_REACTORS
330
462
102
}
330
462
100
AcDbXrecord
  1
{FAEB1C32-E019-11D5-929B-00C0DF256EC4}
  0
ENDSEC
  0
EOF
