  0
SECTION
  2
HEADER
  9
$ACADVER
  1
AC1012
  9
$DWGCODEPAGE
  3
ANSI_1252
  9
$INSBASE
 10
0.0
 20
0.0
 30
0.0
  9
$EXTMIN
 10
5.0
 20
5.0
 30
0.0
  9
$EXTMAX
 10
205.0000369999999
 20
292.0001829999998
 30
0.0
  9
$LIMMIN
 10
0.0
 20
0.0
  9
$LIMMAX
 10
210.0
 20
296.0
  9
$ORTHOMODE
 70
     1
  9
$REGENMODE
 70
     1
  9
$FILLMODE
 70
     1
  9
$QTEXTMODE
 70
     0
  9
$MIRRTEXT
 70
     1
  9
$DRAGMODE
 70
     2
  9
$LTSCALE
 40
0.5
  9
$OSMODE
 70
    37
  9
$ATTMODE
 70
     1
  9
$TEXTSIZE
 40
0.2
  9
$TRACEWID
 40
0.05
  9
$TEXTSTYLE
  7
FINDER
  9
$CLAYER
  8
0
  9
$CELTYPE
  6
CONTINUOUS
  9
$CECOLOR
 62
   256
  9
$CELTSCALE
 40
1.0
  9
$DELOBJ
 70
     1
  9
$DISPSILH
 70
     0
  9
$DIMSCALE
 40
1.0
  9
$DIMASZ
 40
2.5
  9
$DIMEXO
 40
2.0
  9
$DIMDLI
 40
6.5
  9
$DIMRND
 40
0.0
  9
$DIMDLE
 40
0.0
  9
$DIMEXE
 40
1.25
  9
$DIMTP
 40
0.0
  9
$DIMTM
 40
0.0
  9
$DIMTXT
 40
3.5
  9
$DIMCEN
 40
2.5
  9
$DIMTSZ
 40
0.0
  9
$DIMTOL
 70
     0
  9
$DIMLIM
 70
     0
  9
$DIMTIH
 70
     0
  9
$DIMTOH
 70
     0
  9
$DIMSE1
 70
     0
  9
$DIMSE2
 70
     0
  9
$DIMTAD
 70
     1
  9
$DIMZIN
 70
     8
  9
$DIMBLK
  1

  9
$DIMASO
 70
     1
  9
$DIMSHO
 70
     1
  9
$DIMPOST
  1

  9
$DIMAPOST
  1

  9
$DIMALT
 70
     0
  9
$DIMALTD
 70
     3
  9
$DIMALTF
 40
0.0393701
  9
$DIMLFAC
 40
1.0
  9
$DIMTOFL
 70
     1
  9
$DIMTVP
 40
0.0
  9
$DIMTIX
 70
     0
  9
$DIMSOXD
 70
     0
  9
$DIMSAH
 70
     0
  9
$DIMBLK1
  1

  9
$DIMBLK2
  1

  9
$DIMSTYLE
  2
FINDER
  9
$DIMCLRD
 70
   256
  9
$DIMCLRE
 70
   256
  9
$DIMCLRT
 70
     2
  9
$DIMTFAC
 40
1.0
  9
$DIMGAP
 40
0.625
  9
$DIMJUST
 70
     0
  9
$DIMSD1
 70
     0
  9
$DIMSD2
 70
     0
  9
$DIMTOLJ
 70
     0
  9
$DIMTZIN
 70
     8
  9
$DIMALTZ
 70
     0
  9
$DIMALTTZ
 70
     0
  9
$DIMFIT
 70
     3
  9
$DIMUPT
 70
     0
  9
$DIMUNIT
 70
     2
  9
$DIMDEC
 70
     2
  9
$DIMTDEC
 70
     2
  9
$DIMALTU
 70
     2
  9
$DIMALTTD
 70
     3
  9
$DIMTXSTY
  7
FINDER
  9
$DIMAUNIT
 70
     0
  9
$LUNITS
 70
     2
  9
$LUPREC
 70
     4
  9
$SKETCHINC
 40
0.1
  9
$FILLETRAD
 40
0.25
  9
$AUNITS
 70
     0
  9
$AUPREC
 70
     3
  9
$MENU
  1
acad
  9
$ELEVATION
 40
0.0
  9
$PELEVATION
 40
0.0
  9
$THICKNESS
 40
0.0
  9
$LIMCHECK
 70
     0
  9
$BLIPMODE
 70
     0
  9
$CHAMFERA
 40
0.0
  9
$CHAMFERB
 40
0.0
  9
$CHAMFERC
 40
0.0
  9
$CHAMFERD
 40
0.0
  9
$SKPOLY
 70
     0
  9
$TDCREATE
 40
2451901.420981018
  9
$TDUPDATE
 40
2453881.370940752
  9
$TDINDWG
 40
0.2701785069
  9
$TDUSRTIMER
 40
0.2701783912
  9
$USRTIMER
 70
     1
  9
$ANGBASE
 50
0.0
  9
$ANGDIR
 70
     0
  9
$PDMODE
 70
     0
  9
$PDSIZE
 40
0.0
  9
$PLINEWID
 40
0.0
  9
$COORDS
 70
     1
  9
$SPLFRAME
 70
     0
  9
$SPLINETYPE
 70
     6
  9
$SPLINESEGS
 70
     8
  9
$ATTDIA
 70
     0
  9
$ATTREQ
 70
     1
  9
$HANDLING
 70
 22529
  9
$HANDSEED
  5
32E5
  9
$SURFTAB1
 70
     6
  9
$SURFTAB2
 70
     6
  9
$SURFTYPE
 70
     6
  9
$SURFU
 70
     6
  9
$SURFV
 70
     6
  9
$UCSNAME
  2

  9
$UCSORG
 10
0.0
 20
0.0
 30
0.0
  9
$UCSXDIR
 10
1.0
 20
0.0
 30
0.0
  9
$UCSYDIR
 10
0.0
 20
1.0
 30
0.0
  9
$PUCSNAME
  2

  9
$PUCSORG
 10
0.0
 20
0.0
 30
0.0
  9
$PUCSXDIR
 10
1.0
 20
0.0
 30
0.0
  9
$PUCSYDIR
 10
0.0
 20
1.0
 30
0.0
  9
$USERI1
 70
     0
  9
$USERI2
 70
     0
  9
$USERI3
 70
     0
  9
$USERI4
 70
     0
  9
$USERI5
 70
     0
  9
$USERR1
 40
0.0
  9
$USERR2
 40
0.0
  9
$USERR3
 40
0.0
  9
$USERR4
 40
0.0
  9
$USERR5
 40
0.0
  9
$WORLDVIEW
 70
     1
  9
$SHADEDGE
 70
     3
  9
$SHADEDIF
 70
    70
  9
$TILEMODE
 70
     1
  9
$MAXACTVP
 70
    16
  9
$PINSBASE
 10
0.0
 20
0.0
 30
0.0
  9
$PLIMCHECK
 70
     0
  9
$PEXTMIN
 10
1.000000000000000E+20
 20
1.000000000000000E+20
 30
1.000000000000000E+20
  9
$PEXTMAX
 10
-1.000000000000000E+20
 20
-1.000000000000000E+20
 30
-1.000000000000000E+20
  9
$PLIMMIN
 10
0.0
 20
0.0
  9
$PLIMMAX
 10
100.0
 20
100.0
  9
$UNITMODE
 70
     0
  9
$VISRETAIN
 70
     0
  9
$PLINEGEN
 70
     1
  9
$PSLTSCALE
 70
     0
  9
$TREEDEPTH
 70
  3020
  9
$PICKSTYLE
 70
     1
  9
$CMLSTYLE
  2
STANDARD
  9
$CMLJUST
 70
     0
  9
$CMLSCALE
 40
1.0
  9
$SAVEIMAGES
 70
     1
  0
ENDSEC
  0
SECTION
  2
CLASSES
  0
CLASS
  1
LWPOLYLINE
  2
AcDbPolyline
  3
AutoCAD 2000
 90
    32768
280
     0
281
     1
  0
CLASS
  1
IMAGE
  2
AcDbRasterImage
  3
ISM
 90
    32895
280
     0
281
     1
  0
CLASS
  1
OLE2FRAME
  2
AcDbOle2Frame
  3
AutoCAD 2000
 90
    32768
280
     0
281
     1
  0
CLASS
  1
HATCH
  2
AcDbHatch
  3
AutoCAD 2000
 90
    32768
280
     0
281
     1
  0
CLASS
  1
DICTIONARYVAR
  2
AcDbDictionaryVar
  3
AutoCAD 2000
 90
    32768
280
     0
281
     0
  0
CLASS
  1
RASTERVARIABLES
  2
AcDbRasterVariables
  3
ISM
 90
    32768
280
     0
281
     0
  0
CLASS
  1
IMAGEDEF
  2
AcDbRasterImageDef
  3
ISM
 90
    32768
280
     0
281
     0
  0
CLASS
  1
IMAGEDEF_REACTOR
  2
AcDbRasterImageDefReactor
  3
ISM
 90
    32769
280
     0
281
     0
  0
CLASS
  1
IDBUFFER
  2
AcDbIdBuffer
  3
AutoCAD 2000
 90
    32768
280
     0
281
     0
  0
CLASS
  1
SPATIAL_FILTER
  2
AcDbSpatialFilter
  3
AutoCAD 2000
 90
    32768
280
     0
281
     0
  0
CLASS
  1
XRECORD
  2
AcDbXrecord
  3
AutoCAD 2000
 90
    32768
280
     0
281
     0
  0
CLASS
  1
SORTENTSTABLE
  2
AcDbSortentsTable
  3
AutoCAD 2000
 90
    32768
280
     0
281
     0
  0
CLASS
  1
LAYER_INDEX
  2
AcDbLayerIndex
  3
AutoCAD 2000
 90
    32768
280
     0
281
     0
  0
CLASS
  1
SPATIAL_INDEX
  2
AcDbSpatialIndex
  3
AutoCAD 2000
 90
    32768
280
     0
281
     0
  0
CLASS
  1
OBJECT_PTR
  2
CAseDLPNTableRecord
  3
ASE-LPNTableRecord
 90
    32769
280
     0
281
     0
  0
CLASS
  1
LAYOUT
  2
AcDbLayout
  3
AutoCAD 2000
 90
    32768
280
     0
281
     0
  0
CLASS
  1
PLOTSETTINGS
  2
AcDbPlotSettings
  3
AutoCAD 2000
 90
    32768
280
     0
281
     0
  0
CLASS
  1
ACDBDICTIONARYWDFLT
  2
AcDbDictionaryWithDefault
  3
AutoCAD 2000
 90
    32768
280
     0
281
     0
  0
CLASS
  1
ACDBPLACEHOLDER
  2
AcDbPlaceHolder
  3
AutoCAD 2000
 90
    32768
280
     0
281
     0
  0
CLASS
  1
VBA_PROJECT
  2
AcDbVbaProject
  3
"acadvba"
 90
    32769
280
     0
281
     0
  0
CLASS
  1
WIPEOUT
  2
AcDbWipeout
  3
WipeOut|AutoCAD Express Tool|expresstools@autodesk.com
 90
    32895
280
     0
281
     1
  0
CLASS
  1
WIPEOUTVARIABLES
  2
AcDbWipeoutVariables
  3
WipeOut|AutoCAD Express Tool|expresstools@autodesk.com
 90
    32768
280
     0
281
     0
  0
CLASS
  1
RTEXT
  2
RText
  3
RText|AutoCAD Express Tool|expresstools@autodesk.com
 90
    32768
280
     0
281
     1
  0
CLASS
  1
ARCALIGNEDTEXT
  2
AcDbArcAlignedText
  3
ATEXT|AutoCAD Express Tool|expresstools@autodesk.com
 90
    32768
280
     0
281
     1
  0
CLASS
  1
LONG_TRANSACTION
  2
AcDbLongTransaction
  3
AutoCAD 2000
 90
    32768
280
     0
281
     0
  0
CLASS
  1
LWPOLYLINE
  2
AcDbPolyline
  3
AutoCAD 2000
 90
    32768
280
     0
281
     1
  0
CLASS
  1
HATCH
  2
AcDbHatch
  3
AutoCAD 2000
 90
    32768
280
     0
281
     1
  0
CLASS
  1
XRECORD
  2
AcDbXrecord
  3
AutoCAD 2000
 90
    32768
280
     0
281
     0
  0
CLASS
  1
LONG_TRANSACTION
  2
AcDbLongTransaction
  3
AutoCAD 2000
 90
    32768
280
     0
281
     0
  0
CLASS
  1
LWPOLYLINE
  2
AcDbPolyline
  3
AutoCAD 2000
 90
    32768
280
     0
281
     1
  0
CLASS
  1
HATCH
  2
AcDbHatch
  3
AutoCAD 2000
 90
    32768
280
     0
281
     1
  0
CLASS
  1
XRECORD
  2
AcDbXrecord
  3
AutoCAD 2000
 90
    32768
280
     0
281
     0
  0
CLASS
  1
LONG_TRANSACTION
  2
AcDbLongTransaction
  3
AutoCAD 2000
 90
    32768
280
     0
281
     0
  0
CLASS
  1
LWPOLYLINE
  2
AcDbPolyline
  3
AutoCAD 2000
 90
    32768
280
     0
281
     1
  0
CLASS
  1
HATCH
  2
AcDbHatch
  3
AutoCAD 2000
 90
    32768
280
     0
281
     1
  0
CLASS
  1
XRECORD
  2
AcDbXrecord
  3
AutoCAD 2000
 90
    32768
280
     0
281
     0
  0
CLASS
  1
LONG_TRANSACTION
  2
AcDbLongTransaction
  3
AutoCAD 2000
 90
    32768
280
     0
281
     0
  0
CLASS
  1
LWPOLYLINE
  2
AcDbPolyline
  3
AutoCAD 2000
 90
    32768
280
     0
281
     1
  0
CLASS
  1
HATCH
  2
AcDbHatch
  3
AutoCAD 2000
 90
    32768
280
     0
281
     1
  0
CLASS
  1
XRECORD
  2
AcDbXrecord
  3
AutoCAD 2000
 90
    32768
280
     0
281
     0
  0
ENDSEC
  0
SECTION
  2
TABLES
  0
TABLE
  2
VPORT
  5
7
330
0
100
AcDbSymbolTable
 70
     2
  0
VPORT
  5
32DC
330
7
100
AcDbSymbolTableRecord
100
AcDbViewportTableRecord
  2
*ACTIVE
 70
     0
 10
0.0
 20
0.0
 11
1.0
 21
1.0
 12
105.7815946008412
 22
148.0
 13
0.0
 23
0.0
 14
1.0
 24
1.0
 15
2.0
 25
2.0
 16
0.0
 26
0.0
 36
1.0
 17
0.0
 27
0.0
 37
0.0
 40
298.1738066095471
 41
1.627791563275434
 42
50.0
 43
0.0
 44
0.0
 50
0.0
 51
0.0
 71
     0
 72
   100
 73
     1
 74
     1
 75
     0
 76
     0
 77
     0
 78
     0
  0
ENDTAB
  0
TABLE
  2
LTYPE
  5
4
330
0
100
AcDbSymbolTable
 70
     2
  0
LTYPE
  5
11
330
4
100
AcDbSymbolTableRecord
100
AcDbLinetypeTableRecord
  2
BYBLOCK
 70
     0
  3

 72
    65
 73
     0
 40
0.0
  0
LTYPE
  5
12
330
4
100
AcDbSymbolTableRecord
100
AcDbLinetypeTableRecord
  2
BYLAYER
 70
     0
  3

 72
    65
 73
     0
 40
0.0
  0
LTYPE
  5
13
330
4
100
AcDbSymbolTableRecord
100
AcDbLinetypeTableRecord
  2
CONTINUOUS
 70
     0
  3
Solid line
 72
    65
 73
     0
 40
0.0
  0
LTYPE
  5
2C92
330
4
100
AcDbSymbolTableRecord
100
AcDbLinetypeTableRecord
  2
HIDDEN2
 70
     0
  3

 72
    65
 73
     2
 40
4.749799928665161
 49
3.174999952316284
 74
     0
 49
-1.587499976158142
 74
     0
  0
ENDTAB
  0
TABLE
  2
LAYER
  5
2
330
0
100
AcDbSymbolTable
 70
     7
  0
LAYER
  5
14
330
2
100
AcDbSymbolTableRecord
100
AcDbLayerTableRecord
  2
0
 70
     0
 62
     7
  6
CONTINUOUS
  0
LAYER
  5
B1
330
2
100
AcDbSymbolTableRecord
100
AcDbLayerTableRecord
  2
DIM
 70
     0
 62
     3
  6
CONTINUOUS
  0
LAYER
  5
B2
330
2
100
AcDbSymbolTableRecord
100
AcDbLayerTableRecord
  2
DRAW
 70
     0
 62
     7
  6
CONTINUOUS
  0
LAYER
  5
B3
330
2
100
AcDbSymbolTableRecord
100
AcDbLayerTableRecord
  2
CARTOUCHE
 70
     0
 62
     7
  6
CONTINUOUS
  0
LAYER
  5
B4
330
2
100
AcDbSymbolTableRecord
100
AcDbLayerTableRecord
  2
DRAW-TEXT
 70
     0
 62
     1
  6
CONTINUOUS
  0
LAYER
  5
1EF1
330
2
100
AcDbSymbolTableRecord
100
AcDbLayerTableRecord
  2
DEFPOINTS
 70
     0
 62
     7
  6
CONTINUOUS
  0
LAYER
  5
2C93
330
2
100
AcDbSymbolTableRecord
100
AcDbLayerTableRecord
  2
5
 70
     0
 62
     1
  6
CONTINUOUS
  0
ENDTAB
  0
TABLE
  2
STYLE
  5
3
330
0
100
AcDbSymbolTable
 70
     4
  0
STYLE
  5
17
330
3
100
AcDbSymbolTableRecord
100
AcDbTextStyleTableRecord
  2
STANDARD
 70
     0
 40
0.0
 41
1.0
 50
0.0
 71
     0
 42
0.2
  3
txt
  4

  0
STYLE
  5
BE
330
3
100
AcDbSymbolTableRecord
100
AcDbTextStyleTableRecord
  2
FINDER
 70
     0
 40
1.8
 41
1.0
 50
0.0
 71
     0
 42
0.2
  3
ARIAL.TTF
  4

1001
ACAD
1000
Arial
1071
       34
  0
STYLE
  5
2C94
330
3
100
AcDbSymbolTableRecord
100
AcDbTextStyleTableRecord
  2
TSTYLE5
 70
     0
 40
1.399999976158142
 41
0.95
 50
0.0
 71
     0
 42
0.2
  3
ARIAL.TTF
  4

1001
ACAD
1000
Arial
1071
    32000
  0
STYLE
  5
2C95
330
3
100
AcDbSymbolTableRecord
100
AcDbTextStyleTableRecord
  2
TSTYLE6
 70
     0
 40
2.0
 41
0.95
 50
0.0
 71
     0
 42
0.2
  3
ARIAL.TTF
  4

1001
ACAD
1000
Arial
1071
    32000
  0
ENDTAB
  0
TABLE
  2
VIEW
  5
5
330
0
100
AcDbSymbolTable
 70
     0
  0
ENDTAB
  0
TABLE
  2
UCS
  5
6
330
0
100
AcDbSymbolTable
 70
     0
  0
ENDTAB
  0
TABLE
  2
APPID
  5
8
330
0
100
AcDbSymbolTable
 70
     1
  0
APPID
  5
16
330
8
100
AcDbSymbolTableRecord
100
AcDbRegAppTableRecord
  2
ACAD
 70
     0
  0
ENDTAB
  0
TABLE
  2
DIMSTYLE
  5
9
330
0
100
AcDbSymbolTable
 70
     5
  0
DIMSTYLE
105
18
330
9
100
AcDbSymbolTableRecord
100
AcDbDimStyleTableRecord
  2
STANDARD
 70
     0
  3

  4

  5

  6

  7

 40
1.0
 41
0.18
 42
0.0625
 43
0.38
 44
0.18
 45
0.0
 46
0.0
 47
0.0
 48
0.0
140
0.18
141
0.09
142
0.0
143
25.4
144
1.0
145
0.0
146
1.0
147
0.09
 71
     0
 72
     0
 73
     1
 74
     1
 75
     0
 76
     0
 77
     0
 78
     0
170
     0
171
     2
172
     0
173
     0
174
     0
175
     0
176
     0
177
     0
178
     0
270
     2
271
     4
272
     4
273
     2
274
     2
340
17
275
     0
280
     0
281
     0
282
     0
283
     1
284
     0
285
     0
286
     0
287
     3
288
     0
  0
DIMSTYLE
105
D1
330
9
100
AcDbSymbolTableRecord
100
AcDbDimStyleTableRecord
  2
FINDER
 70
     0
  3

  4

  5

  6

  7

 40
1.0
 41
2.5
 42
2.0
 43
6.5
 44
1.25
 45
0.0
 46
0.0
 47
0.0
 48
0.0
140
3.5
141
2.5
142
0.0
143
0.0393701
144
1.0
145
0.0
146
1.0
147
0.625
 71
     0
 72
     0
 73
     0
 74
     0
 75
     0
 76
     0
 77
     1
 78
     8
170
     0
171
     3
172
     1
173
     0
174
     0
175
     0
176
   256
177
   256
178
     2
270
     2
271
     2
272
     2
273
     2
274
     3
340
BE
275
     0
280
     0
281
     0
282
     0
283
     0
284
     8
285
     0
286
     0
287
     3
288
     0
  0
DIMSTYLE
105
2C96
102
{ACAD_REACTORS
330
2E69
330
2E72
102
}
330
9
100
AcDbSymbolTableRecord
100
AcDbDimStyleTableRecord
  2
DSTYLE1
 70
     0
  3

  4

  5

  6

  7

 40
1.0
 41
2.0
 42
0.3000000121838084
 43
0.38
 44
0.6666666666666666
 45
0.0
 46
0.0
 47
0.0
 48
0.0
140
2.0
141
0.09
142
0.0
143
25.4
144
1.0
145
0.7
146
0.6
147
0.0
 71
     0
 72
     0
 73
     0
 74
     0
 75
     0
 76
     0
 77
     0
 78
     8
170
     0
171
     2
172
     0
173
     0
174
     0
175
     0
176
     0
177
     0
178
     2
270
     2
271
     2
272
     4
273
     2
274
     2
340
2C95
275
     0
280
     0
281
     0
282
     0
283
     1
284
     0
285
     0
286
     0
287
     3
288
     0
  0
DIMSTYLE
105
2C97
102
{ACAD_REACTORS
330
2ED3
330
2F6B
330
2F78
330
2F80
330
2FAA
330
2FFB
330
2E67
330
2E6A
330
2E73
102
}
330
9
100
AcDbSymbolTableRecord
100
AcDbDimStyleTableRecord
  2
DSTYLE2
 70
     0
  3

  4

  5

  6

  7

 40
1.0
 41
2.0
 42
0.3000000173217643
 43
0.38
 44
0.6666666666666666
 45
0.0
 46
0.0
 47
0.0
 48
0.0
140
2.0
141
0.09
142
0.0
143
25.4
144
1.0
145
0.7
146
0.6
147
0.0
 71
     0
 72
     0
 73
     0
 74
     0
 75
     0
 76
     0
 77
     0
 78
     8
170
     0
171
     2
172
     0
173
     0
174
     1
175
     0
176
     0
177
     0
178
     2
270
     2
271
     2
272
     4
273
     2
274
     2
340
2C95
275
     0
280
     0
281
     0
282
     0
283
     1
284
     0
285
     0
286
     0
287
     3
288
     0
  0
DIMSTYLE
105
2C98
102
{ACAD_REACTORS
330
2F6A
330
2E68
102
}
330
9
100
AcDbSymbolTableRecord
100
AcDbDimStyleTableRecord
  2
DSTYLE3
 70
     0
  3

  4

  5

  6

  7

 40
1.0
 41
2.0
 42
0.3000000258870159
 43
0.38
 44
0.6666666666666666
 45
0.0
 46
0.0
 47
0.0
 48
0.0
140
2.0
141
0.09
142
0.0
143
25.4
144
1.0
145
0.7
146
0.6
147
0.0
 71
     0
 72
     0
 73
     0
 74
     0
 75
     0
 76
     0
 77
     0
 78
     8
170
     0
171
     2
172
     0
173
     0
174
     1
175
     0
176
     0
177
     0
178
     2
270
     2
271
     3
272
     4
273
     2
274
     2
340
2C95
275
     0
280
     0
281
     0
282
     0
283
     1
284
     0
285
     0
286
     0
287
     3
288
     0
  0
ENDTAB
  0
TABLE
  2
BLOCK_RECORD
  5
1
330
0
100
AcDbSymbolTable
 70
    52
  0
BLOCK_RECORD
  5
A
102
{ACAD_XDICTIONARY
360
2588
102
}
330
1
100
AcDbSymbolTableRecord
100
AcDbBlockTableRecord
  2
*MODEL_SPACE
  0
BLOCK_RECORD
  5
B
102
{ACAD_XDICTIONARY
360
258A
102
}
330
1
100
AcDbSymbolTableRecord
100
AcDbBlockTableRecord
  2
*PAPER_SPACE
  0
BLOCK_RECORD
  5
298F
330
1
100
AcDbSymbolTableRecord
100
AcDbBlockTableRecord
  2
*X13
  0
BLOCK_RECORD
  5
2A20
330
1
100
AcDbSymbolTableRecord
100
AcDbBlockTableRecord
  2
*X14
  0
BLOCK_RECORD
  5
2A40
330
1
100
AcDbSymbolTableRecord
100
AcDbBlockTableRecord
  2
*X15
  0
BLOCK_RECORD
  5
2A4D
330
1
100
AcDbSymbolTableRecord
100
AcDbBlockTableRecord
  2
*X16
  0
BLOCK_RECORD
  5
2A64
330
1
100
AcDbSymbolTableRecord
100
AcDbBlockTableRecord
  2
*X17
  0
BLOCK_RECORD
  5
2A8E
330
1
100
AcDbSymbolTableRecord
100
AcDbBlockTableRecord
  2
*X18
  0
BLOCK_RECORD
  5
2ABD
330
1
100
AcDbSymbolTableRecord
100
AcDbBlockTableRecord
  2
*X19
  0
BLOCK_RECORD
  5
2AF0
330
1
100
AcDbSymbolTableRecord
100
AcDbBlockTableRecord
  2
*X20
  0
BLOCK_RECORD
  5
2B3D
330
1
100
AcDbSymbolTableRecord
100
AcDbBlockTableRecord
  2
B
  0
BLOCK_RECORD
  5
2B52
330
1
100
AcDbSymbolTableRecord
100
AcDbBlockTableRecord
  2
D
  0
BLOCK_RECORD
  5
2BCD
330
1
100
AcDbSymbolTableRecord
100
AcDbBlockTableRecord
  2
D1
  0
BLOCK_RECORD
  5
2BEA
330
1
100
AcDbSymbolTableRecord
100
AcDbBlockTableRecord
  2
LW_POLYLINE_2
  0
BLOCK_RECORD
  5
2BF1
330
1
100
AcDbSymbolTableRecord
100
AcDbBlockTableRecord
  2
NON_RELAZIONATI
  0
BLOCK_RECORD
  5
3030
330
1
100
AcDbSymbolTableRecord
100
AcDbBlockTableRecord
  2
*D39
  0
BLOCK_RECORD
  5
303C
330
1
100
AcDbSymbolTableRecord
100
AcDbBlockTableRecord
  2
*D40
  0
BLOCK_RECORD
  5
3048
330
1
100
AcDbSymbolTableRecord
100
AcDbBlockTableRecord
  2
*D41
  0
BLOCK_RECORD
  5
3054
330
1
100
AcDbSymbolTableRecord
100
AcDbBlockTableRecord
  2
*D42
  0
BLOCK_RECORD
  5
3060
330
1
100
AcDbSymbolTableRecord
100
AcDbBlockTableRecord
  2
*D43
  0
BLOCK_RECORD
  5
306C
330
1
100
AcDbSymbolTableRecord
100
AcDbBlockTableRecord
  2
*D44
  0
BLOCK_RECORD
  5
3078
330
1
100
AcDbSymbolTableRecord
100
AcDbBlockTableRecord
  2
*D45
  0
BLOCK_RECORD
  5
3084
330
1
100
AcDbSymbolTableRecord
100
AcDbBlockTableRecord
  2
*D46
  0
BLOCK_RECORD
  5
3090
330
1
100
AcDbSymbolTableRecord
100
AcDbBlockTableRecord
  2
*D47
  0
BLOCK_RECORD
  5
309C
330
1
100
AcDbSymbolTableRecord
100
AcDbBlockTableRecord
  2
*D48
  0
BLOCK_RECORD
  5
30A9
330
1
100
AcDbSymbolTableRecord
100
AcDbBlockTableRecord
  2
*D49
  0
BLOCK_RECORD
  5
30B5
330
1
100
AcDbSymbolTableRecord
100
AcDbBlockTableRecord
  2
*D50
  0
BLOCK_RECORD
  5
30C2
330
1
100
AcDbSymbolTableRecord
100
AcDbBlockTableRecord
  2
*D51
  0
ENDTAB
  0
ENDSEC
  0
SECTION
  2
BLOCKS
  0
BLOCK
  5
D
330
A
100
AcDbEntity
  8
0
100
AcDbBlockBegin
  2
*MODEL_SPACE
 70
     0
 10
0.0
 20
0.0
 30
0.0
  3
*MODEL_SPACE
  1

  0
ENDBLK
  5
E
330
A
100
AcDbEntity
  8
0
100
AcDbBlockEnd
  0
BLOCK
  5
F
330
B
100
AcDbEntity
 67
     1
  8
0
100
AcDbBlockBegin
  2
*PAPER_SPACE
 70
     0
 10
0.0
 20
0.0
 30
0.0
  3
*PAPER_SPACE
  1

  0
ENDBLK
  5
10
330
B
100
AcDbEntity
 67
     1
  8
0
100
AcDbBlockEnd
  0
BLOCK
  5
2A1E
330
298F
100
AcDbEntity
  8
0
100
AcDbBlockBegin
  2
*X13
 70
     1
 10
0.0
 20
0.0
 30
0.0
  3
*X13
  1

  0
LINE
  5
2990
330
298F
100
AcDbEntity
  8
0
  6
CONTINUOUS
 62
     0
100
AcDbLine
 10
14.98946714318631
 20
20.30887437873806
 30
0.0
 11
15.51619307571112
 21
20.83560031126288
 31
0.0
  0
LINE
  5
2991
330
298F
100
AcDbEntity
  8
0
  6
CONTINUOUS
 62
     0
100
AcDbLine
 10
14.11251745253288
 20
19.71476740477394
 30
0.0
 11
16.11030004967524
 21
21.71255000191629
 31
0.0
  0
LINE
  5
2992
330
298F
100
AcDbEntity
  8
0
  6
CONTINUOUS
 62
     0
100
AcDbLine
 10
13.59659465958662
 20
19.48168732851699
 30
0.0
 11
16.34338012593218
 21
22.22847279486255
 31
0.0
  0
LINE
  5
2993
330
298F
100
AcDbEntity
  8
0
  6
CONTINUOUS
 62
     0
100
AcDbLine
 10
13.1748939473581
 20
19.34282933297776
 30
0.0
 11
16.48223812147141
 21
22.65017350709107
 31
0.0
  0
LINE
  5
2994
330
298F
100
AcDbEntity
  8
0
  6
CONTINUOUS
 62
     0
100
AcDbLine
 10
12.80484418404
 20
19.25562228634898
 30
0.0
 11
16.56944516810019
 21
23.02022327040917
 31
0.0
  0
LINE
  5
2995
330
298F
100
AcDbEntity
  8
0
  6
CONTINUOUS
 62
     0
100
AcDbLine
 10
14.79535208722197
 20
21.52897290622026
 30
0.0
 11
16.62213341977443
 21
23.35575423877271
 31
0.0
  0
LINE
  5
2996
330
298F
100
AcDbEntity
  8
0
  6
CONTINUOUS
 62
     0
100
AcDbLine
 10
12.46931321567648
 20
19.20293403467476
 30
0.0
 11
14.2960945904291
 21
21.02971540942739
 31
0.0
  0
LINE
  5
2997
330
298F
100
AcDbEntity
  8
0
  6
CONTINUOUS
 62
     0
100
AcDbLine
 10
15.29353583996728
 20
22.30999937565488
 30
0.0
 11
16.64927471651913
 21
23.66573825220671
 31
0.0
  0
LINE
  5
2998
330
298F
100
AcDbEntity
  8
0
  6
CONTINUOUS
 62
     0
100
AcDbLine
 10
12.15932920224247
 20
19.17579273793005
 30
0.0
 11
13.51506812099447
 21
20.53153165668205
 31
0.0
  0
LINE
  5
2999
330
298F
100
AcDbEntity
  8
0
  6
CONTINUOUS
 62
     0
100
AcDbLine
 10
15.47908751263476
 20
22.77839376501165
 30
0.0
 11
16.65627284793247
 21
23.95557910030935
 31
0.0
  0
LINE
  5
299A
330
298F
100
AcDbEntity
  8
0
  6
CONTINUOUS
 62
     0
100
AcDbLine
 10
11.86948835413983
 20
19.16879460651672
 30
0.0
 11
13.04667373163769
 21
20.34597998401457
 31
0.0
  0
LINE
  5
299B
330
298F
100
AcDbEntity
  8
0
  6
CONTINUOUS
 62
     0
100
AcDbLine
 10
15.58008243066611
 20
23.16223139973228
 30
0.0
 11
16.6466820474201
 21
24.2288310164863
 31
0.0
  0
LINE
  5
299C
330
298F
100
AcDbEntity
  8
0
  6
CONTINUOUS
 62
     0
100
AcDbLine
 10
11.59623643796287
 20
19.17838540702907
 30
0.0
 11
12.66283609691706
 21
20.24498506598324
 31
0.0
  0
LINE
  5
299D
330
298F
100
AcDbEntity
  8
0
  6
CONTINUOUS
 62
     0
100
AcDbLine
 10
12.65453085014504
 20
20.51952253590053
 30
0.0
 11
13.32322297621252
 21
21.18821466196801
 31
0.0
  0
LINE
  5
299E
330
298F
100
AcDbEntity
  8
0
  6
CONTINUOUS
 62
     0
100
AcDbLine
 10
15.63412492981957
 20
23.49911661557506
 30
0.0
 11
16.62298585552361
 21
24.48797754127911
 31
0.0
  0
LINE
  5
299F
330
298F
100
AcDbEntity
  8
0
  6
CONTINUOUS
 62
     0
100
AcDbLine
 10
11.33708991317008
 20
19.20208159892557
 30
0.0
 11
12.32595088107428
 21
20.19094256682979
 31
0.0
  0
LINE
  5
29A0
330
298F
100
AcDbEntity
  8
0
  6
CONTINUOUS
 62
     0
100
AcDbLine
 10
12.40434667647493
 20
20.55218107891974
 30
0.0
 11
13.3232229762125
 21
21.4710573786573
 31
0.0
  0
LINE
  5
29A1
330
298F
100
AcDbEntity
  8
0
  6
CONTINUOUS
 62
     0
100
AcDbLine
 10
15.65642462945328
 20
23.80425903189808
 30
0.0
 11
16.5869974570198
 21
24.7348318594646
 31
0.0
  0
LINE
  5
29A2
330
298F
100
AcDbEntity
  8
0
  6
CONTINUOUS
 62
     0
100
AcDbLine
 10
11.09023559498457
 20
19.23806999742937
 30
0.0
 11
12.02080846475126
 21
20.16864286719605
 31
0.0
  0
LINE
  5
29A3
330
298F
100
AcDbEntity
  8
0
  6
CONTINUOUS
 62
     0
100
AcDbLine
 10
12.21255257375408
 20
20.64322969288818
 30
0.0
 11
13.32322297621249
 21
21.7539000953466
 31
0.0
  0
LINE
  5
29A4
330
298F
100
AcDbEntity
  8
0
  6
CONTINUOUS
 62
     0
100
AcDbLine
 10
15.65496140644841
 20
24.08563852558253
 30
0.0
 11
16.54008480751749
 21
24.97076192665158
 31
0.0
  0
LINE
  5
29A5
330
298F
100
AcDbEntity
  8
0
  6
CONTINUOUS
 62
     0
100
AcDbLine
 10
10.8543055277976
 20
19.28498264693169
 30
0.0
 11
11.73942897106682
 21
20.17010609020092
 31
0.0
  0
LINE
  5
29A6
330
298F
100
AcDbEntity
  8
0
  6
CONTINUOUS
 62
     0
100
AcDbLine
 10
12.06321284180218
 20
20.77673267762559
 30
0.0
 11
13.3232229762125
 21
22.03674281203592
 31
0.0
  0
LINE
  5
29A7
330
298F
100
AcDbEntity
  8
0
  6
CONTINUOUS
 62
     0
100
AcDbLine
 10
15.6345405082318
 20
24.34806034405521
 30
0.0
 11
16.48330609191416
 21
25.19682592773758
 31
0.0
  0
LINE
  5
29A8
330
298F
100
AcDbEntity
  8
0
  6
CONTINUOUS
 62
     0
100
AcDbLine
 10
10.6282415267116
 20
19.34176136253502
 30
0.0
 11
11.47700715259414
 21
20.19052698841755
 31
0.0
  0
LINE
  5
29A9
330
298F
100
AcDbEntity
  8
0
  6
CONTINUOUS
 62
     0
100
AcDbLine
 10
11.92044664236979
 20
20.91680919488251
 30
0.0
 11
13.3232229762125
 21
22.31958552872522
 31
0.0
  0
LINE
  5
29AA
330
298F
100
AcDbEntity
  8
0
  6
CONTINUOUS
 62
     0
100
AcDbLine
 10
15.59831520922672
 20
24.59467776173942
 30
0.0
 11
16.41749564198164
 21
25.41385819449435
 31
0.0
  0
LINE
  5
29AB
330
298F
100
AcDbEntity
  8
0
  6
CONTINUOUS
 62
     0
100
AcDbLine
 10
10.41120925995482
 20
19.40757181246753
 30
0.0
 11
11.23038973490992
 21
20.22675228742262
 31
0.0
  0
LINE
  5
29AC
330
298F
100
AcDbEntity
  8
0
  6
CONTINUOUS
 62
     0
100
AcDbLine
 10
11.77768044293741
 20
21.05688571213943
 30
0.0
 11
13.3232229762125
 21
22.60242824541453
 31
0.0
  0
LINE
  5
29AD
330
298F
100
AcDbEntity
  8
0
  6
CONTINUOUS
 62
     0
100
AcDbLine
 10
15.5484784264796
 20
24.82768369568162
 30
0.0
 11
16.34332077222384
 21
25.62252604142585
 31
0.0
  0
LINE
  5
29AE
330
298F
100
AcDbEntity
  8
0
  6
CONTINUOUS
 62
     0
100
AcDbLine
 10
10.20254141302334
 20
19.48174668222535
 30
0.0
 11
10.99738380096773
 21
20.27658907016975
 31
0.0
  0
LINE
  5
29AF
330
298F
100
AcDbEntity
  8
0
  6
CONTINUOUS
 62
     0
100
AcDbLine
 10
12.36292297621249
 20
21.9249709621038
 30
0.0
 11
13.3232229762125
 21
22.88527096210382
 31
0.0
  0
LINE
  5
29B0
330
298F
100
AcDbEntity
  8
0
  6
CONTINUOUS
 62
     0
100
AcDbLine
 10
11.63491424350503
 20
21.19696222939635
 30
0.0
 11
12.30787686507163
 21
21.86992485096295
 31
0.0
  0
LINE
  5
29B1
330
298F
100
AcDbEntity
  8
0
  6
CONTINUOUS
 62
     0
100
AcDbLine
 10
15.48661865024843
 20
25.04866663613976
 30
0.0
 11
16.26132067781356
 21
25.82336866370487
 31
0.0
  0
LINE
  5
29B2
330
298F
100
AcDbEntity
  8
0
  6
CONTINUOUS
 62
     0
100
AcDbLine
 10
10.00169879074431
 20
19.56374677663562
 30
0.0
 11
10.77640086050958
 21
20.3384488464009
 31
0.0
  0
LINE
  5
29B3
330
298F
100
AcDbEntity
  8
0
  6
CONTINUOUS
 62
     0
100
AcDbLine
 10
12.36292297621249
 20
22.20781367879312
 30
0.0
 11
13.32322297621252
 21
23.16811367879314
 31
0.0
  0
LINE
  5
29B4
330
298F
100
AcDbEntity
  8
0
  6
CONTINUOUS
 62
     0
100
AcDbLine
 10
11.49214804407263
 20
21.33703874665326
 30
0.0
 11
12.17222822932802
 21
22.01711893190865
 31
0.0
  0
LINE
  5
29B5
330
298F
100
AcDbEntity
  8
0
  6
CONTINUOUS
 62
     0
100
AcDbLine
 10
15.41392012378507
 20
25.25881082636569
 30
0.0
 11
16.17193379938752
 21
26.01682450196816
 31
0.0
  0
LINE
  5
29B6
330
298F
100
AcDbEntity
  8
0
  6
CONTINUOUS
 62
     0
100
AcDbLine
 10
9.808242952481029
 20
19.65313365506164
 30
0.0
 11
10.56625667028366
 21
20.41114737286429
 31
0.0
  0
LINE
  5
29B7
330
298F
100
AcDbEntity
  8
0
  6
CONTINUOUS
 62
     0
100
AcDbLine
 10
12.36292297621249
 20
22.49065639548241
 30
0.0
 11
13.32322297621252
 21
23.45095639548243
 31
0.0
  0
LINE
  5
29B8
330
298F
100
AcDbEntity
  8
0
  6
CONTINUOUS
 62
     0
100
AcDbLine
 10
14.38066018784676
 20
24.50839360711668
 30
0.0
 11
14.90394340251921
 21
25.03167682178913
 31
0.0
  0
LINE
  5
29B9
330
298F
100
AcDbEntity
  8
0
  6
CONTINUOUS
 62
     0
100
AcDbLine
 10
11.34938184464026
 20
21.47711526391019
 30
0.0
 11
12.03657959358442
 21
22.16431301285435
 31
0.0
  0
LINE
  5
29BA
330
298F
100
AcDbEntity
  8
0
  6
CONTINUOUS
 62
     0
100
AcDbLine
 10
15.33128311277796
 20
25.4590165320479
 30
0.0
 11
16.07551750282127
 21
26.20325092209119
 31
0.0
  0
LINE
  5
29BB
330
298F
100
AcDbEntity
  8
0
  6
CONTINUOUS
 62
     0
100
AcDbLine
 10
9.621816532358003
 20
19.74954995162792
 30
0.0
 11
10.36605096460146
 21
20.49378438387138
 31
0.0
  0
LINE
  5
29BC
330
298F
100
AcDbEntity
  8
0
  6
CONTINUOUS
 62
     0
100
AcDbLine
 10
12.36292297621249
 20
22.77349911217171
 30
0.0
 11
13.32322297621252
 21
23.73379911217174
 31
0.0
  0
LINE
  5
29BD
330
298F
100
AcDbEntity
  8
0
  6
CONTINUOUS
 62
     0
100
AcDbLine
 10
14.09781747115746
 20
24.50839360711668
 30
0.0
 11
14.84041341550277
 21
25.250989551462
 31
0.0
  0
LINE
  5
29BE
330
298F
100
AcDbEntity
  8
0
  6
CONTINUOUS
 62
     0
100
AcDbLine
 10
11.20661564520789
 20
21.61719178116711
 30
0.0
 11
11.90093095784081
 21
22.31150709380004
 31
0.0
  0
LINE
  5
29BF
330
298F
100
AcDbEntity
  8
0
  6
CONTINUOUS
 62
     0
100
AcDbLine
 10
15.23939988217547
 20
25.6499760181347
 30
0.0
 11
15.97236247310275
 21
26.38293860906198
 31
0.0
  0
LINE
  5
29C0
330
298F
100
AcDbEntity
  8
0
  6
CONTINUOUS
 62
     0
100
AcDbLine
 10
9.442128845387207
 20
19.85270498134644
 30
0.0
 11
10.17509147851465
 21
20.58566761447388
 31
0.0
  0
LINE
  5
29C1
330
298F
100
AcDbEntity
  8
0
  6
CONTINUOUS
 62
     0
100
AcDbLine
 10
12.36292297621248
 20
23.05634182886101
 30
0.0
 11
13.32322297621249
 21
24.01664182886104
 31
0.0
  0
LINE
  5
29C2
330
298F
100
AcDbEntity
  8
0
  6
CONTINUOUS
 62
     0
100
AcDbLine
 10
13.81497475446814
 20
24.50839360711669
 30
0.0
 11
14.70908708311424
 21
25.40250593576278
 31
0.0
  0
LINE
  5
29C3
330
298F
100
AcDbEntity
  8
0
  6
CONTINUOUS
 62
     0
100
AcDbLine
 10
11.06384944577547
 20
21.75726829842403
 30
0.0
 11
11.76528232209719
 21
22.45870117474573
 31
0.0
  0
LINE
  5
29C4
330
298F
100
AcDbEntity
  8
0
  6
CONTINUOUS
 62
     0
100
AcDbLine
 10
15.13880454562849
 20
25.83222339827704
 30
0.0
 11
15.86270336465769
 21
26.55612221730623
 31
0.0
  0
LINE
  5
29C5
330
298F
100
AcDbEntity
  8
0
  6
CONTINUOUS
 62
     0
100
AcDbLine
 10
9.268945237142943
 20
19.96236408979148
 30
0.0
 11
9.992844098372307
 21
20.68626295102084
 31
0.0
  0
LINE
  5
29C6
330
298F
100
AcDbEntity
  8
0
  6
CONTINUOUS
 62
     0
100
AcDbLine
 10
12.36292297621248
 20
23.33918454555031
 30
0.0
 11
13.32322297621249
 21
24.29948454555034
 31
0.0
  0
LINE
  5
29C7
330
298F
100
AcDbEntity
  8
0
  6
CONTINUOUS
 62
     0
100
AcDbLine
 10
13.53213203777884
 20
24.50839360711669
 30
0.0
 11
14.51689263385999
 21
25.49315420319782
 31
0.0
  0
LINE
  5
29C8
330
298F
100
AcDbEntity
  8
0
  6
CONTINUOUS
 62
     0
100
AcDbLine
 10
10.92108324634309
 20
21.89734481568094
 30
0.0
 11
11.62963368635359
 21
22.60589525569144
 31
0.0
  0
LINE
  5
29C9
330
298F
100
AcDbEntity
  8
0
  6
CONTINUOUS
 62
     0
100
AcDbLine
 10
15.02990666914595
 20
26.00616823848379
 30
0.0
 11
15.7467267246026
 21
26.72298829394045
 31
0.0
  0
LINE
  5
29CA
330
298F
100
AcDbEntity
  8
0
  6
CONTINUOUS
 62
     0
100
AcDbLine
 10
9.102079160508736
 20
20.07834072984656
 30
0.0
 11
9.818899258165565
 21
20.79516082750339
 31
0.0
  0
LINE
  5
29CB
330
298F
100
AcDbEntity
  8
0
  6
CONTINUOUS
 62
     0
100
AcDbLine
 10
12.36292297621248
 20
23.62202726223962
 30
0.0
 11
14.24423932108955
 21
25.50334360711669
 31
0.0
  0
LINE
  5
29CC
330
298F
100
AcDbEntity
  8
0
  6
CONTINUOUS
 62
     0
100
AcDbLine
 10
10.77831704691072
 20
22.03742133293787
 30
0.0
 11
11.49398505061
 21
22.75308933663715
 31
0.0
  0
LINE
  5
29CD
330
298F
100
AcDbEntity
  8
0
  6
CONTINUOUS
 62
     0
100
AcDbLine
 10
14.91301428310674
 20
26.17211856913387
 30
0.0
 11
15.62457687138681
 21
26.88368115741396
 31
0.0
  0
LINE
  5
29CE
330
298F
100
AcDbEntity
  8
0
  6
CONTINUOUS
 62
     0
100
AcDbLine
 10
8.941386297035228
 20
20.20049058306237
 30
0.0
 11
9.652948927515474
 21
20.9120532135426
 31
0.0
  0
LINE
  5
29CF
330
298F
100
AcDbEntity
  8
0
  6
CONTINUOUS
 62
     0
100
AcDbLine
 10
12.36292297621248
 20
23.90486997892894
 30
0.0
 11
13.96139660440025
 21
25.50334360711669
 31
0.0
  0
LINE
  5
29D0
330
298F
100
AcDbEntity
  8
0
  6
CONTINUOUS
 62
     0
100
AcDbLine
 10
10.63555084747833
 20
22.17749785019476
 30
0.0
 11
11.3583364148664
 21
22.90028341758284
 31
0.0
  0
LINE
  5
29D1
330
298F
100
AcDbEntity
  8
0
  6
CONTINUOUS
 62
     0
100
AcDbLine
 10
14.78834966284949
 20
26.33029666556595
 30
0.0
 11
15.49636019197526
 21
27.03830719469171
 31
0.0
  0
LINE
  5
29D2
330
298F
100
AcDbEntity
  8
0
  6
CONTINUOUS
 62
     0
100
AcDbLine
 10
8.786760259757475
 20
20.32870726247392
 30
0.0
 11
9.494770831083409
 21
21.03671783379985
 31
0.0
  0
LINE
  5
29D3
330
298F
100
AcDbEntity
  8
0
  6
CONTINUOUS
 62
     0
100
AcDbLine
 10
12.36292297621249
 20
24.18771269561823
 30
0.0
 11
13.67855388771094
 21
25.50334360711669
 31
0.0
  0
LINE
  5
29D4
330
298F
100
AcDbEntity
  8
0
  6
CONTINUOUS
 62
     0
100
AcDbLine
 10
10.49278464804594
 20
22.31757436745171
 30
0.0
 11
11.22268777912278
 21
23.04747749852853
 31
0.0
  0
LINE
  5
29D5
330
298F
100
AcDbEntity
  8
0
  6
CONTINUOUS
 62
     0
100
AcDbLine
 10
14.65605992219868
 20
26.48084964160442
 30
0.0
 11
15.36214817160475
 21
27.18693789101049
 31
0.0
  0
LINE
  5
29D6
330
298F
100
AcDbEntity
  8
0
  6
CONTINUOUS
 62
     0
100
AcDbLine
 10
8.638129563438686
 20
20.46291928284442
 30
0.0
 11
9.344217855044931
 21
21.16900757445067
 31
0.0
  0
LINE
  5
29D7
330
298F
100
AcDbEntity
  8
0
  6
CONTINUOUS
 62
     0
100
AcDbLine
 10
12.36292297621249
 20
24.47055541230755
 30
0.0
 11
13.39571117102164
 21
25.50334360711669
 31
0.0
  0
LINE
  5
29D8
330
298F
100
AcDbEntity
  8
0
  6
CONTINUOUS
 62
     0
100
AcDbLine
 10
10.35001844861356
 20
22.45765088470862
 30
0.0
 11
11.08703914337918
 21
23.19467157947423
 31
0.0
  0
LINE
  5
29D9
330
298F
100
AcDbEntity
  8
0
  6
CONTINUOUS
 62
     0
100
AcDbLine
 10
14.51622366572999
 20
26.62385610182504
 30
0.0
 11
15.22197936453197
 21
27.32961180062705
 31
0.0
  0
LINE
  5
29DA
330
298F
100
AcDbEntity
  8
0
  6
CONTINUOUS
 62
     0
100
AcDbLine
 10
8.495455653822148
 20
20.6030880899172
 30
0.0
 11
9.201211394824303
 21
21.30884383091935
 31
0.0
  0
LINE
  5
29DB
330
298F
100
AcDbEntity
  8
0
  6
CONTINUOUS
 62
     0
100
AcDbLine
 10
11.02036845433232
 20
23.41084360711668
 30
0.0
 11
11.41387297621249
 21
23.80434812899685
 31
0.0
  0
LINE
  5
29DC
330
298F
100
AcDbEntity
  8
0
  6
CONTINUOUS
 62
     0
100
AcDbLine
 10
12.36292297621249
 20
24.75339812899685
 30
0.0
 11
13.32322297621252
 21
25.71369812899687
 31
0.0
  0
LINE
  5
29DD
330
298F
100
AcDbEntity
  8
0
  6
CONTINUOUS
 62
     0
100
AcDbLine
 10
10.20725224918118
 20
22.59772740196553
 30
0.0
 11
10.95139050763558
 21
23.34186566041994
 31
0.0
  0
LINE
  5
29DE
330
298F
100
AcDbEntity
  8
0
  6
CONTINUOUS
 62
     0
100
AcDbLine
 10
14.36885442740246
 20
26.75932958018681
 30
0.0
 11
15.07586043537989
 21
27.46633558816425
 31
0.0
  0
LINE
  5
29DF
330
298F
100
AcDbEntity
  8
0
  6
CONTINUOUS
 62
     0
100
AcDbLine
 10
8.358731866284946
 20
20.7492070190693
 30
0.0
 11
9.065737916462543
 21
21.45621306924688
 31
0.0
  0
LINE
  5
29E0
330
298F
100
AcDbEntity
  8
0
  6
CONTINUOUS
 62
     0
100
AcDbLine
 10
12.36292297621249
 20
25.03624084568615
 30
0.0
 11
13.32322297621252
 21
25.99654084568618
 31
0.0
  0
LINE
  5
29E1
330
298F
100
AcDbEntity
  8
0
  6
CONTINUOUS
 62
     0
100
AcDbLine
 10
10.0644860497488
 20
22.73780391922245
 30
0.0
 11
11.41387297621249
 21
24.08719084568616
 31
0.0
  0
LINE
  5
29E2
330
298F
100
AcDbEntity
  8
0
  6
CONTINUOUS
 62
     0
100
AcDbLine
 10
14.21390125453573
 20
26.88721912400939
 30
0.0
 11
14.92376633762452
 21
27.59708420709819
 31
0.0
  0
LINE
  5
29E3
330
298F
100
AcDbEntity
  8
0
  6
CONTINUOUS
 62
     0
100
AcDbLine
 10
8.227983247350996
 20
20.90130111682464
 30
0.0
 11
8.937848372639967
 21
21.61116624211361
 31
0.0
  0
LINE
  5
29E4
330
298F
100
AcDbEntity
  8
0
  6
CONTINUOUS
 62
     0
100
AcDbLine
 10
12.36292297621249
 20
25.31908356237545
 30
0.0
 11
13.32322297621249
 21
26.27938356237546
 31
0.0
  0
LINE
  5
29E5
330
298F
100
AcDbEntity
  8
0
  6
CONTINUOUS
 62
     0
100
AcDbLine
 10
9.921719850316419
 20
22.87788043647937
 30
0.0
 11
11.41387297621249
 21
24.37003356237546
 31
0.0
  0
LINE
  5
29E6
330
298F
100
AcDbEntity
  8
0
  6
CONTINUOUS
 62
     0
100
AcDbLine
 10
14.05124649691411
 20
27.00740708307707
 30
0.0
 11
14.76563964049161
 21
27.72180022665457
 31
0.0
  0
LINE
  5
29E7
330
298F
100
AcDbEntity
  8
0
  6
CONTINUOUS
 62
     0
100
AcDbLine
 10
8.10326722779461
 20
21.05942781395757
 30
0.0
 11
8.817660413572282
 21
21.77382099973523
 31
0.0
  0
LINE
  5
29E8
330
298F
100
AcDbEntity
  8
0
  6
CONTINUOUS
 62
     0
100
AcDbLine
 10
12.36292297621248
 20
25.60192627906475
 30
0.0
 11
13.32322297621249
 21
26.56222627906478
 31
0.0
  0
LINE
  5
29E9
330
298F
100
AcDbEntity
  8
0
  6
CONTINUOUS
 62
     0
100
AcDbLine
 10
9.778953650884027
 20
23.0179569537363
 30
0.0
 11
11.41387297621249
 21
24.65287627906477
 31
0.0
  0
LINE
  5
29EA
330
298F
100
AcDbEntity
  8
0
  6
CONTINUOUS
 62
     0
100
AcDbLine
 10
13.88070057287115
 20
27.11970387572343
 30
0.0
 11
14.60138896155649
 21
27.84039226440878
 31
0.0
  0
LINE
  5
29EB
330
298F
100
AcDbEntity
  8
0
  6
CONTINUOUS
 62
     0
100
AcDbLine
 10
7.984675190040404
 20
21.22367849289268
 30
0.0
 11
8.705363620925927
 21
21.9443669237782
 31
0.0
  0
LINE
  5
29EC
330
298F
100
AcDbEntity
  8
0
  6
CONTINUOUS
 62
     0
100
AcDbLine
 10
12.36292297621249
 20
25.88476899575407
 30
0.0
 11
13.3232229762125
 21
26.84506899575408
 31
0.0
  0
LINE
  5
29ED
330
298F
100
AcDbEntity
  8
0
  6
CONTINUOUS
 62
     0
100
AcDbLine
 10
9.636187451451649
 20
23.15803347099322
 30
0.0
 11
11.41387297621249
 21
24.93571899575407
 31
0.0
  0
LINE
  5
29EE
330
298F
100
AcDbEntity
  8
0
  6
CONTINUOUS
 62
     0
100
AcDbLine
 10
13.70199315281168
 20
27.22383917235326
 30
0.0
 11
14.43088640341356
 21
27.95273242295512
 31
0.0
  0
LINE
  5
29EF
330
298F
100
AcDbEntity
  8
0
  6
CONTINUOUS
 62
     0
100
AcDbLine
 10
7.872335031494059
 20
21.39418105103562
 30
0.0
 11
8.601228324296094
 21
22.12307434383766
 31
0.0
  0
LINE
  5
29F0
330
298F
100
AcDbEntity
  8
0
  6
CONTINUOUS
 62
     0
100
AcDbLine
 10
12.36292297621248
 20
26.16761171244336
 30
0.0
 11
13.3232229762125
 21
27.12791171244338
 31
0.0
  0
LINE
  5
29F1
330
298F
100
AcDbEntity
  8
0
  6
CONTINUOUS
 62
     0
100
AcDbLine
 10
9.49342125201926
 20
23.29810998825012
 30
0.0
 11
11.41387297621249
 21
25.21856171244337
 31
0.0
  0
LINE
  5
29F2
330
298F
100
AcDbEntity
  8
0
  6
CONTINUOUS
 62
     0
100
AcDbLine
 10
13.51475975757465
 20
27.31944849380552
 30
0.0
 11
14.25396382172501
 21
28.05865255795588
 31
0.0
  0
LINE
  5
29F3
330
298F
100
AcDbEntity
  8
0
  6
CONTINUOUS
 62
     0
100
AcDbLine
 10
7.7664148964933
 20
21.57110363272417
 30
0.0
 11
8.505619002843829
 21
22.31030773907469
 31
0.0
  0
LINE
  5
29F4
330
298F
100
AcDbEntity
  8
0
  6
CONTINUOUS
 62
     0
100
AcDbLine
 10
10.46482297621248
 20
24.55235442913267
 30
0.0
 11
11.4138729762125
 21
25.50140442913268
 31
0.0
  0
LINE
  5
29F5
330
298F
100
AcDbEntity
  8
0
  6
CONTINUOUS
 62
     0
100
AcDbLine
 10
9.323312154196514
 20
23.41084360711668
 30
0.0
 11
10.34121215419649
 21
24.42874360711669
 31
0.0
  0
LINE
  5
29F6
330
298F
100
AcDbEntity
  8
0
  6
CONTINUOUS
 62
     0
100
AcDbLine
 10
12.36292297621249
 20
26.45045442913267
 30
0.0
 11
14.07040765927055
 21
28.15793911219071
 31
0.0
  0
LINE
  5
29F7
330
298F
100
AcDbEntity
  8
0
  6
CONTINUOUS
 62
     0
100
AcDbLine
 10
7.667128342258457
 20
21.75465979517864
 30
0.0
 11
8.419013934164128
 21
22.5065453870843
 31
0.0
  0
LINE
  5
29F8
330
298F
100
AcDbEntity
  8
0
  6
CONTINUOUS
 62
     0
100
AcDbLine
 10
10.46482297621248
 20
24.83519714582197
 30
0.0
 11
11.41387297621249
 21
25.78424714582197
 31
0.0
  0
LINE
  5
29F9
330
298F
100
AcDbEntity
  8
0
  6
CONTINUOUS
 62
     0
100
AcDbLine
 10
9.040469437507212
 20
23.41084360711668
 30
0.0
 11
10.05836943750719
 21
24.42874360711668
 31
0.0
  0
LINE
  5
29FA
330
298F
100
AcDbEntity
  8
0
  6
CONTINUOUS
 62
     0
100
AcDbLine
 10
12.36292297621249
 20
26.73329714582196
 30
0.0
 11
13.87995195237009
 21
28.25032612197958
 31
0.0
  0
LINE
  5
29FB
330
298F
100
AcDbEntity
  8
0
  6
CONTINUOUS
 62
     0
100
AcDbLine
 10
7.574741332469606
 20
21.94511550207907
 30
0.0
 11
8.342033811074406
 21
22.71240798068388
 31
0.0
  0
LINE
  5
29FC
330
298F
100
AcDbEntity
  8
0
  6
CONTINUOUS
 62
     0
100
AcDbLine
 10
10.46482297621248
 20
25.11803986251126
 30
0.0
 11
11.41387297621249
 21
26.06708986251128
 31
0.0
  0
LINE
  5
29FD
330
298F
100
AcDbEntity
  8
0
  6
CONTINUOUS
 62
     0
100
AcDbLine
 10
8.75762672081791
 20
23.41084360711668
 30
0.0
 11
9.7755267208179
 21
24.42874360711668
 31
0.0
  0
LINE
  5
29FE
330
298F
100
AcDbEntity
  8
0
  6
CONTINUOUS
 62
     0
100
AcDbLine
 10
12.36292297621249
 20
27.01613986251128
 30
0.0
 11
13.6822689304656
 21
28.33548581676439
 31
0.0
  0
LINE
  5
29FF
330
298F
100
AcDbEntity
  8
0
  6
CONTINUOUS
 62
     0
100
AcDbLine
 10
7.489581637684799
 20
22.14279852398358
 30
0.0
 11
8.275483850239361
 21
22.92870073653813
 31
0.0
  0
LINE
  5
2A00
330
298F
100
AcDbEntity
  8
0
  6
CONTINUOUS
 62
     0
100
AcDbLine
 10
10.46482297621249
 20
25.40088257920057
 30
0.0
 11
11.41387297621249
 21
26.34993257920057
 31
0.0
  0
LINE
  5
2A01
330
298F
100
AcDbEntity
  8
0
  6
CONTINUOUS
 62
     0
100
AcDbLine
 10
8.474784004128608
 20
23.41084360711668
 30
0.0
 11
9.492684004128598
 21
24.42874360711668
 31
0.0
  0
LINE
  5
2A02
330
298F
100
AcDbEntity
  8
0
  6
CONTINUOUS
 62
     0
100
AcDbLine
 10
12.36292297621249
 20
27.29898257920057
 30
0.0
 11
13.47695635100713
 21
28.41301595399523
 31
0.0
  0
LINE
  5
2A03
330
298F
100
AcDbEntity
  8
0
  6
CONTINUOUS
 62
     0
100
AcDbLine
 10
7.412051500453968
 20
22.34811110344204
 30
0.0
 11
8.220417161622156
 21
23.15647676461023
 31
0.0
  0
LINE
  5
2A04
330
298F
100
AcDbEntity
  8
0
  6
CONTINUOUS
 62
     0
100
AcDbLine
 10
10.46482297621249
 20
25.68372529588987
 30
0.0
 11
11.41387297621249
 21
26.63277529588989
 31
0.0
  0
LINE
  5
2A05
330
298F
100
AcDbEntity
  8
0
  6
CONTINUOUS
 62
     0
100
AcDbLine
 10
8.191941287439297
 20
23.41084360711668
 30
0.0
 11
9.209841287439298
 21
24.42874360711668
 31
0.0
  0
LINE
  5
2A06
330
298F
100
AcDbEntity
  8
0
  6
CONTINUOUS
 62
     0
100
AcDbLine
 10
12.36292297621249
 20
27.58182529588987
 30
0.0
 11
13.2635202791774
 21
28.4824225988548
 31
0.0
  0
LINE
  5
2A07
330
298F
100
AcDbEntity
  8
0
  6
CONTINUOUS
 62
     0
100
AcDbLine
 10
7.342644855594387
 20
22.56154717527177
 30
0.0
 11
8.178233337739142
 21
23.39713565741653
 31
0.0
  0
LINE
  5
2A08
330
298F
100
AcDbEntity
  8
0
  6
CONTINUOUS
 62
     0
100
AcDbLine
 10
10.46482297621249
 20
25.96656801257918
 30
0.0
 11
11.4138729762125
 21
26.91561801257919
 31
0.0
  0
LINE
  5
2A09
330
298F
100
AcDbEntity
  8
0
  6
CONTINUOUS
 62
     0
100
AcDbLine
 10
12.17248361102626
 20
27.67422864739295
 30
0.0
 11
13.0413513274458
 21
28.54309636381248
 31
0.0
  0
LINE
  5
2A0A
330
298F
100
AcDbEntity
  8
0
  6
CONTINUOUS
 62
     0
100
AcDbLine
 10
7.281971090636695
 20
22.78371612700338
 30
0.0
 11
8.926998570749994
 21
24.42874360711668
 31
0.0
  0
LINE
  5
2A0B
330
298F
100
AcDbEntity
  8
0
  6
CONTINUOUS
 62
     0
100
AcDbLine
 10
10.46482297621248
 20
26.24941072926849
 30
0.0
 11
11.41387297621249
 21
27.19846072926849
 31
0.0
  0
LINE
  5
2A0C
330
298F
100
AcDbEntity
  8
0
  6
CONTINUOUS
 62
     0
100
AcDbLine
 10
11.89955595892624
 20
27.68414371198225
 30
0.0
 11
12.80969121422385
 21
28.59427896727986
 31
0.0
  0
LINE
  5
2A0D
330
298F
100
AcDbEntity
  8
0
  6
CONTINUOUS
 62
     0
100
AcDbLine
 10
7.23078848716932
 20
23.01537624022532
 30
0.0
 11
8.644155854060683
 21
24.42874360711669
 31
0.0
  0
LINE
  5
2A0E
330
298F
100
AcDbEntity
  8
0
  6
CONTINUOUS
 62
     0
100
AcDbLine
 10
10.46482297621249
 20
26.5322534459578
 30
0.0
 11
11.41387297621249
 21
27.4813034459578
 31
0.0
  0
LINE
  5
2A0F
330
298F
100
AcDbEntity
  8
0
  6
CONTINUOUS
 62
     0
100
AcDbLine
 10
11.60515893817368
 20
27.67258940791899
 30
0.0
 11
12.56758449922934
 21
28.63501496897464
 31
0.0
  0
LINE
  5
2A10
330
298F
100
AcDbEntity
  8
0
  6
CONTINUOUS
 62
     0
100
AcDbLine
 10
7.190052485474544
 20
23.25748295521985
 30
0.0
 11
8.361313137371382
 21
24.42874360711669
 31
0.0
  0
LINE
  5
2A11
330
298F
100
AcDbEntity
  8
0
  6
CONTINUOUS
 62
     0
100
AcDbLine
 10
10.46482297621249
 20
26.8150961626471
 30
0.0
 11
12.3138067227184
 21
28.66407990915301
 31
0.0
  0
LINE
  5
2A12
330
298F
100
AcDbEntity
  8
0
  6
CONTINUOUS
 62
     0
100
AcDbLine
 10
7.160987545296173
 20
23.51126073173078
 30
0.0
 11
8.191863730195372
 21
24.54213691662998
 31
0.0
  0
LINE
  5
2A13
330
298F
100
AcDbEntity
  8
0
  6
CONTINUOUS
 62
     0
100
AcDbLine
 10
10.46482297621249
 20
27.0979388793364
 30
0.0
 11
12.04675322306042
 21
28.67986912618434
 31
0.0
  0
LINE
  5
2A14
330
298F
100
AcDbEntity
  8
0
  6
CONTINUOUS
 62
     0
100
AcDbLine
 10
7.145198328264847
 20
23.77831423138875
 30
0.0
 11
8.270420866999272
 21
24.90353677012318
 31
0.0
  0
LINE
  5
2A15
330
298F
100
AcDbEntity
  8
0
  6
CONTINUOUS
 62
     0
100
AcDbLine
 10
10.46482297621249
 20
27.3807815960257
 30
0.0
 11
11.76425868915725
 21
28.68021730897048
 31
0.0
  0
LINE
  5
2A16
330
298F
100
AcDbEntity
  8
0
  6
CONTINUOUS
 62
     0
100
AcDbLine
 10
7.144850145478706
 20
24.06080876529192
 30
0.0
 11
8.412672403383361
 21
25.32863102319657
 31
0.0
  0
LINE
  5
2A17
330
298F
100
AcDbEntity
  8
0
  6
CONTINUOUS
 62
     0
100
AcDbLine
 10
9.9246398068098
 20
27.12344114331232
 30
0.0
 11
11.46328597187034
 21
28.66208730837286
 31
0.0
  0
LINE
  5
2A18
330
298F
100
AcDbEntity
  8
0
  6
CONTINUOUS
 62
     0
100
AcDbLine
 10
7.162980146076327
 20
24.36178148257885
 30
0.0
 11
8.701626353337033
 21
25.90042768983956
 31
0.0
  0
LINE
  5
2A19
330
298F
100
AcDbEntity
  8
0
  6
CONTINUOUS
 62
     0
100
AcDbLine
 10
7.204078281230073
 20
24.6857223344219
 30
0.0
 11
11.1393451200273
 21
28.62098917321912
 31
0.0
  0
LINE
  5
2A1A
330
298F
100
AcDbEntity
  8
0
  6
CONTINUOUS
 62
     0
100
AcDbLine
 10
7.27529604137107
 20
25.03978281125219
 30
0.0
 11
10.78528464319699
 21
28.54977141307812
 31
0.0
  0
LINE
  5
2A1B
330
298F
100
AcDbEntity
  8
0
  6
CONTINUOUS
 62
     0
100
AcDbLine
 10
7.38939283603053
 20
25.43672232260095
 30
0.0
 11
10.38834513184824
 21
28.43567461841866
 31
0.0
  0
LINE
  5
2A1C
330
298F
100
AcDbEntity
  8
0
  6
CONTINUOUS
 62
     0
100
AcDbLine
 10
7.574054068911338
 20
25.90422627217107
 30
0.0
 11
9.92084118227811
 21
28.25101338553785
 31
0.0
  0
LINE
  5
2A1D
330
298F
100
AcDbEntity
  8
0
  6
CONTINUOUS
 62
     0
100
AcDbLine
 10
7.923914723298132
 20
26.53692964324717
 30
0.0
 11
9.288137811202012
 21
27.90115273115105
 31
0.0
  0
ENDBLK
  5
2A1F
330
298F
100
AcDbEntity
  8
0
100
AcDbBlockEnd
  0
BLOCK
  5
2A3E
330
2A20
100
AcDbEntity
  8
0
100
AcDbBlockBegin
  2
*X14
 70
     1
 10
0.0
 20
0.0
 30
0.0
  3
*X14
  1

  0
LINE
  5
2A21
330
2A20
100
AcDbEntity
  8
0
  6
CONTINUOUS
 62
     0
100
AcDbLine
 10
20.40385527197239
 20
20.63209360711668
 30
0.0
 11
20.47012297621249
 21
20.6983613113568
 31
0.0
  0
LINE
  5
2A22
330
2A20
100
AcDbEntity
  8
0
  6
CONTINUOUS
 62
     0
100
AcDbLine
 10
20.12101255528308
 20
20.63209360711668
 30
0.0
 11
20.47012297621248
 21
20.98120402804608
 31
0.0
  0
LINE
  5
2A23
330
2A20
100
AcDbEntity
  8
0
  6
CONTINUOUS
 62
     0
100
AcDbLine
 10
19.83816983859378
 20
20.63209360711668
 30
0.0
 11
20.47012297621248
 21
21.26404674473539
 31
0.0
  0
LINE
  5
2A24
330
2A20
100
AcDbEntity
  8
0
  6
CONTINUOUS
 62
     0
100
AcDbLine
 10
19.55532712190447
 20
20.63209360711669
 30
0.0
 11
20.47012297621248
 21
21.54688946142469
 31
0.0
  0
LINE
  5
2A25
330
2A20
100
AcDbEntity
  8
0
  6
CONTINUOUS
 62
     0
100
AcDbLine
 10
19.27248440521518
 20
20.63209360711669
 30
0.0
 11
20.47012297621248
 21
21.829732178114
 31
0.0
  0
LINE
  5
2A26
330
2A20
100
AcDbEntity
  8
0
  6
CONTINUOUS
 62
     0
100
AcDbLine
 10
18.98964168852588
 20
20.63209360711669
 30
0.0
 11
20.47012297621248
 21
22.11257489480331
 31
0.0
  0
LINE
  5
2A27
330
2A20
100
AcDbEntity
  8
0
  6
CONTINUOUS
 62
     0
100
AcDbLine
 10
18.70679897183657
 20
20.63209360711669
 30
0.0
 11
20.47012297621249
 21
22.39541761149261
 31
0.0
  0
LINE
  5
2A28
330
2A20
100
AcDbEntity
  8
0
  6
CONTINUOUS
 62
     0
100
AcDbLine
 10
18.67462297621248
 20
20.88276032818189
 30
0.0
 11
20.47012297621249
 21
22.67826032818192
 31
0.0
  0
LINE
  5
2A29
330
2A20
100
AcDbEntity
  8
0
  6
CONTINUOUS
 62
     0
100
AcDbLine
 10
20.91986353845797
 20
23.41084360711668
 30
0.0
 11
21.08752297621251
 21
23.57850304487123
 31
0.0
  0
LINE
  5
2A2A
330
2A20
100
AcDbEntity
  8
0
  6
CONTINUOUS
 62
     0
100
AcDbLine
 10
18.67462297621248
 20
21.16560304487121
 30
0.0
 11
20.47012297621249
 21
22.96110304487123
 31
0.0
  0
LINE
  5
2A2B
330
2A20
100
AcDbEntity
  8
0
  6
CONTINUOUS
 62
     0
100
AcDbLine
 10
20.63702082176867
 20
23.41084360711668
 30
0.0
 11
21.08752297621251
 21
23.86134576156053
 31
0.0
  0
LINE
  5
2A2C
330
2A20
100
AcDbEntity
  8
0
  6
CONTINUOUS
 62
     0
100
AcDbLine
 10
18.67462297621248
 20
21.44844576156051
 30
0.0
 11
20.47012297621249
 21
23.24394576156052
 31
0.0
  0
LINE
  5
2A2D
330
2A20
100
AcDbEntity
  8
0
  6
CONTINUOUS
 62
     0
100
AcDbLine
 10
18.67462297621248
 20
21.73128847824981
 30
0.0
 11
21.08752297621249
 21
24.14418847824983
 31
0.0
  0
LINE
  5
2A2E
330
2A20
100
AcDbEntity
  8
0
  6
CONTINUOUS
 62
     0
100
AcDbLine
 10
18.67462297621248
 20
22.01413119493912
 30
0.0
 11
21.08752297621249
 21
24.42703119493912
 31
0.0
  0
LINE
  5
2A2F
330
2A20
100
AcDbEntity
  8
0
  6
CONTINUOUS
 62
     0
100
AcDbLine
 10
18.67462297621248
 20
22.29697391162842
 30
0.0
 11
20.88604267170075
 21
24.50839360711669
 31
0.0
  0
LINE
  5
2A30
330
2A20
100
AcDbEntity
  8
0
  6
CONTINUOUS
 62
     0
100
AcDbLine
 10
21.02664995501144
 20
24.93184360711669
 30
0.0
 11
21.08752297621249
 21
24.99271662831775
 31
0.0
  0
LINE
  5
2A31
330
2A20
100
AcDbEntity
  8
0
  6
CONTINUOUS
 62
     0
100
AcDbLine
 10
18.67462297621248
 20
22.57981662831773
 30
0.0
 11
20.60319995501143
 21
24.50839360711669
 31
0.0
  0
LINE
  5
2A32
330
2A20
100
AcDbEntity
  8
0
  6
CONTINUOUS
 62
     0
100
AcDbLine
 10
20.74380723832214
 20
24.93184360711669
 30
0.0
 11
21.08752297621249
 21
25.27555934500705
 31
0.0
  0
LINE
  5
2A33
330
2A20
100
AcDbEntity
  8
0
  6
CONTINUOUS
 62
     0
100
AcDbLine
 10
18.67462297621248
 20
22.86265934500704
 30
0.0
 11
20.43397690248405
 21
24.62201327127861
 31
0.0
  0
LINE
  5
2A34
330
2A20
100
AcDbEntity
  8
0
  6
CONTINUOUS
 62
     0
100
AcDbLine
 10
18.67462297621248
 20
23.14550206169633
 30
0.0
 11
21.08752297621249
 21
25.55840206169635
 31
0.0
  0
LINE
  5
2A35
330
2A20
100
AcDbEntity
  8
0
  6
CONTINUOUS
 62
     0
100
AcDbLine
 10
18.65712180494353
 20
23.41084360711668
 30
0.0
 11
21.08127180494354
 21
25.83499360711669
 31
0.0
  0
LINE
  5
2A36
330
2A20
100
AcDbEntity
  8
0
  6
CONTINUOUS
 62
     0
100
AcDbLine
 10
18.37427908825423
 20
23.41084360711668
 30
0.0
 11
20.79842908825423
 21
25.83499360711669
 31
0.0
  0
LINE
  5
2A37
330
2A20
100
AcDbEntity
  8
0
  6
CONTINUOUS
 62
     0
100
AcDbLine
 10
18.13732297621251
 20
23.45673021176426
 30
0.0
 11
20.51558637156492
 21
25.83499360711668
 31
0.0
  0
LINE
  5
2A38
330
2A20
100
AcDbEntity
  8
0
  6
CONTINUOUS
 62
     0
100
AcDbLine
 10
18.13732297621251
 20
23.73957292845357
 30
0.0
 11
20.23274365487563
 21
25.83499360711669
 31
0.0
  0
LINE
  5
2A39
330
2A20
100
AcDbEntity
  8
0
  6
CONTINUOUS
 62
     0
100
AcDbLine
 10
18.67462297621248
 20
24.55971564514285
 30
0.0
 11
19.94990093818632
 21
25.83499360711669
 31
0.0
  0
LINE
  5
2A3A
330
2A20
100
AcDbEntity
  8
0
  6
CONTINUOUS
 62
     0
100
AcDbLine
 10
18.13732297621251
 20
24.02241564514287
 30
0.0
 11
18.62330093818632
 21
24.50839360711668
 31
0.0
  0
LINE
  5
2A3B
330
2A20
100
AcDbEntity
  8
0
  6
CONTINUOUS
 62
     0
100
AcDbLine
 10
18.67462297621248
 20
24.84255836183216
 30
0.0
 11
19.66705822149701
 21
25.83499360711669
 31
0.0
  0
LINE
  5
2A3C
330
2A20
100
AcDbEntity
  8
0
  6
CONTINUOUS
 62
     0
100
AcDbLine
 10
18.13732297621251
 20
24.30525836183218
 30
0.0
 11
18.34045822149701
 21
24.50839360711669
 31
0.0
  0
LINE
  5
2A3D
330
2A20
100
AcDbEntity
  8
0
  6
CONTINUOUS
 62
     0
100
AcDbLine
 10
18.70280531180698
 20
25.15358341411596
 30
0.0
 11
19.35607675113877
 21
25.80685485344774
 31
0.0
  0
ENDBLK
  5
2A3F
330
2A20
100
AcDbEntity
  8
0
100
AcDbBlockEnd
  0
BLOCK
  5
2A4B
330
2A40
100
AcDbEntity
  8
0
100
AcDbBlockBegin
  2
*X15
 70
     1
 10
0.0
 20
0.0
 30
0.0
  3
*X15
  1

  0
LINE
  5
2A41
330
2A40
100
AcDbEntity
  8
0
  6
CONTINUOUS
 62
     0
100
AcDbLine
 10
23.58348440521517
 20
24.94309360711669
 30
0.0
 11
23.6259729762125
 21
24.98558217811401
 31
0.0
  0
LINE
  5
2A42
330
2A40
100
AcDbEntity
  8
0
  6
CONTINUOUS
 62
     0
100
AcDbLine
 10
23.30064168852588
 20
24.94309360711669
 30
0.0
 11
23.6259729762125
 21
25.26842489480332
 31
0.0
  0
LINE
  5
2A43
330
2A40
100
AcDbEntity
  8
0
  6
CONTINUOUS
 62
     0
100
AcDbLine
 10
23.01779897183657
 20
24.94309360711669
 30
0.0
 11
23.6259729762125
 21
25.55126761149262
 31
0.0
  0
LINE
  5
2A44
330
2A40
100
AcDbEntity
  8
0
  6
CONTINUOUS
 62
     0
100
AcDbLine
 10
22.73495625514727
 20
24.94309360711669
 30
0.0
 11
23.6259729762125
 21
25.83411032818192
 31
0.0
  0
LINE
  5
2A45
330
2A40
100
AcDbEntity
  8
0
  6
CONTINUOUS
 62
     0
100
AcDbLine
 10
22.45211353845797
 20
24.94309360711669
 30
0.0
 11
23.34401353845797
 21
25.83499360711669
 31
0.0
  0
LINE
  5
2A46
330
2A40
100
AcDbEntity
  8
0
  6
CONTINUOUS
 62
     0
100
AcDbLine
 10
22.16927082176867
 20
24.94309360711669
 30
0.0
 11
23.06117082176866
 21
25.83499360711668
 31
0.0
  0
LINE
  5
2A47
330
2A40
100
AcDbEntity
  8
0
  6
CONTINUOUS
 62
     0
100
AcDbLine
 10
21.88642810507935
 20
24.94309360711669
 30
0.0
 11
22.77832810507935
 21
25.83499360711669
 31
0.0
  0
LINE
  5
2A48
330
2A40
100
AcDbEntity
  8
0
  6
CONTINUOUS
 62
     0
100
AcDbLine
 10
21.80797297621249
 20
25.14748119493914
 30
0.0
 11
22.49548538839005
 21
25.83499360711669
 31
0.0
  0
LINE
  5
2A49
330
2A40
100
AcDbEntity
  8
0
  6
CONTINUOUS
 62
     0
100
AcDbLine
 10
21.80797297621249
 20
25.43032391162844
 30
0.0
 11
22.21264267170075
 21
25.8349936071167
 31
0.0
  0
LINE
  5
2A4A
330
2A40
100
AcDbEntity
  8
0
  6
CONTINUOUS
 62
     0
100
AcDbLine
 10
21.80797297621249
 20
25.71316662831773
 30
0.0
 11
21.92979995501143
 21
25.83499360711669
 31
0.0
  0
ENDBLK
  5
2A4C
330
2A40
100
AcDbEntity
  8
0
100
AcDbBlockEnd
  0
BLOCK
  5
2A62
330
2A4D
100
AcDbEntity
  8
0
100
AcDbBlockBegin
  2
*X16
 70
     1
 10
0.0
 20
0.0
 30
0.0
  3
*X16
  1

  0
LINE
  5
2A4E
330
2A4D
100
AcDbEntity
  8
0
  6
CONTINUOUS
 62
     0
100
AcDbLine
 10
23.51512515555473
 20
20.63209360711669
 30
0.0
 11
23.6259729762125
 21
20.74294142777444
 31
0.0
  0
LINE
  5
2A4F
330
2A4D
100
AcDbEntity
  8
0
  6
CONTINUOUS
 62
     0
100
AcDbLine
 10
23.23228243886542
 20
20.63209360711669
 30
0.0
 11
23.6259729762125
 21
21.02578414446374
 31
0.0
  0
LINE
  5
2A50
330
2A4D
100
AcDbEntity
  8
0
  6
CONTINUOUS
 62
     0
100
AcDbLine
 10
22.94943972217612
 20
20.63209360711668
 30
0.0
 11
23.6259729762125
 21
21.30862686115305
 31
0.0
  0
LINE
  5
2A51
330
2A4D
100
AcDbEntity
  8
0
  6
CONTINUOUS
 62
     0
100
AcDbLine
 10
22.66659700548682
 20
20.63209360711668
 30
0.0
 11
23.62597297621249
 21
21.59146957784236
 31
0.0
  0
LINE
  5
2A52
330
2A4D
100
AcDbEntity
  8
0
  6
CONTINUOUS
 62
     0
100
AcDbLine
 10
22.38375428879752
 20
20.63209360711668
 30
0.0
 11
23.62597297621249
 21
21.87431229453165
 31
0.0
  0
LINE
  5
2A53
330
2A4D
100
AcDbEntity
  8
0
  6
CONTINUOUS
 62
     0
100
AcDbLine
 10
22.10091157210821
 20
20.63209360711669
 30
0.0
 11
23.62597297621249
 21
22.15715501122097
 31
0.0
  0
LINE
  5
2A54
330
2A4D
100
AcDbEntity
  8
0
  6
CONTINUOUS
 62
     0
100
AcDbLine
 10
21.81806885541891
 20
20.63209360711669
 30
0.0
 11
23.6259729762125
 21
22.43999772791027
 31
0.0
  0
LINE
  5
2A55
330
2A4D
100
AcDbEntity
  8
0
  6
CONTINUOUS
 62
     0
100
AcDbLine
 10
21.80797297621249
 20
20.90484044459957
 30
0.0
 11
23.6259729762125
 21
22.72284044459957
 31
0.0
  0
LINE
  5
2A56
330
2A4D
100
AcDbEntity
  8
0
  6
CONTINUOUS
 62
     0
100
AcDbLine
 10
21.80797297621249
 20
21.18768316128889
 30
0.0
 11
23.6259729762125
 21
23.00568316128887
 31
0.0
  0
LINE
  5
2A57
330
2A4D
100
AcDbEntity
  8
0
  6
CONTINUOUS
 62
     0
100
AcDbLine
 10
21.80797297621249
 20
21.47052587797819
 30
0.0
 11
23.6259729762125
 21
23.28852587797818
 31
0.0
  0
LINE
  5
2A58
330
2A4D
100
AcDbEntity
  8
0
  6
CONTINUOUS
 62
     0
100
AcDbLine
 10
21.80797297621249
 20
21.75336859466749
 30
0.0
 11
23.6259729762125
 21
23.57136859466748
 31
0.0
  0
LINE
  5
2A59
330
2A4D
100
AcDbEntity
  8
0
  6
CONTINUOUS
 62
     0
100
AcDbLine
 10
21.80797297621249
 20
22.03621131135678
 30
0.0
 11
23.6259729762125
 21
23.85421131135678
 31
0.0
  0
LINE
  5
2A5A
330
2A4D
100
AcDbEntity
  8
0
  6
CONTINUOUS
 62
     0
100
AcDbLine
 10
21.80797297621248
 20
22.31905402804609
 30
0.0
 11
23.62597297621249
 21
24.13705402804608
 31
0.0
  0
LINE
  5
2A5B
330
2A4D
100
AcDbEntity
  8
0
  6
CONTINUOUS
 62
     0
100
AcDbLine
 10
21.80797297621248
 20
22.6018967447354
 30
0.0
 11
23.62597297621249
 21
24.4198967447354
 31
0.0
  0
LINE
  5
2A5C
330
2A4D
100
AcDbEntity
  8
0
  6
CONTINUOUS
 62
     0
100
AcDbLine
 10
21.80797297621249
 20
22.88473946142471
 30
0.0
 11
23.43162712190448
 21
24.50839360711669
 31
0.0
  0
LINE
  5
2A5D
330
2A4D
100
AcDbEntity
  8
0
  6
CONTINUOUS
 62
     0
100
AcDbLine
 10
21.80797297621249
 20
23.16758217811401
 30
0.0
 11
23.14878440521517
 21
24.50839360711669
 31
0.0
  0
LINE
  5
2A5E
330
2A4D
100
AcDbEntity
  8
0
  6
CONTINUOUS
 62
     0
100
AcDbLine
 10
21.80797297621249
 20
23.45042489480332
 30
0.0
 11
22.86594168852587
 21
24.50839360711669
 31
0.0
  0
LINE
  5
2A5F
330
2A4D
100
AcDbEntity
  8
0
  6
CONTINUOUS
 62
     0
100
AcDbLine
 10
21.80797297621249
 20
23.73326761149261
 30
0.0
 11
22.58309897183657
 21
24.50839360711668
 31
0.0
  0
LINE
  5
2A60
330
2A4D
100
AcDbEntity
  8
0
  6
CONTINUOUS
 62
     0
100
AcDbLine
 10
21.80797297621249
 20
24.01611032818192
 30
0.0
 11
22.30025625514727
 21
24.50839360711668
 31
0.0
  0
LINE
  5
2A61
330
2A4D
100
AcDbEntity
  8
0
  6
CONTINUOUS
 62
     0
100
AcDbLine
 10
21.80797297621249
 20
24.29895304487122
 30
0.0
 11
22.01741353845796
 21
24.50839360711668
 31
0.0
  0
ENDBLK
  5
2A63
330
2A4D
100
AcDbEntity
  8
0
100
AcDbBlockEnd
  0
BLOCK
  5
2A8C
330
2A64
100
AcDbEntity
  8
0
100
AcDbBlockBegin
  2
*X17
 70
     1
 10
0.0
 20
0.0
 30
0.0
  3
*X17
  1

  0
LINE
  5
2A65
330
2A64
100
AcDbEntity
  8
0
  6
CONTINUOUS
 62
     0
100
AcDbLine
 10
29.73766492271942
 20
20.63209360711669
 30
0.0
 11
29.8922229762125
 21
20.78665166060976
 31
0.0
  0
LINE
  5
2A66
330
2A64
100
AcDbEntity
  8
0
  6
CONTINUOUS
 62
     0
100
AcDbLine
 10
29.45482220603011
 20
20.63209360711669
 30
0.0
 11
29.89222297621248
 21
21.06949437729907
 31
0.0
  0
LINE
  5
2A67
330
2A64
100
AcDbEntity
  8
0
  6
CONTINUOUS
 62
     0
100
AcDbLine
 10
29.17197948934081
 20
20.63209360711669
 30
0.0
 11
29.8922229762125
 21
21.35233709398837
 31
0.0
  0
LINE
  5
2A68
330
2A64
100
AcDbEntity
  8
0
  6
CONTINUOUS
 62
     0
100
AcDbLine
 10
28.88913677265151
 20
20.63209360711669
 30
0.0
 11
29.8922229762125
 21
21.63517981067768
 31
0.0
  0
LINE
  5
2A69
330
2A64
100
AcDbEntity
  8
0
  6
CONTINUOUS
 62
     0
100
AcDbLine
 10
28.6062940559622
 20
20.63209360711669
 30
0.0
 11
29.8922229762125
 21
21.91802252736698
 31
0.0
  0
LINE
  5
2A6A
330
2A64
100
AcDbEntity
  8
0
  6
CONTINUOUS
 62
     0
100
AcDbLine
 10
28.3234513392729
 20
20.63209360711669
 30
0.0
 11
29.8922229762125
 21
22.20086524405628
 31
0.0
  0
LINE
  5
2A6B
330
2A64
100
AcDbEntity
  8
0
  6
CONTINUOUS
 62
     0
100
AcDbLine
 10
28.1084229762125
 20
20.69990796074559
 30
0.0
 11
29.8922229762125
 21
22.48370796074559
 31
0.0
  0
LINE
  5
2A6C
330
2A64
100
AcDbEntity
  8
0
  6
CONTINUOUS
 62
     0
100
AcDbLine
 10
28.10842297621249
 20
20.98275067743489
 30
0.0
 11
29.8922229762125
 21
22.76655067743489
 31
0.0
  0
LINE
  5
2A6D
330
2A64
100
AcDbEntity
  8
0
  6
CONTINUOUS
 62
     0
100
AcDbLine
 10
28.10842297621249
 20
21.26559339412419
 30
0.0
 11
29.8922229762125
 21
23.04939339412419
 31
0.0
  0
LINE
  5
2A6E
330
2A64
100
AcDbEntity
  8
0
  6
CONTINUOUS
 62
     0
100
AcDbLine
 10
28.10842297621249
 20
21.5484361108135
 30
0.0
 11
29.8918429446403
 21
23.3318560792413
 31
0.0
  0
LINE
  5
2A6F
330
2A64
100
AcDbEntity
  8
0
  6
CONTINUOUS
 62
     0
100
AcDbLine
 10
28.1084229762125
 20
21.8312788275028
 30
0.0
 11
29.85326765992761
 21
23.57612351121792
 31
0.0
  0
LINE
  5
2A70
330
2A64
100
AcDbEntity
  8
0
  6
CONTINUOUS
 62
     0
100
AcDbLine
 10
28.1084229762125
 20
22.1141215441921
 30
0.0
 11
29.7778145719578
 21
23.78351313993741
 31
0.0
  0
LINE
  5
2A71
330
2A64
100
AcDbEntity
  8
0
  6
CONTINUOUS
 62
     0
100
AcDbLine
 10
28.1084229762125
 20
22.39696426088142
 30
0.0
 11
29.67412964984317
 21
23.96267093451207
 31
0.0
  0
LINE
  5
2A72
330
2A64
100
AcDbEntity
  8
0
  6
CONTINUOUS
 62
     0
100
AcDbLine
 10
28.08408741851915
 20
22.65547141987737
 30
0.0
 11
29.54593010449247
 21
24.11731410585069
 31
0.0
  0
LINE
  5
2A73
330
2A64
100
AcDbEntity
  8
0
  6
CONTINUOUS
 62
     0
100
AcDbLine
 10
26.06070960575847
 20
20.63209360711669
 30
0.0
 11
26.2899729762125
 21
20.86135697757071
 31
0.0
  0
LINE
  5
2A74
330
2A64
100
AcDbEntity
  8
0
  6
CONTINUOUS
 62
     0
100
AcDbLine
 10
27.993800251453
 20
22.84802696950051
 30
0.0
 11
29.39435863885448
 21
24.248585356902
 31
0.0
  0
LINE
  5
2A75
330
2A64
100
AcDbEntity
  8
0
  6
CONTINUOUS
 62
     0
100
AcDbLine
 10
25.77786688906916
 20
20.63209360711669
 30
0.0
 11
26.2899729762125
 21
21.14419969426001
 31
0.0
  0
LINE
  5
2A76
330
2A64
100
AcDbEntity
  8
0
  6
CONTINUOUS
 62
     0
100
AcDbLine
 10
27.85643124454681
 20
22.99350067928364
 30
0.0
 11
29.21854476173636
 21
24.35561419647318
 31
0.0
  0
LINE
  5
2A77
330
2A64
100
AcDbEntity
  8
0
  6
CONTINUOUS
 62
     0
100
AcDbLine
 10
25.49502417237986
 20
20.63209360711668
 30
0.0
 11
26.2899729762125
 21
21.42704241094932
 31
0.0
  0
LINE
  5
2A78
330
2A64
100
AcDbEntity
  8
0
  6
CONTINUOUS
 62
     0
100
AcDbLine
 10
27.67336145621951
 20
23.09327360764564
 30
0.0
 11
29.00873242055444
 21
24.42864457198057
 31
0.0
  0
LINE
  5
2A79
330
2A64
100
AcDbEntity
  8
0
  6
CONTINUOUS
 62
     0
100
AcDbLine
 10
25.21218145569056
 20
20.63209360711668
 30
0.0
 11
26.2899729762125
 21
21.70988512763862
 31
0.0
  0
LINE
  5
2A7A
330
2A64
100
AcDbEntity
  8
0
  6
CONTINUOUS
 62
     0
100
AcDbLine
 10
27.42668159597107
 20
23.12943646408649
 30
0.0
 11
28.78111137615865
 21
24.48386624427408
 31
0.0
  0
LINE
  5
2A7B
330
2A64
100
AcDbEntity
  8
0
  6
CONTINUOUS
 62
     0
100
AcDbLine
 10
24.92933873900124
 20
20.63209360711668
 30
0.0
 11
26.2899729762125
 21
21.99272784432793
 31
0.0
  0
LINE
  5
2A7C
330
2A64
100
AcDbEntity
  8
0
  6
CONTINUOUS
 62
     0
100
AcDbLine
 10
27.09337871134728
 20
23.07897629615202
 30
0.0
 11
28.53965784556285
 21
24.52525543036758
 31
0.0
  0
LINE
  5
2A7D
330
2A64
100
AcDbEntity
  8
0
  6
CONTINUOUS
 62
     0
100
AcDbLine
 10
24.64649602231195
 20
20.63209360711668
 30
0.0
 11
26.2899729762125
 21
22.27557056101723
 31
0.0
  0
LINE
  5
2A7E
330
2A64
100
AcDbEntity
  8
0
  6
CONTINUOUS
 62
     0
100
AcDbLine
 10
24.49492297621248
 20
20.76336327770653
 30
0.0
 11
28.28214143765219
 21
24.55058173914623
 31
0.0
  0
LINE
  5
2A7F
330
2A64
100
AcDbEntity
  8
0
  6
CONTINUOUS
 62
     0
100
AcDbLine
 10
24.49492297621248
 20
21.04620599439582
 30
0.0
 11
28.00532133716156
 21
24.55660435534491
 31
0.0
  0
LINE
  5
2A80
330
2A64
100
AcDbEntity
  8
0
  6
CONTINUOUS
 62
     0
100
AcDbLine
 10
24.49492297621248
 20
21.32904871108514
 30
0.0
 11
27.70419502338755
 21
24.53832075826019
 31
0.0
  0
LINE
  5
2A81
330
2A64
100
AcDbEntity
  8
0
  6
CONTINUOUS
 62
     0
100
AcDbLine
 10
24.49492297621248
 20
21.61189142777444
 30
0.0
 11
27.37030343271159
 21
24.48727188427354
 31
0.0
  0
LINE
  5
2A82
330
2A64
100
AcDbEntity
  8
0
  6
CONTINUOUS
 62
     0
100
AcDbLine
 10
24.49492297621248
 20
21.89473414446374
 30
0.0
 11
26.98703511483339
 21
24.38684628308465
 31
0.0
  0
LINE
  5
2A83
330
2A64
100
AcDbEntity
  8
0
  6
CONTINUOUS
 62
     0
100
AcDbLine
 10
24.49492297621248
 20
22.17757686115305
 30
0.0
 11
26.51056620292166
 21
24.19322008786221
 31
0.0
  0
LINE
  5
2A84
330
2A64
100
AcDbEntity
  8
0
  6
CONTINUOUS
 62
     0
100
AcDbLine
 10
24.49492297621248
 20
22.46041957784235
 30
0.0
 11
26.2899729762125
 21
24.25546957784236
 31
0.0
  0
LINE
  5
2A85
330
2A64
100
AcDbEntity
  8
0
  6
CONTINUOUS
 62
     0
100
AcDbLine
 10
24.49492297621248
 20
22.74326229453166
 30
0.0
 11
26.26005428879752
 21
24.50839360711668
 31
0.0
  0
LINE
  5
2A86
330
2A64
100
AcDbEntity
  8
0
  6
CONTINUOUS
 62
     0
100
AcDbLine
 10
24.49492297621248
 20
23.02610501122095
 30
0.0
 11
25.97721157210822
 21
24.50839360711669
 31
0.0
  0
LINE
  5
2A87
330
2A64
100
AcDbEntity
  8
0
  6
CONTINUOUS
 62
     0
100
AcDbLine
 10
24.49492297621248
 20
23.30894772791026
 30
0.0
 11
25.69436885541891
 21
24.50839360711669
 31
0.0
  0
LINE
  5
2A88
330
2A64
100
AcDbEntity
  8
0
  6
CONTINUOUS
 62
     0
100
AcDbLine
 10
24.49492297621248
 20
23.59179044459957
 30
0.0
 11
25.41152613872961
 21
24.50839360711669
 31
0.0
  0
LINE
  5
2A89
330
2A64
100
AcDbEntity
  8
0
  6
CONTINUOUS
 62
     0
100
AcDbLine
 10
24.49492297621248
 20
23.87463316128887
 30
0.0
 11
25.1286834220403
 21
24.50839360711668
 31
0.0
  0
LINE
  5
2A8A
330
2A64
100
AcDbEntity
  8
0
  6
CONTINUOUS
 62
     0
100
AcDbLine
 10
24.49492297621248
 20
24.15747587797818
 30
0.0
 11
24.845840705351
 21
24.50839360711668
 31
0.0
  0
LINE
  5
2A8B
330
2A64
100
AcDbEntity
  8
0
  6
CONTINUOUS
 62
     0
100
AcDbLine
 10
24.49492297621248
 20
24.44031859466748
 30
0.0
 11
24.5629979886617
 21
24.50839360711668
 31
0.0
  0
ENDBLK
  5
2A8D
330
2A64
100
AcDbEntity
  8
0
100
AcDbBlockEnd
  0
BLOCK
  5
2ABB
330
2A8E
100
AcDbEntity
  8
0
100
AcDbBlockBegin
  2
*X18
 70
     1
 10
0.0
 20
0.0
 30
0.0
  3
*X18
  1

  0
LINE
  5
2A8F
330
2A8E
100
AcDbEntity
  8
0
  6
CONTINUOUS
 62
     0
100
AcDbLine
 10
35.94895468988411
 20
20.6208436071167
 30
0.0
 11
35.9865729762125
 21
20.65846189344507
 31
0.0
  0
LINE
  5
2A90
330
2A8E
100
AcDbEntity
  8
0
  6
CONTINUOUS
 62
     0
100
AcDbLine
 10
35.66611197319479
 20
20.62084360711669
 30
0.0
 11
35.9865729762125
 21
20.94130461013438
 31
0.0
  0
LINE
  5
2A91
330
2A8E
100
AcDbEntity
  8
0
  6
CONTINUOUS
 62
     0
100
AcDbLine
 10
35.3832692565055
 20
20.62084360711669
 30
0.0
 11
35.9865729762125
 21
21.22414732682369
 31
0.0
  0
LINE
  5
2A92
330
2A8E
100
AcDbEntity
  8
0
  6
CONTINUOUS
 62
     0
100
AcDbLine
 10
35.10042653981621
 20
20.6208436071167
 30
0.0
 11
35.9865729762125
 21
21.50699004351299
 31
0.0
  0
LINE
  5
2A93
330
2A8E
100
AcDbEntity
  8
0
  6
CONTINUOUS
 62
     0
100
AcDbLine
 10
34.81758382312689
 20
20.6208436071167
 30
0.0
 11
35.9865729762125
 21
21.7898327602023
 31
0.0
  0
LINE
  5
2A94
330
2A8E
100
AcDbEntity
  8
0
  6
CONTINUOUS
 62
     0
100
AcDbLine
 10
34.53474110643758
 20
20.6208436071167
 30
0.0
 11
35.9865729762125
 21
22.07267547689161
 31
0.0
  0
LINE
  5
2A95
330
2A8E
100
AcDbEntity
  8
0
  6
CONTINUOUS
 62
     0
100
AcDbLine
 10
34.25189838974828
 20
20.6208436071167
 30
0.0
 11
35.9865729762125
 21
22.35551819358091
 31
0.0
  0
LINE
  5
2A96
330
2A8E
100
AcDbEntity
  8
0
  6
CONTINUOUS
 62
     0
100
AcDbLine
 10
34.19152297621248
 20
20.8433109102702
 30
0.0
 11
35.9865729762125
 21
22.6383609102702
 31
0.0
  0
LINE
  5
2A97
330
2A8E
100
AcDbEntity
  8
0
  6
CONTINUOUS
 62
     0
100
AcDbLine
 10
33.76931006849532
 20
20.70394071924232
 30
0.0
 11
35.9865729762125
 21
22.92120362695951
 31
0.0
  0
LINE
  5
2A98
330
2A8E
100
AcDbEntity
  8
0
  6
CONTINUOUS
 62
     0
100
AcDbLine
 10
33.39236634668884
 20
20.60983971412514
 30
0.0
 11
35.9865729762125
 21
23.2040463436488
 31
0.0
  0
LINE
  5
2A99
330
2A8E
100
AcDbEntity
  8
0
  6
CONTINUOUS
 62
     0
100
AcDbLine
 10
33.08101349676572
 20
20.58132958089135
 30
0.0
 11
35.9865729762125
 21
23.48688906033812
 31
0.0
  0
LINE
  5
2A9A
330
2A8E
100
AcDbEntity
  8
0
  6
CONTINUOUS
 62
     0
100
AcDbLine
 10
32.78812179433337
 20
20.5712805951483
 30
0.0
 11
35.9865729762125
 21
23.76973177702743
 31
0.0
  0
LINE
  5
2A9B
330
2A8E
100
AcDbEntity
  8
0
  6
CONTINUOUS
 62
     0
100
AcDbLine
 10
32.50752380447831
 20
20.57352532198255
 30
0.0
 11
35.9865729762125
 21
24.05257449371672
 31
0.0
  0
LINE
  5
2A9C
330
2A8E
100
AcDbEntity
  8
0
  6
CONTINUOUS
 62
     0
100
AcDbLine
 10
34.17881428393366
 20
22.52765851812719
 30
0.0
 11
35.9865729762125
 21
24.33541721040603
 31
0.0
  0
LINE
  5
2A9D
330
2A8E
100
AcDbEntity
  8
0
  6
CONTINUOUS
 62
     0
100
AcDbLine
 10
32.24308330320312
 20
20.59192753739664
 30
0.0
 11
33.5947915553251
 21
21.94363578951862
 31
0.0
  0
LINE
  5
2A9E
330
2A8E
100
AcDbEntity
  8
0
  6
CONTINUOUS
 62
     0
100
AcDbLine
 10
34.18164288181293
 20
22.81332983269576
 30
0.0
 11
35.9865729762125
 21
24.61825992709534
 31
0.0
  0
LINE
  5
2A9F
330
2A8E
100
AcDbEntity
  8
0
  6
CONTINUOUS
 62
     0
100
AcDbLine
 10
32.00051587262908
 20
20.63220282351192
 30
0.0
 11
33.24755471239335
 21
21.87924166327618
 31
0.0
  0
LINE
  5
2AA0
330
2A8E
100
AcDbEntity
  8
0
  6
CONTINUOUS
 62
     0
100
AcDbLine
 10
34.10028732459351
 20
23.01481699216564
 30
0.0
 11
35.9865729762125
 21
24.90110264378464
 31
0.0
  0
LINE
  5
2AA1
330
2A8E
100
AcDbEntity
  8
0
  6
CONTINUOUS
 62
     0
100
AcDbLine
 10
31.77752155152184
 20
20.69205121909398
 30
0.0
 11
32.98807784516069
 21
21.90260751273283
 31
0.0
  0
LINE
  5
2AA2
330
2A8E
100
AcDbEntity
  8
0
  6
CONTINUOUS
 62
     0
100
AcDbLine
 10
33.96946103525296
 20
23.16683341951439
 30
0.0
 11
35.9865729762125
 21
25.18394536047394
 31
0.0
  0
LINE
  5
2AA3
330
2A8E
100
AcDbEntity
  8
0
  6
CONTINUOUS
 62
     0
100
AcDbLine
 10
31.57735655266627
 20
20.77472893692771
 30
0.0
 11
32.76916056716867
 21
21.96653295143011
 31
0.0
  0
LINE
  5
2AA4
330
2A8E
100
AcDbEntity
  8
0
  6
CONTINUOUS
 62
     0
100
AcDbLine
 10
33.79869139168887
 20
23.27890649263963
 30
0.0
 11
35.9865729762125
 21
25.46678807716324
 31
0.0
  0
LINE
  5
2AA5
330
2A8E
100
AcDbEntity
  8
0
  6
CONTINUOUS
 62
     0
100
AcDbLine
 10
31.39462786403553
 20
20.87484296498628
 30
0.0
 11
32.57878095327255
 21
22.0589960542233
 31
0.0
  0
LINE
  5
2AA6
330
2A8E
100
AcDbEntity
  8
0
  6
CONTINUOUS
 62
     0
100
AcDbLine
 10
33.59506660797613
 20
23.35812442561617
 30
0.0
 11
35.9865729762125
 21
25.74963079385255
 31
0.0
  0
LINE
  5
2AA7
330
2A8E
100
AcDbEntity
  8
0
  6
CONTINUOUS
 62
     0
100
AcDbLine
 10
31.22313095771962
 20
20.98618877535967
 30
0.0
 11
32.42473321158667
 21
22.18779102922672
 31
0.0
  0
LINE
  5
2AA8
330
2A8E
100
AcDbEntity
  8
0
  6
CONTINUOUS
 62
     0
100
AcDbLine
 10
33.37303685143528
 20
23.41893738576464
 30
0.0
 11
35.77784307278734
 21
25.8237436071167
 31
0.0
  0
LINE
  5
2AA9
330
2A8E
100
AcDbEntity
  8
0
  6
CONTINUOUS
 62
     0
100
AcDbLine
 10
31.06703655932743
 20
21.11293709365678
 30
0.0
 11
32.30780348735247
 21
22.35370402168184
 31
0.0
  0
LINE
  5
2AAA
330
2A8E
100
AcDbEntity
  8
0
  6
CONTINUOUS
 62
     0
100
AcDbLine
 10
33.11599510872115
 20
23.44473835973981
 30
0.0
 11
34.07794507158477
 21
24.40668832260344
 31
0.0
  0
LINE
  5
2AAB
330
2A8E
100
AcDbEntity
  8
0
  6
CONTINUOUS
 62
     0
100
AcDbLine
 10
34.19152297621248
 20
24.52026622723115
 30
0.0
 11
35.49500035609803
 21
25.8237436071167
 31
0.0
  0
LINE
  5
2AAC
330
2A8E
100
AcDbEntity
  8
0
  6
CONTINUOUS
 62
     0
100
AcDbLine
 10
30.92289119341728
 20
21.25163444443594
 30
0.0
 11
32.23358530622347
 21
22.56232855724213
 31
0.0
  0
LINE
  5
2AAD
330
2A8E
100
AcDbEntity
  8
0
  6
CONTINUOUS
 62
     0
100
AcDbLine
 10
32.7481736096376
 20
23.35975957734555
 30
0.0
 11
33.88591149297755
 21
24.49749746068552
 31
0.0
  0
LINE
  5
2AAE
330
2A8E
100
AcDbEntity
  8
0
  6
CONTINUOUS
 62
     0
100
AcDbLine
 10
34.19152297621248
 20
24.80310894392045
 30
0.0
 11
35.21215763940871
 21
25.8237436071167
 31
0.0
  0
LINE
  5
2AAF
330
2A8E
100
AcDbEntity
  8
0
  6
CONTINUOUS
 62
     0
100
AcDbLine
 10
30.79573641207614
 20
21.4073223797841
 30
0.0
 11
32.26604065428762
 21
22.8776266219956
 31
0.0
  0
LINE
  5
2AB0
330
2A8E
100
AcDbEntity
  8
0
  6
CONTINUOUS
 62
     0
100
AcDbLine
 10
34.19152297621248
 20
25.08595166060977
 30
0.0
 11
34.92931492271942
 21
25.8237436071167
 31
0.0
  0
LINE
  5
2AB1
330
2A8E
100
AcDbEntity
  8
0
  6
CONTINUOUS
 62
     0
100
AcDbLine
 10
30.68486213057575
 20
21.57929081497302
 30
0.0
 11
33.65908040447927
 21
24.55350908887655
 31
0.0
  0
LINE
  5
2AB2
330
2A8E
100
AcDbEntity
  8
0
  6
CONTINUOUS
 62
     0
100
AcDbLine
 10
34.19152297621248
 20
25.36879437729907
 30
0.0
 11
34.64647220603012
 21
25.8237436071167
 31
0.0
  0
LINE
  5
2AB3
330
2A8E
100
AcDbEntity
  8
0
  6
CONTINUOUS
 62
     0
100
AcDbLine
 10
30.59117900796042
 20
21.76845040904698
 30
0.0
 11
33.41812710058627
 21
24.59539850167285
 31
0.0
  0
LINE
  5
2AB4
330
2A8E
100
AcDbEntity
  8
0
  6
CONTINUOUS
 62
     0
100
AcDbLine
 10
34.19152297621248
 20
25.65163709398837
 30
0.0
 11
34.36362948934082
 21
25.8237436071167
 31
0.0
  0
LINE
  5
2AB5
330
2A8E
100
AcDbEntity
  8
0
  6
CONTINUOUS
 62
     0
100
AcDbLine
 10
30.5171401026012
 20
21.97725422037707
 30
0.0
 11
33.17224949320044
 21
24.63236361097632
 31
0.0
  0
LINE
  5
2AB6
330
2A8E
100
AcDbEntity
  8
0
  6
CONTINUOUS
 62
     0
100
AcDbLine
 10
30.45912583106565
 20
22.20208266553082
 30
0.0
 11
32.90592647138441
 21
24.64888330584959
 31
0.0
  0
LINE
  5
2AB7
330
2A8E
100
AcDbEntity
  8
0
  6
CONTINUOUS
 62
     0
100
AcDbLine
 10
30.42369368109809
 20
22.44949323225256
 30
0.0
 11
32.62147513128882
 21
24.64727468244331
 31
0.0
  0
LINE
  5
2AB8
330
2A8E
100
AcDbEntity
  8
0
  6
CONTINUOUS
 62
     0
100
AcDbLine
 10
30.42431842749476
 20
22.73296069533855
 30
0.0
 11
32.32111378987424
 21
24.62975605771803
 31
0.0
  0
LINE
  5
2AB9
330
2A8E
100
AcDbEntity
  8
0
  6
CONTINUOUS
 62
     0
100
AcDbLine
 10
30.48456014727226
 20
23.07604513180535
 30
0.0
 11
31.97893133461656
 21
24.57041631914965
 31
0.0
  0
LINE
  5
2ABA
330
2A8E
100
AcDbEntity
  8
0
  6
CONTINUOUS
 62
     0
100
AcDbLine
 10
30.66709573670678
 20
23.54142343792917
 30
0.0
 11
31.51624097783787
 21
24.39056867906026
 31
0.0
  0
ENDBLK
  5
2ABC
330
2A8E
100
AcDbEntity
  8
0
100
AcDbBlockEnd
  0
BLOCK
  5
2AEE
330
2ABD
100
AcDbEntity
  8
0
100
AcDbBlockBegin
  2
*X19
 70
     1
 10
0.0
 20
0.0
 30
0.0
  3
*X19
  1

  0
LINE
  5
2ABE
330
2ABD
100
AcDbEntity
  8
0
  6
CONTINUOUS
 62
     0
100
AcDbLine
 10
41.23382443163126
 20
20.81454444845637
 30
0.0
 11
42.03852064718826
 21
21.61924066401338
 31
0.0
  0
LINE
  5
2ABF
330
2ABD
100
AcDbEntity
  8
0
  6
CONTINUOUS
 62
     0
100
AcDbLine
 10
40.76192431693399
 20
20.62548705044843
 30
0.0
 11
41.99208087360227
 21
21.85564360711669
 31
0.0
  0
LINE
  5
2AC0
330
2ABD
100
AcDbEntity
  8
0
  6
CONTINUOUS
 62
     0
100
AcDbLine
 10
42.10936425852561
 20
22.25576970872932
 30
0.0
 11
42.23468802862376
 21
22.38109347882748
 31
0.0
  0
LINE
  5
2AC1
330
2ABD
100
AcDbEntity
  8
0
  6
CONTINUOUS
 62
     0
100
AcDbLine
 10
40.38714372147003
 20
20.53354917167375
 30
0.0
 11
41.70923815691295
 21
21.85564360711669
 31
0.0
  0
LINE
  5
2AC2
330
2ABD
100
AcDbEntity
  8
0
  6
CONTINUOUS
 62
     0
100
AcDbLine
 10
41.82543336328735
 20
22.25468153018038
 30
0.0
 11
42.24862438405333
 21
22.67787255094634
 31
0.0
  0
LINE
  5
2AC3
330
2ABD
100
AcDbEntity
  8
0
  6
CONTINUOUS
 62
     0
100
AcDbLine
 10
40.0527804866274
 20
20.48202865352042
 30
0.0
 11
41.42639544022365
 21
21.85564360711669
 31
0.0
  0
LINE
  5
2AC4
330
2ABD
100
AcDbEntity
  8
0
  6
CONTINUOUS
 62
     0
100
AcDbLine
 10
41.54150246804906
 20
22.25359335163139
 30
0.0
 11
42.21409021783318
 21
22.92618110141551
 31
0.0
  0
LINE
  5
2AC5
330
2ABD
100
AcDbEntity
  8
0
  6
CONTINUOUS
 62
     0
100
AcDbLine
 10
39.74394012551538
 20
20.45603100909771
 30
0.0
 11
41.14355272353434
 21
21.85564360711669
 31
0.0
  0
LINE
  5
2AC6
330
2ABD
100
AcDbEntity
  8
0
  6
CONTINUOUS
 62
     0
100
AcDbLine
 10
41.25757157281078
 20
22.25250517308242
 30
0.0
 11
42.1560324540612
 21
23.15096605433283
 31
0.0
  0
LINE
  5
2AC7
330
2ABD
100
AcDbEntity
  8
0
  6
CONTINUOUS
 62
     0
100
AcDbLine
 10
39.44878816058276
 20
20.4437217608544
 30
0.0
 11
40.86071000684504
 21
21.85564360711669
 31
0.0
  0
LINE
  5
2AC8
330
2ABD
100
AcDbEntity
  8
0
  6
CONTINUOUS
 62
     0
100
AcDbLine
 10
40.97364067757253
 20
22.25141699453347
 30
0.0
 11
42.08269660975441
 21
23.36047292671535
 31
0.0
  0
LINE
  5
2AC9
330
2ABD
100
AcDbEntity
  8
0
  6
CONTINUOUS
 62
     0
100
AcDbLine
 10
39.16676589738567
 20
20.4445422143466
 30
0.0
 11
40.57786729015575
 21
21.85564360711669
 31
0.0
  0
LINE
  5
2ACA
330
2ABD
100
AcDbEntity
  8
0
  6
CONTINUOUS
 62
     0
100
AcDbLine
 10
40.68970978233426
 20
22.25032881598449
 30
0.0
 11
41.99226190333589
 21
23.55288093698612
 31
0.0
  0
LINE
  5
2ACB
330
2ABD
100
AcDbEntity
  8
0
  6
CONTINUOUS
 62
     0
100
AcDbLine
 10
38.90253497223048
 20
20.46315400588071
 30
0.0
 11
40.17887150097073
 21
21.73949053462098
 31
0.0
  0
LINE
  5
2ACC
330
2ABD
100
AcDbEntity
  8
0
  6
CONTINUOUS
 62
     0
100
AcDbLine
 10
40.40577888709599
 20
22.24924063743553
 30
0.0
 11
41.88575764934264
 21
23.72921939968218
 31
0.0
  0
LINE
  5
2ACD
330
2ABD
100
AcDbEntity
  8
0
  6
CONTINUOUS
 62
     0
100
AcDbLine
 10
38.65076933945138
 20
20.49423108979092
 30
0.0
 11
39.71113473632247
 21
21.55459648666203
 31
0.0
  0
LINE
  5
2ACE
330
2ABD
100
AcDbEntity
  8
0
  6
CONTINUOUS
 62
     0
100
AcDbLine
 10
40.12184799185771
 20
22.24815245888656
 30
0.0
 11
41.76313160843945
 21
23.8894360754683
 31
0.0
  0
LINE
  5
2ACF
330
2ABD
100
AcDbEntity
  8
0
  6
CONTINUOUS
 62
     0
100
AcDbLine
 10
38.40769348166068
 20
20.53399794868953
 30
0.0
 11
39.41154543156577
 21
21.53784989859462
 31
0.0
  0
LINE
  5
2AD0
330
2ABD
100
AcDbEntity
  8
0
  6
CONTINUOUS
 62
     0
100
AcDbLine
 10
39.83791709661943
 20
22.24706428033757
 30
0.0
 11
41.62484932044399
 21
24.03399650416214
 31
0.0
  0
LINE
  5
2AD1
330
2ABD
100
AcDbEntity
  8
0
  6
CONTINUOUS
 62
     0
100
AcDbLine
 10
38.18012839871428
 20
20.58927558243244
 30
0.0
 11
39.1623236792862
 21
21.57147086300434
 31
0.0
  0
LINE
  5
2AD2
330
2ABD
100
AcDbEntity
  8
0
  6
CONTINUOUS
 62
     0
100
AcDbLine
 10
39.55398620138117
 20
22.24597610178863
 30
0.0
 11
41.47049606392518
 21
24.16248596433264
 31
0.0
  0
LINE
  5
2AD3
330
2ABD
100
AcDbEntity
  8
0
  6
CONTINUOUS
 62
     0
100
AcDbLine
 10
37.96719003858654
 20
20.659179938994
 30
0.0
 11
38.94359023101842
 21
21.63558013142587
 31
0.0
  0
LINE
  5
2AD4
330
2ABD
100
AcDbEntity
  8
0
  6
CONTINUOUS
 62
     0
100
AcDbLine
 10
39.27005530614289
 20
22.24488792323966
 30
0.0
 11
40.10436099001993
 21
23.07919360711669
 31
0.0
  0
LINE
  5
2AD5
330
2ABD
100
AcDbEntity
  8
0
  6
CONTINUOUS
 62
     0
100
AcDbLine
 10
40.29675631659835
 20
23.27158893369511
 30
0.0
 11
41.30607525588014
 21
24.2809078729769
 31
0.0
  0
LINE
  5
2AD6
330
2ABD
100
AcDbEntity
  8
0
  6
CONTINUOUS
 62
     0
100
AcDbLine
 10
37.76212663821223
 20
20.736959255309
 30
0.0
 11
38.75166696582754
 21
21.72649958292429
 31
0.0
  0
LINE
  5
2AD7
330
2ABD
100
AcDbEntity
  8
0
  6
CONTINUOUS
 62
     0
100
AcDbLine
 10
38.98676827333064
 20
22.24444360711669
 30
0.0
 11
39.82151827333064
 21
23.07919360711669
 31
0.0
  0
LINE
  5
2AD8
330
2ABD
100
AcDbEntity
  8
0
  6
CONTINUOUS
 62
     0
100
AcDbLine
 10
40.18585519244889
 20
23.44353052623496
 30
0.0
 11
41.12716214713813
 21
24.38483748092419
 31
0.0
  0
LINE
  5
2AD9
330
2ABD
100
AcDbEntity
  8
0
  6
CONTINUOUS
 62
     0
100
AcDbLine
 10
37.56707697671665
 20
20.82475231050272
 30
0.0
 11
38.58724192642089
 21
21.84491726020695
 31
0.0
  0
LINE
  5
2ADA
330
2ABD
100
AcDbEntity
  8
0
  6
CONTINUOUS
 62
     0
100
AcDbLine
 10
38.70392555664134
 20
22.24444360711669
 30
0.0
 11
39.53867555664134
 21
23.07919360711669
 31
0.0
  0
LINE
  5
2ADB
330
2ABD
100
AcDbEntity
  8
0
  6
CONTINUOUS
 62
     0
100
AcDbLine
 10
40.03559926541861
 20
23.576117315894
 30
0.0
 11
40.93254152617325
 21
24.47305957664864
 31
0.0
  0
LINE
  5
2ADC
330
2ABD
100
AcDbEntity
  8
0
  6
CONTINUOUS
 62
     0
100
AcDbLine
 10
37.38616166485813
 20
20.92667971533349
 30
0.0
 11
38.45881382923399
 21
21.99933187970937
 31
0.0
  0
LINE
  5
2ADD
330
2ABD
100
AcDbEntity
  8
0
  6
CONTINUOUS
 62
     0
100
AcDbLine
 10
38.42108283995202
 20
22.24444360711669
 30
0.0
 11
39.25583283995202
 21
23.07919360711669
 31
0.0
  0
LINE
  5
2ADE
330
2ABD
100
AcDbEntity
  8
0
  6
CONTINUOUS
 62
     0
100
AcDbLine
 10
39.85366243064229
 20
23.67702319780697
 30
0.0
 11
40.72194545099562
 21
24.54530621816029
 31
0.0
  0
LINE
  5
2ADF
330
2ABD
100
AcDbEntity
  8
0
  6
CONTINUOUS
 62
     0
100
AcDbLine
 10
37.22184984512831
 20
21.04521061229298
 30
0.0
 11
38.375638430372
 21
22.19899919753668
 31
0.0
  0
LINE
  5
2AE0
330
2ABD
100
AcDbEntity
  8
0
  6
CONTINUOUS
 62
     0
100
AcDbLine
 10
39.63845355989358
 20
23.74465704374754
 30
0.0
 11
40.50123577380229
 21
24.60743925765628
 31
0.0
  0
LINE
  5
2AE1
330
2ABD
100
AcDbEntity
  8
0
  6
CONTINUOUS
 62
     0
100
AcDbLine
 10
37.07655956159225
 20
21.18276304544623
 30
0.0
 11
38.97299012326271
 21
23.07919360711669
 31
0.0
  0
LINE
  5
2AE2
330
2ABD
100
AcDbEntity
  8
0
  6
CONTINUOUS
 62
     0
100
AcDbLine
 10
39.38487978059392
 20
23.77392598113722
 30
0.0
 11
40.26957641099243
 21
24.65862261153572
 31
0.0
  0
LINE
  5
2AE3
330
2ABD
100
AcDbEntity
  8
0
  6
CONTINUOUS
 62
     0
100
AcDbLine
 10
36.94605200688531
 20
21.33509820742859
 30
0.0
 11
38.69014740657341
 21
23.07919360711669
 31
0.0
  0
LINE
  5
2AE4
330
2ABD
100
AcDbEntity
  8
0
  6
CONTINUOUS
 62
     0
100
AcDbLine
 10
39.06924509432823
 20
23.74113401156082
 30
0.0
 11
40.02610276084062
 21
24.69799167807321
 31
0.0
  0
LINE
  5
2AE5
330
2ABD
100
AcDbEntity
  8
0
  6
CONTINUOUS
 62
     0
100
AcDbLine
 10
36.82592221508353
 20
21.49781113231611
 30
0.0
 11
38.40730468988412
 21
23.07919360711669
 31
0.0
  0
LINE
  5
2AE6
330
2ABD
100
AcDbEntity
  8
0
  6
CONTINUOUS
 62
     0
100
AcDbLine
 10
36.72204470147372
 20
21.67677633539562
 30
0.0
 11
39.76916940185159
 21
24.72390103577348
 31
0.0
  0
LINE
  5
2AE7
330
2ABD
100
AcDbEntity
  8
0
  6
CONTINUOUS
 62
     0
100
AcDbLine
 10
36.63367221868488
 20
21.87124656929607
 30
0.0
 11
39.49239259327073
 21
24.72996694388192
 31
0.0
  0
LINE
  5
2AE8
330
2ABD
100
AcDbEntity
  8
0
  6
CONTINUOUS
 62
     0
100
AcDbLine
 10
36.55872697385153
 20
22.07914404115201
 30
0.0
 11
39.21488928388358
 21
24.73530635118407
 31
0.0
  0
LINE
  5
2AE9
330
2ABD
100
AcDbEntity
  8
0
  6
CONTINUOUS
 62
     0
100
AcDbLine
 10
36.50347549367967
 20
22.30673527766946
 30
0.0
 11
38.91033768825781
 21
24.71359747224762
 31
0.0
  0
LINE
  5
2AEA
330
2ABD
100
AcDbEntity
  8
0
  6
CONTINUOUS
 62
     0
100
AcDbLine
 10
36.47892411431334
 20
22.56502661499244
 30
0.0
 11
38.59996447924425
 21
24.68606697992337
 31
0.0
  0
LINE
  5
2AEB
330
2ABD
100
AcDbEntity
  8
0
  6
CONTINUOUS
 62
     0
100
AcDbLine
 10
36.49730619074714
 20
22.86625140811556
 30
0.0
 11
38.25254582337645
 21
24.62149104074486
 31
0.0
  0
LINE
  5
2AEC
330
2ABD
100
AcDbEntity
  8
0
  6
CONTINUOUS
 62
     0
100
AcDbLine
 10
36.58207047382975
 20
23.23385840788746
 30
0.0
 11
37.8616737342633
 21
24.51346166832101
 31
0.0
  0
LINE
  5
2AED
330
2ABD
100
AcDbEntity
  8
0
  6
CONTINUOUS
 62
     0
100
AcDbLine
 10
36.87895768640204
 20
23.81358833714905
 30
0.0
 11
37.28993357936131
 21
24.22456423010832
 31
0.0
  0
ENDBLK
  5
2AEF
330
2ABD
100
AcDbEntity
  8
0
100
AcDbBlockEnd
  0
BLOCK
  5
2B11
330
2AF0
100
AcDbEntity
  8
0
100
AcDbBlockBegin
  2
*X20
 70
     1
 10
0.0
 20
0.0
 30
0.0
  3
*X20
  1

  0
LINE
  5
2AF1
330
2AF0
100
AcDbEntity
  8
0
  6
CONTINUOUS
 62
     0
100
AcDbLine
 10
47.24971434063111
 20
22.58779360711668
 30
0.0
 11
47.28795659173517
 21
22.62603585822072
 31
0.0
  0
LINE
  5
2AF2
330
2AF0
100
AcDbEntity
  8
0
  6
CONTINUOUS
 62
     0
100
AcDbLine
 10
46.96687162394181
 20
22.58779360711668
 30
0.0
 11
47.30766242413531
 21
22.92858440731017
 31
0.0
  0
LINE
  5
2AF3
330
2AF0
100
AcDbEntity
  8
0
  6
CONTINUOUS
 62
     0
100
AcDbLine
 10
46.68402890725251
 20
22.58779360711668
 30
0.0
 11
47.29611504099408
 21
23.19987974085824
 31
0.0
  0
LINE
  5
2AF4
330
2AF0
100
AcDbEntity
  8
0
  6
CONTINUOUS
 62
     0
100
AcDbLine
 10
46.40118619056321
 20
22.58779360711668
 30
0.0
 11
47.26153315523016
 21
23.44814057178364
 31
0.0
  0
LINE
  5
2AF5
330
2AF0
100
AcDbEntity
  8
0
  6
CONTINUOUS
 62
     0
100
AcDbLine
 10
44.44548619056321
 20
20.63209360711669
 30
0.0
 11
44.45962297621249
 21
20.64623039276594
 31
0.0
  0
LINE
  5
2AF6
330
2AF0
100
AcDbEntity
  8
0
  6
CONTINUOUS
 62
     0
100
AcDbLine
 10
46.11834347387389
 20
22.58779360711668
 30
0.0
 11
47.20921446605053
 21
23.67866459929329
 31
0.0
  0
LINE
  5
2AF7
330
2AF0
100
AcDbEntity
  8
0
  6
CONTINUOUS
 62
     0
100
AcDbLine
 10
44.16264347387389
 20
20.63209360711668
 30
0.0
 11
44.45962297621249
 21
20.92907310945526
 31
0.0
  0
LINE
  5
2AF8
330
2AF0
100
AcDbEntity
  8
0
  6
CONTINUOUS
 62
     0
100
AcDbLine
 10
45.83550075718459
 20
22.58779360711668
 30
0.0
 11
47.13201133898738
 21
23.88430418891946
 31
0.0
  0
LINE
  5
2AF9
330
2AF0
100
AcDbEntity
  8
0
  6
CONTINUOUS
 62
     0
100
AcDbLine
 10
43.8798007571846
 20
20.63209360711668
 30
0.0
 11
44.45962297621249
 21
21.21191582614455
 31
0.0
  0
LINE
  5
2AFA
330
2AF0
100
AcDbEntity
  8
0
  6
CONTINUOUS
 62
     0
100
AcDbLine
 10
45.5526580404953
 20
22.58779360711668
 30
0.0
 11
47.02930284680043
 21
24.06443841342182
 31
0.0
  0
LINE
  5
2AFB
330
2AF0
100
AcDbEntity
  8
0
  6
CONTINUOUS
 62
     0
100
AcDbLine
 10
43.5969580404953
 20
20.63209360711668
 30
0.0
 11
44.45962297621249
 21
21.49475854283387
 31
0.0
  0
LINE
  5
2AFC
330
2AF0
100
AcDbEntity
  8
0
  6
CONTINUOUS
 62
     0
100
AcDbLine
 10
45.4545729762125
 20
22.77255125952319
 30
0.0
 11
46.90089549976312
 21
24.2188737830738
 31
0.0
  0
LINE
  5
2AFD
330
2AF0
100
AcDbEntity
  8
0
  6
CONTINUOUS
 62
     0
100
AcDbLine
 10
43.31411532380601
 20
20.63209360711669
 30
0.0
 11
44.45962297621249
 21
21.77760125952318
 31
0.0
  0
LINE
  5
2AFE
330
2AF0
100
AcDbEntity
  8
0
  6
CONTINUOUS
 62
     0
100
AcDbLine
 10
45.41819881762309
 20
23.01901981762307
 30
0.0
 11
46.74470971389381
 21
24.3455307138938
 31
0.0
  0
LINE
  5
2AFF
330
2AF0
100
AcDbEntity
  8
0
  6
CONTINUOUS
 62
     0
100
AcDbLine
 10
43.03127260711669
 20
20.63209360711668
 30
0.0
 11
44.4596229762125
 21
22.06044397621248
 31
0.0
  0
LINE
  5
2B00
330
2AF0
100
AcDbEntity
  8
0
  6
CONTINUOUS
 62
     0
100
AcDbLine
 10
45.29461390127503
 20
23.17827761796431
 30
0.0
 11
46.55878408076631
 21
24.44244779745559
 31
0.0
  0
LINE
  5
2B01
330
2AF0
100
AcDbEntity
  8
0
  6
CONTINUOUS
 62
     0
100
AcDbLine
 10
42.74842989042737
 20
20.63209360711668
 30
0.0
 11
44.45962297621249
 21
22.34328669290178
 31
0.0
  0
LINE
  5
2B02
330
2AF0
100
AcDbEntity
  8
0
  6
CONTINUOUS
 62
     0
100
AcDbLine
 10
45.10254687639092
 20
23.26905330976952
 30
0.0
 11
46.3463570429988
 21
24.5128634763774
 31
0.0
  0
LINE
  5
2B03
330
2AF0
100
AcDbEntity
  8
0
  6
CONTINUOUS
 62
     0
100
AcDbLine
 10
42.73297297621249
 20
20.89947940959109
 30
0.0
 11
44.45962297621249
 21
22.62612940959108
 31
0.0
  0
LINE
  5
2B04
330
2AF0
100
AcDbEntity
  8
0
  6
CONTINUOUS
 62
     0
100
AcDbLine
 10
44.79762211486145
 20
23.24697126492937
 30
0.0
 11
46.11516596148557
 21
24.56451511155345
 31
0.0
  0
LINE
  5
2B05
330
2AF0
100
AcDbEntity
  8
0
  6
CONTINUOUS
 62
     0
100
AcDbLine
 10
42.7329729762125
 20
21.18232212628039
 30
0.0
 11
44.49250552681682
 21
22.94185467688473
 31
0.0
  0
LINE
  5
2B06
330
2AF0
100
AcDbEntity
  8
0
  6
CONTINUOUS
 62
     0
100
AcDbLine
 10
42.7329729762125
 20
21.46516484296971
 30
0.0
 11
45.8577145844811
 21
24.5899064512383
 31
0.0
  0
LINE
  5
2B07
330
2AF0
100
AcDbEntity
  8
0
  6
CONTINUOUS
 62
     0
100
AcDbLine
 10
42.7329729762125
 20
21.74800755965902
 30
0.0
 11
45.56309255672949
 21
24.578127140176
 31
0.0
  0
LINE
  5
2B08
330
2AF0
100
AcDbEntity
  8
0
  6
CONTINUOUS
 62
     0
100
AcDbLine
 10
42.7329729762125
 20
22.03085027634831
 30
0.0
 11
45.22227722723954
 21
24.52015452737535
 31
0.0
  0
LINE
  5
2B09
330
2AF0
100
AcDbEntity
  8
0
  6
CONTINUOUS
 62
     0
100
AcDbLine
 10
42.7329729762125
 20
22.31369299303762
 30
0.0
 11
44.7770885643991
 21
24.35780858122421
 31
0.0
  0
LINE
  5
2B0A
330
2AF0
100
AcDbEntity
  8
0
  6
CONTINUOUS
 62
     0
100
AcDbLine
 10
42.7329729762125
 20
22.59653570972691
 30
0.0
 11
44.45962297621249
 21
24.32318570972691
 31
0.0
  0
LINE
  5
2B0B
330
2AF0
100
AcDbEntity
  8
0
  6
CONTINUOUS
 62
     0
100
AcDbLine
 10
42.7329729762125
 20
22.87937842641623
 30
0.0
 11
44.36198815691296
 21
24.50839360711668
 31
0.0
  0
LINE
  5
2B0C
330
2AF0
100
AcDbEntity
  8
0
  6
CONTINUOUS
 62
     0
100
AcDbLine
 10
42.7329729762125
 20
23.16222114310552
 30
0.0
 11
44.07914544022365
 21
24.50839360711668
 31
0.0
  0
LINE
  5
2B0D
330
2AF0
100
AcDbEntity
  8
0
  6
CONTINUOUS
 62
     0
100
AcDbLine
 10
42.73297297621249
 20
23.44506385979482
 30
0.0
 11
43.79630272353435
 21
24.50839360711668
 31
0.0
  0
LINE
  5
2B0E
330
2AF0
100
AcDbEntity
  8
0
  6
CONTINUOUS
 62
     0
100
AcDbLine
 10
42.7329729762125
 20
23.72790657648412
 30
0.0
 11
43.51346000684504
 21
24.50839360711669
 31
0.0
  0
LINE
  5
2B0F
330
2AF0
100
AcDbEntity
  8
0
  6
CONTINUOUS
 62
     0
100
AcDbLine
 10
42.7329729762125
 20
24.01074929317345
 30
0.0
 11
43.23061729015575
 21
24.50839360711669
 31
0.0
  0
LINE
  5
2B10
330
2AF0
100
AcDbEntity
  8
0
  6
CONTINUOUS
 62
     0
100
AcDbLine
 10
42.7329729762125
 20
24.29359200986275
 30
0.0
 11
42.94777457346643
 21
24.50839360711669
 31
0.0
  0
ENDBLK
  5
2B12
330
2AF0
100
AcDbEntity
  8
0
100
AcDbBlockEnd
  0
BLOCK
  5
2B50
330
2B3D
100
AcDbEntity
  8
0
100
AcDbBlockBegin
  2
B
 70
     0
 10
0.0
 20
0.0
 30
0.0
  3
B
  1

  0
LINE
  5
2B3E
330
2B3D
100
AcDbEntity
  8
0
  6
CONTINUOUS
 62
     1
100
AcDbLine
 10
153.0526496887206
 20
171.4884697737205
 30
0.0
 11
130.1526466317861
 21
171.4884697737205
 31
0.0
  0
LINE
  5
2B3F
330
2B3D
100
AcDbEntity
  8
0
  6
CONTINUOUS
 62
     1
100
AcDbLine
 10
159.5526494979858
 20
181.9884697737204
 30
0.0
 11
159.5526494979858
 21
177.9884695829855
 31
0.0
  0
LINE
  5
2B40
330
2B3D
100
AcDbEntity
  8
0
  6
CONTINUOUS
 62
     1
100
AcDbLine
 10
158.7526494860649
 20
181.9884697737204
 30
0.0
 11
159.5526494979858
 21
181.9884697737204
 31
0.0
  0
LINE
  5
2B41
330
2B3D
100
AcDbEntity
  8
0
  6
CONTINUOUS
 62
     1
100
AcDbLine
 10
130.1526470477185
 20
172.2884697506723
 30
0.0
 11
130.1526470477185
 21
171.4884697737205
 31
0.0
  0
LINE
  5
2B42
330
2B3D
100
AcDbEntity
  8
0
  6
CONTINUOUS
 62
     1
100
AcDbLine
 10
130.1526477938428
 20
181.9884697387513
 30
0.0
 11
158.7526494860649
 21
181.9884697387513
 31
0.0
  0
ARC
  5
2B43
330
2B3D
100
AcDbEntity
  8
0
  6
CONTINUOUS
 62
     1
100
AcDbCircle
 10
153.0526496887206
 20
177.9884695829855
 30
0.0
 40
6.499999809265137
100
AcDbArc
 50
270.0
 51
0.0
  0
LINE
  5
2B44
330
2B3D
100
AcDbEntity
  8
0
  6
CONTINUOUS
 62
     1
100
AcDbLine
 10
130.1526470477185
 20
175.1884697387513
 30
0.0
 11
130.1526467295184
 21
172.2884697506723
 31
0.0
  0
LINE
  5
2B45
330
2B3D
100
AcDbEntity
  8
0
  6
CONTINUOUS
 62
     1
100
AcDbLine
 10
130.1526477060634
 20
181.1884690342535
 30
0.0
 11
128.5526494979858
 21
181.1884690342535
 31
0.0
  0
LINE
  5
2B46
330
2B3D
100
AcDbEntity
  8
0
  6
CONTINUOUS
 62
     1
100
AcDbLine
 10
128.5526494979858
 20
175.1884697387513
 30
0.0
 11
130.1526470477185
 21
175.1884697387513
 31
0.0
  0
LINE
  5
2B47
330
2B3D
100
AcDbEntity
  8
0
  6
CONTINUOUS
 62
     1
100
AcDbLine
 10
128.5526494979858
 20
181.1884690342535
 30
0.0
 11
128.5526494979858
 21
175.1884697387513
 31
0.0
  0
LINE
  5
2B48
330
2B3D
100
AcDbEntity
  8
0
  6
CONTINUOUS
 62
     1
100
AcDbLine
 10
130.1526477938428
 20
181.9884697387513
 30
0.0
 11
130.1526477060634
 21
181.1884690342535
 31
0.0
  0
LINE
  5
2B49
330
2B3D
100
AcDbEntity
  8
0
  6
CONTINUOUS
 62
     1
100
AcDbLine
 10
159.5526494979858
 20
176.9384689416253
 30
0.0
 11
159.4672810526902
 21
176.9384689416253
 31
0.0
  0
LINE
  5
2B4A
330
2B3D
100
AcDbEntity
  8
0
  6
CONTINUOUS
 62
     1
100
AcDbLine
 10
159.5526494979858
 20
176.9384689416253
 30
0.0
 11
159.5526494979858
 21
177.938468744924
 31
0.0
  0
LINE
  5
2B4B
330
2B3D
100
AcDbEntity
  8
0
  6
CONTINUOUS
 62
     1
100
AcDbLine
 10
159.9526494979858
 20
178.3532745398585
 30
0.0
 11
159.9526494979858
 21
177.9384688596632
 31
0.0
  0
LINE
  5
2B4C
330
2B3D
100
AcDbEntity
  8
0
  6
CONTINUOUS
 62
     1
100
AcDbLine
 10
159.5526494979858
 20
178.9384689416253
 30
0.0
 11
159.9526494979858
 21
178.3532745398585
 31
0.0
  0
LINE
  5
2B4D
330
2B3D
100
AcDbEntity
  8
0
  6
CONTINUOUS
 62
     1
100
AcDbLine
 10
159.9526494979858
 20
177.9384688596632
 30
0.0
 11
159.9526494979858
 21
177.5236633433921
 31
0.0
  0
LINE
  5
2B4E
330
2B3D
100
AcDbEntity
  8
0
  6
CONTINUOUS
 62
     1
100
AcDbLine
 10
159.5526494979858
 20
176.9384689416253
 30
0.0
 11
159.9526494979858
 21
177.5236633433921
 31
0.0
  0
LINE
  5
2B4F
330
2B3D
100
AcDbEntity
  8
0
  6
CONTINUOUS
 62
     1
100
AcDbLine
 10
159.5526494979858
 20
177.938468744924
 30
0.0
 11
159.9526494979858
 21
177.9384688596632
 31
0.0
  0
ENDBLK
  5
2B51
330
2B3D
100
AcDbEntity
  8
0
100
AcDbBlockEnd
  0
BLOCK
  5
2BCB
330
2B52
100
AcDbEntity
  8
0
100
AcDbBlockBegin
  2
D
 70
     0
 10
0.0
 20
0.0
 30
0.0
  3
D
  1

  0
LINE
  5
2B53
330
2B52
100
AcDbEntity
  8
0
  6
CONTINUOUS
 62
     7
100
AcDbLine
 10
54.08611030366353
 20
182.0884759458286
 30
0.0
 11
52.88610741683271
 21
182.0884759981893
 31
0.0
  0
LINE
  5
2B54
330
2B52
100
AcDbEntity
  8
0
  6
CONTINUOUS
 62
     7
100
AcDbLine
 10
65.28610929462601
 20
182.0884754571292
 30
0.0
 11
64.08610910712062
 21
182.0884755094899
 31
0.0
  0
LINE
  5
2B55
330
2B52
100
AcDbEntity
  8
0
  6
CONTINUOUS
 62
     7
100
AcDbLine
 10
65.286109289476
 20
182.2884710201782
 30
0.0
 11
65.28610929462601
 21
182.0884754571292
 31
0.0
  0
LINE
  5
2B56
330
2B52
100
AcDbEntity
  8
0
  6
CONTINUOUS
 62
     7
100
AcDbLine
 10
52.88610809752118
 20
197.6884752814081
 30
0.0
 11
52.88610741683272
 21
182.0884759981894
 31
0.0
  0
ARC
  5
2B57
330
2B52
100
AcDbEntity
  8
0
  6
CONTINUOUS
 62
     7
100
AcDbCircle
 10
53.31110763943854
 20
210.6634767683012
 30
0.0
 40
0.2000000029802323
100
AcDbArc
 50
90.0
 51
180.0
  0
ARC
  5
2B58
330
2B52
100
AcDbEntity
  8
0
  6
CONTINUOUS
 62
     7
100
AcDbCircle
 10
64.86110763347813
 20
210.6634767683012
 30
0.0
 40
0.2000000029802323
100
AcDbArc
 50
0.0
 51
90.0
  0
ARC
  5
2B59
330
2B52
100
AcDbEntity
  8
0
  6
CONTINUOUS
 62
     7
100
AcDbCircle
 10
64.86110763347813
 20
182.5134767742617
 30
0.0
 40
0.2000000029802323
100
AcDbArc
 50
270.0
 51
0.0
  0
LINE
  5
2B5A
330
2B52
100
AcDbEntity
  8
0
  6
CONTINUOUS
 62
     7
100
AcDbLine
 10
64.86110763347813
 20
210.8634767712814
 30
0.0
 11
53.3111076394386
 21
210.8634767712814
 31
0.0
  0
LINE
  5
2B5B
330
2B52
100
AcDbEntity
  8
0
  6
CONTINUOUS
 62
     7
100
AcDbLine
 10
65.06110763645839
 20
182.5134767742617
 30
0.0
 11
65.06110763645835
 21
210.6634767683012
 31
0.0
  0
ARC
  5
2B5C
330
2B52
100
AcDbEntity
  8
0
  6
CONTINUOUS
 62
     7
100
AcDbCircle
 10
61.11110775447912
 20
188.3134768634515
 30
0.0
 40
3.199999999999997
100
AcDbArc
 50
0.0
 51
90.00000000000012
  0
LINE
  5
2B5D
330
2B52
100
AcDbEntity
  8
0
  6
CONTINUOUS
 62
     7
100
AcDbLine
 10
57.28098061923629
 20
185.3884765055204
 30
0.0
 11
56.61110774743695
 21
185.3884765908631
 31
0.0
  0
LINE
  5
2B5E
330
2B52
100
AcDbEntity
  8
0
  6
CONTINUOUS
 62
     7
100
AcDbLine
 10
54.61110774743691
 20
185.3884765908631
 30
0.0
 11
53.94123465708062
 21
185.3884765055205
 31
0.0
  0
LINE
  5
2B5F
330
2B52
100
AcDbEntity
  8
0
  6
CONTINUOUS
 62
     7
100
AcDbLine
 10
54.61110774743691
 20
185.3884765908631
 30
0.0
 11
56.6111077474369
 21
185.3884765908631
 31
0.0
  0
LINE
  5
2B60
330
2B52
100
AcDbEntity
  8
0
  6
CONTINUOUS
 62
     7
100
AcDbLine
 10
54.61110774743691
 20
185.913476856624
 30
0.0
 11
54.61110774743691
 21
185.3884765908631
 31
0.0
  0
LINE
  5
2B61
330
2B52
100
AcDbEntity
  8
0
  6
CONTINUOUS
 62
     7
100
AcDbLine
 10
55.51110784110426
 20
185.913476856624
 30
0.0
 11
54.61110774743688
 21
185.913476856624
 31
0.0
  0
LINE
  5
2B62
330
2B52
100
AcDbEntity
  8
0
  6
CONTINUOUS
 62
     7
100
AcDbLine
 10
56.6111077474369
 20
185.3884765908631
 30
0.0
 11
56.6111077474369
 21
185.913476856624
 31
0.0
  0
LINE
  5
2B63
330
2B52
100
AcDbEntity
  8
0
  6
CONTINUOUS
 62
     7
100
AcDbLine
 10
64.31110763645836
 20
182.3134767712815
 30
0.0
 11
64.86110763347813
 21
182.3134767712815
 31
0.0
  0
LINE
  5
2B64
330
2B52
100
AcDbEntity
  8
0
  6
CONTINUOUS
 62
     7
100
AcDbLine
 10
53.11110763645832
 20
210.6634767683012
 30
0.0
 11
53.11110763645834
 21
191.5134767712814
 31
0.0
  0
LINE
  5
2B65
330
2B52
100
AcDbEntity
  8
0
  6
CONTINUOUS
 62
     7
100
AcDbLine
 10
59.83610763645834
 20
203.9884739320081
 30
0.0
 11
61.71110763645834
 21
203.9884739320081
 31
0.0
  0
LINE
  5
2B66
330
2B52
100
AcDbEntity
  8
0
  6
CONTINUOUS
 62
     7
100
AcDbLine
 10
59.83610763645834
 20
206.1884739320082
 30
0.0
 11
61.71110763645834
 21
206.1884739320082
 31
0.0
  0
LINE
  5
2B67
330
2B52
100
AcDbEntity
  8
0
  6
CONTINUOUS
 62
     7
100
AcDbLine
 10
61.71110763645834
 20
203.9884739320081
 30
0.0
 11
61.71110763645834
 21
206.1884739320081
 31
0.0
  0
LINE
  5
2B68
330
2B52
100
AcDbEntity
  8
0
  6
CONTINUOUS
 62
     7
100
AcDbLine
 10
55.23610763645831
 20
206.1884739320082
 30
0.0
 11
53.9611074735754
 21
206.1884739320082
 31
0.0
  0
LINE
  5
2B69
330
2B52
100
AcDbEntity
  8
0
  6
CONTINUOUS
 62
     7
100
AcDbLine
 10
55.23610763645837
 20
203.9884739320081
 30
0.0
 11
53.96110737983274
 21
203.9884739320081
 31
0.0
  0
LINE
  5
2B6A
330
2B52
100
AcDbEntity
  8
0
  6
CONTINUOUS
 62
     7
100
AcDbLine
 10
53.96110747357545
 20
206.1884739320082
 30
0.0
 11
53.96110737983274
 21
203.9884739320081
 31
0.0
  0
LINE
  5
2B6B
330
2B52
100
AcDbEntity
  8
0
  6
CONTINUOUS
 62
     7
100
AcDbLine
 10
55.23610763645837
 20
203.9884739320081
 30
0.0
 11
55.23610763645837
 21
206.1884739320081
 31
0.0
  0
LINE
  5
2B6C
330
2B52
100
AcDbEntity
  8
0
  6
CONTINUOUS
 62
     7
100
AcDbLine
 10
59.83610763645834
 20
206.1884739320082
 30
0.0
 11
59.83610763645834
 21
203.9884739320081
 31
0.0
  0
LINE
  5
2B6D
330
2B52
100
AcDbEntity
  8
0
  6
CONTINUOUS
 62
     7
100
AcDbLine
 10
54.06110969654514
 20
210.0884733370763
 30
0.0
 11
58.58610891560622
 21
210.0884733370763
 31
0.0
  0
LINE
  5
2B6E
330
2B52
100
AcDbEntity
  8
0
  6
CONTINUOUS
 62
     7
100
AcDbLine
 10
54.06110969654514
 20
208.2884739200872
 30
0.0
 11
54.36110966475468
 21
208.5884738978711
 31
0.0
  0
LINE
  5
2B6F
330
2B52
100
AcDbEntity
  8
0
  6
CONTINUOUS
 62
     7
100
AcDbLine
 10
58.58610891560624
 20
208.2884739200872
 30
0.0
 11
58.28610885997393
 21
208.5884738978711
 31
0.0
  0
LINE
  5
2B70
330
2B52
100
AcDbEntity
  8
0
  6
CONTINUOUS
 62
     7
100
AcDbLine
 10
54.36110966475467
 20
208.5884738978711
 30
0.0
 11
58.28610885997389
 21
208.5884738978711
 31
0.0
  0
LINE
  5
2B71
330
2B52
100
AcDbEntity
  8
0
  6
CONTINUOUS
 62
     7
100
AcDbLine
 10
54.06110969654514
 20
208.2884739200872
 30
0.0
 11
58.58610891560622
 21
208.2884739200872
 31
0.0
  0
LINE
  5
2B72
330
2B52
100
AcDbEntity
  8
0
  6
CONTINUOUS
 62
     7
100
AcDbLine
 10
54.36110966475467
 20
210.0884733029393
 30
0.0
 11
54.36110966475467
 21
208.5884738978711
 31
0.0
  0
LINE
  5
2B73
330
2B52
100
AcDbEntity
  8
0
  6
CONTINUOUS
 62
     7
100
AcDbLine
 10
54.06110969654514
 20
210.0884733370763
 30
0.0
 11
54.06110969654514
 21
208.2884739200872
 31
0.0
  0
LINE
  5
2B74
330
2B52
100
AcDbEntity
  8
0
  6
CONTINUOUS
 62
     7
100
AcDbLine
 10
58.28610885997386
 20
210.0884733029393
 30
0.0
 11
58.28610885997386
 21
208.5884738978711
 31
0.0
  0
LINE
  5
2B75
330
2B52
100
AcDbEntity
  8
0
  6
CONTINUOUS
 62
     7
100
AcDbLine
 10
58.58610891560624
 20
210.0884733370763
 30
0.0
 11
58.58610891560624
 21
208.2884739200872
 31
0.0
  0
LINE
  5
2B76
330
2B52
100
AcDbEntity
  8
0
  6
CONTINUOUS
 62
     7
100
AcDbLine
 10
53.31110775745933
 20
190.7134768566241
 30
0.0
 11
53.11110774573683
 21
190.7134768566241
 31
0.0
  0
LINE
  5
2B77
330
2B52
100
AcDbEntity
  8
0
  6
CONTINUOUS
 62
     7
100
AcDbLine
 10
53.31110775745933
 20
191.513476856624
 30
0.0
 11
53.11110774573683
 21
191.513476856624
 31
0.0
  0
LINE
  5
2B78
330
2B52
100
AcDbEntity
  8
0
  6
CONTINUOUS
 62
     7
100
AcDbLine
 10
64.31110774573688
 20
182.5134768664317
 30
0.0
 11
64.31110774573688
 21
182.3134768566241
 31
0.0
  0
LINE
  5
2B79
330
2B52
100
AcDbEntity
  8
0
  6
CONTINUOUS
 62
     7
100
AcDbLine
 10
63.51110774573687
 20
182.5134768664317
 30
0.0
 11
63.51110774573687
 21
182.3134768566241
 31
0.0
  0
LINE
  5
2B7A
330
2B52
100
AcDbEntity
  8
0
  6
CONTINUOUS
 62
     7
100
AcDbLine
 10
53.31110775745935
 20
190.7134768634515
 30
0.0
 11
61.11110775447912
 21
190.7134768634515
 31
0.0
  0
LINE
  5
2B7B
330
2B52
100
AcDbEntity
  8
0
  6
CONTINUOUS
 62
     7
100
AcDbLine
 10
61.11110775447912
 20
191.5134768634514
 30
0.0
 11
53.31110775745937
 21
191.5134768634514
 31
0.0
  0
LINE
  5
2B7C
330
2B52
100
AcDbEntity
  8
0
  6
CONTINUOUS
 62
     7
100
AcDbLine
 10
53.11110774573683
 20
191.513476856624
 30
0.0
 11
53.11110774573683
 21
190.713476856624
 31
0.0
  0
LINE
  5
2B7D
330
2B52
100
AcDbEntity
  8
0
  6
CONTINUOUS
 62
     7
100
AcDbLine
 10
64.31110775447916
 20
182.5134768664317
 30
0.0
 11
64.31110775447915
 21
188.3134768634515
 31
0.0
  0
LINE
  5
2B7E
330
2B52
100
AcDbEntity
  8
0
  6
CONTINUOUS
 62
     7
100
AcDbLine
 10
63.5111077544791
 20
188.3134768634515
 30
0.0
 11
63.5111077544791
 21
182.5134768664317
 31
0.0
  0
LINE
  5
2B7F
330
2B52
100
AcDbEntity
  8
0
  6
CONTINUOUS
 62
     7
100
AcDbLine
 10
63.51110774573687
 20
182.3134768566241
 30
0.0
 11
64.31110774573686
 21
182.3134768566241
 31
0.0
  0
LINE
  5
2B80
330
2B52
100
AcDbEntity
  8
0
  6
CONTINUOUS
 62
     7
100
AcDbLine
 10
54.61110762723058
 20
183.3884764969862
 30
0.0
 11
58.59152698662296
 21
183.3884764969862
 31
0.0
  0
LINE
  5
2B81
330
2B52
100
AcDbEntity
  8
0
  6
CONTINUOUS
 62
     7
100
AcDbLine
 10
57.28098060830837
 20
185.3884764969862
 30
0.0
 11
58.0556286017607
 21
185.3884764969862
 31
0.0
  0
LINE
  5
2B82
330
2B52
100
AcDbEntity
  8
0
  6
CONTINUOUS
 62
     7
100
AcDbLine
 10
58.05562861268857
 20
185.3884765055204
 30
0.0
 11
58.61110763815842
 21
185.3884765055204
 31
0.0
  0
LINE
  5
2B83
330
2B52
100
AcDbEntity
  8
0
  6
CONTINUOUS
 62
     7
100
AcDbLine
 10
58.59152699755083
 20
183.3884765055204
 30
0.0
 11
58.61110763815844
 21
183.3884765055204
 31
0.0
  0
LINE
  5
2B84
330
2B52
100
AcDbEntity
  8
0
  6
CONTINUOUS
 62
     7
100
AcDbLine
 10
58.61110763815844
 20
185.3884765055204
 30
0.0
 11
58.61110763815844
 21
183.3884765055204
 31
0.0
  0
LINE
  5
2B85
330
2B52
100
AcDbEntity
  8
0
  6
CONTINUOUS
 62
     7
100
AcDbLine
 10
53.11110762553051
 20
182.5134767657274
 30
0.0
 11
53.1111076255305
 21
187.6647654572384
 31
0.0
  0
LINE
  5
2B86
330
2B52
100
AcDbEntity
  8
0
  6
CONTINUOUS
 62
     7
100
AcDbLine
 10
53.31110762851074
 20
182.3134767627472
 30
0.0
 11
58.87957229727596
 21
182.3134767627472
 31
0.0
  0
ARC
  5
2B87
330
2B52
100
AcDbEntity
  8
0
  6
CONTINUOUS
 62
     7
100
AcDbCircle
 10
53.31110762851074
 20
182.5134767657274
 30
0.0
 40
0.2000000029802323
100
AcDbArc
 50
180.0
 51
270.0
  0
LINE
  5
2B88
330
2B52
100
AcDbEntity
  8
0
  6
CONTINUOUS
 62
     7
100
AcDbLine
 10
53.11110763645842
 20
188.3134767271196
 30
0.0
 11
53.11110763645842
 21
187.6647654657726
 31
0.0
  0
LINE
  5
2B89
330
2B52
100
AcDbEntity
  8
0
  6
CONTINUOUS
 62
     7
100
AcDbLine
 10
53.11110763645842
 20
190.7134767712814
 30
0.0
 11
53.11110763645842
 21
188.3134769588189
 31
0.0
  0
LINE
  5
2B8A
330
2B52
100
AcDbEntity
  8
0
  6
CONTINUOUS
 62
     7
100
AcDbLine
 10
58.87957230820382
 20
182.3134767712815
 30
0.0
 11
63.51110763645836
 21
182.3134767712815
 31
0.0
  0
LINE
  5
2B8B
330
2B52
100
AcDbEntity
  8
0
  6
CONTINUOUS
 62
     7
100
AcDbLine
 10
54.61110762723058
 20
183.3884764969862
 30
0.0
 11
54.61110762723058
 21
185.3884764969862
 31
0.0
  0
LINE
  5
2B8C
330
2B52
100
AcDbEntity
  8
0
  6
CONTINUOUS
 62
     7
100
AcDbLine
 10
54.61110774743691
 20
185.913476856624
 30
0.0
 11
53.94123465708062
 21
185.9134767712814
 31
0.0
  0
LINE
  5
2B8D
330
2B52
100
AcDbEntity
  8
0
  6
CONTINUOUS
 62
     7
100
AcDbLine
 10
57.28098061923629
 20
185.3884765055204
 30
0.0
 11
57.28098061923629
 21
185.9134767712814
 31
0.0
  0
LINE
  5
2B8E
330
2B52
100
AcDbEntity
  8
0
  6
CONTINUOUS
 62
     7
100
AcDbLine
 10
53.9412346570806
 20
185.3884765055204
 30
0.0
 11
53.9412346570806
 21
185.9134767712814
 31
0.0
  0
ARC
  5
2B8F
330
2B52
100
AcDbEntity
  8
0
  6
CONTINUOUS
 62
     7
100
AcDbCircle
 10
61.11110775447912
 20
188.3134768634515
 30
0.0
 40
2.399999999999999
100
AcDbArc
 50
0.0
 51
90.0
  0
LINE
  5
2B90
330
2B52
100
AcDbEntity
  8
0
  6
CONTINUOUS
 62
     7
100
AcDbLine
 10
64.08610993763693
 20
180.0884792811892
 30
0.0
 11
61.08611017605554
 21
180.0884792811892
 31
0.0
  0
LINE
  5
2B91
330
2B52
100
AcDbEntity
  8
0
  6
CONTINUOUS
 62
     7
100
AcDbLine
 10
64.08610993763693
 20
182.254289755414
 30
0.0
 11
61.08611017605554
 21
182.254289755414
 31
0.0
  0
LINE
  5
2B92
330
2B52
100
AcDbEntity
  8
0
  6
CONTINUOUS
 62
     7
100
AcDbLine
 10
61.08611017605551
 20
182.254289755414
 30
0.0
 11
61.08611017605551
 21
180.0884792811892
 31
0.0
  0
ARC
  5
2B93
330
2B52
100
AcDbEntity
  8
0
  6
CONTINUOUS
 62
     7
100
AcDbCircle
 10
65.08611801379093
 20
210.8884841205986
 30
0.0
 40
0.1999892335711711
100
AcDbArc
 50
359.9990963835442
 51
90.00090361644742
  0
ARC
  5
2B94
330
2B52
100
AcDbEntity
  8
0
  6
CONTINUOUS
 62
     7
100
AcDbCircle
 10
53.08609775309128
 20
210.8884841205985
 30
0.0
 40
0.1999892335711777
100
AcDbArc
 50
89.99909638353427
 51
180.0009036164374
  0
ARC
  5
2B95
330
2B52
100
AcDbEntity
  8
0
  6
CONTINUOUS
 62
     7
100
AcDbCircle
 10
65.08611801379103
 20
182.2884678661316
 30
0.0
 40
0.1999892335711214
100
AcDbArc
 50
269.9990963835322
 51
0.0009036164680083
  0
ARC
  5
2B96
330
2B52
100
AcDbEntity
  8
0
  6
CONTINUOUS
 62
     7
100
AcDbCircle
 10
53.08609775309117
 20
182.2884678661316
 30
0.0
 40
0.1999892335710712
100
AcDbArc
 50
179.999096383536
 51
270.0009036164963
  0
LINE
  5
2B97
330
2B52
100
AcDbEntity
  8
0
  6
CONTINUOUS
 62
     7
100
AcDbLine
 10
65.2861072473373
 20
182.2884710201782
 30
0.0
 11
65.28610724733727
 21
202.788475459476
 31
0.0
  0
LINE
  5
2B98
330
2B52
100
AcDbEntity
  8
0
  6
CONTINUOUS
 62
     7
100
AcDbLine
 10
52.88610851954501
 20
205.9884749481119
 30
0.0
 11
52.88610851954501
 21
210.888480966552
 31
0.0
  0
LINE
  5
2B99
330
2B52
100
AcDbEntity
  8
0
  6
CONTINUOUS
 62
     7
100
AcDbLine
 10
54.08611113417987
 20
182.2542897578693
 30
0.0
 11
54.08611113417987
 21
180.0884792811893
 31
0.0
  0
LINE
  5
2B9A
330
2B52
100
AcDbEntity
  8
0
  6
CONTINUOUS
 62
     7
100
AcDbLine
 10
64.08610993763693
 20
182.254289755414
 30
0.0
 11
64.08610993763693
 21
180.0884792811892
 31
0.0
  0
LINE
  5
2B9B
330
2B52
100
AcDbEntity
  8
0
  6
CONTINUOUS
 62
     7
100
AcDbLine
 10
60.18610888171213
 20
182.2891973655805
 30
0.0
 11
60.18610888171213
 21
181.5884766973201
 31
0.0
  0
LINE
  5
2B9C
330
2B52
100
AcDbEntity
  8
0
  6
CONTINUOUS
 62
     7
100
AcDbLine
 10
57.9861088817122
 20
182.2891973655805
 30
0.0
 11
57.9861088817122
 21
181.5884766973201
 31
0.0
  0
LINE
  5
2B9D
330
2B52
100
AcDbEntity
  8
0
  6
CONTINUOUS
 62
     7
100
AcDbLine
 10
60.18610888171213
 20
181.5884766973201
 30
0.0
 11
57.98610888171213
 21
181.5884766973201
 31
0.0
  0
LINE
  5
2B9E
330
2B52
100
AcDbEntity
  8
0
  6
CONTINUOUS
 62
     7
100
AcDbLine
 10
60.18610888171213
 20
182.2891973655805
 30
0.0
 11
57.98610888171213
 21
182.2891973655805
 31
0.0
  0
LINE
  5
2B9F
330
2B52
100
AcDbEntity
  8
0
  6
CONTINUOUS
 62
     7
100
AcDbLine
 10
53.10951745399996
 20
205.4884740829459
 30
0.0
 11
53.10951745399998
 21
186.8883742084162
 31
0.0
  0
LINE
  5
2BA0
330
2B52
100
AcDbEntity
  8
0
  6
CONTINUOUS
 62
     7
100
AcDbLine
 10
65.06270055090539
 20
186.8883742084162
 30
0.0
 11
65.06270055090536
 21
205.4884740829459
 31
0.0
  0
LINE
  5
2BA1
330
2B52
100
AcDbEntity
  8
0
  6
CONTINUOUS
 62
     7
100
AcDbLine
 10
57.98610787635027
 20
182.0884786325853
 30
0.0
 11
57.08610959600122
 21
182.0884786325853
 31
0.0
  0
LINE
  5
2BA2
330
2B52
100
AcDbEntity
  8
0
  6
CONTINUOUS
 62
     7
100
AcDbLine
 10
61.08610934553922
 20
182.0884786325853
 30
0.0
 11
60.18610787919946
 21
182.0884786325853
 31
0.0
  0
LINE
  5
2BA3
330
2B52
100
AcDbEntity
  8
0
  6
CONTINUOUS
 62
     7
100
AcDbLine
 10
57.08611042651757
 20
180.0884792811892
 30
0.0
 11
54.08611113417983
 21
180.0884792811892
 31
0.0
  0
LINE
  5
2BA4
330
2B52
100
AcDbEntity
  8
0
  6
CONTINUOUS
 62
     7
100
AcDbLine
 10
57.0861104265175
 20
182.2542897578693
 30
0.0
 11
54.08611113417978
 21
182.2542897578693
 31
0.0
  0
LINE
  5
2BA5
330
2B52
100
AcDbEntity
  8
0
  6
CONTINUOUS
 62
     7
100
AcDbLine
 10
57.0861104265175
 20
182.2542897578693
 30
0.0
 11
57.0861104265175
 21
180.0884792811893
 31
0.0
  0
LINE
  5
2BA6
330
2B52
100
AcDbEntity
  8
0
  6
CONTINUOUS
 62
     7
100
AcDbLine
 10
61.96277342355102
 20
188.0080012693538
 30
0.0
 11
61.96277342355102
 21
188.6189518128743
 31
0.0
  0
LINE
  5
2BA7
330
2B52
100
AcDbEntity
  8
0
  6
CONTINUOUS
 62
     7
100
AcDbLine
 10
60.80563242589409
 20
187.4618107692337
 30
0.0
 11
61.41658296941457
 21
187.4618107692337
 31
0.0
  0
LINE
  5
2BA8
330
2B52
100
AcDbEntity
  8
0
  6
CONTINUOUS
 62
     7
100
AcDbLine
 10
60.2594419257739
 20
188.6189517668908
 30
0.0
 11
60.25944192577391
 21
188.0080012233703
 31
0.0
  0
LINE
  5
2BA9
330
2B52
100
AcDbEntity
  8
0
  6
CONTINUOUS
 62
     7
100
AcDbLine
 10
61.41658292343089
 20
189.1651422670109
 30
0.0
 11
60.8056323799104
 21
189.1651422670109
 31
0.0
  0
LINE
  5
2BAA
330
2B52
100
AcDbEntity
  8
0
  6
CONTINUOUS
 62
     7
100
AcDbLine
 10
60.83610770849543
 20
189.5134762615495
 30
0.0
 11
60.76169130992211
 21
188.6628929336732
 31
0.0
  0
LINE
  5
2BAB
330
2B52
100
AcDbEntity
  8
0
  6
CONTINUOUS
 62
     7
100
AcDbLine
 10
60.76169130992212
 20
188.6628929336732
 30
0.0
 11
59.91110803243827
 21
188.5884765395087
 31
0.0
  0
LINE
  5
2BAC
330
2B52
100
AcDbEntity
  8
0
  6
CONTINUOUS
 62
     7
100
AcDbLine
 10
59.91110803243827
 20
188.5884765395086
 30
0.0
 11
59.91110803243828
 21
188.0384765395086
 31
0.0
  0
LINE
  5
2BAD
330
2B52
100
AcDbEntity
  8
0
  6
CONTINUOUS
 62
     7
100
AcDbLine
 10
59.91110803243827
 20
188.0384765395087
 30
0.0
 11
60.76169136031455
 21
187.9640601409354
 31
0.0
  0
LINE
  5
2BAE
330
2B52
100
AcDbEntity
  8
0
  6
CONTINUOUS
 62
     7
100
AcDbLine
 10
60.76169136031456
 20
187.9640601409353
 30
0.0
 11
60.83610775447912
 21
187.1134768634515
 31
0.0
  0
LINE
  5
2BAF
330
2B52
100
AcDbEntity
  8
0
  6
CONTINUOUS
 62
     7
100
AcDbLine
 10
60.83610775447914
 20
187.1134768634514
 30
0.0
 11
61.38610775447914
 21
187.1134768634514
 31
0.0
  0
LINE
  5
2BB0
330
2B52
100
AcDbEntity
  8
0
  6
CONTINUOUS
 62
     7
100
AcDbLine
 10
61.3861077544791
 20
187.1134768634514
 30
0.0
 11
61.46052415305242
 21
187.9640601913277
 31
0.0
  0
LINE
  5
2BB1
330
2B52
100
AcDbEntity
  8
0
  6
CONTINUOUS
 62
     7
100
AcDbLine
 10
61.46052415305246
 20
187.9640601913277
 30
0.0
 11
62.3111074305363
 21
188.0384765854923
 31
0.0
  0
LINE
  5
2BB2
330
2B52
100
AcDbEntity
  8
0
  6
CONTINUOUS
 62
     7
100
AcDbLine
 10
62.31110743053631
 20
188.0384765854923
 30
0.0
 11
62.31110743053631
 21
188.5884765854923
 31
0.0
  0
LINE
  5
2BB3
330
2B52
100
AcDbEntity
  8
0
  6
CONTINUOUS
 62
     7
100
AcDbLine
 10
62.31110743053625
 20
188.5884765854924
 30
0.0
 11
61.46052410265998
 21
188.6628929840657
 31
0.0
  0
LINE
  5
2BB4
330
2B52
100
AcDbEntity
  8
0
  6
CONTINUOUS
 62
     7
100
AcDbLine
 10
61.46052410266003
 20
188.6628929840656
 30
0.0
 11
61.38610770849546
 21
189.5134762615495
 31
0.0
  0
LINE
  5
2BB5
330
2B52
100
AcDbEntity
  8
0
  6
CONTINUOUS
 62
     7
100
AcDbLine
 10
61.3861077084955
 20
189.5134762615495
 30
0.0
 11
60.8361077084955
 21
189.5134762615495
 31
0.0
  0
LINE
  5
2BB6
330
2B52
100
AcDbEntity
  8
0
  6
CONTINUOUS
 62
     7
100
AcDbLine
 10
55.84247869974501
 20
186.7134768634515
 30
0.0
 11
59.32225337247927
 21
186.7134768634515
 31
0.0
  0
ARC
  5
2BB7
330
2B52
100
AcDbEntity
  8
0
  6
CONTINUOUS
 62
     7
100
AcDbCircle
 10
61.11110775447912
 20
188.3134768634515
 30
0.0
 40
2.400000000000003
100
AcDbArc
 50
199.4712206344913
 51
221.8103148957784
  0
LINE
  5
2BB8
330
2B52
100
AcDbEntity
  8
0
  6
CONTINUOUS
 62
     7
100
AcDbLine
 10
58.84836605468217
 20
187.5134768634514
 30
0.0
 11
56.17384954964351
 21
187.5134768634514
 31
0.0
  0
LINE
  5
2BB9
330
2B52
100
AcDbEntity
  8
0
  6
CONTINUOUS
 62
     7
100
AcDbLine
 10
56.17384954964347
 20
187.5134768634514
 30
0.0
 11
55.37384954964347
 21
188.3134768634514
 31
0.0
  0
LINE
  5
2BBA
330
2B52
100
AcDbEntity
  8
0
  6
CONTINUOUS
 62
     7
100
AcDbLine
 10
55.37384954964352
 20
188.3134768634515
 30
0.0
 11
56.17384954964352
 21
189.1134768634515
 31
0.0
  0
LINE
  5
2BBB
330
2B52
100
AcDbEntity
  8
0
  6
CONTINUOUS
 62
     7
100
AcDbLine
 10
56.17384954964347
 20
189.1134768634514
 30
0.0
 11
58.84836605468214
 21
189.1134768634514
 31
0.0
  0
ARC
  5
2BBC
330
2B52
100
AcDbEntity
  8
0
  6
CONTINUOUS
 62
     7
100
AcDbCircle
 10
61.11110775447912
 20
188.3134768634515
 30
0.0
 40
2.4
100
AcDbArc
 50
138.189685104221
 51
160.5287793655097
  0
LINE
  5
2BBD
330
2B52
100
AcDbEntity
  8
0
  6
CONTINUOUS
 62
     7
100
AcDbLine
 10
59.32225337247928
 20
189.9134768634515
 30
0.0
 11
55.84247869974503
 21
189.9134768634515
 31
0.0
  0
LINE
  5
2BBE
330
2B52
100
AcDbEntity
  8
0
  6
CONTINUOUS
 62
     7
100
AcDbLine
 10
55.84247869974501
 20
189.9134768634515
 30
0.0
 11
54.24247869974501
 21
188.3134768634515
 31
0.0
  0
LINE
  5
2BBF
330
2B52
100
AcDbEntity
  8
0
  6
CONTINUOUS
 62
     7
100
AcDbLine
 10
54.24247869974505
 20
188.3134768634515
 30
0.0
 11
55.84247869974505
 21
186.7134768634515
 31
0.0
  0
LINE
  5
2BC0
330
2B52
100
AcDbEntity
  8
0
  6
CONTINUOUS
 62
     7
100
AcDbLine
 10
55.51110784984655
 20
185.9134768634515
 30
0.0
 11
61.11110775447912
 21
185.9134768634515
 31
0.0
  0
LINE
  5
2BC1
330
2B52
100
AcDbEntity
  8
0
  6
CONTINUOUS
 62
     7
100
AcDbLine
 10
53.11110775447912
 20
188.3134769588189
 30
0.0
 11
55.51110784984655
 21
185.9134768634515
 31
0.0
  0
LINE
  5
2BC2
330
2B52
100
AcDbEntity
  8
0
  6
CONTINUOUS
 62
     7
100
AcDbLine
 10
53.11110775447912
 20
188.313476768084
 30
0.0
 11
55.51110784984654
 21
190.7134768634515
 31
0.0
  0
ARC
  5
2BC3
330
2B52
100
AcDbEntity
  8
0
  6
CONTINUOUS
 62
     7
100
AcDbCircle
 10
61.11110775447912
 20
188.3134768634515
 30
0.0
 40
2.399999999999999
100
AcDbArc
 50
270.0000000000001
 51
359.9999999999994
  0
LINE
  5
2BC4
330
2B52
100
AcDbEntity
  8
0
  6
CONTINUOUS
 62
     7
100
AcDbLine
 10
52.88610809752118
 20
197.6884752814081
 30
0.0
 11
52.88610809752117
 21
202.788475459476
 31
0.0
  0
LINE
  5
2BC5
330
2B52
100
AcDbEntity
  8
0
  6
CONTINUOUS
 62
     7
100
AcDbLine
 10
52.88609759753524
 20
210.8884809665519
 30
0.0
 11
52.88609759753524
 21
211.0884705603375
 31
0.0
  0
LINE
  5
2BC6
330
2B52
100
AcDbEntity
  8
0
  6
CONTINUOUS
 62
     7
100
AcDbLine
 10
65.28609839292975
 20
211.0884705603374
 30
0.0
 11
65.28609839292975
 21
210.8884809665519
 31
0.0
  0
LINE
  5
2BC7
330
2B52
100
AcDbEntity
  8
0
  6
CONTINUOUS
 62
     7
100
AcDbLine
 10
65.0861148597443
 20
211.0884705603374
 30
0.0
 11
65.28610756811452
 21
211.0884705603374
 31
0.0
  0
LINE
  5
2BC8
330
2B52
100
AcDbEntity
  8
0
  6
CONTINUOUS
 62
     7
100
AcDbLine
 10
52.88609759753524
 20
211.0884705603376
 30
0.0
 11
65.28610756811449
 21
211.0884705603374
 31
0.0
  0
LINE
  5
2BC9
330
2B52
100
AcDbEntity
  8
0
  6
CONTINUOUS
 62
     7
100
AcDbLine
 10
52.88610809752118
 20
202.788475459476
 30
0.0
 11
52.88610809752117
 21
205.9884749481119
 31
0.0
  0
LINE
  5
2BCA
330
2B52
100
AcDbEntity
  8
0
  6
CONTINUOUS
 62
     7
100
AcDbLine
 10
65.28610756811452
 20
211.0884705603374
 30
0.0
 11
65.28610756811452
 21
202.788475459476
 31
0.0
  0
ENDBLK
  5
2BCC
330
2B52
100
AcDbEntity
  8
0
100
AcDbBlockEnd
  0
BLOCK
  5
2BE8
330
2BCD
100
AcDbEntity
  8
0
100
AcDbBlockBegin
  2
D1
 70
     0
 10
0.0
 20
0.0
 30
0.0
  3
D1
  1

  0
INSERT
  5
2BCE
330
2BCD
100
AcDbEntity
  8
0
100
AcDbBlockReference
  2
NON_RELAZIONATI
 10
0.0
 20
0.0
 30
0.0
  0
LINE
  5
2BCF
330
2BCD
100
AcDbEntity
  8
0
  6
CONTINUOUS
 62
     1
100
AcDbLine
 10
52.13610778111768
 20
171.488470025827
 30
0.0
 11
66.03637298245651
 21
171.488470025827
 31
0.0
  0
ARC
  5
2BD0
330
2BCD
100
AcDbEntity
  8
0
  6
CONTINUOUS
 62
     1
100
AcDbCircle
 10
52.1361077930386
 20
172.2884700377479
 30
0.0
 40
0.8000000119209289
100
AcDbArc
 50
180.0
 51
270.0
  0
ARC
  5
2BD1
330
2BCD
100
AcDbEntity
  8
0
  6
CONTINUOUS
 62
     1
100
AcDbCircle
 10
66.03610776919675
 20
172.2884700377479
 30
0.0
 40
0.8000000119209289
100
AcDbArc
 50
270.0
 51
0.0
  0
LINE
  5
2BD2
330
2BCD
100
AcDbEntity
  8
0
  6
CONTINUOUS
 62
     1
100
AcDbLine
 10
52.1361077930386
 20
181.9884697766721
 30
0.0
 11
51.33610778111767
 21
181.9884697766721
 31
0.0
  0
LINE
  5
2BD3
330
2BCD
100
AcDbEntity
  8
0
  6
CONTINUOUS
 62
     1
100
AcDbLine
 10
54.08611113417987
 20
181.988469741703
 30
0.0
 11
52.1361077930386
 21
181.988469741703
 31
0.0
  0
LINE
  5
2BD4
330
2BCD
100
AcDbEntity
  8
0
  6
CONTINUOUS
 62
     1
100
AcDbLine
 10
51.33610778111767
 20
177.9884695859372
 30
0.0
 11
51.33610778111767
 21
181.9884697766721
 31
0.0
  0
LINE
  5
2BD5
330
2BCD
100
AcDbEntity
  8
0
  6
CONTINUOUS
 62
     1
100
AcDbLine
 10
51.33610778111767
 20
172.2884700377479
 30
0.0
 11
51.33610778111767
 21
177.9884695859372
 31
0.0
  0
LINE
  5
2BD6
330
2BCD
100
AcDbEntity
  8
0
  6
CONTINUOUS
 62
     1
100
AcDbLine
 10
66.03610776919675
 20
181.9884697766721
 30
0.0
 11
66.83610778111767
 21
181.9884697766721
 31
0.0
  0
LINE
  5
2BD7
330
2BCD
100
AcDbEntity
  8
0
  6
CONTINUOUS
 62
     1
100
AcDbLine
 10
66.83610778111767
 20
177.9884695859372
 30
0.0
 11
66.83610778111767
 21
181.9884697766721
 31
0.0
  0
LINE
  5
2BD8
330
2BCD
100
AcDbEntity
  8
0
  6
CONTINUOUS
 62
     1
100
AcDbLine
 10
66.83610778111767
 20
172.2884700377479
 30
0.0
 11
66.83610778111767
 21
177.9884695859372
 31
0.0
  0
LINE
  5
2BD9
330
2BCD
100
AcDbEntity
  8
0
  6
CONTINUOUS
 62
     1
100
AcDbLine
 10
59.08610776606753
 20
176.9384686058137
 30
0.0
 11
54.58610776904777
 21
177.9384686058137
 31
0.0
  0
LINE
  5
2BDA
330
2BCD
100
AcDbEntity
  8
0
  6
CONTINUOUS
 62
     1
100
AcDbLine
 10
63.58610776904772
 20
177.9384686058137
 30
0.0
 11
59.08610776606749
 21
176.9384686058137
 31
0.0
  0
LINE
  5
2BDB
330
2BCD
100
AcDbEntity
  8
0
  6
CONTINUOUS
 62
     1
100
AcDbLine
 10
59.08610777202795
 20
178.9384686058137
 30
0.0
 11
63.58610776904772
 21
177.9384686058137
 31
0.0
  0
LINE
  5
2BDC
330
2BCD
100
AcDbEntity
  8
0
  6
CONTINUOUS
 62
     1
100
AcDbLine
 10
54.58610776904777
 20
177.9384686058137
 30
0.0
 11
59.086107772028
 21
178.9384686058137
 31
0.0
  0
LINE
  5
2BDD
330
2BCD
100
AcDbEntity
  8
0
  6
CONTINUOUS
 62
     1
100
AcDbLine
 10
59.08610777194588
 20
178.3532741865624
 30
0.0
 11
57.21948257699835
 21
177.9384685879598
 31
0.0
  0
LINE
  5
2BDE
330
2BCD
100
AcDbEntity
  8
0
  6
CONTINUOUS
 62
     1
100
AcDbLine
 10
60.95273296109713
 20
177.9384685886985
 30
0.0
 11
59.08610777194592
 21
178.3532741865624
 31
0.0
  0
LINE
  5
2BDF
330
2BCD
100
AcDbEntity
  8
0
  6
CONTINUOUS
 62
     1
100
AcDbLine
 10
59.08610777202795
 20
178.9384686058137
 30
0.0
 11
59.08610777194589
 21
178.3532741865624
 31
0.0
  0
LINE
  5
2BE0
330
2BCD
100
AcDbEntity
  8
0
  6
CONTINUOUS
 62
     1
100
AcDbLine
 10
59.08610776614955
 20
177.523662990096
 30
0.0
 11
60.95273296109708
 21
177.9384685886985
 31
0.0
  0
LINE
  5
2BE1
330
2BCD
100
AcDbEntity
  8
0
  6
CONTINUOUS
 62
     1
100
AcDbLine
 10
63.58610776904772
 20
177.9384686058137
 30
0.0
 11
60.95273296109708
 21
177.9384685886985
 31
0.0
  0
LINE
  5
2BE2
330
2BCD
100
AcDbEntity
  8
0
  6
CONTINUOUS
 62
     1
100
AcDbLine
 10
57.21948257699835
 20
177.9384685879598
 30
0.0
 11
59.08610776614956
 21
177.523662990096
 31
0.0
  0
LINE
  5
2BE3
330
2BCD
100
AcDbEntity
  8
0
  6
CONTINUOUS
 62
     1
100
AcDbLine
 10
59.08610776606753
 20
176.9384686058137
 30
0.0
 11
59.0861077661496
 21
177.523662990096
 31
0.0
  0
LINE
  5
2BE4
330
2BCD
100
AcDbEntity
  8
0
  6
CONTINUOUS
 62
     1
100
AcDbLine
 10
54.58610776904777
 20
177.9384686058137
 30
0.0
 11
57.2194825769984
 21
177.9384685879599
 31
0.0
  0
LINE
  5
2BE5
330
2BCD
100
AcDbEntity
  8
0
  6
CONTINUOUS
 62
     1
100
AcDbLine
 10
57.9861088817122
 20
181.988469741703
 30
0.0
 11
57.0861104265175
 21
181.988469741703
 31
0.0
  0
LINE
  5
2BE6
330
2BCD
100
AcDbEntity
  8
0
  6
CONTINUOUS
 62
     1
100
AcDbLine
 10
66.03610776919675
 20
181.988469741703
 30
0.0
 11
64.08610993763693
 21
181.988469741703
 31
0.0
  0
LINE
  5
2BE7
330
2BCD
100
AcDbEntity
  8
0
  6
CONTINUOUS
 62
     1
100
AcDbLine
 10
61.08611017605551
 20
181.988469741703
 30
0.0
 11
60.18610888171213
 21
181.988469741703
 31
0.0
  0
ENDBLK
  5
2BE9
330
2BCD
100
AcDbEntity
  8
0
100
AcDbBlockEnd
  0
BLOCK
  5
2BEF
330
2BEA
100
AcDbEntity
  8
0
100
AcDbBlockBegin
  2
LW_POLYLINE_2
 70
     0
 10
0.0
 20
0.0
 30
0.0
  3
LW_POLYLINE_2
  1

  0
LINE
  5
2BEB
330
2BEA
100
AcDbEntity
  8
5
  6
CONTINUOUS
 62
     7
100
AcDbLine
 10
108.6061888656037
 20
236.5882406460014
 30
0.0
 11
108.6061888656037
 21
240.5882405708013
 31
0.0
  0
LINE
  5
2BEC
330
2BEA
100
AcDbEntity
  8
5
  6
CONTINUOUS
 62
     7
100
AcDbLine
 10
108.6061888656037
 20
240.5882405708012
 30
0.0
 11
110.6061888280037
 21
240.5882405708012
 31
0.0
  0
LINE
  5
2BED
330
2BEA
100
AcDbEntity
  8
5
  6
CONTINUOUS
 62
     7
100
AcDbLine
 10
110.6061888280037
 20
240.5882405708012
 30
0.0
 11
110.6061888280037
 21
236.5882406460012
 31
0.0
  0
LINE
  5
2BEE
330
2BEA
100
AcDbEntity
  8
5
  6
CONTINUOUS
 62
     7
100
AcDbLine
 10
110.6061888280037
 20
236.5882406460014
 30
0.0
 11
108.6061888656037
 21
236.5882406460014
 31
0.0
  0
ENDBLK
  5
2BF0
330
2BEA
100
AcDbEntity
  8
0
100
AcDbBlockEnd
  0
BLOCK
  5
2BF2
330
2BF1
100
AcDbEntity
  8
0
100
AcDbBlockBegin
  2
NON_RELAZIONATI
 70
     0
 10
0.0
 20
0.0
 30
0.0
  3
NON_RELAZIONATI
  1

  0
ENDBLK
  5
2BF3
330
2BF1
100
AcDbEntity
  8
0
100
AcDbBlockEnd
  0
BLOCK
  5
303A
330
3030
100
AcDbEntity
  8
0
100
AcDbBlockBegin
  2
*D39
 70
     1
 10
0.0
 20
0.0
 30
0.0
  3
*D39
  1

  0
LINE
  5
3233
330
3030
100
AcDbEntity
  8
DIM
 62
     0
100
AcDbLine
 10
74.79999979168678
 20
231.6469988818171
 30
0.0
 11
74.79999979168678
 21
245.1627883384374
 31
0.0
  0
LINE
  5
3234
330
3030
100
AcDbEntity
  8
DIM
 62
     0
100
AcDbLine
 10
59.00000008872666
 20
231.6469988818171
 30
0.0
 11
59.00000008872666
 21
245.1627883384374
 31
0.0
  0
LINE
  5
3235
330
3030
100
AcDbEntity
  8
DIM
 62
     0
100
AcDbLine
 10
72.79999979168678
 20
244.4961216717707
 30
0.0
 11
61.00000008872666
 21
244.4961216717707
 31
0.0
  0
SOLID
  5
3236
330
3030
100
AcDbEntity
  8
DIM
 62
     0
100
AcDbTrace
 10
72.79999979168678
 20
244.8294550051041
 30
0.0
 11
72.79999979168678
 21
244.1627883384374
 31
0.0
 12
74.79999979168678
 22
244.4961216717707
 32
0.0
 13
74.79999979168678
 23
244.4961216717707
 33
0.0
  0
SOLID
  5
3237
330
3030
100
AcDbEntity
  8
DIM
 62
     0
100
AcDbTrace
 10
61.00000008872666
 20
244.8294550051041
 30
0.0
 11
61.00000008872666
 21
244.1627883384374
 31
0.0
 12
59.00000008872666
 22
244.4961216717707
 32
0.0
 13
59.00000008872666
 23
244.4961216717707
 33
0.0
  0
MTEXT
  5
3238
330
3030
100
AcDbEntity
  8
DIM
 62
     2
100
AcDbMText
 10
66.89999994020666
 20
245.9257260373915
 30
0.0
 40
2.0
 41
0.0
 71
     5
 72
     1
  1
\A1;15.8
  7
TSTYLE6
1001
ACAD
1000
MTEXTBEGIN
1070
    73
1070
     1
1070
    44
1040
1.0
1070
    74
1070
     0
1000
MTEXTEND
  0
POINT
  5
3239
330
3030
100
AcDbEntity
  8
DEFPOINTS
 62
     0
100
AcDbPoint
 10
74.79999979168678
 20
231.3469988644953
 30
0.0
  0
POINT
  5
323A
330
3030
100
AcDbEntity
  8
DEFPOINTS
 62
     0
100
AcDbPoint
 10
59.00000008872666
 20
231.3469988644953
 30
0.0
  0
POINT
  5
323B
330
3030
100
AcDbEntity
  8
DEFPOINTS
 62
     0
100
AcDbPoint
 10
59.00000008872666
 20
244.4961216717707
 30
0.0
  0
ENDBLK
  5
303B
330
3030
100
AcDbEntity
  8
0
100
AcDbBlockEnd
  0
BLOCK
  5
3046
330
303C
100
AcDbEntity
  8
0
100
AcDbBlockBegin
  2
*D40
 70
     1
 10
0.0
 20
0.0
 30
0.0
  3
*D40
  1

  0
LINE
  5
32A1
330
303C
100
AcDbEntity
  8
DIM
 62
     0
100
AcDbLine
 10
167.7665320232267
 20
166.8544036193605
 30
0.0
 11
167.765759647031
 21
135.9999999017247
 31
0.0
  0
LINE
  5
32A2
330
303C
100
AcDbEntity
  8
DIM
 62
     0
100
AcDbLine
 10
117.9191501507401
 20
170.7970002744848
 30
0.0
 11
117.9182791110266
 21
136.0012477303244
 31
0.0
  0
LINE
  5
32A3
330
303C
100
AcDbEntity
  8
DIM
 62
     0
100
AcDbLine
 10
165.7657763362791
 20
136.6667166340469
 30
0.0
 11
119.9182957990214
 21
136.6678643309178
 31
0.0
  0
SOLID
  5
32A4
330
303C
100
AcDbEntity
  8
DIM
 62
     0
100
AcDbTrace
 10
165.7657846805898
 20
137.0000499672758
 30
0.0
 11
165.7657679919683
 21
136.333383300818
 31
0.0
 12
167.7657763356524
 22
136.6666665681825
 32
0.0
 13
167.7657763356524
 23
136.6666665681825
 33
0.0
  0
SOLID
  5
32A5
330
303C
100
AcDbEntity
  8
DIM
 62
     0
100
AcDbTrace
 10
119.9183041433321
 20
137.0011976641467
 30
0.0
 11
119.9182874547106
 21
136.3345309976889
 31
0.0
 12
117.918295799648
 22
136.6679143967821
 32
0.0
 13
117.918295799648
 23
136.6679143967821
 33
0.0
  0
MTEXT
  5
32A6
330
303C
100
AcDbEntity
  8
DIM
 62
     2
100
AcDbMText
 10
142.8420718548395
 20
138.0968948476551
 30
0.0
 40
2.0
 41
0.0
 71
     5
 72
     1
  1
\A1;49.9
  7
TSTYLE6
 11
0.9999999996866762
 21
-0.0000250329321716
 31
0.0
1001
ACAD
1000
MTEXTBEGIN
1070
    73
1070
     1
1070
    44
1040
1.0
1070
    74
1070
     0
1000
MTEXTEND
  0
POINT
  5
32A7
330
303C
100
AcDbEntity
  8
DEFPOINTS
 62
     0
100
AcDbPoint
 10
167.766539533107
 20
167.1544036451535
 30
0.0
  0
POINT
  5
32A8
330
303C
100
AcDbEntity
  8
DEFPOINTS
 62
     0
100
AcDbPoint
 10
117.9191576606205
 20
171.0970003002778
 30
0.0
  0
POINT
  5
32A9
330
303C
100
AcDbEntity
  8
DEFPOINTS
 62
     0
100
AcDbPoint
 10
117.918295799648
 20
136.6679143967821
 30
0.0
  0
ENDBLK
  5
3047
330
303C
100
AcDbEntity
  8
0
100
AcDbBlockEnd
  0
BLOCK
  5
3052
330
3048
100
AcDbEntity
  8
0
100
AcDbBlockBegin
  2
*D41
 70
     1
 10
0.0
 20
0.0
 30
0.0
  3
*D41
  1

  0
LINE
  5
3298
330
3048
100
AcDbEntity
  8
DIM
 62
     0
100
AcDbLine
 10
149.7200707648049
 20
154.1970002920478
 30
0.0
 11
149.7197650807299
 21
141.9857230477375
 31
0.0
  0
LINE
  5
3299
330
3048
100
AcDbEntity
  8
DIM
 62
     0
100
AcDbLine
 10
117.9191501507404
 20
170.79700028305
 30
0.0
 11
117.9184289399196
 21
141.9865191284283
 31
0.0
  0
LINE
  5
329A
330
3048
100
AcDbEntity
  8
DIM
 62
     0
100
AcDbLine
 10
147.719781769978
 20
142.6524397800596
 30
0.0
 11
119.9184456279144
 21
142.6531357290217
 31
0.0
  0
SOLID
  5
329B
330
3048
100
AcDbEntity
  8
DIM
 62
     0
100
AcDbTrace
 10
147.7197901142887
 20
142.9857731132885
 30
0.0
 11
147.7197734256672
 21
142.3191064468307
 31
0.0
 12
149.7197817693513
 22
142.6523897141952
 32
0.0
 13
149.7197817693513
 23
142.6523897141952
 33
0.0
  0
SOLID
  5
329C
330
3048
100
AcDbEntity
  8
DIM
 62
     0
100
AcDbTrace
 10
119.9184539722251
 20
142.9864690622506
 30
0.0
 11
119.9184372836036
 21
142.3198023957928
 31
0.0
 12
117.918445628541
 22
142.6531857948861
 32
0.0
 13
117.918445628541
 23
142.6531857948861
 33
0.0
  0
MTEXT
  5
329D
330
3048
100
AcDbEntity
  8
DIM
 62
     2
100
AcDbMText
 10
133.8191495100413
 20
144.0833470992493
 30
0.0
 40
2.0
 41
0.0
 71
     5
 72
     1
  1
\A1;31.8
  7
TSTYLE6
 11
0.9999999996866762
 21
-0.0000250329321716
 31
0.0
1001
ACAD
1000
MTEXTBEGIN
1070
    73
1070
     1
1070
    44
1040
1.0
1070
    74
1070
     0
1000
MTEXTEND
  0
POINT
  5
329E
330
3048
100
AcDbEntity
  8
DEFPOINTS
 62
     0
100
AcDbPoint
 10
149.720078274685
 20
154.4970003092756
 30
0.0
  0
POINT
  5
329F
330
3048
100
AcDbEntity
  8
DEFPOINTS
 62
     0
100
AcDbPoint
 10
117.9191576606205
 20
171.0970003002778
 30
0.0
  0
POINT
  5
32A0
330
3048
100
AcDbEntity
  8
DEFPOINTS
 62
     0
100
AcDbPoint
 10
117.918445628541
 20
142.6531857948861
 30
0.0
  0
ENDBLK
  5
3053
330
3048
100
AcDbEntity
  8
0
100
AcDbBlockEnd
  0
BLOCK
  5
305E
330
3054
100
AcDbEntity
  8
0
100
AcDbBlockBegin
  2
*D42
 70
     1
 10
0.0
 20
0.0
 30
0.0
  3
*D42
  1

  0
LINE
  5
324F
330
3054
100
AcDbEntity
  8
DIM
 62
     0
100
AcDbLine
 10
182.5165615925291
 20
175.2220088261654
 30
0.0
 11
182.5165590315162
 21
250.2434936258032
 31
0.0
  0
LINE
  5
3250
330
3054
100
AcDbEntity
  8
DIM
 62
     0
100
AcDbLine
 10
117.920043816178
 20
206.796999348997
 30
0.0
 11
117.9200423330425
 21
250.243491420668
 31
0.0
  0
LINE
  5
3251
330
3054
100
AcDbEntity
  8
DIM
 62
     0
100
AcDbLine
 10
180.5165590542743
 20
249.5768268908624
 30
0.0
 11
119.9200423558005
 21
249.5768248222755
 31
0.0
  0
SOLID
  5
3252
330
3054
100
AcDbEntity
  8
DIM
 62
     0
100
AcDbTrace
 10
180.5165590428952
 20
249.9101602241957
 30
0.0
 11
180.5165590656533
 21
249.243493557529
 31
0.0
 12
182.5165590542743
 22
249.5768269591365
 32
0.0
 13
182.5165590542743
 23
249.5768269591365
 33
0.0
  0
SOLID
  5
3253
330
3054
100
AcDbEntity
  8
DIM
 62
     0
100
AcDbTrace
 10
119.9200423444215
 20
249.9101581556089
 30
0.0
 11
119.9200423671795
 21
249.2434914889421
 31
0.0
 12
117.9200423558005
 22
249.5768247540014
 32
0.0
 13
117.9200423558005
 23
249.5768247540014
 33
0.0
  0
MTEXT
  5
3254
330
3054
100
AcDbEntity
  8
DIM
 62
     2
100
AcDbMText
 10
150.2188168268492
 20
251.0064302222073
 30
0.0
 40
2.0
 41
0.0
 71
     5
 72
     1
  1
\A1;64.6
  7
TSTYLE6
 11
0.9999999999999994
 21
0.0000000341370594
 31
0.0
1001
ACAD
1000
MTEXTBEGIN
1070
    73
1070
     1
1070
    44
1040
1.0
1070
    74
1070
     0
1000
MTEXTEND
  0
POINT
  5
3255
330
3054
100
AcDbEntity
  8
DEFPOINTS
 62
     0
100
AcDbPoint
 10
182.5165616027702
 20
174.9220088088436
 30
0.0
  0
POINT
  5
3256
330
3054
100
AcDbEntity
  8
DEFPOINTS
 62
     0
100
AcDbPoint
 10
117.9200438264191
 20
206.4969993316752
 30
0.0
  0
POINT
  5
3257
330
3054
100
AcDbEntity
  8
DEFPOINTS
 62
     0
100
AcDbPoint
 10
117.9200423558005
 20
249.5768247540014
 30
0.0
  0
ENDBLK
  5
305F
330
3054
100
AcDbEntity
  8
0
100
AcDbBlockEnd
  0
BLOCK
  5
306A
330
3060
100
AcDbEntity
  8
0
100
AcDbBlockBegin
  2
*D43
 70
     1
 10
0.0
 20
0.0
 30
0.0
  3
*D43
  1

  0
LINE
  5
3258
330
3060
100
AcDbEntity
  8
DIM
 62
     0
100
AcDbLine
 10
160.1200780791652
 20
222.6469990510163
 30
0.0
 11
160.1200780791664
 21
245.1622239324412
 31
0.0
  0
LINE
  5
3259
330
3060
100
AcDbEntity
  8
DIM
 62
     0
100
AcDbLine
 10
140.9200784401248
 20
232.6469988630165
 30
0.0
 11
140.9200784401255
 21
245.1622239324423
 31
0.0
  0
LINE
  5
325A
330
3060
100
AcDbEntity
  8
DIM
 62
     0
100
AcDbLine
 10
158.1200780791664
 20
244.4955572657747
 30
0.0
 11
142.9200784401255
 21
244.4955572657755
 31
0.0
  0
SOLID
  5
325B
330
3060
100
AcDbEntity
  8
DIM
 62
     0
100
AcDbTrace
 10
158.1200780791664
 20
244.828890599108
 30
0.0
 11
158.1200780791664
 21
244.1622239324413
 31
0.0
 12
160.1200780791664
 22
244.4955572657746
 32
0.0
 13
160.1200780791664
 23
244.4955572657746
 33
0.0
  0
SOLID
  5
325C
330
3060
100
AcDbEntity
  8
DIM
 62
     0
100
AcDbTrace
 10
142.9200784401255
 20
244.8288905991089
 30
0.0
 11
142.9200784401254
 21
244.1622239324422
 31
0.0
 12
140.9200784401255
 22
244.4955572657756
 32
0.0
 13
140.9200784401255
 23
244.4955572657756
 33
0.0
  0
MTEXT
  5
325D
330
3060
100
AcDbEntity
  8
DIM
 62
     2
100
AcDbMText
 10
150.5200782596456
 20
245.9251616313959
 30
0.0
 40
2.0
 41
0.0
 71
     5
 72
     1
  1
\A1;19.2
  7
TSTYLE6
1001
ACAD
1000
MTEXTBEGIN
1070
    73
1070
     1
1070
    44
1040
1.0
1070
    74
1070
     0
1000
MTEXTEND
  0
POINT
  5
325E
330
3060
100
AcDbEntity
  8
DEFPOINTS
 62
     0
100
AcDbPoint
 10
160.1200780791652
 20
222.3469990336945
 30
0.0
  0
POINT
  5
325F
330
3060
100
AcDbEntity
  8
DEFPOINTS
 62
     0
100
AcDbPoint
 10
140.9200784401248
 20
232.3469988456947
 30
0.0
  0
POINT
  5
3260
330
3060
100
AcDbEntity
  8
DEFPOINTS
 62
     0
100
AcDbPoint
 10
140.9200784401255
 20
244.4955572657756
 30
0.0
  0
ENDBLK
  5
306B
330
3060
100
AcDbEntity
  8
0
100
AcDbBlockEnd
  0
BLOCK
  5
3076
330
306C
100
AcDbEntity
  8
0
100
AcDbBlockBegin
  2
*D44
 70
     1
 10
0.0
 20
0.0
 30
0.0
  3
*D44
  1

  0
LINE
  5
3246
330
306C
100
AcDbEntity
  8
DIM
 62
     0
100
AcDbLine
 10
140.9200784401248
 20
232.6469988630165
 30
0.0
 11
140.9200784401248
 21
245.1622237444415
 31
0.0
  0
LINE
  5
3247
330
306C
100
AcDbEntity
  8
DIM
 62
     0
100
AcDbLine
 10
117.9200438264191
 20
206.796999348997
 30
0.0
 11
117.9200438264191
 21
245.1622237444415
 31
0.0
  0
LINE
  5
3248
330
306C
100
AcDbEntity
  8
DIM
 62
     0
100
AcDbLine
 10
138.9200784401248
 20
244.4955570777748
 30
0.0
 11
119.9200438264191
 21
244.4955570777748
 31
0.0
  0
SOLID
  5
3249
330
306C
100
AcDbEntity
  8
DIM
 62
     0
100
AcDbTrace
 10
138.9200784401248
 20
244.8288904111082
 30
0.0
 11
138.9200784401248
 21
244.1622237444415
 31
0.0
 12
140.9200784401248
 22
244.4955570777748
 32
0.0
 13
140.9200784401248
 23
244.4955570777748
 33
0.0
  0
SOLID
  5
324A
330
306C
100
AcDbEntity
  8
DIM
 62
     0
100
AcDbTrace
 10
119.9200438264191
 20
244.8288904111082
 30
0.0
 11
119.9200438264191
 21
244.1622237444415
 31
0.0
 12
117.9200438264191
 22
244.4955570777748
 32
0.0
 13
117.9200438264191
 23
244.4955570777748
 33
0.0
  0
MTEXT
  5
324B
330
306C
100
AcDbEntity
  8
DIM
 62
     2
100
AcDbMText
 10
129.4205130014338
 20
245.9261164229317
 30
0.0
 40
2.0
 41
0.0
 71
     5
 72
     1
  1
\A1;23
  7
TSTYLE6
1001
ACAD
1000
MTEXTBEGIN
1070
    73
1070
     1
1070
    44
1040
1.0
1070
    74
1070
     0
1000
MTEXTEND
  0
POINT
  5
324C
330
306C
100
AcDbEntity
  8
DEFPOINTS
 62
     0
100
AcDbPoint
 10
140.9200784401248
 20
232.3469988456947
 30
0.0
  0
POINT
  5
324D
330
306C
100
AcDbEntity
  8
DEFPOINTS
 62
     0
100
AcDbPoint
 10
117.9200438264191
 20
206.4969993316752
 30
0.0
  0
POINT
  5
324E
330
306C
100
AcDbEntity
  8
DEFPOINTS
 62
     0
100
AcDbPoint
 10
117.9200438264191
 20
244.4955570777748
 30
0.0
  0
ENDBLK
  5
3077
330
306C
100
AcDbEntity
  8
0
100
AcDbBlockEnd
  0
BLOCK
  5
3082
330
3078
100
AcDbEntity
  8
0
100
AcDbBlockBegin
  2
*D45
 70
     1
 10
0.0
 20
0.0
 30
0.0
  3
*D45
  1

  0
LINE
  5
3261
330
3078
100
AcDbEntity
  8
DIM
 62
     0
100
AcDbLine
 10
160.1200780791649
 20
217.5469991468967
 30
0.0
 11
160.1200780791649
 21
245.1622320391859
 31
0.0
  0
LINE
  5
3262
330
3078
100
AcDbEntity
  8
DIM
 62
     0
100
AcDbLine
 10
179.3165399846438
 20
212.4469992427775
 30
0.0
 11
179.3165399846438
 21
245.1622320391859
 31
0.0
  0
LINE
  5
3263
330
3078
100
AcDbEntity
  8
DIM
 62
     0
100
AcDbLine
 10
162.1200780791649
 20
244.4955653725193
 30
0.0
 11
177.3165399846438
 21
244.4955653725193
 31
0.0
  0
SOLID
  5
3264
330
3078
100
AcDbEntity
  8
DIM
 62
     0
100
AcDbTrace
 10
162.1200780791649
 20
244.8288987058526
 30
0.0
 11
162.1200780791649
 21
244.1622320391859
 31
0.0
 12
160.1200780791649
 22
244.4955653725193
 32
0.0
 13
160.1200780791649
 23
244.4955653725193
 33
0.0
  0
SOLID
  5
3265
330
3078
100
AcDbEntity
  8
DIM
 62
     0
100
AcDbTrace
 10
177.3165399846438
 20
244.8288987058526
 30
0.0
 11
177.3165399846438
 21
244.1622320391859
 31
0.0
 12
179.3165399846438
 22
244.4955653725193
 32
0.0
 13
179.3165399846438
 23
244.4955653725193
 33
0.0
  0
MTEXT
  5
3266
330
3078
100
AcDbEntity
  8
DIM
 62
     2
100
AcDbMText
 10
169.7183090319044
 20
245.92516973814
 30
0.0
 40
2.0
 41
0.0
 71
     5
 72
     1
  1
\A1;19.2
  7
TSTYLE6
1001
ACAD
1000
MTEXTBEGIN
1070
    73
1070
     1
1070
    44
1040
1.0
1070
    74
1070
     0
1000
MTEXTEND
  0
POINT
  5
3267
330
3078
100
AcDbEntity
  8
DEFPOINTS
 62
     0
100
AcDbPoint
 10
160.1200780791649
 20
217.2469991295749
 30
0.0
  0
POINT
  5
3268
330
3078
100
AcDbEntity
  8
DEFPOINTS
 62
     0
100
AcDbPoint
 10
179.3165399846438
 20
212.1469992254558
 30
0.0
  0
POINT
  5
3269
330
3078
100
AcDbEntity
  8
DEFPOINTS
 62
     0
100
AcDbPoint
 10
179.3165399846438
 20
244.4955653725193
 30
0.0
  0
ENDBLK
  5
3083
330
3078
100
AcDbEntity
  8
0
100
AcDbBlockEnd
  0
BLOCK
  5
308E
330
3084
100
AcDbEntity
  8
0
100
AcDbBlockBegin
  2
*D46
 70
     1
 10
0.0
 20
0.0
 30
0.0
  3
*D46
  1

  0
LINE
  5
3286
330
3084
100
AcDbEntity
  8
DIM
 62
     0
100
AcDbLine
 10
117.6191576433927
 20
171.0970078101581
 30
0.0
 11
103.0537551923737
 21
171.0973724248995
 31
0.0
  0
LINE
  5
3287
330
3084
100
AcDbEntity
  8
DIM
 62
     0
100
AcDbLine
 10
117.6200438091913
 20
206.4970068415555
 30
0.0
 11
103.0546413581724
 21
206.4973714562969
 31
0.0
  0
LINE
  5
3288
330
3084
100
AcDbEntity
  8
DIM
 62
     0
100
AcDbLine
 10
103.7204719246972
 20
173.097355735651
 30
0.0
 11
103.7212579587645
 21
204.4973547683017
 31
0.0
  0
SOLID
  5
3289
330
3084
100
AcDbEntity
  8
DIM
 62
     0
100
AcDbTrace
 10
103.3871385914683
 20
173.097364079962
 30
0.0
 11
104.0538052579261
 21
173.0973473913401
 31
0.0
 12
103.7204218588315
 22
171.0973557362777
 32
0.0
 13
103.7204218588315
 23
171.0973557362777
 33
0.0
  0
SOLID
  5
328A
330
3084
100
AcDbEntity
  8
DIM
 62
     0
100
AcDbTrace
 10
103.3879246255356
 20
204.4973631126127
 30
0.0
 11
104.0545912919933
 21
204.4973464239908
 31
0.0
 12
103.7213080246301
 22
206.4973547676751
 32
0.0
 13
103.7213080246301
 23
206.4973547676751
 33
0.0
  0
MTEXT
  5
328B
330
3084
100
AcDbEntity
  8
DIM
 62
     2
100
AcDbMText
 10
102.2903055970222
 20
188.7973910630725
 30
0.0
 40
2.0
 41
0.0
 71
     5
 72
     1
  1
\A1;35.4
  7
TSTYLE6
 11
0.0000250329328418
 21
0.9999999996866762
 31
0.0
1001
ACAD
1000
MTEXTBEGIN
1070
    73
1070
     1
1070
    44
1040
1.0
1070
    74
1070
     0
1000
MTEXTEND
  0
POINT
  5
328C
330
3084
100
AcDbEntity
  8
DEFPOINTS
 62
     0
100
AcDbPoint
 10
117.9191576606204
 20
171.0970003002778
 30
0.0
  0
POINT
  5
328D
330
3084
100
AcDbEntity
  8
DEFPOINTS
 62
     0
100
AcDbPoint
 10
117.9200438264191
 20
206.4969993316752
 30
0.0
  0
POINT
  5
328E
330
3084
100
AcDbEntity
  8
DEFPOINTS
 62
     0
100
AcDbPoint
 10
103.7213080246301
 20
206.4973547676751
 30
0.0
  0
ENDBLK
  5
308F
330
3084
100
AcDbEntity
  8
0
100
AcDbBlockEnd
  0
BLOCK
  5
309A
330
3090
100
AcDbEntity
  8
0
100
AcDbBlockBegin
  2
*D47
 70
     1
 10
0.0
 20
0.0
 30
0.0
  3
*D47
  1

  0
LINE
  5
326A
330
3090
100
AcDbEntity
  8
DIM
 62
     0
100
AcDbLine
 10
114.1200789124378
 20
232.3469988456952
 30
0.0
 11
103.0541042608302
 21
232.3469988456952
 31
0.0
  0
LINE
  5
326B
330
3090
100
AcDbEntity
  8
DIM
 62
     0
100
AcDbLine
 10
117.6200788466374
 20
206.496999331675
 30
0.0
 11
103.0541042608302
 21
206.496999331675
 31
0.0
  0
LINE
  5
326C
330
3090
100
AcDbEntity
  8
DIM
 62
     0
100
AcDbLine
 10
103.7207709274969
 20
230.3469988456952
 30
0.0
 11
103.7207709274968
 21
208.496999331675
 31
0.0
  0
SOLID
  5
326D
330
3090
100
AcDbEntity
  8
DIM
 62
     0
100
AcDbTrace
 10
103.3874375941635
 20
230.3469988456952
 30
0.0
 11
104.0541042608302
 21
230.3469988456952
 31
0.0
 12
103.7207709274969
 22
232.3469988456952
 32
0.0
 13
103.7207709274969
 23
232.3469988456952
 33
0.0
  0
SOLID
  5
326E
330
3090
100
AcDbEntity
  8
DIM
 62
     0
100
AcDbTrace
 10
103.3874375941635
 20
208.496999331675
 30
0.0
 11
104.0541042608302
 21
208.496999331675
 31
0.0
 12
103.7207709274968
 22
206.496999331675
 32
0.0
 13
103.7207709274968
 23
206.496999331675
 33
0.0
  0
MTEXT
  5
326F
330
3090
100
AcDbEntity
  8
DIM
 62
     2
100
AcDbMText
 10
102.2911665618761
 20
219.4219990886854
 30
0.0
 40
2.0
 41
0.0
 71
     5
 72
     1
  1
\A1;25.9
  7
TSTYLE6
 11
0.0000000000000001
 21
1.0
 31
0.0
1001
ACAD
1000
MTEXTBEGIN
1070
    73
1070
     1
1070
    44
1040
1.0
1070
    74
1070
     0
1000
MTEXTEND
  0
POINT
  5
3270
330
3090
100
AcDbEntity
  8
DEFPOINTS
 62
     0
100
AcDbPoint
 10
114.4200789383248
 20
232.3469988456952
 30
0.0
  0
POINT
  5
3271
330
3090
100
AcDbEntity
  8
DEFPOINTS
 62
     0
100
AcDbPoint
 10
117.9200788725244
 20
206.496999331675
 30
0.0
  0
POINT
  5
3272
330
3090
100
AcDbEntity
  8
DEFPOINTS
 62
     0
100
AcDbPoint
 10
103.7207709274968
 20
206.496999331675
 30
0.0
  0
ENDBLK
  5
309B
330
3090
100
AcDbEntity
  8
0
100
AcDbBlockEnd
  0
BLOCK
  5
30A7
330
309C
100
AcDbEntity
  8
0
100
AcDbBlockBegin
  2
*D48
 70
     1
 10
0.0
 20
0.0
 30
0.0
  3
*D48
  1

  0
LINE
  5
323C
330
309C
100
AcDbEntity
  8
DIM
 62
     0
100
AcDbLine
 10
114.4200789383249
 20
232.646998857879
 30
0.0
 11
114.4200789383249
 21
245.162794909133
 31
0.0
  0
LINE
  5
323D
330
309C
100
AcDbEntity
  8
DIM
 62
     0
100
AcDbLine
 10
117.9200438264191
 20
206.796999343859
 30
0.0
 11
117.9200438264191
 21
245.162794909133
 31
0.0
  0
LINE
  5
323E
330
309C
100
AcDbEntity
  8
DIM
 62
     0
100
AcDbLine
 10
119.9200438264191
 20
244.4961282424663
 30
0.0
 11
121.9200438264191
 21
244.4961282424663
 31
0.0
  0
LINE
  5
323F
330
309C
100
AcDbEntity
  8
DIM
 62
     0
100
AcDbLine
 10
112.4200789383249
 20
244.4961282424663
 30
0.0
 11
105.2506953818152
 21
244.4961282424663
 31
0.0
  0
SOLID
  5
3240
330
309C
100
AcDbEntity
  8
DIM
 62
     0
100
AcDbTrace
 10
119.9200438264191
 20
244.8294615757997
 30
0.0
 11
119.9200438264191
 21
244.162794909133
 31
0.0
 12
117.9200438264191
 22
244.4961282424663
 32
0.0
 13
117.9200438264191
 23
244.4961282424663
 33
0.0
  0
SOLID
  5
3241
330
309C
100
AcDbEntity
  8
DIM
 62
     0
100
AcDbTrace
 10
112.4200789383249
 20
244.8294615757997
 30
0.0
 11
112.4200789383249
 21
244.162794909133
 31
0.0
 12
114.4200789383249
 22
244.4961282424663
 32
0.0
 13
114.4200789383249
 23
244.4961282424663
 33
0.0
  0
MTEXT
  5
3242
330
309C
100
AcDbEntity
  8
DIM
 62
     2
100
AcDbMText
 10
106.986745859305
 20
245.9266875876232
 30
0.0
 40
2.0
 41
0.0
 71
     5
 72
     1
  1
\A1;3.5
  7
TSTYLE6
1001
ACAD
1000
MTEXTBEGIN
1070
    73
1070
     1
1070
    44
1040
1.0
1070
    74
1070
     0
1000
MTEXTEND
  0
POINT
  5
3243
330
309C
100
AcDbEntity
  8
DEFPOINTS
 62
     0
100
AcDbPoint
 10
114.4200789383249
 20
232.3469988456952
 30
0.0
  0
POINT
  5
3244
330
309C
100
AcDbEntity
  8
DEFPOINTS
 62
     0
100
AcDbPoint
 10
117.9200438264191
 20
206.4969993316752
 30
0.0
  0
POINT
  5
3245
330
309C
100
AcDbEntity
  8
DEFPOINTS
 62
     0
100
AcDbPoint
 10
117.9200438264191
 20
244.4961282424663
 30
0.0
  0
ENDBLK
  5
30A8
330
309C
100
AcDbEntity
  8
0
100
AcDbBlockEnd
  0
BLOCK
  5
30B3
330
30A9
100
AcDbEntity
  8
0
100
AcDbBlockBegin
  2
*D49
 70
     1
 10
0.0
 20
0.0
 30
0.0
  3
*D49
  1

  0
LINE
  5
328F
330
30A9
100
AcDbEntity
  8
DIM
 62
     0
100
AcDbLine
 10
114.1200789210031
 20
149.4970004032758
 30
0.0
 11
103.0541042608305
 21
149.4970004032758
 31
0.0
  0
LINE
  5
3290
330
30A9
100
AcDbEntity
  8
DIM
 62
     0
100
AcDbLine
 10
117.6191576432987
 20
171.0970003002778
 30
0.0
 11
103.0541042608305
 21
171.0970003002778
 31
0.0
  0
LINE
  5
3291
330
30A9
100
AcDbEntity
  8
DIM
 62
     0
100
AcDbLine
 10
103.7207709274972
 20
151.4970004032758
 30
0.0
 11
103.7207709274972
 21
169.0970003002778
 31
0.0
  0
SOLID
  5
3292
330
30A9
100
AcDbEntity
  8
DIM
 62
     0
100
AcDbTrace
 10
103.3874375941639
 20
151.4970004032758
 30
0.0
 11
104.0541042608305
 21
151.4970004032758
 31
0.0
 12
103.7207709274972
 22
149.4970004032758
 32
0.0
 13
103.7207709274972
 23
149.4970004032758
 33
0.0
  0
SOLID
  5
3293
330
30A9
100
AcDbEntity
  8
DIM
 62
     0
100
AcDbTrace
 10
103.3874375941639
 20
169.0970003002778
 30
0.0
 11
104.0541042608305
 21
169.0970003002778
 31
0.0
 12
103.7207709274972
 22
171.0970003002778
 32
0.0
 13
103.7207709274972
 23
171.0970003002778
 33
0.0
  0
MTEXT
  5
3294
330
30A9
100
AcDbEntity
  8
DIM
 62
     2
100
AcDbMText
 10
102.2911665618765
 20
160.2970003517768
 30
0.0
 40
2.0
 41
0.0
 71
     5
 72
     1
  1
\A1;21.6
  7
TSTYLE6
 11
0.0000000000000001
 21
1.0
 31
0.0
1001
ACAD
1000
MTEXTBEGIN
1070
    73
1070
     1
1070
    44
1040
1.0
1070
    74
1070
     0
1000
MTEXTEND
  0
POINT
  5
3295
330
30A9
100
AcDbEntity
  8
DEFPOINTS
 62
     0
100
AcDbPoint
 10
114.4200789383248
 20
149.4970004032758
 30
0.0
  0
POINT
  5
3296
330
30A9
100
AcDbEntity
  8
DEFPOINTS
 62
     0
100
AcDbPoint
 10
117.9191576606205
 20
171.0970003002778
 30
0.0
  0
POINT
  5
3297
330
30A9
100
AcDbEntity
  8
DEFPOINTS
 62
     0
100
AcDbPoint
 10
103.7207709274972
 20
171.0970003002778
 30
0.0
  0
ENDBLK
  5
30B4
330
30A9
100
AcDbEntity
  8
0
100
AcDbBlockEnd
  0
BLOCK
  5
30C0
330
30B5
100
AcDbEntity
  8
0
100
AcDbBlockBegin
  2
*D50
 70
     1
 10
0.0
 20
0.0
 30
0.0
  3
*D50
  1

  0
LINE
  5
3273
330
30B5
100
AcDbEntity
  8
DIM
 62
     0
100
AcDbLine
 10
67.1999999523906
 20
179.8970004032764
 30
0.0
 11
79.89818707199799
 21
179.8970004032764
 31
0.0
  0
LINE
  5
3274
330
30B5
100
AcDbEntity
  8
DIM
 62
     0
100
AcDbLine
 10
67.1999999523906
 20
183.0970004032763
 30
0.0
 11
79.89818707199799
 21
183.0970004032763
 31
0.0
  0
LINE
  5
3275
330
30B5
100
AcDbEntity
  8
DIM
 62
     0
100
AcDbLine
 10
79.23152040533132
 20
177.8970004032764
 30
0.0
 11
79.23152040533132
 21
175.8970004032764
 31
0.0
  0
LINE
  5
3276
330
30B5
100
AcDbEntity
  8
DIM
 62
     0
100
AcDbLine
 10
79.23152040533132
 20
185.0970004032763
 30
0.0
 11
79.23152040533132
 21
194.6254457230935
 31
0.0
  0
SOLID
  5
3277
330
30B5
100
AcDbEntity
  8
DIM
 62
     0
100
AcDbTrace
 10
78.898187071998
 20
177.8970004032764
 30
0.0
 11
79.56485373866465
 21
177.8970004032764
 31
0.0
 12
79.23152040533132
 22
179.8970004032764
 32
0.0
 13
79.23152040533132
 23
179.8970004032764
 33
0.0
  0
SOLID
  5
3278
330
30B5
100
AcDbEntity
  8
DIM
 62
     0
100
AcDbTrace
 10
78.898187071998
 20
185.0970004032763
 30
0.0
 11
79.56485373866465
 21
185.0970004032763
 31
0.0
 12
79.23152040533132
 22
183.0970004032763
 32
0.0
 13
79.23152040533132
 23
183.0970004032763
 33
0.0
  0
MTEXT
  5
3279
330
30B5
100
AcDbEntity
  8
DIM
 62
     2
100
AcDbMText
 10
77.72360771774604
 20
191.8720009754809
 30
0.0
 40
2.0
 41
0.0
 71
     5
 72
     1
  1
\A1;%%c3.2
  7
TSTYLE6
 11
0.0000000000000001
 21
1.0
 31
0.0
1001
ACAD
1000
MTEXTBEGIN
1070
    73
1070
     1
1070
    44
1040
1.0
1070
    74
1070
     0
1000
MTEXTEND
  0
POINT
  5
327A
330
30B5
100
AcDbEntity
  8
DEFPOINTS
 62
     0
100
AcDbPoint
 10
66.89999994020678
 20
179.8970004032764
 30
0.0
  0
POINT
  5
327B
330
30B5
100
AcDbEntity
  8
DEFPOINTS
 62
     0
100
AcDbPoint
 10
66.89999994020678
 20
183.0970004032763
 30
0.0
  0
POINT
  5
327C
330
30B5
100
AcDbEntity
  8
DEFPOINTS
 62
     0
100
AcDbPoint
 10
79.23152040533132
 20
183.0970004032763
 30
0.0
  0
ENDBLK
  5
30C1
330
30B5
100
AcDbEntity
  8
0
100
AcDbBlockEnd
  0
BLOCK
  5
30CC
330
30C2
100
AcDbEntity
  8
0
100
AcDbBlockBegin
  2
*D51
 70
     1
 10
0.0
 20
0.0
 30
0.0
  3
*D51
  1

  0
LINE
  5
327D
330
30C2
100
AcDbEntity
  8
DIM
 62
     0
100
AcDbLine
 10
67.19999995752854
 20
181.4970004032763
 30
0.0
 11
84.20341721268403
 21
181.4970004032763
 31
0.0
  0
LINE
  5
327E
330
30C2
100
AcDbEntity
  8
DIM
 62
     0
100
AcDbLine
 10
73.47735056980387
 20
149.4970004214594
 30
0.0
 11
84.20341721268401
 21
149.4970004214594
 31
0.0
  0
LINE
  5
327F
330
30C2
100
AcDbEntity
  8
DIM
 62
     0
100
AcDbLine
 10
83.53675054601735
 20
179.4970004032763
 30
0.0
 11
83.53675054601735
 21
151.4970004214594
 31
0.0
  0
SOLID
  5
3280
330
30C2
100
AcDbEntity
  8
DIM
 62
     0
100
AcDbTrace
 10
83.20341721268404
 20
179.4970004032763
 30
0.0
 11
83.87008387935068
 21
179.4970004032763
 31
0.0
 12
83.53675054601735
 22
181.4970004032763
 32
0.0
 13
83.53675054601735
 23
181.4970004032763
 33
0.0
  0
SOLID
  5
3281
330
30C2
100
AcDbEntity
  8
DIM
 62
     0
100
AcDbTrace
 10
83.20341721268402
 20
151.4970004214594
 30
0.0
 11
83.87008387935066
 21
151.4970004214594
 31
0.0
 12
83.53675054601735
 22
149.4970004214594
 32
0.0
 13
83.53675054601735
 23
149.4970004214594
 33
0.0
  0
MTEXT
  5
3282
330
30C2
100
AcDbEntity
  8
DIM
 62
     2
100
AcDbMText
 10
82.10619120086043
 20
165.4970004123679
 30
0.0
 40
2.0
 41
0.0
 71
     5
 72
     1
  1
\A1;32
  7
TSTYLE6
 11
0.0000000000000001
 21
1.0
 31
0.0
1001
ACAD
1000
MTEXTBEGIN
1070
    73
1070
     1
1070
    44
1040
1.0
1070
    74
1070
     0
1000
MTEXTEND
  0
POINT
  5
3283
330
30C2
100
AcDbEntity
  8
DEFPOINTS
 62
     0
100
AcDbPoint
 10
66.89999994020678
 20
181.4970004032763
 30
0.0
  0
POINT
  5
3284
330
30C2
100
AcDbEntity
  8
DEFPOINTS
 62
     0
100
AcDbPoint
 10
73.17735055248211
 20
149.4970004214594
 30
0.0
  0
POINT
  5
3285
330
30C2
100
AcDbEntity
  8
DEFPOINTS
 62
     0
100
AcDbPoint
 10
83.53675054601735
 20
149.4970004214594
 30
0.0
  0
ENDBLK
  5
30CD
330
30C2
100
AcDbEntity
  8
0
100
AcDbBlockEnd
  0
ENDSEC
  0
SECTION
  2
ENTITIES
  0
LINE
  5
29
330
A
100
AcDbEntity
  8
CARTOUCHE
  6
CONTINUOUS
 62
     7
100
AcDbLine
 10
205.0000369999999
 20
10.00079299999999
 30
0.0
 11
5.0
 21
10.00106799999999
 31
0.0
  0
LINE
  5
2A
330
A
100
AcDbEntity
  8
CARTOUCHE
  6
CONTINUOUS
 62
     7
100
AcDbLine
 10
50.000001
 20
36.845393
 30
0.0
 11
50.000001
 21
5.000041000000003
 31
0.0
  0
TEXT
  5
2B
330
A
100
AcDbEntity
  8
CARTOUCHE
  6
CONTINUOUS
 62
     7
100
AcDbText
 10
119.6202633513061
 20
32.43596665250084
 30
0.0
 40
1.8
  1
PRODUCT TYPE
 50
359.9999079999998
 41
0.8
  7
FINDER
 72
     1
 11
127.4999904999999
 21
32.43595399999999
 31
0.0
100
AcDbText
  0
TEXT
  5
2D
330
A
100
AcDbEntity
  8
CARTOUCHE
  6
CONTINUOUS
 62
     2
100
AcDbText
 10
19.35727198705006
 20
6.600975074802903
 30
0.0
 40
1.8
  1
MOD. UT 902
 50
359.9999079999998
 41
1.05
  7
FINDER
 72
     1
 11
27.5000005
 21
6.600961999999995
 31
0.0
100
AcDbText
  0
LINE
  5
2E
330
A
100
AcDbEntity
  8
CARTOUCHE
  6
CONTINUOUS
 62
     7
100
AcDbLine
 10
205.0000079999999
 20
20.002808
 30
0.0
 11
49.999973
 21
20.00304499999999
 31
0.0
  0
TEXT
  5
31
330
A
100
AcDbEntity
  8
CARTOUCHE
  6
CONTINUOUS
 62
     7
100
AcDbText
 10
73.48571361551008
 20
16.6243047695683
 30
0.0
 40
1.8
  1
REV.
 50
359.9999079999998
 41
0.8
  7
FINDER
 72
     1
 11
75.83332616666666
 21
16.62430099999999
 31
0.0
100
AcDbText
  0
TEXT
  5
32
330
A
100
AcDbEntity
  8
CARTOUCHE
  6
CONTINUOUS
 62
     1
100
AcDbText
 10
75.18069315166069
 20
11.77627904793472
 30
0.0
 40
2.1
  1
0
 50
359.9999079999998
 41
0.8
  7
FINDER
 72
     1
 11
75.83332616666666
 21
11.77627799999999
 31
0.0
100
AcDbText
  0
LINE
  5
33
330
A
100
AcDbEntity
  8
CARTOUCHE
  6
CONTINUOUS
 62
     7
100
AcDbLine
 10
101.6666513333333
 20
20.00296599999998
 30
0.0
 11
101.6666513333333
 21
10.001024
 31
0.0
  0
LINE
  5
37
330
A
100
AcDbEntity
  8
CARTOUCHE
  6
CONTINUOUS
 62
     4
100
AcDbLine
 10
12.362923
 20
27.65548499999999
 30
0.0
 11
12.362923
 21
21.81019399999999
 31
0.0
  0
LINE
  5
38
330
A
100
AcDbEntity
  8
CARTOUCHE
  6
CONTINUOUS
 62
     4
100
AcDbLine
 10
12.362923
 20
21.81019399999999
 30
0.0
 11
10.88782299999998
 21
23.41084399999999
 31
0.0
  0
LINE
  5
39
330
A
100
AcDbEntity
  8
CARTOUCHE
  6
CONTINUOUS
 62
     4
100
AcDbLine
 10
10.88782299999998
 20
23.41084399999999
 30
0.0
 11
11.11642299999999
 21
23.41084399999999
 31
0.0
  0
LINE
  5
3A
330
A
100
AcDbEntity
  8
CARTOUCHE
  6
CONTINUOUS
 62
     4
100
AcDbLine
 10
11.41387299999999
 20
23.766514
 30
0.0
 11
11.41387299999999
 21
27.65262099999999
 31
0.0
  0
LINE
  5
3B
330
A
100
AcDbEntity
  8
CARTOUCHE
  6
CONTINUOUS
 62
     4
100
AcDbLine
 10
10.46482299999998
 20
27.399506
 30
0.0
 11
10.46482299999998
 21
24.428744
 31
0.0
  0
LINE
  5
3C
330
A
100
AcDbEntity
  8
CARTOUCHE
  6
CONTINUOUS
 62
     4
100
AcDbLine
 10
10.46482299999998
 20
24.428744
 30
0.0
 11
8.174775999999999
 21
24.428744
 31
0.0
  0
LINE
  5
3D
330
A
100
AcDbEntity
  8
CARTOUCHE
  6
CONTINUOUS
 62
     4
100
AcDbLine
 10
8.176312999999996
 20
23.41084399999999
 30
0.0
 11
9.378522999999999
 21
23.41084399999999
 31
0.0
  0
LINE
  5
3E
330
A
100
AcDbEntity
  8
CARTOUCHE
  6
CONTINUOUS
 62
     4
100
AcDbLine
 10
9.378522999999999
 20
23.41084399999999
 30
0.0
 11
12.173699
 21
20.66832799999999
 31
0.0
  0
LINE
  5
3F
330
A
100
AcDbEntity
  8
CARTOUCHE
  6
CONTINUOUS
 62
     4
100
AcDbLine
 10
13.323223
 20
21.16984399999998
 30
0.0
 11
13.323223
 21
24.508394
 31
0.0
  0
LINE
  5
40
330
A
100
AcDbEntity
  8
CARTOUCHE
  6
CONTINUOUS
 62
     4
100
AcDbLine
 10
13.323223
 20
24.508394
 30
0.0
 11
14.45542299999999
 21
24.508394
 31
0.0
  0
LINE
  5
41
330
A
100
AcDbEntity
  8
CARTOUCHE
  6
CONTINUOUS
 62
     4
100
AcDbLine
 10
14.35365599999999
 20
25.503344
 30
0.0
 11
13.323223
 21
25.503344
 31
0.0
  0
LINE
  5
42
330
A
100
AcDbEntity
  8
CARTOUCHE
  6
CONTINUOUS
 62
     4
100
AcDbLine
 10
13.323223
 20
25.503344
 30
0.0
 11
13.323223
 21
27.40413399999999
 31
0.0
  0
LINE
  5
43
330
A
100
AcDbEntity
  8
CARTOUCHE
  6
CONTINUOUS
 62
     4
100
AcDbLine
 10
28.108423
 20
22.47903399999999
 30
0.0
 11
28.108423
 21
20.63209399999998
 31
0.0
  0
LINE
  5
44
330
A
100
AcDbEntity
  8
CARTOUCHE
  6
CONTINUOUS
 62
     4
100
AcDbLine
 10
28.108423
 20
20.63209399999998
 30
0.0
 11
29.89222299999999
 21
20.63209399999998
 31
0.0
  0
LINE
  5
45
330
A
100
AcDbEntity
  8
CARTOUCHE
  6
CONTINUOUS
 62
     4
100
AcDbLine
 10
29.89222299999999
 20
20.63209399999998
 30
0.0
 11
29.89222299999999
 21
23.324553
 31
0.0
  0
LINE
  5
46
330
A
100
AcDbEntity
  8
CARTOUCHE
  6
CONTINUOUS
 62
     4
100
AcDbLine
 10
26.28997299999999
 20
24.074144
 30
0.0
 11
26.28997299999999
 21
24.508394
 31
0.0
  0
LINE
  5
47
330
A
100
AcDbEntity
  8
CARTOUCHE
  6
CONTINUOUS
 62
     4
100
AcDbLine
 10
26.28997299999999
 20
24.508394
 30
0.0
 11
24.494923
 21
24.508394
 31
0.0
  0
LINE
  5
48
330
A
100
AcDbEntity
  8
CARTOUCHE
  6
CONTINUOUS
 62
     4
100
AcDbLine
 10
24.494923
 20
24.508394
 30
0.0
 11
24.494923
 21
20.63209399999998
 31
0.0
  0
LINE
  5
49
330
A
100
AcDbEntity
  8
CARTOUCHE
  6
CONTINUOUS
 62
     4
100
AcDbLine
 10
24.494923
 20
20.63209399999998
 30
0.0
 11
26.28997299999999
 21
20.63209399999998
 31
0.0
  0
LINE
  5
4A
330
A
100
AcDbEntity
  8
CARTOUCHE
  6
CONTINUOUS
 62
     4
100
AcDbLine
 10
26.28997299999999
 20
20.63209399999998
 30
0.0
 11
26.28997299999999
 21
22.43349899999999
 31
0.0
  0
LINE
  5
4B
330
A
100
AcDbEntity
  8
CARTOUCHE
  6
CONTINUOUS
 62
     4
100
AcDbLine
 10
35.986573
 20
25.823744
 30
0.0
 11
35.986573
 21
20.62084399999998
 31
0.0
  0
LINE
  5
4C
330
A
100
AcDbEntity
  8
CARTOUCHE
  6
CONTINUOUS
 62
     4
100
AcDbLine
 10
35.986573
 20
20.62084399999998
 30
0.0
 11
34.19152299999999
 21
20.62084399999998
 31
0.0
  0
LINE
  5
4D
330
A
100
AcDbEntity
  8
CARTOUCHE
  6
CONTINUOUS
 62
     4
100
AcDbLine
 10
34.19152299999999
 20
24.319904
 30
0.0
 11
34.19152299999999
 21
25.823744
 31
0.0
  0
LINE
  5
4E
330
A
100
AcDbEntity
  8
CARTOUCHE
  6
CONTINUOUS
 62
     4
100
AcDbLine
 10
34.19152299999999
 20
25.823744
 30
0.0
 11
35.986573
 21
25.823744
 31
0.0
  0
LINE
  5
4F
330
A
100
AcDbEntity
  8
CARTOUCHE
  6
CONTINUOUS
 62
     4
100
AcDbLine
 10
42.732973
 20
24.508394
 30
0.0
 11
44.459623
 21
24.508394
 31
0.0
  0
LINE
  5
50
330
A
100
AcDbEntity
  8
CARTOUCHE
  6
CONTINUOUS
 62
     4
100
AcDbLine
 10
44.459623
 20
24.508394
 30
0.0
 11
44.459623
 21
24.165494
 31
0.0
  0
LINE
  5
51
330
A
100
AcDbEntity
  8
CARTOUCHE
  6
CONTINUOUS
 62
     4
100
AcDbLine
 10
47.28382299999999
 20
22.58779399999999
 30
0.0
 11
45.45457299999999
 21
22.58779399999999
 31
0.0
  0
LINE
  5
52
330
A
100
AcDbEntity
  8
CARTOUCHE
  6
CONTINUOUS
 62
     4
100
AcDbLine
 10
45.45457299999999
 20
22.58779399999999
 30
0.0
 11
45.45457299999999
 21
22.827644
 31
0.0
  0
LINE
  5
53
330
A
100
AcDbEntity
  8
CARTOUCHE
  6
CONTINUOUS
 62
     4
100
AcDbLine
 10
44.459623
 20
22.78219399999998
 30
0.0
 11
44.459623
 21
20.63209399999998
 31
0.0
  0
LINE
  5
54
330
A
100
AcDbEntity
  8
CARTOUCHE
  6
CONTINUOUS
 62
     4
100
AcDbLine
 10
44.459623
 20
20.63209399999998
 30
0.0
 11
42.732973
 21
20.63209399999998
 31
0.0
  0
LINE
  5
55
330
A
100
AcDbEntity
  8
CARTOUCHE
  6
CONTINUOUS
 62
     4
100
AcDbLine
 10
42.732973
 20
20.63209399999998
 30
0.0
 11
42.732973
 21
24.508394
 31
0.0
  0
LINE
  5
56
330
A
100
AcDbEntity
  8
CARTOUCHE
  6
CONTINUOUS
 62
     4
100
AcDbLine
 10
39.15412299999999
 20
22.24444399999998
 30
0.0
 11
39.05107299999999
 21
22.24444399999998
 31
0.0
  0
LINE
  5
57
330
A
100
AcDbEntity
  8
CARTOUCHE
  6
CONTINUOUS
 62
     4
100
AcDbLine
 10
39.05107299999999
 20
22.24444399999998
 30
0.0
 11
38.364823
 21
22.24444399999998
 31
0.0
  0
LINE
  5
58
330
A
100
AcDbEntity
  8
CARTOUCHE
  6
CONTINUOUS
 62
     4
100
AcDbLine
 10
40.34302299999999
 20
21.855644
 30
0.0
 11
42.10387299999999
 21
21.855644
 31
0.0
  0
LINE
  5
59
330
A
100
AcDbEntity
  8
CARTOUCHE
  6
CONTINUOUS
 62
     4
100
AcDbLine
 10
42.20692299999999
 20
22.25614399999999
 30
0.0
 11
39.15412299999999
 21
22.24444399999998
 31
0.0
  0
LINE
  5
5A
330
A
100
AcDbEntity
  8
CARTOUCHE
  6
CONTINUOUS
 62
     4
100
AcDbLine
 10
39.15412299999999
 20
23.07919399999998
 30
0.0
 11
40.34302299999999
 21
23.07919399999998
 31
0.0
  0
LINE
  5
5B
330
A
100
AcDbEntity
  8
CARTOUCHE
  6
CONTINUOUS
 62
     4
100
AcDbLine
 10
38.364823
 20
23.07919399999998
 30
0.0
 11
39.15412299999999
 21
23.07919399999998
 31
0.0
  0
LINE
  5
5C
330
A
100
AcDbEntity
  8
CARTOUCHE
  6
CONTINUOUS
 62
     4
100
AcDbLine
 10
21.08752299999998
 20
24.931844
 30
0.0
 11
21.08752299999998
 21
25.834994
 31
0.0
  0
LINE
  5
5D
330
A
100
AcDbEntity
  8
CARTOUCHE
  6
CONTINUOUS
 62
     4
100
AcDbLine
 10
21.08752299999998
 20
25.834994
 30
0.0
 11
19.58947299999998
 21
25.834994
 31
0.0
  0
LINE
  5
5E
330
A
100
AcDbEntity
  8
CARTOUCHE
  6
CONTINUOUS
 62
     4
100
AcDbLine
 10
18.67462299999998
 20
24.931844
 30
0.0
 11
18.67462299999998
 21
24.508394
 31
0.0
  0
LINE
  5
5F
330
A
100
AcDbEntity
  8
CARTOUCHE
  6
CONTINUOUS
 62
     4
100
AcDbLine
 10
18.67462299999998
 20
24.508394
 30
0.0
 11
18.137323
 21
24.508394
 31
0.0
  0
LINE
  5
60
330
A
100
AcDbEntity
  8
CARTOUCHE
  6
CONTINUOUS
 62
     4
100
AcDbLine
 10
18.137323
 20
24.508394
 30
0.0
 11
18.137323
 21
23.41084399999999
 31
0.0
  0
LINE
  5
61
330
A
100
AcDbEntity
  8
CARTOUCHE
  6
CONTINUOUS
 62
     4
100
AcDbLine
 10
18.137323
 20
23.41084399999999
 30
0.0
 11
18.67462299999998
 21
23.41084399999999
 31
0.0
  0
LINE
  5
62
330
A
100
AcDbEntity
  8
CARTOUCHE
  6
CONTINUOUS
 62
     4
100
AcDbLine
 10
18.67462299999998
 20
23.41084399999999
 30
0.0
 11
18.67462299999998
 21
20.63209399999998
 31
0.0
  0
LINE
  5
63
330
A
100
AcDbEntity
  8
CARTOUCHE
  6
CONTINUOUS
 62
     4
100
AcDbLine
 10
18.67462299999998
 20
20.63209399999998
 30
0.0
 11
20.470123
 21
20.63209399999998
 31
0.0
  0
LINE
  5
64
330
A
100
AcDbEntity
  8
CARTOUCHE
  6
CONTINUOUS
 62
     4
100
AcDbLine
 10
20.470123
 20
20.63209399999998
 30
0.0
 11
20.470123
 21
23.41084399999999
 31
0.0
  0
LINE
  5
65
330
A
100
AcDbEntity
  8
CARTOUCHE
  6
CONTINUOUS
 62
     4
100
AcDbLine
 10
20.470123
 20
23.41084399999999
 30
0.0
 11
21.08752299999998
 21
23.41084399999999
 31
0.0
  0
LINE
  5
66
330
A
100
AcDbEntity
  8
CARTOUCHE
  6
CONTINUOUS
 62
     4
100
AcDbLine
 10
21.08752299999998
 20
23.41084399999999
 30
0.0
 11
21.08752299999998
 21
24.508394
 31
0.0
  0
LINE
  5
67
330
A
100
AcDbEntity
  8
CARTOUCHE
  6
CONTINUOUS
 62
     4
100
AcDbLine
 10
21.08752299999998
 20
24.508394
 30
0.0
 11
20.412973
 21
24.508394
 31
0.0
  0
LINE
  5
68
330
A
100
AcDbEntity
  8
CARTOUCHE
  6
CONTINUOUS
 62
     4
100
AcDbLine
 10
20.412973
 20
24.508394
 30
0.0
 11
20.46107899999998
 21
24.76862199999999
 31
0.0
  0
LINE
  5
69
330
A
100
AcDbEntity
  8
CARTOUCHE
  6
CONTINUOUS
 62
     4
100
AcDbLine
 10
20.67905299999999
 20
24.931844
 30
0.0
 11
21.08752299999998
 21
24.931844
 31
0.0
  0
LINE
  5
6A
330
A
100
AcDbEntity
  8
CARTOUCHE
  6
CONTINUOUS
 62
     4
100
AcDbLine
 10
21.80797299999999
 20
20.63209399999998
 30
0.0
 11
21.80797299999999
 21
24.508394
 31
0.0
  0
LINE
  5
6B
330
A
100
AcDbEntity
  8
CARTOUCHE
  6
CONTINUOUS
 62
     4
100
AcDbLine
 10
21.80797299999999
 20
24.508394
 30
0.0
 11
23.625973
 21
24.508394
 31
0.0
  0
LINE
  5
6C
330
A
100
AcDbEntity
  8
CARTOUCHE
  6
CONTINUOUS
 62
     4
100
AcDbLine
 10
23.625973
 20
24.508394
 30
0.0
 11
23.625973
 21
20.63209399999998
 31
0.0
  0
LINE
  5
6D
330
A
100
AcDbEntity
  8
CARTOUCHE
  6
CONTINUOUS
 62
     4
100
AcDbLine
 10
23.625973
 20
20.63209399999998
 30
0.0
 11
21.80797299999999
 21
20.63209399999998
 31
0.0
  0
LINE
  5
6E
330
A
100
AcDbEntity
  8
CARTOUCHE
  6
CONTINUOUS
 62
     4
100
AcDbLine
 10
21.80797299999999
 20
24.943094
 30
0.0
 11
21.80797299999999
 21
25.834994
 31
0.0
  0
LINE
  5
6F
330
A
100
AcDbEntity
  8
CARTOUCHE
  6
CONTINUOUS
 62
     4
100
AcDbLine
 10
21.80797299999999
 20
25.834994
 30
0.0
 11
23.625973
 21
25.834994
 31
0.0
  0
LINE
  5
70
330
A
100
AcDbEntity
  8
CARTOUCHE
  6
CONTINUOUS
 62
     4
100
AcDbLine
 10
23.625973
 20
25.834994
 30
0.0
 11
23.625973
 21
24.943094
 31
0.0
  0
LINE
  5
71
330
A
100
AcDbEntity
  8
CARTOUCHE
  6
CONTINUOUS
 62
     4
100
AcDbLine
 10
23.625973
 20
24.943094
 30
0.0
 11
21.80797299999999
 21
24.943094
 31
0.0
  0
ARC
  5
72
330
A
100
AcDbEntity
  8
CARTOUCHE
  6
CONTINUOUS
 62
     4
100
AcDbCircle
 10
19.58025899999998
 20
24.929401
 30
0.0
 40
0.905639
100
AcDbArc
 50
90.0
 51
180.0
  0
ARC
  5
73
330
A
100
AcDbEntity
  8
CARTOUCHE
  6
CONTINUOUS
 62
     4
100
AcDbCircle
 10
20.70598799999998
 20
24.668716
 30
0.0
 40
0.264503
100
AcDbArc
 50
95.844673
 51
157.807812
  0
ARC
  5
74
330
A
100
AcDbEntity
  8
CARTOUCHE
  6
CONTINUOUS
 62
     4
100
AcDbCircle
 10
28.675028
 20
23.26487299999999
 30
0.0
 40
1.218658
100
AcDbArc
 50
2.806996999999998
 51
66.54578100000001
  0
ARC
  5
75
330
A
100
AcDbEntity
  8
CARTOUCHE
  6
CONTINUOUS
 62
     4
100
AcDbCircle
 10
28.06740299999999
 20
21.04526099999998
 30
0.0
 40
3.511892
100
AcDbArc
 50
71.872392
 51
120.4055569999999
  0
ARC
  5
76
330
A
100
AcDbEntity
  8
CARTOUCHE
  6
CONTINUOUS
 62
     4
100
AcDbCircle
 10
27.457324
 20
22.47903399999999
 30
0.0
 40
0.6511239999999999
100
AcDbArc
 50
0.0
 51
97.15068299999998
  0
ARC
  5
77
330
A
100
AcDbEntity
  8
CARTOUCHE
  6
CONTINUOUS
 62
     4
100
AcDbCircle
 10
27.44381
 20
21.82007899999999
 30
0.0
 40
1.306761
100
AcDbArc
 50
92.96251299999999
 51
152.003324
  0
CIRCLE
  5
78
330
A
100
AcDbEntity
  8
CARTOUCHE
  6
CONTINUOUS
 62
     4
100
AcDbCircle
 10
11.89964599999999
 20
23.92542199999998
 30
0.0
 40
4.756723
  0
ARC
  5
79
330
A
100
AcDbEntity
  8
CARTOUCHE
  6
CONTINUOUS
 62
     4
100
AcDbCircle
 10
11.899651
 20
23.925417
 30
0.0
 40
3.758726999999998
100
AcDbArc
 50
112.441032
 51
172.30447
  0
ARC
  5
7A
330
A
100
AcDbEntity
  8
CARTOUCHE
  6
CONTINUOUS
 62
     4
100
AcDbCircle
 10
11.899651
 20
23.925417
 30
0.0
 40
3.758726999999998
100
AcDbArc
 50
82.92015400000002
 51
97.425676
  0
ARC
  5
7B
330
A
100
AcDbEntity
  8
CARTOUCHE
  6
CONTINUOUS
 62
     4
100
AcDbCircle
 10
11.899651
 20
23.925417
 30
0.0
 40
3.758726999999998
100
AcDbArc
 50
187.868554
 51
67.74447600000001
  0
SPLINE
  5
7C
330
A
100
AcDbEntity
  8
CARTOUCHE
  6
CONTINUOUS
 62
     4
100
AcDbSpline
210
0.0
220
0.0
230
1.0
 70
     8
 71
     3
 72
    36
 73
    32
 74
    30
 42
0.0000000001
 43
0.0000000001
 44
0.000001
 12
-0.7486966541787443
 22
0.6629127544568397
 32
0.0
 13
0.8109899424984487
 23
0.5850600936368529
 33
0.0
 40
0.0
 40
0.0
 40
0.0
 40
0.0
 40
0.1780761553060556
 40
0.3550416348689564
 40
0.534344865884207
 40
0.7146560387434031
 40
1.070969089720223
 40
1.425796663898011
 40
1.782601001142071
 40
2.138603895040079
 40
2.494665093696485
 40
2.851054396920102
 40
3.206893011134889
 40
3.5633758813569
 40
3.91939376562976
 40
4.275489247209685
 40
4.631810020557422
 40
4.987968836485988
 40
5.344081360419366
 40
5.700398584840186
 40
6.056403071275471
 40
6.412685561611945
 40
6.768553833375487
 40
7.124993908020178
 40
7.480918575954275
 40
7.837064891658402
 40
8.193226462040993
 40
8.549153485654631
 40
8.905927656882472
 40
9.26182807522613
 40
9.970557563632079
 40
9.970557563632079
 40
9.970557563632079
 40
9.970557563632079
 10
34.19152297621248
 20
24.31990419713182
 30
0.0
 10
34.1470813023236
 20
24.35925384867082
 30
0.0
 10
34.0521719569681
 20
24.43173618392172
 30
0.0
 10
33.88702575613148
 20
24.50226791579082
 30
0.0
 10
33.71305223761583
 20
24.54495714766015
 30
0.0
 10
33.47834937114383
 20
24.58798310564185
 30
0.0
 10
33.18518211493348
 20
24.63800747804683
 30
0.0
 10
32.82899744348545
 20
24.659369294718
 30
0.0
 10
32.47326771695625
 20
24.64621390081769
 30
0.0
 10
32.11757591555201
 20
24.61242870860891
 30
0.0
 10
31.77299300510799
 20
24.5155708841489
 30
0.0
 10
31.44749964423073
 20
24.36660655392596
 30
0.0
 10
31.15775794383959
 20
24.15567801072957
 30
0.0
 10
30.90609576518011
 20
23.90204674026736
 30
0.0
 10
30.69450218406407
 20
23.61346834211755
 30
0.0
 10
30.53862681297708
 20
23.29089603959582
 30
0.0
 10
30.4427778154891
 20
22.9462329884785
 30
0.0
 10
30.40515987073751
 20
22.58968062292321
 30
0.0
 10
30.44352427876861
 20
22.23351817132072
 30
0.0
 10
30.53308941867978
 20
21.88748886639844
 30
0.0
 10
30.68157947778859
 20
21.56148506227442
 30
0.0
 10
30.88917782139148
 20
21.26919473918138
 30
0.0
 10
31.15221374974194
 20
21.02575919463754
 30
0.0
 10
31.4509261633181
 20
20.82973487900221
 30
0.0
 10
31.7761597563312
 20
20.68002671318712
 30
0.0
 10
32.1245992018452
 20
20.59680895475904
 30
0.0
 10
32.4803630861093
 20
20.56921458872081
 30
0.0
 10
32.83672042951041
 20
20.56880350163353
 30
0.0
 10
33.19288790635218
 20
20.58096018875884
 30
0.0
 10
33.6641915214532
 20
20.63797084694975
 30
0.0
 10
33.99993214719605
 20
20.78862716016669
 30
0.0
 10
34.19152297621248
 20
20.92684360711669
 30
0.0
 11
34.19152297621248
 21
24.31990419713182
 31
0.0
 11
34.04814564948316
 21
24.42551803537496
 31
0.0
 11
33.886414432493
 21
24.49734946038967
 31
0.0
 11
33.71305596481814
 21
24.54313679053143
 31
0.0
 11
33.53598457982956
 21
24.57716399139703
 31
0.0
 11
33.18386096308204
 21
24.63164336554592
 31
0.0
 11
32.8297140010732
 21
24.65361067318905
 31
0.0
 11
32.47307470160767
 21
24.64275936909139
 31
0.0
 11
32.11942187052807
 21
24.60192152108414
 31
0.0
 11
31.77626880985488
 21
24.50691864896159
 31
0.0
 11
31.45331806594562
 21
24.35619987525168
 31
0.0
 11
31.16425081659299
 21
24.14868782982736
 31
0.0
 11
30.91268311986691
 21
23.89611360248224
 31
0.0
 11
30.70379325220438
 21
23.60781901266321
 31
0.0
 11
30.54866063637869
 21
23.28729150751013
 31
0.0
 11
30.45247328846812
 21
22.94419894098582
 31
0.0
 11
30.41782044248039
 21
22.58972989255912
 31
0.0
 11
30.4520470898832
 21
22.23526594311771
 31
0.0
 11
30.54294059487364
 21
21.89073675637875
 31
0.0
 11
30.691396483504
 21
21.56716285752306
 31
0.0
 11
30.89849041843911
 21
21.27725022136696
 31
0.0
 11
31.15802450035081
 21
21.0337665401986
 31
0.0
 11
31.45548308742885
 21
20.83737935540596
 31
0.0
 11
31.77997022332717
 21
20.69112453447919
 31
0.0
 11
32.12581407620214
 21
20.60608206244055
 31
0.0
 11
32.48050427697165
 21
20.57374147270578
 31
0.0
 11
32.83641989969535
 21
20.57089422013112
 31
0.0
 11
33.19286980656467
 21
20.58610182742616
 31
0.0
 11
33.54527140198384
 21
20.63588357412756
 31
0.0
 11
34.19152297621248
 21
20.92684360711669
 31
0.0
  0
SPLINE
  5
7D
330
A
100
AcDbEntity
  8
CARTOUCHE
  6
CONTINUOUS
 62
     4
100
AcDbSpline
210
0.0
220
0.0
230
1.0
 70
     8
 71
     3
 72
    32
 73
    28
 74
    26
 42
0.0000000001
 43
0.0000000001
 44
0.000001
 12
-0.1341089932713914
 22
0.9909665876929119
 32
0.0
 13
0.0921211275959058
 23
0.9957478083583508
 33
0.0
 40
0.0
 40
0.0
 40
0.0
 40
0.0
 40
0.1932870726990354
 40
0.3866792452096321
 40
0.5800716448723838
 40
0.7723331336887238
 40
0.9658517963207502
 40
1.159368324722244
 40
1.351211885861728
 40
1.544293516073682
 40
1.738458265495974
 40
1.931764420786816
 40
2.315247530488627
 40
2.698534125382554
 40
2.891496493449493
 40
3.086239187656828
 40
3.279346076389814
 40
3.471494617804941
 40
3.665361350852593
 40
3.858866209618609
 40
4.051424456358019
 40
4.244517019109063
 40
4.629047421486942
 40
4.822526074880364
 40
5.015998230668783
 40
5.208856307653514
 40
5.402319509587272
 40
5.402319509587272
 40
5.402319509587272
 40
5.402319509587272
 10
34.19152297621248
 20
22.75924360711669
 30
0.0
 10
34.18288246463514
 20
22.82309061740926
 30
0.0
 10
34.14699032504411
 20
22.94923083584772
 30
0.0
 10
34.0386311915935
 20
23.11295856749961
 30
0.0
 10
33.88808692217448
 20
23.2375052632015
 30
0.0
 10
33.713903336865
 20
23.32349595013638
 30
0.0
 10
33.52952374823402
 20
23.381666646274
 30
0.0
 10
33.34290576820264
 20
23.43125923522332
 30
0.0
 10
33.1500593445487
 20
23.45345638096766
 30
0.0
 10
32.9567662653034
 20
23.43192402229585
 30
0.0
 10
32.77056094954621
 20
23.37588613719517
 30
0.0
 10
32.5400564300067
 20
23.25927875203683
 30
0.0
 10
32.3043208053898
 20
23.02895627192543
 30
0.0
 10
32.19918324728941
 20
22.70410853072548
 30
0.0
 10
32.25560999955026
 20
22.44863361631264
 30
0.0
 10
32.34552926468554
 20
22.27538547462595
 30
0.0
 10
32.47312191827226
 20
22.12730573798493
 30
0.0
 10
32.63483114160577
 20
22.01829644308999
 30
0.0
 10
32.81426091781529
 20
21.94472694998748
 30
0.0
 10
33.00144386925829
 20
21.89441488480765
 30
0.0
 10
33.1942829819659
 20
21.87304334806433
 30
0.0
 10
33.45148795617319
 20
21.88934820105486
 30
0.0
 10
33.70119762619981
 20
21.97262952139334
 30
0.0
 10
33.91655360502459
 20
22.11456126477981
 30
0.0
 10
34.05836119423946
 20
22.24858589816441
 30
0.0
 10
34.15639851653419
 20
22.41858974007391
 30
0.0
 10
34.18558229344233
 20
22.54608008734217
 30
0.0
 10
34.19152297621248
 20
22.61029360711668
 30
0.0
 11
34.19152297621248
 21
22.75924360711669
 31
0.0
 11
34.13791895137521
 21
22.94494973500174
 31
0.0
 11
34.03155373353055
 21
23.10646429401778
 31
0.0
 11
33.88383915758775
 21
23.2312882243935
 31
0.0
 11
33.71260018090836
 21
23.31870497950503
 31
0.0
 11
33.52912571204567
 21
23.38024026476581
 31
0.0
 11
33.34129541646134
 21
23.4268066350183
 31
0.0
 11
33.15043306379559
 21
23.44618483007101
 31
0.0
 11
32.95838311054932
 21
23.42625160056325
 31
0.0
 11
32.77240099875644
 21
23.3704787693241
 31
0.0
 11
32.6003783004499
 21
23.2823001555606
 31
0.0
 11
32.3303531106979
 21
23.01000300398823
 31
0.0
 11
32.22491909320101
 21
22.64150286445183
 31
0.0
 11
32.26331822628608
 21
22.45239971642014
 31
0.0
 11
32.35215412813561
 21
22.27909964132739
 31
0.0
 11
32.4790661567678
 21
22.13355370124998
 31
0.0
 11
32.63725672616544
 21
22.02448118124885
 31
0.0
 11
32.81564788989768
 21
21.94858052993353
 31
0.0
 11
33.00273750412712
 21
21.89916786421672
 31
0.0
 11
33.19419909206249
 21
21.87864610808737
 31
0.0
 11
33.38690243953787
 21
21.89090007892743
 31
0.0
 11
33.75163382265729
 21
22.01269765064039
 31
0.0
 11
33.91321018639743
 21
22.11912633605071
 31
0.0
 11
34.05119662359747
 21
22.25474052514755
 31
0.0
 11
34.14728879489485
 21
22.42195449774151
 31
0.0
 11
34.19152297621248
 21
22.61029360711668
 31
0.0
  0
LINE
  5
7E
330
A
100
AcDbEntity
  8
CARTOUCHE
  6
CONTINUOUS
 62
     4
100
AcDbLine
 10
34.19152299999999
 20
22.61029399999999
 30
0.0
 11
34.19152299999999
 21
22.75924399999999
 31
0.0
  0
LINE
  5
7F
330
A
100
AcDbEntity
  8
CARTOUCHE
  6
CONTINUOUS
 62
     4
100
AcDbLine
 10
34.19152299999999
 20
20.62084399999998
 30
0.0
 11
34.19152299999999
 21
20.92684399999999
 31
0.0
  0
SPLINE
  5
80
330
A
100
AcDbEntity
  8
CARTOUCHE
  6
CONTINUOUS
 62
     4
100
AcDbSpline
210
0.0
220
0.0
230
1.0
 70
     8
 71
     3
 72
    46
 73
    42
 74
    40
 42
0.0000000001
 43
0.0000000001
 44
0.000001
 12
0.2679235453433934
 22
0.9634401765811027
 32
0.0
 13
0.1610223945668763
 23
0.9869507527977013
 33
0.0
 40
0.0
 40
0.0
 40
0.0
 40
0.0
 40
0.2811755879610205
 40
0.5640894598527233
 40
0.848996750074431
 40
1.131204584902207
 40
1.693847130716207
 40
2.25688272553264
 40
2.539006562895586
 40
2.82069662770917
 40
3.102988313571608
 40
3.385254961394737
 40
3.948537059671116
 40
4.512594879571459
 40
5.076290929579052
 40
5.639938991368811
 40
6.203885292827631
 40
6.76673802423201
 40
7.329350602228592
 40
7.892323292363507
 40
8.455148072837028
 40
8.737354674731138
 40
9.018966275430832
 40
9.581780957923619
 40
9.8640384101795
 40
10.14660875455177
 40
10.42765626274299
 40
10.71044466815239
 40
11.27439702776554
 40
11.83782171874066
 40
12.40154952919084
 40
12.96488070414784
 40
13.53013628041458
 40
13.81230340811157
 40
14.0937286718736
 40
14.37575650341838
 40
14.65756953458365
 40
14.93943539145296
 40
15.2212008302244
 40
15.50299648006998
 40
15.78483841467691
 40
15.78483841467691
 40
15.78483841467691
 40
15.78483841467691
 10
42.2069229762125
 20
22.2561436071167
 30
0.0
 10
42.23203416300934
 20
22.34644222648852
 30
0.0
 10
42.26336600835233
 20
22.53399302707783
 30
0.0
 10
42.24149685064988
 20
22.81801354893513
 30
0.0
 10
42.17836809953294
 20
23.09483432895953
 30
0.0
 10
42.05825188604774
 20
23.45212616882764
 30
0.0
 10
41.82306680068029
 20
23.8672500462518
 30
0.0
 10
41.46781676949063
 20
24.18453380611619
 30
0.0
 10
41.14761161207629
 20
24.38196283172969
 30
0.0
 10
40.8889755311834
 20
24.49665789401904
 30
0.0
 10
40.61969386966782
 20
24.58173362530222
 30
0.0
 10
40.25431496432636
 20
24.67112545926651
 30
0.0
 10
39.78717039719532
 20
24.7349172266618
 30
0.0
 10
39.22286209832438
 20
24.74314592079586
 30
0.0
 10
38.65912089182813
 20
24.70776726288799
 30
0.0
 10
38.10430973138448
 20
24.60055473365942
 30
0.0
 10
37.56703419814676
 20
24.41975302663695
 30
0.0
 10
37.09128412027332
 20
24.10132431889457
 30
0.0
 10
36.74193897991701
 20
23.6494135573821
 30
0.0
 10
36.52262166512311
 20
23.12465092262863
 30
0.0
 10
36.46286239872555
 20
22.65237437546891
 30
0.0
 10
36.49897197569238
 20
22.27677357904617
 30
0.0
 10
36.60138550967333
 20
21.914478475941
 30
0.0
 10
36.76185476285073
 20
21.56953949794036
 30
0.0
 10
36.99184531701846
 20
21.27135446443551
 30
0.0
 10
37.18412183917007
 20
21.0637297758158
 30
0.0
 10
37.41499114147041
 20
20.8981099506315
 30
0.0
 10
37.75233275177086
 20
20.73107999541951
 30
0.0
 10
38.19505514432213
 20
20.56630095377484
 30
0.0
 10
38.75227472239757
 20
20.4684543647121
 30
0.0
 10
39.31516450875555
 20
20.42686251213917
 30
0.0
 10
39.87978566121682
 20
20.45310413897527
 30
0.0
 10
40.34636221788838
 20
20.51793252236162
 30
0.0
 10
40.71317022013404
 20
20.60361845862005
 30
0.0
 10
40.98020793552477
 20
20.69575648453572
 30
0.0
 10
41.23634112546804
 20
20.8133707130675
 30
0.0
 10
41.48756204304269
 20
20.94257872732796
 30
0.0
 10
41.71131198312713
 20
21.11779586997518
 30
0.0
 10
41.89210410379192
 20
21.33577447260693
 30
0.0
 10
42.0370545583131
 20
21.57968832418388
 30
0.0
 10
42.0887453551459
 20
21.76292223727327
 30
0.0
 10
42.10387297621249
 20
21.85564360711669
 30
0.0
 11
42.2069229762125
 21
22.2561436071167
 31
0.0
 11
42.25187369928078
 21
22.53370336692194
 31
0.0
 11
42.23470970538826
 21
22.81609604661631
 31
0.0
 11
42.17357887835489
 21
23.0943678180467
 31
0.0
 11
42.08234233059616
 21
23.36142053588839
 31
0.0
 11
41.79914459059214
 21
23.84759505388021
 31
0.0
 11
41.38499580886721
 21
24.22902637720731
 31
0.0
 11
41.14444967147259
 21
24.37644216492157
 31
0.0
 11
40.88739588735783
 21
24.49164913231013
 31
0.0
 11
40.61887239332167
 21
24.57873375105807
 31
0.0
 11
40.34465192624326
 21
24.6456486068168
 31
0.0
 11
39.78677780416954
 21
24.72351512572941
 31
0.0
 11
39.22285539283774
 21
24.73587418697074
 31
0.0
 11
38.66058598489463
 21
24.6957948090196
 31
0.0
 11
38.10728319880826
 21
24.58829981854138
 31
0.0
 11
37.57690963109761
 21
24.39662477322789
 31
0.0
 11
37.11224330369889
 21
24.07899538626728
 31
0.0
 11
36.76366857941347
 21
23.63737494458054
 31
0.0
 11
36.54722159336241
 21
23.11767406956402
 31
0.0
 11
36.47887604508949
 21
22.55901436160783
 31
0.0
 11
36.50730298839906
 21
22.27824312562695
 31
0.0
 11
36.58066141679664
 21
22.00635409419069
 31
0.0
 11
36.82487619371594
 21
21.49928452588675
 31
0.0
 11
36.99507455897878
 21
21.27411393911514
 31
0.0
 11
37.19090624714093
 21
21.07040837833609
 31
0.0
 11
37.41820717151092
 21
20.90511471530928
 31
0.0
 11
37.66963145788086
 21
20.77567317677089
 31
0.0
 11
38.1996064863776
 21
20.58288122875969
 31
0.0
 11
38.75315260795133
 21
20.4778380326807
 31
0.0
 11
39.31548247397889
 21
20.43816227630538
 31
0.0
 11
39.87832438970059
 21
20.46163547548924
 31
0.0
 11
40.43780417420945
 21
20.54223471097221
 31
0.0
 11
40.71211753370237
 21
20.60834422386486
 31
0.0
 11
40.97822189579761
 21
20.69993377525821
 31
0.0
 11
41.23556355576588
 21
20.81532426148599
 31
0.0
 11
41.48298030283661
 21
20.95024471011851
 31
0.0
 11
41.70417597333143
 21
21.12494680466518
 31
0.0
 11
41.88612496759311
 21
21.3400893433574
 31
0.0
 11
42.02581025553314
 21
21.58482751880403
 31
0.0
 11
42.10387297621249
 21
21.85564360711669
 31
0.0
  0
SPLINE
  5
81
330
A
100
AcDbEntity
  8
CARTOUCHE
  6
CONTINUOUS
 62
     4
100
AcDbSpline
210
0.0
220
0.0
230
1.0
 70
     8
 71
     3
 72
    15
 73
    11
 74
     9
 42
0.0000000001
 43
0.0000000001
 44
0.000001
 12
0.1873467659221653
 22
-0.9822938406090642
 32
0.0
 13
0.7770129286964089
 23
0.6294846373332944
 33
0.0
 40
0.0
 40
0.0
 40
0.0
 40
0.0
 40
0.3371520882962173
 40
0.6743124420665221
 40
1.011741231949286
 40
1.348773281046474
 40
1.687274393511954
 40
1.85609288646097
 40
2.024671668997255
 40
2.361713795269126
 40
2.361713795269126
 40
2.361713795269126
 40
2.361713795269126
 10
38.3648229762125
 20
22.24444360711669
 30
0.0
 10
38.3858777606679
 20
22.13404946722274
 30
0.0
 10
38.47908823920581
 20
21.91720258641543
 30
0.0
 10
38.7543084196568
 20
21.70644962175585
 30
0.0
 10
39.06998579026008
 20
21.58181024957575
 30
0.0
 10
39.40539428132956
 20
21.52556294079901
 30
0.0
 10
39.68949383633028
 20
21.54062590043177
 30
0.0
 10
39.90812614741165
 20
21.59887432412624
 30
0.0
 10
40.11328190683266
 20
21.69222629120342
 30
0.0
 10
40.25572761300298
 20
21.78492266024259
 30
0.0
 10
40.3430229762125
 20
21.85564360711669
 30
0.0
 11
38.3648229762125
 21
22.24444360711669
 31
0.0
 11
38.50164219830394
 21
21.93629966675314
 31
0.0
 11
38.76098099155704
 21
21.72084551731241
 31
0.0
 11
39.07332908880514
 21
21.59318639542835
 31
0.0
 11
39.40580907592664
 21
21.53798084006903
 31
0.0
 11
39.74365139903879
 21
21.55908759838489
 31
0.0
 11
39.90657573481705
 21
21.60330661466392
 31
0.0
 11
40.06077578326682
 21
21.67143258943228
 31
0.0
 11
40.3430229762125
 21
21.85564360711669
 31
0.0
  0
SPLINE
  5
82
330
A
100
AcDbEntity
  8
CARTOUCHE
  6
CONTINUOUS
 62
     4
100
AcDbSpline
210
0.0
220
0.0
230
1.0
 70
     8
 71
     3
 72
    21
 73
    17
 74
    15
 42
0.0000000001
 43
0.0000000001
 44
0.000001
 12
-0.0762450288998757
 22
0.9970891111470715
 32
0.0
 13
-0.2154301143740796
 23
-0.9765192603429648
 33
0.0
 40
0.0
 40
0.0
 40
0.0
 40
0.0
 40
0.1868552501291134
 40
0.3735743240415496
 40
0.5613842212537326
 40
0.7484489381161512
 40
0.935588438582806
 40
1.123112064008598
 40
1.311428189761302
 40
1.500242138341786
 40
1.686443726256276
 40
1.873057604711231
 40
2.05952021535887
 40
2.246467675506947
 40
2.43462854345534
 40
2.621193756753851
 40
2.621193756753851
 40
2.621193756753851
 40
2.621193756753851
 10
40.3430229762125
 20
23.07919360711669
 30
0.0
 10
40.33827404823044
 20
23.14129738553815
 30
0.0
 10
40.31098607120404
 20
23.265320998041
 30
0.0
 10
40.21176993964345
 20
23.42743856410386
 30
0.0
 10
40.07410542495197
 20
23.55667636729545
 30
0.0
 10
39.91380146855937
 20
23.65566279649365
 30
0.0
 10
39.73873495456709
 20
23.72452138799517
 30
0.0
 10
39.55490004271078
 20
23.76544088796557
 30
0.0
 10
39.36639757169171
 20
23.77885750750727
 30
0.0
 10
39.1790224559892
 20
23.76782182101864
 30
0.0
 10
38.99274814414789
 20
23.72745913194852
 30
0.0
 10
38.83748760469036
 20
23.62068056673371
 30
0.0
 10
38.66640559987163
 20
23.54392780516534
 30
0.0
 10
38.52524863854352
 20
23.41621618712654
 30
0.0
 10
38.42100518625731
 20
23.258923243242
 30
0.0
 10
38.37822023129222
 20
23.13992178181536
 30
0.0
 10
38.3648229762125
 20
23.07919360711669
 30
0.0
 11
40.3430229762125
 21
23.07919360711669
 31
0.0
 11
40.30128482007762
 21
23.26132867168497
 31
0.0
 11
40.20559522220136
 21
23.42166431604199
 31
0.0
 11
40.07014905358667
 21
23.55176773224803
 31
0.0
 11
39.91135088271828
 21
23.65064317365039
 31
0.0
 11
39.73746285592489
 21
23.71981068462435
 31
0.0
 11
39.55447534379333
 21
23.76080659501807
 31
0.0
 11
39.36667772831405
 21
23.77477007425147
 31
0.0
 11
39.17824365086321
 21
23.76280187157365
 31
0.0
 11
38.99791204207538
 21
23.71641788353441
 31
0.0
 11
38.83484335052719
 21
23.62568105970969
 31
0.0
 11
38.67159397760771
 21
23.53558123947114
 31
0.0
 11
38.53168126994678
 21
23.41159000587154
 31
0.0
 11
38.42745670868595
 21
23.25493190905036
 31
0.0
 11
38.3648229762125
 21
23.07919360711669
 31
0.0
  0
SPLINE
  5
83
330
A
100
AcDbEntity
  8
CARTOUCHE
  6
CONTINUOUS
 62
     4
100
AcDbSpline
210
0.0
220
0.0
230
1.0
 70
     8
 71
     3
 72
    14
 73
    10
 74
     8
 42
0.0000000001
 43
0.0000000001
 44
0.000001
 12
0.0554704849890783
 22
0.9984603273516061
 32
0.0
 13
-0.0466631639368038
 23
-0.9989106812580427
 33
0.0
 40
0.0
 40
0.0
 40
0.0
 40
0.0
 40
0.2162139074022218
 40
0.4333924847994324
 40
0.6499495281904905
 40
0.8697428518080908
 40
1.087237595645041
 40
1.304827608132232
 40
1.522315904263428
 40
1.522315904263428
 40
1.522315904263428
 40
1.522315904263428
 10
45.4545729762125
 20
22.82764360711668
 30
0.0
 10
45.45857080631416
 20
22.89960394337094
 30
0.0
 10
45.42640845178713
 20
23.04880719341104
 30
0.0
 10
45.27439530019221
 20
23.21580479327942
 30
0.0
 10
45.06187441261872
 20
23.29256560222701
 30
0.0
 10
44.83996045298547
 20
23.27349163465662
 30
0.0
 10
44.63539403875084
 20
23.17927816693098
 30
0.0
 10
44.50069250367362
 20
22.99887923670179
 30
0.0
 10
44.46300587355137
 20
22.85461073446803
 30
0.0
 10
44.45962297621247
 20
22.78219360711668
 30
0.0
 11
45.4545729762125
 21
22.82764360711668
 31
0.0
 11
45.40925657835891
 21
23.03905624439607
 31
0.0
 11
45.2643208173426
 21
23.20079736409236
 31
0.0
 11
45.06139949806013
 21
23.27642755731508
 31
0.0
 11
44.84216559415751
 21
23.2607549970325
 31
0.0
 11
44.64694347697345
 21
23.16487840855711
 31
0.0
 11
44.51370731348553
 21
22.99285063220138
 31
0.0
 11
44.45962297621247
 21
22.78219360711668
 31
0.0
  0
SPLINE
  5
84
330
A
100
AcDbEntity
  8
CARTOUCHE
  6
CONTINUOUS
 62
     4
100
AcDbSpline
210
0.0
220
0.0
230
1.0
 70
     8
 71
     3
 72
    20
 73
    16
 74
    14
 42
0.0000000001
 43
0.0000000001
 44
0.000001
 12
0.1358608544273129
 22
0.9907279284618358
 32
0.0
 13
-0.8123777522852272
 23
-0.583131535412039
 33
0.0
 40
0.0
 40
0.0
 40
0.0
 40
0.0
 40
0.3099167376574408
 40
0.6201162120086082
 40
0.9308832229227103
 40
1.240782580369536
 40
1.550958571055999
 40
1.861841472929394
 40
2.170989032701104
 40
2.482794313402613
 40
2.792566681426362
 40
3.102412009711698
 40
3.413423418356818
 40
3.723770860918
 40
4.34241409277492
 40
4.34241409277492
 40
4.34241409277492
 40
4.34241409277492
 10
47.28382297621251
 20
22.58779360711669
 30
0.0
 10
47.29785816047233
 20
22.69014132961503
 30
0.0
 10
47.31442324043968
 20
22.89676966285277
 30
0.0
 10
47.300929655681
 20
23.20747621588526
 30
0.0
 10
47.25565430040702
 20
23.51474442121903
 30
0.0
 10
47.17620425041041
 20
23.81641651325381
 30
0.0
 10
47.02732817013799
 20
24.09240856669954
 30
0.0
 10
46.81020864916886
 20
24.32073910349872
 30
0.0
 10
46.53096591325816
 20
24.46673549232284
 30
0.0
 10
46.23076181269932
 20
24.54812138519135
 30
0.0
 10
45.92302828297229
 20
24.59724610143176
 30
0.0
 10
45.61155007781772
 20
24.58971042935069
 30
0.0
 10
45.30365677773262
 20
24.54593296501846
 30
0.0
 10
44.90384925448966
 20
24.43649405403212
 30
0.0
 10
44.62714697559995
 20
24.28574373300502
 30
0.0
 10
44.45962297621249
 20
24.16549360711669
 30
0.0
 11
47.28382297621251
 21
22.58779360711669
 31
0.0
 11
47.3080338234398
 21
22.89676387907709
 31
0.0
 11
47.29564801913904
 21
23.20671600883971
 31
0.0
 11
47.24989999164073
 21
23.51409730955235
 31
0.0
 11
47.1646800578296
 21
23.81204898160464
 31
0.0
 11
47.01605698726017
 21
24.08429955967585
 31
0.0
 11
46.79947591694868
 21
24.30732619143858
 31
0.0
 11
46.52824151124928
 21
24.45566419975128
 31
0.0
 11
46.22887996193931
 21
24.5428722112578
 31
0.0
 11
45.92238599753446
 21
24.58782115591738
 31
0.0
 11
45.61256799206709
 21
24.58370341795764
 31
0.0
 11
45.3047164351297
 21
24.53948194901727
 31
0.0
 11
45.00579935951135
 21
24.4560304659967
 31
0.0
 11
44.45962297621249
 21
24.16549360711669
 31
0.0
  0
ARC
  5
85
330
A
100
AcDbEntity
  8
CARTOUCHE
  6
CONTINUOUS
 62
     4
100
AcDbCircle
 10
10.95095399999999
 20
23.85149299999999
 30
0.0
 40
0.4706070000000002
100
AcDbArc
 50
290.581791
 51
349.597912
  0
SPLINE
  5
86
330
A
100
AcDbEntity
  8
CARTOUCHE
  6
CONTINUOUS
 62
     4
100
AcDbSpline
210
0.0
220
0.0
230
1.0
 70
     8
 71
     3
 72
    14
 73
    10
 74
     8
 42
0.0000000001
 43
0.0000000001
 44
0.000001
 12
-0.0678904074543379
 22
-0.9976927846665446
 32
0.0
 13
-0.8200536786282526
 23
0.5722866101598664
 33
0.0
 40
0.0
 40
0.0
 40
0.0
 40
0.0
 40
0.2180606789005079
 40
0.4363602626288003
 40
0.6537280242066231
 40
0.8729546411850229
 40
1.089088005528229
 40
1.305403373828843
 40
1.523279715932531
 40
1.523279715932531
 40
1.523279715932531
 40
1.523279715932531
 10
13.3232229762125
 20
21.16984360711669
 30
0.0
 10
13.3182882334324
 20
21.09732441846385
 30
0.0
 10
13.284440483435
 20
20.95301317401816
 30
0.0
 10
13.16948288538595
 20
20.7630742883032
 30
0.0
 10
12.99638521645118
 20
20.6240633334473
 30
0.0
 10
12.79557455913801
 20
20.53568047568411
 30
0.0
 10
12.57604688222645
 20
20.5036065741256
 30
0.0
 10
12.36194585198925
 20
20.55796217058826
 30
0.0
 10
12.23325574438505
 20
20.6267655025048
 30
0.0
 10
12.17369897910899
 20
20.66832807359032
 30
0.0
 11
13.3232229762125
 21
21.16984360711669
 31
0.0
 11
13.27374961772985
 21
20.95746843688553
 31
0.0
 11
13.15964273339541
 21
20.77136537381492
 31
0.0
 11
12.99218699760144
 21
20.63277473124212
 31
0.0
 11
12.79139755994316
 21
20.54477508934442
 31
0.0
 11
12.576934032064
 21
20.51795972590457
 31
0.0
 11
12.36599789339048
 21
20.56590052451097
 31
0.0
 11
12.17369897910899
 21
20.66832807359032
 31
0.0
  0
ARC
  5
87
330
A
100
AcDbEntity
  8
CARTOUCHE
  6
CONTINUOUS
 62
     4
100
AcDbCircle
 10
14.40453899999999
 20
25.005869
 30
0.0
 40
0.5000710000000002
100
AcDbArc
 50
275.8401249999999
 51
95.840125
  0
INSERT
  5
88
330
A
100
AcDbEntity
  8
CARTOUCHE
  6
CONTINUOUS
 62
     4
100
AcDbBlockReference
  2
*X13
 10
0.0
 20
0.0
 30
0.0
1001
ACAD
1000
HATCH
1002
{
1070
    19
1000
ANSI31
1040
0.062992
1040
0.0
1000
R14_HATCH_DATA
1000
88
1011
1.0
1021
0.0
1031
0.0
1011
0.0
1021
1.0
1031
0.0
1011
0.0
1021
0.0
1031
1.0
1040
0.0
1010
0.0
1020
0.0
1030
1.0
1000
ANSI31
1070
     0
1070
     0
1071
        1
1071
        1
1071
       50
1070
     1
1040
10.46482297621249
1040
24.42874360711669
1040
10.46482297621249
1040
27.39950620338089
1070
     1
1040
8.174776197285117
1040
24.42874360711669
1040
10.46482297621249
1040
24.42874360711669
1070
     1
1040
11.41387297621249
1040
27.65262056693448
1040
11.41387297621249
1040
23.76651350370063
1070
     1
1040
11.11642297621248
1040
23.41084360711668
1040
10.88782297621249
1040
23.41084360711668
1070
     1
1040
10.88782297621249
1040
23.41084360711668
1040
12.36292297621249
1040
21.81019360711669
1070
     1
1040
12.36292297621249
1040
21.81019360711669
1040
12.36292297621249
1040
27.65548474905462
1070
     1
1040
9.378522976212499
1040
23.41084360711668
1040
8.176313141344726
1040
23.41084360711668
1070
     1
1040
13.3232229762125
1040
27.40413356412171
1040
13.3232229762125
1040
25.50334360711669
1070
     1
1040
13.3232229762125
1040
25.50334360711669
1040
14.35365561804984
1040
25.50334360711669
1070
     1
1040
14.45542297620991
1040
24.50839360711669
1040
13.3232229762125
1040
24.50839360711669
1070
     1
1040
13.3232229762125
1040
24.50839360711669
1040
13.3232229762125
1040
21.16984360711669
1070
     1
1040
13.3232229762125
1040
21.16984360711669
1040
13.31883473362851
1040
21.12641207783192
1070
     1
1040
13.31883473362851
1040
21.12641207783192
1040
13.31163234261353
1040
21.08326802947578
1070
     1
1040
13.31163234261353
1040
21.08326802947578
1040
13.30167673704227
1040
21.04060222873889
1070
     1
1040
13.30167673704227
1040
21.04060222873889
1040
13.28902885078948
1040
20.99860544231192
1070
     1
1040
13.28902885078948
1040
20.99860544231192
1040
13.27374961772985
1040
20.95746843688553
1070
     1
1040
13.27374961772985
1040
20.95746843688553
1040
13.25587736440904
1040
20.91734035839061
1070
     1
1040
13.25587736440904
1040
20.91734035839061
1040
13.23547981538517
1040
20.87846556800614
1070
     1
1040
13.23547981538517
1040
20.87846556800614
1040
13.21260770458825
1040
20.84104451056205
1070
     1
1040
13.21260770458825
1040
20.84104451056205
1040
13.18731176594831
1040
20.80527763088834
1070
     1
1040
13.18731176594831
1040
20.80527763088834
1040
13.15964273339541
1040
20.77136537381492
1070
     1
1040
13.15964273339541
1040
20.77136537381492
1040
13.12981510363878
1040
20.73960515208204
1070
     1
1040
13.12981510363878
1040
20.73960515208204
1040
13.09792030592153
1040
20.70987423443825
1070
     1
1040
13.09792030592153
1040
20.70987423443825
1040
13.06419374950322
1040
20.68216436340363
1070
     1
1040
13.06419374950322
1040
20.68216436340363
1040
13.02887084364335
1040
20.65646728149825
1070
     1
1040
13.02887084364335
1040
20.65646728149825
1040
12.99218699760144
1040
20.63277473124212
1070
     1
1040
12.99218699760144
1040
20.63277473124212
1040
12.91478675188543
1040
20.59112910905728
1070
     1
1040
12.91478675188543
1040
20.59112910905728
1040
12.87455471295311
1040
20.57347859798428
1070
     1
1040
12.87455471295311
1040
20.57347859798428
1040
12.83340026517213
1040
20.55801039718216
1070
     1
1040
12.83340026517213
1040
20.55801039718216
1040
12.79139755994316
1040
20.54477508934442
1070
     1
1040
12.79139755994316
1040
20.54477508934442
1040
12.74924920374651
1040
20.53399436824628
1070
     1
1040
12.74924920374651
1040
20.53399436824628
1040
12.70653855253719
1040
20.52567780520202
1070
     1
1040
12.70653855253719
1040
20.52567780520202
1040
12.66345572663827
1040
20.5200700663628
1070
     1
1040
12.66345572663827
1040
20.5200700663628
1040
12.62019084637286
1040
20.51741581787993
1070
     1
1040
12.62019084637286
1040
20.51741581787993
1040
12.576934032064
1040
20.51795972590457
1070
     1
1040
12.576934032064
1040
20.51795972590457
1040
12.53382920534852
1040
20.52186005993909
1070
     1
1040
12.53382920534852
1040
20.52186005993909
1040
12.49105303847669
1040
20.52890666207177
1070
     1
1040
12.49105303847669
1040
20.52890666207177
1040
12.44873567109527
1040
20.53879717704784
1070
     1
1040
12.44873567109527
1040
20.53879717704784
1040
12.40700724285096
1040
20.55122924961249
1070
     1
1040
12.40700724285096
1040
20.55122924961249
1040
12.36599789339048
1040
20.56590052451097
1070
     1
1040
12.36599789339048
1040
20.56590052451097
1040
12.28601340577359
1040
20.60136338170921
1070
     1
1040
12.28601340577359
1040
20.60136338170921
1040
12.22861677966269
1040
20.63285264645903
1070
     1
1040
12.22861677966269
1040
20.63285264645903
1040
12.17369897910899
1040
20.66832807359032
1070
     1
1040
12.17369897910892
1040
20.66832807359026
1040
9.378522976212499
1040
23.41084360711668
1070
     2
1040
11.89964574585572
1040
23.92542170859345
1040
4.756722701239383
1040
0.0
1040
6.283185307179585
1070
     1
1070
     2
1040
11.8996508000396
1040
23.92541669660974
1040
3.758727016569031
1040
1.962466222740303
1040
3.007280317403794
1070
     1
1070
     2
1040
10.95095374319994
1040
23.85149252383617
1040
0.470606688187057
1040
5.071608999292026
1040
6.101634622497393
1070
     1
1070
     2
1040
11.8996508000396
1040
23.92541669660974
1040
3.758727016569031
1040
1.447229703560745
1040
1.700398822181218
1070
     1
1070
     2
1040
11.8996508000396
1040
23.92541669660974
1040
3.758727016569031
1040
3.278924828260763
1040
7.465549463417863
1070
     1
1070
     2
1040
14.40453929713243
1040
25.00586860711695
1040
0.5000705194487285
1040
4.814318390362722
1040
7.955911043952516
1070
     1
1071
        0
1070
     0
1070
     1
1040
0.0
1040
0.062992
1070
     0
1070
     1
1040
0.7853981633974483
1040
-6.225169999999999
1040
-28.624349
1040
-0.1414213583446519
1040
0.1414213583446519
1070
     0
1071
        1
1040
-6.225169999999999
1040
-28.624349
1040
0.0
1002
}
  0
INSERT
  5
89
330
A
100
AcDbEntity
  8
CARTOUCHE
  6
CONTINUOUS
 62
     4
100
AcDbBlockReference
  2
*X14
 10
0.0
 20
0.0
 30
0.0
1001
ACAD
1000
HATCH
1002
{
1070
    19
1000
ANSI31
1040
0.062992
1040
0.0
1000
R14_HATCH_DATA
1000
89
1011
1.0
1021
0.0
1031
0.0
1011
0.0
1021
1.0
1031
0.0
1011
0.0
1021
0.0
1031
1.0
1040
0.0
1010
0.0
1020
0.0
1030
1.0
1000
ANSI31
1070
     0
1070
     0
1071
        1
1071
        1
1071
       16
1070
     1
1040
18.67462297621248
1040
24.50839360711669
1040
18.67462297621248
1040
24.92940137843238
1070
     1
1040
19.58025878682235
1040
25.83499360711669
1040
21.08752297621249
1040
25.83499360711669
1070
     1
1040
21.08752297621249
1040
25.83499360711669
1040
21.08752297621249
1040
24.93184360711669
1070
     1
1040
21.08752297621249
1040
24.93184360711669
1040
20.67905333190205
1040
24.93184360711669
1070
     1
1040
20.46107932853862
1040
24.76862245788873
1040
20.41297297621248
1040
24.50839360711669
1070
     1
1040
20.41297297621248
1040
24.50839360711669
1040
21.08752297621249
1040
24.50839360711669
1070
     1
1040
21.08752297621249
1040
24.50839360711669
1040
21.08752297621249
1040
23.41084360711668
1070
     1
1040
21.08752297621249
1040
23.41084360711668
1040
20.47012297621249
1040
23.41084360711668
1070
     1
1040
20.47012297621249
1040
23.41084360711668
1040
20.47012297621249
1040
20.63209360711669
1070
     1
1040
20.47012297621248
1040
20.63209360711669
1040
18.67462297621248
1040
20.63209360711669
1070
     1
1040
18.67462297621248
1040
20.63209360711669
1040
18.67462297621248
1040
23.41084360711668
1070
     1
1040
18.67462297621248
1040
23.41084360711668
1040
18.13732297621251
1040
23.41084360711668
1070
     1
1040
18.13732297621251
1040
23.41084360711668
1040
18.13732297621251
1040
24.50839360711669
1070
     1
1040
18.13732297621251
1040
24.50839360711669
1040
18.67462297621248
1040
24.50839360711669
1070
     2
1040
19.58025878682235
1040
24.92940137843238
1040
0.9056391035836327
1040
1.570796326794896
1040
3.141592653589792
1070
     1
1070
     2
1040
20.70598815405769
1040
24.66871596669092
1040
0.2645026272092472
1040
1.672805114347311
1040
2.754265904768216
1070
     1
1071
        0
1070
     0
1070
     1
1040
0.0
1040
0.062992
1070
     0
1070
     1
1040
0.7853981633974483
1040
-6.225169999999999
1040
-28.624349
1040
-0.1414213583446519
1040
0.1414213583446519
1070
     0
1071
        1
1040
-6.225169999999999
1040
-28.624349
1040
0.0
1002
}
  0
INSERT
  5
8A
330
A
100
AcDbEntity
  8
CARTOUCHE
  6
CONTINUOUS
 62
     4
100
AcDbBlockReference
  2
*X15
 10
0.0
 20
0.0
 30
0.0
1001
ACAD
1000
HATCH
1002
{
1070
    19
1000
ANSI31
1040
0.062992
1040
0.0
1000
R14_HATCH_DATA
1000
8A
1011
1.0
1021
0.0
1031
0.0
1011
0.0
1021
1.0
1031
0.0
1011
0.0
1021
0.0
1031
1.0
1040
0.0
1010
0.0
1020
0.0
1030
1.0
1000
ANSI31
1070
     0
1070
     0
1071
        1
1071
        1
1071
        4
1070
     1
1040
21.80797297621249
1040
25.83499360711669
1040
21.80797297621249
1040
24.94309360711669
1070
     1
1040
21.80797297621249
1040
24.94309360711669
1040
23.6259729762125
1040
24.94309360711669
1070
     1
1040
23.6259729762125
1040
24.94309360711667
1040
23.6259729762125
1040
25.83499360711669
1070
     1
1040
23.6259729762125
1040
25.83499360711669
1040
21.80797297621249
1040
25.83499360711669
1071
        0
1070
     0
1070
     1
1040
0.0
1040
0.062992
1070
     0
1070
     1
1040
0.7853981633974483
1040
-6.225169999999999
1040
-28.624349
1040
-0.1414213583446519
1040
0.1414213583446519
1070
     0
1071
        1
1040
-6.225169999999999
1040
-28.624349
1040
0.0
1002
}
  0
INSERT
  5
8B
330
A
100
AcDbEntity
  8
CARTOUCHE
  6
CONTINUOUS
 62
     4
100
AcDbBlockReference
  2
*X16
 10
0.0
 20
0.0
 30
0.0
1001
ACAD
1000
HATCH
1002
{
1070
    19
1000
ANSI31
1040
0.062992
1040
0.0
1000
R14_HATCH_DATA
1000
8B
1011
1.0
1021
0.0
1031
0.0
1011
0.0
1021
1.0
1031
0.0
1011
0.0
1021
0.0
1031
1.0
1040
0.0
1010
0.0
1020
0.0
1030
1.0
1000
ANSI31
1070
     0
1070
     0
1071
        1
1071
        1
1071
        4
1070
     1
1040
21.80797297621249
1040
24.50839360711669
1040
21.80797297621249
1040
20.63209360711669
1070
     1
1040
21.80797297621249
1040
20.63209360711669
1040
23.6259729762125
1040
20.63209360711669
1070
     1
1040
23.6259729762125
1040
20.63209360711669
1040
23.6259729762125
1040
24.50839360711669
1070
     1
1040
23.6259729762125
1040
24.50839360711669
1040
21.80797297621249
1040
24.50839360711669
1071
        0
1070
     0
1070
     1
1040
0.0
1040
0.062992
1070
     0
1070
     1
1040
0.7853981633974483
1040
-6.225169999999999
1040
-28.624349
1040
-0.1414213583446519
1040
0.1414213583446519
1070
     0
1071
        1
1040
-6.225169999999999
1040
-28.624349
1040
0.0
1002
}
  0
INSERT
  5
8C
330
A
100
AcDbEntity
  8
CARTOUCHE
  6
CONTINUOUS
 62
     4
100
AcDbBlockReference
  2
*X17
 10
0.0
 20
0.0
 30
0.0
1001
ACAD
1000
HATCH
1002
{
1070
    19
1000
ANSI31
1040
0.062992
1040
0.0
1000
R14_HATCH_DATA
1000
8C
1011
1.0
1021
0.0
1031
0.0
1011
0.0
1021
1.0
1031
0.0
1011
0.0
1021
0.0
1031
1.0
1040
0.0
1010
0.0
1020
0.0
1030
1.0
1000
ANSI31
1070
     0
1070
     0
1071
        1
1071
        1
1071
       12
1070
     1
1040
26.2899729762125
1040
24.50839360711669
1040
26.2899729762125
1040
24.0741436071167
1070
     1
1040
29.8922229762125
1040
23.32455319801141
1040
29.8922229762125
1040
20.63209360711669
1070
     1
1040
29.8922229762125
1040
20.63209360711669
1040
28.1084229762125
1040
20.63209360711669
1070
     1
1040
28.1084229762125
1040
20.63209360711669
1040
28.1084229762125
1040
22.47903425384607
1070
     1
1040
26.2899729762125
1040
22.43349938746982
1040
26.2899729762125
1040
20.63209360711669
1070
     1
1040
26.2899729762125
1040
20.63209360711669
1040
24.49492297621248
1040
20.63209360711669
1070
     1
1040
24.49492297621248
1040
20.63209360711669
1040
24.49492297621248
1040
24.50839360711669
1070
     1
1040
24.49492297621248
1040
24.50839360711669
1040
26.2899729762125
1040
24.50839360711669
1070
     2
1040
28.06740262422222
1040
21.04526125288079
1040
3.511891864711319
1040
1.254409881684031
1040
2.101473407347706
1070
     1
1070
     2
1040
28.67502750890198
1040
23.26487340256417
1040
1.218657656450692
1040
0.0489913397436033
1040
1.161442981761084
1070
     1
1070
     2
1040
27.45732435316137
1040
22.47903425384607
1040
0.6511236546569659
1040
0.0
1040
1.695599288911282
1070
     1
1070
     2
1040
27.44380973637427
1040
21.82007935996338
1040
1.306760651093609
1040
1.622501932778031
1040
2.652958477775716
1070
     1
1071
        0
1070
     0
1070
     1
1040
0.0
1040
0.062992
1070
     0
1070
     1
1040
0.7853981633974483
1040
-6.225169999999999
1040
-28.624349
1040
-0.1414213583446519
1040
0.1414213583446519
1070
     0
1071
        1
1040
-6.225169999999999
1040
-28.624349
1040
0.0
1002
}
  0
INSERT
  5
8D
330
A
100
AcDbEntity
  8
CARTOUCHE
  6
CONTINUOUS
 62
     4
100
AcDbBlockReference
  2
*X18
 10
0.0
 20
0.0
 30
0.0
1001
ACAD
1000
HATCH
1002
{
1070
    19
1000
ANSI31
1040
0.062992
1040
0.0
1000
R14_HATCH_DATA
1000
8D
1011
1.0
1021
0.0
1031
0.0
1011
0.0
1021
1.0
1031
0.0
1011
0.0
1021
0.0
1031
1.0
1040
0.0
1010
0.0
1020
0.0
1030
1.0
1000
ANSI31
1070
     0
1070
     0
1071
        1
1071
        1
1071
      154
1070
     1
1040
34.19152297621248
1040
24.31990419713182
1040
34.13663886743906
1040
24.36546535202642
1070
     1
1040
34.13663886743906
1040
24.36546535202642
1040
34.09335300453609
1040
24.39695233004337
1070
     1
1040
34.09335300453609
1040
24.39695233004337
1040
34.04814564948316
1040
24.42551803537496
1070
     1
1040
34.04814564948316
1040
24.42551803537496
1040
33.9853148771282
1040
24.45824326889328
1070
     1
1040
33.9853148771282
1040
24.45824326889328
1040
33.93641481696294
1040
24.4791830661683
1070
     1
1040
33.93641481696294
1040
24.4791830661683
1040
33.886414432493
1040
24.49734946038967
1070
     1
1040
33.886414432493
1040
24.49734946038967
1040
33.80036916880801
1040
24.52267004883189
1070
     1
1040
33.80036916880801
1040
24.52267004883189
1040
33.71305596481814
1040
24.54313679053143
1070
     1
1040
33.71305596481814
1040
24.54313679053143
1040
33.53598457982956
1040
24.57716399139703
1070
     1
1040
33.53598457982956
1040
24.57716399139703
1040
33.18386096308204
1040
24.63164336554592
1070
     1
1040
33.18386096308204
1040
24.63164336554592
1040
32.8297140010732
1040
24.65361067318905
1070
     1
1040
32.8297140010732
1040
24.65361067318905
1040
32.47307470160767
1040
24.64275936909139
1070
     1
1040
32.47307470160767
1040
24.64275936909139
1040
32.29553494834803
1040
24.6275672735291
1070
     1
1040
32.29553494834803
1040
24.6275672735291
1040
32.11942187052807
1040
24.60192152108414
1070
     1
1040
32.11942187052807
1040
24.60192152108414
1040
31.98039318439711
1040
24.57087434194068
1070
     1
1040
31.98039318439711
1040
24.57087434194068
1040
31.77626880985488
1040
24.50691864896159
1070
     1
1040
31.77626880985488
1040
24.50691864896159
1040
31.6438569058368
1040
24.45344206025171
1070
     1
1040
31.6438569058368
1040
24.45344206025171
1040
31.54719857995649
1040
24.407477873527
1070
     1
1040
31.54719857995649
1040
24.407477873527
1040
31.45331806594562
1040
24.35619987525168
1070
     1
1040
31.45331806594562
1040
24.35619987525168
1040
31.33327592488072
1040
24.27954096136778
1070
     1
1040
31.33327592488072
1040
24.27954096136778
1040
31.16425081659299
1040
24.14868782982736
1070
     1
1040
31.16425081659299
1040
24.14868782982736
1040
31.0589378780202
1040
24.05235758471281
1070
     1
1040
31.0589378780202
1040
24.05235758471281
1040
30.91268311986691
1040
23.89611360248224
1070
     1
1040
30.91268311986691
1040
23.89611360248224
1040
30.82344491669815
1040
23.78493111348759
1070
     1
1040
30.82344491669815
1040
23.78493111348759
1040
30.70379325220438
1040
23.60781901266321
1070
     1
1040
30.70379325220438
1040
23.60781901266321
1040
30.63481574159435
1040
23.48302033355442
1070
     1
1040
30.63481574159435
1040
23.48302033355442
1040
30.58909607880861
1040
23.38630952682728
1070
     1
1040
30.58909607880861
1040
23.38630952682728
1040
30.54866063637869
1040
23.28729150751013
1070
     1
1040
30.54866063637869
1040
23.28729150751013
1040
30.50307718886283
1040
23.15213239899057
1070
     1
1040
30.50307718886283
1040
23.15213239899057
1040
30.45247328846812
1040
22.94419894098582
1070
     1
1040
30.45247328846812
1040
22.94419894098582
1040
30.43063168033314
1040
22.80314986265371
1070
     1
1040
30.43063168033314
1040
22.80314986265371
1040
30.42104684068462
1040
22.696588010784
1070
     1
1040
30.42104684068462
1040
22.696588010784
1040
30.41782044248039
1040
22.58972989255912
1070
     1
1040
30.41782044248039
1040
22.58972989255912
1040
30.42378322889165
1040
22.44735507912694
1070
     1
1040
30.42378322889165
1040
22.44735507912694
1040
30.4520470898832
1040
22.23526594311771
1070
     1
1040
30.4520470898832
1040
22.23526594311771
1040
30.48182324188058
1040
22.09568317102136
1070
     1
1040
30.48182324188058
1040
22.09568317102136
1040
30.54294059487364
1040
21.89073675637875
1070
     1
1040
30.54294059487364
1040
21.89073675637875
1040
30.59524458124375
1040
21.7581440147273
1070
     1
1040
30.59524458124375
1040
21.7581440147273
1040
30.64066312551954
1040
21.66132551045659
1070
     1
1040
30.64066312551954
1040
21.66132551045659
1040
30.691396483504
1040
21.56716285752306
1070
     1
1040
30.691396483504
1040
21.56716285752306
1040
30.76734088927042
1040
21.44630187745565
1070
     1
1040
30.76734088927042
1040
21.44630187745565
1040
30.83037096957592
1040
21.35977834748523
1070
     1
1040
30.83037096957592
1040
21.35977834748523
1040
30.89849041843911
1040
21.27725022136696
1070
     1
1040
30.89849041843911
1040
21.27725022136696
1040
30.9967667597747
1040
21.17408034911913
1070
     1
1040
30.9967667597747
1040
21.17408034911913
1040
31.15802450035081
1040
21.0337665401986
1070
     1
1040
31.15802450035081
1040
21.0337665401986
1040
31.27323180799477
1040
20.94957663934497
1070
     1
1040
31.27323180799477
1040
20.94957663934497
1040
31.45548308742885
1040
20.83737935540596
1070
     1
1040
31.45548308742885
1040
20.83737935540596
1040
31.58228464331513
1040
20.77219559678803
1070
     1
1040
31.58228464331513
1040
20.77219559678803
1040
31.68003783957308
1040
20.72894332356438
1070
     1
1040
31.68003783957308
1040
20.72894332356438
1040
31.77997022332717
1040
20.69112453447919
1070
     1
1040
31.77997022332717
1040
20.69112453447919
1040
31.91640621679791
1040
20.64973705912833
1070
     1
1040
31.91640621679791
1040
20.64973705912833
1040
32.12581407620214
1040
20.60608206244055
1070
     1
1040
32.12581407620214
1040
20.60608206244055
1040
32.3026773089029
1040
20.58473447517807
1070
     1
1040
32.3026773089029
1040
20.58473447517807
1040
32.48050427697165
1040
20.57374147270578
1070
     1
1040
32.48050427697165
1040
20.57374147270578
1040
32.83641989969535
1040
20.57089422013112
1070
     1
1040
32.83641989969535
1040
20.57089422013112
1040
33.19286980656467
1040
20.58610182742616
1070
     1
1040
33.19286980656467
1040
20.58610182742616
1040
33.33459654960583
1040
20.59999995765212
1070
     1
1040
33.33459654960583
1040
20.59999995765212
1040
33.54527140198384
1040
20.63588357412756
1070
     1
1040
33.54527140198384
1040
20.63588357412756
1040
33.68285267363335
1040
20.67301572521217
1070
     1
1040
33.68285267363335
1040
20.67301572521217
1040
33.81743305695801
1040
20.72115385795995
1070
     1
1040
33.81743305695801
1040
20.72115385795995
1040
33.94784796188076
1040
20.77982191846433
1070
     1
1040
33.94784796188076
1040
20.77982191846433
1040
34.0729327983246
1040
20.84854385281878
1070
     1
1040
34.0729327983246
1040
20.84854385281878
1040
34.19152297621248
1040
20.92684360711669
1070
     1
1040
34.19152297621248
1040
20.92684360711669
1040
34.19152297621248
1040
20.6208436071167
1070
     1
1040
34.19152297621248
1040
20.6208436071167
1040
35.9865729762125
1040
20.6208436071167
1070
     1
1040
35.9865729762125
1040
20.6208436071167
1040
35.9865729762125
1040
25.8237436071167
1070
     1
1040
35.9865729762125
1040
25.8237436071167
1040
34.19152297621248
1040
25.8237436071167
1070
     1
1040
34.19152297621248
1040
25.8237436071167
1040
34.19152297621248
1040
24.31990419713182
1070
     1
1040
34.19152297621248
1040
22.75924360711669
1040
34.18522427602212
1040
22.79742902286496
1070
     1
1040
34.18522427602212
1040
22.79742902286496
1040
34.17670390504242
1040
22.83525808906734
1070
     1
1040
34.17670390504242
1040
22.83525808906734
1040
34.16597248167421
1040
22.87256506018414
1070
     1
1040
34.16597248167421
1040
22.87256506018414
1040
34.1530406243182
1040
22.90918419067553
1070
     1
1040
34.1530406243182
1040
22.90918419067553
1040
34.13791895137521
1040
22.94494973500174
1070
     1
1040
34.13791895137521
1040
22.94494973500174
1040
34.12062248577393
1040
22.97972412972832
1070
     1
1040
34.12062248577393
1040
22.97972412972832
1040
34.10124110014737
1040
23.01337043735117
1070
     1
1040
34.10124110014737
1040
23.01337043735117
1040
34.07987142553699
1040
23.04578100351233
1070
     1
1040
34.07987142553699
1040
23.04578100351233
1040
34.05661009298423
1040
23.07684817385387
1070
     1
1040
34.05661009298423
1040
23.07684817385387
1040
34.03155373353055
1040
23.10646429401778
1070
     1
1040
34.03155373353055
1040
23.10646429401778
1040
34.0048078284228
1040
23.13453995989881
1070
     1
1040
34.0048078284228
1040
23.13453995989881
1040
33.97651347065819
1040
23.16105855153512
1070
     1
1040
33.97651347065819
1040
23.16105855153512
1040
33.93149659569062
1040
23.19792049990339
1070
     1
1040
33.93149659569062
1040
23.19792049990339
1040
33.88383915758775
1040
23.2312882243935
1070
     1
1040
33.88383915758775
1040
23.2312882243935
1040
33.81740830033322
1040
23.2702539875106
1070
     1
1040
33.81740830033322
1040
23.2702539875106
1040
33.71260018090836
1040
23.31870497950503
1070
     1
1040
33.71260018090836
1040
23.31870497950503
1040
33.52912571204567
1040
23.38024026476581
1070
     1
1040
33.52912571204567
1040
23.38024026476581
1040
33.34129541646134
1040
23.4268066350183
1070
     1
1040
33.34129541646134
1040
23.4268066350183
1040
33.26536709065413
1040
23.43871980520694
1070
     1
1040
33.26536709065413
1040
23.43871980520694
1040
33.20799245339293
1040
23.44418358333276
1070
     1
1040
33.20799245339293
1040
23.44418358333276
1040
33.15043306379559
1040
23.44618483007101
1070
     1
1040
33.15043306379559
1040
23.44618483007101
1040
33.073205774121
1040
23.44294111298528
1070
     1
1040
33.073205774121
1040
23.44294111298528
1040
33.01556012610554
1040
23.43626883784902
1070
     1
1040
33.01556012610554
1040
23.43626883784902
1040
32.95838311054932
1040
23.42625160056325
1070
     1
1040
32.95838311054932
1040
23.42625160056325
1040
32.88279130539605
1040
23.40794999318987
1070
     1
1040
32.88279130539605
1040
23.40794999318987
1040
32.82709324452985
1040
23.39068869542821
1070
     1
1040
32.82709324452985
1040
23.39068869542821
1040
32.77240099875644
1040
23.3704787693241
1070
     1
1040
32.77240099875644
1040
23.3704787693241
1040
32.7016229537104
1040
23.33916365530199
1070
     1
1040
32.7016229537104
1040
23.33916365530199
1040
32.65017627897317
1040
23.31224485443584
1070
     1
1040
32.65017627897317
1040
23.31224485443584
1040
32.6003783004499
1040
23.2823001555606
1070
     1
1040
32.6003783004499
1040
23.2823001555606
1040
32.53744100048406
1040
23.23798016409064
1070
     1
1040
32.53744100048406
1040
23.23798016409064
1040
32.4783720173184
1040
23.18841304210748
1070
     1
1040
32.4783720173184
1040
23.18841304210748
1040
32.42376916516048
1040
23.13377620070203
1070
     1
1040
32.42376916516048
1040
23.13377620070203
1040
32.3742302582178
1040
23.07424705096529
1070
     1
1040
32.3742302582178
1040
23.07424705096529
1040
32.3303531106979
1040
23.01000300398823
1070
     1
1040
32.3303531106979
1040
23.01000300398823
1040
32.29281787773375
1040
22.94139393368273
1070
     1
1040
32.29281787773375
1040
22.94139393368273
1040
32.26252133259767
1040
22.86924570514723
1070
     1
1040
32.26252133259767
1040
22.86924570514723
1040
32.25039554512274
1040
22.83215493136484
1070
     1
1040
32.25039554512274
1040
22.83215493136484
1040
32.24044900219396
1040
22.79455199781085
1070
     1
1040
32.24044900219396
1040
22.79455199781085
1040
32.23280489467436
1040
22.75656111441393
1070
     1
1040
32.23280489467436
1040
22.75656111441393
1040
32.22758641342698
1040
22.7183064911027
1070
     1
1040
32.22758641342698
1040
22.7183064911027
1040
32.22491674931485
1040
22.67991233780578
1070
     1
1040
32.22491674931485
1040
22.67991233780578
1040
32.22491909320101
1040
22.64150286445183
1070
     1
1040
32.22491909320101
1040
22.64150286445183
1040
32.22769315985367
1040
22.60293992315523
1070
     1
1040
32.22769315985367
1040
22.60293992315523
1040
32.23311057136401
1040
22.5646177567803
1070
     1
1040
32.23311057136401
1040
22.5646177567803
1040
32.24098086285653
1040
22.52666674625048
1070
     1
1040
32.24098086285653
1040
22.52666674625048
1040
32.25111356945575
1040
22.48921727248927
1070
     1
1040
32.25111356945575
1040
22.48921727248927
1040
32.26331822628608
1040
22.45239971642014
1070
     1
1040
32.26331822628608
1040
22.45239971642014
1040
32.29364520888784
1040
22.38042545227397
1070
     1
1040
32.29364520888784
1040
22.38042545227397
1040
32.32104847285926
1040
22.32870628189326
1070
     1
1040
32.32104847285926
1040
22.32870628189326
1040
32.35215412813561
1040
22.27909964132739
1070
     1
1040
32.35215412813561
1040
22.27909964132739
1040
32.39858603635964
1040
22.21711302746509
1070
     1
1040
32.39858603635964
1040
22.21711302746509
1040
32.43723474843395
1040
22.17377153999965
1070
     1
1040
32.43723474843395
1040
22.17377153999965
1040
32.4790661567678
1040
22.13355370124998
1070
     1
1040
32.4790661567678
1040
22.13355370124998
1040
32.53918564534262
1040
22.08548667717685
1070
     1
1040
32.53918564534262
1040
22.08548667717685
1040
32.58721199952905
1040
22.0533553942774
1070
     1
1040
32.58721199952905
1040
22.0533553942774
1040
32.63725672616544
1040
22.02448118124885
1070
     1
1040
32.63725672616544
1040
22.02448118124885
1040
32.70704840391081
1040
21.99051935609724
1070
     1
1040
32.70704840391081
1040
21.99051935609724
1040
32.81564788989768
1040
21.94858052993353
1070
     1
1040
32.81564788989768
1040
21.94858052993353
1040
32.88966328774721
1040
21.92569887434945
1070
     1
1040
32.88966328774721
1040
21.92569887434945
1040
33.00273750412712
1040
21.89916786421672
1070
     1
1040
33.00273750412712
1040
21.89916786421672
1040
33.07891412932522
1040
21.88724451800207
1070
     1
1040
33.07891412932522
1040
21.88724451800207
1040
33.19419909206249
1040
21.87864610808737
1070
     1
1040
33.19419909206249
1040
21.87864610808737
1040
33.27146321562465
1040
21.87950852987933
1070
     1
1040
33.27146321562465
1040
21.87950852987933
1040
33.38690243953787
1040
21.89090007892743
1070
     1
1040
33.38690243953787
1040
21.89090007892743
1040
33.46278968411079
1040
21.90512653207652
1070
     1
1040
33.46278968411079
1040
21.90512653207652
1040
33.53763085249445
1040
21.92455361531233
1070
     1
1040
33.53763085249445
1040
21.92455361531233
1040
33.6110015369036
1040
21.94904722914488
1070
     1
1040
33.6110015369036
1040
21.94904722914488
1040
33.68247732955298
1040
21.97847327408422
1070
     1
1040
33.68247732955298
1040
21.97847327408422
1040
33.75163382265729
1040
22.01269765064039
1070
     1
1040
33.75163382265729
1040
22.01269765064039
1040
33.81849942445664
1040
22.05184622470257
1070
     1
1040
33.81849942445664
1040
22.05184622470257
1040
33.91321018639743
1040
22.11912633605071
1070
     1
1040
33.91321018639743
1040
22.11912633605071
1040
33.97214635988498
1040
22.1695990488818
1070
     1
1040
33.97214635988498
1040
22.1695990488818
1040
34.01332469417972
1040
22.21066362568217
1070
     1
1040
34.01332469417972
1040
22.21066362568217
1040
34.05119662359747
1040
22.25474052514755
1070
     1
1040
34.05119662359747
1040
22.25474052514755
1040
34.07423731840943
1040
22.28578232487433
1070
     1
1040
34.07423731840943
1040
22.28578232487433
1040
34.09545033830772
1040
22.31814137644631
1070
     1
1040
34.09545033830772
1040
22.31814137644631
1040
34.11475222792978
1040
22.35170092541428
1070
     1
1040
34.11475222792978
1040
22.35170092541428
1040
34.13205953191303
1040
22.38634421732907
1070
     1
1040
34.13205953191303
1040
22.38634421732907
1040
34.14728879489485
1040
22.42195449774151
1070
     1
1040
34.14728879489485
1040
22.42195449774151
1040
34.16041126870771
1040
22.45852484543252
1070
     1
1040
34.16041126870771
1040
22.45852484543252
1040
34.1713772837539
1040
22.49579735397449
1070
     1
1040
34.1713772837539
1040
22.49579735397449
1040
34.1802054800254
1040
22.53361859960847
1070
     1
1040
34.1802054800254
1040
22.53361859960847
1040
34.18691449751426
1040
22.57183515857553
1070
     1
1040
34.18691449751426
1040
22.57183515857553
1040
34.19152297621248
1040
22.61029360711668
1070
     1
1040
34.19152297621248
1040
22.61029360711668
1040
34.19152297621248
1040
22.75924360711669
1071
        0
1070
     0
1070
     1
1040
0.0
1040
0.062992
1070
     0
1070
     1
1040
0.7853981633974483
1040
-6.225169999999999
1040
-28.624349
1040
-0.1414213583446519
1040
0.1414213583446519
1070
     0
1071
        1
1040
-6.225169999999999
1040
-28.624349
1040
0.0
1002
}
  0
INSERT
  5
8E
330
A
100
AcDbEntity
  8
CARTOUCHE
  6
CONTINUOUS
 62
     4
100
AcDbBlockReference
  2
*X19
 10
0.0
 20
0.0
 30
0.0
1001
ACAD
1000
HATCH
1002
{
1070
    19
1000
ANSI31
1040
0.062992
1040
0.0
1000
R14_HATCH_DATA
1000
8E
1011
1.0
1021
0.0
1031
0.0
1011
0.0
1021
1.0
1031
0.0
1011
0.0
1021
0.0
1031
1.0
1040
0.0
1010
0.0
1020
0.0
1030
1.0
1000
ANSI31
1070
     0
1070
     0
1071
        1
1071
        1
1071
      165
1070
     1
1040
39.0510729762125
1040
22.24444360711669
1040
39.1541229762125
1040
22.24444360711669
1070
     1
1040
39.1541229762125
1040
22.24444360711669
1040
42.2069229762125
1040
22.2561436071167
1070
     1
1040
42.2069229762125
1040
22.2561436071167
1040
42.23237762185878
1040
22.36584671807226
1070
     1
1040
42.23237762185878
1040
22.36584671807226
1040
42.24504827300028
1040
22.44946246465665
1070
     1
1040
42.24504827300028
1040
22.44946246465665
1040
42.25187369928078
1040
22.53370336692194
1070
     1
1040
42.25187369928078
1040
22.53370336692194
1040
42.25173537908569
1040
22.64696902678046
1070
     1
1040
42.25173537908569
1040
22.64696902678046
1040
42.23470970538826
1040
22.81609604661631
1070
     1
1040
42.23470970538826
1040
22.81609604661631
1040
42.20846517089046
1040
22.95621257524744
1070
     1
1040
42.20846517089046
1040
22.95621257524744
1040
42.17357887835489
1040
23.0943678180467
1070
     1
1040
42.17357887835489
1040
23.0943678180467
1040
42.1317953513426
1040
23.22914592982181
1070
     1
1040
42.1317953513426
1040
23.22914592982181
1040
42.08234233059616
1040
23.36142053588839
1070
     1
1040
42.08234233059616
1040
23.36142053588839
1040
42.03686170536564
1040
23.46471631345355
1070
     1
1040
42.03686170536564
1040
23.46471631345355
1040
41.98586075982514
1040
23.56553467942711
1070
     1
1040
41.98586075982514
1040
23.56553467942711
1040
41.92928035289949
1040
23.66332260841728
1070
     1
1040
41.92928035289949
1040
23.66332260841728
1040
41.86706134351354
1040
23.75752707503225
1070
     1
1040
41.86706134351354
1040
23.75752707503225
1040
41.79914459059214
1040
23.84759505388021
1070
     1
1040
41.79914459059214
1040
23.84759505388021
1040
41.7255240322746
1040
23.93312974680928
1070
     1
1040
41.7255240322746
1040
23.93312974680928
1040
41.646718709121
1040
24.01400429896925
1070
     1
1040
41.646718709121
1040
24.01400429896925
1040
41.56330878695365
1040
24.0902546369974
1070
     1
1040
41.56330878695365
1040
24.0902546369974
1040
41.38499580886721
1040
24.22902637720731
1070
     1
1040
41.38499580886721
1040
24.22902637720731
1040
41.26698552360454
1040
24.30660502920467
1070
     1
1040
41.26698552360454
1040
24.30660502920467
1040
41.14444967147259
1040
24.37644216492157
1070
     1
1040
41.14444967147259
1040
24.37644216492157
1040
41.01771944247007
1040
24.43798598686956
1070
     1
1040
41.01771944247007
1040
24.43798598686956
1040
40.88739588735783
1040
24.49164913231013
1070
     1
1040
40.88739588735783
1040
24.49164913231013
1040
40.61887239332167
1040
24.57873375105807
1070
     1
1040
40.61887239332167
1040
24.57873375105807
1040
40.34465192624326
1040
24.6456486068168
1070
     1
1040
40.34465192624326
1040
24.6456486068168
1040
40.06700470098034
1040
24.69362958168881
1070
     1
1040
40.06700470098034
1040
24.69362958168881
1040
39.78677780416954
1040
24.72351512572941
1070
     1
1040
39.78677780416954
1040
24.72351512572941
1040
39.22285539283774
1040
24.73587418697074
1070
     1
1040
39.22285539283774
1040
24.73587418697074
1040
38.66058598489463
1040
24.6957948090196
1070
     1
1040
38.66058598489463
1040
24.6957948090196
1040
38.38230020586061
1040
24.65113876708679
1070
     1
1040
38.38230020586061
1040
24.65113876708679
1040
38.10728319880826
1040
24.58829981854138
1070
     1
1040
38.10728319880826
1040
24.58829981854138
1040
37.89059274430329
1040
24.52407995067682
1070
     1
1040
37.89059274430329
1040
24.52407995067682
1040
37.73158560950747
1040
24.46569680922368
1070
     1
1040
37.73158560950747
1040
24.46569680922368
1040
37.57690963109761
1040
24.39662477322789
1070
     1
1040
37.57690963109761
1040
24.39662477322789
1040
37.47700594046573
1040
24.34397907058794
1070
     1
1040
37.47700594046573
1040
24.34397907058794
1040
37.38006697776783
1040
24.28586263277782
1070
     1
1040
37.38006697776783
1040
24.28586263277782
1040
37.28661322764597
1040
24.2223061075916
1070
     1
1040
37.28661322764597
1040
24.2223061075916
1040
37.19716517474232
1040
24.15334014282338
1070
     1
1040
37.19716517474232
1040
24.15334014282338
1040
37.11224330369889
1040
24.07899538626728
1070
     1
1040
37.11224330369889
1040
24.07899538626728
1040
37.03231956115443
1040
23.99941355886844
1070
     1
1040
37.03231956115443
1040
23.99941355886844
1040
36.95746919858339
1040
23.91497437553553
1070
     1
1040
36.95746919858339
1040
23.91497437553553
1040
36.88772323485606
1040
23.82616406173335
1070
     1
1040
36.88772323485606
1040
23.82616406173335
1040
36.82311268884265
1040
23.73346884292673
1070
     1
1040
36.82311268884265
1040
23.73346884292673
1040
36.76366857941347
1040
23.63737494458054
1070
     1
1040
36.76366857941347
1040
23.63737494458054
1040
36.66049084556013
1040
23.43648932775314
1070
     1
1040
36.66049084556013
1040
23.43648932775314
1040
36.61706050465456
1040
23.33229860733602
1070
     1
1040
36.61706050465456
1040
23.33229860733602
1040
36.57925710602354
1040
23.22594333946835
1070
     1
1040
36.57925710602354
1040
23.22594333946835
1040
36.54722159336241
1040
23.11767406956402
1070
     1
1040
36.54722159336241
1040
23.11767406956402
1040
36.52110405484771
1040
23.00779024093528
1070
     1
1040
36.52110405484771
1040
23.00779024093528
1040
36.50105148618124
1040
22.89661309273046
1070
     1
1040
36.50105148618124
1040
22.89661309273046
1040
36.48722313194486
1040
22.78451188804435
1070
     1
1040
36.48722313194486
1040
22.78451188804435
1040
36.47977823672034
1040
22.67185588997187
1070
     1
1040
36.47977823672034
1040
22.67185588997187
1040
36.47887604508949
1040
22.55901436160783
1070
     1
1040
36.47887604508949
1040
22.55901436160783
1040
36.48475774395981
1040
22.44607158248758
1070
     1
1040
36.48475774395981
1040
22.44607158248758
1040
36.50730298839906
1040
22.27824312562695
1070
     1
1040
36.50730298839906
1040
22.27824312562695
1040
36.53184176454267
1040
22.16836321870454
1070
     1
1040
36.53184176454267
1040
22.16836321870454
1040
36.58066141679664
1040
22.00635409419069
1070
     1
1040
36.58066141679664
1040
22.00635409419069
1040
36.66317612048025
1040
21.79605059028197
1070
     1
1040
36.66317612048025
1040
21.79605059028197
1040
36.73810157655724
1040
21.64424333087827
1070
     1
1040
36.73810157655724
1040
21.64424333087827
1040
36.82487619371594
1040
21.49928452588675
1070
     1
1040
36.82487619371594
1040
21.49928452588675
1040
36.90656479578137
1040
21.38422047002155
1070
     1
1040
36.90656479578137
1040
21.38422047002155
1040
36.99507455897878
1040
21.27411393911514
1070
     1
1040
36.99507455897878
1040
21.27411393911514
1040
37.06997592170736
1040
21.18923199261414
1070
     1
1040
37.06997592170736
1040
21.18923199261414
1040
37.19090624714093
1040
21.07040837833609
1070
     1
1040
37.19090624714093
1040
21.07040837833609
1040
37.27814005089745
1040
20.99937278063336
1070
     1
1040
37.27814005089745
1040
20.99937278063336
1040
37.41820717151092
1040
20.90511471530928
1070
     1
1040
37.41820717151092
1040
20.90511471530928
1040
37.54199232876572
1040
20.8367569813608
1070
     1
1040
37.54199232876572
1040
20.8367569813608
1040
37.66963145788086
1040
20.77567317677089
1070
     1
1040
37.66963145788086
1040
20.77567317677089
1040
37.8780081581552
1040
20.68845696528821
1070
     1
1040
37.8780081581552
1040
20.68845696528821
1040
38.1996064863776
1040
20.58288122875969
1070
     1
1040
38.1996064863776
1040
20.58288122875969
1040
38.41901473591617
1040
20.5313383877604
1070
     1
1040
38.41901473591617
1040
20.5313383877604
1040
38.75315260795133
1040
20.4778380326807
1070
     1
1040
38.75315260795133
1040
20.4778380326807
1040
39.03388002407346
1040
20.45024301554652
1070
     1
1040
39.03388002407346
1040
20.45024301554652
1040
39.31548247397889
1040
20.43816227630538
1070
     1
1040
39.31548247397889
1040
20.43816227630538
1040
39.87832438970059
1040
20.46163547548924
1070
     1
1040
39.87832438970059
1040
20.46163547548924
1040
40.15919163958635
1040
20.49446766611456
1070
     1
1040
40.15919163958635
1040
20.49446766611456
1040
40.43780417420945
1040
20.54223471097221
1070
     1
1040
40.43780417420945
1040
20.54223471097221
1040
40.71211753370237
1040
20.60834422386486
1070
     1
1040
40.71211753370237
1040
20.60834422386486
1040
40.97822189579761
1040
20.69993377525821
1070
     1
1040
40.97822189579761
1040
20.69993377525821
1040
41.23556355576588
1040
20.81532426148599
1070
     1
1040
41.23556355576588
1040
20.81532426148599
1040
41.36129896456578
1040
20.87918642113991
1070
     1
1040
41.36129896456578
1040
20.87918642113991
1040
41.48298030283661
1040
20.95024471011851
1070
     1
1040
41.48298030283661
1040
20.95024471011851
1040
41.57561849499815
1040
21.01478183487384
1070
     1
1040
41.57561849499815
1040
21.01478183487384
1040
41.64162067797334
1040
21.06789487373303
1070
     1
1040
41.64162067797334
1040
21.06789487373303
1040
41.70417597333143
1040
21.12494680466518
1070
     1
1040
41.70417597333143
1040
21.12494680466518
1040
41.7817101714212
1040
21.20681530143447
1070
     1
1040
41.7817101714212
1040
21.20681530143447
1040
41.88612496759311
1040
21.3400893433574
1070
     1
1040
41.88612496759311
1040
21.3400893433574
1040
41.94806769779654
1040
21.43459300621544
1070
     1
1040
41.94806769779654
1040
21.43459300621544
1040
41.98954620943113
1040
21.50838618886257
1070
     1
1040
41.98954620943113
1040
21.50838618886257
1040
42.02581025553314
1040
21.58482751880403
1070
     1
1040
42.02581025553314
1040
21.58482751880403
1040
42.06495311335439
1040
21.69080606664596
1070
     1
1040
42.06495311335439
1040
21.69080606664596
1040
42.08734956124508
1040
21.7725999887287
1070
     1
1040
42.08734956124508
1040
21.7725999887287
1040
42.10387297621249
1040
21.85564360711669
1070
     1
1040
42.1038729762125
1040
21.85564360711669
1040
40.3430229762125
1040
21.85564360711669
1070
     1
1040
40.3430229762125
1040
21.85564360711669
1040
40.23476024848425
1040
21.77513923010117
1070
     1
1040
40.23476024848425
1040
21.77513923010117
1040
40.14934213166021
1040
21.72065519582548
1070
     1
1040
40.14934213166021
1040
21.72065519582548
1040
40.06077578326682
1040
21.67143258943228
1070
     1
1040
40.06077578326682
1040
21.67143258943228
1040
39.98475828061529
1040
21.63477293281268
1070
     1
1040
39.98475828061529
1040
21.63477293281268
1040
39.90657573481703
1040
21.60330661466392
1070
     1
1040
39.90657573481703
1040
21.60330661466392
1040
39.84227684043671
1040
21.58263477145073
1070
     1
1040
39.84227684043671
1040
21.58263477145073
1040
39.74365139903881
1040
21.55908759838492
1070
     1
1040
39.74365139903881
1040
21.55908759838492
1040
39.60933694828439
1040
21.54053645709473
1070
     1
1040
39.60933694828439
1040
21.54053645709473
1040
39.50763922715865
1040
21.53565640431555
1070
     1
1040
39.50763922715865
1040
21.53565640431555
1040
39.40580907592664
1040
21.53798084006903
1070
     1
1040
39.40580907592664
1040
21.53798084006903
1040
39.27139248316182
1040
21.55149592366054
1070
     1
1040
39.27139248316182
1040
21.55149592366054
1040
39.17168098959246
1040
21.56918758966989
1070
     1
1040
39.17168098959246
1040
21.56918758966989
1040
39.07332908880514
1040
21.59318639542835
1070
     1
1040
39.07332908880514
1040
21.59318639542835
1040
38.94488412919864
1040
21.63503670912596
1070
     1
1040
38.94488412919864
1040
21.63503670912596
1040
38.85139509395392
1040
21.67430102476285
1070
     1
1040
38.85139509395392
1040
21.67430102476285
1040
38.76098099155706
1040
21.72084551731241
1070
     1
1040
38.76098099155706
1040
21.72084551731241
1040
38.70284010572696
1040
21.75613985649101
1070
     1
1040
38.70284010572696
1040
21.75613985649101
1040
38.64707685719372
1040
21.79510415864196
1070
     1
1040
38.64707685719372
1040
21.79510415864196
1040
38.5944501722502
1040
21.83796670614767
1070
     1
1040
38.5944501722502
1040
21.83796670614767
1040
38.54571897718932
1040
21.88495578139061
1070
     1
1040
38.54571897718932
1040
21.88495578139061
1040
38.50164219830395
1040
21.93629966675314
1070
     1
1040
38.50164219830395
1040
21.93629966675314
1040
38.46287701718852
1040
21.99205035339784
1070
     1
1040
38.46287701718852
1040
21.99205035339784
1040
38.42966872450979
1040
22.05156201261892
1070
     1
1040
38.42966872450979
1040
22.05156201261892
1040
38.40216110017964
1040
22.11401272255396
1070
     1
1040
38.40216110017964
1040
22.11401272255396
1040
38.38049792410992
1040
22.17858056134068
1070
     1
1040
38.38049792410992
1040
22.17858056134068
1040
38.3648229762125
1040
22.2444436071167
1070
     1
1040
38.3648229762125
1040
22.24444360711669
1040
39.0510729762125
1040
22.24444360711669
1070
     1
1040
38.3648229762125
1040
23.07919360711669
1040
39.1541229762125
1040
23.07919360711669
1070
     1
1040
39.1541229762125
1040
23.07919360711669
1040
40.3430229762125
1040
23.07919360711669
1070
     1
1040
40.3430229762125
1040
23.07919360711669
1040
40.33909926301453
1040
23.11641599550353
1070
     1
1040
40.33909926301453
1040
23.11641599550353
1040
40.33300155668256
1040
23.15343121688127
1070
     1
1040
40.33300155668256
1040
23.15343121688127
1040
40.32469189133606
1040
23.19004875052244
1070
     1
1040
40.32469189133606
1040
23.19004875052244
1040
40.31413230109458
1040
23.22607807569951
1070
     1
1040
40.31413230109458
1040
23.22607807569951
1040
40.30128482007762
1040
23.26132867168497
1070
     1
1040
40.30128482007762
1040
23.26132867168497
1040
40.2861562754215
1040
23.29560552113762
1070
     1
1040
40.2861562754215
1040
23.29560552113762
1040
40.26886416528138
1040
23.32884602666271
1070
     1
1040
40.26886416528138
1040
23.32884602666271
1040
40.24956736768167
1040
23.36098167189717
1070
     1
1040
40.24956736768167
1040
23.36098167189717
1040
40.22842476064687
1040
23.39194394047794
1070
     1
1040
40.22842476064687
1040
23.39194394047794
1040
40.20559522220136
1040
23.42166431604199
1070
     1
1040
40.20559522220136
1040
23.42166431604199
1040
40.15515801785679
1040
23.47753406525592
1070
     1
1040
40.15515801785679
1040
23.47753406525592
1040
40.11388839399304
1040
23.51605862117359
1070
     1
1040
40.11388839399304
1040
23.51605862117359
1040
40.07014905358667
1040
23.55176773224803
1070
     1
1040
40.07014905358667
1040
23.55176773224803
1040
40.00889746141838
1040
23.59493589176599
1070
     1
1040
40.00889746141838
1040
23.59493589176599
1040
39.96089441895124
1040
23.62414416847376
1070
     1
1040
39.96089441895124
1040
23.62414416847376
1040
39.91135088271828
1040
23.65064317365039
1070
     1
1040
39.91135088271828
1040
23.65064317365039
1040
39.84321277515285
1040
23.6818016613351
1070
     1
1040
39.84321277515285
1040
23.6818016613351
1040
39.73746285592489
1040
23.71981068462435
1070
     1
1040
39.73746285592489
1040
23.71981068462435
1040
39.66503365624778
1040
23.73954552020273
1070
     1
1040
39.66503365624778
1040
23.73954552020273
1040
39.55447534379333
1040
23.76080659501807
1070
     1
1040
39.55447534379333
1040
23.76080659501807
1040
39.47958224634176
1040
23.76953429507831
1070
     1
1040
39.47958224634176
1040
23.76953429507831
1040
39.36667772831405
1040
23.77477007425147
1070
     1
1040
39.36667772831405
1040
23.77477007425147
1040
39.29122949187704
1040
23.7732262499153
1070
     1
1040
39.29122949187704
1040
23.7732262499153
1040
39.17824365086321
1040
23.76280187157365
1070
     1
1040
39.17824365086321
1040
23.76280187157365
1040
39.10438801088995
1040
23.7498243702336
1070
     1
1040
39.10438801088995
1040
23.7498243702336
1040
39.06808459709384
1040
23.74084703659711
1070
     1
1040
39.06808459709384
1040
23.74084703659711
1040
39.03251357680947
1040
23.72981136235448
1070
     1
1040
39.03251357680947
1040
23.72981136235448
1040
38.99791204207538
1040
23.71641788353441
1070
     1
1040
38.99791204207538
1040
23.71641788353441
1040
38.96434370672354
1040
23.70050789086009
1070
     1
1040
38.96434370672354
1040
23.70050789086009
1040
38.83484335052719
1040
23.62568105970969
1070
     1
1040
38.83484335052719
1040
23.62568105970969
1040
38.67159397760771
1040
23.53558123947114
1070
     1
1040
38.67159397760771
1040
23.53558123947114
1040
38.64097585888165
1040
23.51416025014971
1070
     1
1040
38.64097585888165
1040
23.51416025014971
1040
38.61162458828315
1040
23.49088000691659
1070
     1
1040
38.61162458828315
1040
23.49088000691659
1040
38.5835911062816
1040
23.46591113498419
1070
     1
1040
38.5835911062816
1040
23.46591113498419
1040
38.53168126994678
1040
23.41159000587154
1070
     1
1040
38.53168126994678
1040
23.41159000587154
1040
38.48534058579902
1040
23.35202538560785
1070
     1
1040
38.48534058579902
1040
23.35202538560785
1040
38.45462052922736
1040
23.30455107675152
1070
     1
1040
38.45462052922736
1040
23.30455107675152
1040
38.42745670868595
1040
23.25493190905036
1070
     1
1040
38.42745670868595
1040
23.25493190905036
1040
38.39720008793944
1040
23.18647261641375
1070
     1
1040
38.39720008793944
1040
23.18647261641375
1040
38.37898034260686
1040
23.13339531126971
1070
     1
1040
38.37898034260686
1040
23.13339531126971
1040
38.3648229762125
1040
23.07919360711669
1071
        0
1070
     0
1070
     1
1040
0.0
1040
0.062992
1070
     0
1070
     1
1040
0.7853981633974483
1040
-6.225169999999999
1040
-28.624349
1040
-0.1414213583446519
1040
0.1414213583446519
1070
     0
1071
        1
1040
-6.225169999999999
1040
-28.624349
1040
0.0
1002
}
  0
INSERT
  5
8F
330
A
100
AcDbEntity
  8
CARTOUCHE
  6
CONTINUOUS
 62
     4
100
AcDbBlockReference
  2
*X20
 10
0.0
 20
0.0
 30
0.0
1001
ACAD
1000
HATCH
1002
{
1070
    19
1000
ANSI31
1040
0.062992
1040
0.0
1000
R14_HATCH_DATA
1000
8F
1011
1.0
1021
0.0
1031
0.0
1011
0.0
1021
1.0
1031
0.0
1011
0.0
1021
0.0
1031
1.0
1040
0.0
1010
0.0
1020
0.0
1030
1.0
1000
ANSI31
1070
     0
1070
     0
1071
        1
1071
        1
1071
       78
1070
     1
1040
42.7329729762125
1040
24.50839360711669
1040
42.7329729762125
1040
20.63209360711669
1070
     1
1040
42.73297297621249
1040
20.63209360711669
1040
44.45962297621249
1040
20.63209360711669
1070
     1
1040
44.45962297621249
1040
20.63209360711669
1040
44.45962297621249
1040
22.78219360711669
1070
     1
1040
44.45962297621249
1040
22.78219360711669
1040
44.46348794510234
1040
22.8255625145897
1070
     1
1040
44.46348794510234
1040
22.8255625145897
1040
44.47094556156601
1040
22.86858609211487
1070
     1
1040
44.47094556156601
1040
22.86858609211487
1040
44.48187912731205
1040
22.91099091841203
1070
     1
1040
44.48187912731205
1040
22.91099091841203
1040
44.49617194404904
1040
22.95250357220095
1070
     1
1040
44.49617194404904
1040
22.95250357220095
1040
44.51370731348553
1040
22.99285063220139
1070
     1
1040
44.51370731348553
1040
22.99285063220139
1040
44.53438626348421
1040
23.0317545945469
1070
     1
1040
44.53438626348421
1040
23.0317545945469
1040
44.55812166299893
1040
23.06881377931527
1070
     1
1040
44.55812166299893
1040
23.06881377931527
1040
44.58484120386311
1040
23.10362376054641
1070
     1
1040
44.58484120386311
1040
23.10362376054641
1040
44.61447257791014
1040
23.13578011228038
1070
     1
1040
44.61447257791014
1040
23.13578011228038
1040
44.64694347697345
1040
23.1648784085571
1070
     1
1040
44.64694347697345
1040
23.1648784085571
1040
44.68210883840074
1040
23.19058719493143
1070
     1
1040
44.68210883840074
1040
23.19058719493143
1040
44.71962636284678
1040
23.21293288857709
1070
     1
1040
44.71962636284678
1040
23.21293288857709
1040
44.75908341829764
1040
23.23201184788313
1070
     1
1040
44.75908341829764
1040
23.23201184788313
1040
44.8000673727392
1040
23.24792043123856
1070
     1
1040
44.8000673727392
1040
23.24792043123856
1040
44.84216559415751
1040
23.26075499703252
1070
     1
1040
44.84216559415751
1040
23.26075499703252
1040
44.88545455273231
1040
23.270655442047
1070
     1
1040
44.88545455273231
1040
23.270655442047
1040
44.92924123868191
1040
23.2773439388539
1070
     1
1040
44.92924123868191
1040
23.2773439388539
1040
44.97330683573443
1040
23.28064946918181
1070
     1
1040
44.97330683573443
1040
23.28064946918181
1040
45.01743252761781
1040
23.28040101475932
1070
     1
1040
45.01743252761781
1040
23.28040101475932
1040
45.06139949806011
1040
23.27642755731508
1070
     1
1040
45.06139949806011
1040
23.27642755731508
1040
45.10431902475496
1040
23.26873571333315
1070
     1
1040
45.10431902475496
1040
23.26873571333315
1040
45.14647148487028
1040
23.25729425320639
1070
     1
1040
45.14647148487028
1040
23.25729425320639
1040
45.18745631356639
1040
23.24213569574835
1070
     1
1040
45.18745631356639
1040
23.24213569574835
1040
45.22687294600372
1040
23.22329255977248
1070
     1
1040
45.22687294600372
1040
23.22329255977248
1040
45.26432081734258
1040
23.20079736409236
1070
     1
1040
45.26432081734258
1040
23.20079736409236
1040
45.2995039926058
1040
23.17464234545267
1070
     1
1040
45.2995039926058
1040
23.17464234545267
1040
45.3319466893692
1040
23.14511885198864
1070
     1
1040
45.3319466893692
1040
23.14511885198864
1040
45.36129137460257
1040
23.11249875587485
1070
     1
1040
45.36129137460257
1040
23.11249875587485
1040
45.38718051527586
1040
23.07705392928582
1070
     1
1040
45.38718051527586
1040
23.07705392928582
1040
45.40925657835891
1040
23.03905624439609
1070
     1
1040
45.40925657835891
1040
23.03905624439609
1040
45.42712855451241
1040
22.99901140429402
1070
     1
1040
45.42712855451241
1040
22.99901140429402
1040
45.44073151771931
1040
22.95727674897495
1070
     1
1040
45.44073151771931
1040
22.95727674897495
1040
45.44993013263485
1040
22.91442324997896
1070
     1
1040
45.44993013263485
1040
22.91442324997896
1040
45.45458906391417
1040
22.87102187884615
1070
     1
1040
45.45458906391417
1040
22.87102187884615
1040
45.45517385589502
1040
22.84929416983477
1070
     1
1040
45.45517385589502
1040
22.84929416983477
1040
45.4545729762125
1040
22.8276436071167
1070
     1
1040
45.4545729762125
1040
22.82764360711668
1040
45.4545729762125
1040
22.58779360711669
1070
     1
1040
45.4545729762125
1040
22.58779360711669
1040
47.28382297621251
1040
22.58779360711669
1070
     1
1040
47.28382297621251
1040
22.58779360711669
1040
47.3004804936556
1040
22.74190106131424
1070
     1
1040
47.3004804936556
1040
22.74190106131424
1040
47.3080338234398
1040
22.89676387907709
1070
     1
1040
47.3080338234398
1040
22.89676387907709
1040
47.30622287525522
1040
23.05192121819743
1070
     1
1040
47.30622287525522
1040
23.05192121819743
1040
47.29564801913904
1040
23.20671600883971
1070
     1
1040
47.29564801913904
1040
23.20671600883971
1040
47.27690756459471
1040
23.36097203168621
1070
     1
1040
47.27690756459471
1040
23.36097203168621
1040
47.24989999164073
1040
23.51409730955235
1070
     1
1040
47.24989999164073
1040
23.51409730955235
1040
47.22187384806168
1040
23.63507228911501
1070
     1
1040
47.22187384806168
1040
23.63507228911501
1040
47.19591979102985
1040
23.72444452731119
1070
     1
1040
47.19591979102985
1040
23.72444452731119
1040
47.1646800578296
1040
23.81204898160464
1070
     1
1040
47.1646800578296
1040
23.81204898160464
1040
47.11349871924234
1040
23.92524957107785
1070
     1
1040
47.11349871924234
1040
23.92524957107785
1040
47.06786670375861
1040
24.00661487989895
1070
     1
1040
47.06786670375861
1040
24.00661487989895
1040
47.01605698726017
1040
24.08429955967585
1070
     1
1040
47.01605698726017
1040
24.08429955967585
1040
46.97801762216911
1040
24.13384773491676
1070
     1
1040
46.97801762216911
1040
24.13384773491676
1040
46.93728662108014
1040
24.18120785118272
1070
     1
1040
46.93728662108014
1040
24.18120785118272
1040
46.89391719550555
1040
24.22609654300447
1070
     1
1040
46.89391719550555
1040
24.22609654300447
1040
46.84796255695763
1040
24.26823044491285
1070
     1
1040
46.84796255695763
1040
24.26823044491285
1040
46.79947591694868
1040
24.30732619143858
1070
     1
1040
46.79947591694868
1040
24.30732619143858
1040
46.7488465724848
1040
24.34298114654168
1070
     1
1040
46.7488465724848
1040
24.34298114654168
1040
46.69608724688365
1040
24.37549699186584
1070
     1
1040
46.69608724688365
1040
24.37549699186584
1040
46.61365719684793
1040
24.41870306383236
1070
     1
1040
46.61365719684793
1040
24.41870306383236
1040
46.52824151124928
1040
24.45566419975128
1070
     1
1040
46.52824151124928
1040
24.45566419975128
1040
46.41028459037802
1040
24.49653361183229
1070
     1
1040
46.41028459037802
1040
24.49653361183229
1040
46.22887996193931
1040
24.5428722112578
1070
     1
1040
46.22887996193931
1040
24.5428722112578
1040
46.10697132102439
1040
24.56607477690471
1070
     1
1040
46.10697132102439
1040
24.56607477690471
1040
45.92238599753446
1040
24.58782115591738
1070
     1
1040
45.92238599753446
1040
24.58782115591738
1040
45.79850421157131
1040
24.59181565822405
1070
     1
1040
45.79850421157131
1040
24.59181565822405
1040
45.61256799206709
1040
24.58370341795764
1070
     1
1040
45.61256799206709
1040
24.58370341795764
1040
45.45792565313361
1040
24.56627398792206
1070
     1
1040
45.45792565313361
1040
24.56627398792206
1040
45.3047164351297
1040
24.53948194901727
1070
     1
1040
45.3047164351297
1040
24.53948194901727
1040
45.18380461446541
1040
24.51113483361819
1070
     1
1040
45.18380461446541
1040
24.51113483361819
1040
45.00579935951135
1040
24.4560304659967
1070
     1
1040
45.00579935951135
1040
24.4560304659967
1040
44.89043442943741
1040
24.4105183218836
1070
     1
1040
44.89043442943741
1040
24.4105183218836
1040
44.77781671686114
1040
24.3581981890036
1070
     1
1040
44.77781671686114
1040
24.3581981890036
1040
44.66826383099193
1040
24.29958044229217
1070
     1
1040
44.66826383099193
1040
24.29958044229217
1040
44.45962297621249
1040
24.16549360711669
1070
     1
1040
44.45962297621249
1040
24.16549360711669
1040
44.45962297621249
1040
24.50839360711669
1070
     1
1040
44.45962297621249
1040
24.50839360711669
1040
42.7329729762125
1040
24.50839360711669
1071
        0
1070
     0
1070
     1
1040
0.0
1040
0.062992
1070
     0
1070
     1
1040
0.7853981633974483
1040
-6.225169999999999
1040
-28.624349
1040
-0.1414213583446519
1040
0.1414213583446519
1070
     0
1071
        1
1040
-6.225169999999999
1040
-28.624349
1040
0.0
1002
}
  0
LINE
  5
90
330
A
100
AcDbEntity
  8
CARTOUCHE
  6
CONTINUOUS
 62
     7
100
AcDbLine
 10
205.0000369999999
 20
36.84515599999999
 30
0.0
 11
5.0
 21
36.84546199999999
 31
0.0
  0
LINE
  5
91
330
A
100
AcDbEntity
  8
CARTOUCHE
  6
CONTINUOUS
 62
     7
100
AcDbLine
 10
153.3333296666666
 20
20.002887
 30
0.0
 11
153.3333296666666
 21
10.000945
 31
0.0
  0
TEXT
  5
94
330
A
100
AcDbEntity
  8
CARTOUCHE
  6
CONTINUOUS
 62
     2
100
AcDbText
 10
16.27474129128322
 20
14.30878202443142
 30
0.0
 40
1.8
  1
www.findernet.com
 50
359.9999079999998
 41
1.05
  7
FINDER
 72
     1
 11
27.5000005
 21
14.30876399999999
 31
0.0
100
AcDbText
  0
POLYLINE
  5
9B
330
A
100
AcDbEntity
  8
CARTOUCHE
  6
CONTINUOUS
 62
     7
100
AcDb2dPolyline
 66
     1
 10
0.0
 20
0.0
 30
0.0
 70
   129
  0
VERTEX
  5
32DF
330
9B
100
AcDbEntity
  8
CARTOUCHE
  6
CONTINUOUS
 62
     7
100
AcDbVertex
100
AcDb2dVertex
 10
205.0000369999999
 20
292.0001829999998
 30
0.0
  0
VERTEX
  5
32E0
330
9B
100
AcDbEntity
  8
CARTOUCHE
  6
CONTINUOUS
 62
     7
100
AcDbVertex
100
AcDb2dVertex
 10
205.0000369999999
 20
5.000182999999998
 30
0.0
  0
VERTEX
  5
32E1
330
9B
100
AcDbEntity
  8
CARTOUCHE
  6
CONTINUOUS
 62
     7
100
AcDbVertex
100
AcDb2dVertex
 10
5.0
 20
5.0
 30
0.0
  0
VERTEX
  5
32E2
330
9B
100
AcDbEntity
  8
CARTOUCHE
  6
CONTINUOUS
 62
     7
100
AcDbVertex
100
AcDb2dVertex
 10
5.0
 20
292.0
 30
0.0
  0
VERTEX
  5
32E3
330
9B
100
AcDbEntity
  8
CARTOUCHE
  6
CONTINUOUS
 62
     7
100
AcDbVertex
100
AcDb2dVertex
 10
204.999774
 20
292.0001829999998
 30
0.0
  0
SEQEND
  5
32E4
330
9B
100
AcDbEntity
  8
CARTOUCHE
  6
CONTINUOUS
 62
     7
  0
TEXT
  5
AA
330
A
100
AcDbEntity
  8
CARTOUCHE
  6
CONTINUOUS
 62
     7
100
AcDbText
 10
124.8174116978206
 20
16.62422630744492
 30
0.0
 40
1.8
  1
DATE
 50
359.9999079999998
 41
0.8
  7
FINDER
 72
     1
 11
127.4999765
 21
16.6242220000428
 31
0.0
100
AcDbText
  0
TEXT
  5
AB
330
A
100
AcDbEntity
  8
CARTOUCHE
  6
CONTINUOUS
 62
     1
100
AcDbText
 10
121.6268523526678
 20
11.77620843053536
 30
0.0
 40
2.1
  1
23/05/2006
 50
359.9999079999998
 41
0.8
  7
FINDER
 72
     1
 11
127.4999765
 21
11.7761990000428
 31
0.0
100
AcDbText
  0
TEXT
  5
AC
330
A
100
AcDbEntity
  8
CARTOUCHE
  6
CONTINUOUS
 62
     7
100
AcDbText
 10
175.868210085725
 20
16.62414829636514
 30
0.0
 40
1.8
  1
SCALE
 50
359.9999079999998
 41
0.8
  7
FINDER
 72
     1
 11
179.1666548333333
 21
16.6241430000428
 31
0.0
100
AcDbText
  0
TEXT
  5
AD
330
A
100
AcDbEntity
  8
CARTOUCHE
  6
CONTINUOUS
 62
     1
100
AcDbText
 10
177.5353587896792
 20
11.77612261941961
 30
0.0
 40
2.1
  1
1:1
 50
359.9999079999998
 41
0.8
  7
FINDER
 72
     1
 11
179.1666548333333
 21
11.7761200000428
 31
0.0
100
AcDbText
  0
TEXT
  5
AE
330
A
100
AcDbEntity
  8
CARTOUCHE
  6
CONTINUOUS
 62
     1
100
AcDbText
 10
123.4923506637158
 20
22.43596043507896
 30
0.0
 40
3.0
  1
4C02
 50
359.9999079999998
 41
0.8
  7
FINDER
 72
     1
 11
127.4999904999999
 21
22.435954
 31
0.0
100
AcDbText
  0
DIMENSION
  5
2E67
330
A
100
AcDbEntity
  8
DIM
100
AcDbDimension
  2
*D46
 10
103.7213080246301
 20
206.4973547676751
 30
0.0
 11
103.7208649417308
 21
188.7973552519765
 31
0.0
 70
   161
  1
<>
  3
DSTYLE2
100
AcDbAlignedDimension
 13
117.9191576606205
 23
171.0970003002778
 33
0.0
 14
117.9200438264191
 24
206.4969993316752
 34
0.0
  0
DIMENSION
  5
2E68
330
A
100
AcDbEntity
  8
DIM
100
AcDbDimension
  2
*D47
 10
103.7207709274968
 20
206.496999331675
 30
0.0
 11
103.7207709274968
 21
219.4219990886854
 31
0.0
 70
   160
  1
25.9
  3
DSTYLE3
100
AcDbAlignedDimension
 13
114.4200789383248
 23
232.3469988456952
 33
0.0
 14
117.9200788725244
 24
206.496999331675
 34
0.0
 50
89.99999999999877
100
AcDbRotatedDimension
  0
DIMENSION
  5
2E69
330
A
100
AcDbEntity
  8
DIM
100
AcDbDimension
  2
*D48
 10
117.9200438264191
 20
244.4961282424663
 30
0.0
 11
106.986745859305
 21
244.4961282424663
 31
0.0
 70
   160
  1
<>
  3
DSTYLE1
100
AcDbAlignedDimension
 13
114.4200789383249
 23
232.3469988456952
 33
0.0
 14
117.9200438264191
 24
206.4969993316752
 34
0.0
 50
359.9999999999983
100
AcDbRotatedDimension
  0
DIMENSION
  5
2E6A
330
A
100
AcDbEntity
  8
DIM
100
AcDbDimension
  2
*D49
 10
103.7207709274972
 20
171.0970003002778
 30
0.0
 11
103.7207709274972
 21
160.2970003517768
 31
0.0
 70
   160
  1
<>
  3
DSTYLE2
100
AcDbAlignedDimension
 13
114.4200789383248
 23
149.4970004032758
 33
0.0
 14
117.9191576606205
 24
171.0970003002778
 34
0.0
 50
90.0
100
AcDbRotatedDimension
  0
LINE
  5
2E6B
330
A
100
AcDbEntity
  8
DRAW
  6
CONTINUOUS
 62
     7
100
AcDbLine
 10
71.07000032291148
 20
149.4970004214603
 30
0.0
 11
71.07000032291148
 21
146.1010004853043
 31
0.0
  0
LINE
  5
2E6C
330
A
100
AcDbEntity
  8
DRAW
  6
CONTINUOUS
 62
     7
100
AcDbLine
 10
69.15000035900653
 20
149.4970004214599
 30
0.0
 11
69.15000035900653
 21
147.5970004571815
 31
0.0
  0
LINE
  5
2E6D
330
A
100
AcDbEntity
  8
DRAW
  6
CONTINUOUS
 62
     7
100
AcDbLine
 10
64.65000044360682
 20
149.4970004214599
 30
0.0
 11
64.65000044360682
 21
147.5970004571815
 31
0.0
  0
LINE
  5
2E6E
330
A
100
AcDbEntity
  8
DRAW
  6
CONTINUOUS
 62
     7
100
AcDbLine
 10
62.73000047970322
 20
149.4970004214603
 30
0.0
 11
62.73000047970322
 21
146.1010004853041
 31
0.0
  0
LINE
  5
2E6F
330
A
100
AcDbEntity
  8
DRAW
  6
CONTINUOUS
 62
     7
100
AcDbLine
 10
71.07000032291148
 20
146.1010004853044
 30
0.0
 11
62.73000047970333
 21
146.1010004853042
 31
0.0
  0
LINE
  5
2E70
330
A
100
AcDbEntity
  8
DRAW
  6
CONTINUOUS
 62
     7
100
AcDbLine
 10
69.15000035900653
 20
147.5970004571816
 30
0.0
 11
66.90000040130647
 21
147.5970004571816
 31
0.0
  0
LINE
  5
2E71
330
A
100
AcDbEntity
  8
DRAW
  6
CONTINUOUS
 62
     7
100
AcDbLine
 10
64.65000044360682
 20
147.5970004571816
 30
0.0
 11
66.90000040130681
 21
147.5970004571816
 31
0.0
  0
DIMENSION
  5
2E72
330
A
100
AcDbEntity
  8
DIM
100
AcDbDimension
  2
*D50
 10
79.23152040533132
 20
183.0970004032763
 30
0.0
 11
79.23152040533129
 21
191.8720009754809
 31
0.0
 70
   160
  1
%%c<>
  3
DSTYLE1
100
AcDbAlignedDimension
 13
66.89999994020678
 23
179.8970004032764
 33
0.0
 14
66.89999994020678
 24
183.0970004032763
 34
0.0
 50
90.0
100
AcDbRotatedDimension
  0
DIMENSION
  5
2E73
330
A
100
AcDbEntity
  8
DIM
100
AcDbDimension
  2
*D51
 10
83.53675054601735
 20
149.4970004214594
 30
0.0
 11
83.53675054601733
 21
165.4970004123679
 31
0.0
 70
   160
  1
<>
  3
DSTYLE2
100
AcDbAlignedDimension
 13
66.89999994020678
 23
181.4970004032763
 33
0.0
 14
73.17735055248211
 24
149.4970004214594
 34
0.0
 50
90.0
100
AcDbRotatedDimension
  0
INSERT
  5
2E74
330
A
100
AcDbEntity
  8
DRAW
100
AcDbBlockReference
  2
D
 10
7.813890035121175
 20
-10.99146805460736
 30
0.0
  0
LINE
  5
2E75
330
A
100
AcDbEntity
  8
DRAW
100
AcDbLine
 10
73.29999981988681
 20
170.9970016841439
 30
0.0
 11
73.29999981988681
 21
200.296999448236
 31
0.0
  0
LINE
  5
2E76
330
A
100
AcDbEntity
  8
DRAW
  6
CONTINUOUS
 62
     7
100
AcDbLine
 10
60.50000006052664
 20
175.7740457394973
 30
0.0
 11
60.50000006052664
 21
200.2969994482361
 31
0.0
  0
LINE
  5
2E77
330
A
100
AcDbEntity
  8
DRAW
  6
CONTINUOUS
 62
     7
100
AcDbLine
 10
74.79999979168678
 20
231.3469988644953
 30
0.0
 11
74.79999979168678
 21
187.0981942227388
 31
0.0
  0
LINE
  5
2E78
330
A
100
AcDbEntity
  8
DRAW
  6
CONTINUOUS
 62
     7
100
AcDbLine
 10
59.00000008872666
 20
231.3469988644953
 30
0.0
 11
59.00000008872711
 21
187.0981942227388
 31
0.0
  0
LINE
  5
2E79
330
A
100
AcDbEntity
  8
DRAW
100
AcDbLine
 10
63.89539930769001
 20
154.4470003284002
 30
0.0
 11
64.16823421757422
 21
155.4652340741661
 31
0.0
  0
LINE
  5
2E7A
330
A
100
AcDbEntity
  8
DRAW
100
AcDbLine
 10
64.16823421757385
 20
153.4287665826343
 30
0.0
 11
63.89539930769004
 21
154.4470003284004
 31
0.0
  0
LINE
  5
2E7B
330
A
100
AcDbEntity
  8
DRAW
100
AcDbLine
 10
64.16823421757431
 20
155.4652340741661
 30
0.0
 11
63.15000047180824
 21
155.1923991642819
 31
0.0
  0
LINE
  5
2E7C
330
A
100
AcDbEntity
  8
DRAW
  6
CONTINUOUS
 62
     7
100
AcDbLine
 10
63.15000047180797
 20
153.7016014925191
 30
0.0
 11
64.16823421757365
 21
153.4287665826342
 31
0.0
  0
CIRCLE
  5
2E7D
330
A
100
AcDbEntity
  8
DRAW
100
AcDbCircle
 10
63.15000047180842
 20
154.4470003284002
 30
0.0
 40
1.439999972927999
  0
LINE
  5
2E7E
330
A
100
AcDbEntity
  8
DRAW
  6
CONTINUOUS
 62
     7
100
AcDbLine
 10
65.27320551264733
 20
150.1970004082993
 30
0.0
 11
61.02679543096602
 21
150.1970004082993
 31
0.0
  0
LINE
  5
2E7F
330
A
100
AcDbEntity
  8
DRAW
  6
CONTINUOUS
 62
     7
100
AcDbLine
 10
60.62265025013153
 20
149.4970004214594
 30
0.0
 11
65.67735069348245
 21
149.4970004214594
 31
0.0
  0
LINE
  5
2E80
330
A
100
AcDbEntity
  8
DRAW
  6
CONTINUOUS
 62
     7
100
AcDbLine
 10
59.50000054042698
 20
150.4970004026592
 30
0.0
 11
66.57735067656239
 21
150.4970004026592
 31
0.0
  0
CIRCLE
  5
2E81
330
A
100
AcDbEntity
  8
DRAW
100
AcDbCircle
 10
63.15000047180706
 20
154.4470003283997
 30
0.0
 40
2.499999953
  0
LINE
  5
2E82
330
A
100
AcDbEntity
  8
DRAW
100
AcDbLine
 10
74.79999979168678
 20
159.4970002152756
 30
0.0
 11
59.00000008872661
 21
159.4970002152759
 31
0.0
  0
LINE
  5
2E83
330
A
100
AcDbEntity
  8
DRAW
100
AcDbLine
 10
74.79999979168678
 20
159.4970002152756
 30
0.0
 11
59.00000008872661
 21
159.4970002152756
 31
0.0
  0
LINE
  5
2E85
330
A
100
AcDbEntity
  8
DRAW
100
AcDbLine
 10
59.20000008496732
 20
172.6969999671152
 30
0.0
 11
59.20000008496732
 21
174.6969999295153
 31
0.0
  0
ARC
  5
2E86
330
A
100
AcDbEntity
  8
DRAW
100
AcDbCircle
 10
58.4500000990655
 20
173.6969999483155
 30
0.0
 40
1.249999976501153
100
AcDbArc
 50
306.8698976459075
 51
53.1301023540941
  0
LINE
  5
2E87
330
A
100
AcDbEntity
  8
DRAW
100
AcDbLine
 10
60.50000006052664
 20
175.7740457394973
 30
0.0
 11
60.50000006052664
 21
170.9970016841439
 31
0.0
  0
LINE
  5
2E88
330
A
100
AcDbEntity
  8
DRAW
100
AcDbLine
 10
59.00000008872666
 20
187.0981942227388
 30
0.0
 11
59.00000008872666
 21
170.7970000028356
 31
0.0
  0
LINE
  5
2E89
330
A
100
AcDbEntity
  8
DRAW
100
AcDbLine
 10
59.00000008872666
 20
160.8970001889554
 30
0.0
 11
59.00000008872666
 21
170.3970000103554
 31
0.0
  0
LINE
  5
2E8A
330
A
100
AcDbEntity
  8
DRAW
  6
CONTINUOUS
 62
     7
100
AcDbLine
 10
60.62265025013153
 20
149.4970004214594
 30
0.0
 11
59.50000054042694
 21
149.4970004214594
 31
0.0
  0
TEXT
  5
2E8B
330
A
100
AcDbEntity
  8
DRAW-TEXT
  6
CONTINUOUS
100
AcDbText
 10
59.43066982119511
 20
151.1506840208765
 30
0.0
 40
1.399999976158142
  1
A2
 41
0.95
  7
TSTYLE5
100
AcDbText
  0
LINE
  5
2E8C
330
A
100
AcDbEntity
  8
DRAW
100
AcDbLine
 10
59.00000054982661
 20
159.1063574275501
 30
0.0
 11
59.00000054982661
 21
150.9970003932592
 31
0.0
  0
LINE
  5
2E8D
330
A
100
AcDbEntity
  8
DRAW
100
AcDbLine
 10
59.00000008872666
 20
160.8970001889554
 30
0.0
 11
59.00000008872666
 21
149.9970003938755
 31
0.0
  0
ARC
  5
2E8E
330
A
100
AcDbEntity
  8
DRAW
  6
CONTINUOUS
 62
     7
100
AcDbCircle
 10
59.50000054042698
 20
150.9970003932592
 30
0.0
 40
0.4999999906000025
100
AcDbArc
 50
180.0
 51
270.0
  0
ARC
  5
2E8F
330
A
100
AcDbEntity
  8
DRAW
  6
CONTINUOUS
 62
     7
100
AcDbCircle
 10
59.50000054042698
 20
149.9970004120593
 30
0.0
 40
0.4999999906000001
100
AcDbArc
 50
180.0
 51
270.0
  0
LINE
  5
2E90
330
A
100
AcDbEntity
  8
DRAW
  6
CONTINUOUS
 62
     7
100
AcDbLine
 10
59.00000054982661
 20
150.9970003932592
 30
0.0
 11
59.00000054982661
 21
149.9970004120592
 31
0.0
  0
LINE
  5
2E91
330
A
100
AcDbEntity
  8
DRAW
100
AcDbLine
 10
59.00000054982661
 20
159.6970002296995
 30
0.0
 11
59.00000054982661
 21
159.1063574275502
 31
0.0
  0
LINE
  5
2E92
330
A
100
AcDbEntity
  8
DRAW
  6
CONTINUOUS
 62
     7
100
AcDbLine
 10
61.2000005084667
 20
150.4970004026592
 30
0.0
 11
60.6226502501313
 21
149.4970004214593
 31
0.0
  0
LINE
  5
2E93
330
A
100
AcDbEntity
  8
DRAW
100
AcDbLine
 10
62.13176672604254
 20
155.4652340741661
 30
0.0
 11
62.40460163592674
 21
154.4470003284004
 31
0.0
  0
LINE
  5
2E94
330
A
100
AcDbEntity
  8
DRAW
100
AcDbLine
 10
63.15000047180797
 20
155.1923991642822
 30
0.0
 11
62.1317667260423
 21
155.4652340741664
 31
0.0
  0
LINE
  5
2E95
330
A
100
AcDbEntity
  8
DRAW
  6
CONTINUOUS
 62
     7
100
AcDbLine
 10
62.13176672604254
 20
153.4287665826343
 30
0.0
 11
63.15000047180816
 21
153.7016014925189
 31
0.0
  0
LINE
  5
2E96
330
A
100
AcDbEntity
  8
DRAW
100
AcDbLine
 10
62.40460163592683
 20
154.4470003284002
 30
0.0
 11
62.13176672604268
 21
153.4287665826341
 31
0.0
  0
TEXT
  5
2E97
330
A
100
AcDbEntity
  8
DRAW-TEXT
  6
CONTINUOUS
100
AcDbText
 10
59.89645936706459
 20
157.2565928781575
 30
0.0
 40
1.399999976158142
  1
8
 41
0.95
  7
TSTYLE5
100
AcDbText
  0
LINE
  5
2E98
330
A
100
AcDbEntity
  8
DRAW
100
AcDbLine
 10
59.20000008496732
 20
172.6969999671152
 30
0.0
 11
60.50000006052659
 21
172.6969999671152
 31
0.0
  0
LINE
  5
2E99
330
A
100
AcDbEntity
  8
DRAW
100
AcDbLine
 10
61.90000116930105
 20
170.9970016841439
 30
0.0
 11
59.00000008872666
 21
170.9970016841439
 31
0.0
  0
LINE
  5
2E9A
330
A
100
AcDbEntity
  8
DRAW
100
AcDbLine
 10
61.90000307664968
 20
171.0969999971954
 30
0.0
 11
59.00000008872662
 21
171.0969999971954
 31
0.0
  0
LINE
  5
2E9B
330
A
100
AcDbEntity
  8
DRAW
100
AcDbLine
 10
59.00000008872666
 20
170.7970000028355
 30
0.0
 11
59.00000008872666
 21
169.7970000216356
 31
0.0
  0
LINE
  5
2E9C
330
A
100
AcDbEntity
  8
DRAW
100
AcDbLine
 10
59.20000008496732
 20
174.6969999295154
 30
0.0
 11
60.50000006052659
 21
174.6969999295154
 31
0.0
  0
ARC
  5
2E9D
330
A
100
AcDbEntity
  8
DRAW
100
AcDbCircle
 10
75.34999978134885
 20
173.6969999483155
 30
0.0
 40
1.249999976501153
100
AcDbArc
 50
126.8698976459075
 51
233.1301023540941
  0
LINE
  5
2E9E
330
A
100
AcDbEntity
  8
DRAW
100
AcDbLine
 10
74.59999979544704
 20
172.6969999671152
 30
0.0
 11
74.59999979544704
 21
174.6969999295153
 31
0.0
  0
LINE
  5
2E9F
330
A
100
AcDbEntity
  8
DRAW
100
AcDbLine
 10
73.29999981988681
 20
174.5969999313954
 30
0.0
 11
73.29999981988681
 21
172.5969999689954
 31
0.0
  0
LINE
  5
2EA0
330
A
100
AcDbEntity
  8
DRAW
100
AcDbLine
 10
74.79999979168678
 20
160.8970001889554
 30
0.0
 11
74.79999979168678
 21
187.0981942227385
 31
0.0
  0
LINE
  5
2EA1
330
A
100
AcDbEntity
  8
DRAW
100
AcDbLine
 10
74.64999710098311
 20
170.9970017220648
 30
0.0
 11
71.89999997275811
 21
170.9970017039287
 31
0.0
  0
LINE
  5
2EA2
330
A
100
AcDbEntity
  8
DRAW
100
AcDbLine
 10
74.79999979168678
 20
171.0969999971955
 30
0.0
 11
71.90000104959043
 21
171.0969999971955
 31
0.0
  0
LINE
  5
2EA3
330
A
100
AcDbEntity
  8
DRAW
  6
CONTINUOUS
 62
     7
100
AcDbLine
 10
68.1226501091312
 20
149.4970004214594
 30
0.0
 11
73.17735055248211
 21
149.4970004214594
 31
0.0
  0
LINE
  5
2EA4
330
A
100
AcDbEntity
  8
DRAW
  6
CONTINUOUS
 62
     7
100
AcDbLine
 10
72.77320537164746
 20
150.1970004082993
 30
0.0
 11
68.52679528996614
 21
150.1970004082993
 31
0.0
  0
CIRCLE
  5
2EA5
330
A
100
AcDbEntity
  8
DRAW
100
AcDbCircle
 10
70.65000033080673
 20
154.4470003283997
 30
0.0
 40
2.499999953
  0
LINE
  5
2EA6
330
A
100
AcDbEntity
  8
DRAW
  6
CONTINUOUS
 62
     7
100
AcDbLine
 10
67.22265012605134
 20
150.4970004026592
 30
0.0
 11
74.30000026218689
 21
150.4970004026592
 31
0.0
  0
LINE
  5
2EA7
330
A
100
AcDbEntity
  8
DRAW
  6
CONTINUOUS
 62
     7
100
AcDbLine
 10
68.1226501091312
 20
149.4970004214594
 30
0.0
 11
67.80000038438669
 21
149.4970004214594
 31
0.0
  0
TEXT
  5
2EA8
330
A
100
AcDbEntity
  8
DRAW-TEXT
  6
CONTINUOUS
100
AcDbText
 10
65.09056548404372
 20
151.3998516312269
 30
0.0
 40
1.399999976158142
  1
COIL
 41
0.95
  7
TSTYLE5
100
AcDbText
  0
LINE
  5
2EA9
330
A
100
AcDbEntity
  8
DRAW
100
AcDbLine
 10
66.90000040130667
 20
156.9586833049477
 30
0.0
 11
66.90000040130667
 21
153.3773249801451
 31
0.0
  0
LINE
  5
2EAA
330
A
100
AcDbEntity
  8
DRAW
  6
CONTINUOUS
 62
     7
100
AcDbLine
 10
66.00000041822681
 20
149.4970004214594
 30
0.0
 11
65.67735069348225
 21
149.4970004214594
 31
0.0
  0
LINE
  5
2EAB
330
A
100
AcDbEntity
  8
DRAW
  6
CONTINUOUS
 62
     7
100
AcDbLine
 10
65.67735069348214
 20
149.4970004214594
 30
0.0
 11
65.10000043514661
 21
150.4970004026594
 31
0.0
  0
LINE
  5
2EAC
330
A
100
AcDbEntity
  8
DRAW
  6
CONTINUOUS
 62
     7
100
AcDbLine
 10
66.00000041822681
 20
149.4970004214594
 30
0.0
 11
66.86602580573
 21
150.9970003932594
 31
0.0
  0
LINE
  5
2EAD
330
A
100
AcDbEntity
  8
DRAW
  6
CONTINUOUS
 62
     7
100
AcDbLine
 10
67.80000038438697
 20
149.4970004214594
 30
0.0
 11
66.0000004182269
 21
149.4970004214594
 31
0.0
  0
LINE
  5
2EAE
330
A
100
AcDbEntity
  8
DRAW
  6
CONTINUOUS
 62
     7
100
AcDbLine
 10
66.93397499688376
 20
150.9970003932592
 30
0.0
 11
67.8000003843868
 21
149.4970004214592
 31
0.0
  0
CIRCLE
  5
2EAF
330
A
100
AcDbEntity
  8
DRAW
100
AcDbCircle
 10
70.6500003308081
 20
154.4470003284002
 30
0.0
 40
1.439999972927999
  0
LINE
  5
2EB0
330
A
100
AcDbEntity
  8
DRAW
100
AcDbLine
 10
70.6500003308081
 20
155.1923991642822
 30
0.0
 11
69.6317665850423
 21
155.4652340741664
 31
0.0
  0
LINE
  5
2EB1
330
A
100
AcDbEntity
  8
DRAW
  6
CONTINUOUS
 62
     7
100
AcDbLine
 10
69.63176658504266
 20
153.4287665826343
 30
0.0
 11
70.65000033080846
 21
153.7016014925189
 31
0.0
  0
LINE
  5
2EB2
330
A
100
AcDbEntity
  8
DRAW
100
AcDbLine
 10
69.63176658504266
 20
155.4652340741661
 30
0.0
 11
69.90460149492682
 21
154.4470003284004
 31
0.0
  0
LINE
  5
2EB3
330
A
100
AcDbEntity
  8
DRAW
100
AcDbLine
 10
69.90460149492651
 20
154.4470003284002
 30
0.0
 11
69.63176658504235
 21
153.4287665826341
 31
0.0
  0
LINE
  5
2EB4
330
A
100
AcDbEntity
  8
DRAW
  6
CONTINUOUS
 62
     7
100
AcDbLine
 10
68.70000036746683
 20
150.4970004026592
 30
0.0
 11
68.12265010913143
 21
149.4970004214593
 31
0.0
  0
LINE
  5
2EB5
330
A
100
AcDbEntity
  8
DRAW
100
AcDbLine
 10
71.66823407657398
 20
153.4287665826343
 30
0.0
 11
71.39539916669017
 21
154.4470003284004
 31
0.0
  0
LINE
  5
2EB6
330
A
100
AcDbEntity
  8
DRAW
100
AcDbLine
 10
71.39539916669014
 20
154.4470003284002
 30
0.0
 11
71.66823407657435
 21
155.4652340741661
 31
0.0
  0
LINE
  5
2EB7
330
A
100
AcDbEntity
  8
DRAW
100
AcDbLine
 10
71.66823407657398
 20
155.4652340741661
 30
0.0
 11
70.65000033080806
 21
155.1923991642819
 31
0.0
  0
LINE
  5
2EB8
330
A
100
AcDbEntity
  8
DRAW
  6
CONTINUOUS
 62
     7
100
AcDbLine
 10
70.6500003308081
 20
153.7016014925191
 30
0.0
 11
71.66823407657361
 21
153.4287665826342
 31
0.0
  0
LINE
  5
2EB9
330
A
100
AcDbEntity
  8
DRAW
100
AcDbLine
 10
68.90000021117669
 20
170.9970016841439
 30
0.0
 11
67.99999891683331
 21
170.9970016841439
 31
0.0
  0
LINE
  5
2EBA
330
A
100
AcDbEntity
  8
DRAW
100
AcDbLine
 10
68.90000211852532
 20
171.0969999971954
 30
0.0
 11
67.99999982166927
 21
171.0969999971954
 31
0.0
  0
LINE
  5
2EBB
330
A
100
AcDbEntity
  8
DRAW
100
AcDbLine
 10
65.79999891683337
 20
170.9970016841439
 30
0.0
 11
64.90000046163868
 21
170.9970016841439
 31
0.0
  0
LINE
  5
2EBC
330
A
100
AcDbEntity
  8
DRAW
100
AcDbLine
 10
74.80000025278673
 20
150.9970003932592
 30
0.0
 11
74.80000025278673
 21
159.10635742755
 31
0.0
  0
LINE
  5
2EBD
330
A
100
AcDbEntity
  8
DRAW
100
AcDbLine
 10
74.79999979168678
 20
160.8970001889554
 30
0.0
 11
74.79999979168678
 21
149.9970003938759
 31
0.0
  0
LINE
  5
2EBE
330
A
100
AcDbEntity
  8
DRAW
  6
CONTINUOUS
 62
     7
100
AcDbLine
 10
74.30000026218682
 20
149.4970004214594
 30
0.0
 11
73.17735055248224
 21
149.4970004214594
 31
0.0
  0
TEXT
  5
2EBF
330
A
100
AcDbEntity
  8
DRAW-TEXT
  6
CONTINUOUS
100
AcDbText
 10
72.55223334327205
 20
151.2506855568901
 30
0.0
 40
1.399999976158142
  1
A1
 41
0.95
  7
TSTYLE5
100
AcDbText
  0
POINT
  5
2EC0
330
A
100
AcDbEntity
  8
DRAW
  6
CONTINUOUS
 62
     7
100
AcDbPoint
 10
73.17735055248211
 20
149.4970004214594
 30
0.0
  0
LINE
  5
2EC1
330
A
100
AcDbEntity
  8
DRAW
  6
CONTINUOUS
 62
     7
100
AcDbLine
 10
73.17735055248227
 20
149.4970004214594
 30
0.0
 11
72.60000029414674
 21
150.4970004026594
 31
0.0
  0
ARC
  5
2EC2
330
A
100
AcDbEntity
  8
DRAW
  6
CONTINUOUS
 62
     7
100
AcDbCircle
 10
74.30000026218682
 20
150.9970003932592
 30
0.0
 40
0.4999999906000001
100
AcDbArc
 50
270.0
 51
0.0
  0
ARC
  5
2EC3
330
A
100
AcDbEntity
  8
DRAW
  6
CONTINUOUS
 62
     7
100
AcDbCircle
 10
74.30000026218682
 20
149.9970004120593
 30
0.0
 40
0.4999999906000001
100
AcDbArc
 50
270.0
 51
0.0
  0
LINE
  5
2EC4
330
A
100
AcDbEntity
  8
DRAW
  6
CONTINUOUS
 62
     7
100
AcDbLine
 10
74.80000025278673
 20
149.9970004120593
 30
0.0
 11
74.80000025278673
 21
150.9970003932593
 31
0.0
  0
TEXT
  5
2EC5
330
A
100
AcDbEntity
  8
DRAW-TEXT
  6
CONTINUOUS
100
AcDbText
 10
73.35437465293374
 20
157.2446645903649
 30
0.0
 40
1.399999976158142
  1
1
 41
0.95
  7
TSTYLE5
100
AcDbText
  0
LINE
  5
2EC6
330
A
100
AcDbEntity
  8
DRAW
100
AcDbLine
 10
74.80000025278673
 20
159.1063574275501
 30
0.0
 11
74.80000025278673
 21
159.6970002296994
 31
0.0
  0
LINE
  5
2EC7
330
A
100
AcDbEntity
  8
DRAW
100
AcDbLine
 10
74.59999979544704
 20
172.6969999671152
 30
0.0
 11
73.29999981988686
 21
172.6969999671152
 31
0.0
  0
LINE
  5
2EC8
330
A
100
AcDbEntity
  8
DRAW
100
AcDbLine
 10
74.79999979168678
 20
171.7969999840359
 30
0.0
 11
74.79999979168678
 21
170.7970000028359
 31
0.0
  0
LINE
  5
2EC9
330
A
100
AcDbEntity
  8
DRAW
100
AcDbLine
 10
74.79999979168678
 20
170.7970000028355
 30
0.0
 11
74.79999979168678
 21
169.7970000216356
 31
0.0
  0
CIRCLE
  5
2ECA
330
A
100
AcDbEntity
  8
DRAW
  6
HIDDEN2
 62
     7
100
AcDbCircle
 10
66.89999994020678
 20
181.4970004032763
 30
0.0
 40
1.6
  0
POINT
  5
2ECB
330
A
100
AcDbEntity
  8
DRAW
  6
CONTINUOUS
 62
     7
100
AcDbPoint
 10
66.89999994020678
 20
181.4970004032763
 30
0.0
  0
LINE
  5
2ECC
330
A
100
AcDbEntity
  8
DRAW
100
AcDbLine
 10
74.59999979544704
 20
174.6969999295154
 30
0.0
 11
73.29999981988686
 21
174.6969999295154
 31
0.0
  0
LINE
  5
2ECD
330
A
100
AcDbEntity
  8
DRAW
  6
CONTINUOUS
 62
     7
100
AcDbLine
 10
63.89539930768865
 20
227.3969989569398
 30
0.0
 11
64.16823421757285
 21
228.4152327027057
 31
0.0
  0
LINE
  5
2ECE
330
A
100
AcDbEntity
  8
DRAW
  6
CONTINUOUS
 62
     7
100
AcDbLine
 10
64.16823421757294
 20
228.4152327027056
 30
0.0
 11
63.15000047180682
 21
228.1423977928215
 31
0.0
  0
LINE
  5
2ECF
330
A
100
AcDbEntity
  8
DRAW
  6
CONTINUOUS
 62
     7
100
AcDbLine
 10
61.02679543096633
 20
231.6469988770393
 30
0.0
 11
65.27320551264759
 21
231.6469988770393
 31
0.0
  0
LINE
  5
2ED0
330
A
100
AcDbEntity
  8
DRAW
  6
CONTINUOUS
 62
     7
100
AcDbLine
 10
61.40000050470667
 20
231.3469988826793
 30
0.0
 11
66.46794960186028
 21
231.3469988826793
 31
0.0
  0
LINE
  5
2ED1
330
A
100
AcDbEntity
  8
DRAW
  6
CONTINUOUS
 62
     7
100
AcDbLine
 10
65.67735069348259
 20
232.3469988638796
 30
0.0
 11
60.62265025013168
 21
232.3469988638796
 31
0.0
  0
LINE
  5
2ED2
330
A
100
AcDbEntity
  8
DRAW
  6
CONTINUOUS
 62
     7
100
AcDbLine
 10
66.57735067656244
 20
231.3469988826793
 30
0.0
 11
59.50000054042686
 21
231.3469988826793
 31
0.0
  0
DIMENSION
  5
2ED3
330
A
100
AcDbEntity
  8
DIM
100
AcDbDimension
  2
*D39
 10
59.00000008872666
 20
244.4961216717707
 30
0.0
 11
66.89999994020666
 21
244.4961216717707
 31
0.0
 70
   160
  1
<>
  3
DSTYLE2
100
AcDbAlignedDimension
 13
74.79999979168678
 23
231.3469988644953
 33
0.0
 14
59.00000008872666
 24
231.3469988644953
 34
0.0
 50
180.0
100
AcDbRotatedDimension
  0
LINE
  5
2ED4
330
A
100
AcDbEntity
  8
DRAW
  6
CONTINUOUS
 62
     7
100
AcDbLine
 10
63.89539930768865
 20
217.3969991449387
 30
0.0
 11
64.16823421757285
 21
218.4152328907045
 31
0.0
  0
LINE
  5
2ED5
330
A
100
AcDbEntity
  8
DRAW
  6
CONTINUOUS
 62
     7
100
AcDbLine
 10
64.16823421757249
 20
216.3787653991724
 30
0.0
 11
63.89539930768884
 21
217.3969991449385
 31
0.0
  0
LINE
  5
2ED6
330
A
100
AcDbEntity
  8
DRAW
  6
CONTINUOUS
 62
     7
100
AcDbLine
 10
64.16823421757294
 20
218.4152328907046
 30
0.0
 11
63.15000047180682
 21
218.1423979808205
 31
0.0
  0
LINE
  5
2ED7
330
A
100
AcDbEntity
  8
DRAW
  6
CONTINUOUS
 62
     7
100
AcDbLine
 10
63.1500004718066
 20
216.6516003090575
 30
0.0
 11
64.16823421757216
 21
216.3787653991728
 31
0.0
  0
CIRCLE
  5
2ED8
330
A
100
AcDbEntity
  8
DRAW
  6
CONTINUOUS
 62
     7
100
AcDbCircle
 10
63.15000047180706
 20
217.3969991449391
 30
0.0
 40
1.439999972927999
  0
LINE
  5
2ED9
330
A
100
AcDbEntity
  8
DRAW
  6
CONTINUOUS
 62
     7
100
AcDbLine
 10
66.57735067656244
 20
221.3469990706796
 30
0.0
 11
59.50000054042703
 21
221.3469990706796
 31
0.0
  0
CIRCLE
  5
2EDA
330
A
100
AcDbEntity
  8
DRAW
  6
CONTINUOUS
 62
     7
100
AcDbCircle
 10
63.15000047180706
 20
217.3969991449396
 30
0.0
 40
2.499999953
  0
LINE
  5
2EDB
330
A
100
AcDbEntity
  8
DRAW
  6
CONTINUOUS
 62
     7
100
AcDbLine
 10
66.57735067656244
 20
211.1469992624395
 30
0.0
 11
59.50000054042703
 21
211.1469992624395
 31
0.0
  0
LINE
  5
2EDC
330
A
100
AcDbEntity
  8
DRAW
  6
CONTINUOUS
 62
     7
100
AcDbLine
 10
63.89539930768865
 20
207.1969993366999
 30
0.0
 11
64.16823421757285
 21
208.2152330824658
 31
0.0
  0
LINE
  5
2EDD
330
A
100
AcDbEntity
  8
DRAW
  6
CONTINUOUS
 62
     7
100
AcDbLine
 10
64.16823421757294
 20
208.2152330824658
 30
0.0
 11
63.15000047180682
 21
207.9423981725817
 31
0.0
  0
LINE
  5
2EDE
330
A
100
AcDbEntity
  8
DRAW
  6
CONTINUOUS
 62
     7
100
AcDbLine
 10
63.1500004718066
 20
206.4516005008188
 30
0.0
 11
64.16823421757216
 21
206.1787655909339
 31
0.0
  0
LINE
  5
2EDF
330
A
100
AcDbEntity
  8
DRAW
  6
CONTINUOUS
 62
     7
100
AcDbLine
 10
64.16823421757249
 20
206.1787655909335
 30
0.0
 11
63.89539930768884
 21
207.1969993366998
 31
0.0
  0
CIRCLE
  5
2EE0
330
A
100
AcDbEntity
  8
DRAW
  6
CONTINUOUS
 62
     7
100
AcDbCircle
 10
63.15000047180706
 20
207.1969993366999
 30
0.0
 40
1.439999972927999
  0
CIRCLE
  5
2EE1
330
A
100
AcDbEntity
  8
DRAW
  6
CONTINUOUS
 62
     7
100
AcDbCircle
 10
63.15000047180706
 20
207.1969993366995
 30
0.0
 40
2.499999953
  0
LINE
  5
2EE2
330
A
100
AcDbEntity
  8
DRAW
  6
CONTINUOUS
 62
     7
100
AcDbLine
 10
74.29999980108687
 20
200.2969994482357
 30
0.0
 11
59.50000007932668
 21
200.2969994482357
 31
0.0
  0
LINE
  5
2EE3
330
A
100
AcDbEntity
  8
DRAW
  6
CONTINUOUS
 62
     7
100
AcDbLine
 10
64.16823421757249
 20
226.3787652111739
 30
0.0
 11
63.89539930768884
 21
227.3969989569399
 31
0.0
  0
LINE
  5
2EE4
330
A
100
AcDbEntity
  8
DRAW
  6
CONTINUOUS
 62
     7
100
AcDbLine
 10
63.1500004718066
 20
226.6516001210586
 30
0.0
 11
64.16823421757216
 21
226.3787652111739
 31
0.0
  0
CIRCLE
  5
2EE5
330
A
100
AcDbEntity
  8
DRAW
  6
CONTINUOUS
 62
     7
100
AcDbCircle
 10
63.15000047180706
 20
227.3969989569393
 30
0.0
 40
2.499999953
  0
CIRCLE
  5
2EE6
330
A
100
AcDbEntity
  8
DRAW
  6
CONTINUOUS
 62
     7
100
AcDbCircle
 10
63.15000047180706
 20
227.3969989569402
 30
0.0
 40
1.439999972927999
  0
TEXT
  5
2EE7
330
A
100
AcDbEntity
  8
DRAW-TEXT
  6
CONTINUOUS
100
AcDbText
 10
59.3907999277519
 20
224.1264685126131
 30
0.0
 40
1.399999976158142
  1
21
 41
0.95
  7
TSTYLE5
100
AcDbText
  0
LINE
  5
2EE8
330
A
100
AcDbEntity
  8
DRAW
  6
CONTINUOUS
 62
     7
100
AcDbLine
 10
59.00000054982661
 20
230.8469988920794
 30
0.0
 11
59.00000054982661
 21
221.8469990612794
 31
0.0
  0
LINE
  5
2EE9
330
A
100
AcDbEntity
  8
DRAW
  6
CONTINUOUS
 62
     7
100
AcDbLine
 10
60.62265025013153
 20
212.1469992436393
 30
0.0
 11
61.20000050846717
 21
211.1469992624393
 31
0.0
  0
ARC
  5
2EEA
330
A
100
AcDbEntity
  8
DRAW
  6
CONTINUOUS
 62
     7
100
AcDbCircle
 10
59.50000054042698
 20
211.6469992530394
 30
0.0
 40
0.4999999906000001
100
AcDbArc
 50
90.0
 51
180.0
  0
LINE
  5
2EEB
330
A
100
AcDbEntity
  8
DRAW
  6
CONTINUOUS
 62
     7
100
AcDbLine
 10
59.00000054982661
 20
220.8469990800792
 30
0.0
 11
59.00000054982661
 21
211.6469992530392
 31
0.0
  0
TEXT
  5
2EEC
330
A
100
AcDbEntity
  8
DRAW-TEXT
  6
CONTINUOUS
100
AcDbText
 10
59.7340433775614
 20
209.0813508390144
 30
0.0
 40
1.399999976158142
  1
7
 41
0.95
  7
TSTYLE5
100
AcDbText
  0
TEXT
  5
2EED
330
A
100
AcDbEntity
  8
DRAW-TEXT
  6
CONTINUOUS
100
AcDbText
 10
59.42007277261267
 20
203.3598096695125
 30
0.0
 40
1.399999976158142
  1
22
 41
0.95
  7
TSTYLE5
100
AcDbText
  0
ARC
  5
2EEE
330
A
100
AcDbEntity
  8
DRAW
  6
CONTINUOUS
 62
     7
100
AcDbCircle
 10
59.50000007932658
 20
200.7969994388361
 30
0.0
 40
0.4999999906000001
100
AcDbArc
 50
180.0
 51
270.0
  0
LINE
  5
2EEF
330
A
100
AcDbEntity
  8
DRAW
  6
CONTINUOUS
 62
     7
100
AcDbLine
 10
59.00000054982661
 20
211.6469992530394
 30
0.0
 11
59.00000054982661
 21
210.6469992718394
 31
0.0
  0
ARC
  5
2EF0
330
A
100
AcDbEntity
  8
DRAW
  6
CONTINUOUS
 62
     7
100
AcDbCircle
 10
59.50000054042698
 20
210.6469992718396
 30
0.0
 40
0.4999999906
100
AcDbArc
 50
90.0
 51
180.0
  0
LINE
  5
2EF1
330
A
100
AcDbEntity
  8
DRAW
  6
CONTINUOUS
 62
     7
100
AcDbLine
 10
62.13176672604117
 20
208.2152330824658
 30
0.0
 11
62.40460163592556
 21
207.1969993367
 31
0.0
  0
LINE
  5
2EF2
330
A
100
AcDbEntity
  8
DRAW
  6
CONTINUOUS
 62
     7
100
AcDbLine
 10
63.1500004718066
 20
207.9423981725819
 30
0.0
 11
62.1317667260408
 21
208.215233082466
 31
0.0
  0
LINE
  5
2EF3
330
A
100
AcDbEntity
  8
DRAW
  6
CONTINUOUS
 62
     7
100
AcDbLine
 10
62.13176672604117
 20
206.178765590934
 30
0.0
 11
63.15000047180681
 21
206.4516005008186
 31
0.0
  0
LINE
  5
2EF4
330
A
100
AcDbEntity
  8
DRAW
  6
CONTINUOUS
 62
     7
100
AcDbLine
 10
62.40460163592548
 20
207.1969993366999
 30
0.0
 11
62.13176672604127
 21
206.1787655909337
 31
0.0
  0
LINE
  5
2EF5
330
A
100
AcDbEntity
  8
DRAW
  6
CONTINUOUS
 62
     7
100
AcDbLine
 10
59.50000054042698
 20
222.3469990518795
 30
0.0
 11
60.62265025013167
 21
222.3469990518795
 31
0.0
  0
TEXT
  5
2EF6
330
A
100
AcDbEntity
  8
DRAW-TEXT
  6
CONTINUOUS
100
AcDbText
 10
59.74979717586233
 20
219.2234520262957
 30
0.0
 40
1.399999976158142
  1
5
 41
0.95
  7
TSTYLE5
100
AcDbText
  0
LINE
  5
2EF7
330
A
100
AcDbEntity
  8
DRAW
  6
CONTINUOUS
 62
     7
100
AcDbLine
 10
59.50000054042698
 20
212.1469992436393
 30
0.0
 11
60.62265025013167
 21
212.1469992436393
 31
0.0
  0
TEXT
  5
2EF8
330
A
100
AcDbEntity
  8
DRAW-TEXT
  6
CONTINUOUS
100
AcDbText
 10
59.33585867632404
 20
213.7979938359715
 30
0.0
 40
1.399999976158142
  1
24
 41
0.95
  7
TSTYLE5
100
AcDbText
  0
LINE
  5
2EF9
330
A
100
AcDbEntity
  8
DRAW
  6
CONTINUOUS
 62
     7
100
AcDbLine
 10
59.00000054982661
 20
221.8469990612795
 30
0.0
 11
59.00000054982661
 21
220.8469990800796
 31
0.0
  0
ARC
  5
2EFA
330
A
100
AcDbEntity
  8
DRAW
  6
CONTINUOUS
 62
     7
100
AcDbCircle
 10
59.50000054042698
 20
221.8469990612795
 30
0.0
 40
0.4999999906000001
100
AcDbArc
 50
90.0
 51
180.0
  0
ARC
  5
2EFB
330
A
100
AcDbEntity
  8
DRAW
  6
CONTINUOUS
 62
     7
100
AcDbCircle
 10
59.50000054042698
 20
220.8469990800792
 30
0.0
 40
0.4999999906
100
AcDbArc
 50
90.0
 51
180.0
  0
LINE
  5
2EFC
330
A
100
AcDbEntity
  8
DRAW
  6
CONTINUOUS
 62
     7
100
AcDbLine
 10
62.13176672604117
 20
218.4152328907046
 30
0.0
 11
62.40460163592556
 21
217.3969991449389
 31
0.0
  0
LINE
  5
2EFD
330
A
100
AcDbEntity
  8
DRAW
  6
CONTINUOUS
 62
     7
100
AcDbLine
 10
63.1500004718066
 20
218.1423979808207
 30
0.0
 11
62.1317667260408
 21
218.4152328907047
 31
0.0
  0
LINE
  5
2EFE
330
A
100
AcDbEntity
  8
DRAW
  6
CONTINUOUS
 62
     7
100
AcDbLine
 10
62.13176672604117
 20
216.3787653991728
 30
0.0
 11
63.15000047180681
 21
216.6516003090573
 31
0.0
  0
LINE
  5
2EFF
330
A
100
AcDbEntity
  8
DRAW
  6
CONTINUOUS
 62
     7
100
AcDbLine
 10
62.40460163592548
 20
217.3969991449391
 30
0.0
 11
62.13176672604127
 21
216.3787653991731
 31
0.0
  0
LINE
  5
2F00
330
A
100
AcDbEntity
  8
DRAW
  6
CONTINUOUS
 62
     7
100
AcDbLine
 10
60.62265025013153
 20
222.3469990518795
 30
0.0
 11
61.20000050846717
 21
221.3469990706795
 31
0.0
  0
LINE
  5
2F01
330
A
100
AcDbEntity
  8
DRAW
  6
CONTINUOUS
 62
     7
100
AcDbLine
 10
59.50000054042698
 20
232.3469988638796
 30
0.0
 11
60.62265025013167
 21
232.3469988638796
 31
0.0
  0
TEXT
  5
2F02
330
A
100
AcDbEntity
  8
DRAW-TEXT
  6
CONTINUOUS
100
AcDbText
 10
59.76079311561647
 20
229.2592655371793
 30
0.0
 40
1.399999976158142
  1
6
 41
0.95
  7
TSTYLE5
100
AcDbText
  0
LINE
  5
2F03
330
A
100
AcDbEntity
  8
DRAW
  6
CONTINUOUS
 62
     7
100
AcDbLine
 10
59.00000054982661
 20
231.8469988732797
 30
0.0
 11
59.00000054982661
 21
231.3469988826796
 31
0.0
  0
LINE
  5
2F04
330
A
100
AcDbEntity
  8
DRAW
  6
CONTINUOUS
 62
     7
100
AcDbLine
 10
59.00000054982661
 20
231.8469988732797
 30
0.0
 11
59.00000054982661
 21
230.8469988920796
 31
0.0
  0
ARC
  5
2F05
330
A
100
AcDbEntity
  8
DRAW
  6
CONTINUOUS
 62
     7
100
AcDbCircle
 10
59.50000054042698
 20
230.8469988920794
 30
0.0
 40
0.4999999906000025
100
AcDbArc
 50
90.0
 51
180.0
  0
ARC
  5
2F06
330
A
100
AcDbEntity
  8
DRAW
  6
CONTINUOUS
 62
     7
100
AcDbCircle
 10
59.50000054042698
 20
231.8469988732797
 30
0.0
 40
0.4999999906000001
100
AcDbArc
 50
90.0
 51
180.0
  0
LINE
  5
2F07
330
A
100
AcDbEntity
  8
DRAW
  6
CONTINUOUS
 62
     7
100
AcDbLine
 10
62.13176672604117
 20
228.4152327027056
 30
0.0
 11
62.40460163592556
 21
227.3969989569399
 31
0.0
  0
LINE
  5
2F08
330
A
100
AcDbEntity
  8
DRAW
  6
CONTINUOUS
 62
     7
100
AcDbLine
 10
63.1500004718066
 20
228.1423977928218
 30
0.0
 11
62.1317667260408
 21
228.4152327027059
 31
0.0
  0
LINE
  5
2F09
330
A
100
AcDbEntity
  8
DRAW
  6
CONTINUOUS
 62
     7
100
AcDbLine
 10
62.40460163592548
 20
227.3969989569402
 30
0.0
 11
62.13176672604127
 21
226.3787652111741
 31
0.0
  0
LINE
  5
2F0A
330
A
100
AcDbEntity
  8
DRAW
  6
CONTINUOUS
 62
     7
100
AcDbLine
 10
62.13176672604117
 20
226.3787652111739
 30
0.0
 11
63.15000047180681
 21
226.6516001210583
 31
0.0
  0
LINE
  5
2F0B
330
A
100
AcDbEntity
  8
DRAW
  6
CONTINUOUS
 62
     7
100
AcDbLine
 10
60.62265025013153
 20
232.3469988638796
 30
0.0
 11
61.200000508467
 21
231.3469988826796
 31
0.0
  0
TEXT
  5
2F0C
330
A
100
AcDbEntity
  8
DRAW-TEXT
  6
CONTINUOUS
100
AcDbText
 10
66.33913329706159
 20
223.8064520631667
 30
0.0
 40
1.399999976158142
  1
M
 41
0.95
  7
TSTYLE5
100
AcDbText
  0
TEXT
  5
2F0D
330
A
100
AcDbEntity
  8
DRAW-TEXT
  6
CONTINUOUS
100
AcDbText
 10
72.99805910691315
 20
224.1264685126131
 30
0.0
 40
1.399999976158142
  1
11
 41
0.95
  7
TSTYLE5
100
AcDbText
  0
LINE
  5
2F0E
330
A
100
AcDbEntity
  8
DRAW
  6
CONTINUOUS
 62
     7
100
AcDbLine
 10
74.80000025278673
 20
221.8469990612795
 30
0.0
 11
74.80000025278673
 21
230.8469988920796
 31
0.0
  0
CIRCLE
  5
2F0F
330
A
100
AcDbEntity
  8
DRAW
  6
CONTINUOUS
 62
     7
100
AcDbCircle
 10
70.65000033080673
 20
217.3969991449396
 30
0.0
 40
2.499999953
  0
CIRCLE
  5
2F10
330
A
100
AcDbEntity
  8
DRAW
  6
CONTINUOUS
 62
     7
100
AcDbCircle
 10
70.65000033080673
 20
207.1969993366995
 30
0.0
 40
2.499999953
  0
LINE
  5
2F11
330
A
100
AcDbEntity
  8
DRAW
  6
CONTINUOUS
 62
     7
100
AcDbLine
 10
74.30000026218682
 20
221.3469990706796
 30
0.0
 11
67.22265012605127
 21
221.3469990706796
 31
0.0
  0
LINE
  5
2F12
330
A
100
AcDbEntity
  8
DRAW
  6
CONTINUOUS
 62
     7
100
AcDbLine
 10
74.30000026218682
 20
211.1469992624395
 30
0.0
 11
67.22265012605127
 21
211.1469992624395
 31
0.0
  0
LINE
  5
2F13
330
A
100
AcDbEntity
  8
DRAW
  6
CONTINUOUS
 62
     7
100
AcDbLine
 10
68.1226501091312
 20
212.1469992436393
 30
0.0
 11
68.70000036746667
 21
211.1469992624393
 31
0.0
  0
LINE
  5
2F14
330
A
100
AcDbEntity
  8
DRAW
  6
CONTINUOUS
 62
     7
100
AcDbLine
 10
65.10000043514697
 20
211.1469992624395
 30
0.0
 11
65.67735069348266
 21
212.1469992436395
 31
0.0
  0
LINE
  5
2F15
330
A
100
AcDbEntity
  8
DRAW
  6
CONTINUOUS
 62
     7
100
AcDbLine
 10
66.86602580573003
 20
210.6469992718396
 30
0.0
 11
66.00000041822685
 21
212.1469992436396
 31
0.0
  0
LINE
  5
2F16
330
A
100
AcDbEntity
  8
DRAW
  6
CONTINUOUS
 62
     7
100
AcDbLine
 10
67.80000038438697
 20
212.1469992436393
 30
0.0
 11
66.93397499688393
 21
210.6469992718393
 31
0.0
  0
TEXT
  5
2F17
330
A
100
AcDbEntity
  8
DRAW-TEXT
  6
CONTINUOUS
100
AcDbText
 10
66.46752338907457
 20
205.2710654775767
 30
0.0
 40
1.399999976158142
  1
C
 41
0.95
  7
TSTYLE5
100
AcDbText
  0
TEXT
  5
2F18
330
A
100
AcDbEntity
  8
DRAW-TEXT
  6
CONTINUOUS
100
AcDbText
 10
66.46752338907457
 20
207.5710623585493
 30
0.0
 40
1.399999976158142
  1
N
 41
0.95
  7
TSTYLE5
100
AcDbText
  0
LINE
  5
2F19
330
A
100
AcDbEntity
  8
DRAW
  6
CONTINUOUS
 62
     7
100
AcDbLine
 10
70.65000033080673
 20
207.9423981725819
 30
0.0
 11
69.63176658504093
 21
208.215233082466
 31
0.0
  0
LINE
  5
2F1A
330
A
100
AcDbEntity
  8
DRAW
  6
CONTINUOUS
 62
     7
100
AcDbLine
 10
69.63176658504131
 20
206.178765590934
 30
0.0
 11
70.65000033080693
 21
206.4516005008186
 31
0.0
  0
CIRCLE
  5
2F1B
330
A
100
AcDbEntity
  8
DRAW
  6
CONTINUOUS
 62
     7
100
AcDbCircle
 10
70.65000033080673
 20
207.1969993366999
 30
0.0
 40
1.439999972927999
  0
LINE
  5
2F1C
330
A
100
AcDbEntity
  8
DRAW
  6
CONTINUOUS
 62
     7
100
AcDbLine
 10
69.63176658504085
 20
208.2152330824658
 30
0.0
 11
69.90460149492506
 21
207.1969993367
 31
0.0
  0
LINE
  5
2F1D
330
A
100
AcDbEntity
  8
DRAW
  6
CONTINUOUS
 62
     7
100
AcDbLine
 10
69.90460149492514
 20
207.1969993366999
 30
0.0
 11
69.6317665850411
 21
206.1787655909337
 31
0.0
  0
LINE
  5
2F1E
330
A
100
AcDbEntity
  8
DRAW
  6
CONTINUOUS
 62
     7
100
AcDbLine
 10
71.39539916668877
 20
207.1969993366999
 30
0.0
 11
71.66823407657304
 21
208.2152330824658
 31
0.0
  0
LINE
  5
2F1F
330
A
100
AcDbEntity
  8
DRAW
  6
CONTINUOUS
 62
     7
100
AcDbLine
 10
71.66823407657307
 20
208.2152330824658
 30
0.0
 11
70.65000033080696
 21
207.9423981725817
 31
0.0
  0
LINE
  5
2F20
330
A
100
AcDbEntity
  8
DRAW
  6
CONTINUOUS
 62
     7
100
AcDbLine
 10
70.65000033080673
 20
206.4516005008188
 30
0.0
 11
71.66823407657229
 21
206.1787655909339
 31
0.0
  0
LINE
  5
2F21
330
A
100
AcDbEntity
  8
DRAW
  6
CONTINUOUS
 62
     7
100
AcDbLine
 10
71.66823407657216
 20
206.1787655909335
 30
0.0
 11
71.39539916668846
 21
207.1969993366998
 31
0.0
  0
LINE
  5
2F22
330
A
100
AcDbEntity
  8
DRAW
  6
CONTINUOUS
 62
     7
100
AcDbLine
 10
67.80000038438697
 20
222.3469990518795
 30
0.0
 11
68.12265010913148
 21
222.3469990518795
 31
0.0
  0
LINE
  5
2F23
330
A
100
AcDbEntity
  8
DRAW
  6
CONTINUOUS
 62
     7
100
AcDbLine
 10
67.80000038438697
 20
212.1469992436393
 30
0.0
 11
68.12265010913148
 21
212.1469992436393
 31
0.0
  0
TEXT
  5
2F24
330
A
100
AcDbEntity
  8
DRAW-TEXT
  6
CONTINUOUS
100
AcDbText
 10
66.46752338907457
 20
218.4163846509666
 30
0.0
 40
1.399999976158142
  1
N
 41
0.95
  7
TSTYLE5
100
AcDbText
  0
LINE
  5
2F25
330
A
100
AcDbEntity
  8
DRAW
  6
CONTINUOUS
 62
     7
100
AcDbLine
 10
65.67735069348259
 20
212.1469992436393
 30
0.0
 11
66.00000041822699
 21
212.1469992436393
 31
0.0
  0
TEXT
  5
2F26
330
A
100
AcDbEntity
  8
DRAW-TEXT
  6
CONTINUOUS
100
AcDbText
 10
66.41309156492592
 20
216.1159071782214
 30
0.0
 40
1.399999976158142
  1
O
 41
0.95
  7
TSTYLE5
100
AcDbText
  0
LINE
  5
2F27
330
A
100
AcDbEntity
  8
DRAW
  6
CONTINUOUS
 62
     7
100
AcDbLine
 10
66.00000041822681
 20
212.1469992436393
 30
0.0
 11
67.80000038438682
 21
212.1469992436393
 31
0.0
  0
LINE
  5
2F28
330
A
100
AcDbEntity
  8
DRAW
  6
CONTINUOUS
 62
     7
100
AcDbLine
 10
65.67735069348259
 20
222.3469990518795
 30
0.0
 11
66.00000041822699
 21
222.3469990518795
 31
0.0
  0
LINE
  5
2F29
330
A
100
AcDbEntity
  8
DRAW
  6
CONTINUOUS
 62
     7
100
AcDbLine
 10
65.10000043514697
 20
221.3469990706796
 30
0.0
 11
65.67735069348266
 21
222.3469990518796
 31
0.0
  0
LINE
  5
2F2A
330
A
100
AcDbEntity
  8
DRAW
  6
CONTINUOUS
 62
     7
100
AcDbLine
 10
66.86602580573003
 20
220.8469990800792
 30
0.0
 11
66.00000041822685
 21
222.3469990518792
 31
0.0
  0
LINE
  5
2F2B
330
A
100
AcDbEntity
  8
DRAW
  6
CONTINUOUS
 62
     7
100
AcDbLine
 10
66.00000041822681
 20
222.3469990518795
 30
0.0
 11
67.80000038438682
 21
222.3469990518795
 31
0.0
  0
LINE
  5
2F2C
330
A
100
AcDbEntity
  8
DRAW
  6
CONTINUOUS
 62
     7
100
AcDbLine
 10
67.80000038438697
 20
222.3469990518795
 30
0.0
 11
66.93397499688393
 21
220.8469990800795
 31
0.0
  0
LINE
  5
2F2D
330
A
100
AcDbEntity
  8
DRAW
  6
CONTINUOUS
 62
     7
100
AcDbLine
 10
69.63176658504085
 20
218.4152328907046
 30
0.0
 11
69.90460149492506
 21
217.3969991449389
 31
0.0
  0
LINE
  5
2F2E
330
A
100
AcDbEntity
  8
DRAW
  6
CONTINUOUS
 62
     7
100
AcDbLine
 10
70.65000033080673
 20
218.1423979808207
 30
0.0
 11
69.63176658504093
 21
218.4152328907047
 31
0.0
  0
LINE
  5
2F2F
330
A
100
AcDbEntity
  8
DRAW
  6
CONTINUOUS
 62
     7
100
AcDbLine
 10
71.39539916668877
 20
217.3969991449387
 30
0.0
 11
71.66823407657304
 21
218.4152328907045
 31
0.0
  0
LINE
  5
2F30
330
A
100
AcDbEntity
  8
DRAW
  6
CONTINUOUS
 62
     7
100
AcDbLine
 10
71.66823407657307
 20
218.4152328907046
 30
0.0
 11
70.65000033080696
 21
218.1423979808205
 31
0.0
  0
CIRCLE
  5
2F31
330
A
100
AcDbEntity
  8
DRAW
  6
CONTINUOUS
 62
     7
100
AcDbCircle
 10
70.65000033080673
 20
217.3969991449391
 30
0.0
 40
1.439999972927999
  0
LINE
  5
2F32
330
A
100
AcDbEntity
  8
DRAW
  6
CONTINUOUS
 62
     7
100
AcDbLine
 10
69.63176658504131
 20
216.3787653991728
 30
0.0
 11
70.65000033080693
 21
216.6516003090573
 31
0.0
  0
LINE
  5
2F33
330
A
100
AcDbEntity
  8
DRAW
  6
CONTINUOUS
 62
     7
100
AcDbLine
 10
69.90460149492514
 20
217.3969991449391
 30
0.0
 11
69.6317665850411
 21
216.3787653991731
 31
0.0
  0
LINE
  5
2F34
330
A
100
AcDbEntity
  8
DRAW
  6
CONTINUOUS
 62
     7
100
AcDbLine
 10
71.66823407657216
 20
216.3787653991724
 30
0.0
 11
71.39539916668846
 21
217.3969991449385
 31
0.0
  0
LINE
  5
2F35
330
A
100
AcDbEntity
  8
DRAW
  6
CONTINUOUS
 62
     7
100
AcDbLine
 10
70.65000033080673
 20
216.6516003090575
 30
0.0
 11
71.66823407657229
 21
216.3787653991728
 31
0.0
  0
LINE
  5
2F36
330
A
100
AcDbEntity
  8
DRAW
  6
CONTINUOUS
 62
     7
100
AcDbLine
 10
68.1226501091312
 20
222.3469990518795
 30
0.0
 11
68.70000036746667
 21
221.3469990706795
 31
0.0
  0
ARC
  5
2F37
330
A
100
AcDbEntity
  8
DRAW
  6
CONTINUOUS
 62
     7
100
AcDbCircle
 10
74.30000026218682
 20
211.6469992530394
 30
0.0
 40
0.4999999906000001
100
AcDbArc
 50
0.0
 51
90.0
  0
LINE
  5
2F38
330
A
100
AcDbEntity
  8
DRAW
  6
CONTINUOUS
 62
     7
100
AcDbLine
 10
74.80000025278673
 20
211.6469992530394
 30
0.0
 11
74.80000025278673
 21
220.8469990800794
 31
0.0
  0
LINE
  5
2F39
330
A
100
AcDbEntity
  8
DRAW
  6
CONTINUOUS
 62
     7
100
AcDbLine
 10
72.60000029414664
 20
211.1469992624395
 30
0.0
 11
73.17735055248234
 21
212.1469992436395
 31
0.0
  0
TEXT
  5
2F3A
330
A
100
AcDbEntity
  8
DRAW-TEXT
  6
CONTINUOUS
100
AcDbText
 10
72.75983457122196
 20
203.3598096695125
 30
0.0
 40
1.399999976158142
  1
12
 41
0.95
  7
TSTYLE5
100
AcDbText
  0
ARC
  5
2F3B
330
A
100
AcDbEntity
  8
DRAW
  6
CONTINUOUS
 62
     7
100
AcDbCircle
 10
74.29999980108687
 20
200.7969994388361
 30
0.0
 40
0.4999999906000001
100
AcDbArc
 50
270.0
 51
0.0
  0
TEXT
  5
2F3C
330
A
100
AcDbEntity
  8
DRAW-TEXT
  6
CONTINUOUS
100
AcDbText
 10
73.42702571117637
 20
209.0694321630574
 30
0.0
 40
1.399999976158142
  1
2
 41
0.95
  7
TSTYLE5
100
AcDbText
  0
ARC
  5
2F3D
330
A
100
AcDbEntity
  8
DRAW
  6
CONTINUOUS
 62
     7
100
AcDbCircle
 10
74.30000026218682
 20
210.6469992718396
 30
0.0
 40
0.4999999906000001
100
AcDbArc
 50
0.0
 51
90.0
  0
LINE
  5
2F3E
330
A
100
AcDbEntity
  8
DRAW
  6
CONTINUOUS
 62
     7
100
AcDbLine
 10
74.80000025278673
 20
210.6469992718396
 30
0.0
 11
74.80000025278673
 21
211.6469992530396
 31
0.0
  0
TEXT
  5
2F3F
330
A
100
AcDbEntity
  8
DRAW-TEXT
  6
CONTINUOUS
100
AcDbText
 10
72.7184556196132
 20
213.7979938359715
 30
0.0
 40
1.399999976158142
  1
14
 41
0.95
  7
TSTYLE5
100
AcDbText
  0
LINE
  5
2F40
330
A
100
AcDbEntity
  8
DRAW
  6
CONTINUOUS
 62
     7
100
AcDbLine
 10
73.17735055248227
 20
212.1469992436393
 30
0.0
 11
74.30000026218667
 21
212.1469992436393
 31
0.0
  0
LINE
  5
2F41
330
A
100
AcDbEntity
  8
DRAW
  6
CONTINUOUS
 62
     7
100
AcDbLine
 10
73.17735055248227
 20
222.3469990518795
 30
0.0
 11
74.30000026218667
 21
222.3469990518795
 31
0.0
  0
TEXT
  5
2F42
330
A
100
AcDbEntity
  8
DRAW-TEXT
  6
CONTINUOUS
100
AcDbText
 10
73.38557947671937
 20
219.201959962231
 30
0.0
 40
1.399999976158142
  1
4
 41
0.95
  7
TSTYLE5
100
AcDbText
  0
LINE
  5
2F43
330
A
100
AcDbEntity
  8
DRAW
  6
CONTINUOUS
 62
     7
100
AcDbLine
 10
72.60000029414664
 20
221.3469990706796
 30
0.0
 11
73.17735055248234
 21
222.3469990518796
 31
0.0
  0
LINE
  5
2F44
330
A
100
AcDbEntity
  8
DRAW
  6
CONTINUOUS
 62
     7
100
AcDbLine
 10
74.80000025278673
 20
220.8469990800792
 30
0.0
 11
74.80000025278673
 21
221.8469990612792
 31
0.0
  0
ARC
  5
2F45
330
A
100
AcDbEntity
  8
DRAW
  6
CONTINUOUS
 62
     7
100
AcDbCircle
 10
74.30000026218682
 20
221.8469990612795
 30
0.0
 40
0.4999999906000001
100
AcDbArc
 50
0.0
 51
90.0
  0
ARC
  5
2F46
330
A
100
AcDbEntity
  8
DRAW
  6
CONTINUOUS
 62
     7
100
AcDbCircle
 10
74.30000026218682
 20
220.8469990800792
 30
0.0
 40
0.4999999906000001
100
AcDbArc
 50
0.0
 51
90.0
  0
LINE
  5
2F47
330
A
100
AcDbEntity
  8
DRAW
  6
CONTINUOUS
 62
     7
100
AcDbLine
 10
67.22265012605134
 20
231.3469988826793
 30
0.0
 11
73.3000002809867
 21
231.3469988826793
 31
0.0
  0
LINE
  5
2F48
330
A
100
AcDbEntity
  8
DRAW
  6
CONTINUOUS
 62
     7
100
AcDbLine
 10
67.33205120075286
 20
231.3469988826793
 30
0.0
 11
73.30000028098658
 21
231.3469988826793
 31
0.0
  0
LINE
  5
2F49
330
A
100
AcDbEntity
  8
DRAW
  6
CONTINUOUS
 62
     7
100
AcDbLine
 10
73.17735055248227
 20
232.3469988638796
 30
0.0
 11
68.12265010913134
 21
232.3469988638796
 31
0.0
  0
LINE
  5
2F4A
330
A
100
AcDbEntity
  8
DRAW
  6
CONTINUOUS
 62
     7
100
AcDbLine
 10
68.52679528996645
 20
231.6469988770393
 30
0.0
 11
72.77320537164772
 21
231.6469988770393
 31
0.0
  0
LINE
  5
2F4B
330
A
100
AcDbEntity
  8
DRAW
  6
CONTINUOUS
 62
     7
100
AcDbLine
 10
74.30000026218682
 20
231.3469988826793
 30
0.0
 11
67.22265012605127
 21
231.3469988826793
 31
0.0
  0
CIRCLE
  5
2F4C
330
A
100
AcDbEntity
  8
DRAW
  6
CONTINUOUS
 62
     7
100
AcDbCircle
 10
70.65000033080673
 20
227.3969989569393
 30
0.0
 40
2.499999953
  0
LINE
  5
2F4D
330
A
100
AcDbEntity
  8
DRAW
  6
CONTINUOUS
 62
     7
100
AcDbLine
 10
67.80000038438697
 20
232.3469988638796
 30
0.0
 11
68.12265010913165
 21
232.3469988638796
 31
0.0
  0
TEXT
  5
2F4E
330
A
100
AcDbEntity
  8
DRAW-TEXT
  6
CONTINUOUS
100
AcDbText
 10
66.44752596542251
 20
228.406445825112
 30
0.0
 40
1.399999976158142
  1
C
 41
0.95
  7
TSTYLE5
100
AcDbText
  0
TEXT
  5
2F4F
330
A
100
AcDbEntity
  8
DRAW-TEXT
  6
CONTINUOUS
100
AcDbText
 10
66.39309414127386
 20
226.1059683523669
 30
0.0
 40
1.399999976158142
  1
O
 41
0.95
  7
TSTYLE5
100
AcDbText
  0
LINE
  5
2F50
330
A
100
AcDbEntity
  8
DRAW
  6
CONTINUOUS
 62
     7
100
AcDbLine
 10
65.67735069348259
 20
232.3469988638796
 30
0.0
 11
66.00000041822699
 21
232.3469988638796
 31
0.0
  0
LINE
  5
2F51
330
A
100
AcDbEntity
  8
DRAW
  6
CONTINUOUS
 62
     7
100
AcDbLine
 10
65.84226539427323
 20
232.3469988638796
 30
0.0
 11
67.95773540834062
 21
232.3469988638796
 31
0.0
  0
LINE
  5
2F52
330
A
100
AcDbEntity
  8
DRAW
  6
CONTINUOUS
 62
     7
100
AcDbLine
 10
65.10000043514697
 20
231.3469988826793
 30
0.0
 11
65.67735069348237
 21
232.3469988638793
 31
0.0
  0
LINE
  5
2F53
330
A
100
AcDbEntity
  8
DRAW
  6
CONTINUOUS
 62
     7
100
AcDbLine
 10
66.57735067656199
 20
231.3469988826793
 30
0.0
 11
66.00000041822676
 21
232.3469988638793
 31
0.0
  0
LINE
  5
2F54
330
A
100
AcDbEntity
  8
DRAW
  6
CONTINUOUS
 62
     7
100
AcDbLine
 10
66.86602580573003
 20
230.8469988920794
 30
0.0
 11
66.00000041822685
 21
232.3469988638794
 31
0.0
  0
LINE
  5
2F55
330
A
100
AcDbEntity
  8
DRAW
  6
CONTINUOUS
 62
     7
100
AcDbLine
 10
66.00000041822681
 20
232.3469988638796
 30
0.0
 11
67.80000038438699
 21
232.3469988638796
 31
0.0
  0
LINE
  5
2F56
330
A
100
AcDbEntity
  8
DRAW
  6
CONTINUOUS
 62
     7
100
AcDbLine
 10
67.80000038438697
 20
232.3469988638796
 30
0.0
 11
66.93397499688393
 21
230.8469988920796
 31
0.0
  0
LINE
  5
2F57
330
A
100
AcDbEntity
  8
DRAW
  6
CONTINUOUS
 62
     7
100
AcDbLine
 10
70.65000033080673
 20
228.1423977928218
 30
0.0
 11
69.63176658504093
 21
228.4152327027059
 31
0.0
  0
LINE
  5
2F58
330
A
100
AcDbEntity
  8
DRAW
  6
CONTINUOUS
 62
     7
100
AcDbLine
 10
69.63176658504131
 20
226.3787652111739
 30
0.0
 11
70.65000033080693
 21
226.6516001210583
 31
0.0
  0
CIRCLE
  5
2F59
330
A
100
AcDbEntity
  8
DRAW
  6
CONTINUOUS
 62
     7
100
AcDbCircle
 10
70.65000033080673
 20
227.3969989569402
 30
0.0
 40
1.439999972927999
  0
LINE
  5
2F5A
330
A
100
AcDbEntity
  8
DRAW
  6
CONTINUOUS
 62
     7
100
AcDbLine
 10
69.63176658504085
 20
228.4152327027056
 30
0.0
 11
69.90460149492506
 21
227.3969989569399
 31
0.0
  0
LINE
  5
2F5B
330
A
100
AcDbEntity
  8
DRAW
  6
CONTINUOUS
 62
     7
100
AcDbLine
 10
69.90460149492514
 20
227.3969989569402
 30
0.0
 11
69.6317665850411
 21
226.3787652111741
 31
0.0
  0
LINE
  5
2F5C
330
A
100
AcDbEntity
  8
DRAW
  6
CONTINUOUS
 62
     7
100
AcDbLine
 10
71.66823407657307
 20
228.4152327027056
 30
0.0
 11
70.65000033080696
 21
228.1423977928215
 31
0.0
  0
LINE
  5
2F5D
330
A
100
AcDbEntity
  8
DRAW
  6
CONTINUOUS
 62
     7
100
AcDbLine
 10
71.39539916668877
 20
227.3969989569398
 30
0.0
 11
71.66823407657304
 21
228.4152327027057
 31
0.0
  0
LINE
  5
2F5E
330
A
100
AcDbEntity
  8
DRAW
  6
CONTINUOUS
 62
     7
100
AcDbLine
 10
71.66823407657216
 20
226.3787652111739
 30
0.0
 11
71.39539916668846
 21
227.3969989569399
 31
0.0
  0
LINE
  5
2F5F
330
A
100
AcDbEntity
  8
DRAW
  6
CONTINUOUS
 62
     7
100
AcDbLine
 10
70.65000033080673
 20
226.6516001210586
 30
0.0
 11
71.66823407657229
 21
226.3787652111739
 31
0.0
  0
LINE
  5
2F60
330
A
100
AcDbEntity
  8
DRAW
  6
CONTINUOUS
 62
     7
100
AcDbLine
 10
68.12265010913165
 20
232.3469988638796
 30
0.0
 11
68.70000036746695
 21
231.3469988826796
 31
0.0
  0
TEXT
  5
2F61
330
A
100
AcDbEntity
  8
DRAW-TEXT
  6
CONTINUOUS
100
AcDbText
 10
73.36804748885992
 20
229.2597461289517
 30
0.0
 40
1.399999976158142
  1
3
 41
0.95
  7
TSTYLE5
100
AcDbText
  0
LINE
  5
2F62
330
A
100
AcDbEntity
  8
DRAW
  6
CONTINUOUS
 62
     7
100
AcDbLine
 10
73.17735055248227
 20
232.3469988638796
 30
0.0
 11
74.30000026218684
 21
232.3469988638796
 31
0.0
  0
LINE
  5
2F63
330
A
100
AcDbEntity
  8
DRAW
  6
CONTINUOUS
 62
     7
100
AcDbLine
 10
72.60000029414664
 20
231.3469988826793
 30
0.0
 11
73.17735055248222
 21
232.3469988638793
 31
0.0
  0
LINE
  5
2F64
330
A
100
AcDbEntity
  8
DRAW
  6
CONTINUOUS
 62
     7
100
AcDbLine
 10
74.80000025278673
 20
231.3469988826793
 30
0.0
 11
74.80000025278673
 21
231.8469988732794
 31
0.0
  0
LINE
  5
2F65
330
A
100
AcDbEntity
  8
DRAW
  6
CONTINUOUS
 62
     7
100
AcDbLine
 10
74.80000025278673
 20
230.8469988920794
 30
0.0
 11
74.80000025278673
 21
231.8469988732795
 31
0.0
  0
ARC
  5
2F66
330
A
100
AcDbEntity
  8
DRAW
  6
CONTINUOUS
 62
     7
100
AcDbCircle
 10
74.30000026218682
 20
230.8469988920794
 30
0.0
 40
0.4999999906000001
100
AcDbArc
 50
0.0
 51
90.0
  0
ARC
  5
2F67
330
A
100
AcDbEntity
  8
DRAW
  6
CONTINUOUS
 62
     7
100
AcDbCircle
 10
74.30000026218682
 20
231.8469988732797
 30
0.0
 40
0.4999999906000001
100
AcDbArc
 50
0.0
 51
90.0
  0
LINE
  5
2F68
330
A
100
AcDbEntity
  8
DRAW
  6
CONTINUOUS
 62
     7
100
AcDbLine
 10
117.9200788725248
 20
148.1010004295201
 30
0.0
 11
117.9200788725248
 21
149.4970004032755
 31
0.0
  0
LINE
  5
2F69
330
A
100
AcDbEntity
  8
DRAW
  6
CONTINUOUS
 62
     7
100
AcDbLine
 10
114.4200789383248
 20
149.4970004032759
 30
0.0
 11
114.4200789383248
 21
146.1010004671204
 31
0.0
  0
DIMENSION
  5
2F6A
330
A
100
AcDbEntity
  8
DIM
100
AcDbDimension
  2
*D40
 10
117.918295799648
 20
136.6679143967821
 30
0.0
 11
142.8420360676503
 21
136.6672904824823
 31
0.0
 70
   160
  1
49.9
  3
DSTYLE3
100
AcDbAlignedDimension
 13
167.766539533107
 23
167.1544036451535
 33
0.0
 14
117.9191576606205
 24
171.0970003002778
 34
0.0
 50
359.9985657186375
100
AcDbRotatedDimension
  0
DIMENSION
  5
2F6B
330
A
100
AcDbEntity
  8
DIM
100
AcDbDimension
  2
*D41
 10
117.918445628541
 20
142.6531857948861
 30
0.0
 11
133.8191136989462
 21
142.6527877545406
 31
0.0
 70
   160
  1
<>
  3
DSTYLE2
100
AcDbAlignedDimension
 13
149.720078274685
 23
154.4970003092756
 33
0.0
 14
117.9191576606205
 24
171.0970003002778
 34
0.0
 50
359.9985657186375
100
AcDbRotatedDimension
  0
LINE
  5
2F6C
330
A
100
AcDbEntity
  8
DRAW
  6
CONTINUOUS
 62
     7
100
AcDbLine
 10
114.4200789383248
 20
148.1010004295201
 30
0.0
 11
117.9200788725248
 21
148.1010004295201
 31
0.0
  0
LINE
  5
2F6D
330
A
100
AcDbEntity
  8
DRAW
  6
CONTINUOUS
 62
     7
100
AcDbLine
 10
117.9200788725248
 20
148.1010004295201
 30
0.0
 11
114.4200789383248
 21
148.1010004295201
 31
0.0
  0
LINE
  5
2F6E
330
A
100
AcDbEntity
  8
DRAW
  6
CONTINUOUS
 62
     7
100
AcDbLine
 10
114.4200789383244
 20
146.1010004671204
 30
0.0
 11
118.9200788537249
 21
146.1010004671205
 31
0.0
  0
LINE
  5
2F6F
330
A
100
AcDbEntity
  8
DRAW
  6
CONTINUOUS
 62
     7
100
AcDbLine
 10
114.4200789383248
 20
148.1010004295201
 30
0.0
 11
114.4200789383243
 21
146.10100046712
 31
0.0
  0
LINE
  5
2F70
330
A
100
AcDbEntity
  8
DRAW
  6
CONTINUOUS
 62
     7
100
AcDbLine
 10
118.9200788537248
 20
147.1010004483202
 30
0.0
 11
118.9200788537248
 21
146.1010004671202
 31
0.0
  0
LINE
  5
2F71
330
A
100
AcDbEntity
  8
DRAW
  6
CONTINUOUS
 62
     7
100
AcDbLine
 10
118.9200788537248
 20
146.1010004671204
 30
0.0
 11
118.9200788537248
 21
147.1010004483204
 31
0.0
  0
LINE
  5
2F72
330
A
100
AcDbEntity
  8
DRAW
  6
CONTINUOUS
 62
     7
100
AcDbLine
 10
117.9200788725248
 20
148.1010004295201
 30
0.0
 11
118.9200788537248
 21
147.1010004483201
 31
0.0
  0
LINE
  5
2F73
330
A
100
AcDbEntity
  8
DRAW
  6
CONTINUOUS
 62
     7
100
AcDbLine
 10
118.9200788537248
 20
147.1010004483202
 30
0.0
 11
117.9200788725248
 21
148.1010004295202
 31
0.0
  0
LINE
  5
2F74
330
A
100
AcDbEntity
  8
DRAW
  6
CONTINUOUS
 62
     7
100
AcDbLine
 10
179.8165607510508
 20
199.8720087166735
 30
0.0
 11
178.5165607510507
 21
199.8720086722954
 31
0.0
  0
LINE
  5
2F75
330
A
100
AcDbEntity
  8
DRAW
100
AcDbLine
 10
179.5665617256636
 20
171.3220087081393
 30
0.0
 11
178.5165617256636
 21
171.3220086722954
 31
0.0
  0
ARC
  5
2F76
330
A
100
AcDbEntity
  8
DRAW
100
AcDbCircle
 10
176.9165400297552
 20
166.096638274623
 30
0.0
 40
2.89999994548
100
AcDbArc
 50
0.0
 51
90.0
  0
LINE
  5
2F77
330
A
100
AcDbEntity
  8
DRAW
  6
HIDDEN2
 62
     7
100
AcDbLine
 10
181.3165399470442
 20
175.7966380922628
 30
0.0
 11
172.1165401200043
 21
184.9966379193024
 31
0.0
  0
DIMENSION
  5
2F78
330
A
100
AcDbEntity
  8
DIM
100
AcDbDimension
  2
*D42
 10
117.9200423558005
 20
249.5768247540014
 30
0.0
 11
150.2188168756517
 21
249.5768258565866
 31
0.0
 70
   160
  1
<>
  3
DSTYLE2
100
AcDbAlignedDimension
 13
182.5165616027703
 23
174.9220088088436
 33
0.0
 14
117.9200438264191
 24
206.4969993316752
 34
0.0
 50
180.0000019559094
100
AcDbRotatedDimension
  0
LINE
  5
2F79
330
A
100
AcDbEntity
  8
DRAW
  6
HIDDEN2
 62
     7
100
AcDbLine
 10
149.7165405411239
 20
187.1016378797292
 30
0.0
 11
146.183877265446
 21
186.0969997151957
 31
0.0
  0
CIRCLE
  5
2F7A
330
A
100
AcDbEntity
  8
DRAW
  6
CONTINUOUS
 62
     7
100
AcDbCircle
 10
147.2122343780872
 20
173.6969999483155
 30
0.0
 40
1.09999997932
  0
CIRCLE
  5
2F7B
330
A
100
AcDbEntity
  8
DRAW
  6
CONTINUOUS
 62
     7
100
AcDbCircle
 10
147.2122343780872
 20
173.6969999483155
 30
0.0
 40
0.9999999812000002
  0
ARC
  5
2F7C
330
A
100
AcDbEntity
  8
DRAW
100
AcDbCircle
 10
147.2122343780872
 20
173.6969999483155
 30
0.0
 40
1.895449564440018
100
AcDbArc
 50
180.0
 51
288.0013343543306
  0
LINE
  5
2F7D
330
A
100
AcDbEntity
  8
DRAW
100
AcDbLine
 10
149.7165405411239
 20
171.096999997196
 30
0.0
 11
137.8665407639041
 21
171.096999997196
 31
0.0
  0
LINE
  5
2F7E
330
A
100
AcDbEntity
  8
DRAW
  6
CONTINUOUS
 62
     7
100
AcDbLine
 10
140.9200784401248
 20
222.346999033695
 30
0.0
 11
160.1200780791651
 21
222.3469990336945
 31
0.0
  0
LINE
  5
2F7F
330
A
100
AcDbEntity
  8
DRAW
  6
CONTINUOUS
 62
     7
100
AcDbLine
 10
144.716540635124
 20
200.2969994482357
 30
0.0
 11
179.3165399846439
 21
200.2969994482357
 31
0.0
  0
DIMENSION
  5
2F80
330
A
100
AcDbEntity
  8
DIM
100
AcDbDimension
  2
*D43
 10
140.9200784401255
 20
244.4955572657756
 30
0.0
 11
150.5200782596455
 21
244.4955572657751
 31
0.0
 70
   160
  1
<>
  3
DSTYLE2
100
AcDbAlignedDimension
 13
160.1200780791652
 23
222.3469990336945
 33
0.0
 14
140.9200784401248
 24
232.3469988456947
 34
0.0
 50
179.9999999999967
100
AcDbRotatedDimension
  0
LINE
  5
2F81
330
A
100
AcDbEntity
  8
DRAW
100
AcDbLine
 10
146.9516565422983
 20
160.1970002021159
 30
0.0
 11
139.5665407319439
 21
160.1970002021159
 31
0.0
  0
LINE
  5
2F82
330
A
100
AcDbEntity
  8
DRAW
  6
CONTINUOUS
 62
     7
100
AcDbLine
 10
149.720078274685
 20
149.4970004032759
 30
0.0
 11
114.4200789383248
 21
149.4970004032758
 31
0.0
  0
LINE
  5
2F84
330
A
100
AcDbEntity
  8
DRAW
  6
CONTINUOUS
 62
     7
100
AcDbLine
 10
144.716540635124
 20
200.2969994482357
 30
0.0
 11
144.716540635124
 21
180.5931659944907
 31
0.0
  0
LINE
  5
2F85
330
A
100
AcDbEntity
  8
DRAW
  6
CONTINUOUS
 62
     7
100
AcDbLine
 10
117.9191576606205
 20
171.0970003002778
 30
0.0
 11
117.9200438264191
 21
206.4969993316752
 31
0.0
  0
LINE
  5
2F86
330
A
100
AcDbEntity
  8
DRAW
  6
CONTINUOUS
 62
     7
100
AcDbLine
 10
114.4191577264205
 20
171.0993033305378
 30
0.0
 11
114.4200789383249
 21
149.497000403276
 31
0.0
  0
LINE
  5
2F87
330
A
100
AcDbEntity
  8
DRAW
  6
CONTINUOUS
 62
     7
100
AcDbLine
 10
116.4200789007248
 20
156.2488784305467
 30
0.0
 11
118.4200788631249
 21
156.2488784305467
 31
0.0
  0
LINE
  5
2F88
330
A
100
AcDbEntity
  8
DRAW
  6
CONTINUOUS
 62
     7
100
AcDbLine
 10
118.4200788631249
 20
152.2488785057469
 30
0.0
 11
116.4200789007248
 21
152.2488785057469
 31
0.0
  0
LINE
  5
2F89
330
A
100
AcDbEntity
  8
DRAW
  6
CONTINUOUS
 62
     7
100
AcDbLine
 10
116.4200789007248
 20
152.2488785057469
 30
0.0
 11
116.4200789007248
 21
156.2488784305469
 31
0.0
  0
LINE
  5
2F8A
330
A
100
AcDbEntity
  8
DRAW
  6
CONTINUOUS
 62
     7
100
AcDbLine
 10
117.4200788819248
 20
156.2488784305467
 30
0.0
 11
117.4200788819248
 21
152.2488785057466
 31
0.0
  0
POINT
  5
2F8B
330
A
100
AcDbEntity
  8
DRAW
  6
CONTINUOUS
 62
     7
100
AcDbPoint
 10
114.4200789383248
 20
149.4970004032758
 30
0.0
  0
LINE
  5
2F8C
330
A
100
AcDbEntity
  8
DRAW
  6
CONTINUOUS
 62
     7
100
AcDbLine
 10
117.9200788725248
 20
152.2488785057469
 30
0.0
 11
117.9200788725248
 21
156.2488784305469
 31
0.0
  0
LINE
  5
2F8D
330
A
100
AcDbEntity
  8
DRAW
  6
CONTINUOUS
 62
     7
100
AcDbLine
 10
118.4200788631249
 20
156.2488784305467
 30
0.0
 11
118.4200788631249
 21
152.2488785057466
 31
0.0
  0
LINE
  5
2F8E
330
A
100
AcDbEntity
  8
DRAW
  6
CONTINUOUS
 62
     7
100
AcDbLine
 10
116.7191576831801
 20
171.6010002908026
 30
0.0
 11
117.9191576606204
 21
171.6010002908026
 31
0.0
  0
LINE
  5
2F8F
330
A
100
AcDbEntity
  8
DRAW
  6
CONTINUOUS
 62
     7
100
AcDbLine
 10
114.4191577264205
 20
171.0993033305378
 30
0.0
 11
117.9191576606205
 21
171.097000300278
 31
0.0
  0
LINE
  5
2F90
330
A
100
AcDbEntity
  8
DRAW
  6
CONTINUOUS
 62
     7
100
AcDbLine
 10
114.4191577264205
 20
171.1010003002027
 30
0.0
 11
115.5738582430912
 21
173.1010002626028
 31
0.0
  0
LINE
  5
2F91
330
A
100
AcDbEntity
  8
DRAW
  6
CONTINUOUS
 62
     7
100
AcDbLine
 10
115.5738582430911
 20
173.1010002626028
 30
0.0
 11
116.3172339020899
 21
173.1010002626027
 31
0.0
  0
LINE
  5
2F92
330
A
100
AcDbEntity
  8
DRAW
  6
CONTINUOUS
 62
     7
100
AcDbLine
 10
116.3172339020899
 20
173.1010002626028
 30
0.0
 11
116.7191576831801
 21
171.6010002908028
 31
0.0
  0
POINT
  5
2F93
330
A
100
AcDbEntity
  8
DRAW
  6
CONTINUOUS
 62
     7
100
AcDbPoint
 10
117.9191576606205
 20
171.0970003002778
 30
0.0
  0
POINT
  5
2F94
330
A
100
AcDbEntity
  8
DRAW
  6
CONTINUOUS
 62
     7
100
AcDbPoint
 10
117.9191576606205
 20
171.0970003002778
 30
0.0
  0
POINT
  5
2F95
330
A
100
AcDbEntity
  8
DRAW
  6
CONTINUOUS
 62
     7
100
AcDbPoint
 10
117.9191576606205
 20
171.0970003002778
 30
0.0
  0
LINE
  5
2F96
330
A
100
AcDbEntity
  8
DRAW
  6
CONTINUOUS
 62
     7
100
AcDbLine
 10
119.924547812771
 20
190.8001516777001
 30
0.0
 11
121.924547775171
 21
190.8001516777001
 31
0.0
  0
LINE
  5
2F97
330
A
100
AcDbEntity
  8
DRAW
  6
CONTINUOUS
 62
     7
100
AcDbLine
 10
121.924547775171
 20
186.8001517528998
 30
0.0
 11
119.924547812771
 21
186.8001517528998
 31
0.0
  0
LINE
  5
2F98
330
A
100
AcDbEntity
  8
DRAW
  6
CONTINUOUS
 62
     7
100
AcDbLine
 10
121.4476149183315
 20
190.8039540317693
 30
0.0
 11
121.4476149183315
 21
186.8001517528997
 31
0.0
  0
LINE
  5
2F99
330
A
100
AcDbEntity
  8
DRAW
  6
CONTINUOUS
 62
     7
100
AcDbLine
 10
120.9245477939711
 20
190.8001516777001
 30
0.0
 11
120.9245477939711
 21
186.8001517528998
 31
0.0
  0
LINE
  5
2F9A
330
A
100
AcDbEntity
  8
DRAW
  6
CONTINUOUS
 62
     7
100
AcDbLine
 10
119.924547812771
 20
186.8001517528998
 30
0.0
 11
119.924547812771
 21
190.8001516777
 31
0.0
  0
LINE
  5
2F9B
330
A
100
AcDbEntity
  8
DRAW
  6
CONTINUOUS
 62
     7
100
AcDbLine
 10
121.924547775171
 20
190.8001516777001
 30
0.0
 11
121.924547775171
 21
186.8001517528998
 31
0.0
  0
LINE
  5
2F9C
330
A
100
AcDbEntity
  8
DRAW
  6
HIDDEN2
 62
     7
100
AcDbLine
 10
145.3167848136473
 20
173.6969999483155
 30
0.0
 11
145.5701556595944
 21
177.3203718553834
 31
0.0
  0
LINE
  5
2F9D
330
A
100
AcDbEntity
  8
DRAW
  6
CONTINUOUS
 62
     7
100
AcDbLine
 10
141.6165406934041
 20
171.096999997196
 30
0.0
 11
141.6165406934041
 21
180.593165994491
 31
0.0
  0
LINE
  5
2F9E
330
A
100
AcDbEntity
  8
DRAW
100
AcDbLine
 10
139.5665407319438
 20
160.1970002021159
 30
0.0
 11
137.866540763904
 21
160.1970002021159
 31
0.0
  0
LINE
  5
2F9F
330
A
100
AcDbEntity
  8
DRAW
100
AcDbLine
 10
137.8665407639041
 20
163.8970001325558
 30
0.0
 11
137.8665407639041
 21
160.1970002021156
 31
0.0
  0
LINE
  5
2FA0
330
A
100
AcDbEntity
  8
DRAW
100
AcDbLine
 10
136.366540792104
 20
167.3470000676954
 30
0.0
 11
136.366540792104
 21
170.1970000141154
 31
0.0
  0
LINE
  5
2FA1
330
A
100
AcDbEntity
  8
DRAW
100
AcDbLine
 10
136.366540792104
 20
163.8970001325558
 30
0.0
 11
137.866540763904
 21
163.8970001325562
 31
0.0
  0
LINE
  5
2FA2
330
A
100
AcDbEntity
  8
DRAW
100
AcDbLine
 10
136.366540792104
 20
163.8970001325558
 30
0.0
 11
136.366540792104
 21
167.3470000676958
 31
0.0
  0
LINE
  5
2FA3
330
A
100
AcDbEntity
  8
DRAW
100
AcDbLine
 10
137.8665407639041
 20
170.1970000141157
 30
0.0
 11
137.8665407639041
 21
171.096999997196
 31
0.0
  0
LINE
  5
2FA4
330
A
100
AcDbEntity
  8
DRAW
100
AcDbLine
 10
136.366540792104
 20
170.1970000141157
 30
0.0
 11
137.866540763904
 21
170.1970000141157
 31
0.0
  0
LINE
  5
2FA5
330
A
100
AcDbEntity
  8
DRAW
  6
CONTINUOUS
 62
     7
100
AcDbLine
 10
144.716540635124
 20
180.593165994491
 30
0.0
 11
141.6165406934041
 21
180.593165994491
 31
0.0
  0
LINE
  5
2FA6
330
A
100
AcDbEntity
  8
DRAW
  6
HIDDEN2
 62
     7
100
AcDbLine
 10
145.5701556595944
 20
177.3203718553834
 30
0.0
 11
142.0786815493247
 21
177.5645195088978
 31
0.0
  0
LINE
  5
2FA7
330
A
100
AcDbEntity
  8
DRAW
  6
HIDDEN2
 62
     7
100
AcDbLine
 10
145.7759372532712
 20
180.2631857483249
 30
0.0
 11
142.1868110485748
 21
179.1108433901756
 31
0.0
  0
LINE
  5
2FA8
330
A
100
AcDbEntity
  8
DRAW
  6
HIDDEN2
 62
     7
100
AcDbLine
 10
142.0786815493248
 20
177.5645195088979
 30
0.0
 11
142.1868110485748
 21
179.1108433901759
 31
0.0
  0
LINE
  5
2FA9
330
A
100
AcDbEntity
  8
DRAW
  6
HIDDEN2
 62
     7
100
AcDbLine
 10
145.7759372532712
 20
180.2631857483249
 30
0.0
 11
146.183877265446
 21
186.0969997151956
 31
0.0
  0
DIMENSION
  5
2FAA
330
A
100
AcDbEntity
  8
DIM
100
AcDbDimension
  2
*D44
 10
117.9200438264191
 20
244.4955570777748
 30
0.0
 11
129.4205130014338
 21
244.4955570777748
 31
0.0
 70
   160
  1
<>
  3
DSTYLE2
100
AcDbAlignedDimension
 13
140.9200784401248
 23
232.3469988456947
 33
0.0
 14
117.9200438264191
 24
206.4969993316752
 34
0.0
 50
180.0
100
AcDbRotatedDimension
  0
LINE
  5
2FAB
330
A
100
AcDbEntity
  8
DRAW
  6
CONTINUOUS
 62
     7
100
AcDbLine
 10
114.4200789383248
 20
232.3469988456952
 30
0.0
 11
140.9200784401248
 21
232.3469988456946
 31
0.0
  0
LINE
  5
2FAC
330
A
100
AcDbEntity
  8
DRAW
  6
CONTINUOUS
 62
     7
100
AcDbLine
 10
114.4200789383244
 20
206.4969993316751
 30
0.0
 11
114.4200789383249
 21
232.3469988456952
 31
0.0
  0
LINE
  5
2FAD
330
A
100
AcDbEntity
  8
DRAW
  6
CONTINUOUS
 62
     7
100
AcDbLine
 10
114.4200789383244
 20
206.4969993316751
 30
0.0
 11
117.9200788725244
 21
206.496999331675
 31
0.0
  0
LINE
  5
2FAE
330
A
100
AcDbEntity
  8
DRAW
  6
CONTINUOUS
 62
     7
100
AcDbLine
 10
114.822002719415
 20
204.9969993598754
 30
0.0
 11
114.4200789383243
 21
206.4969993316753
 31
0.0
  0
LINE
  5
2FAF
330
A
100
AcDbEntity
  8
DRAW
  6
CONTINUOUS
 62
     7
100
AcDbLine
 10
116.4314037659166
 20
206.4969993316751
 30
0.0
 11
115.5653783784134
 21
204.9969993598754
 31
0.0
  0
LINE
  5
2FB0
330
A
100
AcDbEntity
  8
DRAW
  6
CONTINUOUS
 62
     7
100
AcDbLine
 10
115.5653783784134
 20
204.9969993598754
 30
0.0
 11
114.8220027194151
 21
204.9969993598754
 31
0.0
  0
POINT
  5
2FB1
330
A
100
AcDbEntity
  8
DRAW
  6
CONTINUOUS
 62
     7
100
AcDbPoint
 10
117.9200788725244
 20
206.496999331675
 30
0.0
  0
POINT
  5
2FB2
330
A
100
AcDbEntity
  8
DRAW
  6
CONTINUOUS
 62
     7
100
AcDbPoint
 10
117.9200438264191
 20
206.4969993316752
 30
0.0
  0
LINE
  5
2FB4
330
A
100
AcDbEntity
  8
DRAW
  6
CONTINUOUS
 62
     7
100
AcDbLine
 10
117.4200793847544
 20
229.5967723693586
 30
0.0
 11
117.4200793847544
 21
225.5967724445584
 31
0.0
  0
POINT
  5
2FB5
330
A
100
AcDbEntity
  8
DRAW
  6
CONTINUOUS
 62
     7
100
AcDbPoint
 10
114.4200789383248
 20
232.3469988456952
 30
0.0
  0
LINE
  5
2FB6
330
A
100
AcDbEntity
  8
DRAW
  6
CONTINUOUS
 62
     7
100
AcDbLine
 10
117.9431465091149
 20
229.6005747234278
 30
0.0
 11
117.9431465091149
 21
225.5967724445583
 31
0.0
  0
LINE
  5
2FB7
330
A
100
AcDbEntity
  8
DRAW
  6
CONTINUOUS
 62
     7
100
AcDbLine
 10
140.9200784401248
 20
232.3469988456947
 30
0.0
 11
140.9200784401248
 21
222.3469990336954
 31
0.0
  0
LINE
  5
2FB8
330
A
100
AcDbEntity
  8
DRAW
  6
CONTINUOUS
 62
     7
100
AcDbLine
 10
139.3200784702049
 20
231.3469988644945
 30
0.0
 11
140.4200784495249
 21
231.3469988644945
 31
0.0
  0
LINE
  5
2FB9
330
A
100
AcDbEntity
  8
DRAW
  6
CONTINUOUS
 62
     7
100
AcDbLine
 10
139.3200784702049
 20
231.3469988644945
 30
0.0
 11
140.4200784495248
 21
231.3469988644945
 31
0.0
  0
LINE
  5
2FBA
330
A
100
AcDbEntity
  8
DRAW
  6
CONTINUOUS
 62
     7
100
AcDbLine
 10
139.3200784702049
 20
232.3469988456947
 30
0.0
 11
139.3200784702049
 21
231.3469988644948
 31
0.0
  0
LINE
  5
2FBB
330
A
100
AcDbEntity
  8
DRAW
  6
CONTINUOUS
 62
     7
100
AcDbLine
 10
139.3200784702049
 20
232.3469988456947
 30
0.0
 11
139.3200784702049
 21
231.3469988644947
 31
0.0
  0
ARC
  5
2FBC
330
A
100
AcDbEntity
  8
DRAW
  6
CONTINUOUS
 62
     7
100
AcDbCircle
 10
140.4200784495249
 20
230.8469988738945
 30
0.0
 40
0.4999999906000001
100
AcDbArc
 50
0.0
 51
89.99999999999674
  0
LINE
  5
2FBD
330
A
100
AcDbEntity
  8
DRAW
  6
CONTINUOUS
 62
     7
100
AcDbLine
 10
178.5165607578782
 20
199.6720086693151
 30
0.0
 11
178.5165609004005
 21
195.4970061034394
 31
0.0
  0
LINE
  5
2FBE
330
A
100
AcDbEntity
  8
DRAW
  6
CONTINUOUS
 62
     7
100
AcDbLine
 10
150.7165609174017
 20
194.9970023276616
 30
0.0
 11
150.7165607433063
 21
200.0970025057295
 31
0.0
  0
LINE
  5
2FBF
330
A
100
AcDbEntity
  8
DRAW
  6
CONTINUOUS
 62
     7
100
AcDbLine
 10
149.7165609174017
 20
194.9970022935253
 30
0.0
 11
149.7165607433063
 21
200.0970024715933
 31
0.0
  0
LINE
  5
2FC0
330
A
100
AcDbEntity
  8
DRAW
  6
CONTINUOUS
 62
     7
100
AcDbLine
 10
149.7165615334195
 20
200.2969994482357
 30
0.0
 11
149.7165405411239
 21
186.3974879328949
 31
0.0
  0
LINE
  5
2FC1
330
A
100
AcDbEntity
  8
DRAW
100
AcDbLine
 10
150.7165617333444
 20
171.0970105779774
 30
0.0
 11
178.5165617250624
 21
171.3396184515705
 31
0.0
  0
LINE
  5
2FC2
330
A
100
AcDbEntity
  8
DRAW
  6
HIDDEN2
 62
     7
100
AcDbLine
 10
149.7165405411239
 20
187.1016378797292
 30
0.0
 11
167.7165402027239
 21
187.1026378797104
 31
0.0
  0
LINE
  5
2FC3
330
A
100
AcDbEntity
  8
DRAW
  6
HIDDEN2
 62
     7
100
AcDbLine
 10
147.7980024877055
 20
171.8943339301383
 30
0.0
 11
168.1164555540202
 21
178.4967226826865
 31
0.0
  0
LINE
  5
2FC4
330
A
100
AcDbEntity
  8
DRAW
  6
CONTINUOUS
 62
     7
100
AcDbLine
 10
150.7165612008065
 20
186.6970072268001
 30
0.0
 11
150.7165617333445
 21
171.0970079435814
 31
0.0
  0
LINE
  5
2FC5
330
A
100
AcDbEntity
  8
DRAW
  6
CONTINUOUS
 62
     7
100
AcDbLine
 10
149.7165612008065
 20
186.6970071926631
 30
0.0
 11
149.7165617333445
 21
171.0970079094445
 31
0.0
  0
LINE
  5
2FC6
330
A
100
AcDbEntity
  8
DRAW
  6
CONTINUOUS
 62
     7
100
AcDbLine
 10
149.7165405411235
 20
183.0979002428837
 30
0.0
 11
149.716540541124
 21
171.0969999971959
 31
0.0
  0
LINE
  5
2FC7
330
A
100
AcDbEntity
  8
DRAW
  6
CONTINUOUS
 62
     7
100
AcDbLine
 10
149.720078274685
 20
159.4970002152756
 30
0.0
 11
149.720078274685
 21
149.4970004032756
 31
0.0
  0
LINE
  5
2FC8
330
A
100
AcDbEntity
  8
DRAW
  6
CONTINUOUS
 62
     7
100
AcDbLine
 10
148.1200783047651
 20
150.4970003844757
 30
0.0
 11
149.2200782840845
 21
150.4970003844757
 31
0.0
  0
LINE
  5
2FC9
330
A
100
AcDbEntity
  8
DRAW
  6
CONTINUOUS
 62
     7
100
AcDbLine
 10
148.1200783047651
 20
150.4970003844757
 30
0.0
 11
148.1200783047651
 21
149.4970004032757
 31
0.0
  0
LINE
  5
2FCA
330
A
100
AcDbEntity
  8
DRAW
  6
CONTINUOUS
 62
     7
100
AcDbLine
 10
149.720078274685
 20
149.9970003938758
 30
0.0
 11
149.720078274685
 21
150.7470003797758
 31
0.0
  0
ARC
  5
2FCB
330
A
100
AcDbEntity
  8
DRAW
  6
CONTINUOUS
 62
     7
100
AcDbCircle
 10
149.2200782840845
 20
150.9970003750761
 30
0.0
 40
0.4999999906000001
100
AcDbArc
 50
270.0
 51
0.0
  0
LINE
  5
2FCC
330
A
100
AcDbEntity
  8
DRAW
100
AcDbLine
 10
146.9516565422983
 20
160.1970002021159
 30
0.0
 11
149.7200782746851
 21
159.507000215088
 31
0.0
  0
LINE
  5
2FCD
330
A
100
AcDbEntity
  8
DRAW
100
AcDbLine
 10
149.7165617333445
 20
171.0970079094444
 30
0.0
 11
150.7165617333445
 21
171.0970079435815
 31
0.0
  0
LINE
  5
2FCE
330
A
100
AcDbEntity
  8
DRAW
  6
CONTINUOUS
 62
     7
100
AcDbLine
 10
149.7165612008065
 20
186.6970071926631
 30
0.0
 11
149.7165610267075
 21
191.797007370731
 31
0.0
  0
LINE
  5
2FCF
330
A
100
AcDbEntity
  8
DRAW
  6
CONTINUOUS
 62
     7
100
AcDbLine
 10
150.7165612008065
 20
186.6970072268001
 30
0.0
 11
150.7165609174691
 21
194.9970023276616
 31
0.0
  0
LINE
  5
2FD0
330
A
100
AcDbEntity
  8
DRAW
  6
CONTINUOUS
 62
     7
100
AcDbLine
 10
147.2122343780877
 20
179.9969998298759
 30
0.0
 11
147.2122343780877
 21
182.9969997734758
 31
0.0
  0
LINE
  5
2FD1
330
A
100
AcDbEntity
  8
DRAW
  6
CONTINUOUS
 62
     7
100
AcDbLine
 10
148.7122343498876
 20
181.4969998016756
 30
0.0
 11
147.2122343780876
 21
179.9969998298756
 31
0.0
  0
LINE
  5
2FD2
330
A
100
AcDbEntity
  8
DRAW
  6
HIDDEN2
 62
     7
100
AcDbLine
 10
149.6165405430035
 20
185.8320284988274
 30
0.0
 11
147.8165405768437
 21
185.4821439489573
 31
0.0
  0
CIRCLE
  5
2FD3
330
A
100
AcDbEntity
  8
DRAW
  6
CONTINUOUS
 62
     7
100
AcDbCircle
 10
148.2622343583472
 20
182.7969997772354
 30
0.0
 40
0.5999999887200001
  0
CIRCLE
  5
2FD4
330
A
100
AcDbEntity
  8
DRAW
  6
CONTINUOUS
 62
     7
100
AcDbCircle
 10
148.2583729442569
 20
182.7953078560778
 30
0.0
 40
0.4999999906000001
  0
LINE
  5
2FD5
330
A
100
AcDbEntity
  8
DRAW
  6
HIDDEN2
 62
     7
100
AcDbLine
 10
147.8165405768434
 20
184.018082927814
 30
0.0
 11
149.6165405430041
 21
183.5357743905058
 31
0.0
  0
LINE
  5
2FD6
330
A
100
AcDbEntity
  8
DRAW
  6
CONTINUOUS
 62
     7
100
AcDbLine
 10
147.2122343780877
 20
182.9969997734758
 30
0.0
 11
148.7122343498877
 21
181.4969998016758
 31
0.0
  0
LINE
  5
2FD7
330
A
100
AcDbEntity
  8
DRAW
  6
CONTINUOUS
 62
     7
100
AcDbLine
 10
149.7165405411239
 20
186.397487932895
 30
0.0
 11
146.8168461292791
 21
185.6205171569438
 31
0.0
  0
LINE
  5
2FD8
330
A
100
AcDbEntity
  8
DRAW
  6
CONTINUOUS
 62
     7
100
AcDbLine
 10
149.7165405411243
 20
183.0979002428832
 30
0.0
 11
146.941244428632
 21
183.8415385949828
 31
0.0
  0
LINE
  5
2FD9
330
A
100
AcDbEntity
  8
DRAW
  6
HIDDEN2
 62
     7
100
AcDbLine
 10
147.8165405768437
 20
185.4821439489576
 30
0.0
 11
147.8165405768433
 21
184.018082927814
 31
0.0
  0
LINE
  5
2FDA
330
A
100
AcDbEntity
  8
DRAW
  6
CONTINUOUS
 62
     7
100
AcDbLine
 10
146.8168461292791
 20
185.6205171569438
 30
0.0
 11
146.941244428632
 21
183.8415385949829
 31
0.0
  0
LINE
  5
2FDB
330
A
100
AcDbEntity
  8
DRAW
  6
HIDDEN2
 62
     7
100
AcDbLine
 10
149.6165405430041
 20
183.5357743905058
 30
0.0
 11
149.6165405430035
 21
185.8320284988278
 31
0.0
  0
LINE
  5
2FDC
330
A
100
AcDbEntity
  8
DRAW
  6
CONTINUOUS
 62
     7
100
AcDbLine
 10
149.7165610267075
 20
191.797007370731
 30
0.0
 11
149.716560917469
 21
194.9970068593669
 31
0.0
  0
LINE
  5
2FDD
330
A
100
AcDbEntity
  8
DRAW
  6
CONTINUOUS
 62
     7
100
AcDbLine
 10
178.5165617188362
 20
171.5220086752756
 30
0.0
 11
178.5165616036272
 21
174.8969062289098
 31
0.0
  0
LINE
  5
2FDE
330
A
100
AcDbEntity
  8
DRAW
  6
HIDDEN2
 62
     7
100
AcDbLine
 10
176.1165400448039
 20
170.4966381919032
 30
0.0
 11
168.1164555540208
 21
178.4967226826872
 31
0.0
  0
LINE
  5
2FDF
330
A
100
AcDbEntity
  8
DRAW
100
AcDbLine
 10
170.466540151024
 20
170.996999999076
 30
0.0
 11
172.7165401087239
 21
170.9969999990762
 31
0.0
  0
LINE
  5
2FE0
330
A
100
AcDbEntity
  8
DRAW
100
AcDbLine
 10
170.466540151024
 20
169.4970000272758
 30
0.0
 11
172.7165401087237
 21
169.497000027276
 31
0.0
  0
LINE
  5
2FE1
330
A
100
AcDbEntity
  8
DRAW
100
AcDbLine
 10
169.7165605016814
 20
169.0970112265813
 30
0.0
 11
168.9165602258255
 21
169.0970111992716
 31
0.0
  0
ARC
  5
2FE2
330
A
100
AcDbEntity
  8
DRAW
100
AcDbCircle
 10
167.2165601240356
 20
170.740985406443
 30
0.0
 40
0.4999999999999994
100
AcDbArc
 50
0.0000019559078002
 51
90.5000019559087
  0
LINE
  5
2FE3
330
A
100
AcDbEntity
  8
DRAW
100
AcDbLine
 10
167.716560180156
 20
169.0970111583072
 30
0.0
 11
168.9165602258255
 21
169.0970111992716
 31
0.0
  0
LINE
  5
2FE4
330
A
100
AcDbEntity
  8
DRAW
100
AcDbLine
 10
167.716560180156
 20
169.0970111583072
 30
0.0
 11
167.7165601240355
 21
170.7409854235115
 31
0.0
  0
LINE
  5
2FE5
330
A
100
AcDbEntity
  8
DRAW
100
AcDbLine
 10
168.9165601521295
 20
171.2558401793118
 30
0.0
 11
168.9165602258256
 21
169.0970111992717
 31
0.0
  0
LINE
  5
2FE6
330
A
100
AcDbEntity
  8
DRAW
100
AcDbLine
 10
169.716560427747
 20
171.2628217032614
 30
0.0
 11
169.7165605016814
 21
169.0970112265813
 31
0.0
  0
ARC
  5
2FE7
330
A
100
AcDbEntity
  8
DRAW
100
AcDbCircle
 10
170.466540151024
 20
170.2470000131759
 30
0.0
 40
0.7499999859000001
100
AcDbArc
 50
90.0
 51
270.0
  0
LINE
  5
2FE8
330
A
100
AcDbEntity
  8
DRAW
100
AcDbLine
 10
172.7165401087239
 20
170.996999999076
 30
0.0
 11
176.1165400448039
 21
170.4966381919029
 31
0.0
  0
LINE
  5
2FE9
330
A
100
AcDbEntity
  8
DRAW
100
AcDbLine
 10
172.7165401087237
 20
169.4970000272762
 30
0.0
 11
176.116540044804
 21
168.9966382201031
 31
0.0
  0
LINE
  5
2FEA
330
A
100
AcDbEntity
  8
DRAW
100
AcDbLine
 10
173.7165604504759
 20
170.5970086427122
 30
0.0
 11
172.916560450476
 21
170.5970086154025
 31
0.0
  0
LINE
  5
2FEB
330
A
100
AcDbEntity
  8
DRAW
100
AcDbLine
 10
172.2288230461681
 20
171.2847459727557
 30
0.0
 11
172.916560450476
 21
170.5970086154025
 31
0.0
  0
LINE
  5
2FEC
330
A
100
AcDbEntity
  8
DRAW
100
AcDbLine
 10
172.7165401087239
 20
170.996999999076
 30
0.0
 11
172.7165401087236
 21
169.497000027276
 31
0.0
  0
LINE
  5
2FED
330
A
100
AcDbEntity
  8
DRAW
100
AcDbLine
 10
173.7165604265554
 20
171.2977293109726
 30
0.0
 11
173.716560450476
 21
170.5970086427122
 31
0.0
  0
LINE
  5
2FEE
330
A
100
AcDbEntity
  8
DRAW
100
AcDbLine
 10
176.1165400448039
 20
168.996638220103
 30
0.0
 11
176.9165400297549
 21
168.996638220103
 31
0.0
  0
LINE
  5
2FEF
330
A
100
AcDbEntity
  8
DRAW
100
AcDbLine
 10
176.1165400448044
 20
168.996638220103
 30
0.0
 11
176.116540044804
 21
170.496638191903
 31
0.0
  0
LINE
  5
2FF0
330
A
100
AcDbEntity
  8
DRAW
100
AcDbLine
 10
178.5165617256636
 20
171.3220086722953
 30
0.0
 11
178.5165617188362
 21
171.5220086752756
 31
0.0
  0
ARC
  5
2FF1
330
A
100
AcDbEntity
  8
DRAW
  6
HIDDEN2
 62
     7
100
AcDbCircle
 10
166.1151776947965
 20
178.1075700681219
 30
0.0
 40
9.136498608157557
100
AcDbArc
 50
48.93948053810262
 51
79.90557569731778
  0
LINE
  5
2FF2
330
A
100
AcDbEntity
  8
DRAW
  6
CONTINUOUS
 62
     7
100
AcDbLine
 10
176.3165609345375
 20
194.4970060283381
 30
0.0
 11
176.3165615694901
 21
175.8969061538083
 31
0.0
  0
LINE
  5
2FF3
330
A
100
AcDbEntity
  8
DRAW
  6
CONTINUOUS
 62
     7
100
AcDbLine
 10
178.5165616036272
 20
174.8969062375124
 30
0.0
 11
177.316561603627
 21
174.8969062171942
 31
0.0
  0
LINE
  5
2FF4
330
A
100
AcDbEntity
  8
DRAW
  6
CONTINUOUS
 62
     7
100
AcDbLine
 10
176.4986381608244
 20
175.7148295749051
 30
0.0
 11
176.3165615694901
 21
175.8969061538083
 31
0.0
  0
LINE
  5
2FF5
330
A
100
AcDbEntity
  8
DRAW
  6
CONTINUOUS
 62
     7
100
AcDbLine
 10
177.3165616036272
 20
174.8969061879453
 30
0.0
 11
176.3165615694901
 21
175.8969061538083
 31
0.0
  0
LINE
  5
2FF6
330
A
100
AcDbEntity
  8
DRAW
  6
CONTINUOUS
 62
     7
100
AcDbLine
 10
178.5165609004005
 20
195.4970061034396
 30
0.0
 11
177.3165609004005
 21
195.4970060624751
 31
0.0
  0
LINE
  5
2FF7
330
A
100
AcDbEntity
  8
DRAW
  6
CONTINUOUS
 62
     7
100
AcDbLine
 10
176.4987548858865
 20
194.6791999921261
 30
0.0
 11
176.3165609345375
 21
194.4970060283381
 31
0.0
  0
LINE
  5
2FF8
330
A
100
AcDbEntity
  8
DRAW
  6
CONTINUOUS
 62
     7
100
AcDbLine
 10
177.3165609004005
 20
195.497006062475
 30
0.0
 11
176.3165609345375
 21
194.497006028338
 31
0.0
  0
LINE
  5
2FF9
330
A
100
AcDbEntity
  8
DRAW
  6
CONTINUOUS
 62
     7
100
AcDbLine
 10
160.1200780791647
 20
212.1469992254553
 30
0.0
 11
179.3165399846439
 21
212.1469992254557
 31
0.0
  0
LINE
  5
2FFA
330
A
100
AcDbEntity
  8
DRAW
  6
CONTINUOUS
 62
     7
100
AcDbLine
 10
150.7165607433701
 20
200.097005299537
 30
0.0
 11
178.5165607516519
 21
199.8543993239639
 31
0.0
  0
DIMENSION
  5
2FFB
330
A
100
AcDbEntity
  8
DIM
100
AcDbDimension
  2
*D45
 10
179.3165399846438
 20
244.4955653725193
 30
0.0
 11
169.7183090319044
 21
244.4955653725193
 31
0.0
 70
   160
  1
<>
  3
DSTYLE2
100
AcDbAlignedDimension
 13
160.1200780791649
 23
217.2469991295749
 33
0.0
 14
179.3165399846438
 24
212.1469992254558
 34
0.0
100
AcDbRotatedDimension
  0
LINE
  5
2FFC
330
A
100
AcDbEntity
  8
DRAW
  6
CONTINUOUS
 62
     7
100
AcDbLine
 10
149.7165607433063
 20
200.0970024715933
 30
0.0
 11
150.7165607433063
 21
200.0970025057296
 31
0.0
  0
LINE
  5
2FFD
330
A
100
AcDbEntity
  8
DRAW
  6
CONTINUOUS
 62
     7
100
AcDbLine
 10
149.6200782765647
 20
200.2969994482357
 30
0.0
 11
148.9200782897249
 21
200.2969994482357
 31
0.0
  0
LINE
  5
2FFE
330
A
100
AcDbEntity
  8
DRAW
  6
CONTINUOUS
 62
     7
100
AcDbLine
 10
158.5200781092452
 20
221.3469990524947
 30
0.0
 11
159.6200780885651
 21
221.3469990524947
 31
0.0
  0
LINE
  5
2FFF
330
A
100
AcDbEntity
  8
DRAW
  6
CONTINUOUS
 62
     7
100
AcDbLine
 10
158.5200781092452
 20
222.3469990336945
 30
0.0
 11
158.5200781092452
 21
221.3469990524946
 31
0.0
  0
LINE
  5
3000
330
A
100
AcDbEntity
  8
DRAW
  6
CONTINUOUS
 62
     7
100
AcDbLine
 10
160.1200780791652
 20
222.3469990336945
 30
0.0
 11
160.1200780791647
 21
212.1469992254553
 31
0.0
  0
ARC
  5
3001
330
A
100
AcDbEntity
  8
DRAW
  6
CONTINUOUS
 62
     7
100
AcDbCircle
 10
159.6200780885651
 20
220.8469990618948
 30
0.0
 40
0.4999999906000001
100
AcDbArc
 50
0.0
 51
90.0
  0
LINE
  5
3002
330
A
100
AcDbEntity
  8
DRAW
  6
CONTINUOUS
 62
     7
100
AcDbLine
 10
177.7165400147243
 20
212.1469992254558
 30
0.0
 11
177.7165400147243
 21
211.1469992442557
 31
0.0
  0
LINE
  5
3003
330
A
100
AcDbEntity
  8
DRAW
  6
CONTINUOUS
 62
     7
100
AcDbLine
 10
179.3165399846438
 20
212.1469992254558
 30
0.0
 11
179.3165399846438
 21
200.2969994482358
 31
0.0
  0
LINE
  5
3004
330
A
100
AcDbEntity
  8
DRAW
  6
CONTINUOUS
 62
     7
100
AcDbLine
 10
178.5165607578782
 20
199.6720086693151
 30
0.0
 11
178.5165607510508
 21
199.8720086722953
 31
0.0
  0
LINE
  5
3005
330
A
100
AcDbEntity
  8
DRAW
  6
CONTINUOUS
 62
     7
100
AcDbLine
 10
177.7165400147243
 20
211.146999244256
 30
0.0
 11
178.8165399940439
 21
211.146999244256
 31
0.0
  0
ARC
  5
3006
330
A
100
AcDbEntity
  8
DRAW
  6
CONTINUOUS
 62
     7
100
AcDbCircle
 10
178.8165399940438
 20
210.646999253656
 30
0.0
 40
0.4999999906000001
100
AcDbArc
 50
0.0
 51
90.0
  0
POINT
  5
3007
330
A
100
AcDbEntity
  8
DRAW
  6
CONTINUOUS
 62
     7
100
AcDbPoint
 10
179.3165399846438
 20
212.1469992254558
 30
0.0
  0
LINE
  5
3008
330
A
100
AcDbEntity
  8
DRAW
  6
CONTINUOUS
 62
     7
100
AcDbLine
 10
179.8165607578782
 20
199.6720087136933
 30
0.0
 11
179.8165614116028
 21
180.5220087166735
 31
0.0
  0
LINE
  5
3009
330
A
100
AcDbEntity
  8
DRAW
100
AcDbLine
 10
179.8165616206922
 20
174.3970084509126
 30
0.0
 11
179.8165616889663
 21
172.3970084509126
 31
0.0
  0
LINE
  5
300A
330
A
100
AcDbEntity
  8
DRAW
  6
CONTINUOUS
 62
     7
100
AcDbLine
 10
182.5165616027703
 20
174.9220088088436
 30
0.0
 11
182.5165617188362
 21
171.5220088118238
 31
0.0
  0
LINE
  5
300B
330
A
100
AcDbEntity
  8
DRAW
  6
HIDDEN2
 62
     7
100
AcDbLine
 10
181.3165399470442
 20
166.096638274623
 30
0.0
 11
181.3165399470442
 21
175.796638092263
 31
0.0
  0
ARC
  5
300C
330
A
100
AcDbEntity
  8
DRAW
100
AcDbCircle
 10
181.8165399376443
 20
166.096638274623
 30
0.0
 40
0.4999999906000001
100
AcDbArc
 50
180.0
 51
270.0
  0
LINE
  5
300D
330
A
100
AcDbEntity
  8
DRAW
100
AcDbLine
 10
180.8165399564442
 20
164.5966383028228
 30
0.0
 11
182.8165399188442
 21
164.5966383028228
 31
0.0
  0
ARC
  5
300E
330
A
100
AcDbEntity
  8
DRAW
100
AcDbCircle
 10
180.8165399564351
 20
165.5966382840231
 30
0.0
 40
0.9999999812000002
100
AcDbArc
 50
180.0
 51
270.0
  0
LINE
  5
300F
330
A
100
AcDbEntity
  8
DRAW
100
AcDbLine
 10
179.816539975235
 20
165.5966382840231
 30
0.0
 11
179.8165399752351
 21
166.0966382746228
 31
0.0
  0
LINE
  5
3010
330
A
100
AcDbEntity
  8
DRAW
100
AcDbLine
 10
182.8165399188443
 20
165.5966382840231
 30
0.0
 11
182.8165399188442
 21
164.5966383028231
 31
0.0
  0
LINE
  5
3011
330
A
100
AcDbEntity
  8
DRAW
100
AcDbLine
 10
182.8165399188443
 20
165.5966382840231
 30
0.0
 11
181.8165399376442
 21
165.5966382840231
 31
0.0
  0
LINE
  5
3012
330
A
100
AcDbEntity
  8
DRAW
100
AcDbLine
 10
179.8165617256636
 20
171.3220087166735
 30
0.0
 11
182.3165617226834
 21
171.3220088020162
 31
0.0
  0
LINE
  5
3013
330
A
100
AcDbEntity
  8
DRAW
100
AcDbLine
 10
179.8165617256636
 20
171.3220087166735
 30
0.0
 11
179.5665617256636
 21
171.3220087081392
 31
0.0
  0
LINE
  5
3014
330
A
100
AcDbEntity
  8
DRAW
100
AcDbLine
 10
179.8165617256636
 20
171.3220087166735
 30
0.0
 11
179.8165616889663
 21
172.3970084509125
 31
0.0
  0
ARC
  5
3015
330
A
100
AcDbEntity
  8
DRAW
100
AcDbCircle
 10
182.316561715856
 20
171.5220088049964
 30
0.0
 40
0.2000000029802323
100
AcDbArc
 50
270.0000019559078
 51
0.0000019559078002
  0
LINE
  5
3016
330
A
100
AcDbEntity
  8
DRAW
  6
CONTINUOUS
 62
     7
100
AcDbLine
 10
179.8165614389124
 20
179.7220087166736
 30
0.0
 11
182.3165614359322
 21
179.7220088020162
 31
0.0
  0
LINE
  5
3017
330
A
100
AcDbEntity
  8
DRAW
  6
CONTINUOUS
 62
     7
100
AcDbLine
 10
179.8165614116027
 20
180.5220087166735
 30
0.0
 11
182.3165614086225
 21
180.5220088020161
 31
0.0
  0
LINE
  5
3018
330
A
100
AcDbEntity
  8
DRAW
  6
CONTINUOUS
 62
     7
100
AcDbLine
 10
181.3165615208413
 20
177.3220086725116
 30
0.0
 11
182.5165615208413
 21
177.3220087134761
 31
0.0
  0
LINE
  5
3019
330
A
100
AcDbEntity
  8
DRAW
  6
CONTINUOUS
 62
     7
100
AcDbLine
 10
182.3165616027703
 20
174.9220088020162
 30
0.0
 11
179.8165616027703
 21
174.9220087166735
 31
0.0
  0
LINE
  5
301A
330
A
100
AcDbEntity
  8
DRAW
100
AcDbLine
 10
182.3165616206922
 20
174.3970085362552
 30
0.0
 11
179.8165616206922
 21
174.3970084509125
 31
0.0
  0
LINE
  5
301B
330
A
100
AcDbEntity
  8
DRAW
  6
CONTINUOUS
 62
     7
100
AcDbLine
 10
181.3165614525672
 20
179.3220086725116
 30
0.0
 11
181.4165614525672
 21
179.3220086759253
 31
0.0
  0
LINE
  5
301C
330
A
100
AcDbEntity
  8
DRAW
  6
CONTINUOUS
 62
     7
100
AcDbLine
 10
181.3165615208413
 20
177.3220087678791
 30
0.0
 11
181.3165614525672
 21
179.3220086725117
 31
0.0
  0
LINE
  5
301D
330
A
100
AcDbEntity
  8
DRAW
  6
CONTINUOUS
 62
     7
100
AcDbLine
 10
179.8165614696357
 20
178.8220087166735
 30
0.0
 11
181.3165614696357
 21
178.8220087678791
 31
0.0
  0
LINE
  5
301E
330
A
100
AcDbEntity
  8
DRAW
  6
CONTINUOUS
 62
     7
100
AcDbLine
 10
179.8165615720469
 20
175.8220087166735
 30
0.0
 11
181.3165615720469
 21
175.8220087678791
 31
0.0
  0
ARC
  5
301F
330
A
100
AcDbEntity
  8
DRAW
  6
CONTINUOUS
 62
     7
100
AcDbCircle
 10
181.9165615208414
 20
177.3220085976264
 30
0.0
 40
1.000000000000067
100
AcDbArc
 50
179.9999964917551
 51
233.1301043100592
  0
ARC
  5
3020
330
A
100
AcDbEntity
  8
DRAW
  6
CONTINUOUS
 62
     7
100
AcDbCircle
 10
181.9165615208414
 20
177.3220087883614
 30
0.0
 40
1.000000000000067
100
AcDbArc
 50
126.8698996017586
 51
180.0000074200604
  0
LINE
  5
3021
330
A
100
AcDbEntity
  8
DRAW
  6
CONTINUOUS
 62
     7
100
AcDbLine
 10
179.8165616027703
 20
174.9220087166735
 30
0.0
 11
179.8165615857018
 21
175.4220087166735
 31
0.0
  0
LINE
  5
3022
330
A
100
AcDbEntity
  8
DRAW
  6
CONTINUOUS
 62
     7
100
AcDbLine
 10
179.8165616206922
 20
174.3970084509126
 30
0.0
 11
179.8165616027702
 21
174.9220087166735
 31
0.0
  0
LINE
  5
3023
330
A
100
AcDbEntity
  8
DRAW
  6
CONTINUOUS
 62
     7
100
AcDbLine
 10
181.3165615208413
 20
177.3220088632465
 30
0.0
 11
181.3165616027702
 21
174.9220087678791
 31
0.0
  0
LINE
  5
3024
330
A
100
AcDbEntity
  8
DRAW
  6
CONTINUOUS
 62
     7
100
AcDbLine
 10
179.8165615857017
 20
175.4220087166735
 30
0.0
 11
179.8165615429864
 21
176.6732974111647
 31
0.0
  0
LINE
  5
3025
330
A
100
AcDbEntity
  8
DRAW
  6
CONTINUOUS
 62
     7
100
AcDbLine
 10
181.4165614389124
 20
179.7220087712928
 30
0.0
 11
181.4165614525672
 21
179.3220086759254
 31
0.0
  0
LINE
  5
3026
330
A
100
AcDbEntity
  8
DRAW
  6
CONTINUOUS
 62
     7
100
AcDbLine
 10
181.3165614389124
 20
179.7220087678791
 30
0.0
 11
181.3165614525672
 21
179.3220086725117
 31
0.0
  0
LINE
  5
3027
330
A
100
AcDbEntity
  8
DRAW
  6
CONTINUOUS
 62
     7
100
AcDbLine
 10
179.8165614389124
 20
179.7220087166736
 30
0.0
 11
179.8165615429864
 21
176.6732974111648
 31
0.0
  0
LINE
  5
3028
330
A
100
AcDbEntity
  8
DRAW
  6
CONTINUOUS
 62
     7
100
AcDbLine
 10
182.3165614359322
 20
179.7220088020161
 30
0.0
 11
182.5165614389124
 21
179.7220088088435
 31
0.0
  0
LINE
  5
3029
330
A
100
AcDbEntity
  8
DRAW
  6
CONTINUOUS
 62
     7
100
AcDbLine
 10
182.3165614086225
 20
180.5220088020162
 30
0.0
 11
182.5165614116027
 21
180.5220088088436
 31
0.0
  0
LINE
  5
302A
330
A
100
AcDbEntity
  8
DRAW
  6
CONTINUOUS
 62
     7
100
AcDbLine
 10
182.5165614116027
 20
180.5220088088435
 30
0.0
 11
182.5165614389124
 21
179.7220088088435
 31
0.0
  0
LINE
  5
302B
330
A
100
AcDbEntity
  8
DRAW
  6
CONTINUOUS
 62
     7
100
AcDbLine
 10
182.3165616027703
 20
174.9220088020162
 30
0.0
 11
182.5165616027703
 21
174.9220088088436
 31
0.0
  0
LINE
  5
302C
330
A
100
AcDbEntity
  8
DRAW
  6
CONTINUOUS
 62
     7
100
AcDbLine
 10
182.3165616027703
 20
174.9220088020162
 30
0.0
 11
182.3165616206923
 21
174.3970085362552
 31
0.0
  0
LINE
  5
302D
330
A
100
AcDbEntity
  8
DRAW
  6
CONTINUOUS
 62
     7
100
AcDbLine
 10
182.5165615208413
 20
177.322008904211
 30
0.0
 11
182.5165616027703
 21
174.9220088088436
 31
0.0
  0
LINE
  5
302E
330
A
100
AcDbEntity
  8
DRAW
  6
CONTINUOUS
 62
     7
100
AcDbLine
 10
182.5165615208413
 20
177.3220087134761
 30
0.0
 11
182.5165614389124
 21
179.7220088088436
 31
0.0
  0
LINE
  5
302F
330
A
100
AcDbEntity
  8
DRAW
  6
CONTINUOUS
 62
     7
100
AcDbLine
 10
179.8165607578782
 20
199.6720087136933
 30
0.0
 11
179.8165607510508
 21
199.8720087166735
 31
0.0
  0
LINE
  5
32AA
330
A
100
AcDbEntity
  8
DRAW
100
AcDbLine
 10
160.8665397238418
 20
160.4970017191131
 30
0.0
 11
137.9665366669073
 21
160.4970017191131
 31
0.0
  0
LINE
  5
32AB
330
A
100
AcDbEntity
  8
DRAW
100
AcDbLine
 10
167.366539533107
 20
170.997001719113
 30
0.0
 11
167.366539533107
 21
166.9970015283782
 31
0.0
  0
LINE
  5
32AC
330
A
100
AcDbEntity
  8
DRAW
100
AcDbLine
 10
166.5665395211861
 20
170.997001719113
 30
0.0
 11
167.366539533107
 21
170.997001719113
 31
0.0
  0
LINE
  5
32AD
330
A
100
AcDbEntity
  8
DRAW
100
AcDbLine
 10
137.9665370828397
 20
161.2970016960649
 30
0.0
 11
137.9665370828397
 21
160.4970017191131
 31
0.0
  0
LINE
  5
32AE
330
A
100
AcDbEntity
  8
DRAW
100
AcDbLine
 10
137.966537828964
 20
170.9970016841439
 30
0.0
 11
166.5665395211861
 21
170.9970016841439
 31
0.0
  0
ARC
  5
32AF
330
A
100
AcDbEntity
  8
DRAW
100
AcDbCircle
 10
160.8665397238418
 20
166.9970015283782
 30
0.0
 40
6.499999809265137
100
AcDbArc
 50
270.0
 51
0.0
  0
LINE
  5
32B0
330
A
100
AcDbEntity
  8
DRAW
100
AcDbLine
 10
137.9665370828397
 20
164.197001684144
 30
0.0
 11
137.9665367646396
 21
161.2970016960649
 31
0.0
  0
LINE
  5
32B1
330
A
100
AcDbEntity
  8
DRAW
100
AcDbLine
 10
137.9665377411846
 20
170.1970009796461
 30
0.0
 11
136.366539533107
 21
170.1970009796461
 31
0.0
  0
LINE
  5
32B2
330
A
100
AcDbEntity
  8
DRAW
100
AcDbLine
 10
136.366539533107
 20
164.197001684144
 30
0.0
 11
137.9665370828397
 21
164.197001684144
 31
0.0
  0
LINE
  5
32B3
330
A
100
AcDbEntity
  8
DRAW
100
AcDbLine
 10
136.366539533107
 20
170.1970009796461
 30
0.0
 11
136.366539533107
 21
164.1970016841439
 31
0.0
  0
LINE
  5
32B4
330
A
100
AcDbEntity
  8
DRAW
100
AcDbLine
 10
137.966537828964
 20
170.9970016841439
 30
0.0
 11
137.9665377411846
 21
170.1970009796461
 31
0.0
  0
LINE
  5
32B5
330
A
100
AcDbEntity
  8
DRAW
100
AcDbLine
 10
167.366539533107
 20
165.9470008870179
 30
0.0
 11
167.2811710878113
 21
165.9470008870179
 31
0.0
  0
LINE
  5
32B6
330
A
100
AcDbEntity
  8
DRAW
100
AcDbLine
 10
167.366539533107
 20
165.9470008870179
 30
0.0
 11
167.366539533107
 21
166.9470006903167
 31
0.0
  0
LINE
  5
32B7
330
A
100
AcDbEntity
  8
DRAW
100
AcDbLine
 10
167.766539533107
 20
167.3618064852511
 30
0.0
 11
167.766539533107
 21
166.9470008050558
 31
0.0
  0
LINE
  5
32B8
330
A
100
AcDbEntity
  8
DRAW
100
AcDbLine
 10
167.366539533107
 20
167.9470008870179
 30
0.0
 11
167.766539533107
 21
167.3618064852511
 31
0.0
  0
LINE
  5
32B9
330
A
100
AcDbEntity
  8
DRAW
100
AcDbLine
 10
167.766539533107
 20
166.9470008050558
 30
0.0
 11
167.766539533107
 21
166.5321952887848
 31
0.0
  0
LINE
  5
32BA
330
A
100
AcDbEntity
  8
DRAW
100
AcDbLine
 10
167.366539533107
 20
165.9470008870179
 30
0.0
 11
167.766539533107
 21
166.5321952887847
 31
0.0
  0
LINE
  5
32BB
330
A
100
AcDbEntity
  8
DRAW
100
AcDbLine
 10
167.366539533107
 20
166.9470006903167
 30
0.0
 11
167.766539533107
 21
166.9470008050558
 31
0.0
  0
INSERT
  5
32BC
330
A
100
AcDbEntity
  8
0
100
AcDbBlockReference
  2
NON_RELAZIONATI
 10
7.813890035121175
 20
-10.99146805460736
 30
0.0
  0
LINE
  5
32BD
330
A
100
AcDbEntity
  8
DRAW
100
AcDbLine
 10
59.94999781623886
 20
160.4970019712196
 30
0.0
 11
73.85026301757768
 21
160.4970019712196
 31
0.0
  0
ARC
  5
32BE
330
A
100
AcDbEntity
  8
DRAW
100
AcDbCircle
 10
59.94999782815978
 20
161.2970019831406
 30
0.0
 40
0.8000000119209289
100
AcDbArc
 50
180.0
 51
270.0
  0
ARC
  5
32BF
330
A
100
AcDbEntity
  8
DRAW
100
AcDbCircle
 10
73.84999780431792
 20
161.2970019831406
 30
0.0
 40
0.8000000119209289
100
AcDbArc
 50
270.0
 51
0.0
  0
LINE
  5
32C0
330
A
100
AcDbEntity
  8
DRAW
100
AcDbLine
 10
59.94999782815978
 20
170.9970017220648
 30
0.0
 11
59.14999781623885
 21
170.9970017220648
 31
0.0
  0
LINE
  5
32C1
330
A
100
AcDbEntity
  8
DRAW
100
AcDbLine
 10
61.90000116930105
 20
170.9970016870956
 30
0.0
 11
59.94999782815978
 21
170.9970016870956
 31
0.0
  0
LINE
  5
32C2
330
A
100
AcDbEntity
  8
DRAW
100
AcDbLine
 10
59.14999781623885
 20
166.9970015313299
 30
0.0
 11
59.14999781623885
 21
170.9970017220648
 31
0.0
  0
LINE
  5
32C3
330
A
100
AcDbEntity
  8
DRAW
100
AcDbLine
 10
59.14999781623885
 20
161.2970019831406
 30
0.0
 11
59.14999781623885
 21
166.9970015313299
 31
0.0
  0
LINE
  5
32C4
330
A
100
AcDbEntity
  8
DRAW
100
AcDbLine
 10
73.84999780431792
 20
170.9970017220648
 30
0.0
 11
74.64999781623885
 21
170.9970017220648
 31
0.0
  0
LINE
  5
32C5
330
A
100
AcDbEntity
  8
DRAW
100
AcDbLine
 10
74.64999781623885
 20
166.9970015313299
 30
0.0
 11
74.64999781623885
 21
170.9970017220648
 31
0.0
  0
LINE
  5
32C6
330
A
100
AcDbEntity
  8
DRAW
100
AcDbLine
 10
74.64999781623885
 20
161.2970019831406
 30
0.0
 11
74.64999781623885
 21
166.9970015313299
 31
0.0
  0
LINE
  5
32C7
330
A
100
AcDbEntity
  8
DRAW
100
AcDbLine
 10
66.89999780118871
 20
165.9470005512064
 30
0.0
 11
62.39999780416894
 21
166.9470005512064
 31
0.0
  0
LINE
  5
32C8
330
A
100
AcDbEntity
  8
DRAW
100
AcDbLine
 10
71.39999780416889
 20
166.9470005512064
 30
0.0
 11
66.89999780118866
 21
165.9470005512064
 31
0.0
  0
LINE
  5
32C9
330
A
100
AcDbEntity
  8
DRAW
100
AcDbLine
 10
66.89999780714913
 20
167.9470005512064
 30
0.0
 11
71.39999780416889
 21
166.9470005512064
 31
0.0
  0
LINE
  5
32CA
330
A
100
AcDbEntity
  8
DRAW
100
AcDbLine
 10
62.39999780416894
 20
166.9470005512064
 30
0.0
 11
66.89999780714917
 21
167.9470005512064
 31
0.0
  0
LINE
  5
32CB
330
A
100
AcDbEntity
  8
DRAW
100
AcDbLine
 10
66.89999780706705
 20
167.361806131955
 30
0.0
 11
65.03337261211952
 21
166.9470005333525
 31
0.0
  0
LINE
  5
32CC
330
A
100
AcDbEntity
  8
DRAW
100
AcDbLine
 10
68.7666229962183
 20
166.9470005340911
 30
0.0
 11
66.8999978070671
 21
167.361806131955
 31
0.0
  0
LINE
  5
32CD
330
A
100
AcDbEntity
  8
DRAW
100
AcDbLine
 10
66.89999780714913
 20
167.9470005512064
 30
0.0
 11
66.89999780706705
 21
167.361806131955
 31
0.0
  0
LINE
  5
32CE
330
A
100
AcDbEntity
  8
DRAW
100
AcDbLine
 10
66.89999780127073
 20
166.5321949354886
 30
0.0
 11
68.76662299621826
 21
166.9470005340911
 31
0.0
  0
LINE
  5
32CF
330
A
100
AcDbEntity
  8
DRAW
100
AcDbLine
 10
71.39999780416889
 20
166.9470005512064
 30
0.0
 11
68.76662299621826
 21
166.9470005340911
 31
0.0
  0
LINE
  5
32D0
330
A
100
AcDbEntity
  8
DRAW
100
AcDbLine
 10
65.03337261211953
 20
166.9470005333525
 30
0.0
 11
66.89999780127074
 21
166.5321949354886
 31
0.0
  0
LINE
  5
32D1
330
A
100
AcDbEntity
  8
DRAW
100
AcDbLine
 10
66.89999780118871
 20
165.9470005512064
 30
0.0
 11
66.89999780127078
 21
166.5321949354886
 31
0.0
  0
LINE
  5
32D2
330
A
100
AcDbEntity
  8
DRAW
100
AcDbLine
 10
62.39999780416894
 20
166.9470005512064
 30
0.0
 11
65.03337261211957
 21
166.9470005333525
 31
0.0
  0
LINE
  5
32D3
330
A
100
AcDbEntity
  8
DRAW
100
AcDbLine
 10
65.79999891683337
 20
170.9970016870956
 30
0.0
 11
64.90000046163868
 21
170.9970016870956
 31
0.0
  0
LINE
  5
32D4
330
A
100
AcDbEntity
  8
DRAW
100
AcDbLine
 10
73.84999780431792
 20
170.9970016870956
 30
0.0
 11
71.89999997275811
 21
170.9970016870956
 31
0.0
  0
LINE
  5
32D5
330
A
100
AcDbEntity
  8
DRAW
100
AcDbLine
 10
68.90000021117669
 20
170.9970016870956
 30
0.0
 11
67.99999891683331
 21
170.9970016870956
 31
0.0
  0
ENDSEC
  0
SECTION
  2
OBJECTS
  0
DICTIONARY
  5
19
330
0
100
AcDbDictionary
  3
ACAD_GROUP
350
1A
  3
ACAD_LAYOUT
350
255E
  3
ACAD_MLINESTYLE
350
1B
  3
ACAD_PLOTSETTINGS
350
255F
1001
ACAD
1000
TREAT_AS_HARD
1070
     0
1000
TREAT_AS_HARD
1070
     0
  0
DICTIONARY
  5
2588
330
A
100
AcDbDictionary
  3
ACAD_LAYOUTSELFREF
350
32DD
1001
ACAD
1000
TREAT_AS_HARD
1070
     1
1000
TREAT_AS_HARD
1070
     1
  0
DICTIONARY
  5
258A
330
B
100
AcDbDictionary
  3
ACAD_LAYOUTSELFREF
350
32DE
1001
ACAD
1000
TREAT_AS_HARD
1070
     1
1000
TREAT_AS_HARD
1070
     1
  0
DICTIONARY
  5
1A
102
{ACAD_REACTORS
330
19
102
}
330
19
100
AcDbDictionary
1001
ACAD
1000
TREAT_AS_HARD
1070
     0
1000
TREAT_AS_HARD
1070
     0
  0
DICTIONARY
  5
255E
102
{ACAD_REACTORS
330
19
102
}
330
19
100
AcDbDictionary
1001
ACAD
1000
TREAT_AS_HARD
1070
     0
1000
TREAT_AS_HARD
1070
     0
  0
DICTIONARY
  5
1B
102
{ACAD_REACTORS
330
19
102
}
330
19
100
AcDbDictionary
  3
STANDARD
350
1C
1001
ACAD
1000
TREAT_AS_HARD
1070
     0
1000
TREAT_AS_HARD
1070
     0
  0
DICTIONARY
  5
255F
102
{ACAD_REACTORS
330
19
102
}
330
19
100
AcDbDictionary
1001
ACAD
1000
TREAT_AS_HARD
1070
     0
1000
TREAT_AS_HARD
1070
     0
  0
XRECORD
  5
32DD
102
{ACAD_REACTORS
330
2588
102
}
330
2588
100
AcDbXrecord
340
A
  0
XRECORD
  5
32DE
102
{ACAD_REACTORS
330
258A
102
}
330
258A
100
AcDbXrecord
340
B
  0
MLINESTYLE
  5
1C
102
{ACAD_REACTORS
330
1B
102
}
330
1B
100
AcDbMlineStyle
  2
STANDARD
 70
     0
  3

 62
     0
 51
90.0
 52
90.0
 71
     2
 49
0.5
 62
   256
  6
BYLAYER
 49
-0.5
 62
   256
  6
BYLAYER
  0
ENDSEC
  0
EOF
