  0
SECTION
  2
HEADER
  9
$ACADVER
  1
AC1014
  9
$ACADMAINTVER
 70
     9
  9
$DWGCODEPAGE
  3
ANSI_1252
  9
$INSBASE
 10
0.0
 20
0.0
 30
0.0
  9
$EXTMIN
 10
5.0
 20
5.0
 30
0.0
  9
$EXTMAX
 10
205.000037
 20
292.0001829999998
 30
0.0
  9
$LIMMIN
 10
0.0
 20
0.0
  9
$LIMMAX
 10
210.0
 20
296.0
  9
$ORTHOMODE
 70
     1
  9
$REGENMODE
 70
     1
  9
$FILLMODE
 70
     1
  9
$QTEXTMODE
 70
     0
  9
$MIRRTEXT
 70
     1
  9
$DRAGMODE
 70
     2
  9
$LTSCALE
 40
0.5
  9
$OSMODE
 70
    39
  9
$ATTMODE
 70
     1
  9
$TEXTSIZE
 40
0.2
  9
$TRACEWID
 40
0.05
  9
$TEXTSTYLE
  7
FINDER
  9
$CLAYER
  8
DRAW
  9
$CELTYPE
  6
CONTINUOUS
  9
$CECOLOR
 62
   256
  9
$CELTSCALE
 40
1.0
  9
$DELOBJ
 70
     1
  9
$DISPSILH
 70
     0
  9
$DIMSCALE
 40
1.0
  9
$DIMASZ
 40
2.5
  9
$DIMEXO
 40
2.0
  9
$DIMDLI
 40
6.5
  9
$DIMRND
 40
0.0
  9
$DIMDLE
 40
0.0
  9
$DIMEXE
 40
1.25
  9
$DIMTP
 40
0.0
  9
$DIMTM
 40
0.0
  9
$DIMTXT
 40
3.5
  9
$DIMCEN
 40
2.5
  9
$DIMTSZ
 40
0.0
  9
$DIMTOL
 70
     0
  9
$DIMLIM
 70
     0
  9
$DIMTIH
 70
     0
  9
$DIMTOH
 70
     0
  9
$DIMSE1
 70
     0
  9
$DIMSE2
 70
     0
  9
$DIMTAD
 70
     1
  9
$DIMZIN
 70
     8
  9
$DIMBLK
  1

  9
$DIMASO
 70
     1
  9
$DIMSHO
 70
     1
  9
$DIMPOST
  1

  9
$DIMAPOST
  1

  9
$DIMALT
 70
     0
  9
$DIMALTD
 70
     3
  9
$DIMALTF
 40
0.03937
  9
$DIMLFAC
 40
1.0
  9
$DIMTOFL
 70
     1
  9
$DIMTVP
 40
0.0
  9
$DIMTIX
 70
     0
  9
$DIMSOXD
 70
     0
  9
$DIMSAH
 70
     0
  9
$DIMBLK1
  1

  9
$DIMBLK2
  1

  9
$DIMSTYLE
  2
FINDER
  9
$DIMCLRD
 70
   256
  9
$DIMCLRE
 70
   256
  9
$DIMCLRT
 70
     2
  9
$DIMTFAC
 40
1.0
  9
$DIMGAP
 40
0.625
  9
$DIMJUST
 70
     0
  9
$DIMSD1
 70
     0
  9
$DIMSD2
 70
     0
  9
$DIMTOLJ
 70
     0
  9
$DIMTZIN
 70
     8
  9
$DIMALTZ
 70
     0
  9
$DIMALTTZ
 70
     0
  9
$DIMFIT
 70
     3
  9
$DIMUPT
 70
     0
  9
$DIMUNIT
 70
     2
  9
$DIMDEC
 70
     2
  9
$DIMTDEC
 70
     2
  9
$DIMALTU
 70
     2
  9
$DIMALTTD
 70
     3
  9
$DIMTXSTY
  7
FINDER
  9
$DIMAUNIT
 70
     0
  9
$LUNITS
 70
     2
  9
$LUPREC
 70
     4
  9
$SKETCHINC
 40
0.1
  9
$FILLETRAD
 40
0.2
  9
$AUNITS
 70
     0
  9
$AUPREC
 70
     3
  9
$MENU
  1
acad
  9
$ELEVATION
 40
0.0
  9
$PELEVATION
 40
0.0
  9
$THICKNESS
 40
0.0
  9
$LIMCHECK
 70
     0
  9
$BLIPMODE
 70
     0
  9
$CHAMFERA
 40
0.0
  9
$CHAMFERB
 40
0.0
  9
$CHAMFERC
 40
0.0
  9
$CHAMFERD
 40
0.0
  9
$SKPOLY
 70
     0
  9
$TDCREATE
 40
2451901.420981018
  9
$TDUPDATE
 40
2454370.513862662
  9
$TDINDWG
 40
0.8155513657
  9
$TDUSRTIMER
 40
0.8155508218
  9
$USRTIMER
 70
     1
  9
$ANGBASE
 50
0.0
  9
$ANGDIR
 70
     0
  9
$PDMODE
 70
     0
  9
$PDSIZE
 40
0.0
  9
$PLINEWID
 40
0.0
  9
$COORDS
 70
     1
  9
$SPLFRAME
 70
     0
  9
$SPLINETYPE
 70
     6
  9
$SPLINESEGS
 70
     8
  9
$ATTDIA
 70
     0
  9
$ATTREQ
 70
     1
  9
$HANDLING
 70
 22529
  9
$HANDSEED
  5
501E
  9
$SURFTAB1
 70
     6
  9
$SURFTAB2
 70
     6
  9
$SURFTYPE
 70
     6
  9
$SURFU
 70
     6
  9
$SURFV
 70
     6
  9
$UCSNAME
  2

  9
$UCSORG
 10
0.0
 20
0.0
 30
0.0
  9
$UCSXDIR
 10
1.0
 20
0.0
 30
0.0
  9
$UCSYDIR
 10
0.0
 20
1.0
 30
0.0
  9
$PUCSNAME
  2

  9
$PUCSORG
 10
0.0
 20
0.0
 30
0.0
  9
$PUCSXDIR
 10
1.0
 20
0.0
 30
0.0
  9
$PUCSYDIR
 10
0.0
 20
1.0
 30
0.0
  9
$USERI1
 70
     0
  9
$USERI2
 70
     0
  9
$USERI3
 70
     0
  9
$USERI4
 70
     0
  9
$USERI5
 70
     0
  9
$USERR1
 40
0.0
  9
$USERR2
 40
0.0
  9
$USERR3
 40
0.0
  9
$USERR4
 40
0.0
  9
$USERR5
 40
0.0
  9
$WORLDVIEW
 70
     1
  9
$SHADEDGE
 70
     3
  9
$SHADEDIF
 70
    70
  9
$TILEMODE
 70
     1
  9
$MAXACTVP
 70
    16
  9
$PINSBASE
 10
0.0
 20
0.0
 30
0.0
  9
$PLIMCHECK
 70
     0
  9
$PEXTMIN
 10
1.000000000000000E+20
 20
1.000000000000000E+20
 30
1.000000000000000E+20
  9
$PEXTMAX
 10
-1.000000000000000E+20
 20
-1.000000000000000E+20
 30
-1.000000000000000E+20
  9
$PLIMMIN
 10
0.0
 20
0.0
  9
$PLIMMAX
 10
100.0
 20
100.0
  9
$UNITMODE
 70
     0
  9
$VISRETAIN
 70
     0
  9
$PLINEGEN
 70
     1
  9
$PSLTSCALE
 70
     0
  9
$TREEDEPTH
 70
  3020
  9
$PICKSTYLE
 70
     1
  9
$CMLSTYLE
  2
STANDARD
  9
$CMLJUST
 70
     0
  9
$CMLSCALE
 40
1.0
  9
$PROXYGRAPHICS
 70
     1
  9
$MEASUREMENT
 70
     0
  0
ENDSEC
  0
SECTION
  2
CLASSES
  0
CLASS
  1
LWPOLYLINE
  2
AcDbPolyline
  3
AutoCAD 2000
 90
        0
280
     0
281
     1
  0
CLASS
  1
IMAGE
  2
AcDbRasterImage
  3
ISM
 90
      127
280
     0
281
     1
  0
CLASS
  1
OLE2FRAME
  2
AcDbOle2Frame
  3
AutoCAD 2000
 90
        0
280
     0
281
     1
  0
CLASS
  1
HATCH
  2
AcDbHatch
  3
AutoCAD 2000
 90
        0
280
     0
281
     1
  0
CLASS
  1
DICTIONARYVAR
  2
AcDbDictionaryVar
  3
AutoCAD 2000
 90
        0
280
     0
281
     0
  0
CLASS
  1
RASTERVARIABLES
  2
AcDbRasterVariables
  3
ISM
 90
        0
280
     0
281
     0
  0
CLASS
  1
IMAGEDEF
  2
AcDbRasterImageDef
  3
ISM
 90
        0
280
     0
281
     0
  0
CLASS
  1
IMAGEDEF_REACTOR
  2
AcDbRasterImageDefReactor
  3
ISM
 90
        1
280
     0
281
     0
  0
CLASS
  1
SPATIAL_FILTER
  2
AcDbSpatialFilter
  3
AutoCAD 2000
 90
        0
280
     0
281
     0
  0
CLASS
  1
XRECORD
  2
AcDbXrecord
  3
AutoCAD 2000
 90
        0
280
     0
281
     0
  0
CLASS
  1
SORTENTSTABLE
  2
AcDbSortentsTable
  3
AutoCAD 2000
 90
        0
280
     0
281
     0
  0
CLASS
  1
LAYER_INDEX
  2
AcDbLayerIndex
  3
AutoCAD 2000
 90
        0
280
     0
281
     0
  0
CLASS
  1
SPATIAL_INDEX
  2
AcDbSpatialIndex
  3
AutoCAD 2000
 90
        0
280
     0
281
     0
  0
CLASS
  1
OBJECT_PTR
  2
CAseDLPNTableRecord
  3
ASE-LPNTableRecord
 90
        1
280
     0
281
     0
  0
CLASS
  1
LAYOUT
  2
AcDbLayout
  3
AutoCAD 2000
 90
        0
280
     0
281
     0
  0
CLASS
  1
PLOTSETTINGS
  2
AcDbPlotSettings
  3
AutoCAD 2000
 90
        0
280
     0
281
     0
  0
CLASS
  1
ACDBDICTIONARYWDFLT
  2
AcDbDictionaryWithDefault
  3
AutoCAD 2000
 90
        0
280
     0
281
     0
  0
CLASS
  1
ACDBPLACEHOLDER
  2
AcDbPlaceHolder
  3
AutoCAD 2000
 90
        0
280
     0
281
     0
  0
CLASS
  1
VBA_PROJECT
  2
AcDbVbaProject
  3
"acadvba"
 90
        1
280
     0
281
     0
  0
CLASS
  1
WIPEOUT
  2
AcDbWipeout
  3
WipeOut|AutoCAD Express Tool|expresstools@autodesk.com
 90
      127
280
     0
281
     1
  0
CLASS
  1
WIPEOUTVARIABLES
  2
AcDbWipeoutVariables
  3
WipeOut|AutoCAD Express Tool|expresstools@autodesk.com
 90
        0
280
     0
281
     0
  0
CLASS
  1
RTEXT
  2
RText
  3
RText|AutoCAD Express Tool|expresstools@autodesk.com
 90
        0
280
     0
281
     1
  0
CLASS
  1
ARCALIGNEDTEXT
  2
AcDbArcAlignedText
  3
ATEXT|AutoCAD Express Tool|expresstools@autodesk.com
 90
        0
280
     0
281
     1
  0
CLASS
  1
LONG_TRANSACTION
  2
AcDbLongTransaction
  3
AutoCAD 2000
 90
        0
280
     0
281
     0
  0
CLASS
  1
LWPOLYLINE
  2
AcDbPolyline
  3
AutoCAD 2000
 90
        0
280
     0
281
     1
  0
CLASS
  1
HATCH
  2
AcDbHatch
  3
AutoCAD 2000
 90
        0
280
     0
281
     1
  0
CLASS
  1
XRECORD
  2
AcDbXrecord
  3
AutoCAD 2000
 90
        0
280
     0
281
     0
  0
CLASS
  1
LONG_TRANSACTION
  2
AcDbLongTransaction
  3
AutoCAD 2000
 90
        0
280
     0
281
     0
  0
CLASS
  1
LWPOLYLINE
  2
AcDbPolyline
  3
AutoCAD 2000
 90
        0
280
     0
281
     1
  0
CLASS
  1
HATCH
  2
AcDbHatch
  3
AutoCAD 2000
 90
        0
280
     0
281
     1
  0
CLASS
  1
XRECORD
  2
AcDbXrecord
  3
AutoCAD 2000
 90
        0
280
     0
281
     0
  0
CLASS
  1
LONG_TRANSACTION
  2
AcDbLongTransaction
  3
AutoCAD 2000
 90
        0
280
     0
281
     0
  0
CLASS
  1
LWPOLYLINE
  2
AcDbPolyline
  3
AutoCAD 2000
 90
        0
280
     0
281
     1
  0
CLASS
  1
HATCH
  2
AcDbHatch
  3
AutoCAD 2000
 90
        0
280
     0
281
     1
  0
CLASS
  1
XRECORD
  2
AcDbXrecord
  3
AutoCAD 2000
 90
        0
280
     0
281
     0
  0
CLASS
  1
LONG_TRANSACTION
  2
AcDbLongTransaction
  3
AutoCAD 2000
 90
        0
280
     0
281
     0
  0
CLASS
  1
LWPOLYLINE
  2
AcDbPolyline
  3
AutoCAD 2000
 90
        0
280
     0
281
     1
  0
CLASS
  1
HATCH
  2
AcDbHatch
  3
AutoCAD 2000
 90
        0
280
     0
281
     1
  0
CLASS
  1
XRECORD
  2
AcDbXrecord
  3
AutoCAD 2000
 90
        0
280
     0
281
     0
  0
ENDSEC
  0
SECTION
  2
TABLES
  0
TABLE
  2
VPORT
  5
7
330
0
100
AcDbSymbolTable
 70
     3
  0
VPORT
  5
4FFB
330
7
100
AcDbSymbolTableRecord
100
AcDbViewportTableRecord
  2
*ACTIVE
 70
     0
 10
0.0
 20
0.0
 11
1.0
 21
1.0
 12
103.7279068961266
 22
141.417598140709
 13
0.0
 23
0.0
 14
1.0
 24
1.0
 15
2.0
 25
2.0
 16
0.0
 26
0.0
 36
1.0
 17
0.0
 27
0.0
 37
0.0
 40
314.4811237358135
 41
1.618947368421052
 42
50.0
 43
0.0
 44
0.0
 50
0.0
 51
0.0
 71
     0
 72
   100
 73
     1
 74
     1
 75
     0
 76
     0
 77
     0
 78
     0
  0
ENDTAB
  0
TABLE
  2
LTYPE
  5
4
330
0
100
AcDbSymbolTable
 70
     1
  0
LTYPE
  5
11
330
4
100
AcDbSymbolTableRecord
100
AcDbLinetypeTableRecord
  2
BYBLOCK
 70
     0
  3

 72
    65
 73
     0
 40
0.0
  0
LTYPE
  5
12
330
4
100
AcDbSymbolTableRecord
100
AcDbLinetypeTableRecord
  2
BYLAYER
 70
     0
  3

 72
    65
 73
     0
 40
0.0
  0
LTYPE
  5
13
330
4
100
AcDbSymbolTableRecord
100
AcDbLinetypeTableRecord
  2
CONTINUOUS
 70
     0
  3
Solid line
 72
    65
 73
     0
 40
0.0
  0
ENDTAB
  0
TABLE
  2
LAYER
  5
2
330
0
100
AcDbSymbolTable
 70
     7
  0
LAYER
  5
14
330
2
100
AcDbSymbolTableRecord
100
AcDbLayerTableRecord
  2
0
 70
     0
 62
     7
  6
CONTINUOUS
  0
LAYER
  5
B1
330
2
100
AcDbSymbolTableRecord
100
AcDbLayerTableRecord
  2
DIM
 70
     0
 62
     3
  6
CONTINUOUS
  0
LAYER
  5
B2
330
2
100
AcDbSymbolTableRecord
100
AcDbLayerTableRecord
  2
DRAW
 70
     0
 62
     7
  6
CONTINUOUS
  0
LAYER
  5
B3
330
2
100
AcDbSymbolTableRecord
100
AcDbLayerTableRecord
  2
CARTOUCHE
 70
     0
 62
     7
  6
CONTINUOUS
  0
LAYER
  5
B4
330
2
100
AcDbSymbolTableRecord
100
AcDbLayerTableRecord
  2
DRAW-TEXT
 70
     0
 62
     1
  6
CONTINUOUS
  0
LAYER
  5
433F
330
2
100
AcDbSymbolTableRecord
100
AcDbLayerTableRecord
  2
DEFPOINTS
 70
     0
 62
     7
  6
CONTINUOUS
  0
LAYER
  5
49C6
330
2
100
AcDbSymbolTableRecord
100
AcDbLayerTableRecord
  2
255
 70
     0
 62
     1
  6
CONTINUOUS
  0
ENDTAB
  0
TABLE
  2
STYLE
  5
3
330
0
100
AcDbSymbolTable
 70
     7
  0
STYLE
  5
17
330
3
100
AcDbSymbolTableRecord
100
AcDbTextStyleTableRecord
  2
STANDARD
 70
     0
 40
0.0
 41
1.0
 50
0.0
 71
     0
 42
0.2
  3
txt
  4

  0
STYLE
  5
BE
330
3
100
AcDbSymbolTableRecord
100
AcDbTextStyleTableRecord
  2
FINDER
 70
     0
 40
1.8
 41
1.0
 50
0.0
 71
     0
 42
0.2
  3
ARIAL.TTF
  4

1001
ACAD
1000
Arial
1071
       34
  0
STYLE
  5
49C7
330
3
100
AcDbSymbolTableRecord
100
AcDbTextStyleTableRecord
  2
TSTYLE1
 70
     0
 40
1.8
 41
0.4600000000000001
 50
0.0
 71
     0
 42
0.2
  3
ARIAL.TTF
  4

1001
ACAD
1000
Arial
1071
    32000
  0
STYLE
  5
49C8
330
3
100
AcDbSymbolTableRecord
100
AcDbTextStyleTableRecord
  2
TSTYLE2
 70
     0
 40
1.8
 41
0.6
 50
0.0
 71
     0
 42
0.2
  3
ARIAL.TTF
  4

1001
ACAD
1000
Arial
1071
    32000
  0
STYLE
  5
49C9
330
3
100
AcDbSymbolTableRecord
100
AcDbTextStyleTableRecord
  2
TSTYLE3
 70
     0
 40
2.1
 41
0.4600000000000001
 50
0.0
 71
     0
 42
0.2
  3
ARIAL.TTF
  4

1001
ACAD
1000
Arial
1071
    32000
  0
STYLE
  5
49CA
330
3
100
AcDbSymbolTableRecord
100
AcDbTextStyleTableRecord
  2
TSTYLE4
 70
     0
 40
3.0
 41
0.4600000000000001
 50
0.0
 71
     0
 42
0.2
  3
ARIAL.TTF
  4

1001
ACAD
1000
Arial
1071
    32000
  0
STYLE
  5
49CB
330
3
100
AcDbSymbolTableRecord
100
AcDbTextStyleTableRecord
  2
TSTYLE5
 70
     0
 40
2.5
 41
0.95
 50
0.0
 71
     0
 42
0.2
  3
ARIAL.TTF
  4

1001
ACAD
1000
Arial
1071
    32000
  0
ENDTAB
  0
TABLE
  2
VIEW
  5
5
330
0
100
AcDbSymbolTable
 70
     0
  0
ENDTAB
  0
TABLE
  2
UCS
  5
6
330
0
100
AcDbSymbolTable
 70
     0
  0
ENDTAB
  0
TABLE
  2
APPID
  5
8
330
0
100
AcDbSymbolTable
 70
     1
  0
APPID
  5
16
330
8
100
AcDbSymbolTableRecord
100
AcDbRegAppTableRecord
  2
ACAD
 70
     0
  0
ENDTAB
  0
TABLE
  2
DIMSTYLE
  5
9
330
0
100
AcDbSymbolTable
 70
     7
  0
DIMSTYLE
105
18
330
9
100
AcDbSymbolTableRecord
100
AcDbDimStyleTableRecord
  2
STANDARD
 70
     0
  3

  4

  5

  6

  7

 40
1.0
 41
0.18
 42
0.0625
 43
0.38
 44
0.18
 45
0.0
 46
0.0
 47
0.0
 48
0.0
140
0.18
141
0.09
142
0.0
143
25.4
144
1.0
145
0.0
146
1.0
147
0.09
 71
     0
 72
     0
 73
     1
 74
     1
 75
     0
 76
     0
 77
     0
 78
     0
170
     0
171
     2
172
     0
173
     0
174
     0
175
     0
176
     0
177
     0
178
     0
270
     2
271
     4
272
     4
273
     2
274
     2
340
17
275
     0
280
     0
281
     0
282
     0
283
     1
284
     0
285
     0
286
     0
287
     3
288
     0
  0
DIMSTYLE
105
D1
102
{ACAD_REACTORS
330
4E54
330
4E55
330
4E7A
330
4E7B
330
4E7E
330
4FA8
102
}
330
9
100
AcDbSymbolTableRecord
100
AcDbDimStyleTableRecord
  2
FINDER
 70
     0
  3

  4

  5

  6

  7

 40
1.0
 41
2.5
 42
2.0
 43
6.5
 44
1.25
 45
0.0
 46
0.0
 47
0.0
 48
0.0
140
3.5
141
2.5
142
0.0
143
0.03937
144
1.0
145
0.0
146
1.0
147
0.625
 71
     0
 72
     0
 73
     0
 74
     0
 75
     0
 76
     0
 77
     1
 78
     8
170
     0
171
     3
172
     1
173
     0
174
     0
175
     0
176
   256
177
   256
178
     2
270
     2
271
     2
272
     2
273
     2
274
     3
340
BE
275
     0
280
     0
281
     0
282
     0
283
     0
284
     8
285
     0
286
     0
287
     3
288
     0
  0
DIMSTYLE
105
7F2
330
9
100
AcDbSymbolTableRecord
100
AcDbDimStyleTableRecord
  2
FINDER1
 70
     0
  3

  4

  5

  6
DOTSMALL
  7
DOTSMALL
 40
1.0
 41
2.5
 42
2.0
 43
6.5
 44
1.25
 45
0.0
 46
0.0
 47
0.0
 48
0.0
140
3.5
141
2.5
142
0.0
143
0.03937
144
1.0
145
0.0
146
1.0
147
0.625
 71
     0
 72
     0
 73
     0
 74
     0
 75
     0
 76
     0
 77
     1
 78
     8
170
     0
171
     3
172
     1
173
     1
174
     0
175
     0
176
   256
177
   256
178
     2
270
     2
271
     2
272
     2
273
     2
274
     3
340
BE
275
     0
280
     0
281
     0
282
     0
283
     0
284
     8
285
     0
286
     0
287
     3
288
     0
  0
DIMSTYLE
105
49CC
330
9
100
AcDbSymbolTableRecord
100
AcDbDimStyleTableRecord
  2
DSTYLE1
 70
     0
  3

  4

  5

  6

  7

 40
1.0
 41
2.5
 42
1.110999999999997
 43
0.38
 44
0.833
 45
0.0
 46
0.0
 47
0.0
 48
0.0
140
2.5
141
0.09
142
0.0
143
25.4
144
1.0
145
0.7
146
0.6
147
0.0
 71
     0
 72
     0
 73
     0
 74
     0
 75
     0
 76
     0
 77
     0
 78
     8
170
     0
171
     2
172
     0
173
     0
174
     0
175
     0
176
     0
177
     0
178
     4
270
     2
271
     2
272
     4
273
     2
274
     2
340
49CB
275
     0
280
     0
281
     0
282
     0
283
     1
284
     0
285
     0
286
     0
287
     3
288
     0
  0
DIMSTYLE
105
49CD
330
9
100
AcDbSymbolTableRecord
100
AcDbDimStyleTableRecord
  2
DSTYLE2
 70
     0
  3

  4

  5

  6

  7

 40
1.0
 41
2.5
 42
1.110999999999997
 43
0.38
 44
0.833
 45
0.0
 46
0.0
 47
0.0
 48
0.0
140
2.5
141
0.09
142
0.0
143
25.4
144
1.0
145
0.7
146
0.6
147
0.0
 71
     0
 72
     0
 73
     0
 74
     0
 75
     0
 76
     0
 77
     0
 78
     8
170
     0
171
     2
172
     0
173
     0
174
     1
175
     0
176
     0
177
     0
178
     4
270
     2
271
     2
272
     4
273
     2
274
     2
340
49CB
275
     0
280
     0
281
     0
282
     0
283
     1
284
     0
285
     0
286
     0
287
     3
288
     0
  0
DIMSTYLE
105
49CE
330
9
100
AcDbSymbolTableRecord
100
AcDbDimStyleTableRecord
  2
DSTYLE3
 70
     0
  3

  4

  5

  6

  7

 40
1.0
 41
2.5
 42
16.265
 43
0.38
 44
0.833
 45
0.0
 46
0.0
 47
0.0
 48
0.0
140
2.5
141
0.09
142
0.0
143
25.4
144
1.0
145
0.7
146
0.6
147
0.0
 71
     0
 72
     0
 73
     0
 74
     0
 75
     0
 76
     0
 77
     0
 78
     8
170
     0
171
     2
172
     0
173
     0
174
     1
175
     0
176
     0
177
     0
178
     4
270
     2
271
     2
272
     4
273
     2
274
     2
340
49CB
275
     0
280
     0
281
     0
282
     0
283
     1
284
     0
285
     0
286
     0
287
     3
288
     0
  0
DIMSTYLE
105
49CF
330
9
100
AcDbSymbolTableRecord
100
AcDbDimStyleTableRecord
  2
DSTYLE4
 70
     0
  3

  4

  5

  6

  7

 40
1.0
 41
2.5
 42
16.304
 43
0.38
 44
0.833
 45
0.0
 46
0.0
 47
0.0
 48
0.0
140
2.5
141
0.09
142
0.0
143
25.4
144
1.0
145
0.7
146
0.6
147
0.0
 71
     0
 72
     0
 73
     0
 74
     0
 75
     0
 76
     0
 77
     0
 78
     8
170
     0
171
     2
172
     0
173
     0
174
     1
175
     0
176
     0
177
     0
178
     4
270
     2
271
     2
272
     4
273
     2
274
     2
340
49CB
275
     0
280
     0
281
     0
282
     0
283
     1
284
     0
285
     0
286
     0
287
     3
288
     0
  0
ENDTAB
  0
TABLE
  2
BLOCK_RECORD
  5
1
330
0
100
AcDbSymbolTable
 70
    56
  0
BLOCK_RECORD
  5
A
102
{ACAD_XDICTIONARY
360
496F
102
}
330
1
100
AcDbSymbolTableRecord
100
AcDbBlockTableRecord
  2
*MODEL_SPACE
  0
BLOCK_RECORD
  5
B
102
{ACAD_XDICTIONARY
360
4971
102
}
330
1
100
AcDbSymbolTableRecord
100
AcDbBlockTableRecord
  2
*PAPER_SPACE
  0
BLOCK_RECORD
  5
7A1
330
1
100
AcDbSymbolTableRecord
100
AcDbBlockTableRecord
  2
_DOTSMALL
  0
BLOCK_RECORD
  5
4337
330
1
100
AcDbSymbolTableRecord
100
AcDbBlockTableRecord
  2
*D1
  0
BLOCK_RECORD
  5
4345
330
1
100
AcDbSymbolTableRecord
100
AcDbBlockTableRecord
  2
*D2
  0
BLOCK_RECORD
  5
4356
330
1
100
AcDbSymbolTableRecord
100
AcDbBlockTableRecord
  2
*D3
  0
BLOCK_RECORD
  5
4363
330
1
100
AcDbSymbolTableRecord
100
AcDbBlockTableRecord
  2
*D4
  0
BLOCK_RECORD
  5
43B7
330
1
100
AcDbSymbolTableRecord
100
AcDbBlockTableRecord
  2
*D5
  0
BLOCK_RECORD
  5
43C4
330
1
100
AcDbSymbolTableRecord
100
AcDbBlockTableRecord
  2
*D6
  0
BLOCK_RECORD
  5
43D0
330
1
100
AcDbSymbolTableRecord
100
AcDbBlockTableRecord
  2
*D7
  0
BLOCK_RECORD
  5
43DC
330
1
100
AcDbSymbolTableRecord
100
AcDbBlockTableRecord
  2
*D8
  0
BLOCK_RECORD
  5
4432
330
1
100
AcDbSymbolTableRecord
100
AcDbBlockTableRecord
  2
*D9
  0
BLOCK_RECORD
  5
4495
330
1
100
AcDbSymbolTableRecord
100
AcDbBlockTableRecord
  2
*D10
  0
BLOCK_RECORD
  5
44BA
330
1
100
AcDbSymbolTableRecord
100
AcDbBlockTableRecord
  2
*D11
  0
BLOCK_RECORD
  5
44DF
330
1
100
AcDbSymbolTableRecord
100
AcDbBlockTableRecord
  2
*D12
  0
BLOCK_RECORD
  5
4738
330
1
100
AcDbSymbolTableRecord
100
AcDbBlockTableRecord
  2
*X13
  0
BLOCK_RECORD
  5
47C9
330
1
100
AcDbSymbolTableRecord
100
AcDbBlockTableRecord
  2
*X14
  0
BLOCK_RECORD
  5
47E9
330
1
100
AcDbSymbolTableRecord
100
AcDbBlockTableRecord
  2
*X15
  0
BLOCK_RECORD
  5
47F6
330
1
100
AcDbSymbolTableRecord
100
AcDbBlockTableRecord
  2
*X16
  0
BLOCK_RECORD
  5
480D
330
1
100
AcDbSymbolTableRecord
100
AcDbBlockTableRecord
  2
*X17
  0
BLOCK_RECORD
  5
4837
330
1
100
AcDbSymbolTableRecord
100
AcDbBlockTableRecord
  2
*X18
  0
BLOCK_RECORD
  5
4866
330
1
100
AcDbSymbolTableRecord
100
AcDbBlockTableRecord
  2
*X19
  0
BLOCK_RECORD
  5
4899
330
1
100
AcDbSymbolTableRecord
100
AcDbBlockTableRecord
  2
*X20
  0
BLOCK_RECORD
  5
4921
330
1
100
AcDbSymbolTableRecord
100
AcDbBlockTableRecord
  2
*D21
  0
BLOCK_RECORD
  5
4937
330
1
100
AcDbSymbolTableRecord
100
AcDbBlockTableRecord
  2
*D22
  0
BLOCK_RECORD
  5
4983
330
1
100
AcDbSymbolTableRecord
100
AcDbBlockTableRecord
  2
LW_POLYLINE_1
  0
BLOCK_RECORD
  5
498A
330
1
100
AcDbSymbolTableRecord
100
AcDbBlockTableRecord
  2
LW_POLYLINE_4
  0
BLOCK_RECORD
  5
4990
330
1
100
AcDbSymbolTableRecord
100
AcDbBlockTableRecord
  2
*D25
  0
BLOCK_RECORD
  5
499C
330
1
100
AcDbSymbolTableRecord
100
AcDbBlockTableRecord
  2
*D26
  0
BLOCK_RECORD
  5
49A8
330
1
100
AcDbSymbolTableRecord
100
AcDbBlockTableRecord
  2
*D27
  0
BLOCK_RECORD
  5
49B2
330
1
100
AcDbSymbolTableRecord
100
AcDbBlockTableRecord
  2
*D28
  0
BLOCK_RECORD
  5
49BC
330
1
100
AcDbSymbolTableRecord
100
AcDbBlockTableRecord
  2
*D29
  0
BLOCK_RECORD
  5
4B2B
330
1
100
AcDbSymbolTableRecord
100
AcDbBlockTableRecord
  2
*D30
  0
BLOCK_RECORD
  5
4B37
330
1
100
AcDbSymbolTableRecord
100
AcDbBlockTableRecord
  2
*D31
  0
BLOCK_RECORD
  5
4B43
330
1
100
AcDbSymbolTableRecord
100
AcDbBlockTableRecord
  2
*D32
  0
BLOCK_RECORD
  5
4B4F
330
1
100
AcDbSymbolTableRecord
100
AcDbBlockTableRecord
  2
*D33
  0
BLOCK_RECORD
  5
4B5C
330
1
100
AcDbSymbolTableRecord
100
AcDbBlockTableRecord
  2
*D34
  0
BLOCK_RECORD
  5
4B99
330
1
100
AcDbSymbolTableRecord
100
AcDbBlockTableRecord
  2
*D35
  0
BLOCK_RECORD
  5
4BA5
330
1
100
AcDbSymbolTableRecord
100
AcDbBlockTableRecord
  2
*D36
  0
BLOCK_RECORD
  5
4BB1
330
1
100
AcDbSymbolTableRecord
100
AcDbBlockTableRecord
  2
*D37
  0
BLOCK_RECORD
  5
4BBD
330
1
100
AcDbSymbolTableRecord
100
AcDbBlockTableRecord
  2
*D38
  0
BLOCK_RECORD
  5
4BCA
330
1
100
AcDbSymbolTableRecord
100
AcDbBlockTableRecord
  2
*D39
  0
BLOCK_RECORD
  5
4C5F
330
1
100
AcDbSymbolTableRecord
100
AcDbBlockTableRecord
  2
*D40
  0
BLOCK_RECORD
  5
4C6C
330
1
100
AcDbSymbolTableRecord
100
AcDbBlockTableRecord
  2
*D41
  0
BLOCK_RECORD
  5
4C78
330
1
100
AcDbSymbolTableRecord
100
AcDbBlockTableRecord
  2
*D42
  0
BLOCK_RECORD
  5
4C84
330
1
100
AcDbSymbolTableRecord
100
AcDbBlockTableRecord
  2
*D43
  0
BLOCK_RECORD
  5
4C91
330
1
100
AcDbSymbolTableRecord
100
AcDbBlockTableRecord
  2
*D44
  0
BLOCK_RECORD
  5
4DCE
330
1
100
AcDbSymbolTableRecord
100
AcDbBlockTableRecord
  2
*D45
  0
BLOCK_RECORD
  5
4DDC
330
1
100
AcDbSymbolTableRecord
100
AcDbBlockTableRecord
  2
*D46
  0
BLOCK_RECORD
  5
4DE8
330
1
100
AcDbSymbolTableRecord
100
AcDbBlockTableRecord
  2
*D47
  0
BLOCK_RECORD
  5
4DF4
330
1
100
AcDbSymbolTableRecord
100
AcDbBlockTableRecord
  2
*D48
  0
BLOCK_RECORD
  5
4E02
330
1
100
AcDbSymbolTableRecord
100
AcDbBlockTableRecord
  2
*D49
  0
BLOCK_RECORD
  5
4E96
330
1
100
AcDbSymbolTableRecord
100
AcDbBlockTableRecord
  2
*D50
  0
BLOCK_RECORD
  5
4EA4
330
1
100
AcDbSymbolTableRecord
100
AcDbBlockTableRecord
  2
*D51
  0
BLOCK_RECORD
  5
4EB0
330
1
100
AcDbSymbolTableRecord
100
AcDbBlockTableRecord
  2
*D52
  0
BLOCK_RECORD
  5
4EBE
330
1
100
AcDbSymbolTableRecord
100
AcDbBlockTableRecord
  2
*D53
  0
BLOCK_RECORD
  5
4ECA
330
1
100
AcDbSymbolTableRecord
100
AcDbBlockTableRecord
  2
*D54
  0
BLOCK_RECORD
  5
4FA9
330
1
100
AcDbSymbolTableRecord
100
AcDbBlockTableRecord
  2
*D55
  0
ENDTAB
  0
ENDSEC
  0
SECTION
  2
BLOCKS
  0
BLOCK
  5
D
330
A
100
AcDbEntity
  8
0
100
AcDbBlockBegin
  2
*MODEL_SPACE
 70
     0
 10
0.0
 20
0.0
 30
0.0
  3
*MODEL_SPACE
  1

  0
ENDBLK
  5
E
330
A
100
AcDbEntity
  8
0
100
AcDbBlockEnd
  0
BLOCK
  5
F
330
B
100
AcDbEntity
 67
     1
  8
0
100
AcDbBlockBegin
  2
*PAPER_SPACE
 70
     0
 10
0.0
 20
0.0
 30
0.0
  3
*PAPER_SPACE
  1

  0
ENDBLK
  5
10
330
B
100
AcDbEntity
 67
     1
  8
0
100
AcDbBlockEnd
  0
BLOCK
  5
7A2
330
7A1
100
AcDbEntity
  8
0
100
AcDbBlockBegin
  2
_DOTSMALL
 70
     0
 10
0.0
 20
0.0
 30
0.0
  3
_DOTSMALL
  1

  0
LWPOLYLINE
  5
7A3
330
7A1
100
AcDbEntity
  8
0
  6
BYBLOCK
 62
     0
100
AcDbPolyline
 90
        2
 70
     1
 43
0.5
 10
-0.0625
 20
0.0
 42
1.0
 10
0.0625
 20
0.0
 42
1.0
  0
ENDBLK
  5
7A7
330
7A1
100
AcDbEntity
  8
0
100
AcDbBlockEnd
  0
BLOCK
  5
4338
330
4337
100
AcDbEntity
  8
0
100
AcDbBlockBegin
  2
*D1
 70
     1
 10
0.0
 20
0.0
 30
0.0
  3
*D1
  1

  0
LINE
  5
4339
330
4337
100
AcDbEntity
  8
0
  6
BYBLOCK
100
AcDbLine
 10
19.0
 20
203.197232
 30
0.0
 11
19.0
 21
206.25
 31
0.0
  0
LINE
  5
433A
330
4337
100
AcDbEntity
  8
0
  6
BYBLOCK
100
AcDbLine
 10
57.2
 20
203.197232
 30
0.0
 11
57.2
 21
206.25
 31
0.0
  0
LINE
  5
433B
330
4337
100
AcDbEntity
  8
0
  6
BYBLOCK
100
AcDbLine
 10
21.49999999999999
 20
205.0
 30
0.0
 11
54.7
 21
205.0
 31
0.0
  0
SOLID
  5
433C
330
4337
100
AcDbEntity
  8
0
  6
BYBLOCK
100
AcDbTrace
 10
21.49999999999999
 20
205.4166669999999
 30
0.0
 11
21.49999999999999
 21
204.583333
 31
0.0
 12
19.0
 22
205.0
 32
0.0
 13
19.0
 23
205.0
 33
0.0
  0
SOLID
  5
433D
330
4337
100
AcDbEntity
  8
0
  6
BYBLOCK
100
AcDbTrace
 10
54.7
 20
205.4166669999999
 30
0.0
 11
54.7
 21
204.583333
 31
0.0
 12
57.2
 22
205.0
 32
0.0
 13
57.2
 23
205.0
 33
0.0
  0
MTEXT
  5
433E
330
4337
100
AcDbEntity
  8
0
  6
BYBLOCK
 62
     2
100
AcDbMText
 10
38.1
 20
206.544645
 30
0.0
 40
1.8
 41
0.0
 71
     5
 72
     5
  1
38.2
  7
FINDER
1001
ACAD
1000
MTEXTBEGIN
1070
    73
1070
     1
1070
    44
1040
1.0
1070
    74
1070
     0
1000
MTEXTEND
1000
MTEXTBEGIN
1070
    73
1070
     1
1070
    44
1040
1.0
1070
    74
1070
     0
1000
MTEXTEND
1000
MTEXTBEGIN
1070
    73
1070
     1
1070
    44
1040
1.0
1070
    74
1070
     0
1000
MTEXTEND
1000
MTEXTBEGIN
1070
    73
1070
     1
1070
    44
1040
1.0
1070
    74
1070
     0
1000
MTEXTEND
  0
POINT
  5
4340
330
4337
100
AcDbEntity
  8
DEFPOINTS
  6
BYBLOCK
 62
     0
100
AcDbPoint
 10
19.0
 20
201.197232
 30
0.0
  0
POINT
  5
4341
330
4337
100
AcDbEntity
  8
DEFPOINTS
  6
BYBLOCK
 62
     0
100
AcDbPoint
 10
57.2
 20
201.197232
 30
0.0
  0
POINT
  5
4342
330
4337
100
AcDbEntity
  8
DEFPOINTS
  6
BYBLOCK
 62
     0
100
AcDbPoint
 10
57.2
 20
205.0
 30
0.0
  0
ENDBLK
  5
4343
330
4337
100
AcDbEntity
  8
0
100
AcDbBlockEnd
  0
BLOCK
  5
4346
330
4345
100
AcDbEntity
  8
0
100
AcDbBlockBegin
  2
*D2
 70
     1
 10
0.0
 20
0.0
 30
0.0
  3
*D2
  1

  0
LINE
  5
4347
330
4345
100
AcDbEntity
  8
0
  6
BYBLOCK
100
AcDbLine
 10
17.0
 20
201.197232
 30
0.0
 11
13.75
 21
201.197232
 31
0.0
  0
LINE
  5
4348
330
4345
100
AcDbEntity
  8
0
  6
BYBLOCK
100
AcDbLine
 10
17.0
 20
165.397232
 30
0.0
 11
13.75
 21
165.397232
 31
0.0
  0
LINE
  5
4349
330
4345
100
AcDbEntity
  8
0
  6
BYBLOCK
100
AcDbLine
 10
15.0
 20
198.697232
 30
0.0
 11
15.0
 21
167.8972319999999
 31
0.0
  0
SOLID
  5
434A
330
4345
100
AcDbEntity
  8
0
  6
BYBLOCK
100
AcDbTrace
 10
14.58333299999999
 20
198.697232
 30
0.0
 11
15.416667
 21
198.697232
 31
0.0
 12
15.0
 22
201.197232
 32
0.0
 13
15.0
 23
201.197232
 33
0.0
  0
SOLID
  5
434B
330
4345
100
AcDbEntity
  8
0
  6
BYBLOCK
100
AcDbTrace
 10
14.58333299999999
 20
167.8972319999999
 30
0.0
 11
15.416667
 21
167.8972319999999
 31
0.0
 12
15.0
 22
165.397232
 32
0.0
 13
15.0
 23
165.397232
 33
0.0
  0
MTEXT
  5
434C
330
4345
100
AcDbEntity
  8
0
  6
BYBLOCK
 62
     2
100
AcDbMText
 10
13.45535499999999
 20
183.297232
 30
0.0
 40
1.8
 41
0.0
 71
     5
 72
     5
  1
35.8
  7
FINDER
 11
0.0
 21
1.0
 31
0.0
1001
ACAD
1000
MTEXTBEGIN
1070
    73
1070
     1
1070
    44
1040
1.0
1070
    74
1070
     0
1000
MTEXTEND
1000
MTEXTBEGIN
1070
    73
1070
     1
1070
    44
1040
1.0
1070
    74
1070
     0
1000
MTEXTEND
1000
MTEXTBEGIN
1070
    73
1070
     1
1070
    44
1040
1.0
1070
    74
1070
     0
1000
MTEXTEND
1000
MTEXTBEGIN
1070
    73
1070
     1
1070
    44
1040
1.0
1070
    74
1070
     0
1000
MTEXTEND
  0
POINT
  5
434D
330
4345
100
AcDbEntity
  8
DEFPOINTS
  6
BYBLOCK
 62
     0
100
AcDbPoint
 10
19.0
 20
201.197232
 30
0.0
  0
POINT
  5
434E
330
4345
100
AcDbEntity
  8
DEFPOINTS
  6
BYBLOCK
 62
     0
100
AcDbPoint
 10
19.0
 20
165.397232
 30
0.0
  0
POINT
  5
434F
330
4345
100
AcDbEntity
  8
DEFPOINTS
  6
BYBLOCK
 62
     0
100
AcDbPoint
 10
15.0
 20
165.397232
 30
0.0
  0
ENDBLK
  5
4350
330
4345
100
AcDbEntity
  8
0
100
AcDbBlockEnd
  0
BLOCK
  5
4357
330
4356
100
AcDbEntity
  8
0
100
AcDbBlockBegin
  2
*D3
 70
     1
 10
0.0
 20
0.0
 30
0.0
  3
*D3
  1

  0
LINE
  5
4D93
330
4356
100
AcDbEntity
  8
DIM
  6
CONTINUOUS
100
AcDbLine
 10
88.05560699999999
 20
202.995906
 30
0.0
 11
88.05560699999999
 21
206.25
 31
0.0
  0
LINE
  5
4D94
330
4356
100
AcDbEntity
  8
DIM
  6
CONTINUOUS
100
AcDbLine
 10
133.655607
 20
202.697232
 30
0.0
 11
133.655607
 21
206.25
 31
0.0
  0
LINE
  5
4D95
330
4356
100
AcDbEntity
  8
DIM
  6
CONTINUOUS
100
AcDbLine
 10
90.55560699999999
 20
205.0
 30
0.0
 11
131.1556069999999
 21
205.0
 31
0.0
  0
SOLID
  5
4D96
330
4356
100
AcDbEntity
  8
DIM
  6
CONTINUOUS
100
AcDbTrace
 10
90.55560699999999
 20
205.4166666666666
 30
0.0
 11
90.55560699999999
 21
204.5833333333333
 31
0.0
 12
88.05560699999999
 22
205.0
 32
0.0
 13
88.05560699999999
 23
205.0
 33
0.0
  0
SOLID
  5
4D97
330
4356
100
AcDbEntity
  8
DIM
  6
CONTINUOUS
100
AcDbTrace
 10
131.1556069999999
 20
205.4166666666666
 30
0.0
 11
131.1556069999999
 21
204.5833333333333
 31
0.0
 12
133.655607
 22
205.0
 32
0.0
 13
133.655607
 23
205.0
 33
0.0
  0
MTEXT
  5
4D98
330
4356
100
AcDbEntity
  8
DIM
  6
CONTINUOUS
 62
     2
100
AcDbMText
 10
110.8556069999999
 20
206.544031377899
 30
0.0
 40
1.8
 41
0.0
 71
     5
 72
     1
  1
45.6
  7
FINDER
1001
ACAD
1000
MTEXTBEGIN
1070
    73
1070
     1
1070
    44
1040
1.0
1070
    74
1070
     0
1000
MTEXTEND
1000
MTEXTBEGIN
1070
    73
1070
     1
1070
    44
1040
1.0
1070
    74
1070
     0
1000
MTEXTEND
1000
MTEXTBEGIN
1070
    73
1070
     1
1070
    44
1040
1.0
1070
    74
1070
     0
1000
MTEXTEND
  0
POINT
  5
4D99
330
4356
100
AcDbEntity
  8
DEFPOINTS
  6
CONTINUOUS
 62
     0
100
AcDbPoint
 10
88.05560699999999
 20
200.995906
 30
0.0
  0
POINT
  5
4D9A
330
4356
100
AcDbEntity
  8
DEFPOINTS
  6
CONTINUOUS
 62
     0
100
AcDbPoint
 10
133.655607
 20
200.697232
 30
0.0
  0
POINT
  5
4D9B
330
4356
100
AcDbEntity
  8
DEFPOINTS
  6
CONTINUOUS
 62
     0
100
AcDbPoint
 10
133.655607
 20
205.0
 30
0.0
  0
ENDBLK
  5
4361
330
4356
100
AcDbEntity
  8
0
100
AcDbBlockEnd
  0
BLOCK
  5
46E5
330
4363
100
AcDbEntity
  8
0
100
AcDbBlockBegin
  2
*D4
 70
     1
 10
0.0
 20
0.0
 30
0.0
  3
*D4
  1

  0
LINE
  5
46E6
330
4363
100
AcDbEntity
  8
0
  6
BYBLOCK
100
AcDbLine
 10
84.55560699999997
 20
201.697232
 30
0.0
 11
84.55560699999997
 21
206.25
 31
0.0
  0
LINE
  5
46E7
330
4363
100
AcDbEntity
  8
0
  6
BYBLOCK
100
AcDbLine
 10
90.55560699999999
 20
205.0
 30
0.0
 11
93.05560699999999
 21
205.0
 31
0.0
  0
LINE
  5
46E8
330
4363
100
AcDbEntity
  8
0
  6
BYBLOCK
100
AcDbLine
 10
82.05560699999997
 20
205.0
 30
0.0
 11
79.55560699999998
 21
205.0
 31
0.0
  0
LINE
  5
46E9
330
4363
100
AcDbEntity
  8
0
  6
BYBLOCK
100
AcDbLine
 10
86.305607
 20
205.0
 30
0.0
 11
87.23775100000002
 21
208.107145
 31
0.0
  0
LINE
  5
46EA
330
4363
100
AcDbEntity
  8
0
  6
BYBLOCK
100
AcDbLine
 10
87.23775100000002
 20
208.107145
 30
0.0
 11
91.77710899999999
 21
208.107145
 31
0.0
  0
MTEXT
  5
46EB
330
4363
100
AcDbEntity
  8
0
  6
BYBLOCK
 62
     2
100
AcDbMText
 10
87.86275100000002
 20
209.651791
 30
0.0
 40
1.8
 41
0.0
 71
     4
 72
     5
  1
3.5
  7
FINDER
1001
ACAD
1000
MTEXTBEGIN
1070
    73
1070
     1
1070
    44
1040
1.0
1070
    74
1070
     0
1000
MTEXTEND
1000
MTEXTBEGIN
1070
    73
1070
     1
1070
    44
1040
1.0
1070
    74
1070
     0
1000
MTEXTEND
1000
MTEXTBEGIN
1070
    73
1070
     1
1070
    44
1040
1.0
1070
    74
1070
     0
1000
MTEXTEND
1000
MTEXTBEGIN
1070
    73
1070
     1
1070
    44
1040
1.0
1070
    74
1070
     0
1000
MTEXTEND
  0
LINE
  5
46EC
330
4363
100
AcDbEntity
  8
0
  6
BYBLOCK
100
AcDbLine
 10
88.05560699999999
 20
205.0
 30
0.0
 11
84.55560699999997
 21
205.0
 31
0.0
  0
LINE
  5
46ED
330
4363
100
AcDbEntity
  8
0
  6
BYBLOCK
100
AcDbLine
 10
88.05560699999999
 20
205.0
 30
0.0
 11
84.55560699999997
 21
205.0
 31
0.0
  0
SOLID
  5
46EE
330
4363
100
AcDbEntity
  8
0
  6
BYBLOCK
100
AcDbTrace
 10
90.55560699999999
 20
205.4166669999999
 30
0.0
 11
90.55560699999999
 21
204.583333
 31
0.0
 12
88.05560699999999
 22
205.0
 32
0.0
 13
88.05560699999999
 23
205.0
 33
0.0
  0
SOLID
  5
46EF
330
4363
100
AcDbEntity
  8
0
  6
BYBLOCK
100
AcDbTrace
 10
82.05560699999997
 20
205.4166669999999
 30
0.0
 11
82.05560699999997
 21
204.583333
 31
0.0
 12
84.55560699999997
 22
205.0
 32
0.0
 13
84.55560699999997
 23
205.0
 33
0.0
  0
POINT
  5
46F0
330
4363
100
AcDbEntity
  8
DEFPOINTS
  6
BYBLOCK
 62
     0
100
AcDbPoint
 10
88.05560699999999
 20
200.995906
 30
0.0
  0
POINT
  5
46F1
330
4363
100
AcDbEntity
  8
DEFPOINTS
  6
BYBLOCK
 62
     0
100
AcDbPoint
 10
84.55560699999997
 20
199.697232
 30
0.0
  0
POINT
  5
46F2
330
4363
100
AcDbEntity
  8
DEFPOINTS
  6
BYBLOCK
 62
     0
100
AcDbPoint
 10
84.55560699999997
 20
205.0
 30
0.0
  0
ENDBLK
  5
46F3
330
4363
100
AcDbEntity
  8
0
100
AcDbBlockEnd
  0
BLOCK
  5
46F4
330
43B7
100
AcDbEntity
  8
0
100
AcDbBlockBegin
  2
*D5
 70
     1
 10
0.0
 20
0.0
 30
0.0
  3
*D5
  1

  0
LINE
  5
46F5
330
43B7
100
AcDbEntity
  8
0
  6
BYBLOCK
100
AcDbLine
 10
78.756929
 20
174.1959019999999
 30
0.0
 11
74.75
 21
174.1959019999999
 31
0.0
  0
LINE
  5
46F6
330
43B7
100
AcDbEntity
  8
0
  6
BYBLOCK
100
AcDbLine
 10
78.756929
 20
181.795902
 30
0.0
 11
74.75
 21
181.795902
 31
0.0
  0
LINE
  5
46F7
330
43B7
100
AcDbEntity
  8
0
  6
BYBLOCK
100
AcDbLine
 10
76.0
 20
176.6959019999999
 30
0.0
 11
76.0
 21
181.795902
 31
0.0
  0
SOLID
  5
46F8
330
43B7
100
AcDbEntity
  8
0
  6
BYBLOCK
100
AcDbTrace
 10
75.583333
 20
176.6959019999999
 30
0.0
 11
76.416667
 21
176.6959019999999
 31
0.0
 12
76.0
 22
174.1959019999999
 32
0.0
 13
76.0
 23
174.1959019999999
 33
0.0
  0
INSERT
  5
46F9
330
43B7
100
AcDbEntity
  8
0
  6
BYBLOCK
100
AcDbBlockReference
  2
_DOTSMALL
 10
76.0
 20
181.795902
 30
0.0
 41
2.5
 42
2.5
 43
2.5
 50
90.0
  0
MTEXT
  5
46FA
330
43B7
100
AcDbEntity
  8
0
  6
BYBLOCK
 62
     2
100
AcDbMText
 10
74.45596899999998
 20
179.245902
 30
0.0
 40
1.8
 41
0.0
 71
     5
 72
     5
  1
7.6
  7
FINDER
 11
0.0
 21
1.0
 31
0.0
1001
ACAD
1000
MTEXTBEGIN
1070
    73
1070
     1
1070
    44
1040
1.0
1070
    74
1070
     0
1000
MTEXTEND
1000
MTEXTBEGIN
1070
    73
1070
     1
1070
    44
1040
1.0
1070
    74
1070
     0
1000
MTEXTEND
1000
MTEXTBEGIN
1070
    73
1070
     1
1070
    44
1040
1.0
1070
    74
1070
     0
1000
MTEXTEND
1000
MTEXTBEGIN
1070
    73
1070
     1
1070
    44
1040
1.0
1070
    74
1070
     0
1000
MTEXTEND
  0
POINT
  5
46FB
330
43B7
100
AcDbEntity
  8
DEFPOINTS
  6
BYBLOCK
 62
     0
100
AcDbPoint
 10
80.75692899999998
 20
174.1959019999999
 30
0.0
  0
POINT
  5
46FC
330
43B7
100
AcDbEntity
  8
DEFPOINTS
  6
BYBLOCK
 62
     0
100
AcDbPoint
 10
80.75692899999998
 20
181.795902
 30
0.0
  0
POINT
  5
46FD
330
43B7
100
AcDbEntity
  8
DEFPOINTS
  6
BYBLOCK
 62
     0
100
AcDbPoint
 10
76.0
 20
181.795902
 30
0.0
  0
ENDBLK
  5
46FE
330
43B7
100
AcDbEntity
  8
0
100
AcDbBlockEnd
  0
BLOCK
  5
46FF
330
43C4
100
AcDbEntity
  8
0
100
AcDbBlockBegin
  2
*D6
 70
     1
 10
0.0
 20
0.0
 30
0.0
  3
*D6
  1

  0
LINE
  5
4700
330
43C4
100
AcDbEntity
  8
0
  6
BYBLOCK
100
AcDbLine
 10
78.756929
 20
189.795902
 30
0.0
 11
74.75
 21
189.795902
 31
0.0
  0
LINE
  5
4701
330
43C4
100
AcDbEntity
  8
0
  6
BYBLOCK
100
AcDbLine
 10
76.0
 20
181.795902
 30
0.0
 11
76.0
 21
189.795902
 31
0.0
  0
INSERT
  5
4702
330
43C4
100
AcDbEntity
  8
0
  6
BYBLOCK
100
AcDbBlockReference
  2
_DOTSMALL
 10
76.0
 20
181.795902
 30
0.0
 41
2.5
 42
2.5
 43
2.5
 50
270.0
  0
INSERT
  5
4703
330
43C4
100
AcDbEntity
  8
0
  6
BYBLOCK
100
AcDbBlockReference
  2
_DOTSMALL
 10
76.0
 20
189.795902
 30
0.0
 41
2.5
 42
2.5
 43
2.5
 50
90.0
  0
MTEXT
  5
4704
330
43C4
100
AcDbEntity
  8
0
  6
BYBLOCK
 62
     2
100
AcDbMText
 10
74.45596899999998
 20
185.795902
 30
0.0
 40
1.8
 41
0.0
 71
     5
 72
     5
  1
8
  7
FINDER
 11
0.0
 21
1.0
 31
0.0
1001
ACAD
1000
MTEXTBEGIN
1070
    73
1070
     1
1070
    44
1040
1.0
1070
    74
1070
     0
1000
MTEXTEND
1000
MTEXTBEGIN
1070
    73
1070
     1
1070
    44
1040
1.0
1070
    74
1070
     0
1000
MTEXTEND
1000
MTEXTBEGIN
1070
    73
1070
     1
1070
    44
1040
1.0
1070
    74
1070
     0
1000
MTEXTEND
1000
MTEXTBEGIN
1070
    73
1070
     1
1070
    44
1040
1.0
1070
    74
1070
     0
1000
MTEXTEND
  0
POINT
  5
4705
330
43C4
100
AcDbEntity
  8
DEFPOINTS
  6
BYBLOCK
 62
     0
100
AcDbPoint
 10
80.75692899999998
 20
181.795902
 30
0.0
  0
POINT
  5
4706
330
43C4
100
AcDbEntity
  8
DEFPOINTS
  6
BYBLOCK
 62
     0
100
AcDbPoint
 10
80.75692899999998
 20
189.795902
 30
0.0
  0
POINT
  5
4707
330
43C4
100
AcDbEntity
  8
DEFPOINTS
  6
BYBLOCK
 62
     0
100
AcDbPoint
 10
76.0
 20
189.795902
 30
0.0
  0
ENDBLK
  5
4708
330
43C4
100
AcDbEntity
  8
0
100
AcDbBlockEnd
  0
BLOCK
  5
4709
330
43D0
100
AcDbEntity
  8
0
100
AcDbBlockBegin
  2
*D7
 70
     1
 10
0.0
 20
0.0
 30
0.0
  3
*D7
  1

  0
LINE
  5
470A
330
43D0
100
AcDbEntity
  8
0
  6
BYBLOCK
100
AcDbLine
 10
78.756929
 20
195.595902
 30
0.0
 11
74.75
 21
195.595902
 31
0.0
  0
LINE
  5
470B
330
43D0
100
AcDbEntity
  8
0
  6
BYBLOCK
100
AcDbLine
 10
76.0
 20
189.795902
 30
0.0
 11
76.0
 21
195.595902
 31
0.0
  0
INSERT
  5
470C
330
43D0
100
AcDbEntity
  8
0
  6
BYBLOCK
100
AcDbBlockReference
  2
_DOTSMALL
 10
76.0
 20
189.795902
 30
0.0
 41
2.5
 42
2.5
 43
2.5
 50
270.0
  0
INSERT
  5
470D
330
43D0
100
AcDbEntity
  8
0
  6
BYBLOCK
100
AcDbBlockReference
  2
_DOTSMALL
 10
76.0
 20
195.595902
 30
0.0
 41
2.5
 42
2.5
 43
2.5
 50
90.0
  0
MTEXT
  5
470E
330
43D0
100
AcDbEntity
  8
0
  6
BYBLOCK
 62
     2
100
AcDbMText
 10
74.45596899999998
 20
192.6959019999999
 30
0.0
 40
1.8
 41
0.0
 71
     5
 72
     5
  1
5.8
  7
FINDER
 11
0.0
 21
1.0
 31
0.0
1001
ACAD
1000
MTEXTBEGIN
1070
    73
1070
     1
1070
    44
1040
1.0
1070
    74
1070
     0
1000
MTEXTEND
1000
MTEXTBEGIN
1070
    73
1070
     1
1070
    44
1040
1.0
1070
    74
1070
     0
1000
MTEXTEND
1000
MTEXTBEGIN
1070
    73
1070
     1
1070
    44
1040
1.0
1070
    74
1070
     0
1000
MTEXTEND
1000
MTEXTBEGIN
1070
    73
1070
     1
1070
    44
1040
1.0
1070
    74
1070
     0
1000
MTEXTEND
  0
POINT
  5
470F
330
43D0
100
AcDbEntity
  8
DEFPOINTS
  6
BYBLOCK
 62
     0
100
AcDbPoint
 10
80.75692899999998
 20
189.795902
 30
0.0
  0
POINT
  5
4710
330
43D0
100
AcDbEntity
  8
DEFPOINTS
  6
BYBLOCK
 62
     0
100
AcDbPoint
 10
80.75692899999998
 20
195.595902
 30
0.0
  0
POINT
  5
4711
330
43D0
100
AcDbEntity
  8
DEFPOINTS
  6
BYBLOCK
 62
     0
100
AcDbPoint
 10
76.0
 20
195.595902
 30
0.0
  0
ENDBLK
  5
4712
330
43D0
100
AcDbEntity
  8
0
100
AcDbBlockEnd
  0
BLOCK
  5
4713
330
43DC
100
AcDbEntity
  8
0
100
AcDbBlockBegin
  2
*D8
 70
     1
 10
0.0
 20
0.0
 30
0.0
  3
*D8
  1

  0
LINE
  5
4714
330
43DC
100
AcDbEntity
  8
0
  6
BYBLOCK
100
AcDbLine
 10
86.256929
 20
201.1959019999999
 30
0.0
 11
74.75
 21
201.1959019999999
 31
0.0
  0
LINE
  5
4715
330
43DC
100
AcDbEntity
  8
0
  6
BYBLOCK
100
AcDbLine
 10
76.0
 20
195.595902
 30
0.0
 11
76.0
 21
198.695902
 31
0.0
  0
MTEXT
  5
4716
330
43DC
100
AcDbEntity
  8
0
  6
BYBLOCK
 62
     2
100
AcDbMText
 10
74.45596899999998
 20
198.695902
 30
0.0
 40
1.8
 41
0.0
 71
     5
 72
     5
  1
5.6
  7
FINDER
 11
0.0
 21
1.0
 31
0.0
1001
ACAD
1000
MTEXTBEGIN
1070
    73
1070
     1
1070
    44
1040
1.0
1070
    74
1070
     0
1000
MTEXTEND
1000
MTEXTBEGIN
1070
    73
1070
     1
1070
    44
1040
1.0
1070
    74
1070
     0
1000
MTEXTEND
1000
MTEXTBEGIN
1070
    73
1070
     1
1070
    44
1040
1.0
1070
    74
1070
     0
1000
MTEXTEND
1000
MTEXTBEGIN
1070
    73
1070
     1
1070
    44
1040
1.0
1070
    74
1070
     0
1000
MTEXTEND
  0
INSERT
  5
4717
330
43DC
100
AcDbEntity
  8
0
  6
BYBLOCK
100
AcDbBlockReference
  2
_DOTSMALL
 10
76.0
 20
195.595902
 30
0.0
 41
2.5
 42
2.5
 43
2.5
 50
270.0
  0
SOLID
  5
4718
330
43DC
100
AcDbEntity
  8
0
  6
BYBLOCK
100
AcDbTrace
 10
75.583333
 20
198.695902
 30
0.0
 11
76.416667
 21
198.695902
 31
0.0
 12
76.0
 22
201.1959019999999
 32
0.0
 13
76.0
 23
201.1959019999999
 33
0.0
  0
POINT
  5
4719
330
43DC
100
AcDbEntity
  8
DEFPOINTS
  6
BYBLOCK
 62
     0
100
AcDbPoint
 10
80.75692899999998
 20
195.595902
 30
0.0
  0
POINT
  5
471A
330
43DC
100
AcDbEntity
  8
DEFPOINTS
  6
BYBLOCK
 62
     0
100
AcDbPoint
 10
88.25692899999998
 20
201.1959019999999
 30
0.0
  0
POINT
  5
471B
330
43DC
100
AcDbEntity
  8
DEFPOINTS
  6
BYBLOCK
 62
     0
100
AcDbPoint
 10
76.0
 20
201.1959019999999
 30
0.0
  0
ENDBLK
  5
471C
330
43DC
100
AcDbEntity
  8
0
100
AcDbBlockEnd
  0
BLOCK
  5
444E
330
4432
100
AcDbEntity
  8
0
100
AcDbBlockBegin
  2
*D9
 70
     1
 10
0.0
 20
0.0
 30
0.0
  3
*D9
  1

  0
LINE
  5
444F
330
4432
100
AcDbEntity
  8
0
  6
BYBLOCK
100
AcDbLine
 10
78.55560699999998
 20
111.855185
 30
0.0
 11
74.75
 21
111.855185
 31
0.0
  0
LINE
  5
4450
330
4432
100
AcDbEntity
  8
0
  6
BYBLOCK
100
AcDbLine
 10
78.55560699999998
 20
134.055185
 30
0.0
 11
74.75
 21
134.055185
 31
0.0
  0
LINE
  5
4451
330
4432
100
AcDbEntity
  8
0
  6
BYBLOCK
100
AcDbLine
 10
76.0
 20
114.355185
 30
0.0
 11
76.0
 21
131.555185
 31
0.0
  0
SOLID
  5
4452
330
4432
100
AcDbEntity
  8
0
  6
BYBLOCK
100
AcDbTrace
 10
75.583333
 20
114.355185
 30
0.0
 11
76.416667
 21
114.355185
 31
0.0
 12
76.0
 22
111.855185
 32
0.0
 13
76.0
 23
111.855185
 33
0.0
  0
SOLID
  5
4453
330
4432
100
AcDbEntity
  8
0
  6
BYBLOCK
100
AcDbTrace
 10
75.583333
 20
131.555185
 30
0.0
 11
76.416667
 21
131.555185
 31
0.0
 12
76.0
 22
134.055185
 32
0.0
 13
76.0
 23
134.055185
 33
0.0
  0
MTEXT
  5
4454
330
4432
100
AcDbEntity
  8
0
  6
BYBLOCK
 62
     2
100
AcDbMText
 10
74.47131699999999
 20
122.955185
 30
0.0
 40
1.8
 41
0.0
 71
     5
 72
     5
  1
22.2
  7
FINDER
 11
0.0
 21
1.0
 31
0.0
1001
ACAD
1000
MTEXTBEGIN
1070
    73
1070
     1
1070
    44
1040
1.0
1070
    74
1070
     0
1000
MTEXTEND
1000
MTEXTBEGIN
1070
    73
1070
     1
1070
    44
1040
1.0
1070
    74
1070
     0
1000
MTEXTEND
1000
MTEXTBEGIN
1070
    73
1070
     1
1070
    44
1040
1.0
1070
    74
1070
     0
1000
MTEXTEND
1000
MTEXTBEGIN
1070
    73
1070
     1
1070
    44
1040
1.0
1070
    74
1070
     0
1000
MTEXTEND
  0
POINT
  5
4455
330
4432
100
AcDbEntity
  8
DEFPOINTS
  6
BYBLOCK
 62
     0
100
AcDbPoint
 10
80.55560699999999
 20
111.855185
 30
0.0
  0
POINT
  5
4456
330
4432
100
AcDbEntity
  8
DEFPOINTS
  6
BYBLOCK
 62
     0
100
AcDbPoint
 10
80.55560699999999
 20
134.055185
 30
0.0
  0
POINT
  5
4457
330
4432
100
AcDbEntity
  8
DEFPOINTS
  6
BYBLOCK
 62
     0
100
AcDbPoint
 10
76.0
 20
134.055185
 30
0.0
  0
ENDBLK
  5
4458
330
4432
100
AcDbEntity
  8
0
100
AcDbBlockEnd
  0
BLOCK
  5
471D
330
4495
100
AcDbEntity
  8
0
100
AcDbBlockBegin
  2
*D10
 70
     1
 10
0.0
 20
0.0
 30
0.0
  3
*D10
  1

  0
LINE
  5
471E
330
4495
100
AcDbEntity
  8
0
  6
BYBLOCK
100
AcDbLine
 10
83.0
 20
177.095902
 30
0.0
 11
83.0
 21
179.5959019999999
 31
0.0
  0
LINE
  5
471F
330
4495
100
AcDbEntity
  8
0
  6
BYBLOCK
100
AcDbLine
 10
83.0
 20
171.295902
 30
0.0
 11
83.0
 21
164.2651379999998
 31
0.0
  0
LINE
  5
4720
330
4495
100
AcDbEntity
  8
0
  6
BYBLOCK
100
AcDbLine
 10
83.0
 20
174.5959019999999
 30
0.0
 11
83.0
 21
173.795902
 31
0.0
  0
SOLID
  5
4721
330
4495
100
AcDbEntity
  8
0
  6
BYBLOCK
100
AcDbTrace
 10
82.583333
 20
177.095902
 30
0.0
 11
83.41666700000002
 21
177.095902
 31
0.0
 12
83.0
 22
174.5959019999999
 32
0.0
 13
83.0
 23
174.5959019999999
 33
0.0
  0
SOLID
  5
4722
330
4495
100
AcDbEntity
  8
0
  6
BYBLOCK
100
AcDbTrace
 10
82.583333
 20
171.295902
 30
0.0
 11
83.41666700000002
 21
171.295902
 31
0.0
 12
83.0
 22
173.795902
 32
0.0
 13
83.0
 23
173.795902
 33
0.0
  0
MTEXT
  5
4723
330
4495
100
AcDbEntity
  8
0
  6
BYBLOCK
 62
     2
100
AcDbMText
 10
81.45596899999999
 20
166.5305199999996
 30
0.0
 40
1.8
 41
0.0
 71
     5
 72
     5
  1
0.8
  7
FINDER
 11
0.0
 21
1.0
 31
0.0
1001
ACAD
1000
MTEXTBEGIN
1070
    73
1070
     1
1070
    44
1040
1.0
1070
    74
1070
     0
1000
MTEXTEND
1000
MTEXTBEGIN
1070
    73
1070
     1
1070
    44
1040
1.0
1070
    74
1070
     0
1000
MTEXTEND
1000
MTEXTBEGIN
1070
    73
1070
     1
1070
    44
1040
1.0
1070
    74
1070
     0
1000
MTEXTEND
1000
MTEXTBEGIN
1070
    73
1070
     1
1070
    44
1040
1.0
1070
    74
1070
     0
1000
MTEXTEND
  0
POINT
  5
4724
330
4495
100
AcDbEntity
  8
DEFPOINTS
  6
BYBLOCK
 62
     0
100
AcDbPoint
 10
84.55560699999997
 20
174.5959019999999
 30
0.0
  0
POINT
  5
4725
330
4495
100
AcDbEntity
  8
DEFPOINTS
  6
BYBLOCK
 62
     0
100
AcDbPoint
 10
84.55560699999997
 20
173.795902
 30
0.0
  0
POINT
  5
4726
330
4495
100
AcDbEntity
  8
DEFPOINTS
  6
BYBLOCK
 62
     0
100
AcDbPoint
 10
83.0
 20
173.795902
 30
0.0
  0
ENDBLK
  5
4727
330
4495
100
AcDbEntity
  8
0
100
AcDbBlockEnd
  0
BLOCK
  5
4728
330
44BA
100
AcDbEntity
  8
0
100
AcDbBlockBegin
  2
*D11
 70
     1
 10
0.0
 20
0.0
 30
0.0
  3
*D11
  1

  0
LINE
  5
4729
330
44BA
100
AcDbEntity
  8
0
  6
BYBLOCK
100
AcDbLine
 10
83.0
 20
130.805185
 30
0.0
 11
83.0
 21
128.305185
 31
0.0
  0
LINE
  5
472A
330
44BA
100
AcDbEntity
  8
0
  6
BYBLOCK
100
AcDbLine
 10
83.0
 20
137.305185
 30
0.0
 11
83.0
 21
144.531174
 31
0.0
  0
LINE
  5
472B
330
44BA
100
AcDbEntity
  8
0
  6
BYBLOCK
100
AcDbLine
 10
83.0
 20
133.305185
 30
0.0
 11
83.0
 21
134.805185
 31
0.0
  0
SOLID
  5
472C
330
44BA
100
AcDbEntity
  8
0
  6
BYBLOCK
100
AcDbTrace
 10
82.583333
 20
130.805185
 30
0.0
 11
83.41666700000002
 21
130.805185
 31
0.0
 12
83.0
 22
133.305185
 32
0.0
 13
83.0
 23
133.305185
 33
0.0
  0
SOLID
  5
472D
330
44BA
100
AcDbEntity
  8
0
  6
BYBLOCK
100
AcDbTrace
 10
82.583333
 20
137.305185
 30
0.0
 11
83.41666700000002
 21
137.305185
 31
0.0
 12
83.0
 22
134.805185
 32
0.0
 13
83.0
 23
134.805185
 33
0.0
  0
MTEXT
  5
472E
330
44BA
100
AcDbEntity
  8
0
  6
BYBLOCK
 62
     2
100
AcDbMText
 10
81.45596899999999
 20
142.1681799999998
 30
0.0
 40
1.8
 41
0.0
 71
     5
 72
     5
  1
1.5
  7
FINDER
 11
0.0
 21
1.0
 31
0.0
1001
ACAD
1000
MTEXTBEGIN
1070
    73
1070
     1
1070
    44
1040
1.0
1070
    74
1070
     0
1000
MTEXTEND
1000
MTEXTBEGIN
1070
    73
1070
     1
1070
    44
1040
1.0
1070
    74
1070
     0
1000
MTEXTEND
1000
MTEXTBEGIN
1070
    73
1070
     1
1070
    44
1040
1.0
1070
    74
1070
     0
1000
MTEXTEND
1000
MTEXTBEGIN
1070
    73
1070
     1
1070
    44
1040
1.0
1070
    74
1070
     0
1000
MTEXTEND
  0
POINT
  5
472F
330
44BA
100
AcDbEntity
  8
DEFPOINTS
  6
BYBLOCK
 62
     0
100
AcDbPoint
 10
81.555607
 20
133.305185
 30
0.0
  0
POINT
  5
4730
330
44BA
100
AcDbEntity
  8
DEFPOINTS
  6
BYBLOCK
 62
     0
100
AcDbPoint
 10
81.555607
 20
134.805185
 30
0.0
  0
POINT
  5
4731
330
44BA
100
AcDbEntity
  8
DEFPOINTS
  6
BYBLOCK
 62
     0
100
AcDbPoint
 10
83.0
 20
134.805185
 30
0.0
  0
ENDBLK
  5
4732
330
44BA
100
AcDbEntity
  8
0
100
AcDbBlockEnd
  0
BLOCK
  5
44EE
330
44DF
100
AcDbEntity
  8
0
100
AcDbBlockBegin
  2
*D12
 70
     1
 10
0.0
 20
0.0
 30
0.0
  3
*D12
  1

  0
LINE
  5
44EF
330
44DF
100
AcDbEntity
  8
0
  6
BYBLOCK
100
AcDbLine
 10
80.55560699999999
 20
109.8551849999999
 30
0.0
 11
80.55560699999999
 21
95.75000000000001
 31
0.0
  0
LINE
  5
44F0
330
44DF
100
AcDbEntity
  8
0
  6
BYBLOCK
100
AcDbLine
 10
84.55560699999997
 20
103.3051849999999
 30
0.0
 11
84.55560699999997
 21
95.75000000000001
 31
0.0
  0
LINE
  5
44F1
330
44DF
100
AcDbEntity
  8
0
  6
BYBLOCK
100
AcDbLine
 10
78.055607
 20
97.0
 30
0.0
 11
75.555607
 21
97.0
 31
0.0
  0
LINE
  5
44F2
330
44DF
100
AcDbEntity
  8
0
  6
BYBLOCK
100
AcDbLine
 10
87.05560699999997
 20
97.0
 30
0.0
 11
89.55560699999997
 21
97.0
 31
0.0
  0
LINE
  5
44F3
330
44DF
100
AcDbEntity
  8
0
  6
BYBLOCK
100
AcDbLine
 10
80.55560699999999
 20
97.0
 30
0.0
 11
84.55560699999997
 21
97.0
 31
0.0
  0
SOLID
  5
44F4
330
44DF
100
AcDbEntity
  8
0
  6
BYBLOCK
100
AcDbTrace
 10
78.055607
 20
97.41666700000001
 30
0.0
 11
78.055607
 21
96.583333
 31
0.0
 12
80.55560699999999
 22
97.0
 32
0.0
 13
80.55560699999999
 23
97.0
 33
0.0
  0
SOLID
  5
44F5
330
44DF
100
AcDbEntity
  8
0
  6
BYBLOCK
100
AcDbTrace
 10
87.05560699999997
 20
97.41666700000001
 30
0.0
 11
87.05560699999997
 21
96.583333
 31
0.0
 12
84.55560699999997
 22
97.0
 32
0.0
 13
84.55560699999997
 23
97.0
 33
0.0
  0
MTEXT
  5
44F6
330
44DF
100
AcDbEntity
  8
0
  6
BYBLOCK
 62
     2
100
AcDbMText
 10
82.555607
 20
98.525
 30
0.0
 40
1.8
 41
0.0
 71
     5
 72
     5
  1
4
  7
FINDER
1001
ACAD
1000
MTEXTBEGIN
1070
    73
1070
     1
1070
    44
1040
1.0
1070
    74
1070
     0
1000
MTEXTEND
1000
MTEXTBEGIN
1070
    73
1070
     1
1070
    44
1040
1.0
1070
    74
1070
     0
1000
MTEXTEND
1000
MTEXTBEGIN
1070
    73
1070
     1
1070
    44
1040
1.0
1070
    74
1070
     0
1000
MTEXTEND
1000
MTEXTBEGIN
1070
    73
1070
     1
1070
    44
1040
1.0
1070
    74
1070
     0
1000
MTEXTEND
  0
POINT
  5
44F7
330
44DF
100
AcDbEntity
  8
DEFPOINTS
  6
BYBLOCK
 62
     0
100
AcDbPoint
 10
80.55560699999999
 20
111.855185
 30
0.0
  0
POINT
  5
44F8
330
44DF
100
AcDbEntity
  8
DEFPOINTS
  6
BYBLOCK
 62
     0
100
AcDbPoint
 10
84.55560699999997
 20
105.305185
 30
0.0
  0
POINT
  5
44F9
330
44DF
100
AcDbEntity
  8
DEFPOINTS
  6
BYBLOCK
 62
     0
100
AcDbPoint
 10
84.55560699999997
 20
97.0
 30
0.0
  0
ENDBLK
  5
44FA
330
44DF
100
AcDbEntity
  8
0
100
AcDbBlockEnd
  0
BLOCK
  5
47C7
330
4738
100
AcDbEntity
  8
0
100
AcDbBlockBegin
  2
*X13
 70
     1
 10
0.0
 20
0.0
 30
0.0
  3
*X13
  1

  0
LINE
  5
4739
330
4738
100
AcDbEntity
  8
0
  6
CONTINUOUS
 62
     0
100
AcDbLine
 10
14.989467
 20
20.308874
 30
0.0
 11
15.516193
 21
20.83559999999998
 31
0.0
  0
LINE
  5
473A
330
4738
100
AcDbEntity
  8
0
  6
CONTINUOUS
 62
     0
100
AcDbLine
 10
14.112517
 20
19.714767
 30
0.0
 11
16.11029999999999
 21
21.71254999999999
 31
0.0
  0
LINE
  5
473B
330
4738
100
AcDbEntity
  8
0
  6
CONTINUOUS
 62
     0
100
AcDbLine
 10
13.596595
 20
19.481687
 30
0.0
 11
16.34338
 21
22.228473
 31
0.0
  0
LINE
  5
473C
330
4738
100
AcDbEntity
  8
0
  6
CONTINUOUS
 62
     0
100
AcDbLine
 10
13.174894
 20
19.342829
 30
0.0
 11
16.482238
 21
22.650174
 31
0.0
  0
LINE
  5
473D
330
4738
100
AcDbEntity
  8
0
  6
CONTINUOUS
 62
     0
100
AcDbLine
 10
12.804844
 20
19.25562199999999
 30
0.0
 11
16.569445
 21
23.020223
 31
0.0
  0
LINE
  5
473E
330
4738
100
AcDbEntity
  8
0
  6
CONTINUOUS
 62
     0
100
AcDbLine
 10
14.79535199999999
 20
21.528973
 30
0.0
 11
16.62213299999999
 21
23.355754
 31
0.0
  0
LINE
  5
473F
330
4738
100
AcDbEntity
  8
0
  6
CONTINUOUS
 62
     0
100
AcDbLine
 10
12.46931299999999
 20
19.202934
 30
0.0
 11
14.296095
 21
21.029715
 31
0.0
  0
LINE
  5
4740
330
4738
100
AcDbEntity
  8
0
  6
CONTINUOUS
 62
     0
100
AcDbLine
 10
15.29353599999999
 20
22.309999
 30
0.0
 11
16.649275
 21
23.665738
 31
0.0
  0
LINE
  5
4741
330
4738
100
AcDbEntity
  8
0
  6
CONTINUOUS
 62
     0
100
AcDbLine
 10
12.159329
 20
19.17579299999998
 30
0.0
 11
13.515068
 21
20.531532
 31
0.0
  0
LINE
  5
4742
330
4738
100
AcDbEntity
  8
0
  6
CONTINUOUS
 62
     0
100
AcDbLine
 10
15.479088
 20
22.77839399999999
 30
0.0
 11
16.656273
 21
23.955579
 31
0.0
  0
LINE
  5
4743
330
4738
100
AcDbEntity
  8
0
  6
CONTINUOUS
 62
     0
100
AcDbLine
 10
11.869488
 20
19.168795
 30
0.0
 11
13.046674
 21
20.34597999999998
 31
0.0
  0
LINE
  5
4744
330
4738
100
AcDbEntity
  8
0
  6
CONTINUOUS
 62
     0
100
AcDbLine
 10
15.580082
 20
23.16223099999999
 30
0.0
 11
16.646682
 21
24.22883099999999
 31
0.0
  0
LINE
  5
4745
330
4738
100
AcDbEntity
  8
0
  6
CONTINUOUS
 62
     0
100
AcDbLine
 10
11.59623599999999
 20
19.178385
 30
0.0
 11
12.662836
 21
20.24498499999999
 31
0.0
  0
LINE
  5
4746
330
4738
100
AcDbEntity
  8
0
  6
CONTINUOUS
 62
     0
100
AcDbLine
 10
12.654531
 20
20.51952299999999
 30
0.0
 11
13.323223
 21
21.188215
 31
0.0
  0
LINE
  5
4747
330
4738
100
AcDbEntity
  8
0
  6
CONTINUOUS
 62
     0
100
AcDbLine
 10
15.634125
 20
23.499117
 30
0.0
 11
16.62298599999999
 21
24.48797799999999
 31
0.0
  0
LINE
  5
4748
330
4738
100
AcDbEntity
  8
0
  6
CONTINUOUS
 62
     0
100
AcDbLine
 10
11.33709
 20
19.202082
 30
0.0
 11
12.325951
 21
20.190943
 31
0.0
  0
LINE
  5
4749
330
4738
100
AcDbEntity
  8
0
  6
CONTINUOUS
 62
     0
100
AcDbLine
 10
12.404347
 20
20.552181
 30
0.0
 11
13.323223
 21
21.471057
 31
0.0
  0
LINE
  5
474A
330
4738
100
AcDbEntity
  8
0
  6
CONTINUOUS
 62
     0
100
AcDbLine
 10
15.656425
 20
23.804259
 30
0.0
 11
16.586997
 21
24.734832
 31
0.0
  0
LINE
  5
474B
330
4738
100
AcDbEntity
  8
0
  6
CONTINUOUS
 62
     0
100
AcDbLine
 10
11.090236
 20
19.23807
 30
0.0
 11
12.020808
 21
20.16864299999999
 31
0.0
  0
LINE
  5
474C
330
4738
100
AcDbEntity
  8
0
  6
CONTINUOUS
 62
     0
100
AcDbLine
 10
12.212553
 20
20.64322999999999
 30
0.0
 11
13.323223
 21
21.7539
 31
0.0
  0
LINE
  5
474D
330
4738
100
AcDbEntity
  8
0
  6
CONTINUOUS
 62
     0
100
AcDbLine
 10
15.65496099999999
 20
24.085639
 30
0.0
 11
16.540085
 21
24.970762
 31
0.0
  0
LINE
  5
474E
330
4738
100
AcDbEntity
  8
0
  6
CONTINUOUS
 62
     0
100
AcDbLine
 10
10.854306
 20
19.284983
 30
0.0
 11
11.73942899999999
 21
20.170106
 31
0.0
  0
LINE
  5
474F
330
4738
100
AcDbEntity
  8
0
  6
CONTINUOUS
 62
     0
100
AcDbLine
 10
12.063213
 20
20.776733
 30
0.0
 11
13.323223
 21
22.03674299999998
 31
0.0
  0
LINE
  5
4750
330
4738
100
AcDbEntity
  8
0
  6
CONTINUOUS
 62
     0
100
AcDbLine
 10
15.634541
 20
24.34806
 30
0.0
 11
16.48330599999999
 21
25.196826
 31
0.0
  0
LINE
  5
4751
330
4738
100
AcDbEntity
  8
0
  6
CONTINUOUS
 62
     0
100
AcDbLine
 10
10.628242
 20
19.34176099999998
 30
0.0
 11
11.477007
 21
20.190527
 31
0.0
  0
LINE
  5
4752
330
4738
100
AcDbEntity
  8
0
  6
CONTINUOUS
 62
     0
100
AcDbLine
 10
11.920447
 20
20.916809
 30
0.0
 11
13.323223
 21
22.319586
 31
0.0
  0
LINE
  5
4753
330
4738
100
AcDbEntity
  8
0
  6
CONTINUOUS
 62
     0
100
AcDbLine
 10
15.598315
 20
24.594678
 30
0.0
 11
16.41749599999998
 21
25.413858
 31
0.0
  0
LINE
  5
4754
330
4738
100
AcDbEntity
  8
0
  6
CONTINUOUS
 62
     0
100
AcDbLine
 10
10.41120899999999
 20
19.407572
 30
0.0
 11
11.23039
 21
20.22675199999997
 31
0.0
  0
LINE
  5
4755
330
4738
100
AcDbEntity
  8
0
  6
CONTINUOUS
 62
     0
100
AcDbLine
 10
11.77768
 20
21.056886
 30
0.0
 11
13.323223
 21
22.60242799999998
 31
0.0
  0
LINE
  5
4756
330
4738
100
AcDbEntity
  8
0
  6
CONTINUOUS
 62
     0
100
AcDbLine
 10
15.548478
 20
24.827684
 30
0.0
 11
16.34332099999999
 21
25.622526
 31
0.0
  0
LINE
  5
4757
330
4738
100
AcDbEntity
  8
0
  6
CONTINUOUS
 62
     0
100
AcDbLine
 10
10.202541
 20
19.481747
 30
0.0
 11
10.997384
 21
20.276589
 31
0.0
  0
LINE
  5
4758
330
4738
100
AcDbEntity
  8
0
  6
CONTINUOUS
 62
     0
100
AcDbLine
 10
12.362923
 20
21.924971
 30
0.0
 11
13.323223
 21
22.885271
 31
0.0
  0
LINE
  5
4759
330
4738
100
AcDbEntity
  8
0
  6
CONTINUOUS
 62
     0
100
AcDbLine
 10
11.634914
 20
21.19696199999999
 30
0.0
 11
12.307877
 21
21.869925
 31
0.0
  0
LINE
  5
475A
330
4738
100
AcDbEntity
  8
0
  6
CONTINUOUS
 62
     0
100
AcDbLine
 10
15.486619
 20
25.048667
 30
0.0
 11
16.26132099999999
 21
25.823369
 31
0.0
  0
LINE
  5
475B
330
4738
100
AcDbEntity
  8
0
  6
CONTINUOUS
 62
     0
100
AcDbLine
 10
10.001699
 20
19.56374699999998
 30
0.0
 11
10.77640099999999
 21
20.338449
 31
0.0
  0
LINE
  5
475C
330
4738
100
AcDbEntity
  8
0
  6
CONTINUOUS
 62
     0
100
AcDbLine
 10
12.362923
 20
22.207814
 30
0.0
 11
13.323223
 21
23.168114
 31
0.0
  0
LINE
  5
475D
330
4738
100
AcDbEntity
  8
0
  6
CONTINUOUS
 62
     0
100
AcDbLine
 10
11.49214799999999
 20
21.33703899999998
 30
0.0
 11
12.172228
 21
22.017119
 31
0.0
  0
LINE
  5
475E
330
4738
100
AcDbEntity
  8
0
  6
CONTINUOUS
 62
     0
100
AcDbLine
 10
15.41392
 20
25.25881099999999
 30
0.0
 11
16.171934
 21
26.016825
 31
0.0
  0
LINE
  5
475F
330
4738
100
AcDbEntity
  8
0
  6
CONTINUOUS
 62
     0
100
AcDbLine
 10
9.808242999999999
 20
19.65313399999998
 30
0.0
 11
10.566257
 21
20.411147
 31
0.0
  0
LINE
  5
4760
330
4738
100
AcDbEntity
  8
0
  6
CONTINUOUS
 62
     0
100
AcDbLine
 10
12.362923
 20
22.490656
 30
0.0
 11
13.323223
 21
23.450956
 31
0.0
  0
LINE
  5
4761
330
4738
100
AcDbEntity
  8
0
  6
CONTINUOUS
 62
     0
100
AcDbLine
 10
14.38066
 20
24.508394
 30
0.0
 11
14.903943
 21
25.031677
 31
0.0
  0
LINE
  5
4762
330
4738
100
AcDbEntity
  8
0
  6
CONTINUOUS
 62
     0
100
AcDbLine
 10
11.349382
 20
21.47711499999999
 30
0.0
 11
12.03658
 21
22.16431299999999
 31
0.0
  0
LINE
  5
4763
330
4738
100
AcDbEntity
  8
0
  6
CONTINUOUS
 62
     0
100
AcDbLine
 10
15.33128299999999
 20
25.459017
 30
0.0
 11
16.07551799999999
 21
26.203251
 31
0.0
  0
LINE
  5
4764
330
4738
100
AcDbEntity
  8
0
  6
CONTINUOUS
 62
     0
100
AcDbLine
 10
9.621817
 20
19.74954999999998
 30
0.0
 11
10.36605099999998
 21
20.49378399999997
 31
0.0
  0
LINE
  5
4765
330
4738
100
AcDbEntity
  8
0
  6
CONTINUOUS
 62
     0
100
AcDbLine
 10
12.362923
 20
22.77349899999999
 30
0.0
 11
13.323223
 21
23.73379899999999
 31
0.0
  0
LINE
  5
4766
330
4738
100
AcDbEntity
  8
0
  6
CONTINUOUS
 62
     0
100
AcDbLine
 10
14.097817
 20
24.508394
 30
0.0
 11
14.840413
 21
25.25098999999999
 31
0.0
  0
LINE
  5
4767
330
4738
100
AcDbEntity
  8
0
  6
CONTINUOUS
 62
     0
100
AcDbLine
 10
11.206616
 20
21.617192
 30
0.0
 11
11.900931
 21
22.311507
 31
0.0
  0
LINE
  5
4768
330
4738
100
AcDbEntity
  8
0
  6
CONTINUOUS
 62
     0
100
AcDbLine
 10
15.2394
 20
25.649976
 30
0.0
 11
15.972362
 21
26.382939
 31
0.0
  0
LINE
  5
4769
330
4738
100
AcDbEntity
  8
0
  6
CONTINUOUS
 62
     0
100
AcDbLine
 10
9.442128999999999
 20
19.852705
 30
0.0
 11
10.175091
 21
20.58566799999999
 31
0.0
  0
LINE
  5
476A
330
4738
100
AcDbEntity
  8
0
  6
CONTINUOUS
 62
     0
100
AcDbLine
 10
12.362923
 20
23.056342
 30
0.0
 11
13.323223
 21
24.016642
 31
0.0
  0
LINE
  5
476B
330
4738
100
AcDbEntity
  8
0
  6
CONTINUOUS
 62
     0
100
AcDbLine
 10
13.814975
 20
24.508394
 30
0.0
 11
14.709087
 21
25.402506
 31
0.0
  0
LINE
  5
476C
330
4738
100
AcDbEntity
  8
0
  6
CONTINUOUS
 62
     0
100
AcDbLine
 10
11.063849
 20
21.757268
 30
0.0
 11
11.765282
 21
22.458701
 31
0.0
  0
LINE
  5
476D
330
4738
100
AcDbEntity
  8
0
  6
CONTINUOUS
 62
     0
100
AcDbLine
 10
15.13880499999999
 20
25.832223
 30
0.0
 11
15.86270299999999
 21
26.556122
 31
0.0
  0
LINE
  5
476E
330
4738
100
AcDbEntity
  8
0
  6
CONTINUOUS
 62
     0
100
AcDbLine
 10
9.268945
 20
19.962364
 30
0.0
 11
9.992843999999999
 21
20.686263
 31
0.0
  0
LINE
  5
476F
330
4738
100
AcDbEntity
  8
0
  6
CONTINUOUS
 62
     0
100
AcDbLine
 10
12.362923
 20
23.339185
 30
0.0
 11
13.323223
 21
24.299485
 31
0.0
  0
LINE
  5
4770
330
4738
100
AcDbEntity
  8
0
  6
CONTINUOUS
 62
     0
100
AcDbLine
 10
13.532132
 20
24.508394
 30
0.0
 11
14.51689299999999
 21
25.493154
 31
0.0
  0
LINE
  5
4771
330
4738
100
AcDbEntity
  8
0
  6
CONTINUOUS
 62
     0
100
AcDbLine
 10
10.921083
 20
21.897345
 30
0.0
 11
11.62963399999999
 21
22.605895
 31
0.0
  0
LINE
  5
4772
330
4738
100
AcDbEntity
  8
0
  6
CONTINUOUS
 62
     0
100
AcDbLine
 10
15.029907
 20
26.006168
 30
0.0
 11
15.74672699999999
 21
26.722988
 31
0.0
  0
LINE
  5
4773
330
4738
100
AcDbEntity
  8
0
  6
CONTINUOUS
 62
     0
100
AcDbLine
 10
9.102078999999999
 20
20.078341
 30
0.0
 11
9.818899
 21
20.795161
 31
0.0
  0
LINE
  5
4774
330
4738
100
AcDbEntity
  8
0
  6
CONTINUOUS
 62
     0
100
AcDbLine
 10
12.362923
 20
23.622027
 30
0.0
 11
14.244239
 21
25.503344
 31
0.0
  0
LINE
  5
4775
330
4738
100
AcDbEntity
  8
0
  6
CONTINUOUS
 62
     0
100
AcDbLine
 10
10.77831699999999
 20
22.03742099999999
 30
0.0
 11
11.49398499999999
 21
22.753089
 31
0.0
  0
LINE
  5
4776
330
4738
100
AcDbEntity
  8
0
  6
CONTINUOUS
 62
     0
100
AcDbLine
 10
14.913014
 20
26.172119
 30
0.0
 11
15.62457699999999
 21
26.88368099999999
 31
0.0
  0
LINE
  5
4777
330
4738
100
AcDbEntity
  8
0
  6
CONTINUOUS
 62
     0
100
AcDbLine
 10
8.941385999999997
 20
20.200491
 30
0.0
 11
9.652948999999999
 21
20.91205299999999
 31
0.0
  0
LINE
  5
4778
330
4738
100
AcDbEntity
  8
0
  6
CONTINUOUS
 62
     0
100
AcDbLine
 10
12.362923
 20
23.90487
 30
0.0
 11
13.96139699999999
 21
25.503344
 31
0.0
  0
LINE
  5
4779
330
4738
100
AcDbEntity
  8
0
  6
CONTINUOUS
 62
     0
100
AcDbLine
 10
10.635551
 20
22.17749799999999
 30
0.0
 11
11.35833599999999
 21
22.90028299999999
 31
0.0
  0
LINE
  5
477A
330
4738
100
AcDbEntity
  8
0
  6
CONTINUOUS
 62
     0
100
AcDbLine
 10
14.78835
 20
26.33029699999999
 30
0.0
 11
15.49636
 21
27.038307
 31
0.0
  0
LINE
  5
477B
330
4738
100
AcDbEntity
  8
0
  6
CONTINUOUS
 62
     0
100
AcDbLine
 10
8.786760000000001
 20
20.328707
 30
0.0
 11
9.494771
 21
21.036718
 31
0.0
  0
LINE
  5
477C
330
4738
100
AcDbEntity
  8
0
  6
CONTINUOUS
 62
     0
100
AcDbLine
 10
12.362923
 20
24.187713
 30
0.0
 11
13.678554
 21
25.503344
 31
0.0
  0
LINE
  5
477D
330
4738
100
AcDbEntity
  8
0
  6
CONTINUOUS
 62
     0
100
AcDbLine
 10
10.492785
 20
22.317574
 30
0.0
 11
11.222688
 21
23.047477
 31
0.0
  0
LINE
  5
477E
330
4738
100
AcDbEntity
  8
0
  6
CONTINUOUS
 62
     0
100
AcDbLine
 10
14.65606
 20
26.48085
 30
0.0
 11
15.362148
 21
27.186938
 31
0.0
  0
LINE
  5
477F
330
4738
100
AcDbEntity
  8
0
  6
CONTINUOUS
 62
     0
100
AcDbLine
 10
8.63813
 20
20.46291899999999
 30
0.0
 11
9.344217999999999
 21
21.16900799999998
 31
0.0
  0
LINE
  5
4780
330
4738
100
AcDbEntity
  8
0
  6
CONTINUOUS
 62
     0
100
AcDbLine
 10
12.362923
 20
24.47055499999999
 30
0.0
 11
13.39571099999999
 21
25.503344
 31
0.0
  0
LINE
  5
4781
330
4738
100
AcDbEntity
  8
0
  6
CONTINUOUS
 62
     0
100
AcDbLine
 10
10.35001799999998
 20
22.457651
 30
0.0
 11
11.087039
 21
23.194672
 31
0.0
  0
LINE
  5
4782
330
4738
100
AcDbEntity
  8
0
  6
CONTINUOUS
 62
     0
100
AcDbLine
 10
14.51622399999999
 20
26.623856
 30
0.0
 11
15.221979
 21
27.329612
 31
0.0
  0
LINE
  5
4783
330
4738
100
AcDbEntity
  8
0
  6
CONTINUOUS
 62
     0
100
AcDbLine
 10
8.495455999999999
 20
20.603088
 30
0.0
 11
9.201211
 21
21.308844
 31
0.0
  0
LINE
  5
4784
330
4738
100
AcDbEntity
  8
0
  6
CONTINUOUS
 62
     0
100
AcDbLine
 10
11.020368
 20
23.410844
 30
0.0
 11
11.41387299999998
 21
23.804348
 31
0.0
  0
LINE
  5
4785
330
4738
100
AcDbEntity
  8
0
  6
CONTINUOUS
 62
     0
100
AcDbLine
 10
12.362923
 20
24.753398
 30
0.0
 11
13.323223
 21
25.713698
 31
0.0
  0
LINE
  5
4786
330
4738
100
AcDbEntity
  8
0
  6
CONTINUOUS
 62
     0
100
AcDbLine
 10
10.20725199999999
 20
22.597727
 30
0.0
 11
10.951391
 21
23.341866
 31
0.0
  0
LINE
  5
4787
330
4738
100
AcDbEntity
  8
0
  6
CONTINUOUS
 62
     0
100
AcDbLine
 10
14.368854
 20
26.75933
 30
0.0
 11
15.07586
 21
27.466336
 31
0.0
  0
LINE
  5
4788
330
4738
100
AcDbEntity
  8
0
  6
CONTINUOUS
 62
     0
100
AcDbLine
 10
8.358731999999998
 20
20.749207
 30
0.0
 11
9.065737999999999
 21
21.456213
 31
0.0
  0
LINE
  5
4789
330
4738
100
AcDbEntity
  8
0
  6
CONTINUOUS
 62
     0
100
AcDbLine
 10
12.362923
 20
25.036241
 30
0.0
 11
13.323223
 21
25.996541
 31
0.0
  0
LINE
  5
478A
330
4738
100
AcDbEntity
  8
0
  6
CONTINUOUS
 62
     0
100
AcDbLine
 10
10.064486
 20
22.737804
 30
0.0
 11
11.41387299999998
 21
24.087191
 31
0.0
  0
LINE
  5
478B
330
4738
100
AcDbEntity
  8
0
  6
CONTINUOUS
 62
     0
100
AcDbLine
 10
14.213901
 20
26.887219
 30
0.0
 11
14.923766
 21
27.597084
 31
0.0
  0
LINE
  5
478C
330
4738
100
AcDbEntity
  8
0
  6
CONTINUOUS
 62
     0
100
AcDbLine
 10
8.227983
 20
20.901301
 30
0.0
 11
8.937847999999997
 21
21.611166
 31
0.0
  0
LINE
  5
478D
330
4738
100
AcDbEntity
  8
0
  6
CONTINUOUS
 62
     0
100
AcDbLine
 10
12.362923
 20
25.319084
 30
0.0
 11
13.323223
 21
26.279384
 31
0.0
  0
LINE
  5
478E
330
4738
100
AcDbEntity
  8
0
  6
CONTINUOUS
 62
     0
100
AcDbLine
 10
9.92172
 20
22.87787999999999
 30
0.0
 11
11.41387299999998
 21
24.370034
 31
0.0
  0
LINE
  5
478F
330
4738
100
AcDbEntity
  8
0
  6
CONTINUOUS
 62
     0
100
AcDbLine
 10
14.05124599999999
 20
27.007407
 30
0.0
 11
14.76563999999999
 21
27.7218
 31
0.0
  0
LINE
  5
4790
330
4738
100
AcDbEntity
  8
0
  6
CONTINUOUS
 62
     0
100
AcDbLine
 10
8.103267
 20
21.059428
 30
0.0
 11
8.81766
 21
21.77382099999999
 31
0.0
  0
LINE
  5
4791
330
4738
100
AcDbEntity
  8
0
  6
CONTINUOUS
 62
     0
100
AcDbLine
 10
12.362923
 20
25.601926
 30
0.0
 11
13.323223
 21
26.562226
 31
0.0
  0
LINE
  5
4792
330
4738
100
AcDbEntity
  8
0
  6
CONTINUOUS
 62
     0
100
AcDbLine
 10
9.778953999999997
 20
23.017957
 30
0.0
 11
11.41387299999998
 21
24.652876
 31
0.0
  0
LINE
  5
4793
330
4738
100
AcDbEntity
  8
0
  6
CONTINUOUS
 62
     0
100
AcDbLine
 10
13.880701
 20
27.119704
 30
0.0
 11
14.601389
 21
27.840392
 31
0.0
  0
LINE
  5
4794
330
4738
100
AcDbEntity
  8
0
  6
CONTINUOUS
 62
     0
100
AcDbLine
 10
7.984675
 20
21.223678
 30
0.0
 11
8.705363999999999
 21
21.944367
 31
0.0
  0
LINE
  5
4795
330
4738
100
AcDbEntity
  8
0
  6
CONTINUOUS
 62
     0
100
AcDbLine
 10
12.362923
 20
25.88476899999999
 30
0.0
 11
13.323223
 21
26.845069
 31
0.0
  0
LINE
  5
4796
330
4738
100
AcDbEntity
  8
0
  6
CONTINUOUS
 62
     0
100
AcDbLine
 10
9.636186999999999
 20
23.158033
 30
0.0
 11
11.41387299999998
 21
24.935719
 31
0.0
  0
LINE
  5
4797
330
4738
100
AcDbEntity
  8
0
  6
CONTINUOUS
 62
     0
100
AcDbLine
 10
13.701993
 20
27.223839
 30
0.0
 11
14.430886
 21
27.952732
 31
0.0
  0
LINE
  5
4798
330
4738
100
AcDbEntity
  8
0
  6
CONTINUOUS
 62
     0
100
AcDbLine
 10
7.872335
 20
21.39418099999998
 30
0.0
 11
8.601228
 21
22.12307399999999
 31
0.0
  0
LINE
  5
4799
330
4738
100
AcDbEntity
  8
0
  6
CONTINUOUS
 62
     0
100
AcDbLine
 10
12.362923
 20
26.167612
 30
0.0
 11
13.323223
 21
27.12791199999999
 31
0.0
  0
LINE
  5
479A
330
4738
100
AcDbEntity
  8
0
  6
CONTINUOUS
 62
     0
100
AcDbLine
 10
9.493420999999999
 20
23.29811
 30
0.0
 11
11.41387299999998
 21
25.218562
 31
0.0
  0
LINE
  5
479B
330
4738
100
AcDbEntity
  8
0
  6
CONTINUOUS
 62
     0
100
AcDbLine
 10
13.51476
 20
27.31944799999999
 30
0.0
 11
14.253964
 21
28.058653
 31
0.0
  0
LINE
  5
479C
330
4738
100
AcDbEntity
  8
0
  6
CONTINUOUS
 62
     0
100
AcDbLine
 10
7.766414999999997
 20
21.571104
 30
0.0
 11
8.505618999999999
 21
22.310308
 31
0.0
  0
LINE
  5
479D
330
4738
100
AcDbEntity
  8
0
  6
CONTINUOUS
 62
     0
100
AcDbLine
 10
10.46482299999998
 20
24.552354
 30
0.0
 11
11.41387299999998
 21
25.501404
 31
0.0
  0
LINE
  5
479E
330
4738
100
AcDbEntity
  8
0
  6
CONTINUOUS
 62
     0
100
AcDbLine
 10
9.323311999999999
 20
23.410844
 30
0.0
 11
10.34121199999999
 21
24.428744
 31
0.0
  0
LINE
  5
479F
330
4738
100
AcDbEntity
  8
0
  6
CONTINUOUS
 62
     0
100
AcDbLine
 10
12.362923
 20
26.45045399999998
 30
0.0
 11
14.07040799999998
 21
28.157939
 31
0.0
  0
LINE
  5
47A0
330
4738
100
AcDbEntity
  8
0
  6
CONTINUOUS
 62
     0
100
AcDbLine
 10
7.667127999999999
 20
21.75466
 30
0.0
 11
8.419014
 21
22.506545
 31
0.0
  0
LINE
  5
47A1
330
4738
100
AcDbEntity
  8
0
  6
CONTINUOUS
 62
     0
100
AcDbLine
 10
10.46482299999998
 20
24.835197
 30
0.0
 11
11.41387299999998
 21
25.784247
 31
0.0
  0
LINE
  5
47A2
330
4738
100
AcDbEntity
  8
0
  6
CONTINUOUS
 62
     0
100
AcDbLine
 10
9.040468999999999
 20
23.410844
 30
0.0
 11
10.058369
 21
24.428744
 31
0.0
  0
LINE
  5
47A3
330
4738
100
AcDbEntity
  8
0
  6
CONTINUOUS
 62
     0
100
AcDbLine
 10
12.362923
 20
26.733297
 30
0.0
 11
13.87995199999999
 21
28.250326
 31
0.0
  0
LINE
  5
47A4
330
4738
100
AcDbEntity
  8
0
  6
CONTINUOUS
 62
     0
100
AcDbLine
 10
7.574741
 20
21.94511599999999
 30
0.0
 11
8.342033999999998
 21
22.712408
 31
0.0
  0
LINE
  5
47A5
330
4738
100
AcDbEntity
  8
0
  6
CONTINUOUS
 62
     0
100
AcDbLine
 10
10.46482299999998
 20
25.11804
 30
0.0
 11
11.41387299999998
 21
26.06709
 31
0.0
  0
LINE
  5
47A6
330
4738
100
AcDbEntity
  8
0
  6
CONTINUOUS
 62
     0
100
AcDbLine
 10
8.757627000000001
 20
23.410844
 30
0.0
 11
9.775527
 21
24.428744
 31
0.0
  0
LINE
  5
47A7
330
4738
100
AcDbEntity
  8
0
  6
CONTINUOUS
 62
     0
100
AcDbLine
 10
12.362923
 20
27.01614
 30
0.0
 11
13.682269
 21
28.335486
 31
0.0
  0
LINE
  5
47A8
330
4738
100
AcDbEntity
  8
0
  6
CONTINUOUS
 62
     0
100
AcDbLine
 10
7.489582
 20
22.142799
 30
0.0
 11
8.275484
 21
22.928701
 31
0.0
  0
LINE
  5
47A9
330
4738
100
AcDbEntity
  8
0
  6
CONTINUOUS
 62
     0
100
AcDbLine
 10
10.46482299999998
 20
25.400883
 30
0.0
 11
11.41387299999998
 21
26.349933
 31
0.0
  0
LINE
  5
47AA
330
4738
100
AcDbEntity
  8
0
  6
CONTINUOUS
 62
     0
100
AcDbLine
 10
8.474783999999999
 20
23.410844
 30
0.0
 11
9.492683999999997
 21
24.428744
 31
0.0
  0
LINE
  5
47AB
330
4738
100
AcDbEntity
  8
0
  6
CONTINUOUS
 62
     0
100
AcDbLine
 10
12.362923
 20
27.298983
 30
0.0
 11
13.47695599999999
 21
28.41301599999999
 31
0.0
  0
LINE
  5
47AC
330
4738
100
AcDbEntity
  8
0
  6
CONTINUOUS
 62
     0
100
AcDbLine
 10
7.412052
 20
22.34811099999999
 30
0.0
 11
8.220416999999999
 21
23.15647699999999
 31
0.0
  0
LINE
  5
47AD
330
4738
100
AcDbEntity
  8
0
  6
CONTINUOUS
 62
     0
100
AcDbLine
 10
10.46482299999998
 20
25.683725
 30
0.0
 11
11.41387299999998
 21
26.63277499999999
 31
0.0
  0
LINE
  5
47AE
330
4738
100
AcDbEntity
  8
0
  6
CONTINUOUS
 62
     0
100
AcDbLine
 10
8.191940999999998
 20
23.410844
 30
0.0
 11
9.209841
 21
24.428744
 31
0.0
  0
LINE
  5
47AF
330
4738
100
AcDbEntity
  8
0
  6
CONTINUOUS
 62
     0
100
AcDbLine
 10
12.362923
 20
27.581825
 30
0.0
 11
13.26352
 21
28.48242299999999
 31
0.0
  0
LINE
  5
47B0
330
4738
100
AcDbEntity
  8
0
  6
CONTINUOUS
 62
     0
100
AcDbLine
 10
7.342645
 20
22.561547
 30
0.0
 11
8.178233
 21
23.397136
 31
0.0
  0
LINE
  5
47B1
330
4738
100
AcDbEntity
  8
0
  6
CONTINUOUS
 62
     0
100
AcDbLine
 10
10.46482299999998
 20
25.96656799999999
 30
0.0
 11
11.41387299999998
 21
26.915618
 31
0.0
  0
LINE
  5
47B2
330
4738
100
AcDbEntity
  8
0
  6
CONTINUOUS
 62
     0
100
AcDbLine
 10
12.17248399999999
 20
27.67422899999999
 30
0.0
 11
13.04135099999998
 21
28.543096
 31
0.0
  0
LINE
  5
47B3
330
4738
100
AcDbEntity
  8
0
  6
CONTINUOUS
 62
     0
100
AcDbLine
 10
7.281971
 20
22.783716
 30
0.0
 11
8.926999
 21
24.428744
 31
0.0
  0
LINE
  5
47B4
330
4738
100
AcDbEntity
  8
0
  6
CONTINUOUS
 62
     0
100
AcDbLine
 10
10.46482299999998
 20
26.249411
 30
0.0
 11
11.41387299999998
 21
27.19846099999999
 31
0.0
  0
LINE
  5
47B5
330
4738
100
AcDbEntity
  8
0
  6
CONTINUOUS
 62
     0
100
AcDbLine
 10
11.899556
 20
27.684144
 30
0.0
 11
12.809691
 21
28.594279
 31
0.0
  0
LINE
  5
47B6
330
4738
100
AcDbEntity
  8
0
  6
CONTINUOUS
 62
     0
100
AcDbLine
 10
7.230788
 20
23.015376
 30
0.0
 11
8.644156
 21
24.428744
 31
0.0
  0
LINE
  5
47B7
330
4738
100
AcDbEntity
  8
0
  6
CONTINUOUS
 62
     0
100
AcDbLine
 10
10.46482299999998
 20
26.532253
 30
0.0
 11
11.41387299999998
 21
27.481303
 31
0.0
  0
LINE
  5
47B8
330
4738
100
AcDbEntity
  8
0
  6
CONTINUOUS
 62
     0
100
AcDbLine
 10
11.605159
 20
27.672589
 30
0.0
 11
12.567584
 21
28.635015
 31
0.0
  0
LINE
  5
47B9
330
4738
100
AcDbEntity
  8
0
  6
CONTINUOUS
 62
     0
100
AcDbLine
 10
7.190052
 20
23.25748299999998
 30
0.0
 11
8.361313
 21
24.428744
 31
0.0
  0
LINE
  5
47BA
330
4738
100
AcDbEntity
  8
0
  6
CONTINUOUS
 62
     0
100
AcDbLine
 10
10.46482299999998
 20
26.815096
 30
0.0
 11
12.313807
 21
28.66407999999999
 31
0.0
  0
LINE
  5
47BB
330
4738
100
AcDbEntity
  8
0
  6
CONTINUOUS
 62
     0
100
AcDbLine
 10
7.160988
 20
23.51126099999999
 30
0.0
 11
8.191864
 21
24.542137
 31
0.0
  0
LINE
  5
47BC
330
4738
100
AcDbEntity
  8
0
  6
CONTINUOUS
 62
     0
100
AcDbLine
 10
10.46482299999998
 20
27.097939
 30
0.0
 11
12.046753
 21
28.679869
 31
0.0
  0
LINE
  5
47BD
330
4738
100
AcDbEntity
  8
0
  6
CONTINUOUS
 62
     0
100
AcDbLine
 10
7.145197999999997
 20
23.778314
 30
0.0
 11
8.270421
 21
24.903537
 31
0.0
  0
LINE
  5
47BE
330
4738
100
AcDbEntity
  8
0
  6
CONTINUOUS
 62
     0
100
AcDbLine
 10
10.46482299999998
 20
27.380782
 30
0.0
 11
11.76425899999999
 21
28.68021699999999
 31
0.0
  0
LINE
  5
47BF
330
4738
100
AcDbEntity
  8
0
  6
CONTINUOUS
 62
     0
100
AcDbLine
 10
7.144849999999999
 20
24.060809
 30
0.0
 11
8.412672
 21
25.328631
 31
0.0
  0
LINE
  5
47C0
330
4738
100
AcDbEntity
  8
0
  6
CONTINUOUS
 62
     0
100
AcDbLine
 10
9.92464
 20
27.12344099999999
 30
0.0
 11
11.463286
 21
28.66208699999999
 31
0.0
  0
LINE
  5
47C1
330
4738
100
AcDbEntity
  8
0
  6
CONTINUOUS
 62
     0
100
AcDbLine
 10
7.16298
 20
24.361781
 30
0.0
 11
8.701625999999999
 21
25.900428
 31
0.0
  0
LINE
  5
47C2
330
4738
100
AcDbEntity
  8
0
  6
CONTINUOUS
 62
     0
100
AcDbLine
 10
7.204077999999999
 20
24.685722
 30
0.0
 11
11.139345
 21
28.620989
 31
0.0
  0
LINE
  5
47C3
330
4738
100
AcDbEntity
  8
0
  6
CONTINUOUS
 62
     0
100
AcDbLine
 10
7.275296
 20
25.03978299999999
 30
0.0
 11
10.785285
 21
28.549771
 31
0.0
  0
LINE
  5
47C4
330
4738
100
AcDbEntity
  8
0
  6
CONTINUOUS
 62
     0
100
AcDbLine
 10
7.389392999999999
 20
25.436722
 30
0.0
 11
10.38834499999998
 21
28.435675
 31
0.0
  0
LINE
  5
47C5
330
4738
100
AcDbEntity
  8
0
  6
CONTINUOUS
 62
     0
100
AcDbLine
 10
7.574053999999997
 20
25.904226
 30
0.0
 11
9.920840999999999
 21
28.251013
 31
0.0
  0
LINE
  5
47C6
330
4738
100
AcDbEntity
  8
0
  6
CONTINUOUS
 62
     0
100
AcDbLine
 10
7.923914999999999
 20
26.53693
 30
0.0
 11
9.288138
 21
27.901153
 31
0.0
  0
ENDBLK
  5
47C8
330
4738
100
AcDbEntity
  8
0
100
AcDbBlockEnd
  0
BLOCK
  5
47E7
330
47C9
100
AcDbEntity
  8
0
100
AcDbBlockBegin
  2
*X14
 70
     1
 10
0.0
 20
0.0
 30
0.0
  3
*X14
  1

  0
LINE
  5
47CA
330
47C9
100
AcDbEntity
  8
0
  6
CONTINUOUS
 62
     0
100
AcDbLine
 10
20.403855
 20
20.63209399999998
 30
0.0
 11
20.470123
 21
20.69836099999998
 31
0.0
  0
LINE
  5
47CB
330
47C9
100
AcDbEntity
  8
0
  6
CONTINUOUS
 62
     0
100
AcDbLine
 10
20.121013
 20
20.63209399999998
 30
0.0
 11
20.470123
 21
20.981204
 31
0.0
  0
LINE
  5
47CC
330
47C9
100
AcDbEntity
  8
0
  6
CONTINUOUS
 62
     0
100
AcDbLine
 10
19.83817
 20
20.63209399999998
 30
0.0
 11
20.470123
 21
21.264047
 31
0.0
  0
LINE
  5
47CD
330
47C9
100
AcDbEntity
  8
0
  6
CONTINUOUS
 62
     0
100
AcDbLine
 10
19.555327
 20
20.63209399999998
 30
0.0
 11
20.470123
 21
21.546889
 31
0.0
  0
LINE
  5
47CE
330
47C9
100
AcDbEntity
  8
0
  6
CONTINUOUS
 62
     0
100
AcDbLine
 10
19.27248399999998
 20
20.63209399999998
 30
0.0
 11
20.470123
 21
21.829732
 31
0.0
  0
LINE
  5
47CF
330
47C9
100
AcDbEntity
  8
0
  6
CONTINUOUS
 62
     0
100
AcDbLine
 10
18.98964199999999
 20
20.63209399999998
 30
0.0
 11
20.470123
 21
22.11257499999998
 31
0.0
  0
LINE
  5
47D0
330
47C9
100
AcDbEntity
  8
0
  6
CONTINUOUS
 62
     0
100
AcDbLine
 10
18.706799
 20
20.63209399999998
 30
0.0
 11
20.470123
 21
22.395418
 31
0.0
  0
LINE
  5
47D1
330
47C9
100
AcDbEntity
  8
0
  6
CONTINUOUS
 62
     0
100
AcDbLine
 10
18.674623
 20
20.88276
 30
0.0
 11
20.470123
 21
22.67826
 31
0.0
  0
LINE
  5
47D2
330
47C9
100
AcDbEntity
  8
0
  6
CONTINUOUS
 62
     0
100
AcDbLine
 10
20.919864
 20
23.410844
 30
0.0
 11
21.087523
 21
23.578503
 31
0.0
  0
LINE
  5
47D3
330
47C9
100
AcDbEntity
  8
0
  6
CONTINUOUS
 62
     0
100
AcDbLine
 10
18.674623
 20
21.165603
 30
0.0
 11
20.470123
 21
22.961103
 31
0.0
  0
LINE
  5
47D4
330
47C9
100
AcDbEntity
  8
0
  6
CONTINUOUS
 62
     0
100
AcDbLine
 10
20.63702099999998
 20
23.410844
 30
0.0
 11
21.087523
 21
23.86134599999999
 31
0.0
  0
LINE
  5
47D5
330
47C9
100
AcDbEntity
  8
0
  6
CONTINUOUS
 62
     0
100
AcDbLine
 10
18.674623
 20
21.448446
 30
0.0
 11
20.470123
 21
23.24394599999999
 31
0.0
  0
LINE
  5
47D6
330
47C9
100
AcDbEntity
  8
0
  6
CONTINUOUS
 62
     0
100
AcDbLine
 10
18.674623
 20
21.731288
 30
0.0
 11
21.087523
 21
24.14418799999999
 31
0.0
  0
LINE
  5
47D7
330
47C9
100
AcDbEntity
  8
0
  6
CONTINUOUS
 62
     0
100
AcDbLine
 10
18.674623
 20
22.01413099999999
 30
0.0
 11
21.087523
 21
24.427031
 31
0.0
  0
LINE
  5
47D8
330
47C9
100
AcDbEntity
  8
0
  6
CONTINUOUS
 62
     0
100
AcDbLine
 10
18.674623
 20
22.296974
 30
0.0
 11
20.886043
 21
24.508394
 31
0.0
  0
LINE
  5
47D9
330
47C9
100
AcDbEntity
  8
0
  6
CONTINUOUS
 62
     0
100
AcDbLine
 10
21.02665
 20
24.931844
 30
0.0
 11
21.087523
 21
24.992717
 31
0.0
  0
LINE
  5
47DA
330
47C9
100
AcDbEntity
  8
0
  6
CONTINUOUS
 62
     0
100
AcDbLine
 10
18.674623
 20
22.579817
 30
0.0
 11
20.6032
 21
24.508394
 31
0.0
  0
LINE
  5
47DB
330
47C9
100
AcDbEntity
  8
0
  6
CONTINUOUS
 62
     0
100
AcDbLine
 10
20.743807
 20
24.931844
 30
0.0
 11
21.087523
 21
25.275559
 31
0.0
  0
LINE
  5
47DC
330
47C9
100
AcDbEntity
  8
0
  6
CONTINUOUS
 62
     0
100
AcDbLine
 10
18.674623
 20
22.862659
 30
0.0
 11
20.43397699999998
 21
24.622013
 31
0.0
  0
LINE
  5
47DD
330
47C9
100
AcDbEntity
  8
0
  6
CONTINUOUS
 62
     0
100
AcDbLine
 10
18.674623
 20
23.145502
 30
0.0
 11
21.087523
 21
25.558402
 31
0.0
  0
LINE
  5
47DE
330
47C9
100
AcDbEntity
  8
0
  6
CONTINUOUS
 62
     0
100
AcDbLine
 10
18.657122
 20
23.410844
 30
0.0
 11
21.08127199999997
 21
25.834994
 31
0.0
  0
LINE
  5
47DF
330
47C9
100
AcDbEntity
  8
0
  6
CONTINUOUS
 62
     0
100
AcDbLine
 10
18.374279
 20
23.410844
 30
0.0
 11
20.798429
 21
25.834994
 31
0.0
  0
LINE
  5
47E0
330
47C9
100
AcDbEntity
  8
0
  6
CONTINUOUS
 62
     0
100
AcDbLine
 10
18.137323
 20
23.45673
 30
0.0
 11
20.51558599999999
 21
25.834994
 31
0.0
  0
LINE
  5
47E1
330
47C9
100
AcDbEntity
  8
0
  6
CONTINUOUS
 62
     0
100
AcDbLine
 10
18.137323
 20
23.739573
 30
0.0
 11
20.232744
 21
25.834994
 31
0.0
  0
LINE
  5
47E2
330
47C9
100
AcDbEntity
  8
0
  6
CONTINUOUS
 62
     0
100
AcDbLine
 10
18.674623
 20
24.559716
 30
0.0
 11
19.949901
 21
25.834994
 31
0.0
  0
LINE
  5
47E3
330
47C9
100
AcDbEntity
  8
0
  6
CONTINUOUS
 62
     0
100
AcDbLine
 10
18.137323
 20
24.02241599999999
 30
0.0
 11
18.623301
 21
24.508394
 31
0.0
  0
LINE
  5
47E4
330
47C9
100
AcDbEntity
  8
0
  6
CONTINUOUS
 62
     0
100
AcDbLine
 10
18.674623
 20
24.842558
 30
0.0
 11
19.66705799999997
 21
25.834994
 31
0.0
  0
LINE
  5
47E5
330
47C9
100
AcDbEntity
  8
0
  6
CONTINUOUS
 62
     0
100
AcDbLine
 10
18.137323
 20
24.30525799999999
 30
0.0
 11
18.34045799999998
 21
24.508394
 31
0.0
  0
LINE
  5
47E6
330
47C9
100
AcDbEntity
  8
0
  6
CONTINUOUS
 62
     0
100
AcDbLine
 10
18.70280499999998
 20
25.15358299999999
 30
0.0
 11
19.356077
 21
25.80685499999999
 31
0.0
  0
ENDBLK
  5
47E8
330
47C9
100
AcDbEntity
  8
0
100
AcDbBlockEnd
  0
BLOCK
  5
47F4
330
47E9
100
AcDbEntity
  8
0
100
AcDbBlockBegin
  2
*X15
 70
     1
 10
0.0
 20
0.0
 30
0.0
  3
*X15
  1

  0
LINE
  5
47EA
330
47E9
100
AcDbEntity
  8
0
  6
CONTINUOUS
 62
     0
100
AcDbLine
 10
23.583484
 20
24.943094
 30
0.0
 11
23.625973
 21
24.985582
 31
0.0
  0
LINE
  5
47EB
330
47E9
100
AcDbEntity
  8
0
  6
CONTINUOUS
 62
     0
100
AcDbLine
 10
23.300642
 20
24.943094
 30
0.0
 11
23.625973
 21
25.268425
 31
0.0
  0
LINE
  5
47EC
330
47E9
100
AcDbEntity
  8
0
  6
CONTINUOUS
 62
     0
100
AcDbLine
 10
23.017799
 20
24.943094
 30
0.0
 11
23.625973
 21
25.551268
 31
0.0
  0
LINE
  5
47ED
330
47E9
100
AcDbEntity
  8
0
  6
CONTINUOUS
 62
     0
100
AcDbLine
 10
22.73495599999999
 20
24.943094
 30
0.0
 11
23.625973
 21
25.83410999999999
 31
0.0
  0
LINE
  5
47EE
330
47E9
100
AcDbEntity
  8
0
  6
CONTINUOUS
 62
     0
100
AcDbLine
 10
22.452114
 20
24.943094
 30
0.0
 11
23.344014
 21
25.834994
 31
0.0
  0
LINE
  5
47EF
330
47E9
100
AcDbEntity
  8
0
  6
CONTINUOUS
 62
     0
100
AcDbLine
 10
22.16927099999999
 20
24.943094
 30
0.0
 11
23.06117099999999
 21
25.834994
 31
0.0
  0
LINE
  5
47F0
330
47E9
100
AcDbEntity
  8
0
  6
CONTINUOUS
 62
     0
100
AcDbLine
 10
21.88642799999999
 20
24.943094
 30
0.0
 11
22.778328
 21
25.834994
 31
0.0
  0
LINE
  5
47F1
330
47E9
100
AcDbEntity
  8
0
  6
CONTINUOUS
 62
     0
100
AcDbLine
 10
21.807973
 20
25.147481
 30
0.0
 11
22.495485
 21
25.834994
 31
0.0
  0
LINE
  5
47F2
330
47E9
100
AcDbEntity
  8
0
  6
CONTINUOUS
 62
     0
100
AcDbLine
 10
21.807973
 20
25.43032399999999
 30
0.0
 11
22.212643
 21
25.834994
 31
0.0
  0
LINE
  5
47F3
330
47E9
100
AcDbEntity
  8
0
  6
CONTINUOUS
 62
     0
100
AcDbLine
 10
21.807973
 20
25.713167
 30
0.0
 11
21.92979999999999
 21
25.834994
 31
0.0
  0
ENDBLK
  5
47F5
330
47E9
100
AcDbEntity
  8
0
100
AcDbBlockEnd
  0
BLOCK
  5
480B
330
47F6
100
AcDbEntity
  8
0
100
AcDbBlockBegin
  2
*X16
 70
     1
 10
0.0
 20
0.0
 30
0.0
  3
*X16
  1

  0
LINE
  5
47F7
330
47F6
100
AcDbEntity
  8
0
  6
CONTINUOUS
 62
     0
100
AcDbLine
 10
23.515125
 20
20.63209399999998
 30
0.0
 11
23.625973
 21
20.742941
 31
0.0
  0
LINE
  5
47F8
330
47F6
100
AcDbEntity
  8
0
  6
CONTINUOUS
 62
     0
100
AcDbLine
 10
23.232282
 20
20.63209399999998
 30
0.0
 11
23.625973
 21
21.025784
 31
0.0
  0
LINE
  5
47F9
330
47F6
100
AcDbEntity
  8
0
  6
CONTINUOUS
 62
     0
100
AcDbLine
 10
22.94944
 20
20.63209399999998
 30
0.0
 11
23.625973
 21
21.30862699999998
 31
0.0
  0
LINE
  5
47FA
330
47F6
100
AcDbEntity
  8
0
  6
CONTINUOUS
 62
     0
100
AcDbLine
 10
22.66659699999999
 20
20.63209399999998
 30
0.0
 11
23.625973
 21
21.59147
 31
0.0
  0
LINE
  5
47FB
330
47F6
100
AcDbEntity
  8
0
  6
CONTINUOUS
 62
     0
100
AcDbLine
 10
22.383754
 20
20.63209399999998
 30
0.0
 11
23.625973
 21
21.874312
 31
0.0
  0
LINE
  5
47FC
330
47F6
100
AcDbEntity
  8
0
  6
CONTINUOUS
 62
     0
100
AcDbLine
 10
22.100912
 20
20.63209399999998
 30
0.0
 11
23.625973
 21
22.15715499999999
 31
0.0
  0
LINE
  5
47FD
330
47F6
100
AcDbEntity
  8
0
  6
CONTINUOUS
 62
     0
100
AcDbLine
 10
21.818069
 20
20.63209399999998
 30
0.0
 11
23.625973
 21
22.439998
 31
0.0
  0
LINE
  5
47FE
330
47F6
100
AcDbEntity
  8
0
  6
CONTINUOUS
 62
     0
100
AcDbLine
 10
21.807973
 20
20.90484
 30
0.0
 11
23.625973
 21
22.72283999999999
 31
0.0
  0
LINE
  5
47FF
330
47F6
100
AcDbEntity
  8
0
  6
CONTINUOUS
 62
     0
100
AcDbLine
 10
21.807973
 20
21.187683
 30
0.0
 11
23.625973
 21
23.00568299999999
 31
0.0
  0
LINE
  5
4800
330
47F6
100
AcDbEntity
  8
0
  6
CONTINUOUS
 62
     0
100
AcDbLine
 10
21.807973
 20
21.47052599999998
 30
0.0
 11
23.625973
 21
23.288526
 31
0.0
  0
LINE
  5
4801
330
47F6
100
AcDbEntity
  8
0
  6
CONTINUOUS
 62
     0
100
AcDbLine
 10
21.807973
 20
21.753369
 30
0.0
 11
23.625973
 21
23.57136899999999
 31
0.0
  0
LINE
  5
4802
330
47F6
100
AcDbEntity
  8
0
  6
CONTINUOUS
 62
     0
100
AcDbLine
 10
21.807973
 20
22.03621099999999
 30
0.0
 11
23.625973
 21
23.85421099999998
 31
0.0
  0
LINE
  5
4803
330
47F6
100
AcDbEntity
  8
0
  6
CONTINUOUS
 62
     0
100
AcDbLine
 10
21.807973
 20
22.319054
 30
0.0
 11
23.625973
 21
24.137054
 31
0.0
  0
LINE
  5
4804
330
47F6
100
AcDbEntity
  8
0
  6
CONTINUOUS
 62
     0
100
AcDbLine
 10
21.807973
 20
22.601897
 30
0.0
 11
23.625973
 21
24.419897
 31
0.0
  0
LINE
  5
4805
330
47F6
100
AcDbEntity
  8
0
  6
CONTINUOUS
 62
     0
100
AcDbLine
 10
21.807973
 20
22.884739
 30
0.0
 11
23.431627
 21
24.508394
 31
0.0
  0
LINE
  5
4806
330
47F6
100
AcDbEntity
  8
0
  6
CONTINUOUS
 62
     0
100
AcDbLine
 10
21.807973
 20
23.167582
 30
0.0
 11
23.148784
 21
24.508394
 31
0.0
  0
LINE
  5
4807
330
47F6
100
AcDbEntity
  8
0
  6
CONTINUOUS
 62
     0
100
AcDbLine
 10
21.807973
 20
23.45042499999999
 30
0.0
 11
22.865942
 21
24.508394
 31
0.0
  0
LINE
  5
4808
330
47F6
100
AcDbEntity
  8
0
  6
CONTINUOUS
 62
     0
100
AcDbLine
 10
21.807973
 20
23.733268
 30
0.0
 11
22.58309899999999
 21
24.508394
 31
0.0
  0
LINE
  5
4809
330
47F6
100
AcDbEntity
  8
0
  6
CONTINUOUS
 62
     0
100
AcDbLine
 10
21.807973
 20
24.01611
 30
0.0
 11
22.300256
 21
24.508394
 31
0.0
  0
LINE
  5
480A
330
47F6
100
AcDbEntity
  8
0
  6
CONTINUOUS
 62
     0
100
AcDbLine
 10
21.807973
 20
24.298953
 30
0.0
 11
22.017414
 21
24.508394
 31
0.0
  0
ENDBLK
  5
480C
330
47F6
100
AcDbEntity
  8
0
100
AcDbBlockEnd
  0
BLOCK
  5
4835
330
480D
100
AcDbEntity
  8
0
100
AcDbBlockBegin
  2
*X17
 70
     1
 10
0.0
 20
0.0
 30
0.0
  3
*X17
  1

  0
LINE
  5
480E
330
480D
100
AcDbEntity
  8
0
  6
CONTINUOUS
 62
     0
100
AcDbLine
 10
29.737665
 20
20.63209399999998
 30
0.0
 11
29.89222299999999
 21
20.786652
 31
0.0
  0
LINE
  5
480F
330
480D
100
AcDbEntity
  8
0
  6
CONTINUOUS
 62
     0
100
AcDbLine
 10
29.45482199999998
 20
20.63209399999998
 30
0.0
 11
29.89222299999999
 21
21.06949399999999
 31
0.0
  0
LINE
  5
4810
330
480D
100
AcDbEntity
  8
0
  6
CONTINUOUS
 62
     0
100
AcDbLine
 10
29.17197899999999
 20
20.63209399999998
 30
0.0
 11
29.89222299999999
 21
21.352337
 31
0.0
  0
LINE
  5
4811
330
480D
100
AcDbEntity
  8
0
  6
CONTINUOUS
 62
     0
100
AcDbLine
 10
28.88913699999999
 20
20.63209399999998
 30
0.0
 11
29.89222299999999
 21
21.63517999999999
 31
0.0
  0
LINE
  5
4812
330
480D
100
AcDbEntity
  8
0
  6
CONTINUOUS
 62
     0
100
AcDbLine
 10
28.606294
 20
20.63209399999998
 30
0.0
 11
29.89222299999999
 21
21.918023
 31
0.0
  0
LINE
  5
4813
330
480D
100
AcDbEntity
  8
0
  6
CONTINUOUS
 62
     0
100
AcDbLine
 10
28.323451
 20
20.63209399999998
 30
0.0
 11
29.89222299999999
 21
22.200865
 31
0.0
  0
LINE
  5
4814
330
480D
100
AcDbEntity
  8
0
  6
CONTINUOUS
 62
     0
100
AcDbLine
 10
28.108423
 20
20.69990799999998
 30
0.0
 11
29.89222299999999
 21
22.483708
 31
0.0
  0
LINE
  5
4815
330
480D
100
AcDbEntity
  8
0
  6
CONTINUOUS
 62
     0
100
AcDbLine
 10
28.108423
 20
20.98275099999999
 30
0.0
 11
29.89222299999999
 21
22.766551
 31
0.0
  0
LINE
  5
4816
330
480D
100
AcDbEntity
  8
0
  6
CONTINUOUS
 62
     0
100
AcDbLine
 10
28.108423
 20
21.26559299999998
 30
0.0
 11
29.89222299999999
 21
23.049393
 31
0.0
  0
LINE
  5
4817
330
480D
100
AcDbEntity
  8
0
  6
CONTINUOUS
 62
     0
100
AcDbLine
 10
28.108423
 20
21.54843599999999
 30
0.0
 11
29.89184299999999
 21
23.33185599999999
 31
0.0
  0
LINE
  5
4818
330
480D
100
AcDbEntity
  8
0
  6
CONTINUOUS
 62
     0
100
AcDbLine
 10
28.108423
 20
21.831279
 30
0.0
 11
29.853268
 21
23.576124
 31
0.0
  0
LINE
  5
4819
330
480D
100
AcDbEntity
  8
0
  6
CONTINUOUS
 62
     0
100
AcDbLine
 10
28.108423
 20
22.114122
 30
0.0
 11
29.777815
 21
23.78351299999999
 31
0.0
  0
LINE
  5
481A
330
480D
100
AcDbEntity
  8
0
  6
CONTINUOUS
 62
     0
100
AcDbLine
 10
28.108423
 20
22.396964
 30
0.0
 11
29.67413
 21
23.962671
 31
0.0
  0
LINE
  5
481B
330
480D
100
AcDbEntity
  8
0
  6
CONTINUOUS
 62
     0
100
AcDbLine
 10
28.084087
 20
22.655471
 30
0.0
 11
29.54593
 21
24.117314
 31
0.0
  0
LINE
  5
481C
330
480D
100
AcDbEntity
  8
0
  6
CONTINUOUS
 62
     0
100
AcDbLine
 10
26.06071
 20
20.63209399999998
 30
0.0
 11
26.28997299999999
 21
20.861357
 31
0.0
  0
LINE
  5
481D
330
480D
100
AcDbEntity
  8
0
  6
CONTINUOUS
 62
     0
100
AcDbLine
 10
27.9938
 20
22.84802699999999
 30
0.0
 11
29.394359
 21
24.248585
 31
0.0
  0
LINE
  5
481E
330
480D
100
AcDbEntity
  8
0
  6
CONTINUOUS
 62
     0
100
AcDbLine
 10
25.777867
 20
20.63209399999998
 30
0.0
 11
26.28997299999999
 21
21.1442
 31
0.0
  0
LINE
  5
481F
330
480D
100
AcDbEntity
  8
0
  6
CONTINUOUS
 62
     0
100
AcDbLine
 10
27.856431
 20
22.993501
 30
0.0
 11
29.218545
 21
24.355614
 31
0.0
  0
LINE
  5
4820
330
480D
100
AcDbEntity
  8
0
  6
CONTINUOUS
 62
     0
100
AcDbLine
 10
25.495024
 20
20.63209399999998
 30
0.0
 11
26.28997299999999
 21
21.427042
 31
0.0
  0
LINE
  5
4821
330
480D
100
AcDbEntity
  8
0
  6
CONTINUOUS
 62
     0
100
AcDbLine
 10
27.673361
 20
23.09327399999999
 30
0.0
 11
29.008732
 21
24.428645
 31
0.0
  0
LINE
  5
4822
330
480D
100
AcDbEntity
  8
0
  6
CONTINUOUS
 62
     0
100
AcDbLine
 10
25.212181
 20
20.63209399999998
 30
0.0
 11
26.28997299999999
 21
21.70988499999999
 31
0.0
  0
LINE
  5
4823
330
480D
100
AcDbEntity
  8
0
  6
CONTINUOUS
 62
     0
100
AcDbLine
 10
27.426682
 20
23.129436
 30
0.0
 11
28.78111099999999
 21
24.483866
 31
0.0
  0
LINE
  5
4824
330
480D
100
AcDbEntity
  8
0
  6
CONTINUOUS
 62
     0
100
AcDbLine
 10
24.929339
 20
20.63209399999998
 30
0.0
 11
26.28997299999999
 21
21.992728
 31
0.0
  0
LINE
  5
4825
330
480D
100
AcDbEntity
  8
0
  6
CONTINUOUS
 62
     0
100
AcDbLine
 10
27.09337899999999
 20
23.07897599999999
 30
0.0
 11
28.539658
 21
24.525255
 31
0.0
  0
LINE
  5
4826
330
480D
100
AcDbEntity
  8
0
  6
CONTINUOUS
 62
     0
100
AcDbLine
 10
24.64649599999999
 20
20.63209399999998
 30
0.0
 11
26.28997299999999
 21
22.27557099999999
 31
0.0
  0
LINE
  5
4827
330
480D
100
AcDbEntity
  8
0
  6
CONTINUOUS
 62
     0
100
AcDbLine
 10
24.494923
 20
20.763363
 30
0.0
 11
28.28214099999999
 21
24.550582
 31
0.0
  0
LINE
  5
4828
330
480D
100
AcDbEntity
  8
0
  6
CONTINUOUS
 62
     0
100
AcDbLine
 10
24.494923
 20
21.046206
 30
0.0
 11
28.005321
 21
24.556604
 31
0.0
  0
LINE
  5
4829
330
480D
100
AcDbEntity
  8
0
  6
CONTINUOUS
 62
     0
100
AcDbLine
 10
24.494923
 20
21.32904899999997
 30
0.0
 11
27.704195
 21
24.538321
 31
0.0
  0
LINE
  5
482A
330
480D
100
AcDbEntity
  8
0
  6
CONTINUOUS
 62
     0
100
AcDbLine
 10
24.494923
 20
21.611891
 30
0.0
 11
27.370303
 21
24.487272
 31
0.0
  0
LINE
  5
482B
330
480D
100
AcDbEntity
  8
0
  6
CONTINUOUS
 62
     0
100
AcDbLine
 10
24.494923
 20
21.894734
 30
0.0
 11
26.987035
 21
24.386846
 31
0.0
  0
LINE
  5
482C
330
480D
100
AcDbEntity
  8
0
  6
CONTINUOUS
 62
     0
100
AcDbLine
 10
24.494923
 20
22.17757699999999
 30
0.0
 11
26.51056599999999
 21
24.19322
 31
0.0
  0
LINE
  5
482D
330
480D
100
AcDbEntity
  8
0
  6
CONTINUOUS
 62
     0
100
AcDbLine
 10
24.494923
 20
22.46042
 30
0.0
 11
26.28997299999999
 21
24.25547
 31
0.0
  0
LINE
  5
482E
330
480D
100
AcDbEntity
  8
0
  6
CONTINUOUS
 62
     0
100
AcDbLine
 10
24.494923
 20
22.74326199999999
 30
0.0
 11
26.26005399999999
 21
24.508394
 31
0.0
  0
LINE
  5
482F
330
480D
100
AcDbEntity
  8
0
  6
CONTINUOUS
 62
     0
100
AcDbLine
 10
24.494923
 20
23.02610499999999
 30
0.0
 11
25.977212
 21
24.508394
 31
0.0
  0
LINE
  5
4830
330
480D
100
AcDbEntity
  8
0
  6
CONTINUOUS
 62
     0
100
AcDbLine
 10
24.494923
 20
23.308948
 30
0.0
 11
25.694369
 21
24.508394
 31
0.0
  0
LINE
  5
4831
330
480D
100
AcDbEntity
  8
0
  6
CONTINUOUS
 62
     0
100
AcDbLine
 10
24.494923
 20
23.59179
 30
0.0
 11
25.411526
 21
24.508394
 31
0.0
  0
LINE
  5
4832
330
480D
100
AcDbEntity
  8
0
  6
CONTINUOUS
 62
     0
100
AcDbLine
 10
24.494923
 20
23.87463299999999
 30
0.0
 11
25.128683
 21
24.508394
 31
0.0
  0
LINE
  5
4833
330
480D
100
AcDbEntity
  8
0
  6
CONTINUOUS
 62
     0
100
AcDbLine
 10
24.494923
 20
24.157476
 30
0.0
 11
24.845841
 21
24.508394
 31
0.0
  0
LINE
  5
4834
330
480D
100
AcDbEntity
  8
0
  6
CONTINUOUS
 62
     0
100
AcDbLine
 10
24.494923
 20
24.440319
 30
0.0
 11
24.562998
 21
24.508394
 31
0.0
  0
ENDBLK
  5
4836
330
480D
100
AcDbEntity
  8
0
100
AcDbBlockEnd
  0
BLOCK
  5
4864
330
4837
100
AcDbEntity
  8
0
100
AcDbBlockBegin
  2
*X18
 70
     1
 10
0.0
 20
0.0
 30
0.0
  3
*X18
  1

  0
LINE
  5
4838
330
4837
100
AcDbEntity
  8
0
  6
CONTINUOUS
 62
     0
100
AcDbLine
 10
35.94895499999999
 20
20.620844
 30
0.0
 11
35.986573
 21
20.658462
 31
0.0
  0
LINE
  5
4839
330
4837
100
AcDbEntity
  8
0
  6
CONTINUOUS
 62
     0
100
AcDbLine
 10
35.666112
 20
20.620844
 30
0.0
 11
35.986573
 21
20.94130499999999
 31
0.0
  0
LINE
  5
483A
330
4837
100
AcDbEntity
  8
0
  6
CONTINUOUS
 62
     0
100
AcDbLine
 10
35.38326899999999
 20
20.620844
 30
0.0
 11
35.986573
 21
21.22414699999997
 31
0.0
  0
LINE
  5
483B
330
4837
100
AcDbEntity
  8
0
  6
CONTINUOUS
 62
     0
100
AcDbLine
 10
35.100427
 20
20.620844
 30
0.0
 11
35.986573
 21
21.50698999999999
 31
0.0
  0
LINE
  5
483C
330
4837
100
AcDbEntity
  8
0
  6
CONTINUOUS
 62
     0
100
AcDbLine
 10
34.817584
 20
20.620844
 30
0.0
 11
35.986573
 21
21.789833
 31
0.0
  0
LINE
  5
483D
330
4837
100
AcDbEntity
  8
0
  6
CONTINUOUS
 62
     0
100
AcDbLine
 10
34.53474099999999
 20
20.620844
 30
0.0
 11
35.986573
 21
22.07267499999999
 31
0.0
  0
LINE
  5
483E
330
4837
100
AcDbEntity
  8
0
  6
CONTINUOUS
 62
     0
100
AcDbLine
 10
34.251898
 20
20.620844
 30
0.0
 11
35.986573
 21
22.355518
 31
0.0
  0
LINE
  5
483F
330
4837
100
AcDbEntity
  8
0
  6
CONTINUOUS
 62
     0
100
AcDbLine
 10
34.19152299999999
 20
20.84331099999999
 30
0.0
 11
35.986573
 21
22.638361
 31
0.0
  0
LINE
  5
4840
330
4837
100
AcDbEntity
  8
0
  6
CONTINUOUS
 62
     0
100
AcDbLine
 10
33.76930999999999
 20
20.703941
 30
0.0
 11
35.986573
 21
22.92120399999999
 31
0.0
  0
LINE
  5
4841
330
4837
100
AcDbEntity
  8
0
  6
CONTINUOUS
 62
     0
100
AcDbLine
 10
33.39236599999999
 20
20.60983999999999
 30
0.0
 11
35.986573
 21
23.20404599999999
 31
0.0
  0
LINE
  5
4842
330
4837
100
AcDbEntity
  8
0
  6
CONTINUOUS
 62
     0
100
AcDbLine
 10
33.081013
 20
20.58132999999997
 30
0.0
 11
35.986573
 21
23.486889
 31
0.0
  0
LINE
  5
4843
330
4837
100
AcDbEntity
  8
0
  6
CONTINUOUS
 62
     0
100
AcDbLine
 10
32.78812199999999
 20
20.57128099999999
 30
0.0
 11
35.986573
 21
23.769732
 31
0.0
  0
LINE
  5
4844
330
4837
100
AcDbEntity
  8
0
  6
CONTINUOUS
 62
     0
100
AcDbLine
 10
32.50752399999999
 20
20.57352499999999
 30
0.0
 11
35.986573
 21
24.05257399999999
 31
0.0
  0
LINE
  5
4845
330
4837
100
AcDbEntity
  8
0
  6
CONTINUOUS
 62
     0
100
AcDbLine
 10
34.178814
 20
22.52765899999999
 30
0.0
 11
35.986573
 21
24.335417
 31
0.0
  0
LINE
  5
4846
330
4837
100
AcDbEntity
  8
0
  6
CONTINUOUS
 62
     0
100
AcDbLine
 10
32.243083
 20
20.59192799999999
 30
0.0
 11
33.59479199999999
 21
21.94363599999999
 31
0.0
  0
LINE
  5
4847
330
4837
100
AcDbEntity
  8
0
  6
CONTINUOUS
 62
     0
100
AcDbLine
 10
34.181643
 20
22.81333
 30
0.0
 11
35.986573
 21
24.61826
 31
0.0
  0
LINE
  5
4848
330
4837
100
AcDbEntity
  8
0
  6
CONTINUOUS
 62
     0
100
AcDbLine
 10
32.000516
 20
20.632203
 30
0.0
 11
33.247555
 21
21.879242
 31
0.0
  0
LINE
  5
4849
330
4837
100
AcDbEntity
  8
0
  6
CONTINUOUS
 62
     0
100
AcDbLine
 10
34.100287
 20
23.014817
 30
0.0
 11
35.986573
 21
24.90110299999999
 31
0.0
  0
LINE
  5
484A
330
4837
100
AcDbEntity
  8
0
  6
CONTINUOUS
 62
     0
100
AcDbLine
 10
31.777522
 20
20.692051
 30
0.0
 11
32.988078
 21
21.90260799999999
 31
0.0
  0
LINE
  5
484B
330
4837
100
AcDbEntity
  8
0
  6
CONTINUOUS
 62
     0
100
AcDbLine
 10
33.96946099999999
 20
23.166833
 30
0.0
 11
35.986573
 21
25.183945
 31
0.0
  0
LINE
  5
484C
330
4837
100
AcDbEntity
  8
0
  6
CONTINUOUS
 62
     0
100
AcDbLine
 10
31.57735699999999
 20
20.774729
 30
0.0
 11
32.76916099999999
 21
21.96653299999999
 31
0.0
  0
LINE
  5
484D
330
4837
100
AcDbEntity
  8
0
  6
CONTINUOUS
 62
     0
100
AcDbLine
 10
33.798691
 20
23.27890599999999
 30
0.0
 11
35.986573
 21
25.466788
 31
0.0
  0
LINE
  5
484E
330
4837
100
AcDbEntity
  8
0
  6
CONTINUOUS
 62
     0
100
AcDbLine
 10
31.394628
 20
20.87484299999998
 30
0.0
 11
32.578781
 21
22.05899599999999
 31
0.0
  0
LINE
  5
484F
330
4837
100
AcDbEntity
  8
0
  6
CONTINUOUS
 62
     0
100
AcDbLine
 10
33.595067
 20
23.358124
 30
0.0
 11
35.986573
 21
25.749631
 31
0.0
  0
LINE
  5
4850
330
4837
100
AcDbEntity
  8
0
  6
CONTINUOUS
 62
     0
100
AcDbLine
 10
31.22313099999999
 20
20.986189
 30
0.0
 11
32.424733
 21
22.187791
 31
0.0
  0
LINE
  5
4851
330
4837
100
AcDbEntity
  8
0
  6
CONTINUOUS
 62
     0
100
AcDbLine
 10
33.37303699999999
 20
23.41893699999999
 30
0.0
 11
35.77784299999999
 21
25.823744
 31
0.0
  0
LINE
  5
4852
330
4837
100
AcDbEntity
  8
0
  6
CONTINUOUS
 62
     0
100
AcDbLine
 10
31.067037
 20
21.112937
 30
0.0
 11
32.307803
 21
22.353704
 31
0.0
  0
LINE
  5
4853
330
4837
100
AcDbEntity
  8
0
  6
CONTINUOUS
 62
     0
100
AcDbLine
 10
33.11599499999999
 20
23.444738
 30
0.0
 11
34.077945
 21
24.406688
 31
0.0
  0
LINE
  5
4854
330
4837
100
AcDbEntity
  8
0
  6
CONTINUOUS
 62
     0
100
AcDbLine
 10
34.19152299999999
 20
24.52026599999999
 30
0.0
 11
35.495
 21
25.823744
 31
0.0
  0
LINE
  5
4855
330
4837
100
AcDbEntity
  8
0
  6
CONTINUOUS
 62
     0
100
AcDbLine
 10
30.92289099999999
 20
21.25163399999999
 30
0.0
 11
32.23358499999999
 21
22.562329
 31
0.0
  0
LINE
  5
4856
330
4837
100
AcDbEntity
  8
0
  6
CONTINUOUS
 62
     0
100
AcDbLine
 10
32.74817399999999
 20
23.35976
 30
0.0
 11
33.885911
 21
24.49749699999999
 31
0.0
  0
LINE
  5
4857
330
4837
100
AcDbEntity
  8
0
  6
CONTINUOUS
 62
     0
100
AcDbLine
 10
34.19152299999999
 20
24.803109
 30
0.0
 11
35.212158
 21
25.823744
 31
0.0
  0
LINE
  5
4858
330
4837
100
AcDbEntity
  8
0
  6
CONTINUOUS
 62
     0
100
AcDbLine
 10
30.79573599999999
 20
21.40732199999998
 30
0.0
 11
32.26604099999998
 21
22.877627
 31
0.0
  0
LINE
  5
4859
330
4837
100
AcDbEntity
  8
0
  6
CONTINUOUS
 62
     0
100
AcDbLine
 10
34.19152299999999
 20
25.085952
 30
0.0
 11
34.929315
 21
25.823744
 31
0.0
  0
LINE
  5
485A
330
4837
100
AcDbEntity
  8
0
  6
CONTINUOUS
 62
     0
100
AcDbLine
 10
30.684862
 20
21.579291
 30
0.0
 11
33.65907999999999
 21
24.553509
 31
0.0
  0
LINE
  5
485B
330
4837
100
AcDbEntity
  8
0
  6
CONTINUOUS
 62
     0
100
AcDbLine
 10
34.19152299999999
 20
25.368794
 30
0.0
 11
34.64647199999999
 21
25.823744
 31
0.0
  0
LINE
  5
485C
330
4837
100
AcDbEntity
  8
0
  6
CONTINUOUS
 62
     0
100
AcDbLine
 10
30.59117899999999
 20
21.76845
 30
0.0
 11
33.418127
 21
24.595399
 31
0.0
  0
LINE
  5
485D
330
4837
100
AcDbEntity
  8
0
  6
CONTINUOUS
 62
     0
100
AcDbLine
 10
34.19152299999999
 20
25.651637
 30
0.0
 11
34.36362899999998
 21
25.823744
 31
0.0
  0
LINE
  5
485E
330
4837
100
AcDbEntity
  8
0
  6
CONTINUOUS
 62
     0
100
AcDbLine
 10
30.51714
 20
21.977254
 30
0.0
 11
33.172249
 21
24.632364
 31
0.0
  0
LINE
  5
485F
330
4837
100
AcDbEntity
  8
0
  6
CONTINUOUS
 62
     0
100
AcDbLine
 10
30.459126
 20
22.20208299999999
 30
0.0
 11
32.905926
 21
24.648883
 31
0.0
  0
LINE
  5
4860
330
4837
100
AcDbEntity
  8
0
  6
CONTINUOUS
 62
     0
100
AcDbLine
 10
30.423694
 20
22.449493
 30
0.0
 11
32.62147499999999
 21
24.647275
 31
0.0
  0
LINE
  5
4861
330
4837
100
AcDbEntity
  8
0
  6
CONTINUOUS
 62
     0
100
AcDbLine
 10
30.424318
 20
22.732961
 30
0.0
 11
32.321114
 21
24.629756
 31
0.0
  0
LINE
  5
4862
330
4837
100
AcDbEntity
  8
0
  6
CONTINUOUS
 62
     0
100
AcDbLine
 10
30.48455999999999
 20
23.076045
 30
0.0
 11
31.97893099999999
 21
24.570416
 31
0.0
  0
LINE
  5
4863
330
4837
100
AcDbEntity
  8
0
  6
CONTINUOUS
 62
     0
100
AcDbLine
 10
30.667096
 20
23.541423
 30
0.0
 11
31.51624099999999
 21
24.390569
 31
0.0
  0
ENDBLK
  5
4865
330
4837
100
AcDbEntity
  8
0
100
AcDbBlockEnd
  0
BLOCK
  5
4897
330
4866
100
AcDbEntity
  8
0
100
AcDbBlockBegin
  2
*X19
 70
     1
 10
0.0
 20
0.0
 30
0.0
  3
*X19
  1

  0
LINE
  5
4867
330
4866
100
AcDbEntity
  8
0
  6
CONTINUOUS
 62
     0
100
AcDbLine
 10
41.23382399999999
 20
20.814544
 30
0.0
 11
42.038521
 21
21.61924099999999
 31
0.0
  0
LINE
  5
4868
330
4866
100
AcDbEntity
  8
0
  6
CONTINUOUS
 62
     0
100
AcDbLine
 10
40.761924
 20
20.625487
 30
0.0
 11
41.99208099999998
 21
21.855644
 31
0.0
  0
LINE
  5
4869
330
4866
100
AcDbEntity
  8
0
  6
CONTINUOUS
 62
     0
100
AcDbLine
 10
42.109364
 20
22.25577
 30
0.0
 11
42.234688
 21
22.381093
 31
0.0
  0
LINE
  5
486A
330
4866
100
AcDbEntity
  8
0
  6
CONTINUOUS
 62
     0
100
AcDbLine
 10
40.38714399999999
 20
20.53354899999998
 30
0.0
 11
41.70923799999999
 21
21.855644
 31
0.0
  0
LINE
  5
486B
330
4866
100
AcDbEntity
  8
0
  6
CONTINUOUS
 62
     0
100
AcDbLine
 10
41.825433
 20
22.25468199999999
 30
0.0
 11
42.248624
 21
22.677873
 31
0.0
  0
LINE
  5
486C
330
4866
100
AcDbEntity
  8
0
  6
CONTINUOUS
 62
     0
100
AcDbLine
 10
40.05277999999999
 20
20.482029
 30
0.0
 11
41.426395
 21
21.855644
 31
0.0
  0
LINE
  5
486D
330
4866
100
AcDbEntity
  8
0
  6
CONTINUOUS
 62
     0
100
AcDbLine
 10
41.541502
 20
22.253593
 30
0.0
 11
42.21409
 21
22.92618099999998
 31
0.0
  0
LINE
  5
486E
330
4866
100
AcDbEntity
  8
0
  6
CONTINUOUS
 62
     0
100
AcDbLine
 10
39.74394
 20
20.456031
 30
0.0
 11
41.143553
 21
21.855644
 31
0.0
  0
LINE
  5
486F
330
4866
100
AcDbEntity
  8
0
  6
CONTINUOUS
 62
     0
100
AcDbLine
 10
41.25757199999998
 20
22.252505
 30
0.0
 11
42.156032
 21
23.15096599999999
 31
0.0
  0
LINE
  5
4870
330
4866
100
AcDbEntity
  8
0
  6
CONTINUOUS
 62
     0
100
AcDbLine
 10
39.448788
 20
20.443722
 30
0.0
 11
40.86070999999999
 21
21.855644
 31
0.0
  0
LINE
  5
4871
330
4866
100
AcDbEntity
  8
0
  6
CONTINUOUS
 62
     0
100
AcDbLine
 10
40.973641
 20
22.251417
 30
0.0
 11
42.08269699999998
 21
23.360473
 31
0.0
  0
LINE
  5
4872
330
4866
100
AcDbEntity
  8
0
  6
CONTINUOUS
 62
     0
100
AcDbLine
 10
39.16676599999997
 20
20.444542
 30
0.0
 11
40.577867
 21
21.855644
 31
0.0
  0
LINE
  5
4873
330
4866
100
AcDbEntity
  8
0
  6
CONTINUOUS
 62
     0
100
AcDbLine
 10
40.68971
 20
22.25032899999999
 30
0.0
 11
41.992262
 21
23.552881
 31
0.0
  0
LINE
  5
4874
330
4866
100
AcDbEntity
  8
0
  6
CONTINUOUS
 62
     0
100
AcDbLine
 10
38.902535
 20
20.463154
 30
0.0
 11
40.17887199999999
 21
21.739491
 31
0.0
  0
LINE
  5
4875
330
4866
100
AcDbEntity
  8
0
  6
CONTINUOUS
 62
     0
100
AcDbLine
 10
40.40577899999997
 20
22.249241
 30
0.0
 11
41.885758
 21
23.729219
 31
0.0
  0
LINE
  5
4876
330
4866
100
AcDbEntity
  8
0
  6
CONTINUOUS
 62
     0
100
AcDbLine
 10
38.650769
 20
20.49423099999998
 30
0.0
 11
39.71113499999999
 21
21.55459599999999
 31
0.0
  0
LINE
  5
4877
330
4866
100
AcDbEntity
  8
0
  6
CONTINUOUS
 62
     0
100
AcDbLine
 10
40.12184799999999
 20
22.24815199999999
 30
0.0
 11
41.763132
 21
23.889436
 31
0.0
  0
LINE
  5
4878
330
4866
100
AcDbEntity
  8
0
  6
CONTINUOUS
 62
     0
100
AcDbLine
 10
38.407693
 20
20.533998
 30
0.0
 11
39.411545
 21
21.53785
 31
0.0
  0
LINE
  5
4879
330
4866
100
AcDbEntity
  8
0
  6
CONTINUOUS
 62
     0
100
AcDbLine
 10
39.83791699999999
 20
22.247064
 30
0.0
 11
41.62484899999999
 21
24.033997
 31
0.0
  0
LINE
  5
487A
330
4866
100
AcDbEntity
  8
0
  6
CONTINUOUS
 62
     0
100
AcDbLine
 10
38.180128
 20
20.589276
 30
0.0
 11
39.162324
 21
21.57147099999999
 31
0.0
  0
LINE
  5
487B
330
4866
100
AcDbEntity
  8
0
  6
CONTINUOUS
 62
     0
100
AcDbLine
 10
39.553986
 20
22.245976
 30
0.0
 11
41.470496
 21
24.16248599999999
 31
0.0
  0
LINE
  5
487C
330
4866
100
AcDbEntity
  8
0
  6
CONTINUOUS
 62
     0
100
AcDbLine
 10
37.96719
 20
20.65917999999999
 30
0.0
 11
38.94359
 21
21.63557999999999
 31
0.0
  0
LINE
  5
487D
330
4866
100
AcDbEntity
  8
0
  6
CONTINUOUS
 62
     0
100
AcDbLine
 10
39.27005499999999
 20
22.244888
 30
0.0
 11
40.10436099999997
 21
23.079194
 31
0.0
  0
LINE
  5
487E
330
4866
100
AcDbEntity
  8
0
  6
CONTINUOUS
 62
     0
100
AcDbLine
 10
40.296756
 20
23.271589
 30
0.0
 11
41.30607499999999
 21
24.280908
 31
0.0
  0
LINE
  5
487F
330
4866
100
AcDbEntity
  8
0
  6
CONTINUOUS
 62
     0
100
AcDbLine
 10
37.762127
 20
20.736959
 30
0.0
 11
38.75166699999999
 21
21.7265
 31
0.0
  0
LINE
  5
4880
330
4866
100
AcDbEntity
  8
0
  6
CONTINUOUS
 62
     0
100
AcDbLine
 10
38.986768
 20
22.244444
 30
0.0
 11
39.821518
 21
23.079194
 31
0.0
  0
LINE
  5
4881
330
4866
100
AcDbEntity
  8
0
  6
CONTINUOUS
 62
     0
100
AcDbLine
 10
40.18585499999999
 20
23.443531
 30
0.0
 11
41.127162
 21
24.384837
 31
0.0
  0
LINE
  5
4882
330
4866
100
AcDbEntity
  8
0
  6
CONTINUOUS
 62
     0
100
AcDbLine
 10
37.567077
 20
20.824752
 30
0.0
 11
38.58724199999999
 21
21.844917
 31
0.0
  0
LINE
  5
4883
330
4866
100
AcDbEntity
  8
0
  6
CONTINUOUS
 62
     0
100
AcDbLine
 10
38.703926
 20
22.244444
 30
0.0
 11
39.538676
 21
23.079194
 31
0.0
  0
LINE
  5
4884
330
4866
100
AcDbEntity
  8
0
  6
CONTINUOUS
 62
     0
100
AcDbLine
 10
40.03559899999999
 20
23.576117
 30
0.0
 11
40.93254199999999
 21
24.47306
 31
0.0
  0
LINE
  5
4885
330
4866
100
AcDbEntity
  8
0
  6
CONTINUOUS
 62
     0
100
AcDbLine
 10
37.386162
 20
20.92667999999997
 30
0.0
 11
38.458814
 21
21.99933199999999
 31
0.0
  0
LINE
  5
4886
330
4866
100
AcDbEntity
  8
0
  6
CONTINUOUS
 62
     0
100
AcDbLine
 10
38.421083
 20
22.244444
 30
0.0
 11
39.255833
 21
23.079194
 31
0.0
  0
LINE
  5
4887
330
4866
100
AcDbEntity
  8
0
  6
CONTINUOUS
 62
     0
100
AcDbLine
 10
39.85366199999999
 20
23.677023
 30
0.0
 11
40.721945
 21
24.545306
 31
0.0
  0
LINE
  5
4888
330
4866
100
AcDbEntity
  8
0
  6
CONTINUOUS
 62
     0
100
AcDbLine
 10
37.22185
 20
21.04521099999999
 30
0.0
 11
38.375638
 21
22.198999
 31
0.0
  0
LINE
  5
4889
330
4866
100
AcDbEntity
  8
0
  6
CONTINUOUS
 62
     0
100
AcDbLine
 10
39.63845399999996
 20
23.744657
 30
0.0
 11
40.501236
 21
24.607439
 31
0.0
  0
LINE
  5
488A
330
4866
100
AcDbEntity
  8
0
  6
CONTINUOUS
 62
     0
100
AcDbLine
 10
37.07656
 20
21.182763
 30
0.0
 11
38.97299
 21
23.079194
 31
0.0
  0
LINE
  5
488B
330
4866
100
AcDbEntity
  8
0
  6
CONTINUOUS
 62
     0
100
AcDbLine
 10
39.38487999999999
 20
23.77392599999998
 30
0.0
 11
40.269576
 21
24.658623
 31
0.0
  0
LINE
  5
488C
330
4866
100
AcDbEntity
  8
0
  6
CONTINUOUS
 62
     0
100
AcDbLine
 10
36.946052
 20
21.335098
 30
0.0
 11
38.69014699999999
 21
23.079194
 31
0.0
  0
LINE
  5
488D
330
4866
100
AcDbEntity
  8
0
  6
CONTINUOUS
 62
     0
100
AcDbLine
 10
39.069245
 20
23.741134
 30
0.0
 11
40.026103
 21
24.697992
 31
0.0
  0
LINE
  5
488E
330
4866
100
AcDbEntity
  8
0
  6
CONTINUOUS
 62
     0
100
AcDbLine
 10
36.825922
 20
21.49781099999999
 30
0.0
 11
38.407305
 21
23.079194
 31
0.0
  0
LINE
  5
488F
330
4866
100
AcDbEntity
  8
0
  6
CONTINUOUS
 62
     0
100
AcDbLine
 10
36.722045
 20
21.676776
 30
0.0
 11
39.76916899999999
 21
24.723901
 31
0.0
  0
LINE
  5
4890
330
4866
100
AcDbEntity
  8
0
  6
CONTINUOUS
 62
     0
100
AcDbLine
 10
36.63367199999999
 20
21.871247
 30
0.0
 11
39.492393
 21
24.729967
 31
0.0
  0
LINE
  5
4891
330
4866
100
AcDbEntity
  8
0
  6
CONTINUOUS
 62
     0
100
AcDbLine
 10
36.558727
 20
22.07914399999999
 30
0.0
 11
39.21488899999999
 21
24.735306
 31
0.0
  0
LINE
  5
4892
330
4866
100
AcDbEntity
  8
0
  6
CONTINUOUS
 62
     0
100
AcDbLine
 10
36.503475
 20
22.30673499999999
 30
0.0
 11
38.910338
 21
24.713597
 31
0.0
  0
LINE
  5
4893
330
4866
100
AcDbEntity
  8
0
  6
CONTINUOUS
 62
     0
100
AcDbLine
 10
36.47892399999999
 20
22.56502699999999
 30
0.0
 11
38.59996399999999
 21
24.686067
 31
0.0
  0
LINE
  5
4894
330
4866
100
AcDbEntity
  8
0
  6
CONTINUOUS
 62
     0
100
AcDbLine
 10
36.497306
 20
22.866251
 30
0.0
 11
38.252546
 21
24.62149099999999
 31
0.0
  0
LINE
  5
4895
330
4866
100
AcDbEntity
  8
0
  6
CONTINUOUS
 62
     0
100
AcDbLine
 10
36.58207
 20
23.233858
 30
0.0
 11
37.861674
 21
24.513462
 31
0.0
  0
LINE
  5
4896
330
4866
100
AcDbEntity
  8
0
  6
CONTINUOUS
 62
     0
100
AcDbLine
 10
36.878958
 20
23.813588
 30
0.0
 11
37.289934
 21
24.224564
 31
0.0
  0
ENDBLK
  5
4898
330
4866
100
AcDbEntity
  8
0
100
AcDbBlockEnd
  0
BLOCK
  5
48BA
330
4899
100
AcDbEntity
  8
0
100
AcDbBlockBegin
  2
*X20
 70
     1
 10
0.0
 20
0.0
 30
0.0
  3
*X20
  1

  0
LINE
  5
489A
330
4899
100
AcDbEntity
  8
0
  6
CONTINUOUS
 62
     0
100
AcDbLine
 10
47.249714
 20
22.58779399999999
 30
0.0
 11
47.287957
 21
22.62603599999999
 31
0.0
  0
LINE
  5
489B
330
4899
100
AcDbEntity
  8
0
  6
CONTINUOUS
 62
     0
100
AcDbLine
 10
46.96687199999998
 20
22.58779399999999
 30
0.0
 11
47.307662
 21
22.928584
 31
0.0
  0
LINE
  5
489C
330
4899
100
AcDbEntity
  8
0
  6
CONTINUOUS
 62
     0
100
AcDbLine
 10
46.68402899999999
 20
22.58779399999999
 30
0.0
 11
47.29611499999999
 21
23.19987999999999
 31
0.0
  0
LINE
  5
489D
330
4899
100
AcDbEntity
  8
0
  6
CONTINUOUS
 62
     0
100
AcDbLine
 10
46.401186
 20
22.58779399999999
 30
0.0
 11
47.261533
 21
23.448141
 31
0.0
  0
LINE
  5
489E
330
4899
100
AcDbEntity
  8
0
  6
CONTINUOUS
 62
     0
100
AcDbLine
 10
44.445486
 20
20.63209399999998
 30
0.0
 11
44.459623
 21
20.64623
 31
0.0
  0
LINE
  5
489F
330
4899
100
AcDbEntity
  8
0
  6
CONTINUOUS
 62
     0
100
AcDbLine
 10
46.11834299999999
 20
22.58779399999999
 30
0.0
 11
47.209214
 21
23.67866499999999
 31
0.0
  0
LINE
  5
48A0
330
4899
100
AcDbEntity
  8
0
  6
CONTINUOUS
 62
     0
100
AcDbLine
 10
44.162643
 20
20.63209399999998
 30
0.0
 11
44.459623
 21
20.929073
 31
0.0
  0
LINE
  5
48A1
330
4899
100
AcDbEntity
  8
0
  6
CONTINUOUS
 62
     0
100
AcDbLine
 10
45.835501
 20
22.58779399999999
 30
0.0
 11
47.132011
 21
23.884304
 31
0.0
  0
LINE
  5
48A2
330
4899
100
AcDbEntity
  8
0
  6
CONTINUOUS
 62
     0
100
AcDbLine
 10
43.879801
 20
20.63209399999998
 30
0.0
 11
44.459623
 21
21.21191599999999
 31
0.0
  0
LINE
  5
48A3
330
4899
100
AcDbEntity
  8
0
  6
CONTINUOUS
 62
     0
100
AcDbLine
 10
45.55265799999999
 20
22.58779399999999
 30
0.0
 11
47.02930300000001
 21
24.06443799999999
 31
0.0
  0
LINE
  5
48A4
330
4899
100
AcDbEntity
  8
0
  6
CONTINUOUS
 62
     0
100
AcDbLine
 10
43.59695799999999
 20
20.63209399999998
 30
0.0
 11
44.459623
 21
21.494759
 31
0.0
  0
LINE
  5
48A5
330
4899
100
AcDbEntity
  8
0
  6
CONTINUOUS
 62
     0
100
AcDbLine
 10
45.45457299999998
 20
22.772551
 30
0.0
 11
46.900895
 21
24.218874
 31
0.0
  0
LINE
  5
48A6
330
4899
100
AcDbEntity
  8
0
  6
CONTINUOUS
 62
     0
100
AcDbLine
 10
43.314115
 20
20.63209399999998
 30
0.0
 11
44.459623
 21
21.77760099999999
 31
0.0
  0
LINE
  5
48A7
330
4899
100
AcDbEntity
  8
0
  6
CONTINUOUS
 62
     0
100
AcDbLine
 10
45.418199
 20
23.01902
 30
0.0
 11
46.74470999999999
 21
24.345531
 31
0.0
  0
LINE
  5
48A8
330
4899
100
AcDbEntity
  8
0
  6
CONTINUOUS
 62
     0
100
AcDbLine
 10
43.03127299999998
 20
20.63209399999998
 30
0.0
 11
44.459623
 21
22.060444
 31
0.0
  0
LINE
  5
48A9
330
4899
100
AcDbEntity
  8
0
  6
CONTINUOUS
 62
     0
100
AcDbLine
 10
45.294614
 20
23.17827799999999
 30
0.0
 11
46.558784
 21
24.442448
 31
0.0
  0
LINE
  5
48AA
330
4899
100
AcDbEntity
  8
0
  6
CONTINUOUS
 62
     0
100
AcDbLine
 10
42.74842999999999
 20
20.63209399999998
 30
0.0
 11
44.459623
 21
22.343287
 31
0.0
  0
LINE
  5
48AB
330
4899
100
AcDbEntity
  8
0
  6
CONTINUOUS
 62
     0
100
AcDbLine
 10
45.10254699999999
 20
23.26905299999999
 30
0.0
 11
46.34635699999999
 21
24.512863
 31
0.0
  0
LINE
  5
48AC
330
4899
100
AcDbEntity
  8
0
  6
CONTINUOUS
 62
     0
100
AcDbLine
 10
42.732973
 20
20.89947899999998
 30
0.0
 11
44.459623
 21
22.626129
 31
0.0
  0
LINE
  5
48AD
330
4899
100
AcDbEntity
  8
0
  6
CONTINUOUS
 62
     0
100
AcDbLine
 10
44.79762199999998
 20
23.24697099999999
 30
0.0
 11
46.11516599999998
 21
24.564515
 31
0.0
  0
LINE
  5
48AE
330
4899
100
AcDbEntity
  8
0
  6
CONTINUOUS
 62
     0
100
AcDbLine
 10
42.732973
 20
21.182322
 30
0.0
 11
44.492506
 21
22.941855
 31
0.0
  0
LINE
  5
48AF
330
4899
100
AcDbEntity
  8
0
  6
CONTINUOUS
 62
     0
100
AcDbLine
 10
42.732973
 20
21.465165
 30
0.0
 11
45.85771499999999
 21
24.58990599999999
 31
0.0
  0
LINE
  5
48B0
330
4899
100
AcDbEntity
  8
0
  6
CONTINUOUS
 62
     0
100
AcDbLine
 10
42.732973
 20
21.74800799999999
 30
0.0
 11
45.563093
 21
24.57812699999999
 31
0.0
  0
LINE
  5
48B1
330
4899
100
AcDbEntity
  8
0
  6
CONTINUOUS
 62
     0
100
AcDbLine
 10
42.732973
 20
22.03085
 30
0.0
 11
45.22227700000001
 21
24.52015499999999
 31
0.0
  0
LINE
  5
48B2
330
4899
100
AcDbEntity
  8
0
  6
CONTINUOUS
 62
     0
100
AcDbLine
 10
42.732973
 20
22.313693
 30
0.0
 11
44.777089
 21
24.357809
 31
0.0
  0
LINE
  5
48B3
330
4899
100
AcDbEntity
  8
0
  6
CONTINUOUS
 62
     0
100
AcDbLine
 10
42.732973
 20
22.59653599999999
 30
0.0
 11
44.459623
 21
24.323186
 31
0.0
  0
LINE
  5
48B4
330
4899
100
AcDbEntity
  8
0
  6
CONTINUOUS
 62
     0
100
AcDbLine
 10
42.732973
 20
22.87937799999999
 30
0.0
 11
44.361988
 21
24.508394
 31
0.0
  0
LINE
  5
48B5
330
4899
100
AcDbEntity
  8
0
  6
CONTINUOUS
 62
     0
100
AcDbLine
 10
42.732973
 20
23.162221
 30
0.0
 11
44.079145
 21
24.508394
 31
0.0
  0
LINE
  5
48B6
330
4899
100
AcDbEntity
  8
0
  6
CONTINUOUS
 62
     0
100
AcDbLine
 10
42.732973
 20
23.445064
 30
0.0
 11
43.796303
 21
24.508394
 31
0.0
  0
LINE
  5
48B7
330
4899
100
AcDbEntity
  8
0
  6
CONTINUOUS
 62
     0
100
AcDbLine
 10
42.732973
 20
23.727907
 30
0.0
 11
43.51345999999998
 21
24.508394
 31
0.0
  0
LINE
  5
48B8
330
4899
100
AcDbEntity
  8
0
  6
CONTINUOUS
 62
     0
100
AcDbLine
 10
42.732973
 20
24.010749
 30
0.0
 11
43.23061699999999
 21
24.508394
 31
0.0
  0
LINE
  5
48B9
330
4899
100
AcDbEntity
  8
0
  6
CONTINUOUS
 62
     0
100
AcDbLine
 10
42.732973
 20
24.293592
 30
0.0
 11
42.947775
 21
24.508394
 31
0.0
  0
ENDBLK
  5
48BB
330
4899
100
AcDbEntity
  8
0
100
AcDbBlockEnd
  0
BLOCK
  5
492B
330
4921
100
AcDbEntity
  8
0
100
AcDbBlockBegin
  2
*D21
 70
     1
 10
0.0
 20
0.0
 30
0.0
  3
*D21
  1

  0
LINE
  5
492D
330
4921
100
AcDbEntity
  8
DIM
  6
CONTINUOUS
100
AcDbLine
 10
78.756929
 20
189.795902
 30
0.0
 11
74.75
 21
189.795902
 31
0.0
  0
LINE
  5
492E
330
4921
100
AcDbEntity
  8
DIM
  6
CONTINUOUS
100
AcDbLine
 10
131.455607
 20
200.897232
 30
0.0
 11
74.75
 21
200.897232
 31
0.0
  0
LINE
  5
492F
330
4921
100
AcDbEntity
  8
DIM
  6
CONTINUOUS
100
AcDbLine
 10
76.0
 20
192.295902
 30
0.0
 11
76.0
 21
198.397232
 31
0.0
  0
SOLID
  5
4930
330
4921
100
AcDbEntity
  8
DIM
  6
CONTINUOUS
100
AcDbTrace
 10
75.58333333333333
 20
192.295902
 30
0.0
 11
76.41666666666667
 21
192.295902
 31
0.0
 12
76.0
 22
189.795902
 32
0.0
 13
76.0
 23
189.795902
 33
0.0
  0
SOLID
  5
4931
330
4921
100
AcDbEntity
  8
DIM
  6
CONTINUOUS
100
AcDbTrace
 10
75.58333333333333
 20
198.397232
 30
0.0
 11
76.41666666666667
 21
198.397232
 31
0.0
 12
76.0
 22
200.897232
 32
0.0
 13
76.0
 23
200.897232
 33
0.0
  0
MTEXT
  5
4932
330
4921
100
AcDbEntity
  8
DIM
  6
CONTINUOUS
 62
     2
100
AcDbMText
 10
74.47131650750339
 20
195.3465669999999
 30
0.0
 40
1.8
 41
0.0
 71
     5
 72
     1
  1
11.1
  7
FINDER
 11
0.0000000000000001
 21
1.0
 31
0.0
1001
ACAD
1000
MTEXTBEGIN
1070
    73
1070
     1
1070
    44
1040
1.0
1070
    74
1070
     0
1000
MTEXTEND
1000
MTEXTBEGIN
1070
    73
1070
     1
1070
    44
1040
1.0
1070
    74
1070
     0
1000
MTEXTEND
1000
MTEXTBEGIN
1070
    73
1070
     1
1070
    44
1040
1.0
1070
    74
1070
     0
1000
MTEXTEND
1000
MTEXTBEGIN
1070
    73
1070
     1
1070
    44
1040
1.0
1070
    74
1070
     0
1000
MTEXTEND
  0
POINT
  5
4933
330
4921
100
AcDbEntity
  8
DEFPOINTS
  6
CONTINUOUS
 62
     0
100
AcDbPoint
 10
80.75692899999998
 20
189.795902
 30
0.0
  0
POINT
  5
4934
330
4921
100
AcDbEntity
  8
DEFPOINTS
  6
CONTINUOUS
 62
     0
100
AcDbPoint
 10
133.455607
 20
200.897232
 30
0.0
  0
POINT
  5
4935
330
4921
100
AcDbEntity
  8
DEFPOINTS
  6
CONTINUOUS
 62
     0
100
AcDbPoint
 10
76.0
 20
200.897232
 30
0.0
  0
ENDBLK
  5
492C
330
4921
100
AcDbEntity
  8
0
100
AcDbBlockEnd
  0
BLOCK
  5
4941
330
4937
100
AcDbEntity
  8
0
100
AcDbBlockBegin
  2
*D22
 70
     1
 10
0.0
 20
0.0
 30
0.0
  3
*D22
  1

  0
LINE
  5
4973
330
4937
100
AcDbEntity
  8
DIM
  6
CONTINUOUS
100
AcDbLine
 10
78.756929
 20
189.795902
 30
0.0
 11
74.75
 21
189.795902
 31
0.0
  0
LINE
  5
4974
330
4937
100
AcDbEntity
  8
DIM
  6
CONTINUOUS
100
AcDbLine
 10
86.256929
 20
201.1959019999999
 30
0.0
 11
74.75
 21
201.1959019999999
 31
0.0
  0
LINE
  5
4975
330
4937
100
AcDbEntity
  8
DIM
  6
CONTINUOUS
100
AcDbLine
 10
76.0
 20
192.295902
 30
0.0
 11
76.0
 21
198.695902
 31
0.0
  0
SOLID
  5
4976
330
4937
100
AcDbEntity
  8
DIM
  6
CONTINUOUS
100
AcDbTrace
 10
75.58333333333333
 20
192.295902
 30
0.0
 11
76.41666666666667
 21
192.295902
 31
0.0
 12
76.0
 22
189.795902
 32
0.0
 13
76.0
 23
189.795902
 33
0.0
  0
SOLID
  5
4977
330
4937
100
AcDbEntity
  8
DIM
  6
CONTINUOUS
100
AcDbTrace
 10
75.58333333333333
 20
198.695902
 30
0.0
 11
76.41666666666667
 21
198.695902
 31
0.0
 12
76.0
 22
201.1959019999999
 32
0.0
 13
76.0
 23
201.1959019999999
 33
0.0
  0
MTEXT
  5
4978
330
4937
100
AcDbEntity
  8
DIM
  6
CONTINUOUS
 62
     2
100
AcDbMText
 10
74.47131650750339
 20
195.495902
 30
0.0
 40
1.8
 41
0.0
 71
     5
 72
     1
  1
11.4
  7
FINDER
 11
0.0000000000000001
 21
1.0
 31
0.0
1001
ACAD
1000
MTEXTBEGIN
1070
    73
1070
     1
1070
    44
1040
1.0
1070
    74
1070
     0
1000
MTEXTEND
1000
MTEXTBEGIN
1070
    73
1070
     1
1070
    44
1040
1.0
1070
    74
1070
     0
1000
MTEXTEND
1000
MTEXTBEGIN
1070
    73
1070
     1
1070
    44
1040
1.0
1070
    74
1070
     0
1000
MTEXTEND
  0
POINT
  5
4979
330
4937
100
AcDbEntity
  8
DEFPOINTS
  6
CONTINUOUS
 62
     0
100
AcDbPoint
 10
80.75692899999998
 20
189.795902
 30
0.0
  0
POINT
  5
497A
330
4937
100
AcDbEntity
  8
DEFPOINTS
  6
CONTINUOUS
 62
     0
100
AcDbPoint
 10
88.25692899999998
 20
201.1959019999999
 30
0.0
  0
POINT
  5
497B
330
4937
100
AcDbEntity
  8
DEFPOINTS
  6
CONTINUOUS
 62
     0
100
AcDbPoint
 10
76.0
 20
201.1959019999999
 30
0.0
  0
ENDBLK
  5
4942
330
4937
100
AcDbEntity
  8
0
100
AcDbBlockEnd
  0
BLOCK
  5
4988
330
4983
100
AcDbEntity
  8
0
100
AcDbBlockBegin
  2
LW_POLYLINE_1
 70
     0
 10
0.0
 20
0.0
 30
0.0
  3
LW_POLYLINE_1
  1

  0
LINE
  5
4984
330
4983
100
AcDbEntity
  8
CARTOUCHE
  6
CONTINUOUS
 62
     7
100
AcDbLine
 10
205.0
 20
292.0
 30
0.0
 11
205.0
 21
5.0
 31
0.0
  0
LINE
  5
4985
330
4983
100
AcDbEntity
  8
CARTOUCHE
  6
CONTINUOUS
 62
     7
100
AcDbLine
 10
205.0
 20
5.0
 30
0.0
 11
5.0
 21
5.0
 31
0.0
  0
LINE
  5
4986
330
4983
100
AcDbEntity
  8
CARTOUCHE
  6
CONTINUOUS
 62
     7
100
AcDbLine
 10
5.0
 20
5.0
 30
0.0
 11
5.0
 21
292.0
 31
0.0
  0
LINE
  5
4987
330
4983
100
AcDbEntity
  8
CARTOUCHE
  6
CONTINUOUS
 62
     7
100
AcDbLine
 10
5.0
 20
292.0
 30
0.0
 11
205.0
 21
292.0
 31
0.0
  0
ENDBLK
  5
4989
330
4983
100
AcDbEntity
  8
0
100
AcDbBlockEnd
  0
BLOCK
  5
498E
330
498A
100
AcDbEntity
  8
0
100
AcDbBlockBegin
  2
LW_POLYLINE_4
 70
     0
 10
0.0
 20
0.0
 30
0.0
  3
LW_POLYLINE_4
  1

  0
LINE
  5
498B
330
498A
100
AcDbEntity
  8
DRAW
  6
CONTINUOUS
 62
     4
100
AcDbLine
 10
104.9309999999999
 20
161.8759999999998
 30
0.0
 11
104.431
 21
161.8759999999998
 31
0.0
  0
LINE
  5
498C
330
498A
100
AcDbEntity
  8
DRAW
  6
CONTINUOUS
 62
     4
100
AcDbLine
 10
105.1609999999999
 20
177.576
 30
0.0
 11
116.401
 21
177.576
 31
0.0
  0
LINE
  5
498D
330
498A
100
AcDbEntity
  8
DRAW
  6
CONTINUOUS
 62
     4
100
AcDbLine
 10
117.131
 20
161.8759999999998
 30
0.0
 11
104.9309999999999
 21
161.8759999999998
 31
0.0
  0
ENDBLK
  5
498F
330
498A
100
AcDbEntity
  8
0
100
AcDbBlockEnd
  0
BLOCK
  5
499A
330
4990
100
AcDbEntity
  8
0
100
AcDbBlockBegin
  2
*D25
 70
     1
 10
0.0
 20
0.0
 30
0.0
  3
*D25
  1

  0
LINE
  5
4991
330
4990
100
AcDbEntity
  8
DIM
  6
CONTINUOUS
 62
     3
100
AcDbLine
 10
114.131
 20
156.965
 30
0.0
 11
114.131
 21
152.122
 31
0.0
  0
LINE
  5
4992
330
4990
100
AcDbEntity
  8
DIM
  6
CONTINUOUS
 62
     3
100
AcDbLine
 10
110.3809999999999
 20
152.955
 30
0.0
 11
114.131
 21
152.955
 31
0.0
  0
LINE
  5
4993
330
4990
100
AcDbEntity
  8
DIM
  6
CONTINUOUS
 62
     3
100
AcDbLine
 10
114.131
 20
152.955
 30
0.0
 11
114.931
 21
152.955
 31
0.0
  0
LINE
  5
4994
330
4990
100
AcDbEntity
  8
DIM
  6
CONTINUOUS
 62
     3
100
AcDbLine
 10
114.931
 20
152.955
 30
0.0
 11
125.2059999999999
 21
152.955
 31
0.0
  0
TEXT
  5
4995
330
4990
100
AcDbEntity
  8
DIM
  6
CONTINUOUS
 62
     4
100
AcDbText
 10
121.5513333333333
 20
153.7889999999999
 30
0.0
 40
2.5
  1
1
 41
0.9399999999999998
 72
     1
 11
121.943
 21
155.0389999999999
 31
0.0
100
AcDbText
 73
     2
  0
LINE
  5
4996
330
4990
100
AcDbEntity
  8
DIM
  6
CONTINUOUS
 62
     3
100
AcDbLine
 10
114.931
 20
156.965
 30
0.0
 11
114.931
 21
152.122
 31
0.0
  0
POINT
  5
4997
330
4990
100
AcDbEntity
  8
DEFPOINTS
 62
     3
100
AcDbPoint
 10
114.131
 20
158.0759999999999
 30
0.0
  0
POINT
  5
4998
330
4990
100
AcDbEntity
  8
DEFPOINTS
 62
     3
100
AcDbPoint
 10
114.931
 20
158.0759999999999
 30
0.0
  0
POINT
  5
4999
330
4990
100
AcDbEntity
  8
DEFPOINTS
 62
     3
100
AcDbPoint
 10
114.931
 20
152.955
 30
0.0
  0
ENDBLK
  5
499B
330
4990
100
AcDbEntity
  8
0
100
AcDbBlockEnd
  0
BLOCK
  5
49A6
330
499C
100
AcDbEntity
  8
0
100
AcDbBlockBegin
  2
*D26
 70
     1
 10
0.0
 20
0.0
 30
0.0
  3
*D26
  1

  0
LINE
  5
499D
330
499C
100
AcDbEntity
  8
DIM
  6
CONTINUOUS
 62
     3
100
AcDbLine
 10
89.244
 20
158.0759999999999
 30
0.0
 11
97.29
 21
158.0759999999999
 31
0.0
  0
LINE
  5
499E
330
499C
100
AcDbEntity
  8
DIM
  6
CONTINUOUS
 62
     3
100
AcDbLine
 10
96.45699999999999
 20
143.2429999999999
 30
0.0
 11
96.45699999999999
 21
158.0759999999999
 31
0.0
  0
LINE
  5
499F
330
499C
100
AcDbEntity
  8
DIM
  6
CONTINUOUS
 62
     3
100
AcDbLine
 10
96.45699999999999
 20
158.0759999999999
 30
0.0
 11
96.45699999999999
 21
161.8759999999998
 31
0.0
  0
LINE
  5
49A0
330
499C
100
AcDbEntity
  8
DIM
  6
CONTINUOUS
 62
     3
100
AcDbLine
 10
96.45699999999999
 20
161.8759999999998
 30
0.0
 11
96.45699999999999
 21
165.6259999999998
 31
0.0
  0
TEXT
  5
49A1
330
499C
100
AcDbEntity
  8
DIM
  6
CONTINUOUS
 62
     4
100
AcDbText
 10
95.62299999999998
 20
146.4339999999999
 30
0.0
 40
2.5
  1
3.8
 50
90.0
 41
0.9399999999999998
 72
     1
 11
94.37299999999998
 21
148.784
 31
0.0
100
AcDbText
 73
     2
  0
LINE
  5
49A2
330
499C
100
AcDbEntity
  8
DIM
  6
CONTINUOUS
 62
     3
100
AcDbLine
 10
90.516
 20
161.8759999999998
 30
0.0
 11
97.29
 21
161.8759999999998
 31
0.0
  0
POINT
  5
49A3
330
499C
100
AcDbEntity
  8
DEFPOINTS
 62
     3
100
AcDbPoint
 10
88.13299999999998
 20
158.0759999999999
 30
0.0
  0
POINT
  5
49A4
330
499C
100
AcDbEntity
  8
DEFPOINTS
 62
     3
100
AcDbPoint
 10
89.405
 20
161.8759999999998
 30
0.0
  0
POINT
  5
49A5
330
499C
100
AcDbEntity
  8
DEFPOINTS
 62
     3
100
AcDbPoint
 10
96.45699999999999
 20
161.8759999999998
 30
0.0
  0
ENDBLK
  5
49A7
330
499C
100
AcDbEntity
  8
0
100
AcDbBlockEnd
  0
BLOCK
  5
49B0
330
49A8
100
AcDbEntity
  8
0
100
AcDbBlockBegin
  2
*D27
 70
     1
 10
0.0
 20
0.0
 30
0.0
  3
*D27
  1

  0
LINE
  5
49A9
330
49A8
100
AcDbEntity
  8
DIM
  6
CONTINUOUS
 62
     3
100
AcDbLine
 10
90.81599999999999
 20
161.8759999999998
 30
0.0
 11
97.29
 21
161.8759999999998
 31
0.0
  0
LINE
  5
49AA
330
49A8
100
AcDbEntity
  8
DIM
  6
CONTINUOUS
 62
     3
100
AcDbLine
 10
96.45699999999999
 20
161.8759999999998
 30
0.0
 11
96.45699999999999
 21
177.576
 31
0.0
  0
TEXT
  5
49AB
330
49A8
100
AcDbEntity
  8
DIM
  6
CONTINUOUS
 62
     4
100
AcDbText
 10
95.62299999999998
 20
166.7616666666666
 30
0.0
 40
2.5
  1
15.7
 50
90.0
 41
0.9399999999999998
 72
     1
 11
94.37299999999998
 21
169.895
 31
0.0
100
AcDbText
 73
     2
  0
LINE
  5
49AC
330
49A8
100
AcDbEntity
  8
DIM
  6
CONTINUOUS
 62
     3
100
AcDbLine
 10
90.08399999999999
 20
177.576
 30
0.0
 11
97.29
 21
177.576
 31
0.0
  0
POINT
  5
49AD
330
49A8
100
AcDbEntity
  8
DEFPOINTS
 62
     3
100
AcDbPoint
 10
89.70499999999999
 20
161.8759999999998
 30
0.0
  0
POINT
  5
49AE
330
49A8
100
AcDbEntity
  8
DEFPOINTS
 62
     3
100
AcDbPoint
 10
88.97299999999999
 20
177.576
 30
0.0
  0
POINT
  5
49AF
330
49A8
100
AcDbEntity
  8
DEFPOINTS
 62
     3
100
AcDbPoint
 10
96.45699999999999
 20
177.576
 30
0.0
  0
ENDBLK
  5
49B1
330
49A8
100
AcDbEntity
  8
0
100
AcDbBlockEnd
  0
BLOCK
  5
49BA
330
49B2
100
AcDbEntity
  8
0
100
AcDbBlockBegin
  2
*D28
 70
     1
 10
0.0
 20
0.0
 30
0.0
  3
*D28
  1

  0
LINE
  5
49B3
330
49B2
100
AcDbEntity
  8
DIM
  6
CONTINUOUS
 62
     3
100
AcDbLine
 10
104.431
 20
178.259
 30
0.0
 11
104.431
 21
181.9609999999999
 31
0.0
  0
LINE
  5
49B4
330
49B2
100
AcDbEntity
  8
DIM
  6
CONTINUOUS
 62
     3
100
AcDbLine
 10
104.431
 20
181.127
 30
0.0
 11
117.131
 21
181.127
 31
0.0
  0
TEXT
  5
49B5
330
49B2
100
AcDbEntity
  8
DIM
  6
CONTINUOUS
 62
     4
100
AcDbText
 10
107.6476666666666
 20
181.9609999999999
 30
0.0
 40
2.5
  1
12.7
 41
0.9399999999999998
 72
     1
 11
110.781
 21
183.2109999999999
 31
0.0
100
AcDbText
 73
     2
  0
LINE
  5
49B6
330
49B2
100
AcDbEntity
  8
DIM
  6
CONTINUOUS
 62
     3
100
AcDbLine
 10
117.131
 20
178.1399999999999
 30
0.0
 11
117.131
 21
181.9609999999999
 31
0.0
  0
POINT
  5
49B7
330
49B2
100
AcDbEntity
  8
DEFPOINTS
 62
     3
100
AcDbPoint
 10
104.431
 20
161.8759999999998
 30
0.0
  0
POINT
  5
49B8
330
49B2
100
AcDbEntity
  8
DEFPOINTS
 62
     3
100
AcDbPoint
 10
117.131
 20
161.8759999999998
 30
0.0
  0
POINT
  5
49B9
330
49B2
100
AcDbEntity
  8
DEFPOINTS
 62
     3
100
AcDbPoint
 10
117.131
 20
181.127
 30
0.0
  0
ENDBLK
  5
49BB
330
49B2
100
AcDbEntity
  8
0
100
AcDbBlockEnd
  0
BLOCK
  5
49C4
330
49BC
100
AcDbEntity
  8
0
100
AcDbBlockBegin
  2
*D29
 70
     1
 10
0.0
 20
0.0
 30
0.0
  3
*D29
  1

  0
LINE
  5
49BD
330
49BC
100
AcDbEntity
  8
DIM
  6
CONTINUOUS
 62
     3
100
AcDbLine
 10
60.705
 20
178.18
 30
0.0
 11
60.705
 21
181.9609999999999
 31
0.0
  0
LINE
  5
49BE
330
49BC
100
AcDbEntity
  8
DIM
  6
CONTINUOUS
 62
     3
100
AcDbLine
 10
60.705
 20
181.127
 30
0.0
 11
89.70499999999999
 21
181.127
 31
0.0
  0
TEXT
  5
49BF
330
49BC
100
AcDbEntity
  8
DIM
  6
CONTINUOUS
 62
     4
100
AcDbText
 10
73.24666666666667
 20
181.9609999999999
 30
0.0
 40
2.5
  1
29
 50
360.0
 41
0.9399999999999998
 72
     1
 11
75.205
 21
183.2109999999999
 31
0.0
100
AcDbText
 73
     2
  0
LINE
  5
49C0
330
49BC
100
AcDbEntity
  8
DIM
  6
CONTINUOUS
 62
     3
100
AcDbLine
 10
89.70499999999999
 20
178.259
 30
0.0
 11
89.70499999999999
 21
181.9609999999999
 31
0.0
  0
POINT
  5
49C1
330
49BC
100
AcDbEntity
  8
DEFPOINTS
 62
     3
100
AcDbPoint
 10
60.705
 20
161.8759999999998
 30
0.0
  0
POINT
  5
49C2
330
49BC
100
AcDbEntity
  8
DEFPOINTS
 62
     3
100
AcDbPoint
 10
89.70499999999999
 20
161.8759999999998
 30
0.0
  0
POINT
  5
49C3
330
49BC
100
AcDbEntity
  8
DEFPOINTS
 62
     3
100
AcDbPoint
 10
89.70499999999999
 20
181.127
 30
0.0
  0
ENDBLK
  5
49C5
330
49BC
100
AcDbEntity
  8
0
100
AcDbBlockEnd
  0
BLOCK
  5
4B35
330
4B2B
100
AcDbEntity
  8
0
100
AcDbBlockBegin
  2
*D30
 70
     1
 10
0.0
 20
0.0
 30
0.0
  3
*D30
  1

  0
LINE
  5
4B69
330
4B2B
100
AcDbEntity
  8
DIM
  6
CONTINUOUS
 62
     0
100
AcDbLine
 10
374.4080955562446
 20
188.2254190305262
 30
0.0
 11
374.4080955562446
 21
194.3764190305262
 31
0.0
  0
LINE
  5
4B6A
330
4B2B
100
AcDbEntity
  8
DIM
  6
CONTINUOUS
 62
     0
100
AcDbLine
 10
403.4080955562446
 20
188.2254190305262
 30
0.0
 11
403.4080955562446
 21
194.3764190305262
 31
0.0
  0
LINE
  5
4B6B
330
4B2B
100
AcDbEntity
  8
DIM
  6
CONTINUOUS
 62
     0
100
AcDbLine
 10
376.9080955562446
 20
193.5434190305262
 30
0.0
 11
400.9080955562446
 21
193.5434190305262
 31
0.0
  0
SOLID
  5
4B6C
330
4B2B
100
AcDbEntity
  8
DIM
  6
CONTINUOUS
 62
     0
100
AcDbTrace
 10
376.9080955562446
 20
193.9600856971928
 30
0.0
 11
376.9080955562446
 21
193.1267523638594
 31
0.0
 12
374.4080955562446
 22
193.5434190305262
 32
0.0
 13
374.4080955562446
 23
193.5434190305262
 33
0.0
  0
SOLID
  5
4B6D
330
4B2B
100
AcDbEntity
  8
DIM
  6
CONTINUOUS
 62
     0
100
AcDbTrace
 10
400.9080955562446
 20
193.9600856971928
 30
0.0
 11
400.9080955562446
 21
193.1267523638594
 31
0.0
 12
403.4080955562446
 22
193.5434190305262
 32
0.0
 13
403.4080955562446
 23
193.5434190305262
 33
0.0
  0
MTEXT
  5
4B6E
330
4B2B
100
AcDbEntity
  8
DIM
  6
CONTINUOUS
 62
     4
100
AcDbMText
 10
388.9080955562446
 20
195.3304244875521
 30
0.0
 40
2.5
 41
0.0
 71
     5
 72
     1
  1
\A1;29
  7
TSTYLE5
1001
ACAD
1000
MTEXTBEGIN
1070
    73
1070
     1
1070
    44
1040
1.0
1070
    74
1070
     0
1000
MTEXTEND
1000
MTEXTBEGIN
1070
    73
1070
     1
1070
    44
1040
1.0
1070
    74
1070
     0
1000
MTEXTEND
1000
MTEXTBEGIN
1070
    73
1070
     1
1070
    44
1040
1.0
1070
    74
1070
     0
1000
MTEXTEND
  0
POINT
  5
4B6F
330
4B2B
100
AcDbEntity
  8
DEFPOINTS
  6
CONTINUOUS
 62
     0
100
AcDbPoint
 10
374.4080955562446
 20
171.9214190305262
 30
0.0
  0
POINT
  5
4B70
330
4B2B
100
AcDbEntity
  8
DEFPOINTS
  6
CONTINUOUS
 62
     0
100
AcDbPoint
 10
403.4080955562446
 20
171.9214190305262
 30
0.0
  0
POINT
  5
4B71
330
4B2B
100
AcDbEntity
  8
DEFPOINTS
  6
CONTINUOUS
 62
     0
100
AcDbPoint
 10
403.4080955562446
 20
193.5434190305262
 30
0.0
  0
ENDBLK
  5
4B36
330
4B2B
100
AcDbEntity
  8
0
100
AcDbBlockEnd
  0
BLOCK
  5
4B41
330
4B37
100
AcDbEntity
  8
0
100
AcDbBlockBegin
  2
*D31
 70
     1
 10
0.0
 20
0.0
 30
0.0
  3
*D31
  1

  0
LINE
  5
4B72
330
4B37
100
AcDbEntity
  8
DIM
  6
CONTINUOUS
 62
     0
100
AcDbLine
 10
418.1340955562446
 20
188.186419030526
 30
0.0
 11
418.1340955562446
 21
194.3764190305262
 31
0.0
  0
LINE
  5
4B73
330
4B37
100
AcDbEntity
  8
DIM
  6
CONTINUOUS
 62
     0
100
AcDbLine
 10
430.8340955562447
 20
188.186419030526
 30
0.0
 11
430.8340955562447
 21
194.3764190305262
 31
0.0
  0
LINE
  5
4B74
330
4B37
100
AcDbEntity
  8
DIM
  6
CONTINUOUS
 62
     0
100
AcDbLine
 10
420.6340955562446
 20
193.5434190305262
 30
0.0
 11
428.3340955562446
 21
193.5434190305262
 31
0.0
  0
SOLID
  5
4B75
330
4B37
100
AcDbEntity
  8
DIM
  6
CONTINUOUS
 62
     0
100
AcDbTrace
 10
420.6340955562446
 20
193.9600856971928
 30
0.0
 11
420.6340955562446
 21
193.1267523638594
 31
0.0
 12
418.1340955562446
 22
193.5434190305262
 32
0.0
 13
418.1340955562446
 23
193.5434190305262
 33
0.0
  0
SOLID
  5
4B76
330
4B37
100
AcDbEntity
  8
DIM
  6
CONTINUOUS
 62
     0
100
AcDbTrace
 10
428.3340955562446
 20
193.9600856971928
 30
0.0
 11
428.3340955562446
 21
193.1267523638594
 31
0.0
 12
430.8340955562447
 22
193.5434190305262
 32
0.0
 13
430.8340955562447
 23
193.5434190305262
 33
0.0
  0
MTEXT
  5
4B77
330
4B37
100
AcDbEntity
  8
DIM
  6
CONTINUOUS
 62
     4
100
AcDbMText
 10
424.4840955562446
 20
195.3005813770473
 30
0.0
 40
2.5
 41
0.0
 71
     5
 72
     1
  1
\A1;12.7
  7
TSTYLE5
1001
ACAD
1000
MTEXTBEGIN
1070
    73
1070
     1
1070
    44
1040
1.0
1070
    74
1070
     0
1000
MTEXTEND
1000
MTEXTBEGIN
1070
    73
1070
     1
1070
    44
1040
1.0
1070
    74
1070
     0
1000
MTEXTEND
1000
MTEXTBEGIN
1070
    73
1070
     1
1070
    44
1040
1.0
1070
    74
1070
     0
1000
MTEXTEND
  0
POINT
  5
4B78
330
4B37
100
AcDbEntity
  8
DEFPOINTS
  6
CONTINUOUS
 62
     0
100
AcDbPoint
 10
418.1340955562446
 20
171.9214190305262
 30
0.0
  0
POINT
  5
4B79
330
4B37
100
AcDbEntity
  8
DEFPOINTS
  6
CONTINUOUS
 62
     0
100
AcDbPoint
 10
430.8340955562447
 20
171.9214190305262
 30
0.0
  0
POINT
  5
4B7A
330
4B37
100
AcDbEntity
  8
DEFPOINTS
  6
CONTINUOUS
 62
     0
100
AcDbPoint
 10
430.8340955562447
 20
193.5434190305262
 30
0.0
  0
ENDBLK
  5
4B42
330
4B37
100
AcDbEntity
  8
0
100
AcDbBlockEnd
  0
BLOCK
  5
4B4D
330
4B43
100
AcDbEntity
  8
0
100
AcDbBlockBegin
  2
*D32
 70
     1
 10
0.0
 20
0.0
 30
0.0
  3
*D32
  1

  0
LINE
  5
4B7B
330
4B43
100
AcDbEntity
  8
DIM
  6
CONTINUOUS
 62
     0
100
AcDbLine
 10
404.5190955562446
 20
171.9214190305262
 30
0.0
 11
408.6220955562446
 21
171.9214190305262
 31
0.0
  0
LINE
  5
4B7C
330
4B43
100
AcDbEntity
  8
DIM
  6
CONTINUOUS
 62
     0
100
AcDbLine
 10
403.7870955562446
 20
187.6214190305262
 30
0.0
 11
408.6220955562446
 21
187.6214190305262
 31
0.0
  0
LINE
  5
4B7D
330
4B43
100
AcDbEntity
  8
DIM
  6
CONTINUOUS
 62
     0
100
AcDbLine
 10
407.7890955562448
 20
174.4214190305262
 30
0.0
 11
407.7890955562448
 21
185.121419030526
 31
0.0
  0
SOLID
  5
4B7E
330
4B43
100
AcDbEntity
  8
DIM
  6
CONTINUOUS
 62
     0
100
AcDbTrace
 10
407.372428889578
 20
174.4214190305262
 30
0.0
 11
408.2057622229115
 21
174.4214190305262
 31
0.0
 12
407.7890955562448
 22
171.9214190305262
 32
0.0
 13
407.7890955562448
 23
171.9214190305262
 33
0.0
  0
SOLID
  5
4B7F
330
4B43
100
AcDbEntity
  8
DIM
  6
CONTINUOUS
 62
     0
100
AcDbTrace
 10
407.372428889578
 20
185.121419030526
 30
0.0
 11
408.2057622229115
 21
185.121419030526
 31
0.0
 12
407.7890955562448
 22
187.6214190305262
 32
0.0
 13
407.7890955562448
 23
187.6214190305262
 33
0.0
  0
MTEXT
  5
4B80
330
4B43
100
AcDbEntity
  8
DIM
  6
CONTINUOUS
 62
     4
100
AcDbMText
 10
406.0020900992188
 20
179.9404190305262
 30
0.0
 40
2.5
 41
0.0
 71
     5
 72
     1
  1
\A1;15.7
  7
TSTYLE5
 11
0.0000000000000001
 21
1.0
 31
0.0
1001
ACAD
1000
MTEXTBEGIN
1070
    73
1070
     1
1070
    44
1040
1.0
1070
    74
1070
     0
1000
MTEXTEND
1000
MTEXTBEGIN
1070
    73
1070
     1
1070
    44
1040
1.0
1070
    74
1070
     0
1000
MTEXTEND
1000
MTEXTBEGIN
1070
    73
1070
     1
1070
    44
1040
1.0
1070
    74
1070
     0
1000
MTEXTEND
  0
POINT
  5
4B81
330
4B43
100
AcDbEntity
  8
DEFPOINTS
  6
CONTINUOUS
 62
     0
100
AcDbPoint
 10
403.4080955562446
 20
171.9214190305262
 30
0.0
  0
POINT
  5
4B82
330
4B43
100
AcDbEntity
  8
DEFPOINTS
  6
CONTINUOUS
 62
     0
100
AcDbPoint
 10
402.6760955562448
 20
187.6214190305262
 30
0.0
  0
POINT
  5
4B83
330
4B43
100
AcDbEntity
  8
DEFPOINTS
  6
CONTINUOUS
 62
     0
100
AcDbPoint
 10
407.7890955562448
 20
187.6214190305262
 30
0.0
  0
ENDBLK
  5
4B4E
330
4B43
100
AcDbEntity
  8
0
100
AcDbBlockEnd
  0
BLOCK
  5
4B5A
330
4B4F
100
AcDbEntity
  8
0
100
AcDbBlockBegin
  2
*D33
 70
     1
 10
0.0
 20
0.0
 30
0.0
  3
*D33
  1

  0
LINE
  5
4B84
330
4B4F
100
AcDbEntity
  8
DIM
  6
CONTINUOUS
 62
     0
100
AcDbLine
 10
427.8340955562446
 20
167.010419030526
 30
0.0
 11
427.8340955562446
 21
164.538419030526
 31
0.0
  0
LINE
  5
4B85
330
4B4F
100
AcDbEntity
  8
DIM
  6
CONTINUOUS
 62
     0
100
AcDbLine
 10
428.6340955562446
 20
167.010419030526
 30
0.0
 11
428.6340955562446
 21
164.538419030526
 31
0.0
  0
LINE
  5
4B86
330
4B4F
100
AcDbEntity
  8
DIM
  6
CONTINUOUS
 62
     0
100
AcDbLine
 10
425.3340955562446
 20
165.371419030526
 30
0.0
 11
422.8340955562447
 21
165.371419030526
 31
0.0
  0
LINE
  5
4B87
330
4B4F
100
AcDbEntity
  8
DIM
  6
CONTINUOUS
 62
     0
100
AcDbLine
 10
431.1340955562446
 20
165.371419030526
 30
0.0
 11
436.0835102902147
 21
165.371419030526
 31
0.0
  0
SOLID
  5
4B88
330
4B4F
100
AcDbEntity
  8
DIM
  6
CONTINUOUS
 62
     0
100
AcDbTrace
 10
425.3340955562446
 20
165.7880856971928
 30
0.0
 11
425.3340955562446
 21
164.9547523638595
 31
0.0
 12
427.8340955562446
 22
165.371419030526
 32
0.0
 13
427.8340955562446
 23
165.371419030526
 33
0.0
  0
SOLID
  5
4B89
330
4B4F
100
AcDbEntity
  8
DIM
  6
CONTINUOUS
 62
     0
100
AcDbTrace
 10
431.1340955562446
 20
165.7880856971928
 30
0.0
 11
431.1340955562446
 21
164.9547523638595
 31
0.0
 12
428.6340955562446
 22
165.371419030526
 32
0.0
 13
428.6340955562446
 23
165.371419030526
 33
0.0
  0
MTEXT
  5
4B8A
330
4B4F
100
AcDbEntity
  8
DIM
  6
CONTINUOUS
 62
     4
100
AcDbMText
 10
435.6460955562446
 20
167.1285813770473
 30
0.0
 40
2.5
 41
0.0
 71
     5
 72
     1
  1
\A1;1
  7
TSTYLE5
1001
ACAD
1000
MTEXTBEGIN
1070
    73
1070
     1
1070
    44
1040
1.0
1070
    74
1070
     0
1000
MTEXTEND
1000
MTEXTBEGIN
1070
    73
1070
     1
1070
    44
1040
1.0
1070
    74
1070
     0
1000
MTEXTEND
1000
MTEXTBEGIN
1070
    73
1070
     1
1070
    44
1040
1.0
1070
    74
1070
     0
1000
MTEXTEND
  0
POINT
  5
4B8B
330
4B4F
100
AcDbEntity
  8
DEFPOINTS
  6
CONTINUOUS
 62
     0
100
AcDbPoint
 10
427.8340955562446
 20
168.121419030526
 30
0.0
  0
POINT
  5
4B8C
330
4B4F
100
AcDbEntity
  8
DEFPOINTS
  6
CONTINUOUS
 62
     0
100
AcDbPoint
 10
428.6340955562446
 20
168.121419030526
 30
0.0
  0
POINT
  5
4B8D
330
4B4F
100
AcDbEntity
  8
DEFPOINTS
  6
CONTINUOUS
 62
     0
100
AcDbPoint
 10
428.6340955562446
 20
165.371419030526
 30
0.0
  0
ENDBLK
  5
4B5B
330
4B4F
100
AcDbEntity
  8
0
100
AcDbBlockEnd
  0
BLOCK
  5
4B67
330
4B5C
100
AcDbEntity
  8
0
100
AcDbBlockBegin
  2
*D34
 70
     1
 10
0.0
 20
0.0
 30
0.0
  3
*D34
  1

  0
LINE
  5
4B8E
330
4B5C
100
AcDbEntity
  8
DIM
  6
CONTINUOUS
 62
     0
100
AcDbLine
 10
402.9470955562446
 20
168.121419030526
 30
0.0
 11
408.6220955562446
 21
168.121419030526
 31
0.0
  0
LINE
  5
4B8F
330
4B5C
100
AcDbEntity
  8
DIM
  6
CONTINUOUS
 62
     0
100
AcDbLine
 10
404.2190955562446
 20
171.9214190305262
 30
0.0
 11
408.6220955562446
 21
171.9214190305262
 31
0.0
  0
LINE
  5
4B90
330
4B5C
100
AcDbEntity
  8
DIM
  6
CONTINUOUS
 62
     0
100
AcDbLine
 10
407.7890955562448
 20
174.4214190305262
 30
0.0
 11
407.7890955562448
 21
176.9214190305262
 31
0.0
  0
LINE
  5
4B91
330
4B5C
100
AcDbEntity
  8
DIM
  6
CONTINUOUS
 62
     0
100
AcDbLine
 10
407.7890955562448
 20
165.621419030526
 30
0.0
 11
407.7890955562448
 21
156.665836151945
 31
0.0
  0
SOLID
  5
4B92
330
4B5C
100
AcDbEntity
  8
DIM
  6
CONTINUOUS
 62
     0
100
AcDbTrace
 10
407.372428889578
 20
174.4214190305262
 30
0.0
 11
408.2057622229115
 21
174.4214190305262
 31
0.0
 12
407.7890955562448
 22
171.9214190305262
 32
0.0
 13
407.7890955562448
 23
171.9214190305262
 33
0.0
  0
SOLID
  5
4B93
330
4B5C
100
AcDbEntity
  8
DIM
  6
CONTINUOUS
 62
     0
100
AcDbTrace
 10
407.372428889578
 20
165.621419030526
 30
0.0
 11
408.2057622229115
 21
165.621419030526
 31
0.0
 12
407.7890955562448
 22
168.121419030526
 32
0.0
 13
407.7890955562448
 23
168.121419030526
 33
0.0
  0
MTEXT
  5
4B94
330
4B5C
100
AcDbEntity
  8
DIM
  6
CONTINUOUS
 62
     4
100
AcDbMText
 10
406.0008963747987
 20
158.829419030526
 30
0.0
 40
2.5
 41
0.0
 71
     5
 72
     1
  1
\A1;3.8
  7
TSTYLE5
 11
0.0000000000000001
 21
1.0
 31
0.0
1001
ACAD
1000
MTEXTBEGIN
1070
    73
1070
     1
1070
    44
1040
1.0
1070
    74
1070
     0
1000
MTEXTEND
1000
MTEXTBEGIN
1070
    73
1070
     1
1070
    44
1040
1.0
1070
    74
1070
     0
1000
MTEXTEND
1000
MTEXTBEGIN
1070
    73
1070
     1
1070
    44
1040
1.0
1070
    74
1070
     0
1000
MTEXTEND
  0
POINT
  5
4B95
330
4B5C
100
AcDbEntity
  8
DEFPOINTS
  6
CONTINUOUS
 62
     0
100
AcDbPoint
 10
401.8360955562447
 20
168.121419030526
 30
0.0
  0
POINT
  5
4B96
330
4B5C
100
AcDbEntity
  8
DEFPOINTS
  6
CONTINUOUS
 62
     0
100
AcDbPoint
 10
403.1080955562447
 20
171.9214190305262
 30
0.0
  0
POINT
  5
4B97
330
4B5C
100
AcDbEntity
  8
DEFPOINTS
  6
CONTINUOUS
 62
     0
100
AcDbPoint
 10
407.7890955562448
 20
171.9214190305262
 30
0.0
  0
ENDBLK
  5
4B68
330
4B5C
100
AcDbEntity
  8
0
100
AcDbBlockEnd
  0
BLOCK
  5
4BA3
330
4B99
100
AcDbEntity
  8
0
100
AcDbBlockBegin
  2
*D35
 70
     1
 10
0.0
 20
0.0
 30
0.0
  3
*D35
  1

  0
LINE
  5
4B9A
330
4B99
100
AcDbEntity
  8
DIM
  6
CONTINUOUS
 62
     0
100
AcDbLine
 10
374.4080955562446
 20
188.2254190305262
 30
0.0
 11
374.4080955562446
 21
194.3764190305262
 31
0.0
  0
LINE
  5
4B9B
330
4B99
100
AcDbEntity
  8
DIM
  6
CONTINUOUS
 62
     0
100
AcDbLine
 10
403.4080955562446
 20
188.2254190305262
 30
0.0
 11
403.4080955562446
 21
194.3764190305262
 31
0.0
  0
LINE
  5
4B9C
330
4B99
100
AcDbEntity
  8
DIM
  6
CONTINUOUS
 62
     0
100
AcDbLine
 10
376.9080955562446
 20
193.5434190305262
 30
0.0
 11
400.9080955562446
 21
193.5434190305262
 31
0.0
  0
SOLID
  5
4B9D
330
4B99
100
AcDbEntity
  8
DIM
  6
CONTINUOUS
 62
     0
100
AcDbTrace
 10
376.9080955562446
 20
193.9600856971928
 30
0.0
 11
376.9080955562446
 21
193.1267523638594
 31
0.0
 12
374.4080955562446
 22
193.5434190305262
 32
0.0
 13
374.4080955562446
 23
193.5434190305262
 33
0.0
  0
SOLID
  5
4B9E
330
4B99
100
AcDbEntity
  8
DIM
  6
CONTINUOUS
 62
     0
100
AcDbTrace
 10
400.9080955562446
 20
193.9600856971928
 30
0.0
 11
400.9080955562446
 21
193.1267523638594
 31
0.0
 12
403.4080955562446
 22
193.5434190305262
 32
0.0
 13
403.4080955562446
 23
193.5434190305262
 33
0.0
  0
MTEXT
  5
4B9F
330
4B99
100
AcDbEntity
  8
DIM
  6
CONTINUOUS
 62
     4
100
AcDbMText
 10
388.9080955562446
 20
195.3304244875521
 30
0.0
 40
2.5
 41
0.0
 71
     5
 72
     1
  1
\A1;29
  7
TSTYLE5
1001
ACAD
1000
MTEXTBEGIN
1070
    73
1070
     1
1070
    44
1040
1.0
1070
    74
1070
     0
1000
MTEXTEND
1000
MTEXTBEGIN
1070
    73
1070
     1
1070
    44
1040
1.0
1070
    74
1070
     0
1000
MTEXTEND
1000
MTEXTBEGIN
1070
    73
1070
     1
1070
    44
1040
1.0
1070
    74
1070
     0
1000
MTEXTEND
  0
POINT
  5
4BA0
330
4B99
100
AcDbEntity
  8
DEFPOINTS
  6
CONTINUOUS
 62
     0
100
AcDbPoint
 10
374.4080955562446
 20
171.9214190305262
 30
0.0
  0
POINT
  5
4BA1
330
4B99
100
AcDbEntity
  8
DEFPOINTS
  6
CONTINUOUS
 62
     0
100
AcDbPoint
 10
403.4080955562446
 20
171.9214190305262
 30
0.0
  0
POINT
  5
4BA2
330
4B99
100
AcDbEntity
  8
DEFPOINTS
  6
CONTINUOUS
 62
     0
100
AcDbPoint
 10
403.4080955562446
 20
193.5434190305262
 30
0.0
  0
ENDBLK
  5
4BA4
330
4B99
100
AcDbEntity
  8
0
100
AcDbBlockEnd
  0
BLOCK
  5
4BAF
330
4BA5
100
AcDbEntity
  8
0
100
AcDbBlockBegin
  2
*D36
 70
     1
 10
0.0
 20
0.0
 30
0.0
  3
*D36
  1

  0
LINE
  5
4BA6
330
4BA5
100
AcDbEntity
  8
DIM
  6
CONTINUOUS
 62
     0
100
AcDbLine
 10
418.1340955562446
 20
188.186419030526
 30
0.0
 11
418.1340955562446
 21
194.3764190305262
 31
0.0
  0
LINE
  5
4BA7
330
4BA5
100
AcDbEntity
  8
DIM
  6
CONTINUOUS
 62
     0
100
AcDbLine
 10
430.8340955562447
 20
188.186419030526
 30
0.0
 11
430.8340955562447
 21
194.3764190305262
 31
0.0
  0
LINE
  5
4BA8
330
4BA5
100
AcDbEntity
  8
DIM
  6
CONTINUOUS
 62
     0
100
AcDbLine
 10
420.6340955562446
 20
193.5434190305262
 30
0.0
 11
428.3340955562446
 21
193.5434190305262
 31
0.0
  0
SOLID
  5
4BA9
330
4BA5
100
AcDbEntity
  8
DIM
  6
CONTINUOUS
 62
     0
100
AcDbTrace
 10
420.6340955562446
 20
193.9600856971928
 30
0.0
 11
420.6340955562446
 21
193.1267523638594
 31
0.0
 12
418.1340955562446
 22
193.5434190305262
 32
0.0
 13
418.1340955562446
 23
193.5434190305262
 33
0.0
  0
SOLID
  5
4BAA
330
4BA5
100
AcDbEntity
  8
DIM
  6
CONTINUOUS
 62
     0
100
AcDbTrace
 10
428.3340955562446
 20
193.9600856971928
 30
0.0
 11
428.3340955562446
 21
193.1267523638594
 31
0.0
 12
430.8340955562447
 22
193.5434190305262
 32
0.0
 13
430.8340955562447
 23
193.5434190305262
 33
0.0
  0
MTEXT
  5
4BAB
330
4BA5
100
AcDbEntity
  8
DIM
  6
CONTINUOUS
 62
     4
100
AcDbMText
 10
424.4840955562446
 20
195.3005813770473
 30
0.0
 40
2.5
 41
0.0
 71
     5
 72
     1
  1
\A1;12.7
  7
TSTYLE5
1001
ACAD
1000
MTEXTBEGIN
1070
    73
1070
     1
1070
    44
1040
1.0
1070
    74
1070
     0
1000
MTEXTEND
1000
MTEXTBEGIN
1070
    73
1070
     1
1070
    44
1040
1.0
1070
    74
1070
     0
1000
MTEXTEND
1000
MTEXTBEGIN
1070
    73
1070
     1
1070
    44
1040
1.0
1070
    74
1070
     0
1000
MTEXTEND
  0
POINT
  5
4BAC
330
4BA5
100
AcDbEntity
  8
DEFPOINTS
  6
CONTINUOUS
 62
     0
100
AcDbPoint
 10
418.1340955562446
 20
171.9214190305262
 30
0.0
  0
POINT
  5
4BAD
330
4BA5
100
AcDbEntity
  8
DEFPOINTS
  6
CONTINUOUS
 62
     0
100
AcDbPoint
 10
430.8340955562447
 20
171.9214190305262
 30
0.0
  0
POINT
  5
4BAE
330
4BA5
100
AcDbEntity
  8
DEFPOINTS
  6
CONTINUOUS
 62
     0
100
AcDbPoint
 10
430.8340955562447
 20
193.5434190305262
 30
0.0
  0
ENDBLK
  5
4BB0
330
4BA5
100
AcDbEntity
  8
0
100
AcDbBlockEnd
  0
BLOCK
  5
4BBB
330
4BB1
100
AcDbEntity
  8
0
100
AcDbBlockBegin
  2
*D37
 70
     1
 10
0.0
 20
0.0
 30
0.0
  3
*D37
  1

  0
LINE
  5
4BB2
330
4BB1
100
AcDbEntity
  8
DIM
  6
CONTINUOUS
 62
     0
100
AcDbLine
 10
404.5190955562446
 20
171.9214190305262
 30
0.0
 11
408.6220955562446
 21
171.9214190305262
 31
0.0
  0
LINE
  5
4BB3
330
4BB1
100
AcDbEntity
  8
DIM
  6
CONTINUOUS
 62
     0
100
AcDbLine
 10
403.7870955562446
 20
187.6214190305262
 30
0.0
 11
408.6220955562446
 21
187.6214190305262
 31
0.0
  0
LINE
  5
4BB4
330
4BB1
100
AcDbEntity
  8
DIM
  6
CONTINUOUS
 62
     0
100
AcDbLine
 10
407.7890955562448
 20
174.4214190305262
 30
0.0
 11
407.7890955562448
 21
185.121419030526
 31
0.0
  0
SOLID
  5
4BB5
330
4BB1
100
AcDbEntity
  8
DIM
  6
CONTINUOUS
 62
     0
100
AcDbTrace
 10
407.372428889578
 20
174.4214190305262
 30
0.0
 11
408.2057622229115
 21
174.4214190305262
 31
0.0
 12
407.7890955562448
 22
171.9214190305262
 32
0.0
 13
407.7890955562448
 23
171.9214190305262
 33
0.0
  0
SOLID
  5
4BB6
330
4BB1
100
AcDbEntity
  8
DIM
  6
CONTINUOUS
 62
     0
100
AcDbTrace
 10
407.372428889578
 20
185.121419030526
 30
0.0
 11
408.2057622229115
 21
185.121419030526
 31
0.0
 12
407.7890955562448
 22
187.6214190305262
 32
0.0
 13
407.7890955562448
 23
187.6214190305262
 33
0.0
  0
MTEXT
  5
4BB7
330
4BB1
100
AcDbEntity
  8
DIM
  6
CONTINUOUS
 62
     4
100
AcDbMText
 10
406.0020900992188
 20
179.9404190305262
 30
0.0
 40
2.5
 41
0.0
 71
     5
 72
     1
  1
\A1;15.7
  7
TSTYLE5
 11
0.0000000000000001
 21
1.0
 31
0.0
1001
ACAD
1000
MTEXTBEGIN
1070
    73
1070
     1
1070
    44
1040
1.0
1070
    74
1070
     0
1000
MTEXTEND
1000
MTEXTBEGIN
1070
    73
1070
     1
1070
    44
1040
1.0
1070
    74
1070
     0
1000
MTEXTEND
1000
MTEXTBEGIN
1070
    73
1070
     1
1070
    44
1040
1.0
1070
    74
1070
     0
1000
MTEXTEND
  0
POINT
  5
4BB8
330
4BB1
100
AcDbEntity
  8
DEFPOINTS
  6
CONTINUOUS
 62
     0
100
AcDbPoint
 10
403.4080955562446
 20
171.9214190305262
 30
0.0
  0
POINT
  5
4BB9
330
4BB1
100
AcDbEntity
  8
DEFPOINTS
  6
CONTINUOUS
 62
     0
100
AcDbPoint
 10
402.6760955562448
 20
187.6214190305262
 30
0.0
  0
POINT
  5
4BBA
330
4BB1
100
AcDbEntity
  8
DEFPOINTS
  6
CONTINUOUS
 62
     0
100
AcDbPoint
 10
407.7890955562448
 20
187.6214190305262
 30
0.0
  0
ENDBLK
  5
4BBC
330
4BB1
100
AcDbEntity
  8
0
100
AcDbBlockEnd
  0
BLOCK
  5
4BC8
330
4BBD
100
AcDbEntity
  8
0
100
AcDbBlockBegin
  2
*D38
 70
     1
 10
0.0
 20
0.0
 30
0.0
  3
*D38
  1

  0
LINE
  5
4BBE
330
4BBD
100
AcDbEntity
  8
DIM
  6
CONTINUOUS
 62
     0
100
AcDbLine
 10
427.8340955562446
 20
167.010419030526
 30
0.0
 11
427.8340955562446
 21
164.538419030526
 31
0.0
  0
LINE
  5
4BBF
330
4BBD
100
AcDbEntity
  8
DIM
  6
CONTINUOUS
 62
     0
100
AcDbLine
 10
428.6340955562446
 20
167.010419030526
 30
0.0
 11
428.6340955562446
 21
164.538419030526
 31
0.0
  0
LINE
  5
4BC0
330
4BBD
100
AcDbEntity
  8
DIM
  6
CONTINUOUS
 62
     0
100
AcDbLine
 10
425.3340955562446
 20
165.371419030526
 30
0.0
 11
422.8340955562447
 21
165.371419030526
 31
0.0
  0
LINE
  5
4BC1
330
4BBD
100
AcDbEntity
  8
DIM
  6
CONTINUOUS
 62
     0
100
AcDbLine
 10
431.1340955562446
 20
165.371419030526
 30
0.0
 11
436.0835102902147
 21
165.371419030526
 31
0.0
  0
SOLID
  5
4BC2
330
4BBD
100
AcDbEntity
  8
DIM
  6
CONTINUOUS
 62
     0
100
AcDbTrace
 10
425.3340955562446
 20
165.7880856971928
 30
0.0
 11
425.3340955562446
 21
164.9547523638595
 31
0.0
 12
427.8340955562446
 22
165.371419030526
 32
0.0
 13
427.8340955562446
 23
165.371419030526
 33
0.0
  0
SOLID
  5
4BC3
330
4BBD
100
AcDbEntity
  8
DIM
  6
CONTINUOUS
 62
     0
100
AcDbTrace
 10
431.1340955562446
 20
165.7880856971928
 30
0.0
 11
431.1340955562446
 21
164.9547523638595
 31
0.0
 12
428.6340955562446
 22
165.371419030526
 32
0.0
 13
428.6340955562446
 23
165.371419030526
 33
0.0
  0
MTEXT
  5
4BC4
330
4BBD
100
AcDbEntity
  8
DIM
  6
CONTINUOUS
 62
     4
100
AcDbMText
 10
435.6460955562446
 20
167.1285813770473
 30
0.0
 40
2.5
 41
0.0
 71
     5
 72
     1
  1
\A1;1
  7
TSTYLE5
1001
ACAD
1000
MTEXTBEGIN
1070
    73
1070
     1
1070
    44
1040
1.0
1070
    74
1070
     0
1000
MTEXTEND
1000
MTEXTBEGIN
1070
    73
1070
     1
1070
    44
1040
1.0
1070
    74
1070
     0
1000
MTEXTEND
1000
MTEXTBEGIN
1070
    73
1070
     1
1070
    44
1040
1.0
1070
    74
1070
     0
1000
MTEXTEND
  0
POINT
  5
4BC5
330
4BBD
100
AcDbEntity
  8
DEFPOINTS
  6
CONTINUOUS
 62
     0
100
AcDbPoint
 10
427.8340955562446
 20
168.121419030526
 30
0.0
  0
POINT
  5
4BC6
330
4BBD
100
AcDbEntity
  8
DEFPOINTS
  6
CONTINUOUS
 62
     0
100
AcDbPoint
 10
428.6340955562446
 20
168.121419030526
 30
0.0
  0
POINT
  5
4BC7
330
4BBD
100
AcDbEntity
  8
DEFPOINTS
  6
CONTINUOUS
 62
     0
100
AcDbPoint
 10
428.6340955562446
 20
165.371419030526
 30
0.0
  0
ENDBLK
  5
4BC9
330
4BBD
100
AcDbEntity
  8
0
100
AcDbBlockEnd
  0
BLOCK
  5
4BD5
330
4BCA
100
AcDbEntity
  8
0
100
AcDbBlockBegin
  2
*D39
 70
     1
 10
0.0
 20
0.0
 30
0.0
  3
*D39
  1

  0
LINE
  5
4BCB
330
4BCA
100
AcDbEntity
  8
DIM
  6
CONTINUOUS
 62
     0
100
AcDbLine
 10
402.9470955562446
 20
168.121419030526
 30
0.0
 11
408.6220955562446
 21
168.121419030526
 31
0.0
  0
LINE
  5
4BCC
330
4BCA
100
AcDbEntity
  8
DIM
  6
CONTINUOUS
 62
     0
100
AcDbLine
 10
404.2190955562446
 20
171.9214190305262
 30
0.0
 11
408.6220955562446
 21
171.9214190305262
 31
0.0
  0
LINE
  5
4BCD
330
4BCA
100
AcDbEntity
  8
DIM
  6
CONTINUOUS
 62
     0
100
AcDbLine
 10
407.7890955562448
 20
174.4214190305262
 30
0.0
 11
407.7890955562448
 21
176.9214190305262
 31
0.0
  0
LINE
  5
4BCE
330
4BCA
100
AcDbEntity
  8
DIM
  6
CONTINUOUS
 62
     0
100
AcDbLine
 10
407.7890955562448
 20
165.621419030526
 30
0.0
 11
407.7890955562448
 21
156.665836151945
 31
0.0
  0
SOLID
  5
4BCF
330
4BCA
100
AcDbEntity
  8
DIM
  6
CONTINUOUS
 62
     0
100
AcDbTrace
 10
407.372428889578
 20
174.4214190305262
 30
0.0
 11
408.2057622229115
 21
174.4214190305262
 31
0.0
 12
407.7890955562448
 22
171.9214190305262
 32
0.0
 13
407.7890955562448
 23
171.9214190305262
 33
0.0
  0
SOLID
  5
4BD0
330
4BCA
100
AcDbEntity
  8
DIM
  6
CONTINUOUS
 62
     0
100
AcDbTrace
 10
407.372428889578
 20
165.621419030526
 30
0.0
 11
408.2057622229115
 21
165.621419030526
 31
0.0
 12
407.7890955562448
 22
168.121419030526
 32
0.0
 13
407.7890955562448
 23
168.121419030526
 33
0.0
  0
MTEXT
  5
4BD1
330
4BCA
100
AcDbEntity
  8
DIM
  6
CONTINUOUS
 62
     4
100
AcDbMText
 10
406.0008963747987
 20
158.829419030526
 30
0.0
 40
2.5
 41
0.0
 71
     5
 72
     1
  1
\A1;3.8
  7
TSTYLE5
 11
0.0000000000000001
 21
1.0
 31
0.0
1001
ACAD
1000
MTEXTBEGIN
1070
    73
1070
     1
1070
    44
1040
1.0
1070
    74
1070
     0
1000
MTEXTEND
1000
MTEXTBEGIN
1070
    73
1070
     1
1070
    44
1040
1.0
1070
    74
1070
     0
1000
MTEXTEND
1000
MTEXTBEGIN
1070
    73
1070
     1
1070
    44
1040
1.0
1070
    74
1070
     0
1000
MTEXTEND
  0
POINT
  5
4BD2
330
4BCA
100
AcDbEntity
  8
DEFPOINTS
  6
CONTINUOUS
 62
     0
100
AcDbPoint
 10
401.8360955562447
 20
168.121419030526
 30
0.0
  0
POINT
  5
4BD3
330
4BCA
100
AcDbEntity
  8
DEFPOINTS
  6
CONTINUOUS
 62
     0
100
AcDbPoint
 10
403.1080955562447
 20
171.9214190305262
 30
0.0
  0
POINT
  5
4BD4
330
4BCA
100
AcDbEntity
  8
DEFPOINTS
  6
CONTINUOUS
 62
     0
100
AcDbPoint
 10
407.7890955562448
 20
171.9214190305262
 30
0.0
  0
ENDBLK
  5
4BD6
330
4BCA
100
AcDbEntity
  8
0
100
AcDbBlockEnd
  0
BLOCK
  5
4C6A
330
4C5F
100
AcDbEntity
  8
0
100
AcDbBlockBegin
  2
*D40
 70
     1
 10
0.0
 20
0.0
 30
0.0
  3
*D40
  1

  0
LINE
  5
4D9C
330
4C5F
100
AcDbEntity
  8
DIM
  6
CONTINUOUS
100
AcDbLine
 10
130.1871162468861
 20
239.6363971803705
 30
0.0
 11
130.1871162468861
 21
237.6363971803705
 31
0.0
  0
LINE
  5
4D9D
330
4C5F
100
AcDbEntity
  8
DIM
  6
CONTINUOUS
100
AcDbLine
 10
130.9871162468861
 20
239.6363971803705
 30
0.0
 11
130.9871162468861
 21
237.6363971803705
 31
0.0
  0
LINE
  5
4D9E
330
4C5F
100
AcDbEntity
  8
DIM
  6
CONTINUOUS
100
AcDbLine
 10
127.6871162468861
 20
238.8863971803704
 30
0.0
 11
125.187116246886
 21
238.8863971803704
 31
0.0
  0
LINE
  5
4D9F
330
4C5F
100
AcDbEntity
  8
DIM
  6
CONTINUOUS
100
AcDbLine
 10
133.487116246886
 20
238.8863971803704
 30
0.0
 11
138.9556305715792
 21
238.8863971803704
 31
0.0
  0
LINE
  5
4DA0
330
4C5F
100
AcDbEntity
  8
DIM
  6
CONTINUOUS
100
AcDbLine
 10
130.1871162468861
 20
238.8863971803704
 30
0.0
 11
130.9871162468861
 21
238.8863971803704
 31
0.0
  0
SOLID
  5
4DA1
330
4C5F
100
AcDbEntity
  8
DIM
  6
CONTINUOUS
100
AcDbTrace
 10
127.6871162468861
 20
239.303063847037
 30
0.0
 11
127.6871162468861
 21
238.4697305137037
 31
0.0
 12
130.1871162468861
 22
238.8863971803704
 32
0.0
 13
130.1871162468861
 23
238.8863971803704
 33
0.0
  0
SOLID
  5
4DA2
330
4C5F
100
AcDbEntity
  8
DIM
  6
CONTINUOUS
100
AcDbTrace
 10
133.487116246886
 20
239.303063847037
 30
0.0
 11
133.487116246886
 21
238.4697305137037
 31
0.0
 12
130.9871162468861
 22
238.8863971803704
 32
0.0
 13
130.9871162468861
 23
238.8863971803704
 33
0.0
  0
MTEXT
  5
4DA3
330
4C5F
100
AcDbEntity
  8
DIM
  6
CONTINUOUS
 62
     2
100
AcDbMText
 10
137.999116246886
 20
240.415080672867
 30
0.0
 40
1.8
 41
0.0
 71
     5
 72
     1
  1
1
  7
FINDER
1001
ACAD
1000
MTEXTBEGIN
1070
    73
1070
     1
1070
    44
1040
1.0
1070
    74
1070
     0
1000
MTEXTEND
1000
MTEXTBEGIN
1070
    73
1070
     1
1070
    44
1040
1.0
1070
    74
1070
     0
1000
MTEXTEND
1000
MTEXTBEGIN
1070
    73
1070
     1
1070
    44
1040
1.0
1070
    74
1070
     0
1000
MTEXTEND
  0
POINT
  5
4DA4
330
4C5F
100
AcDbEntity
  8
DEFPOINTS
  6
CONTINUOUS
 62
     0
100
AcDbPoint
 10
130.1871162468861
 20
241.6363971803705
 30
0.0
  0
POINT
  5
4DA5
330
4C5F
100
AcDbEntity
  8
DEFPOINTS
  6
CONTINUOUS
 62
     0
100
AcDbPoint
 10
130.9871162468861
 20
241.6363971803705
 30
0.0
  0
POINT
  5
4DA6
330
4C5F
100
AcDbEntity
  8
DEFPOINTS
  6
CONTINUOUS
 62
     0
100
AcDbPoint
 10
130.9871162468861
 20
238.8863971803704
 30
0.0
  0
ENDBLK
  5
4C6B
330
4C5F
100
AcDbEntity
  8
0
100
AcDbBlockEnd
  0
BLOCK
  5
4C76
330
4C6C
100
AcDbEntity
  8
0
100
AcDbBlockBegin
  2
*D41
 70
     1
 10
0.0
 20
0.0
 30
0.0
  3
*D41
  1

  0
LINE
  5
4DC4
330
4C6C
100
AcDbEntity
  8
DIM
  6
CONTINUOUS
100
AcDbLine
 10
76.76111624688616
 20
247.4363971803704
 30
0.0
 11
76.76111624688616
 21
268.3083971803704
 31
0.0
  0
LINE
  5
4DC5
330
4C6C
100
AcDbEntity
  8
DIM
  6
CONTINUOUS
100
AcDbLine
 10
105.7611162468861
 20
247.4363971803704
 30
0.0
 11
105.7611162468861
 21
268.3083971803704
 31
0.0
  0
LINE
  5
4DC6
330
4C6C
100
AcDbEntity
  8
DIM
  6
CONTINUOUS
100
AcDbLine
 10
79.26111624688616
 20
267.0583971803704
 30
0.0
 11
103.261116246886
 21
267.0583971803704
 31
0.0
  0
SOLID
  5
4DC7
330
4C6C
100
AcDbEntity
  8
DIM
  6
CONTINUOUS
100
AcDbTrace
 10
79.26111624688616
 20
267.475063847037
 30
0.0
 11
79.26111624688616
 21
266.6417305137037
 31
0.0
 12
76.76111624688616
 22
267.0583971803704
 32
0.0
 13
76.76111624688616
 23
267.0583971803704
 33
0.0
  0
SOLID
  5
4DC8
330
4C6C
100
AcDbEntity
  8
DIM
  6
CONTINUOUS
100
AcDbTrace
 10
103.261116246886
 20
267.475063847037
 30
0.0
 11
103.261116246886
 21
266.6417305137037
 31
0.0
 12
105.7611162468861
 22
267.0583971803704
 32
0.0
 13
105.7611162468861
 23
267.0583971803704
 33
0.0
  0
MTEXT
  5
4DC9
330
4C6C
100
AcDbEntity
  8
DIM
  6
CONTINUOUS
 62
     2
100
AcDbMText
 10
91.26111624688617
 20
268.6024285582695
 30
0.0
 40
1.8
 41
0.0
 71
     5
 72
     1
  1
29
  7
FINDER
1001
ACAD
1000
MTEXTBEGIN
1070
    73
1070
     1
1070
    44
1040
1.0
1070
    74
1070
     0
1000
MTEXTEND
1000
MTEXTBEGIN
1070
    73
1070
     1
1070
    44
1040
1.0
1070
    74
1070
     0
1000
MTEXTEND
1000
MTEXTBEGIN
1070
    73
1070
     1
1070
    44
1040
1.0
1070
    74
1070
     0
1000
MTEXTEND
  0
POINT
  5
4DCA
330
4C6C
100
AcDbEntity
  8
DEFPOINTS
  6
CONTINUOUS
 62
     0
100
AcDbPoint
 10
76.76111624688616
 20
245.4363971803704
 30
0.0
  0
POINT
  5
4DCB
330
4C6C
100
AcDbEntity
  8
DEFPOINTS
  6
CONTINUOUS
 62
     0
100
AcDbPoint
 10
105.7611162468861
 20
245.4363971803704
 30
0.0
  0
POINT
  5
4DCC
330
4C6C
100
AcDbEntity
  8
DEFPOINTS
  6
CONTINUOUS
 62
     0
100
AcDbPoint
 10
105.7611162468861
 20
267.0583971803704
 30
0.0
  0
ENDBLK
  5
4C77
330
4C6C
100
AcDbEntity
  8
0
100
AcDbBlockEnd
  0
BLOCK
  5
4C82
330
4C78
100
AcDbEntity
  8
0
100
AcDbBlockBegin
  2
*D42
 70
     1
 10
0.0
 20
0.0
 30
0.0
  3
*D42
  1

  0
LINE
  5
4DA7
330
4C78
100
AcDbEntity
  8
DIM
  6
CONTINUOUS
100
AcDbLine
 10
120.4871162468861
 20
247.4363971803704
 30
0.0
 11
120.4871162468861
 21
268.3083971803704
 31
0.0
  0
LINE
  5
4DA8
330
4C78
100
AcDbEntity
  8
DIM
  6
CONTINUOUS
100
AcDbLine
 10
133.187116246886
 20
247.4363971803704
 30
0.0
 11
133.187116246886
 21
268.3083971803704
 31
0.0
  0
LINE
  5
4DA9
330
4C78
100
AcDbEntity
  8
DIM
  6
CONTINUOUS
100
AcDbLine
 10
122.987116246886
 20
267.0583971803704
 30
0.0
 11
130.687116246886
 21
267.0583971803704
 31
0.0
  0
SOLID
  5
4DAA
330
4C78
100
AcDbEntity
  8
DIM
  6
CONTINUOUS
100
AcDbTrace
 10
122.987116246886
 20
267.475063847037
 30
0.0
 11
122.987116246886
 21
266.6417305137037
 31
0.0
 12
120.4871162468861
 22
267.0583971803704
 32
0.0
 13
120.4871162468861
 23
267.0583971803704
 33
0.0
  0
SOLID
  5
4DAB
330
4C78
100
AcDbEntity
  8
DIM
  6
CONTINUOUS
100
AcDbTrace
 10
130.687116246886
 20
267.475063847037
 30
0.0
 11
130.687116246886
 21
266.6417305137037
 31
0.0
 12
133.187116246886
 22
267.0583971803704
 32
0.0
 13
133.187116246886
 23
267.0583971803704
 33
0.0
  0
MTEXT
  5
4DAC
330
4C78
100
AcDbEntity
  8
DIM
  6
CONTINUOUS
 62
     2
100
AcDbMText
 10
126.837116246886
 20
268.587080672867
 30
0.0
 40
1.8
 41
0.0
 71
     5
 72
     1
  1
12.7
  7
FINDER
1001
ACAD
1000
MTEXTBEGIN
1070
    73
1070
     1
1070
    44
1040
1.0
1070
    74
1070
     0
1000
MTEXTEND
1000
MTEXTBEGIN
1070
    73
1070
     1
1070
    44
1040
1.0
1070
    74
1070
     0
1000
MTEXTEND
1000
MTEXTBEGIN
1070
    73
1070
     1
1070
    44
1040
1.0
1070
    74
1070
     0
1000
MTEXTEND
  0
POINT
  5
4DAD
330
4C78
100
AcDbEntity
  8
DEFPOINTS
  6
CONTINUOUS
 62
     0
100
AcDbPoint
 10
120.4871162468861
 20
245.4363971803704
 30
0.0
  0
POINT
  5
4DAE
330
4C78
100
AcDbEntity
  8
DEFPOINTS
  6
CONTINUOUS
 62
     0
100
AcDbPoint
 10
133.187116246886
 20
245.4363971803704
 30
0.0
  0
POINT
  5
4DAF
330
4C78
100
AcDbEntity
  8
DEFPOINTS
  6
CONTINUOUS
 62
     0
100
AcDbPoint
 10
133.187116246886
 20
267.0583971803704
 30
0.0
  0
ENDBLK
  5
4C83
330
4C78
100
AcDbEntity
  8
0
100
AcDbBlockEnd
  0
BLOCK
  5
4C8F
330
4C84
100
AcDbEntity
  8
0
100
AcDbBlockBegin
  2
*D43
 70
     1
 10
0.0
 20
0.0
 30
0.0
  3
*D43
  1

  0
LINE
  5
4DB0
330
4C84
100
AcDbEntity
  8
DIM
  6
CONTINUOUS
100
AcDbLine
 10
106.189116246886
 20
241.6363971803705
 30
0.0
 11
111.392116246886
 21
241.6363971803705
 31
0.0
  0
LINE
  5
4DB1
330
4C84
100
AcDbEntity
  8
DIM
  6
CONTINUOUS
100
AcDbLine
 10
107.4611162468861
 20
245.4363971803704
 30
0.0
 11
111.392116246886
 21
245.4363971803704
 31
0.0
  0
LINE
  5
4DB2
330
4C84
100
AcDbEntity
  8
DIM
  6
CONTINUOUS
100
AcDbLine
 10
110.1421162468861
 20
247.9363971803704
 30
0.0
 11
110.1421162468861
 21
250.4363971803704
 31
0.0
  0
LINE
  5
4DB3
330
4C84
100
AcDbEntity
  8
DIM
  6
CONTINUOUS
100
AcDbLine
 10
110.1421162468861
 20
239.1363971803705
 30
0.0
 11
110.1421162468861
 21
230.079629103972
 31
0.0
  0
LINE
  5
4DB4
330
4C84
100
AcDbEntity
  8
DIM
  6
CONTINUOUS
100
AcDbLine
 10
110.1421162468861
 20
245.4363971803704
 30
0.0
 11
110.1421162468861
 21
241.6363971803705
 31
0.0
  0
SOLID
  5
4DB5
330
4C84
100
AcDbEntity
  8
DIM
  6
CONTINUOUS
100
AcDbTrace
 10
109.7254495802195
 20
247.9363971803704
 30
0.0
 11
110.5587829135528
 21
247.9363971803704
 31
0.0
 12
110.1421162468861
 22
245.4363971803704
 32
0.0
 13
110.1421162468861
 23
245.4363971803704
 33
0.0
  0
SOLID
  5
4DB6
330
4C84
100
AcDbEntity
  8
DIM
  6
CONTINUOUS
100
AcDbTrace
 10
109.7254495802195
 20
239.1363971803705
 30
0.0
 11
110.5587829135528
 21
239.1363971803705
 31
0.0
 12
110.1421162468861
 22
241.6363971803705
 32
0.0
 13
110.1421162468861
 23
241.6363971803705
 33
0.0
  0
MTEXT
  5
4DB7
330
4C84
100
AcDbEntity
  8
DIM
  6
CONTINUOUS
 62
     2
100
AcDbMText
 10
108.5974709535709
 20
232.3443971803704
 30
0.0
 40
1.8
 41
0.0
 71
     5
 72
     1
  1
3.8
  7
FINDER
 11
0.0000000000000001
 21
1.0
 31
0.0
1001
ACAD
1000
MTEXTBEGIN
1070
    73
1070
     1
1070
    44
1040
1.0
1070
    74
1070
     0
1000
MTEXTEND
1000
MTEXTBEGIN
1070
    73
1070
     1
1070
    44
1040
1.0
1070
    74
1070
     0
1000
MTEXTEND
1000
MTEXTBEGIN
1070
    73
1070
     1
1070
    44
1040
1.0
1070
    74
1070
     0
1000
MTEXTEND
  0
POINT
  5
4DB8
330
4C84
100
AcDbEntity
  8
DEFPOINTS
  6
CONTINUOUS
 62
     0
100
AcDbPoint
 10
104.189116246886
 20
241.6363971803705
 30
0.0
  0
POINT
  5
4DB9
330
4C84
100
AcDbEntity
  8
DEFPOINTS
  6
CONTINUOUS
 62
     0
100
AcDbPoint
 10
105.461116246886
 20
245.4363971803704
 30
0.0
  0
POINT
  5
4DBA
330
4C84
100
AcDbEntity
  8
DEFPOINTS
  6
CONTINUOUS
 62
     0
100
AcDbPoint
 10
110.1421162468861
 20
245.4363971803704
 30
0.0
  0
ENDBLK
  5
4C90
330
4C84
100
AcDbEntity
  8
0
100
AcDbBlockEnd
  0
BLOCK
  5
4C9B
330
4C91
100
AcDbEntity
  8
0
100
AcDbBlockBegin
  2
*D44
 70
     1
 10
0.0
 20
0.0
 30
0.0
  3
*D44
  1

  0
LINE
  5
4DBB
330
4C91
100
AcDbEntity
  8
DIM
  6
CONTINUOUS
100
AcDbLine
 10
107.7611162468861
 20
245.4363971803704
 30
0.0
 11
111.392116246886
 21
245.4363971803704
 31
0.0
  0
LINE
  5
4DBC
330
4C91
100
AcDbEntity
  8
DIM
  6
CONTINUOUS
100
AcDbLine
 10
107.0291162468862
 20
261.1363971803704
 30
0.0
 11
111.392116246886
 21
261.1363971803704
 31
0.0
  0
LINE
  5
4DBD
330
4C91
100
AcDbEntity
  8
DIM
  6
CONTINUOUS
100
AcDbLine
 10
110.1421162468861
 20
247.9363971803704
 30
0.0
 11
110.1421162468861
 21
258.6363971803704
 31
0.0
  0
SOLID
  5
4DBE
330
4C91
100
AcDbEntity
  8
DIM
  6
CONTINUOUS
100
AcDbTrace
 10
109.7254495802195
 20
247.9363971803704
 30
0.0
 11
110.5587829135528
 21
247.9363971803704
 31
0.0
 12
110.1421162468861
 22
245.4363971803704
 32
0.0
 13
110.1421162468861
 23
245.4363971803704
 33
0.0
  0
SOLID
  5
4DBF
330
4C91
100
AcDbEntity
  8
DIM
  6
CONTINUOUS
100
AcDbTrace
 10
109.7254495802195
 20
258.6363971803704
 30
0.0
 11
110.5587829135528
 21
258.6363971803704
 31
0.0
 12
110.1421162468861
 22
261.1363971803704
 32
0.0
 13
110.1421162468861
 23
261.1363971803704
 33
0.0
  0
MTEXT
  5
4DC0
330
4C91
100
AcDbEntity
  8
DIM
  6
CONTINUOUS
 62
     2
100
AcDbMText
 10
108.598084868987
 20
253.4553971803704
 30
0.0
 40
1.8
 41
0.0
 71
     5
 72
     1
  1
15.7
  7
FINDER
 11
0.0000000000000001
 21
1.0
 31
0.0
1001
ACAD
1000
MTEXTBEGIN
1070
    73
1070
     1
1070
    44
1040
1.0
1070
    74
1070
     0
1000
MTEXTEND
1000
MTEXTBEGIN
1070
    73
1070
     1
1070
    44
1040
1.0
1070
    74
1070
     0
1000
MTEXTEND
1000
MTEXTBEGIN
1070
    73
1070
     1
1070
    44
1040
1.0
1070
    74
1070
     0
1000
MTEXTEND
  0
POINT
  5
4DC1
330
4C91
100
AcDbEntity
  8
DEFPOINTS
  6
CONTINUOUS
 62
     0
100
AcDbPoint
 10
105.7611162468861
 20
245.4363971803704
 30
0.0
  0
POINT
  5
4DC2
330
4C91
100
AcDbEntity
  8
DEFPOINTS
  6
CONTINUOUS
 62
     0
100
AcDbPoint
 10
105.0291162468862
 20
261.1363971803704
 30
0.0
  0
POINT
  5
4DC3
330
4C91
100
AcDbEntity
  8
DEFPOINTS
  6
CONTINUOUS
 62
     0
100
AcDbPoint
 10
110.1421162468861
 20
261.1363971803704
 30
0.0
  0
ENDBLK
  5
4C9C
330
4C91
100
AcDbEntity
  8
0
100
AcDbBlockEnd
  0
BLOCK
  5
4DDA
330
4DCE
100
AcDbEntity
  8
0
100
AcDbBlockBegin
  2
*D45
 70
     1
 10
0.0
 20
0.0
 30
0.0
  3
*D45
  1

  0
LINE
  5
4DCF
330
4DCE
100
AcDbEntity
  8
DIM
  6
CONTINUOUS
100
AcDbLine
 10
130.1871162468861
 20
239.6363971803705
 30
0.0
 11
130.1871162468861
 21
237.6363971803705
 31
0.0
  0
LINE
  5
4DD0
330
4DCE
100
AcDbEntity
  8
DIM
  6
CONTINUOUS
100
AcDbLine
 10
130.9871162468861
 20
239.6363971803705
 30
0.0
 11
130.9871162468861
 21
237.6363971803705
 31
0.0
  0
LINE
  5
4DD1
330
4DCE
100
AcDbEntity
  8
DIM
  6
CONTINUOUS
100
AcDbLine
 10
127.6871162468861
 20
238.8863971803704
 30
0.0
 11
125.187116246886
 21
238.8863971803704
 31
0.0
  0
LINE
  5
4DD2
330
4DCE
100
AcDbEntity
  8
DIM
  6
CONTINUOUS
100
AcDbLine
 10
133.487116246886
 20
238.8863971803704
 30
0.0
 11
138.9556305715792
 21
238.8863971803704
 31
0.0
  0
LINE
  5
4DD3
330
4DCE
100
AcDbEntity
  8
DIM
  6
CONTINUOUS
100
AcDbLine
 10
130.1871162468861
 20
238.8863971803704
 30
0.0
 11
130.9871162468861
 21
238.8863971803704
 31
0.0
  0
SOLID
  5
4DD4
330
4DCE
100
AcDbEntity
  8
DIM
  6
CONTINUOUS
100
AcDbTrace
 10
127.6871162468861
 20
239.303063847037
 30
0.0
 11
127.6871162468861
 21
238.4697305137037
 31
0.0
 12
130.1871162468861
 22
238.8863971803704
 32
0.0
 13
130.1871162468861
 23
238.8863971803704
 33
0.0
  0
SOLID
  5
4DD5
330
4DCE
100
AcDbEntity
  8
DIM
  6
CONTINUOUS
100
AcDbTrace
 10
133.487116246886
 20
239.303063847037
 30
0.0
 11
133.487116246886
 21
238.4697305137037
 31
0.0
 12
130.9871162468861
 22
238.8863971803704
 32
0.0
 13
130.9871162468861
 23
238.8863971803704
 33
0.0
  0
MTEXT
  5
4DD6
330
4DCE
100
AcDbEntity
  8
DIM
  6
CONTINUOUS
 62
     2
100
AcDbMText
 10
137.999116246886
 20
240.415080672867
 30
0.0
 40
1.8
 41
0.0
 71
     5
 72
     1
  1
1
  7
FINDER
1001
ACAD
1000
MTEXTBEGIN
1070
    73
1070
     1
1070
    44
1040
1.0
1070
    74
1070
     0
1000
MTEXTEND
1000
MTEXTBEGIN
1070
    73
1070
     1
1070
    44
1040
1.0
1070
    74
1070
     0
1000
MTEXTEND
1000
MTEXTBEGIN
1070
    73
1070
     1
1070
    44
1040
1.0
1070
    74
1070
     0
1000
MTEXTEND
  0
POINT
  5
4DD7
330
4DCE
100
AcDbEntity
  8
DEFPOINTS
  6
CONTINUOUS
 62
     0
100
AcDbPoint
 10
130.1871162468861
 20
241.6363971803705
 30
0.0
  0
POINT
  5
4DD8
330
4DCE
100
AcDbEntity
  8
DEFPOINTS
  6
CONTINUOUS
 62
     0
100
AcDbPoint
 10
130.9871162468861
 20
241.6363971803705
 30
0.0
  0
POINT
  5
4DD9
330
4DCE
100
AcDbEntity
  8
DEFPOINTS
  6
CONTINUOUS
 62
     0
100
AcDbPoint
 10
130.9871162468861
 20
238.8863971803704
 30
0.0
  0
ENDBLK
  5
4DDB
330
4DCE
100
AcDbEntity
  8
0
100
AcDbBlockEnd
  0
BLOCK
  5
4DE6
330
4DDC
100
AcDbEntity
  8
0
100
AcDbBlockBegin
  2
*D46
 70
     1
 10
0.0
 20
0.0
 30
0.0
  3
*D46
  1

  0
LINE
  5
4DDD
330
4DDC
100
AcDbEntity
  8
DIM
  6
CONTINUOUS
100
AcDbLine
 10
76.76111624688616
 20
247.4363971803704
 30
0.0
 11
76.76111624688616
 21
268.3083971803704
 31
0.0
  0
LINE
  5
4DDE
330
4DDC
100
AcDbEntity
  8
DIM
  6
CONTINUOUS
100
AcDbLine
 10
105.7611162468861
 20
247.4363971803704
 30
0.0
 11
105.7611162468861
 21
268.3083971803704
 31
0.0
  0
LINE
  5
4DDF
330
4DDC
100
AcDbEntity
  8
DIM
  6
CONTINUOUS
100
AcDbLine
 10
79.26111624688616
 20
267.0583971803704
 30
0.0
 11
103.261116246886
 21
267.0583971803704
 31
0.0
  0
SOLID
  5
4DE0
330
4DDC
100
AcDbEntity
  8
DIM
  6
CONTINUOUS
100
AcDbTrace
 10
79.26111624688616
 20
267.475063847037
 30
0.0
 11
79.26111624688616
 21
266.6417305137037
 31
0.0
 12
76.76111624688616
 22
267.0583971803704
 32
0.0
 13
76.76111624688616
 23
267.0583971803704
 33
0.0
  0
SOLID
  5
4DE1
330
4DDC
100
AcDbEntity
  8
DIM
  6
CONTINUOUS
100
AcDbTrace
 10
103.261116246886
 20
267.475063847037
 30
0.0
 11
103.261116246886
 21
266.6417305137037
 31
0.0
 12
105.7611162468861
 22
267.0583971803704
 32
0.0
 13
105.7611162468861
 23
267.0583971803704
 33
0.0
  0
MTEXT
  5
4DE2
330
4DDC
100
AcDbEntity
  8
DIM
  6
CONTINUOUS
 62
     2
100
AcDbMText
 10
91.26111624688617
 20
268.6024285582695
 30
0.0
 40
1.8
 41
0.0
 71
     5
 72
     1
  1
29
  7
FINDER
1001
ACAD
1000
MTEXTBEGIN
1070
    73
1070
     1
1070
    44
1040
1.0
1070
    74
1070
     0
1000
MTEXTEND
1000
MTEXTBEGIN
1070
    73
1070
     1
1070
    44
1040
1.0
1070
    74
1070
     0
1000
MTEXTEND
1000
MTEXTBEGIN
1070
    73
1070
     1
1070
    44
1040
1.0
1070
    74
1070
     0
1000
MTEXTEND
  0
POINT
  5
4DE3
330
4DDC
100
AcDbEntity
  8
DEFPOINTS
  6
CONTINUOUS
 62
     0
100
AcDbPoint
 10
76.76111624688616
 20
245.4363971803704
 30
0.0
  0
POINT
  5
4DE4
330
4DDC
100
AcDbEntity
  8
DEFPOINTS
  6
CONTINUOUS
 62
     0
100
AcDbPoint
 10
105.7611162468861
 20
245.4363971803704
 30
0.0
  0
POINT
  5
4DE5
330
4DDC
100
AcDbEntity
  8
DEFPOINTS
  6
CONTINUOUS
 62
     0
100
AcDbPoint
 10
105.7611162468861
 20
267.0583971803704
 30
0.0
  0
ENDBLK
  5
4DE7
330
4DDC
100
AcDbEntity
  8
0
100
AcDbBlockEnd
  0
BLOCK
  5
4DF2
330
4DE8
100
AcDbEntity
  8
0
100
AcDbBlockBegin
  2
*D47
 70
     1
 10
0.0
 20
0.0
 30
0.0
  3
*D47
  1

  0
LINE
  5
4DE9
330
4DE8
100
AcDbEntity
  8
DIM
  6
CONTINUOUS
100
AcDbLine
 10
120.4871162468861
 20
247.4363971803704
 30
0.0
 11
120.4871162468861
 21
268.3083971803704
 31
0.0
  0
LINE
  5
4DEA
330
4DE8
100
AcDbEntity
  8
DIM
  6
CONTINUOUS
100
AcDbLine
 10
133.187116246886
 20
247.4363971803704
 30
0.0
 11
133.187116246886
 21
268.3083971803704
 31
0.0
  0
LINE
  5
4DEB
330
4DE8
100
AcDbEntity
  8
DIM
  6
CONTINUOUS
100
AcDbLine
 10
122.987116246886
 20
267.0583971803704
 30
0.0
 11
130.687116246886
 21
267.0583971803704
 31
0.0
  0
SOLID
  5
4DEC
330
4DE8
100
AcDbEntity
  8
DIM
  6
CONTINUOUS
100
AcDbTrace
 10
122.987116246886
 20
267.475063847037
 30
0.0
 11
122.987116246886
 21
266.6417305137037
 31
0.0
 12
120.4871162468861
 22
267.0583971803704
 32
0.0
 13
120.4871162468861
 23
267.0583971803704
 33
0.0
  0
SOLID
  5
4DED
330
4DE8
100
AcDbEntity
  8
DIM
  6
CONTINUOUS
100
AcDbTrace
 10
130.687116246886
 20
267.475063847037
 30
0.0
 11
130.687116246886
 21
266.6417305137037
 31
0.0
 12
133.187116246886
 22
267.0583971803704
 32
0.0
 13
133.187116246886
 23
267.0583971803704
 33
0.0
  0
MTEXT
  5
4DEE
330
4DE8
100
AcDbEntity
  8
DIM
  6
CONTINUOUS
 62
     2
100
AcDbMText
 10
126.837116246886
 20
268.587080672867
 30
0.0
 40
1.8
 41
0.0
 71
     5
 72
     1
  1
12.7
  7
FINDER
1001
ACAD
1000
MTEXTBEGIN
1070
    73
1070
     1
1070
    44
1040
1.0
1070
    74
1070
     0
1000
MTEXTEND
1000
MTEXTBEGIN
1070
    73
1070
     1
1070
    44
1040
1.0
1070
    74
1070
     0
1000
MTEXTEND
1000
MTEXTBEGIN
1070
    73
1070
     1
1070
    44
1040
1.0
1070
    74
1070
     0
1000
MTEXTEND
  0
POINT
  5
4DEF
330
4DE8
100
AcDbEntity
  8
DEFPOINTS
  6
CONTINUOUS
 62
     0
100
AcDbPoint
 10
120.4871162468861
 20
245.4363971803704
 30
0.0
  0
POINT
  5
4DF0
330
4DE8
100
AcDbEntity
  8
DEFPOINTS
  6
CONTINUOUS
 62
     0
100
AcDbPoint
 10
133.187116246886
 20
245.4363971803704
 30
0.0
  0
POINT
  5
4DF1
330
4DE8
100
AcDbEntity
  8
DEFPOINTS
  6
CONTINUOUS
 62
     0
100
AcDbPoint
 10
133.187116246886
 20
267.0583971803704
 30
0.0
  0
ENDBLK
  5
4DF3
330
4DE8
100
AcDbEntity
  8
0
100
AcDbBlockEnd
  0
BLOCK
  5
4E00
330
4DF4
100
AcDbEntity
  8
0
100
AcDbBlockBegin
  2
*D48
 70
     1
 10
0.0
 20
0.0
 30
0.0
  3
*D48
  1

  0
LINE
  5
4DF5
330
4DF4
100
AcDbEntity
  8
DIM
  6
CONTINUOUS
100
AcDbLine
 10
106.189116246886
 20
241.6363971803705
 30
0.0
 11
111.392116246886
 21
241.6363971803705
 31
0.0
  0
LINE
  5
4DF6
330
4DF4
100
AcDbEntity
  8
DIM
  6
CONTINUOUS
100
AcDbLine
 10
107.4611162468861
 20
245.4363971803704
 30
0.0
 11
111.392116246886
 21
245.4363971803704
 31
0.0
  0
LINE
  5
4DF7
330
4DF4
100
AcDbEntity
  8
DIM
  6
CONTINUOUS
100
AcDbLine
 10
110.1421162468861
 20
247.9363971803704
 30
0.0
 11
110.1421162468861
 21
250.4363971803704
 31
0.0
  0
LINE
  5
4DF8
330
4DF4
100
AcDbEntity
  8
DIM
  6
CONTINUOUS
100
AcDbLine
 10
110.1421162468861
 20
239.1363971803705
 30
0.0
 11
110.1421162468861
 21
230.079629103972
 31
0.0
  0
LINE
  5
4DF9
330
4DF4
100
AcDbEntity
  8
DIM
  6
CONTINUOUS
100
AcDbLine
 10
110.1421162468861
 20
245.4363971803704
 30
0.0
 11
110.1421162468861
 21
241.6363971803705
 31
0.0
  0
SOLID
  5
4DFA
330
4DF4
100
AcDbEntity
  8
DIM
  6
CONTINUOUS
100
AcDbTrace
 10
109.7254495802195
 20
247.9363971803704
 30
0.0
 11
110.5587829135528
 21
247.9363971803704
 31
0.0
 12
110.1421162468861
 22
245.4363971803704
 32
0.0
 13
110.1421162468861
 23
245.4363971803704
 33
0.0
  0
SOLID
  5
4DFB
330
4DF4
100
AcDbEntity
  8
DIM
  6
CONTINUOUS
100
AcDbTrace
 10
109.7254495802195
 20
239.1363971803705
 30
0.0
 11
110.5587829135528
 21
239.1363971803705
 31
0.0
 12
110.1421162468861
 22
241.6363971803705
 32
0.0
 13
110.1421162468861
 23
241.6363971803705
 33
0.0
  0
MTEXT
  5
4DFC
330
4DF4
100
AcDbEntity
  8
DIM
  6
CONTINUOUS
 62
     2
100
AcDbMText
 10
108.5974709535709
 20
232.3443971803704
 30
0.0
 40
1.8
 41
0.0
 71
     5
 72
     1
  1
3.8
  7
FINDER
 11
0.0000000000000001
 21
1.0
 31
0.0
1001
ACAD
1000
MTEXTBEGIN
1070
    73
1070
     1
1070
    44
1040
1.0
1070
    74
1070
     0
1000
MTEXTEND
1000
MTEXTBEGIN
1070
    73
1070
     1
1070
    44
1040
1.0
1070
    74
1070
     0
1000
MTEXTEND
1000
MTEXTBEGIN
1070
    73
1070
     1
1070
    44
1040
1.0
1070
    74
1070
     0
1000
MTEXTEND
  0
POINT
  5
4DFD
330
4DF4
100
AcDbEntity
  8
DEFPOINTS
  6
CONTINUOUS
 62
     0
100
AcDbPoint
 10
104.189116246886
 20
241.6363971803705
 30
0.0
  0
POINT
  5
4DFE
330
4DF4
100
AcDbEntity
  8
DEFPOINTS
  6
CONTINUOUS
 62
     0
100
AcDbPoint
 10
105.461116246886
 20
245.4363971803704
 30
0.0
  0
POINT
  5
4DFF
330
4DF4
100
AcDbEntity
  8
DEFPOINTS
  6
CONTINUOUS
 62
     0
100
AcDbPoint
 10
110.1421162468861
 20
245.4363971803704
 30
0.0
  0
ENDBLK
  5
4E01
330
4DF4
100
AcDbEntity
  8
0
100
AcDbBlockEnd
  0
BLOCK
  5
4E0C
330
4E02
100
AcDbEntity
  8
0
100
AcDbBlockBegin
  2
*D49
 70
     1
 10
0.0
 20
0.0
 30
0.0
  3
*D49
  1

  0
LINE
  5
4E03
330
4E02
100
AcDbEntity
  8
DIM
  6
CONTINUOUS
100
AcDbLine
 10
107.7611162468861
 20
245.4363971803704
 30
0.0
 11
111.392116246886
 21
245.4363971803704
 31
0.0
  0
LINE
  5
4E04
330
4E02
100
AcDbEntity
  8
DIM
  6
CONTINUOUS
100
AcDbLine
 10
107.0291162468862
 20
261.1363971803704
 30
0.0
 11
111.392116246886
 21
261.1363971803704
 31
0.0
  0
LINE
  5
4E05
330
4E02
100
AcDbEntity
  8
DIM
  6
CONTINUOUS
100
AcDbLine
 10
110.1421162468861
 20
247.9363971803704
 30
0.0
 11
110.1421162468861
 21
258.6363971803704
 31
0.0
  0
SOLID
  5
4E06
330
4E02
100
AcDbEntity
  8
DIM
  6
CONTINUOUS
100
AcDbTrace
 10
109.7254495802195
 20
247.9363971803704
 30
0.0
 11
110.5587829135528
 21
247.9363971803704
 31
0.0
 12
110.1421162468861
 22
245.4363971803704
 32
0.0
 13
110.1421162468861
 23
245.4363971803704
 33
0.0
  0
SOLID
  5
4E07
330
4E02
100
AcDbEntity
  8
DIM
  6
CONTINUOUS
100
AcDbTrace
 10
109.7254495802195
 20
258.6363971803704
 30
0.0
 11
110.5587829135528
 21
258.6363971803704
 31
0.0
 12
110.1421162468861
 22
261.1363971803704
 32
0.0
 13
110.1421162468861
 23
261.1363971803704
 33
0.0
  0
MTEXT
  5
4E08
330
4E02
100
AcDbEntity
  8
DIM
  6
CONTINUOUS
 62
     2
100
AcDbMText
 10
108.598084868987
 20
253.4553971803704
 30
0.0
 40
1.8
 41
0.0
 71
     5
 72
     1
  1
15.7
  7
FINDER
 11
0.0000000000000001
 21
1.0
 31
0.0
1001
ACAD
1000
MTEXTBEGIN
1070
    73
1070
     1
1070
    44
1040
1.0
1070
    74
1070
     0
1000
MTEXTEND
1000
MTEXTBEGIN
1070
    73
1070
     1
1070
    44
1040
1.0
1070
    74
1070
     0
1000
MTEXTEND
1000
MTEXTBEGIN
1070
    73
1070
     1
1070
    44
1040
1.0
1070
    74
1070
     0
1000
MTEXTEND
  0
POINT
  5
4E09
330
4E02
100
AcDbEntity
  8
DEFPOINTS
  6
CONTINUOUS
 62
     0
100
AcDbPoint
 10
105.7611162468861
 20
245.4363971803704
 30
0.0
  0
POINT
  5
4E0A
330
4E02
100
AcDbEntity
  8
DEFPOINTS
  6
CONTINUOUS
 62
     0
100
AcDbPoint
 10
105.0291162468862
 20
261.1363971803704
 30
0.0
  0
POINT
  5
4E0B
330
4E02
100
AcDbEntity
  8
DEFPOINTS
  6
CONTINUOUS
 62
     0
100
AcDbPoint
 10
110.1421162468861
 20
261.1363971803704
 30
0.0
  0
ENDBLK
  5
4E0D
330
4E02
100
AcDbEntity
  8
0
100
AcDbBlockEnd
  0
BLOCK
  5
4EA2
330
4E96
100
AcDbEntity
  8
0
100
AcDbBlockBegin
  2
*D50
 70
     1
 10
0.0
 20
0.0
 30
0.0
  3
*D50
  1

  0
LINE
  5
4ED6
330
4E96
100
AcDbEntity
  8
DIM
  6
CONTINUOUS
100
AcDbLine
 10
108.617622025547
 20
155.3982586171966
 30
0.0
 11
113.820622025547
 21
155.3982586171966
 31
0.0
  0
LINE
  5
4ED7
330
4E96
100
AcDbEntity
  8
DIM
  6
CONTINUOUS
100
AcDbLine
 10
109.889622025547
 20
159.1982586171964
 30
0.0
 11
113.820622025547
 21
159.1982586171964
 31
0.0
  0
LINE
  5
4ED8
330
4E96
100
AcDbEntity
  8
DIM
  6
CONTINUOUS
100
AcDbLine
 10
112.570622025547
 20
161.6982586171967
 30
0.0
 11
112.570622025547
 21
164.1982586171967
 31
0.0
  0
LINE
  5
4ED9
330
4E96
100
AcDbEntity
  8
DIM
  6
CONTINUOUS
100
AcDbLine
 10
112.570622025547
 20
152.8982586171967
 30
0.0
 11
112.570622025547
 21
143.8414905407982
 31
0.0
  0
LINE
  5
4EDA
330
4E96
100
AcDbEntity
  8
DIM
  6
CONTINUOUS
100
AcDbLine
 10
112.570622025547
 20
159.1982586171964
 30
0.0
 11
112.570622025547
 21
155.3982586171966
 31
0.0
  0
SOLID
  5
4EDB
330
4E96
100
AcDbEntity
  8
DIM
  6
CONTINUOUS
100
AcDbTrace
 10
112.1539553588805
 20
161.6982586171967
 30
0.0
 11
112.9872886922139
 21
161.6982586171967
 31
0.0
 12
112.570622025547
 22
159.1982586171964
 32
0.0
 13
112.570622025547
 23
159.1982586171964
 33
0.0
  0
SOLID
  5
4EDC
330
4E96
100
AcDbEntity
  8
DIM
  6
CONTINUOUS
100
AcDbTrace
 10
112.1539553588805
 20
152.8982586171967
 30
0.0
 11
112.9872886922139
 21
152.8982586171967
 31
0.0
 12
112.570622025547
 22
155.3982586171966
 32
0.0
 13
112.570622025547
 23
155.3982586171966
 33
0.0
  0
MTEXT
  5
4EDD
330
4E96
100
AcDbEntity
  8
DIM
  6
CONTINUOUS
 62
     2
100
AcDbMText
 10
111.025976732232
 20
146.1062586171965
 30
0.0
 40
1.8
 41
0.0
 71
     5
 72
     1
  1
3.8
  7
FINDER
 11
0.0000000000000001
 21
1.0
 31
0.0
1001
ACAD
1000
MTEXTBEGIN
1070
    73
1070
     1
1070
    44
1040
1.0
1070
    74
1070
     0
1000
MTEXTEND
1000
MTEXTBEGIN
1070
    73
1070
     1
1070
    44
1040
1.0
1070
    74
1070
     0
1000
MTEXTEND
1000
MTEXTBEGIN
1070
    73
1070
     1
1070
    44
1040
1.0
1070
    74
1070
     0
1000
MTEXTEND
  0
POINT
  5
4EDE
330
4E96
100
AcDbEntity
  8
DEFPOINTS
  6
CONTINUOUS
 62
     0
100
AcDbPoint
 10
106.617622025547
 20
155.3982586171966
 30
0.0
  0
POINT
  5
4EDF
330
4E96
100
AcDbEntity
  8
DEFPOINTS
  6
CONTINUOUS
 62
     0
100
AcDbPoint
 10
107.889622025547
 20
159.1982586171964
 30
0.0
  0
POINT
  5
4EE0
330
4E96
100
AcDbEntity
  8
DEFPOINTS
  6
CONTINUOUS
 62
     0
100
AcDbPoint
 10
112.570622025547
 20
159.1982586171964
 30
0.0
  0
ENDBLK
  5
4EA3
330
4E96
100
AcDbEntity
  8
0
100
AcDbBlockEnd
  0
BLOCK
  5
4EAE
330
4EA4
100
AcDbEntity
  8
0
100
AcDbBlockBegin
  2
*D51
 70
     1
 10
0.0
 20
0.0
 30
0.0
  3
*D51
  1

  0
LINE
  5
4EE1
330
4EA4
100
AcDbEntity
  8
DIM
  6
CONTINUOUS
100
AcDbLine
 10
79.1896220255472
 20
161.1982586171967
 30
0.0
 11
79.1896220255472
 21
182.0702586171965
 31
0.0
  0
LINE
  5
4EE2
330
4EA4
100
AcDbEntity
  8
DIM
  6
CONTINUOUS
100
AcDbLine
 10
108.189622025547
 20
161.1982586171967
 30
0.0
 11
108.189622025547
 21
182.0702586171965
 31
0.0
  0
LINE
  5
4EE3
330
4EA4
100
AcDbEntity
  8
DIM
  6
CONTINUOUS
100
AcDbLine
 10
81.6896220255472
 20
180.8202586171965
 30
0.0
 11
105.689622025547
 21
180.8202586171965
 31
0.0
  0
SOLID
  5
4EE4
330
4EA4
100
AcDbEntity
  8
DIM
  6
CONTINUOUS
100
AcDbTrace
 10
81.6896220255472
 20
181.2369252838631
 30
0.0
 11
81.6896220255472
 21
180.40359195053
 31
0.0
 12
79.1896220255472
 22
180.8202586171965
 32
0.0
 13
79.1896220255472
 23
180.8202586171965
 33
0.0
  0
SOLID
  5
4EE5
330
4EA4
100
AcDbEntity
  8
DIM
  6
CONTINUOUS
100
AcDbTrace
 10
105.689622025547
 20
181.2369252838631
 30
0.0
 11
105.689622025547
 21
180.40359195053
 31
0.0
 12
108.189622025547
 22
180.8202586171965
 32
0.0
 13
108.189622025547
 23
180.8202586171965
 33
0.0
  0
MTEXT
  5
4EE6
330
4EA4
100
AcDbEntity
  8
DIM
  6
CONTINUOUS
 62
     2
100
AcDbMText
 10
93.68962202554717
 20
182.3642899950955
 30
0.0
 40
1.8
 41
0.0
 71
     5
 72
     1
  1
29
  7
FINDER
1001
ACAD
1000
MTEXTBEGIN
1070
    73
1070
     1
1070
    44
1040
1.0
1070
    74
1070
     0
1000
MTEXTEND
1000
MTEXTBEGIN
1070
    73
1070
     1
1070
    44
1040
1.0
1070
    74
1070
     0
1000
MTEXTEND
1000
MTEXTBEGIN
1070
    73
1070
     1
1070
    44
1040
1.0
1070
    74
1070
     0
1000
MTEXTEND
  0
POINT
  5
4EE7
330
4EA4
100
AcDbEntity
  8
DEFPOINTS
  6
CONTINUOUS
 62
     0
100
AcDbPoint
 10
79.1896220255472
 20
159.1982586171964
 30
0.0
  0
POINT
  5
4EE8
330
4EA4
100
AcDbEntity
  8
DEFPOINTS
  6
CONTINUOUS
 62
     0
100
AcDbPoint
 10
108.189622025547
 20
159.1982586171964
 30
0.0
  0
POINT
  5
4EE9
330
4EA4
100
AcDbEntity
  8
DEFPOINTS
  6
CONTINUOUS
 62
     0
100
AcDbPoint
 10
108.189622025547
 20
180.8202586171965
 30
0.0
  0
ENDBLK
  5
4EAF
330
4EA4
100
AcDbEntity
  8
0
100
AcDbBlockEnd
  0
BLOCK
  5
4EBC
330
4EB0
100
AcDbEntity
  8
0
100
AcDbBlockBegin
  2
*D52
 70
     1
 10
0.0
 20
0.0
 30
0.0
  3
*D52
  1

  0
LINE
  5
4EEA
330
4EB0
100
AcDbEntity
  8
DIM
  6
CONTINUOUS
100
AcDbLine
 10
132.6156220255469
 20
153.3982586171966
 30
0.0
 11
132.6156220255469
 21
151.3982586171966
 31
0.0
  0
LINE
  5
4EEB
330
4EB0
100
AcDbEntity
  8
DIM
  6
CONTINUOUS
100
AcDbLine
 10
133.415622025547
 20
153.3982586171966
 30
0.0
 11
133.415622025547
 21
151.3982586171966
 31
0.0
  0
LINE
  5
4EEC
330
4EB0
100
AcDbEntity
  8
DIM
  6
CONTINUOUS
100
AcDbLine
 10
130.115622025547
 20
152.6482586171964
 30
0.0
 11
127.615622025547
 21
152.6482586171964
 31
0.0
  0
LINE
  5
4EED
330
4EB0
100
AcDbEntity
  8
DIM
  6
CONTINUOUS
100
AcDbLine
 10
135.9156220255471
 20
152.6482586171964
 30
0.0
 11
141.3841363502402
 21
152.6482586171964
 31
0.0
  0
LINE
  5
4EEE
330
4EB0
100
AcDbEntity
  8
DIM
  6
CONTINUOUS
100
AcDbLine
 10
132.6156220255469
 20
152.6482586171964
 30
0.0
 11
133.415622025547
 21
152.6482586171964
 31
0.0
  0
SOLID
  5
4EEF
330
4EB0
100
AcDbEntity
  8
DIM
  6
CONTINUOUS
100
AcDbTrace
 10
130.115622025547
 20
153.0649252838633
 30
0.0
 11
130.115622025547
 21
152.23159195053
 31
0.0
 12
132.6156220255469
 22
152.6482586171964
 32
0.0
 13
132.6156220255469
 23
152.6482586171964
 33
0.0
  0
SOLID
  5
4EF0
330
4EB0
100
AcDbEntity
  8
DIM
  6
CONTINUOUS
100
AcDbTrace
 10
135.9156220255471
 20
153.0649252838633
 30
0.0
 11
135.9156220255471
 21
152.23159195053
 31
0.0
 12
133.415622025547
 22
152.6482586171964
 32
0.0
 13
133.415622025547
 23
152.6482586171964
 33
0.0
  0
MTEXT
  5
4EF1
330
4EB0
100
AcDbEntity
  8
DIM
  6
CONTINUOUS
 62
     2
100
AcDbMText
 10
140.4276220255471
 20
154.1769421096931
 30
0.0
 40
1.8
 41
0.0
 71
     5
 72
     1
  1
1
  7
FINDER
1001
ACAD
1000
MTEXTBEGIN
1070
    73
1070
     1
1070
    44
1040
1.0
1070
    74
1070
     0
1000
MTEXTEND
1000
MTEXTBEGIN
1070
    73
1070
     1
1070
    44
1040
1.0
1070
    74
1070
     0
1000
MTEXTEND
1000
MTEXTBEGIN
1070
    73
1070
     1
1070
    44
1040
1.0
1070
    74
1070
     0
1000
MTEXTEND
  0
POINT
  5
4EF2
330
4EB0
100
AcDbEntity
  8
DEFPOINTS
  6
CONTINUOUS
 62
     0
100
AcDbPoint
 10
132.6156220255469
 20
155.3982586171966
 30
0.0
  0
POINT
  5
4EF3
330
4EB0
100
AcDbEntity
  8
DEFPOINTS
  6
CONTINUOUS
 62
     0
100
AcDbPoint
 10
133.415622025547
 20
155.3982586171966
 30
0.0
  0
POINT
  5
4EF4
330
4EB0
100
AcDbEntity
  8
DEFPOINTS
  6
CONTINUOUS
 62
     0
100
AcDbPoint
 10
133.415622025547
 20
152.6482586171964
 30
0.0
  0
ENDBLK
  5
4EBD
330
4EB0
100
AcDbEntity
  8
0
100
AcDbBlockEnd
  0
BLOCK
  5
4EC8
330
4EBE
100
AcDbEntity
  8
0
100
AcDbBlockBegin
  2
*D53
 70
     1
 10
0.0
 20
0.0
 30
0.0
  3
*D53
  1

  0
LINE
  5
4EF5
330
4EBE
100
AcDbEntity
  8
DIM
  6
CONTINUOUS
100
AcDbLine
 10
122.915622025547
 20
161.1982586171967
 30
0.0
 11
122.915622025547
 21
182.0702586171965
 31
0.0
  0
LINE
  5
4EF6
330
4EBE
100
AcDbEntity
  8
DIM
  6
CONTINUOUS
100
AcDbLine
 10
135.615622025547
 20
161.1982586171967
 30
0.0
 11
135.615622025547
 21
182.0702586171965
 31
0.0
  0
LINE
  5
4EF7
330
4EBE
100
AcDbEntity
  8
DIM
  6
CONTINUOUS
100
AcDbLine
 10
125.415622025547
 20
180.8202586171965
 30
0.0
 11
133.115622025547
 21
180.8202586171965
 31
0.0
  0
SOLID
  5
4EF8
330
4EBE
100
AcDbEntity
  8
DIM
  6
CONTINUOUS
100
AcDbTrace
 10
125.415622025547
 20
181.2369252838631
 30
0.0
 11
125.415622025547
 21
180.40359195053
 31
0.0
 12
122.915622025547
 22
180.8202586171965
 32
0.0
 13
122.915622025547
 23
180.8202586171965
 33
0.0
  0
SOLID
  5
4EF9
330
4EBE
100
AcDbEntity
  8
DIM
  6
CONTINUOUS
100
AcDbTrace
 10
133.115622025547
 20
181.2369252838631
 30
0.0
 11
133.115622025547
 21
180.40359195053
 31
0.0
 12
135.615622025547
 22
180.8202586171965
 32
0.0
 13
135.615622025547
 23
180.8202586171965
 33
0.0
  0
MTEXT
  5
4EFA
330
4EBE
100
AcDbEntity
  8
DIM
  6
CONTINUOUS
 62
     2
100
AcDbMText
 10
129.2656220255472
 20
182.3489421096931
 30
0.0
 40
1.8
 41
0.0
 71
     5
 72
     1
  1
12.7
  7
FINDER
1001
ACAD
1000
MTEXTBEGIN
1070
    73
1070
     1
1070
    44
1040
1.0
1070
    74
1070
     0
1000
MTEXTEND
1000
MTEXTBEGIN
1070
    73
1070
     1
1070
    44
1040
1.0
1070
    74
1070
     0
1000
MTEXTEND
1000
MTEXTBEGIN
1070
    73
1070
     1
1070
    44
1040
1.0
1070
    74
1070
     0
1000
MTEXTEND
  0
POINT
  5
4EFB
330
4EBE
100
AcDbEntity
  8
DEFPOINTS
  6
CONTINUOUS
 62
     0
100
AcDbPoint
 10
122.915622025547
 20
159.1982586171964
 30
0.0
  0
POINT
  5
4EFC
330
4EBE
100
AcDbEntity
  8
DEFPOINTS
  6
CONTINUOUS
 62
     0
100
AcDbPoint
 10
135.615622025547
 20
159.1982586171964
 30
0.0
  0
POINT
  5
4EFD
330
4EBE
100
AcDbEntity
  8
DEFPOINTS
  6
CONTINUOUS
 62
     0
100
AcDbPoint
 10
135.615622025547
 20
180.8202586171965
 30
0.0
  0
ENDBLK
  5
4EC9
330
4EBE
100
AcDbEntity
  8
0
100
AcDbBlockEnd
  0
BLOCK
  5
4ED4
330
4ECA
100
AcDbEntity
  8
0
100
AcDbBlockBegin
  2
*D54
 70
     1
 10
0.0
 20
0.0
 30
0.0
  3
*D54
  1

  0
LINE
  5
4EFE
330
4ECA
100
AcDbEntity
  8
DIM
  6
CONTINUOUS
100
AcDbLine
 10
110.189622025547
 20
159.1982586171964
 30
0.0
 11
113.820622025547
 21
159.1982586171964
 31
0.0
  0
LINE
  5
4EFF
330
4ECA
100
AcDbEntity
  8
DIM
  6
CONTINUOUS
100
AcDbLine
 10
109.4576220255472
 20
174.8982586171965
 30
0.0
 11
113.820622025547
 21
174.8982586171965
 31
0.0
  0
LINE
  5
4F00
330
4ECA
100
AcDbEntity
  8
DIM
  6
CONTINUOUS
100
AcDbLine
 10
112.570622025547
 20
161.6982586171967
 30
0.0
 11
112.570622025547
 21
172.3982586171964
 31
0.0
  0
SOLID
  5
4F01
330
4ECA
100
AcDbEntity
  8
DIM
  6
CONTINUOUS
100
AcDbTrace
 10
112.1539553588805
 20
161.6982586171967
 30
0.0
 11
112.9872886922139
 21
161.6982586171967
 31
0.0
 12
112.570622025547
 22
159.1982586171964
 32
0.0
 13
112.570622025547
 23
159.1982586171964
 33
0.0
  0
SOLID
  5
4F02
330
4ECA
100
AcDbEntity
  8
DIM
  6
CONTINUOUS
100
AcDbTrace
 10
112.1539553588805
 20
172.3982586171964
 30
0.0
 11
112.9872886922139
 21
172.3982586171964
 31
0.0
 12
112.570622025547
 22
174.8982586171965
 32
0.0
 13
112.570622025547
 23
174.8982586171965
 33
0.0
  0
MTEXT
  5
4F03
330
4ECA
100
AcDbEntity
  8
DIM
  6
CONTINUOUS
 62
     2
100
AcDbMText
 10
111.0265906476481
 20
167.2172586171967
 30
0.0
 40
1.8
 41
0.0
 71
     5
 72
     1
  1
15.7
  7
FINDER
 11
0.0000000000000001
 21
1.0
 31
0.0
1001
ACAD
1000
MTEXTBEGIN
1070
    73
1070
     1
1070
    44
1040
1.0
1070
    74
1070
     0
1000
MTEXTEND
1000
MTEXTBEGIN
1070
    73
1070
     1
1070
    44
1040
1.0
1070
    74
1070
     0
1000
MTEXTEND
1000
MTEXTBEGIN
1070
    73
1070
     1
1070
    44
1040
1.0
1070
    74
1070
     0
1000
MTEXTEND
  0
POINT
  5
4F04
330
4ECA
100
AcDbEntity
  8
DEFPOINTS
  6
CONTINUOUS
 62
     0
100
AcDbPoint
 10
108.189622025547
 20
159.1982586171964
 30
0.0
  0
POINT
  5
4F05
330
4ECA
100
AcDbEntity
  8
DEFPOINTS
  6
CONTINUOUS
 62
     0
100
AcDbPoint
 10
107.4576220255472
 20
174.8982586171965
 30
0.0
  0
POINT
  5
4F06
330
4ECA
100
AcDbEntity
  8
DEFPOINTS
  6
CONTINUOUS
 62
     0
100
AcDbPoint
 10
112.570622025547
 20
174.8982586171965
 30
0.0
  0
ENDBLK
  5
4ED5
330
4ECA
100
AcDbEntity
  8
0
100
AcDbBlockEnd
  0
BLOCK
  5
4FB5
330
4FA9
100
AcDbEntity
  8
0
100
AcDbBlockBegin
  2
*D55
 70
     1
 10
0.0
 20
0.0
 30
0.0
  3
*D55
  1

  0
LINE
  5
4FCD
330
4FA9
100
AcDbEntity
  8
DIM
  6
CONTINUOUS
100
AcDbLine
 10
101.4796220255472
 20
154.0982586171966
 30
0.0
 11
101.4796220255472
 21
150.6441664625845
 31
0.0
  0
LINE
  5
4FCE
330
4FA9
100
AcDbEntity
  8
DIM
  6
CONTINUOUS
100
AcDbLine
 10
101.9796220255472
 20
154.0982586171966
 30
0.0
 11
101.9796220255472
 21
150.6441664625845
 31
0.0
  0
LINE
  5
4FCF
330
4FA9
100
AcDbEntity
  8
DIM
  6
CONTINUOUS
100
AcDbLine
 10
104.4796220255471
 20
151.8941664625845
 30
0.0
 11
106.9796220255472
 21
151.8941664625845
 31
0.0
  0
LINE
  5
4FD0
330
4FA9
100
AcDbEntity
  8
DIM
  6
CONTINUOUS
100
AcDbLine
 10
98.97962202554721
 20
151.8941664625845
 30
0.0
 11
91.94640238025389
 21
151.8941664625845
 31
0.0
  0
LINE
  5
4FD1
330
4FA9
100
AcDbEntity
  8
DIM
  6
CONTINUOUS
100
AcDbLine
 10
101.9796220255472
 20
151.8941664625845
 30
0.0
 11
101.4796220255472
 21
151.8941664625845
 31
0.0
  0
SOLID
  5
4FD2
330
4FA9
100
AcDbEntity
  8
DIM
  6
CONTINUOUS
100
AcDbTrace
 10
104.4796220255471
 20
152.3108331292511
 30
0.0
 11
104.4796220255471
 21
151.4774997959178
 31
0.0
 12
101.9796220255472
 22
151.8941664625845
 32
0.0
 13
101.9796220255472
 23
151.8941664625845
 33
0.0
  0
SOLID
  5
4FD3
330
4FA9
100
AcDbEntity
  8
DIM
  6
CONTINUOUS
100
AcDbTrace
 10
98.97962202554721
 20
152.3108331292511
 30
0.0
 11
98.97962202554721
 21
151.4774997959178
 31
0.0
 12
101.4796220255472
 22
151.8941664625845
 32
0.0
 13
101.4796220255472
 23
151.8941664625845
 33
0.0
  0
MTEXT
  5
4FD4
330
4FA9
100
AcDbEntity
  8
DIM
  6
CONTINUOUS
 62
     2
100
AcDbMText
 10
94.20932871040395
 20
153.4381978404835
 30
0.0
 40
1.8
 41
0.0
 71
     5
 72
     1
  1
0.6
  7
FINDER
1001
ACAD
1000
MTEXTBEGIN
1070
    73
1070
     1
1070
    44
1040
1.0
1070
    74
1070
     0
1000
MTEXTEND
  0
POINT
  5
4FD5
330
4FA9
100
AcDbEntity
  8
DEFPOINTS
  6
CONTINUOUS
 62
     0
100
AcDbPoint
 10
101.4796220255472
 20
156.0982586171966
 30
0.0
  0
POINT
  5
4FD6
330
4FA9
100
AcDbEntity
  8
DEFPOINTS
  6
CONTINUOUS
 62
     0
100
AcDbPoint
 10
101.9796220255472
 20
156.0982586171966
 30
0.0
  0
POINT
  5
4FD7
330
4FA9
100
AcDbEntity
  8
DEFPOINTS
  6
CONTINUOUS
 62
     0
100
AcDbPoint
 10
101.9796220255472
 20
151.8941664625845
 30
0.0
  0
ENDBLK
  5
4FB6
330
4FA9
100
AcDbEntity
  8
0
100
AcDbBlockEnd
  0
ENDSEC
  0
SECTION
  2
ENTITIES
  0
LINE
  5
29
330
A
100
AcDbEntity
  8
CARTOUCHE
  6
CONTINUOUS
 62
     7
100
AcDbLine
 10
205.000037
 20
10.000793
 30
0.0
 11
5.0
 21
10.00106799999999
 31
0.0
  0
LINE
  5
2A
330
A
100
AcDbEntity
  8
CARTOUCHE
  6
CONTINUOUS
 62
     7
100
AcDbLine
 10
50.000001
 20
36.845393
 30
0.0
 11
50.000001
 21
5.000041
 31
0.0
  0
TEXT
  5
2B
330
A
100
AcDbEntity
  8
CARTOUCHE
  6
CONTINUOUS
 62
     7
100
AcDbText
 10
119.6202638513061
 20
32.43596665250083
 30
0.0
 40
1.8
  1
PRODUCT TYPE
 50
359.9999079999998
 41
0.8
  7
FINDER
 72
     1
 11
127.499991
 21
32.43595399999998
 31
0.0
100
AcDbText
  0
TEXT
  5
2D
330
A
100
AcDbEntity
  8
CARTOUCHE
  6
CONTINUOUS
 62
     2
100
AcDbText
 10
19.35727248705006
 20
6.600975074802907
 30
0.0
 40
1.8
  1
MOD. UT 902
 50
359.9999079999998
 41
1.05
  7
FINDER
 72
     1
 11
27.500001
 21
6.600961999999999
 31
0.0
100
AcDbText
  0
LINE
  5
2E
330
A
100
AcDbEntity
  8
CARTOUCHE
  6
CONTINUOUS
 62
     7
100
AcDbLine
 10
205.000008
 20
20.002808
 30
0.0
 11
49.999973
 21
20.00304499999999
 31
0.0
  0
TEXT
  5
31
330
A
100
AcDbEntity
  8
CARTOUCHE
  6
CONTINUOUS
 62
     7
100
AcDbText
 10
73.48571344884341
 20
16.62430476956831
 30
0.0
 40
1.8
  1
REV.
 50
359.9999079999998
 41
0.8
  7
FINDER
 72
     1
 11
75.833326
 21
16.624301
 31
0.0
100
AcDbText
  0
TEXT
  5
32
330
A
100
AcDbEntity
  8
CARTOUCHE
  6
CONTINUOUS
 62
     1
100
AcDbText
 10
75.18069298499402
 20
11.77627904793473
 30
0.0
 40
2.1
  1
1
 50
359.9999079999998
 41
0.8
  7
FINDER
 72
     1
 11
75.833326
 21
11.776278
 31
0.0
100
AcDbText
  0
LINE
  5
33
330
A
100
AcDbEntity
  8
CARTOUCHE
  6
CONTINUOUS
 62
     7
100
AcDbLine
 10
101.666651
 20
20.00296599999998
 30
0.0
 11
101.666651
 21
10.001024
 31
0.0
  0
LINE
  5
37
330
A
100
AcDbEntity
  8
CARTOUCHE
  6
CONTINUOUS
 62
     4
100
AcDbLine
 10
12.362923
 20
27.65548499999999
 30
0.0
 11
12.362923
 21
21.81019399999999
 31
0.0
  0
LINE
  5
38
330
A
100
AcDbEntity
  8
CARTOUCHE
  6
CONTINUOUS
 62
     4
100
AcDbLine
 10
12.362923
 20
21.81019399999999
 30
0.0
 11
10.88782299999998
 21
23.410844
 31
0.0
  0
LINE
  5
39
330
A
100
AcDbEntity
  8
CARTOUCHE
  6
CONTINUOUS
 62
     4
100
AcDbLine
 10
10.88782299999998
 20
23.410844
 30
0.0
 11
11.11642299999999
 21
23.410844
 31
0.0
  0
LINE
  5
3A
330
A
100
AcDbEntity
  8
CARTOUCHE
  6
CONTINUOUS
 62
     4
100
AcDbLine
 10
11.41387299999998
 20
23.766514
 30
0.0
 11
11.41387299999998
 21
27.652621
 31
0.0
  0
LINE
  5
3B
330
A
100
AcDbEntity
  8
CARTOUCHE
  6
CONTINUOUS
 62
     4
100
AcDbLine
 10
10.46482299999998
 20
27.399506
 30
0.0
 11
10.46482299999998
 21
24.428744
 31
0.0
  0
LINE
  5
3C
330
A
100
AcDbEntity
  8
CARTOUCHE
  6
CONTINUOUS
 62
     4
100
AcDbLine
 10
10.46482299999998
 20
24.428744
 30
0.0
 11
8.174775999999999
 21
24.428744
 31
0.0
  0
LINE
  5
3D
330
A
100
AcDbEntity
  8
CARTOUCHE
  6
CONTINUOUS
 62
     4
100
AcDbLine
 10
8.176313
 20
23.410844
 30
0.0
 11
9.378522999999999
 21
23.410844
 31
0.0
  0
LINE
  5
3E
330
A
100
AcDbEntity
  8
CARTOUCHE
  6
CONTINUOUS
 62
     4
100
AcDbLine
 10
9.378522999999999
 20
23.410844
 30
0.0
 11
12.173699
 21
20.66832799999998
 31
0.0
  0
LINE
  5
3F
330
A
100
AcDbEntity
  8
CARTOUCHE
  6
CONTINUOUS
 62
     4
100
AcDbLine
 10
13.323223
 20
21.169844
 30
0.0
 11
13.323223
 21
24.508394
 31
0.0
  0
LINE
  5
40
330
A
100
AcDbEntity
  8
CARTOUCHE
  6
CONTINUOUS
 62
     4
100
AcDbLine
 10
13.323223
 20
24.508394
 30
0.0
 11
14.455423
 21
24.508394
 31
0.0
  0
LINE
  5
41
330
A
100
AcDbEntity
  8
CARTOUCHE
  6
CONTINUOUS
 62
     4
100
AcDbLine
 10
14.35365599999999
 20
25.503344
 30
0.0
 11
13.323223
 21
25.503344
 31
0.0
  0
LINE
  5
42
330
A
100
AcDbEntity
  8
CARTOUCHE
  6
CONTINUOUS
 62
     4
100
AcDbLine
 10
13.323223
 20
25.503344
 30
0.0
 11
13.323223
 21
27.404134
 31
0.0
  0
LINE
  5
43
330
A
100
AcDbEntity
  8
CARTOUCHE
  6
CONTINUOUS
 62
     4
100
AcDbLine
 10
28.108423
 20
22.47903399999999
 30
0.0
 11
28.108423
 21
20.63209399999998
 31
0.0
  0
LINE
  5
44
330
A
100
AcDbEntity
  8
CARTOUCHE
  6
CONTINUOUS
 62
     4
100
AcDbLine
 10
28.108423
 20
20.63209399999998
 30
0.0
 11
29.89222299999999
 21
20.63209399999998
 31
0.0
  0
LINE
  5
45
330
A
100
AcDbEntity
  8
CARTOUCHE
  6
CONTINUOUS
 62
     4
100
AcDbLine
 10
29.89222299999999
 20
20.63209399999998
 30
0.0
 11
29.89222299999999
 21
23.324553
 31
0.0
  0
LINE
  5
46
330
A
100
AcDbEntity
  8
CARTOUCHE
  6
CONTINUOUS
 62
     4
100
AcDbLine
 10
26.28997299999999
 20
24.074144
 30
0.0
 11
26.28997299999999
 21
24.508394
 31
0.0
  0
LINE
  5
47
330
A
100
AcDbEntity
  8
CARTOUCHE
  6
CONTINUOUS
 62
     4
100
AcDbLine
 10
26.28997299999999
 20
24.508394
 30
0.0
 11
24.494923
 21
24.508394
 31
0.0
  0
LINE
  5
48
330
A
100
AcDbEntity
  8
CARTOUCHE
  6
CONTINUOUS
 62
     4
100
AcDbLine
 10
24.494923
 20
24.508394
 30
0.0
 11
24.494923
 21
20.63209399999998
 31
0.0
  0
LINE
  5
49
330
A
100
AcDbEntity
  8
CARTOUCHE
  6
CONTINUOUS
 62
     4
100
AcDbLine
 10
24.494923
 20
20.63209399999998
 30
0.0
 11
26.28997299999999
 21
20.63209399999998
 31
0.0
  0
LINE
  5
4A
330
A
100
AcDbEntity
  8
CARTOUCHE
  6
CONTINUOUS
 62
     4
100
AcDbLine
 10
26.28997299999999
 20
20.63209399999998
 30
0.0
 11
26.28997299999999
 21
22.43349899999999
 31
0.0
  0
LINE
  5
4B
330
A
100
AcDbEntity
  8
CARTOUCHE
  6
CONTINUOUS
 62
     4
100
AcDbLine
 10
35.986573
 20
25.823744
 30
0.0
 11
35.986573
 21
20.620844
 31
0.0
  0
LINE
  5
4C
330
A
100
AcDbEntity
  8
CARTOUCHE
  6
CONTINUOUS
 62
     4
100
AcDbLine
 10
35.986573
 20
20.620844
 30
0.0
 11
34.19152299999999
 21
20.620844
 31
0.0
  0
LINE
  5
4D
330
A
100
AcDbEntity
  8
CARTOUCHE
  6
CONTINUOUS
 62
     4
100
AcDbLine
 10
34.19152299999999
 20
24.319904
 30
0.0
 11
34.19152299999999
 21
25.823744
 31
0.0
  0
LINE
  5
4E
330
A
100
AcDbEntity
  8
CARTOUCHE
  6
CONTINUOUS
 62
     4
100
AcDbLine
 10
34.19152299999999
 20
25.823744
 30
0.0
 11
35.986573
 21
25.823744
 31
0.0
  0
LINE
  5
4F
330
A
100
AcDbEntity
  8
CARTOUCHE
  6
CONTINUOUS
 62
     4
100
AcDbLine
 10
42.732973
 20
24.508394
 30
0.0
 11
44.459623
 21
24.508394
 31
0.0
  0
LINE
  5
50
330
A
100
AcDbEntity
  8
CARTOUCHE
  6
CONTINUOUS
 62
     4
100
AcDbLine
 10
44.459623
 20
24.508394
 30
0.0
 11
44.459623
 21
24.165494
 31
0.0
  0
LINE
  5
51
330
A
100
AcDbEntity
  8
CARTOUCHE
  6
CONTINUOUS
 62
     4
100
AcDbLine
 10
47.28382299999998
 20
22.58779399999999
 30
0.0
 11
45.45457299999998
 21
22.58779399999999
 31
0.0
  0
LINE
  5
52
330
A
100
AcDbEntity
  8
CARTOUCHE
  6
CONTINUOUS
 62
     4
100
AcDbLine
 10
45.45457299999998
 20
22.58779399999999
 30
0.0
 11
45.45457299999998
 21
22.827644
 31
0.0
  0
LINE
  5
53
330
A
100
AcDbEntity
  8
CARTOUCHE
  6
CONTINUOUS
 62
     4
100
AcDbLine
 10
44.459623
 20
22.782194
 30
0.0
 11
44.459623
 21
20.63209399999998
 31
0.0
  0
LINE
  5
54
330
A
100
AcDbEntity
  8
CARTOUCHE
  6
CONTINUOUS
 62
     4
100
AcDbLine
 10
44.459623
 20
20.63209399999998
 30
0.0
 11
42.732973
 21
20.63209399999998
 31
0.0
  0
LINE
  5
55
330
A
100
AcDbEntity
  8
CARTOUCHE
  6
CONTINUOUS
 62
     4
100
AcDbLine
 10
42.732973
 20
20.63209399999998
 30
0.0
 11
42.732973
 21
24.508394
 31
0.0
  0
LINE
  5
56
330
A
100
AcDbEntity
  8
CARTOUCHE
  6
CONTINUOUS
 62
     4
100
AcDbLine
 10
39.15412299999999
 20
22.244444
 30
0.0
 11
39.05107299999999
 21
22.244444
 31
0.0
  0
LINE
  5
57
330
A
100
AcDbEntity
  8
CARTOUCHE
  6
CONTINUOUS
 62
     4
100
AcDbLine
 10
39.05107299999999
 20
22.244444
 30
0.0
 11
38.364823
 21
22.244444
 31
0.0
  0
LINE
  5
58
330
A
100
AcDbEntity
  8
CARTOUCHE
  6
CONTINUOUS
 62
     4
100
AcDbLine
 10
40.34302299999999
 20
21.855644
 30
0.0
 11
42.10387299999999
 21
21.855644
 31
0.0
  0
LINE
  5
59
330
A
100
AcDbEntity
  8
CARTOUCHE
  6
CONTINUOUS
 62
     4
100
AcDbLine
 10
42.20692299999996
 20
22.25614399999999
 30
0.0
 11
39.15412299999999
 21
22.244444
 31
0.0
  0
LINE
  5
5A
330
A
100
AcDbEntity
  8
CARTOUCHE
  6
CONTINUOUS
 62
     4
100
AcDbLine
 10
39.15412299999999
 20
23.079194
 30
0.0
 11
40.34302299999999
 21
23.079194
 31
0.0
  0
LINE
  5
5B
330
A
100
AcDbEntity
  8
CARTOUCHE
  6
CONTINUOUS
 62
     4
100
AcDbLine
 10
38.364823
 20
23.079194
 30
0.0
 11
39.15412299999999
 21
23.079194
 31
0.0
  0
LINE
  5
5C
330
A
100
AcDbEntity
  8
CARTOUCHE
  6
CONTINUOUS
 62
     4
100
AcDbLine
 10
21.087523
 20
24.931844
 30
0.0
 11
21.087523
 21
25.834994
 31
0.0
  0
LINE
  5
5D
330
A
100
AcDbEntity
  8
CARTOUCHE
  6
CONTINUOUS
 62
     4
100
AcDbLine
 10
21.087523
 20
25.834994
 30
0.0
 11
19.589473
 21
25.834994
 31
0.0
  0
LINE
  5
5E
330
A
100
AcDbEntity
  8
CARTOUCHE
  6
CONTINUOUS
 62
     4
100
AcDbLine
 10
18.674623
 20
24.931844
 30
0.0
 11
18.674623
 21
24.508394
 31
0.0
  0
LINE
  5
5F
330
A
100
AcDbEntity
  8
CARTOUCHE
  6
CONTINUOUS
 62
     4
100
AcDbLine
 10
18.674623
 20
24.508394
 30
0.0
 11
18.137323
 21
24.508394
 31
0.0
  0
LINE
  5
60
330
A
100
AcDbEntity
  8
CARTOUCHE
  6
CONTINUOUS
 62
     4
100
AcDbLine
 10
18.137323
 20
24.508394
 30
0.0
 11
18.137323
 21
23.410844
 31
0.0
  0
LINE
  5
61
330
A
100
AcDbEntity
  8
CARTOUCHE
  6
CONTINUOUS
 62
     4
100
AcDbLine
 10
18.137323
 20
23.410844
 30
0.0
 11
18.674623
 21
23.410844
 31
0.0
  0
LINE
  5
62
330
A
100
AcDbEntity
  8
CARTOUCHE
  6
CONTINUOUS
 62
     4
100
AcDbLine
 10
18.674623
 20
23.410844
 30
0.0
 11
18.674623
 21
20.63209399999998
 31
0.0
  0
LINE
  5
63
330
A
100
AcDbEntity
  8
CARTOUCHE
  6
CONTINUOUS
 62
     4
100
AcDbLine
 10
18.674623
 20
20.63209399999998
 30
0.0
 11
20.470123
 21
20.63209399999998
 31
0.0
  0
LINE
  5
64
330
A
100
AcDbEntity
  8
CARTOUCHE
  6
CONTINUOUS
 62
     4
100
AcDbLine
 10
20.470123
 20
20.63209399999998
 30
0.0
 11
20.470123
 21
23.410844
 31
0.0
  0
LINE
  5
65
330
A
100
AcDbEntity
  8
CARTOUCHE
  6
CONTINUOUS
 62
     4
100
AcDbLine
 10
20.470123
 20
23.410844
 30
0.0
 11
21.087523
 21
23.410844
 31
0.0
  0
LINE
  5
66
330
A
100
AcDbEntity
  8
CARTOUCHE
  6
CONTINUOUS
 62
     4
100
AcDbLine
 10
21.087523
 20
23.410844
 30
0.0
 11
21.087523
 21
24.508394
 31
0.0
  0
LINE
  5
67
330
A
100
AcDbEntity
  8
CARTOUCHE
  6
CONTINUOUS
 62
     4
100
AcDbLine
 10
21.087523
 20
24.508394
 30
0.0
 11
20.412973
 21
24.508394
 31
0.0
  0
LINE
  5
68
330
A
100
AcDbEntity
  8
CARTOUCHE
  6
CONTINUOUS
 62
     4
100
AcDbLine
 10
20.412973
 20
24.508394
 30
0.0
 11
20.461079
 21
24.768622
 31
0.0
  0
LINE
  5
69
330
A
100
AcDbEntity
  8
CARTOUCHE
  6
CONTINUOUS
 62
     4
100
AcDbLine
 10
20.679053
 20
24.931844
 30
0.0
 11
21.087523
 21
24.931844
 31
0.0
  0
LINE
  5
6A
330
A
100
AcDbEntity
  8
CARTOUCHE
  6
CONTINUOUS
 62
     4
100
AcDbLine
 10
21.807973
 20
20.63209399999998
 30
0.0
 11
21.807973
 21
24.508394
 31
0.0
  0
LINE
  5
6B
330
A
100
AcDbEntity
  8
CARTOUCHE
  6
CONTINUOUS
 62
     4
100
AcDbLine
 10
21.807973
 20
24.508394
 30
0.0
 11
23.625973
 21
24.508394
 31
0.0
  0
LINE
  5
6C
330
A
100
AcDbEntity
  8
CARTOUCHE
  6
CONTINUOUS
 62
     4
100
AcDbLine
 10
23.625973
 20
24.508394
 30
0.0
 11
23.625973
 21
20.63209399999998
 31
0.0
  0
LINE
  5
6D
330
A
100
AcDbEntity
  8
CARTOUCHE
  6
CONTINUOUS
 62
     4
100
AcDbLine
 10
23.625973
 20
20.63209399999998
 30
0.0
 11
21.807973
 21
20.63209399999998
 31
0.0
  0
LINE
  5
6E
330
A
100
AcDbEntity
  8
CARTOUCHE
  6
CONTINUOUS
 62
     4
100
AcDbLine
 10
21.807973
 20
24.943094
 30
0.0
 11
21.807973
 21
25.834994
 31
0.0
  0
LINE
  5
6F
330
A
100
AcDbEntity
  8
CARTOUCHE
  6
CONTINUOUS
 62
     4
100
AcDbLine
 10
21.807973
 20
25.834994
 30
0.0
 11
23.625973
 21
25.834994
 31
0.0
  0
LINE
  5
70
330
A
100
AcDbEntity
  8
CARTOUCHE
  6
CONTINUOUS
 62
     4
100
AcDbLine
 10
23.625973
 20
25.834994
 30
0.0
 11
23.625973
 21
24.943094
 31
0.0
  0
LINE
  5
71
330
A
100
AcDbEntity
  8
CARTOUCHE
  6
CONTINUOUS
 62
     4
100
AcDbLine
 10
23.625973
 20
24.943094
 30
0.0
 11
21.807973
 21
24.943094
 31
0.0
  0
ARC
  5
72
330
A
100
AcDbEntity
  8
CARTOUCHE
  6
CONTINUOUS
 62
     4
100
AcDbCircle
 10
19.58025899999998
 20
24.929401
 30
0.0
 40
0.905639
100
AcDbArc
 50
90.0
 51
180.0
  0
ARC
  5
73
330
A
100
AcDbEntity
  8
CARTOUCHE
  6
CONTINUOUS
 62
     4
100
AcDbCircle
 10
20.705988
 20
24.668716
 30
0.0
 40
0.264503
100
AcDbArc
 50
95.844673
 51
157.807812
  0
ARC
  5
74
330
A
100
AcDbEntity
  8
CARTOUCHE
  6
CONTINUOUS
 62
     4
100
AcDbCircle
 10
28.675028
 20
23.264873
 30
0.0
 40
1.218658
100
AcDbArc
 50
2.806996999999998
 51
66.54578100000001
  0
ARC
  5
75
330
A
100
AcDbEntity
  8
CARTOUCHE
  6
CONTINUOUS
 62
     4
100
AcDbCircle
 10
28.067403
 20
21.045261
 30
0.0
 40
3.511892
100
AcDbArc
 50
71.872392
 51
120.4055569999999
  0
ARC
  5
76
330
A
100
AcDbEntity
  8
CARTOUCHE
  6
CONTINUOUS
 62
     4
100
AcDbCircle
 10
27.457324
 20
22.47903399999999
 30
0.0
 40
0.6511239999999999
100
AcDbArc
 50
0.0
 51
97.150683
  0
ARC
  5
77
330
A
100
AcDbEntity
  8
CARTOUCHE
  6
CONTINUOUS
 62
     4
100
AcDbCircle
 10
27.44381
 20
21.82007899999999
 30
0.0
 40
1.306761
100
AcDbArc
 50
92.96251299999999
 51
152.003324
  0
CIRCLE
  5
78
330
A
100
AcDbEntity
  8
CARTOUCHE
  6
CONTINUOUS
 62
     4
100
AcDbCircle
 10
11.899646
 20
23.925422
 30
0.0
 40
4.756723
  0
ARC
  5
79
330
A
100
AcDbEntity
  8
CARTOUCHE
  6
CONTINUOUS
 62
     4
100
AcDbCircle
 10
11.899651
 20
23.925417
 30
0.0
 40
3.758726999999998
100
AcDbArc
 50
112.441032
 51
172.30447
  0
ARC
  5
7A
330
A
100
AcDbEntity
  8
CARTOUCHE
  6
CONTINUOUS
 62
     4
100
AcDbCircle
 10
11.899651
 20
23.925417
 30
0.0
 40
3.758726999999998
100
AcDbArc
 50
82.92015400000002
 51
97.425676
  0
ARC
  5
7B
330
A
100
AcDbEntity
  8
CARTOUCHE
  6
CONTINUOUS
 62
     4
100
AcDbCircle
 10
11.899651
 20
23.925417
 30
0.0
 40
3.758726999999998
100
AcDbArc
 50
187.868554
 51
67.74447600000001
  0
SPLINE
  5
7C
330
A
100
AcDbEntity
  8
CARTOUCHE
  6
CONTINUOUS
 62
     4
100
AcDbSpline
210
0.0
220
0.0
230
1.0
 70
     8
 71
     3
 72
    36
 73
    32
 74
    30
 42
0.0000000001
 43
0.0000000001
 44
0.000001
 12
-0.7486966541787443
 22
0.6629127544568397
 32
0.0
 13
0.8109899424984487
 23
0.5850600936368529
 33
0.0
 40
0.0
 40
0.0
 40
0.0
 40
0.0
 40
0.1780761553060498
 40
0.3550416348689506
 40
0.5343448658842012
 40
0.7146560387433967
 40
1.070969089720217
 40
1.425796663898005
 40
1.782601001142065
 40
2.138603895040072
 40
2.494665093696478
 40
2.851054396920096
 40
3.206893011134882
 40
3.563375881356894
 40
3.919393765629779
 40
4.275489247209677
 40
4.631810020557415
 40
4.987968836485984
 40
5.34408136041936
 40
5.700398584840179
 40
6.056403071275464
 40
6.412685561611938
 40
6.768553833375485
 40
7.124993908020171
 40
7.480918575954269
 40
7.8370648916584
 40
8.193226462040989
 40
8.549153485654628
 40
8.905927656882468
 40
9.261828075226128
 40
9.97055756363207
 40
9.97055756363207
 40
9.97055756363207
 40
9.97055756363207
 10
34.19152297621248
 20
24.31990419713182
 30
0.0
 10
34.1470813023236
 20
24.35925384867082
 30
0.0
 10
34.0521719569681
 20
24.43173618392172
 30
0.0
 10
33.88702575613148
 20
24.50226791579082
 30
0.0
 10
33.71305223761584
 20
24.54495714766016
 30
0.0
 10
33.47834937114383
 20
24.58798310564184
 30
0.0
 10
33.18518211493348
 20
24.63800747804683
 30
0.0
 10
32.82899744348543
 20
24.659369294718
 30
0.0
 10
32.47326771695627
 20
24.64621390081768
 30
0.0
 10
32.11757591555201
 20
24.61242870860892
 30
0.0
 10
31.77299300510801
 20
24.5155708841489
 30
0.0
 10
31.44749964423072
 20
24.36660655392596
 30
0.0
 10
31.1577579438396
 20
24.15567801072958
 30
0.0
 10
30.90609576518009
 20
23.90204674026735
 30
0.0
 10
30.69450218406407
 20
23.61346834211754
 30
0.0
 10
30.53862681297708
 20
23.29089603959582
 30
0.0
 10
30.44277781548911
 20
22.9462329884785
 30
0.0
 10
30.40515987073749
 20
22.5896806229232
 30
0.0
 10
30.44352427876861
 20
22.23351817132072
 30
0.0
 10
30.53308941867977
 20
21.88748886639843
 30
0.0
 10
30.68157947778859
 20
21.56148506227442
 30
0.0
 10
30.88917782139148
 20
21.26919473918138
 30
0.0
 10
31.15221374974193
 20
21.02575919463754
 30
0.0
 10
31.4509261633181
 20
20.82973487900219
 30
0.0
 10
31.77615975633121
 20
20.68002671318713
 30
0.0
 10
32.12459920184518
 20
20.59680895475901
 30
0.0
 10
32.48036308610931
 20
20.56921458872082
 30
0.0
 10
32.83672042951042
 20
20.56880350163352
 30
0.0
 10
33.19288790635218
 20
20.5809601887588
 30
0.0
 10
33.6641915214532
 20
20.63797084694978
 30
0.0
 10
33.99993214719605
 20
20.78862716016669
 30
0.0
 10
34.19152297621248
 20
20.92684360711669
 30
0.0
 11
34.19152297621248
 21
24.31990419713182
 31
0.0
 11
34.04814564948316
 21
24.42551803537496
 31
0.0
 11
33.886414432493
 21
24.49734946038967
 31
0.0
 11
33.71305596481814
 21
24.54313679053143
 31
0.0
 11
33.53598457982956
 21
24.57716399139703
 31
0.0
 11
33.18386096308204
 21
24.63164336554592
 31
0.0
 11
32.8297140010732
 21
24.65361067318905
 31
0.0
 11
32.47307470160767
 21
24.64275936909139
 31
0.0
 11
32.11942187052807
 21
24.60192152108414
 31
0.0
 11
31.77626880985488
 21
24.50691864896159
 31
0.0
 11
31.45331806594562
 21
24.35619987525168
 31
0.0
 11
31.16425081659299
 21
24.14868782982736
 31
0.0
 11
30.91268311986691
 21
23.89611360248224
 31
0.0
 11
30.70379325220438
 21
23.60781901266319
 31
0.0
 11
30.54866063637869
 21
23.28729150751013
 31
0.0
 11
30.45247328846812
 21
22.94419894098582
 31
0.0
 11
30.41782044248039
 21
22.58972989255912
 31
0.0
 11
30.4520470898832
 21
22.23526594311771
 31
0.0
 11
30.54294059487364
 21
21.89073675637875
 31
0.0
 11
30.691396483504
 21
21.56716285752306
 31
0.0
 11
30.89849041843911
 21
21.27725022136696
 31
0.0
 11
31.15802450035081
 21
21.0337665401986
 31
0.0
 11
31.45548308742885
 21
20.83737935540596
 31
0.0
 11
31.77997022332717
 21
20.69112453447919
 31
0.0
 11
32.12581407620214
 21
20.60608206244054
 31
0.0
 11
32.48050427697165
 21
20.57374147270578
 31
0.0
 11
32.83641989969535
 21
20.57089422013111
 31
0.0
 11
33.19286980656467
 21
20.58610182742615
 31
0.0
 11
33.54527140198384
 21
20.63588357412756
 31
0.0
 11
34.19152297621248
 21
20.92684360711669
 31
0.0
  0
SPLINE
  5
7D
330
A
100
AcDbEntity
  8
CARTOUCHE
  6
CONTINUOUS
 62
     4
100
AcDbSpline
210
0.0
220
0.0
230
1.0
 70
     8
 71
     3
 72
    32
 73
    28
 74
    26
 42
0.0000000001
 43
0.0000000001
 44
0.000001
 12
-0.1341089932713914
 22
0.9909665876929119
 32
0.0
 13
0.0921211275959058
 23
0.9957478083583508
 33
0.0
 40
0.0
 40
0.0
 40
0.0
 40
0.0
 40
0.1932870726990335
 40
0.386679245209631
 40
0.5800716448723797
 40
0.7723331336887166
 40
0.9658517963207453
 40
1.159368324722239
 40
1.351211885861723
 40
1.544293516073677
 40
1.738458265495972
 40
1.93176442078681
 40
2.315247530488626
 40
2.698534125382564
 40
2.891496493449481
 40
3.086239187656823
 40
3.279346076389814
 40
3.471494617804939
 40
3.665361350852597
 40
3.858866209618616
 40
4.051424456358025
 40
4.244517019109061
 40
4.629047421486934
 40
4.822526074880364
 40
5.015998230668785
 40
5.208856307653515
 40
5.402319509587275
 40
5.402319509587275
 40
5.402319509587275
 40
5.402319509587275
 10
34.19152297621248
 20
22.75924360711669
 30
0.0
 10
34.18288246463513
 20
22.82309061740926
 30
0.0
 10
34.14699032504411
 20
22.94923083584772
 30
0.0
 10
34.03863119159348
 20
23.1129585674996
 30
0.0
 10
33.88808692217448
 20
23.23750526320151
 30
0.0
 10
33.713903336865
 20
23.32349595013638
 30
0.0
 10
33.52952374823402
 20
23.38166664627399
 30
0.0
 10
33.34290576820264
 20
23.43125923522332
 30
0.0
 10
33.15005934454871
 20
23.45345638096767
 30
0.0
 10
32.95676626530339
 20
23.43192402229585
 30
0.0
 10
32.77056094954623
 20
23.37588613719516
 30
0.0
 10
32.5400564300067
 20
23.25927875203683
 30
0.0
 10
32.30432080538979
 20
23.02895627192542
 30
0.0
 10
32.19918324728943
 20
22.70410853072547
 30
0.0
 10
32.25560999955023
 20
22.44863361631262
 30
0.0
 10
32.34552926468554
 20
22.27538547462596
 30
0.0
 10
32.47312191827226
 20
22.12730573798493
 30
0.0
 10
32.63483114160577
 20
22.01829644308998
 30
0.0
 10
32.81426091781528
 20
21.94472694998748
 30
0.0
 10
33.00144386925828
 20
21.89441488480761
 30
0.0
 10
33.19428298196591
 20
21.87304334806433
 30
0.0
 10
33.45148795617316
 20
21.88934820105486
 30
0.0
 10
33.70119762619979
 20
21.97262952139335
 30
0.0
 10
33.91655360502459
 20
22.11456126477981
 30
0.0
 10
34.05836119423947
 20
22.24858589816441
 30
0.0
 10
34.1563985165342
 20
22.41858974007391
 30
0.0
 10
34.18558229344233
 20
22.54608008734217
 30
0.0
 10
34.19152297621248
 20
22.61029360711668
 30
0.0
 11
34.19152297621248
 21
22.75924360711669
 31
0.0
 11
34.13791895137521
 21
22.94494973500174
 31
0.0
 11
34.03155373353055
 21
23.10646429401778
 31
0.0
 11
33.88383915758775
 21
23.2312882243935
 31
0.0
 11
33.71260018090836
 21
23.31870497950503
 31
0.0
 11
33.52912571204567
 21
23.38024026476581
 31
0.0
 11
33.34129541646134
 21
23.4268066350183
 31
0.0
 11
33.15043306379559
 21
23.44618483007101
 31
0.0
 11
32.95838311054932
 21
23.42625160056325
 31
0.0
 11
32.77240099875644
 21
23.3704787693241
 31
0.0
 11
32.6003783004499
 21
23.2823001555606
 31
0.0
 11
32.3303531106979
 21
23.01000300398823
 31
0.0
 11
32.22491909320101
 21
22.64150286445182
 31
0.0
 11
32.26331822628607
 21
22.45239971642014
 31
0.0
 11
32.35215412813561
 21
22.27909964132739
 31
0.0
 11
32.4790661567678
 21
22.13355370124998
 31
0.0
 11
32.63725672616544
 21
22.02448118124885
 31
0.0
 11
32.81564788989768
 21
21.94858052993353
 31
0.0
 11
33.00273750412712
 21
21.89916786421671
 31
0.0
 11
33.19419909206249
 21
21.87864610808737
 31
0.0
 11
33.38690243953787
 21
21.89090007892743
 31
0.0
 11
33.75163382265728
 21
22.01269765064039
 31
0.0
 11
33.91321018639743
 21
22.11912633605071
 31
0.0
 11
34.05119662359747
 21
22.25474052514755
 31
0.0
 11
34.14728879489485
 21
22.42195449774151
 31
0.0
 11
34.19152297621248
 21
22.61029360711668
 31
0.0
  0
LINE
  5
7E
330
A
100
AcDbEntity
  8
CARTOUCHE
  6
CONTINUOUS
 62
     4
100
AcDbLine
 10
34.19152299999999
 20
22.61029399999999
 30
0.0
 11
34.19152299999999
 21
22.759244
 31
0.0
  0
LINE
  5
7F
330
A
100
AcDbEntity
  8
CARTOUCHE
  6
CONTINUOUS
 62
     4
100
AcDbLine
 10
34.19152299999999
 20
20.620844
 30
0.0
 11
34.19152299999999
 21
20.926844
 31
0.0
  0
SPLINE
  5
80
330
A
100
AcDbEntity
  8
CARTOUCHE
  6
CONTINUOUS
 62
     4
100
AcDbSpline
210
0.0
220
0.0
230
1.0
 70
     8
 71
     3
 72
    46
 73
    42
 74
    40
 42
0.0000000001
 43
0.0000000001
 44
0.000001
 12
0.2679235453433934
 22
0.9634401765811027
 32
0.0
 13
0.1610223945668763
 23
0.9869507527977013
 33
0.0
 40
0.0
 40
0.0
 40
0.0
 40
0.0
 40
0.281175587961003
 40
0.5640894598527058
 40
0.8489967500744308
 40
1.131204584902207
 40
1.693847130716207
 40
2.25688272553264
 40
2.539006562895592
 40
2.820696627709169
 40
3.102988313571605
 40
3.385254961394735
 40
3.948537059671129
 40
4.512594879571457
 40
5.07629092957905
 40
5.63993899136881
 40
6.203885292827637
 40
6.766738024232013
 40
7.329350602228595
 40
7.892323292363508
 40
8.455148072837035
 40
8.737354674731138
 40
9.018966275430834
 40
9.581780957923621
 40
9.864038410179501
 40
10.14660875455177
 40
10.427656262743
 40
10.71044466815239
 40
11.27439702776555
 40
11.83782171874066
 40
12.40154952919084
 40
12.96488070414784
 40
13.53013628041458
 40
13.81230340811158
 40
14.09372867187361
 40
14.37575650341839
 40
14.65756953458366
 40
14.93943539145297
 40
15.22120083022441
 40
15.50299648006999
 40
15.78483841467692
 40
15.78483841467692
 40
15.78483841467692
 40
15.78483841467692
 10
42.2069229762125
 20
22.2561436071167
 30
0.0
 10
42.23203416300934
 20
22.34644222648851
 30
0.0
 10
42.26336600835234
 20
22.53399302707781
 30
0.0
 10
42.24149685064986
 20
22.81801354893511
 30
0.0
 10
42.17836809953296
 20
23.09483432895952
 30
0.0
 10
42.05825188604773
 20
23.45212616882765
 30
0.0
 10
41.8230668006803
 20
23.8672500462518
 30
0.0
 10
41.46781676949064
 20
24.18453380611619
 30
0.0
 10
41.14761161207627
 20
24.38196283172968
 30
0.0
 10
40.88897553118342
 20
24.49665789401905
 30
0.0
 10
40.6196938696678
 20
24.5817336253022
 30
0.0
 10
40.25431496432636
 20
24.67112545926652
 30
0.0
 10
39.78717039719531
 20
24.73491722666179
 30
0.0
 10
39.22286209832438
 20
24.74314592079588
 30
0.0
 10
38.65912089182813
 20
24.70776726288798
 30
0.0
 10
38.10430973138447
 20
24.60055473365942
 30
0.0
 10
37.56703419814676
 20
24.41975302663696
 30
0.0
 10
37.09128412027332
 20
24.10132431889457
 30
0.0
 10
36.74193897991701
 20
23.6494135573821
 30
0.0
 10
36.52262166512311
 20
23.12465092262862
 30
0.0
 10
36.46286239872555
 20
22.65237437546891
 30
0.0
 10
36.49897197569237
 20
22.27677357904616
 30
0.0
 10
36.60138550967334
 20
21.91447847594101
 30
0.0
 10
36.76185476285074
 20
21.56953949794035
 30
0.0
 10
36.99184531701845
 20
21.27135446443551
 30
0.0
 10
37.18412183917006
 20
21.06372977581579
 30
0.0
 10
37.41499114147041
 20
20.89810995063149
 30
0.0
 10
37.75233275177086
 20
20.73107999541952
 30
0.0
 10
38.19505514432213
 20
20.56630095377483
 30
0.0
 10
38.75227472239755
 20
20.46845436471209
 30
0.0
 10
39.31516450875555
 20
20.42686251213917
 30
0.0
 10
39.87978566121682
 20
20.45310413897524
 30
0.0
 10
40.34636221788836
 20
20.51793252236162
 30
0.0
 10
40.71317022013404
 20
20.60361845862005
 30
0.0
 10
40.98020793552477
 20
20.69575648453571
 30
0.0
 10
41.23634112546804
 20
20.8133707130675
 30
0.0
 10
41.4875620430427
 20
20.94257872732796
 30
0.0
 10
41.71131198312713
 20
21.11779586997518
 30
0.0
 10
41.89210410379192
 20
21.33577447260693
 30
0.0
 10
42.0370545583131
 20
21.57968832418388
 30
0.0
 10
42.0887453551459
 20
21.76292223727327
 30
0.0
 10
42.10387297621249
 20
21.85564360711669
 30
0.0
 11
42.2069229762125
 21
22.2561436071167
 31
0.0
 11
42.25187369928078
 21
22.53370336692193
 31
0.0
 11
42.23470970538826
 21
22.8160960466163
 31
0.0
 11
42.17357887835489
 21
23.0943678180467
 31
0.0
 11
42.08234233059616
 21
23.36142053588839
 31
0.0
 11
41.79914459059214
 21
23.84759505388021
 31
0.0
 11
41.38499580886721
 21
24.22902637720731
 31
0.0
 11
41.14444967147259
 21
24.37644216492157
 31
0.0
 11
40.88739588735783
 21
24.49164913231013
 31
0.0
 11
40.61887239332167
 21
24.57873375105807
 31
0.0
 11
40.34465192624326
 21
24.6456486068168
 31
0.0
 11
39.78677780416953
 21
24.72351512572941
 31
0.0
 11
39.22285539283774
 21
24.73587418697074
 31
0.0
 11
38.66058598489463
 21
24.6957948090196
 31
0.0
 11
38.10728319880826
 21
24.58829981854138
 31
0.0
 11
37.57690963109761
 21
24.39662477322789
 31
0.0
 11
37.11224330369889
 21
24.07899538626728
 31
0.0
 11
36.76366857941347
 21
23.63737494458054
 31
0.0
 11
36.54722159336241
 21
23.11767406956402
 31
0.0
 11
36.47887604508949
 21
22.55901436160783
 31
0.0
 11
36.50730298839906
 21
22.27824312562695
 31
0.0
 11
36.58066141679664
 21
22.00635409419069
 31
0.0
 11
36.82487619371594
 21
21.49928452588675
 31
0.0
 11
36.99507455897878
 21
21.27411393911514
 31
0.0
 11
37.19090624714093
 21
21.07040837833609
 31
0.0
 11
37.41820717151092
 21
20.90511471530928
 31
0.0
 11
37.66963145788086
 21
20.77567317677089
 31
0.0
 11
38.1996064863776
 21
20.58288122875969
 31
0.0
 11
38.75315260795133
 21
20.4778380326807
 31
0.0
 11
39.31548247397889
 21
20.43816227630538
 31
0.0
 11
39.87832438970059
 21
20.46163547548923
 31
0.0
 11
40.43780417420945
 21
20.54223471097221
 31
0.0
 11
40.71211753370237
 21
20.60834422386486
 31
0.0
 11
40.97822189579761
 21
20.69993377525821
 31
0.0
 11
41.23556355576588
 21
20.81532426148599
 31
0.0
 11
41.48298030283661
 21
20.95024471011851
 31
0.0
 11
41.70417597333143
 21
21.12494680466518
 31
0.0
 11
41.88612496759311
 21
21.3400893433574
 31
0.0
 11
42.02581025553314
 21
21.58482751880403
 31
0.0
 11
42.10387297621249
 21
21.85564360711669
 31
0.0
  0
SPLINE
  5
81
330
A
100
AcDbEntity
  8
CARTOUCHE
  6
CONTINUOUS
 62
     4
100
AcDbSpline
210
0.0
220
0.0
230
1.0
 70
     8
 71
     3
 72
    15
 73
    11
 74
     9
 42
0.0000000001
 43
0.0000000001
 44
0.000001
 12
0.1873467659221653
 22
-0.9822938406090642
 32
0.0
 13
0.7770129286964092
 23
0.6294846373332944
 33
0.0
 40
0.0
 40
0.0
 40
0.0
 40
0.0
 40
0.3371520882962173
 40
0.6743124420665221
 40
1.01174123194929
 40
1.348773281046474
 40
1.687274393511954
 40
1.856092886460975
 40
2.02467166899725
 40
2.361713795269132
 40
2.361713795269132
 40
2.361713795269132
 40
2.361713795269132
 10
38.3648229762125
 20
22.24444360711669
 30
0.0
 10
38.3858777606679
 20
22.13404946722274
 30
0.0
 10
38.4790882392058
 20
21.91720258641543
 30
0.0
 10
38.75430841965682
 20
21.70644962175586
 30
0.0
 10
39.06998579026006
 20
21.5818102495757
 30
0.0
 10
39.40539428132955
 20
21.52556294079901
 30
0.0
 10
39.68949383633028
 20
21.54062590043179
 30
0.0
 10
39.90812614741165
 20
21.59887432412622
 30
0.0
 10
40.11328190683264
 20
21.69222629120345
 30
0.0
 10
40.25572761300297
 20
21.78492266024258
 30
0.0
 10
40.3430229762125
 20
21.85564360711669
 30
0.0
 11
38.3648229762125
 21
22.24444360711669
 31
0.0
 11
38.50164219830394
 21
21.93629966675314
 31
0.0
 11
38.76098099155704
 21
21.72084551731241
 31
0.0
 11
39.07332908880514
 21
21.59318639542833
 31
0.0
 11
39.40580907592664
 21
21.53798084006903
 31
0.0
 11
39.74365139903879
 21
21.55908759838489
 31
0.0
 11
39.90657573481705
 21
21.60330661466392
 31
0.0
 11
40.06077578326681
 21
21.67143258943228
 31
0.0
 11
40.3430229762125
 21
21.85564360711669
 31
0.0
  0
SPLINE
  5
82
330
A
100
AcDbEntity
  8
CARTOUCHE
  6
CONTINUOUS
 62
     4
100
AcDbSpline
210
0.0
220
0.0
230
1.0
 70
     8
 71
     3
 72
    21
 73
    17
 74
    15
 42
0.0000000001
 43
0.0000000001
 44
0.000001
 12
-0.0762450288998757
 22
0.9970891111470715
 32
0.0
 13
-0.2154301143740796
 23
-0.9765192603429648
 33
0.0
 40
0.0
 40
0.0
 40
0.0
 40
0.0
 40
0.1868552501291134
 40
0.3735743240415496
 40
0.5613842212537326
 40
0.7484489381161418
 40
0.9355884385828151
 40
1.123112064008593
 40
1.311428189761318
 40
1.500242138341788
 40
1.68644372625627
 40
1.873057604711225
 40
2.059520215358866
 40
2.246467675506944
 40
2.434628543455337
 40
2.621193756753851
 40
2.621193756753851
 40
2.621193756753851
 40
2.621193756753851
 10
40.3430229762125
 20
23.07919360711669
 30
0.0
 10
40.33827404823044
 20
23.14129738553815
 30
0.0
 10
40.31098607120404
 20
23.265320998041
 30
0.0
 10
40.21176993964345
 20
23.42743856410386
 30
0.0
 10
40.07410542495196
 20
23.55667636729545
 30
0.0
 10
39.91380146855938
 20
23.65566279649364
 30
0.0
 10
39.73873495456708
 20
23.72452138799516
 30
0.0
 10
39.55490004271077
 20
23.76544088796556
 30
0.0
 10
39.36639757169169
 20
23.77885750750728
 30
0.0
 10
39.17902245598919
 20
23.76782182101862
 30
0.0
 10
38.99274814414789
 20
23.72745913194853
 30
0.0
 10
38.83748760469035
 20
23.62068056673372
 30
0.0
 10
38.66640559987164
 20
23.54392780516531
 30
0.0
 10
38.5252486385435
 20
23.41621618712654
 30
0.0
 10
38.42100518625732
 20
23.25892324324198
 30
0.0
 10
38.37822023129221
 20
23.13992178181535
 30
0.0
 10
38.3648229762125
 20
23.07919360711669
 30
0.0
 11
40.3430229762125
 21
23.07919360711669
 31
0.0
 11
40.30128482007762
 21
23.26132867168497
 31
0.0
 11
40.20559522220136
 21
23.42166431604199
 31
0.0
 11
40.07014905358667
 21
23.55176773224803
 31
0.0
 11
39.91135088271828
 21
23.65064317365038
 31
0.0
 11
39.73746285592488
 21
23.71981068462435
 31
0.0
 11
39.55447534379333
 21
23.76080659501807
 31
0.0
 11
39.36667772831404
 21
23.77477007425147
 31
0.0
 11
39.17824365086321
 21
23.76280187157365
 31
0.0
 11
38.99791204207538
 21
23.71641788353441
 31
0.0
 11
38.83484335052719
 21
23.62568105970969
 31
0.0
 11
38.67159397760771
 21
23.53558123947113
 31
0.0
 11
38.53168126994678
 21
23.41159000587154
 31
0.0
 11
38.42745670868595
 21
23.25493190905036
 31
0.0
 11
38.3648229762125
 21
23.07919360711669
 31
0.0
  0
SPLINE
  5
83
330
A
100
AcDbEntity
  8
CARTOUCHE
  6
CONTINUOUS
 62
     4
100
AcDbSpline
210
0.0
220
0.0
230
1.0
 70
     8
 71
     3
 72
    14
 73
    10
 74
     8
 42
0.0000000001
 43
0.0000000001
 44
0.000001
 12
0.0554704849890784
 22
0.9984603273516061
 32
0.0
 13
-0.0466631639368038
 23
-0.9989106812580427
 33
0.0
 40
0.0
 40
0.0
 40
0.0
 40
0.0
 40
0.2162139074022218
 40
0.4333924847994246
 40
0.6499495281904864
 40
0.8697428518080867
 40
1.087237595645037
 40
1.304827608132228
 40
1.522315904263424
 40
1.522315904263424
 40
1.522315904263424
 40
1.522315904263424
 10
45.4545729762125
 20
22.82764360711668
 30
0.0
 10
45.45857080631416
 20
22.89960394337094
 30
0.0
 10
45.42640845178715
 20
23.04880719341103
 30
0.0
 10
45.27439530019218
 20
23.2158047932794
 30
0.0
 10
45.06187441261874
 20
23.29256560222702
 30
0.0
 10
44.83996045298545
 20
23.27349163465661
 30
0.0
 10
44.63539403875084
 20
23.17927816693098
 30
0.0
 10
44.50069250367362
 20
22.99887923670179
 30
0.0
 10
44.46300587355137
 20
22.85461073446803
 30
0.0
 10
44.45962297621247
 20
22.78219360711668
 30
0.0
 11
45.4545729762125
 21
22.82764360711668
 31
0.0
 11
45.40925657835891
 21
23.03905624439607
 31
0.0
 11
45.2643208173426
 21
23.20079736409236
 31
0.0
 11
45.06139949806013
 21
23.27642755731508
 31
0.0
 11
44.84216559415751
 21
23.2607549970325
 31
0.0
 11
44.64694347697345
 21
23.16487840855711
 31
0.0
 11
44.51370731348553
 21
22.99285063220138
 31
0.0
 11
44.45962297621247
 21
22.78219360711668
 31
0.0
  0
SPLINE
  5
84
330
A
100
AcDbEntity
  8
CARTOUCHE
  6
CONTINUOUS
 62
     4
100
AcDbSpline
210
0.0
220
0.0
230
1.0
 70
     8
 71
     3
 72
    20
 73
    16
 74
    14
 42
0.0000000001
 43
0.0000000001
 44
0.000001
 12
0.1358608544273129
 22
0.9907279284618359
 32
0.0
 13
-0.8123777522852272
 23
-0.583131535412039
 33
0.0
 40
0.0
 40
0.0
 40
0.0
 40
0.0
 40
0.3099167376574337
 40
0.6201162120086046
 40
0.9308832229227103
 40
1.24078258036954
 40
1.550958571055996
 40
1.861841472929396
 40
2.1709890327011
 40
2.482794313402609
 40
2.792566681426365
 40
3.102412009711694
 40
3.413423418356814
 40
3.723770860917999
 40
4.342414092774915
 40
4.342414092774915
 40
4.342414092774915
 40
4.342414092774915
 10
47.28382297621251
 20
22.58779360711669
 30
0.0
 10
47.29785816047233
 20
22.69014132961502
 30
0.0
 10
47.31442324043968
 20
22.89676966285277
 30
0.0
 10
47.300929655681
 20
23.20747621588524
 30
0.0
 10
47.25565430040702
 20
23.51474442121903
 30
0.0
 10
47.17620425041039
 20
23.8164165132538
 30
0.0
 10
47.027328170138
 20
24.09240856669955
 30
0.0
 10
46.81020864916884
 20
24.3207391034987
 30
0.0
 10
46.53096591325815
 20
24.46673549232285
 30
0.0
 10
46.23076181269931
 20
24.54812138519134
 30
0.0
 10
45.9230282829723
 20
24.59724610143176
 30
0.0
 10
45.61155007781771
 20
24.58971042935069
 30
0.0
 10
45.30365677773262
 20
24.54593296501846
 30
0.0
 10
44.90384925448965
 20
24.4364940540321
 30
0.0
 10
44.62714697559995
 20
24.28574373300502
 30
0.0
 10
44.45962297621249
 20
24.16549360711669
 30
0.0
 11
47.28382297621251
 21
22.58779360711669
 31
0.0
 11
47.3080338234398
 21
22.89676387907709
 31
0.0
 11
47.29564801913904
 21
23.20671600883971
 31
0.0
 11
47.24989999164073
 21
23.51409730955235
 31
0.0
 11
47.16468005782959
 21
23.81204898160464
 31
0.0
 11
47.01605698726017
 21
24.08429955967585
 31
0.0
 11
46.79947591694868
 21
24.30732619143858
 31
0.0
 11
46.52824151124928
 21
24.45566419975128
 31
0.0
 11
46.22887996193931
 21
24.5428722112578
 31
0.0
 11
45.92238599753446
 21
24.58782115591738
 31
0.0
 11
45.61256799206709
 21
24.58370341795764
 31
0.0
 11
45.3047164351297
 21
24.53948194901727
 31
0.0
 11
45.00579935951135
 21
24.4560304659967
 31
0.0
 11
44.45962297621249
 21
24.16549360711669
 31
0.0
  0
ARC
  5
85
330
A
100
AcDbEntity
  8
CARTOUCHE
  6
CONTINUOUS
 62
     4
100
AcDbCircle
 10
10.95095399999999
 20
23.85149299999999
 30
0.0
 40
0.4706070000000003
100
AcDbArc
 50
290.581791
 51
349.597912
  0
SPLINE
  5
86
330
A
100
AcDbEntity
  8
CARTOUCHE
  6
CONTINUOUS
 62
     4
100
AcDbSpline
210
0.0
220
0.0
230
1.0
 70
     8
 71
     3
 72
    14
 73
    10
 74
     8
 42
0.0000000001
 43
0.0000000001
 44
0.000001
 12
-0.0678904074543379
 22
-0.9976927846665446
 32
0.0
 13
-0.8200536786282523
 23
0.5722866101598664
 33
0.0
 40
0.0
 40
0.0
 40
0.0
 40
0.0
 40
0.2180606789005011
 40
0.4363602626287935
 40
0.6537280242066299
 40
0.8729546411850174
 40
1.089088005528241
 40
1.305403373828838
 40
1.523279715932525
 40
1.523279715932525
 40
1.523279715932525
 40
1.523279715932525
 10
13.32322297621248
 20
21.16984360711669
 30
0.0
 10
13.31828823343237
 20
21.09732441846385
 30
0.0
 10
13.28444048343501
 20
20.95301317401816
 30
0.0
 10
13.16948288538594
 20
20.76307428830321
 30
0.0
 10
12.99638521645118
 20
20.62406333344729
 30
0.0
 10
12.79557455913799
 20
20.53568047568412
 30
0.0
 10
12.57604688222645
 20
20.5036065741256
 30
0.0
 10
12.36194585198924
 20
20.55796217058827
 30
0.0
 10
12.23325574438505
 20
20.6267655025048
 30
0.0
 10
12.17369897910899
 20
20.66832807359032
 30
0.0
 11
13.32322297621248
 21
21.16984360711669
 31
0.0
 11
13.27374961772985
 21
20.95746843688553
 31
0.0
 11
13.15964273339541
 21
20.77136537381492
 31
0.0
 11
12.99218699760144
 21
20.63277473124212
 31
0.0
 11
12.79139755994316
 21
20.54477508934442
 31
0.0
 11
12.57693403206399
 21
20.51795972590457
 31
0.0
 11
12.36599789339048
 21
20.56590052451097
 31
0.0
 11
12.17369897910899
 21
20.66832807359032
 31
0.0
  0
ARC
  5
87
330
A
100
AcDbEntity
  8
CARTOUCHE
  6
CONTINUOUS
 62
     4
100
AcDbCircle
 10
14.404539
 20
25.005869
 30
0.0
 40
0.5000710000000002
100
AcDbArc
 50
275.8401249999999
 51
95.840125
  0
INSERT
  5
88
330
A
100
AcDbEntity
  8
CARTOUCHE
  6
CONTINUOUS
 62
     4
100
AcDbBlockReference
  2
*X13
 10
0.0
 20
0.0
 30
0.0
1001
ACAD
1000
HATCH
1002
{
1070
    19
1000
ANSI31
1040
0.062992
1040
0.0
1000
R14_HATCH_DATA
1000
88
1011
1.0
1021
0.0
1031
0.0
1011
0.0
1021
1.0
1031
0.0
1011
0.0
1021
0.0
1031
1.0
1040
0.0
1010
0.0
1020
0.0
1030
1.0
1000
ANSI31
1070
     0
1070
     0
1071
        1
1071
        1
1071
       50
1070
     1
1040
10.46482299999998
1040
24.428744
1040
10.46482299999998
1040
27.399506
1070
     1
1040
8.174775999999999
1040
24.428744
1040
10.46482299999998
1040
24.428744
1070
     1
1040
11.41387299999998
1040
27.652621
1040
11.41387299999998
1040
23.766514
1070
     1
1040
11.11642299999999
1040
23.410844
1040
10.88782299999998
1040
23.410844
1070
     1
1040
10.88782299999998
1040
23.410844
1040
12.362923
1040
21.81019399999999
1070
     1
1040
12.362923
1040
21.81019399999999
1040
12.362923
1040
27.65548499999999
1070
     1
1040
9.378522999999999
1040
23.410844
1040
8.176313
1040
23.410844
1070
     1
1040
13.323223
1040
27.404134
1040
13.323223
1040
25.503344
1070
     1
1040
13.323223
1040
25.503344
1040
14.35365599999999
1040
25.503344
1070
     1
1040
14.455423
1040
24.508394
1040
13.323223
1040
24.508394
1070
     1
1040
13.323223
1040
24.508394
1040
13.323223
1040
21.169844
1070
     1
1040
13.323223
1040
21.169844
1040
13.31883499999999
1040
21.126412
1070
     1
1040
13.31883499999999
1040
21.126412
1040
13.311632
1040
21.08326799999999
1070
     1
1040
13.311632
1040
21.08326799999999
1040
13.301677
1040
21.040602
1070
     1
1040
13.301677
1040
21.040602
1040
13.289029
1040
20.99860499999997
1070
     1
1040
13.289029
1040
20.99860499999997
1040
13.27374999999999
1040
20.957468
1070
     1
1040
13.27374999999999
1040
20.957468
1040
13.25587699999999
1040
20.91734
1070
     1
1040
13.25587699999999
1040
20.91734
1040
13.23547999999999
1040
20.878466
1070
     1
1040
13.23547999999999
1040
20.878466
1040
13.212608
1040
20.841045
1070
     1
1040
13.212608
1040
20.841045
1040
13.187312
1040
20.805278
1070
     1
1040
13.187312
1040
20.805278
1040
13.159643
1040
20.77136499999999
1070
     1
1040
13.159643
1040
20.77136499999999
1040
13.129815
1040
20.73960499999996
1070
     1
1040
13.129815
1040
20.73960499999996
1040
13.09792
1040
20.70987399999999
1070
     1
1040
13.09792
1040
20.70987399999999
1040
13.064194
1040
20.682164
1070
     1
1040
13.064194
1040
20.682164
1040
13.028871
1040
20.656467
1070
     1
1040
13.028871
1040
20.656467
1040
12.99218699999999
1040
20.63277499999998
1070
     1
1040
12.99218699999999
1040
20.63277499999998
1040
12.91478699999998
1040
20.591129
1070
     1
1040
12.91478699999998
1040
20.591129
1040
12.874555
1040
20.573479
1070
     1
1040
12.874555
1040
20.573479
1040
12.83339999999999
1040
20.55801
1070
     1
1040
12.83339999999999
1040
20.55801
1040
12.791398
1040
20.544775
1070
     1
1040
12.791398
1040
20.544775
1040
12.749249
1040
20.53399399999999
1070
     1
1040
12.749249
1040
20.53399399999999
1040
12.706539
1040
20.52567799999998
1070
     1
1040
12.706539
1040
20.52567799999998
1040
12.663456
1040
20.52007
1070
     1
1040
12.663456
1040
20.52007
1040
12.620191
1040
20.517416
1070
     1
1040
12.620191
1040
20.517416
1040
12.57693399999999
1040
20.51796
1070
     1
1040
12.57693399999999
1040
20.51796
1040
12.533829
1040
20.52186
1070
     1
1040
12.533829
1040
20.52186
1040
12.491053
1040
20.528907
1070
     1
1040
12.491053
1040
20.528907
1040
12.448736
1040
20.53879699999999
1070
     1
1040
12.448736
1040
20.53879699999999
1040
12.407007
1040
20.551229
1070
     1
1040
12.407007
1040
20.551229
1040
12.365998
1040
20.565901
1070
     1
1040
12.365998
1040
20.565901
1040
12.286013
1040
20.60136299999999
1070
     1
1040
12.286013
1040
20.60136299999999
1040
12.228617
1040
20.63285299999998
1070
     1
1040
12.228617
1040
20.63285299999998
1040
12.173699
1040
20.66832799999998
1070
     1
1040
12.173699
1040
20.66832799999998
1040
9.378522999999999
1040
23.410844
1070
     2
1040
11.899646
1040
23.925422
1040
4.756723
1040
0.0
1040
6.283184999999997
1070
     1
1070
     2
1040
11.899651
1040
23.925417
1040
3.758726999999998
1040
1.962466
1040
3.007279999999998
1070
     1
1070
     2
1040
10.95095399999999
1040
23.85149299999999
1040
0.4706070000000003
1040
5.071608999999996
1040
6.101634999999999
1070
     1
1070
     2
1040
11.899651
1040
23.925417
1040
3.758726999999998
1040
1.44723
1040
1.700399
1070
     1
1070
     2
1040
11.899651
1040
23.925417
1040
3.758726999999998
1040
3.278925
1040
7.465549
1070
     1
1070
     2
1040
14.404539
1040
25.005869
1040
0.5000710000000002
1040
4.814318
1040
7.955911
1070
     1
1071
        0
1070
     0
1070
     1
1040
0.0
1040
0.062992
1070
     0
1070
     1
1040
0.7853979999999999
1040
-6.225169999999997
1040
-28.624349
1040
-0.141421
1040
0.141421
1070
     0
1071
        1
1040
-6.225169999999997
1040
-28.624349
1040
0.0
1002
}
  0
INSERT
  5
89
330
A
100
AcDbEntity
  8
CARTOUCHE
  6
CONTINUOUS
 62
     4
100
AcDbBlockReference
  2
*X14
 10
0.0
 20
0.0
 30
0.0
1001
ACAD
1000
HATCH
1002
{
1070
    19
1000
ANSI31
1040
0.062992
1040
0.0
1000
R14_HATCH_DATA
1000
89
1011
1.0
1021
0.0
1031
0.0
1011
0.0
1021
1.0
1031
0.0
1011
0.0
1021
0.0
1031
1.0
1040
0.0
1010
0.0
1020
0.0
1030
1.0
1000
ANSI31
1070
     0
1070
     0
1071
        1
1071
        1
1071
       16
1070
     1
1040
18.674623
1040
24.508394
1040
18.674623
1040
24.929401
1070
     1
1040
19.58025899999998
1040
25.834994
1040
21.087523
1040
25.834994
1070
     1
1040
21.087523
1040
25.834994
1040
21.087523
1040
24.931844
1070
     1
1040
21.087523
1040
24.931844
1040
20.679053
1040
24.931844
1070
     1
1040
20.461079
1040
24.768622
1040
20.412973
1040
24.508394
1070
     1
1040
20.412973
1040
24.508394
1040
21.087523
1040
24.508394
1070
     1
1040
21.087523
1040
24.508394
1040
21.087523
1040
23.410844
1070
     1
1040
21.087523
1040
23.410844
1040
20.470123
1040
23.410844
1070
     1
1040
20.470123
1040
23.410844
1040
20.470123
1040
20.63209399999998
1070
     1
1040
20.470123
1040
20.63209399999998
1040
18.674623
1040
20.63209399999998
1070
     1
1040
18.674623
1040
20.63209399999998
1040
18.674623
1040
23.410844
1070
     1
1040
18.674623
1040
23.410844
1040
18.137323
1040
23.410844
1070
     1
1040
18.137323
1040
23.410844
1040
18.137323
1040
24.508394
1070
     1
1040
18.137323
1040
24.508394
1040
18.674623
1040
24.508394
1070
     2
1040
19.58025899999998
1040
24.929401
1040
0.905639
1040
1.570795999999999
1040
3.141592999999998
1070
     1
1070
     2
1040
20.705988
1040
24.668716
1040
0.264503
1040
1.672804999999999
1040
2.754265999999998
1070
     1
1071
        0
1070
     0
1070
     1
1040
0.0
1040
0.062992
1070
     0
1070
     1
1040
0.7853979999999999
1040
-6.225169999999997
1040
-28.624349
1040
-0.141421
1040
0.141421
1070
     0
1071
        1
1040
-6.225169999999997
1040
-28.624349
1040
0.0
1002
}
  0
INSERT
  5
8A
330
A
100
AcDbEntity
  8
CARTOUCHE
  6
CONTINUOUS
 62
     4
100
AcDbBlockReference
  2
*X15
 10
0.0
 20
0.0
 30
0.0
1001
ACAD
1000
HATCH
1002
{
1070
    19
1000
ANSI31
1040
0.062992
1040
0.0
1000
R14_HATCH_DATA
1000
8A
1011
1.0
1021
0.0
1031
0.0
1011
0.0
1021
1.0
1031
0.0
1011
0.0
1021
0.0
1031
1.0
1040
0.0
1010
0.0
1020
0.0
1030
1.0
1000
ANSI31
1070
     0
1070
     0
1071
        1
1071
        1
1071
        4
1070
     1
1040
21.807973
1040
25.834994
1040
21.807973
1040
24.943094
1070
     1
1040
21.807973
1040
24.943094
1040
23.625973
1040
24.943094
1070
     1
1040
23.625973
1040
24.943094
1040
23.625973
1040
25.834994
1070
     1
1040
23.625973
1040
25.834994
1040
21.807973
1040
25.834994
1071
        0
1070
     0
1070
     1
1040
0.0
1040
0.062992
1070
     0
1070
     1
1040
0.7853979999999999
1040
-6.225169999999997
1040
-28.624349
1040
-0.141421
1040
0.141421
1070
     0
1071
        1
1040
-6.225169999999997
1040
-28.624349
1040
0.0
1002
}
  0
INSERT
  5
8B
330
A
100
AcDbEntity
  8
CARTOUCHE
  6
CONTINUOUS
 62
     4
100
AcDbBlockReference
  2
*X16
 10
0.0
 20
0.0
 30
0.0
1001
ACAD
1000
HATCH
1002
{
1070
    19
1000
ANSI31
1040
0.062992
1040
0.0
1000
R14_HATCH_DATA
1000
8B
1011
1.0
1021
0.0
1031
0.0
1011
0.0
1021
1.0
1031
0.0
1011
0.0
1021
0.0
1031
1.0
1040
0.0
1010
0.0
1020
0.0
1030
1.0
1000
ANSI31
1070
     0
1070
     0
1071
        1
1071
        1
1071
        4
1070
     1
1040
21.807973
1040
24.508394
1040
21.807973
1040
20.63209399999998
1070
     1
1040
21.807973
1040
20.63209399999998
1040
23.625973
1040
20.63209399999998
1070
     1
1040
23.625973
1040
20.63209399999998
1040
23.625973
1040
24.508394
1070
     1
1040
23.625973
1040
24.508394
1040
21.807973
1040
24.508394
1071
        0
1070
     0
1070
     1
1040
0.0
1040
0.062992
1070
     0
1070
     1
1040
0.7853979999999999
1040
-6.225169999999997
1040
-28.624349
1040
-0.141421
1040
0.141421
1070
     0
1071
        1
1040
-6.225169999999997
1040
-28.624349
1040
0.0
1002
}
  0
INSERT
  5
8C
330
A
100
AcDbEntity
  8
CARTOUCHE
  6
CONTINUOUS
 62
     4
100
AcDbBlockReference
  2
*X17
 10
0.0
 20
0.0
 30
0.0
1001
ACAD
1000
HATCH
1002
{
1070
    19
1000
ANSI31
1040
0.062992
1040
0.0
1000
R14_HATCH_DATA
1000
8C
1011
1.0
1021
0.0
1031
0.0
1011
0.0
1021
1.0
1031
0.0
1011
0.0
1021
0.0
1031
1.0
1040
0.0
1010
0.0
1020
0.0
1030
1.0
1000
ANSI31
1070
     0
1070
     0
1071
        1
1071
        1
1071
       12
1070
     1
1040
26.28997299999999
1040
24.508394
1040
26.28997299999999
1040
24.074144
1070
     1
1040
29.89222299999999
1040
23.324553
1040
29.89222299999999
1040
20.63209399999998
1070
     1
1040
29.89222299999999
1040
20.63209399999998
1040
28.108423
1040
20.63209399999998
1070
     1
1040
28.108423
1040
20.63209399999998
1040
28.108423
1040
22.47903399999999
1070
     1
1040
26.28997299999999
1040
22.43349899999999
1040
26.28997299999999
1040
20.63209399999998
1070
     1
1040
26.28997299999999
1040
20.63209399999998
1040
24.494923
1040
20.63209399999998
1070
     1
1040
24.494923
1040
20.63209399999998
1040
24.494923
1040
24.508394
1070
     1
1040
24.494923
1040
24.508394
1040
26.28997299999999
1040
24.508394
1070
     2
1040
28.067403
1040
21.045261
1040
3.511892
1040
1.25441
1040
2.101472999999999
1070
     1
1070
     2
1040
28.675028
1040
23.264873
1040
1.218658
1040
0.048991
1040
1.161443
1070
     1
1070
     2
1040
27.457324
1040
22.47903399999999
1040
0.6511239999999999
1040
0.0
1040
1.695599
1070
     1
1070
     2
1040
27.44381
1040
21.82007899999999
1040
1.306761
1040
1.622502
1040
2.652958
1070
     1
1071
        0
1070
     0
1070
     1
1040
0.0
1040
0.062992
1070
     0
1070
     1
1040
0.7853979999999999
1040
-6.225169999999997
1040
-28.624349
1040
-0.141421
1040
0.141421
1070
     0
1071
        1
1040
-6.225169999999997
1040
-28.624349
1040
0.0
1002
}
  0
INSERT
  5
8D
330
A
100
AcDbEntity
  8
CARTOUCHE
  6
CONTINUOUS
 62
     4
100
AcDbBlockReference
  2
*X18
 10
0.0
 20
0.0
 30
0.0
1001
ACAD
1000
HATCH
1002
{
1070
    19
1000
ANSI31
1040
0.062992
1040
0.0
1000
R14_HATCH_DATA
1000
8D
1011
1.0
1021
0.0
1031
0.0
1011
0.0
1021
1.0
1031
0.0
1011
0.0
1021
0.0
1031
1.0
1040
0.0
1010
0.0
1020
0.0
1030
1.0
1000
ANSI31
1070
     0
1070
     0
1071
        1
1071
        1
1071
      154
1070
     1
1040
34.19152299999999
1040
24.319904
1040
34.136639
1040
24.365465
1070
     1
1040
34.136639
1040
24.365465
1040
34.093353
1040
24.396952
1070
     1
1040
34.093353
1040
24.396952
1040
34.048146
1040
24.425518
1070
     1
1040
34.048146
1040
24.425518
1040
33.985315
1040
24.45824299999999
1070
     1
1040
33.985315
1040
24.45824299999999
1040
33.936415
1040
24.47918299999999
1070
     1
1040
33.936415
1040
24.47918299999999
1040
33.886414
1040
24.497349
1070
     1
1040
33.886414
1040
24.497349
1040
33.800369
1040
24.52267
1070
     1
1040
33.800369
1040
24.52267
1040
33.713056
1040
24.543137
1070
     1
1040
33.713056
1040
24.543137
1040
33.53598499999999
1040
24.577164
1070
     1
1040
33.53598499999999
1040
24.577164
1040
33.183861
1040
24.631643
1070
     1
1040
33.183861
1040
24.631643
1040
32.829714
1040
24.65361099999999
1070
     1
1040
32.829714
1040
24.65361099999999
1040
32.473075
1040
24.642759
1070
     1
1040
32.473075
1040
24.642759
1040
32.295535
1040
24.627567
1070
     1
1040
32.295535
1040
24.627567
1040
32.119422
1040
24.601922
1070
     1
1040
32.119422
1040
24.601922
1040
31.980393
1040
24.570874
1070
     1
1040
31.980393
1040
24.570874
1040
31.77626899999999
1040
24.506919
1070
     1
1040
31.77626899999999
1040
24.506919
1040
31.643857
1040
24.453442
1070
     1
1040
31.643857
1040
24.453442
1040
31.54719899999999
1040
24.407478
1070
     1
1040
31.54719899999999
1040
24.407478
1040
31.453318
1040
24.3562
1070
     1
1040
31.453318
1040
24.3562
1040
31.333276
1040
24.279541
1070
     1
1040
31.333276
1040
24.279541
1040
31.164251
1040
24.148688
1070
     1
1040
31.164251
1040
24.148688
1040
31.058938
1040
24.05235799999999
1070
     1
1040
31.058938
1040
24.05235799999999
1040
30.912683
1040
23.896114
1070
     1
1040
30.912683
1040
23.896114
1040
30.823445
1040
23.784931
1070
     1
1040
30.823445
1040
23.784931
1040
30.703793
1040
23.607819
1070
     1
1040
30.703793
1040
23.607819
1040
30.63481599999999
1040
23.48301999999999
1070
     1
1040
30.63481599999999
1040
23.48301999999999
1040
30.589096
1040
23.38631
1070
     1
1040
30.589096
1040
23.38631
1040
30.54866099999999
1040
23.287292
1070
     1
1040
30.54866099999999
1040
23.287292
1040
30.503077
1040
23.152132
1070
     1
1040
30.503077
1040
23.152132
1040
30.45247299999999
1040
22.94419899999998
1070
     1
1040
30.45247299999999
1040
22.94419899999998
1040
30.430632
1040
22.80314999999999
1070
     1
1040
30.430632
1040
22.80314999999999
1040
30.42104699999999
1040
22.696588
1070
     1
1040
30.42104699999999
1040
22.696588
1040
30.41782
1040
22.58973
1070
     1
1040
30.41782
1040
22.58973
1040
30.423783
1040
22.44735499999999
1070
     1
1040
30.423783
1040
22.44735499999999
1040
30.45204699999999
1040
22.235266
1070
     1
1040
30.45204699999999
1040
22.235266
1040
30.481823
1040
22.09568299999999
1070
     1
1040
30.481823
1040
22.09568299999999
1040
30.54294099999999
1040
21.89073699999999
1070
     1
1040
30.54294099999999
1040
21.89073699999999
1040
30.595245
1040
21.758144
1070
     1
1040
30.595245
1040
21.758144
1040
30.640663
1040
21.661326
1070
     1
1040
30.640663
1040
21.661326
1040
30.691396
1040
21.567163
1070
     1
1040
30.691396
1040
21.567163
1040
30.76734099999999
1040
21.44630199999999
1070
     1
1040
30.76734099999999
1040
21.44630199999999
1040
30.830371
1040
21.359778
1070
     1
1040
30.830371
1040
21.359778
1040
30.89849
1040
21.27724999999998
1070
     1
1040
30.89849
1040
21.27724999999998
1040
30.99676699999999
1040
21.17408
1070
     1
1040
30.99676699999999
1040
21.17408
1040
31.158025
1040
21.033767
1070
     1
1040
31.158025
1040
21.033767
1040
31.273232
1040
20.94957699999997
1070
     1
1040
31.273232
1040
20.94957699999997
1040
31.455483
1040
20.837379
1070
     1
1040
31.455483
1040
20.837379
1040
31.58228499999999
1040
20.77219599999998
1070
     1
1040
31.58228499999999
1040
20.77219599999998
1040
31.680038
1040
20.728943
1070
     1
1040
31.680038
1040
20.728943
1040
31.77997
1040
20.691125
1070
     1
1040
31.77997
1040
20.691125
1040
31.91640599999999
1040
20.64973699999999
1070
     1
1040
31.91640599999999
1040
20.64973699999999
1040
32.12581399999999
1040
20.606082
1070
     1
1040
32.12581399999999
1040
20.606082
1040
32.302677
1040
20.584734
1070
     1
1040
32.302677
1040
20.584734
1040
32.48050399999999
1040
20.573741
1070
     1
1040
32.48050399999999
1040
20.573741
1040
32.83642
1040
20.570894
1070
     1
1040
32.83642
1040
20.570894
1040
33.19287
1040
20.58610199999999
1070
     1
1040
33.19287
1040
20.58610199999999
1040
33.33459699999998
1040
20.6
1070
     1
1040
33.33459699999998
1040
20.6
1040
33.545271
1040
20.63588399999998
1070
     1
1040
33.545271
1040
20.63588399999998
1040
33.682853
1040
20.67301599999999
1070
     1
1040
33.682853
1040
20.67301599999999
1040
33.817433
1040
20.721154
1070
     1
1040
33.817433
1040
20.721154
1040
33.947848
1040
20.779822
1070
     1
1040
33.947848
1040
20.779822
1040
34.072933
1040
20.848544
1070
     1
1040
34.072933
1040
20.848544
1040
34.19152299999999
1040
20.926844
1070
     1
1040
34.19152299999999
1040
20.926844
1040
34.19152299999999
1040
20.620844
1070
     1
1040
34.19152299999999
1040
20.620844
1040
35.986573
1040
20.620844
1070
     1
1040
35.986573
1040
20.620844
1040
35.986573
1040
25.823744
1070
     1
1040
35.986573
1040
25.823744
1040
34.19152299999999
1040
25.823744
1070
     1
1040
34.19152299999999
1040
25.823744
1040
34.19152299999999
1040
24.319904
1070
     1
1040
34.19152299999999
1040
22.759244
1040
34.185224
1040
22.797429
1070
     1
1040
34.185224
1040
22.797429
1040
34.176704
1040
22.835258
1070
     1
1040
34.176704
1040
22.835258
1040
34.165972
1040
22.87256499999999
1070
     1
1040
34.165972
1040
22.87256499999999
1040
34.15304099999998
1040
22.909184
1070
     1
1040
34.15304099999998
1040
22.909184
1040
34.137919
1040
22.94494999999999
1070
     1
1040
34.137919
1040
22.94494999999999
1040
34.12062199999999
1040
22.97972399999999
1070
     1
1040
34.12062199999999
1040
22.97972399999999
1040
34.10124099999999
1040
23.01337
1070
     1
1040
34.10124099999999
1040
23.01337
1040
34.079871
1040
23.045781
1070
     1
1040
34.079871
1040
23.045781
1040
34.05661
1040
23.076848
1070
     1
1040
34.05661
1040
23.076848
1040
34.031554
1040
23.106464
1070
     1
1040
34.031554
1040
23.106464
1040
34.004808
1040
23.13453999999999
1070
     1
1040
34.004808
1040
23.13453999999999
1040
33.97651299999999
1040
23.16105899999999
1070
     1
1040
33.97651299999999
1040
23.16105899999999
1040
33.931497
1040
23.19792
1070
     1
1040
33.931497
1040
23.19792
1040
33.883839
1040
23.231288
1070
     1
1040
33.883839
1040
23.231288
1040
33.817408
1040
23.270254
1070
     1
1040
33.817408
1040
23.270254
1040
33.7126
1040
23.31870499999999
1070
     1
1040
33.7126
1040
23.31870499999999
1040
33.52912599999999
1040
23.38024
1070
     1
1040
33.52912599999999
1040
23.38024
1040
33.341295
1040
23.426807
1070
     1
1040
33.341295
1040
23.426807
1040
33.265367
1040
23.43872
1070
     1
1040
33.265367
1040
23.43872
1040
33.20799199999999
1040
23.44418399999999
1070
     1
1040
33.20799199999999
1040
23.44418399999999
1040
33.150433
1040
23.446185
1070
     1
1040
33.150433
1040
23.446185
1040
33.073206
1040
23.442941
1070
     1
1040
33.073206
1040
23.442941
1040
33.01556
1040
23.43626899999998
1070
     1
1040
33.01556
1040
23.43626899999998
1040
32.958383
1040
23.426252
1070
     1
1040
32.958383
1040
23.426252
1040
32.882791
1040
23.40794999999999
1070
     1
1040
32.882791
1040
23.40794999999999
1040
32.827093
1040
23.390689
1070
     1
1040
32.827093
1040
23.390689
1040
32.772401
1040
23.37047899999999
1070
     1
1040
32.772401
1040
23.37047899999999
1040
32.70162299999999
1040
23.339164
1070
     1
1040
32.70162299999999
1040
23.339164
1040
32.650176
1040
23.312245
1070
     1
1040
32.650176
1040
23.312245
1040
32.600378
1040
23.2823
1070
     1
1040
32.600378
1040
23.2823
1040
32.53744099999998
1040
23.23798
1070
     1
1040
32.53744099999998
1040
23.23798
1040
32.478372
1040
23.188413
1070
     1
1040
32.478372
1040
23.188413
1040
32.423769
1040
23.133776
1070
     1
1040
32.423769
1040
23.133776
1040
32.37422999999999
1040
23.07424699999998
1070
     1
1040
32.37422999999999
1040
23.07424699999998
1040
32.330353
1040
23.010003
1070
     1
1040
32.330353
1040
23.010003
1040
32.29281799999998
1040
22.941394
1070
     1
1040
32.29281799999998
1040
22.941394
1040
32.26252099999999
1040
22.869246
1070
     1
1040
32.26252099999999
1040
22.869246
1040
32.250396
1040
22.832155
1070
     1
1040
32.250396
1040
22.832155
1040
32.24044899999999
1040
22.794552
1070
     1
1040
32.24044899999999
1040
22.794552
1040
32.23280499999999
1040
22.75656099999999
1070
     1
1040
32.23280499999999
1040
22.75656099999999
1040
32.22758599999998
1040
22.71830599999999
1070
     1
1040
32.22758599999998
1040
22.71830599999999
1040
32.22491699999999
1040
22.67991199999999
1070
     1
1040
32.22491699999999
1040
22.67991199999999
1040
32.224919
1040
22.641503
1070
     1
1040
32.224919
1040
22.641503
1040
32.227693
1040
22.60294
1070
     1
1040
32.227693
1040
22.60294
1040
32.233111
1040
22.56461799999998
1070
     1
1040
32.233111
1040
22.56461799999998
1040
32.24098099999999
1040
22.526667
1070
     1
1040
32.24098099999999
1040
22.526667
1040
32.251114
1040
22.48921699999999
1070
     1
1040
32.251114
1040
22.48921699999999
1040
32.263318
1040
22.4524
1070
     1
1040
32.263318
1040
22.4524
1040
32.29364499999999
1040
22.380425
1070
     1
1040
32.29364499999999
1040
22.380425
1040
32.321048
1040
22.328706
1070
     1
1040
32.321048
1040
22.328706
1040
32.35215399999999
1040
22.2791
1070
     1
1040
32.35215399999999
1040
22.2791
1040
32.398586
1040
22.217113
1070
     1
1040
32.398586
1040
22.217113
1040
32.437235
1040
22.173772
1070
     1
1040
32.437235
1040
22.173772
1040
32.47906599999998
1040
22.133554
1070
     1
1040
32.47906599999998
1040
22.133554
1040
32.539186
1040
22.085487
1070
     1
1040
32.539186
1040
22.085487
1040
32.587212
1040
22.05335499999999
1070
     1
1040
32.587212
1040
22.05335499999999
1040
32.637257
1040
22.024481
1070
     1
1040
32.637257
1040
22.024481
1040
32.707048
1040
21.990519
1070
     1
1040
32.707048
1040
21.990519
1040
32.81564799999999
1040
21.948581
1070
     1
1040
32.81564799999999
1040
21.948581
1040
32.889663
1040
21.925699
1070
     1
1040
32.889663
1040
21.925699
1040
33.002738
1040
21.899168
1070
     1
1040
33.002738
1040
21.899168
1040
33.078914
1040
21.887245
1070
     1
1040
33.078914
1040
21.887245
1040
33.19419899999999
1040
21.878646
1070
     1
1040
33.19419899999999
1040
21.878646
1040
33.27146299999999
1040
21.879509
1070
     1
1040
33.27146299999999
1040
21.879509
1040
33.386902
1040
21.89089999999999
1070
     1
1040
33.386902
1040
21.89089999999999
1040
33.46279
1040
21.905127
1070
     1
1040
33.46279
1040
21.905127
1040
33.537631
1040
21.924554
1070
     1
1040
33.537631
1040
21.924554
1040
33.611002
1040
21.94904699999999
1070
     1
1040
33.611002
1040
21.94904699999999
1040
33.68247699999999
1040
21.978473
1070
     1
1040
33.68247699999999
1040
21.978473
1040
33.751634
1040
22.01269799999999
1070
     1
1040
33.751634
1040
22.01269799999999
1040
33.81849899999998
1040
22.05184599999999
1070
     1
1040
33.81849899999998
1040
22.05184599999999
1040
33.91321
1040
22.119126
1070
     1
1040
33.91321
1040
22.119126
1040
33.972146
1040
22.16959899999999
1070
     1
1040
33.972146
1040
22.16959899999999
1040
34.013325
1040
22.210664
1070
     1
1040
34.013325
1040
22.210664
1040
34.05119699999998
1040
22.254741
1070
     1
1040
34.05119699999998
1040
22.254741
1040
34.07423699999998
1040
22.285782
1070
     1
1040
34.07423699999998
1040
22.285782
1040
34.09545
1040
22.318141
1070
     1
1040
34.09545
1040
22.318141
1040
34.114752
1040
22.351701
1070
     1
1040
34.114752
1040
22.351701
1040
34.13205999999998
1040
22.386344
1070
     1
1040
34.13205999999998
1040
22.386344
1040
34.147289
1040
22.42195399999999
1070
     1
1040
34.147289
1040
22.42195399999999
1040
34.16041099999999
1040
22.458525
1070
     1
1040
34.16041099999999
1040
22.458525
1040
34.171377
1040
22.49579699999999
1070
     1
1040
34.171377
1040
22.49579699999999
1040
34.180205
1040
22.533619
1070
     1
1040
34.180205
1040
22.533619
1040
34.186914
1040
22.571835
1070
     1
1040
34.186914
1040
22.571835
1040
34.19152299999999
1040
22.61029399999999
1070
     1
1040
34.19152299999999
1040
22.61029399999999
1040
34.19152299999999
1040
22.759244
1071
        0
1070
     0
1070
     1
1040
0.0
1040
0.062992
1070
     0
1070
     1
1040
0.7853979999999999
1040
-6.225169999999997
1040
-28.624349
1040
-0.141421
1040
0.141421
1070
     0
1071
        1
1040
-6.225169999999997
1040
-28.624349
1040
0.0
1002
}
  0
INSERT
  5
8E
330
A
100
AcDbEntity
  8
CARTOUCHE
  6
CONTINUOUS
 62
     4
100
AcDbBlockReference
  2
*X19
 10
0.0
 20
0.0
 30
0.0
1001
ACAD
1000
HATCH
1002
{
1070
    19
1000
ANSI31
1040
0.062992
1040
0.0
1000
R14_HATCH_DATA
1000
8E
1011
1.0
1021
0.0
1031
0.0
1011
0.0
1021
1.0
1031
0.0
1011
0.0
1021
0.0
1031
1.0
1040
0.0
1010
0.0
1020
0.0
1030
1.0
1000
ANSI31
1070
     0
1070
     0
1071
        1
1071
        1
1071
      165
1070
     1
1040
39.05107299999999
1040
22.244444
1040
39.15412299999999
1040
22.244444
1070
     1
1040
39.15412299999999
1040
22.244444
1040
42.20692299999996
1040
22.25614399999999
1070
     1
1040
42.20692299999996
1040
22.25614399999999
1040
42.232378
1040
22.36584699999999
1070
     1
1040
42.232378
1040
22.36584699999999
1040
42.245048
1040
22.449462
1070
     1
1040
42.245048
1040
22.449462
1040
42.251874
1040
22.53370299999999
1070
     1
1040
42.251874
1040
22.53370299999999
1040
42.25173499999999
1040
22.646969
1070
     1
1040
42.25173499999999
1040
22.646969
1040
42.23470999999999
1040
22.81609599999999
1070
     1
1040
42.23470999999999
1040
22.81609599999999
1040
42.208465
1040
22.956213
1070
     1
1040
42.208465
1040
22.956213
1040
42.17357899999996
1040
23.09436799999999
1070
     1
1040
42.17357899999996
1040
23.09436799999999
1040
42.131795
1040
23.229146
1070
     1
1040
42.131795
1040
23.229146
1040
42.08234199999997
1040
23.36142099999999
1070
     1
1040
42.08234199999997
1040
23.36142099999999
1040
42.03686199999999
1040
23.464716
1070
     1
1040
42.03686199999999
1040
23.464716
1040
41.98586099999999
1040
23.56553499999999
1070
     1
1040
41.98586099999999
1040
23.56553499999999
1040
41.92928
1040
23.663323
1070
     1
1040
41.92928
1040
23.663323
1040
41.867061
1040
23.757527
1070
     1
1040
41.867061
1040
23.757527
1040
41.799145
1040
23.847595
1070
     1
1040
41.799145
1040
23.847595
1040
41.72552399999999
1040
23.93313
1070
     1
1040
41.72552399999999
1040
23.93313
1040
41.646719
1040
24.01400399999999
1070
     1
1040
41.646719
1040
24.01400399999999
1040
41.563309
1040
24.090255
1070
     1
1040
41.563309
1040
24.090255
1040
41.384996
1040
24.229026
1070
     1
1040
41.384996
1040
24.229026
1040
41.266986
1040
24.306605
1070
     1
1040
41.266986
1040
24.306605
1040
41.14444999999999
1040
24.376442
1070
     1
1040
41.14444999999999
1040
24.376442
1040
41.017719
1040
24.437986
1070
     1
1040
41.017719
1040
24.437986
1040
40.887396
1040
24.49164899999999
1070
     1
1040
40.887396
1040
24.49164899999999
1040
40.618872
1040
24.578734
1070
     1
1040
40.618872
1040
24.578734
1040
40.344652
1040
24.645649
1070
     1
1040
40.344652
1040
24.645649
1040
40.06700499999999
1040
24.69362999999999
1070
     1
1040
40.06700499999999
1040
24.69362999999999
1040
39.786778
1040
24.723515
1070
     1
1040
39.786778
1040
24.723515
1040
39.22285499999999
1040
24.73587399999999
1070
     1
1040
39.22285499999999
1040
24.73587399999999
1040
38.660586
1040
24.695795
1070
     1
1040
38.660586
1040
24.695795
1040
38.3823
1040
24.651139
1070
     1
1040
38.3823
1040
24.651139
1040
38.107283
1040
24.5883
1070
     1
1040
38.107283
1040
24.5883
1040
37.890593
1040
24.52408
1070
     1
1040
37.890593
1040
24.52408
1040
37.731586
1040
24.46569699999999
1070
     1
1040
37.731586
1040
24.46569699999999
1040
37.57690999999999
1040
24.396625
1070
     1
1040
37.57690999999999
1040
24.396625
1040
37.477006
1040
24.343979
1070
     1
1040
37.477006
1040
24.343979
1040
37.38006699999999
1040
24.285863
1070
     1
1040
37.38006699999999
1040
24.285863
1040
37.286613
1040
24.222306
1070
     1
1040
37.286613
1040
24.222306
1040
37.197165
1040
24.15334
1070
     1
1040
37.197165
1040
24.15334
1040
37.112243
1040
24.078995
1070
     1
1040
37.112243
1040
24.078995
1040
37.03231999999999
1040
23.999414
1070
     1
1040
37.03231999999999
1040
23.999414
1040
36.957469
1040
23.91497399999999
1070
     1
1040
36.957469
1040
23.91497399999999
1040
36.887723
1040
23.826164
1070
     1
1040
36.887723
1040
23.826164
1040
36.823113
1040
23.733469
1070
     1
1040
36.823113
1040
23.733469
1040
36.763669
1040
23.637375
1070
     1
1040
36.763669
1040
23.637375
1040
36.660491
1040
23.436489
1070
     1
1040
36.660491
1040
23.436489
1040
36.61706099999999
1040
23.332299
1070
     1
1040
36.61706099999999
1040
23.332299
1040
36.57925699999999
1040
23.225943
1070
     1
1040
36.57925699999999
1040
23.225943
1040
36.547222
1040
23.11767399999999
1070
     1
1040
36.547222
1040
23.11767399999999
1040
36.521104
1040
23.00778999999999
1070
     1
1040
36.521104
1040
23.00778999999999
1040
36.501051
1040
22.896613
1070
     1
1040
36.501051
1040
22.896613
1040
36.487223
1040
22.784512
1070
     1
1040
36.487223
1040
22.784512
1040
36.479778
1040
22.67185599999999
1070
     1
1040
36.479778
1040
22.67185599999999
1040
36.478876
1040
22.559014
1070
     1
1040
36.478876
1040
22.559014
1040
36.48475799999999
1040
22.446072
1070
     1
1040
36.48475799999999
1040
22.446072
1040
36.507303
1040
22.27824299999999
1070
     1
1040
36.507303
1040
22.27824299999999
1040
36.531842
1040
22.168363
1070
     1
1040
36.531842
1040
22.168363
1040
36.580661
1040
22.006354
1070
     1
1040
36.580661
1040
22.006354
1040
36.663176
1040
21.796051
1070
     1
1040
36.663176
1040
21.796051
1040
36.738102
1040
21.64424299999998
1070
     1
1040
36.738102
1040
21.64424299999998
1040
36.824876
1040
21.499285
1070
     1
1040
36.824876
1040
21.499285
1040
36.906565
1040
21.38422
1070
     1
1040
36.906565
1040
21.38422
1040
36.995075
1040
21.274114
1070
     1
1040
36.995075
1040
21.274114
1040
37.069976
1040
21.189232
1070
     1
1040
37.069976
1040
21.189232
1040
37.19090599999999
1040
21.070408
1070
     1
1040
37.19090599999999
1040
21.070408
1040
37.27814
1040
20.999373
1070
     1
1040
37.27814
1040
20.999373
1040
37.418207
1040
20.90511499999998
1070
     1
1040
37.418207
1040
20.90511499999998
1040
37.541992
1040
20.836757
1070
     1
1040
37.541992
1040
20.836757
1040
37.669631
1040
20.775673
1070
     1
1040
37.669631
1040
20.775673
1040
37.878008
1040
20.688457
1070
     1
1040
37.878008
1040
20.688457
1040
38.199606
1040
20.58288099999999
1070
     1
1040
38.199606
1040
20.58288099999999
1040
38.419015
1040
20.531338
1070
     1
1040
38.419015
1040
20.531338
1040
38.753153
1040
20.477838
1070
     1
1040
38.753153
1040
20.477838
1040
39.03387999999999
1040
20.450243
1070
     1
1040
39.03387999999999
1040
20.450243
1040
39.315482
1040
20.43816199999997
1070
     1
1040
39.315482
1040
20.43816199999997
1040
39.878324
1040
20.461635
1070
     1
1040
39.878324
1040
20.461635
1040
40.15919199999999
1040
20.49446799999997
1070
     1
1040
40.15919199999999
1040
20.49446799999997
1040
40.437804
1040
20.542235
1070
     1
1040
40.437804
1040
20.542235
1040
40.71211799999999
1040
20.608344
1070
     1
1040
40.71211799999999
1040
20.608344
1040
40.97822199999996
1040
20.69993399999999
1070
     1
1040
40.97822199999996
1040
20.69993399999999
1040
41.235564
1040
20.81532399999999
1070
     1
1040
41.235564
1040
20.81532399999999
1040
41.361299
1040
20.87918599999996
1070
     1
1040
41.361299
1040
20.87918599999996
1040
41.48297999999999
1040
20.950245
1070
     1
1040
41.48297999999999
1040
20.950245
1040
41.57561799999998
1040
21.014782
1070
     1
1040
41.57561799999998
1040
21.014782
1040
41.641621
1040
21.067895
1070
     1
1040
41.641621
1040
21.067895
1040
41.704176
1040
21.124947
1070
     1
1040
41.704176
1040
21.124947
1040
41.78170999999998
1040
21.20681499999998
1070
     1
1040
41.78170999999998
1040
21.20681499999998
1040
41.886125
1040
21.340089
1070
     1
1040
41.886125
1040
21.340089
1040
41.948068
1040
21.43459299999999
1070
     1
1040
41.948068
1040
21.43459299999999
1040
41.989546
1040
21.50838599999999
1070
     1
1040
41.989546
1040
21.50838599999999
1040
42.02581
1040
21.58482799999999
1070
     1
1040
42.02581
1040
21.58482799999999
1040
42.064953
1040
21.690806
1070
     1
1040
42.064953
1040
21.690806
1040
42.08734999999999
1040
21.77259999999999
1070
     1
1040
42.08734999999999
1040
21.77259999999999
1040
42.10387299999999
1040
21.855644
1070
     1
1040
42.10387299999999
1040
21.855644
1040
40.34302299999999
1040
21.855644
1070
     1
1040
40.34302299999999
1040
21.855644
1040
40.23475999999996
1040
21.775139
1070
     1
1040
40.23475999999996
1040
21.775139
1040
40.14934199999999
1040
21.72065499999999
1070
     1
1040
40.14934199999999
1040
21.72065499999999
1040
40.060776
1040
21.671433
1070
     1
1040
40.060776
1040
21.671433
1040
39.98475799999999
1040
21.634773
1070
     1
1040
39.98475799999999
1040
21.634773
1040
39.906576
1040
21.603307
1070
     1
1040
39.906576
1040
21.603307
1040
39.842277
1040
21.58263499999999
1070
     1
1040
39.842277
1040
21.58263499999999
1040
39.74365099999999
1040
21.559088
1070
     1
1040
39.74365099999999
1040
21.559088
1040
39.609337
1040
21.540536
1070
     1
1040
39.609337
1040
21.540536
1040
39.507639
1040
21.53565599999998
1070
     1
1040
39.507639
1040
21.53565599999998
1040
39.405809
1040
21.53798099999999
1070
     1
1040
39.405809
1040
21.53798099999999
1040
39.271392
1040
21.551496
1070
     1
1040
39.271392
1040
21.551496
1040
39.17168099999999
1040
21.569188
1070
     1
1040
39.17168099999999
1040
21.569188
1040
39.073329
1040
21.593186
1070
     1
1040
39.073329
1040
21.593186
1040
38.944884
1040
21.635037
1070
     1
1040
38.944884
1040
21.635037
1040
38.851395
1040
21.674301
1070
     1
1040
38.851395
1040
21.674301
1040
38.760981
1040
21.72084599999999
1070
     1
1040
38.760981
1040
21.72084599999999
1040
38.70284
1040
21.75613999999999
1070
     1
1040
38.70284
1040
21.75613999999999
1040
38.647077
1040
21.795104
1070
     1
1040
38.647077
1040
21.795104
1040
38.59445
1040
21.837967
1070
     1
1040
38.59445
1040
21.837967
1040
38.54571899999999
1040
21.88495599999999
1070
     1
1040
38.54571899999999
1040
21.88495599999999
1040
38.501642
1040
21.9363
1070
     1
1040
38.501642
1040
21.9363
1040
38.46287699999999
1040
21.99205
1070
     1
1040
38.46287699999999
1040
21.99205
1040
38.429669
1040
22.051562
1070
     1
1040
38.429669
1040
22.051562
1040
38.402161
1040
22.11401299999999
1070
     1
1040
38.402161
1040
22.11401299999999
1040
38.38049799999996
1040
22.178581
1070
     1
1040
38.38049799999996
1040
22.178581
1040
38.364823
1040
22.244444
1070
     1
1040
38.364823
1040
22.244444
1040
39.05107299999999
1040
22.244444
1070
     1
1040
38.364823
1040
23.079194
1040
39.15412299999999
1040
23.079194
1070
     1
1040
39.15412299999999
1040
23.079194
1040
40.34302299999999
1040
23.079194
1070
     1
1040
40.34302299999999
1040
23.079194
1040
40.339099
1040
23.116416
1070
     1
1040
40.339099
1040
23.116416
1040
40.333002
1040
23.153431
1070
     1
1040
40.333002
1040
23.153431
1040
40.324692
1040
23.19004899999999
1070
     1
1040
40.324692
1040
23.19004899999999
1040
40.314132
1040
23.226078
1070
     1
1040
40.314132
1040
23.226078
1040
40.301285
1040
23.261329
1070
     1
1040
40.301285
1040
23.261329
1040
40.286156
1040
23.295606
1070
     1
1040
40.286156
1040
23.295606
1040
40.268864
1040
23.32884599999999
1070
     1
1040
40.268864
1040
23.32884599999999
1040
40.24956699999999
1040
23.36098199999999
1070
     1
1040
40.24956699999999
1040
23.36098199999999
1040
40.228425
1040
23.39194399999999
1070
     1
1040
40.228425
1040
23.39194399999999
1040
40.205595
1040
23.42166399999999
1070
     1
1040
40.205595
1040
23.42166399999999
1040
40.155158
1040
23.47753399999999
1070
     1
1040
40.155158
1040
23.47753399999999
1040
40.113888
1040
23.516059
1070
     1
1040
40.113888
1040
23.516059
1040
40.070149
1040
23.551768
1070
     1
1040
40.070149
1040
23.551768
1040
40.008897
1040
23.59493599999999
1070
     1
1040
40.008897
1040
23.59493599999999
1040
39.960894
1040
23.624144
1070
     1
1040
39.960894
1040
23.624144
1040
39.911351
1040
23.65064299999999
1070
     1
1040
39.911351
1040
23.65064299999999
1040
39.84321299999999
1040
23.68180199999998
1070
     1
1040
39.84321299999999
1040
23.68180199999998
1040
39.737463
1040
23.719811
1070
     1
1040
39.737463
1040
23.719811
1040
39.665034
1040
23.739546
1070
     1
1040
39.665034
1040
23.739546
1040
39.554475
1040
23.760807
1070
     1
1040
39.554475
1040
23.760807
1040
39.479582
1040
23.769534
1070
     1
1040
39.479582
1040
23.769534
1040
39.366678
1040
23.77477
1070
     1
1040
39.366678
1040
23.77477
1040
39.291229
1040
23.773226
1070
     1
1040
39.291229
1040
23.773226
1040
39.178244
1040
23.762802
1070
     1
1040
39.178244
1040
23.762802
1040
39.104388
1040
23.74982399999999
1070
     1
1040
39.104388
1040
23.74982399999999
1040
39.06808499999996
1040
23.740847
1070
     1
1040
39.06808499999996
1040
23.740847
1040
39.032514
1040
23.729811
1070
     1
1040
39.032514
1040
23.729811
1040
38.997912
1040
23.716418
1070
     1
1040
38.997912
1040
23.716418
1040
38.964344
1040
23.700508
1070
     1
1040
38.964344
1040
23.700508
1040
38.834843
1040
23.625681
1070
     1
1040
38.834843
1040
23.625681
1040
38.671594
1040
23.535581
1070
     1
1040
38.671594
1040
23.535581
1040
38.640976
1040
23.51415999999999
1070
     1
1040
38.640976
1040
23.51415999999999
1040
38.61162499999997
1040
23.49087999999999
1070
     1
1040
38.61162499999997
1040
23.49087999999999
1040
38.58359099999999
1040
23.46591099999999
1070
     1
1040
38.58359099999999
1040
23.46591099999999
1040
38.53168099999999
1040
23.41159
1070
     1
1040
38.53168099999999
1040
23.41159
1040
38.485341
1040
23.352025
1070
     1
1040
38.485341
1040
23.352025
1040
38.454621
1040
23.304551
1070
     1
1040
38.454621
1040
23.304551
1040
38.427457
1040
23.25493199999999
1070
     1
1040
38.427457
1040
23.25493199999999
1040
38.39719999999999
1040
23.18647299999998
1070
     1
1040
38.39719999999999
1040
23.18647299999998
1040
38.37898
1040
23.133395
1070
     1
1040
38.37898
1040
23.133395
1040
38.364823
1040
23.079194
1071
        0
1070
     0
1070
     1
1040
0.0
1040
0.062992
1070
     0
1070
     1
1040
0.7853979999999999
1040
-6.225169999999997
1040
-28.624349
1040
-0.141421
1040
0.141421
1070
     0
1071
        1
1040
-6.225169999999997
1040
-28.624349
1040
0.0
1002
}
  0
INSERT
  5
8F
330
A
100
AcDbEntity
  8
CARTOUCHE
  6
CONTINUOUS
 62
     4
100
AcDbBlockReference
  2
*X20
 10
0.0
 20
0.0
 30
0.0
1001
ACAD
1000
HATCH
1002
{
1070
    19
1000
ANSI31
1040
0.062992
1040
0.0
1000
R14_HATCH_DATA
1000
8F
1011
1.0
1021
0.0
1031
0.0
1011
0.0
1021
1.0
1031
0.0
1011
0.0
1021
0.0
1031
1.0
1040
0.0
1010
0.0
1020
0.0
1030
1.0
1000
ANSI31
1070
     0
1070
     0
1071
        1
1071
        1
1071
       78
1070
     1
1040
42.732973
1040
24.508394
1040
42.732973
1040
20.63209399999998
1070
     1
1040
42.732973
1040
20.63209399999998
1040
44.459623
1040
20.63209399999998
1070
     1
1040
44.459623
1040
20.63209399999998
1040
44.459623
1040
22.782194
1070
     1
1040
44.459623
1040
22.782194
1040
44.46348799999999
1040
22.82556299999999
1070
     1
1040
44.46348799999999
1040
22.82556299999999
1040
44.470946
1040
22.86858599999999
1070
     1
1040
44.470946
1040
22.86858599999999
1040
44.48187899999999
1040
22.91099099999999
1070
     1
1040
44.48187899999999
1040
22.91099099999999
1040
44.49617199999997
1040
22.952504
1070
     1
1040
44.49617199999997
1040
22.952504
1040
44.513707
1040
22.992851
1070
     1
1040
44.513707
1040
22.992851
1040
44.534386
1040
23.031755
1070
     1
1040
44.534386
1040
23.031755
1040
44.55812199999999
1040
23.06881399999999
1070
     1
1040
44.55812199999999
1040
23.06881399999999
1040
44.58484099999998
1040
23.103624
1070
     1
1040
44.58484099999998
1040
23.103624
1040
44.61447299999998
1040
23.13578
1070
     1
1040
44.61447299999998
1040
23.13578
1040
44.646943
1040
23.164878
1070
     1
1040
44.646943
1040
23.164878
1040
44.682109
1040
23.190587
1070
     1
1040
44.682109
1040
23.190587
1040
44.719626
1040
23.212933
1070
     1
1040
44.719626
1040
23.212933
1040
44.759083
1040
23.232012
1070
     1
1040
44.759083
1040
23.232012
1040
44.80006699999999
1040
23.24791999999999
1070
     1
1040
44.80006699999999
1040
23.24791999999999
1040
44.84216599999998
1040
23.26075499999999
1070
     1
1040
44.84216599999998
1040
23.26075499999999
1040
44.88545499999999
1040
23.27065499999999
1070
     1
1040
44.88545499999999
1040
23.27065499999999
1040
44.92924099999998
1040
23.277344
1070
     1
1040
44.92924099999998
1040
23.277344
1040
44.973307
1040
23.280649
1070
     1
1040
44.973307
1040
23.280649
1040
45.017433
1040
23.280401
1070
     1
1040
45.017433
1040
23.280401
1040
45.06139899999999
1040
23.276428
1070
     1
1040
45.06139899999999
1040
23.276428
1040
45.10431899999999
1040
23.26873599999998
1070
     1
1040
45.10431899999999
1040
23.26873599999998
1040
45.146471
1040
23.257294
1070
     1
1040
45.146471
1040
23.257294
1040
45.18745599999999
1040
23.24213599999999
1070
     1
1040
45.18745599999999
1040
23.24213599999999
1040
45.226873
1040
23.22329299999999
1070
     1
1040
45.226873
1040
23.22329299999999
1040
45.264321
1040
23.200797
1070
     1
1040
45.264321
1040
23.200797
1040
45.29950399999999
1040
23.174642
1070
     1
1040
45.29950399999999
1040
23.174642
1040
45.331947
1040
23.145119
1070
     1
1040
45.331947
1040
23.145119
1040
45.36129099999999
1040
23.11249899999999
1070
     1
1040
45.36129099999999
1040
23.11249899999999
1040
45.38718099999999
1040
23.077054
1070
     1
1040
45.38718099999999
1040
23.077054
1040
45.409257
1040
23.03905599999999
1070
     1
1040
45.409257
1040
23.03905599999999
1040
45.427129
1040
22.999011
1070
     1
1040
45.427129
1040
22.999011
1040
45.440732
1040
22.957277
1070
     1
1040
45.440732
1040
22.957277
1040
45.44993
1040
22.91442299999999
1070
     1
1040
45.44993
1040
22.91442299999999
1040
45.45458899999998
1040
22.871022
1070
     1
1040
45.45458899999998
1040
22.871022
1040
45.455174
1040
22.849294
1070
     1
1040
45.455174
1040
22.849294
1040
45.45457299999998
1040
22.827644
1070
     1
1040
45.45457299999998
1040
22.827644
1040
45.45457299999998
1040
22.58779399999999
1070
     1
1040
45.45457299999998
1040
22.58779399999999
1040
47.28382299999998
1040
22.58779399999999
1070
     1
1040
47.28382299999998
1040
22.58779399999999
1040
47.30048
1040
22.741901
1070
     1
1040
47.30048
1040
22.741901
1040
47.308034
1040
22.896764
1070
     1
1040
47.308034
1040
22.896764
1040
47.30622299999999
1040
23.051921
1070
     1
1040
47.30622299999999
1040
23.051921
1040
47.295648
1040
23.206716
1070
     1
1040
47.295648
1040
23.206716
1040
47.276908
1040
23.360972
1070
     1
1040
47.276908
1040
23.360972
1040
47.2499
1040
23.514097
1070
     1
1040
47.2499
1040
23.514097
1040
47.221874
1040
23.635072
1070
     1
1040
47.221874
1040
23.635072
1040
47.19592
1040
23.724445
1070
     1
1040
47.19592
1040
23.724445
1040
47.16467999999998
1040
23.81204899999999
1070
     1
1040
47.16467999999998
1040
23.81204899999999
1040
47.113499
1040
23.92525
1070
     1
1040
47.113499
1040
23.92525
1040
47.067867
1040
24.006615
1070
     1
1040
47.067867
1040
24.006615
1040
47.016057
1040
24.0843
1070
     1
1040
47.016057
1040
24.0843
1040
46.97801799999999
1040
24.133848
1070
     1
1040
46.97801799999999
1040
24.133848
1040
46.937287
1040
24.181208
1070
     1
1040
46.937287
1040
24.181208
1040
46.893917
1040
24.226097
1070
     1
1040
46.893917
1040
24.226097
1040
46.847963
1040
24.26823
1070
     1
1040
46.847963
1040
24.26823
1040
46.799476
1040
24.307326
1070
     1
1040
46.799476
1040
24.307326
1040
46.74884699999998
1040
24.34298099999999
1070
     1
1040
46.74884699999998
1040
24.34298099999999
1040
46.696087
1040
24.37549699999999
1070
     1
1040
46.696087
1040
24.37549699999999
1040
46.613657
1040
24.418703
1070
     1
1040
46.613657
1040
24.418703
1040
46.528242
1040
24.455664
1070
     1
1040
46.528242
1040
24.455664
1040
46.410285
1040
24.496534
1070
     1
1040
46.410285
1040
24.496534
1040
46.22887999999998
1040
24.542872
1070
     1
1040
46.22887999999998
1040
24.542872
1040
46.106971
1040
24.566075
1070
     1
1040
46.106971
1040
24.566075
1040
45.92238599999999
1040
24.587821
1070
     1
1040
45.92238599999999
1040
24.587821
1040
45.798504
1040
24.591816
1070
     1
1040
45.798504
1040
24.591816
1040
45.61256799999998
1040
24.583703
1070
     1
1040
45.61256799999998
1040
24.583703
1040
45.457926
1040
24.566274
1070
     1
1040
45.457926
1040
24.566274
1040
45.304716
1040
24.539482
1070
     1
1040
45.304716
1040
24.539482
1040
45.183805
1040
24.51113499999999
1070
     1
1040
45.183805
1040
24.51113499999999
1040
45.00579899999999
1040
24.45603
1070
     1
1040
45.00579899999999
1040
24.45603
1040
44.89043399999999
1040
24.410518
1070
     1
1040
44.89043399999999
1040
24.410518
1040
44.777817
1040
24.358198
1070
     1
1040
44.777817
1040
24.358198
1040
44.668264
1040
24.29958
1070
     1
1040
44.668264
1040
24.29958
1040
44.459623
1040
24.165494
1070
     1
1040
44.459623
1040
24.165494
1040
44.459623
1040
24.508394
1070
     1
1040
44.459623
1040
24.508394
1040
42.732973
1040
24.508394
1071
        0
1070
     0
1070
     1
1040
0.0
1040
0.062992
1070
     0
1070
     1
1040
0.7853979999999999
1040
-6.225169999999997
1040
-28.624349
1040
-0.141421
1040
0.141421
1070
     0
1071
        1
1040
-6.225169999999997
1040
-28.624349
1040
0.0
1002
}
  0
LINE
  5
90
330
A
100
AcDbEntity
  8
CARTOUCHE
  6
CONTINUOUS
 62
     7
100
AcDbLine
 10
205.000037
 20
36.845156
 30
0.0
 11
5.0
 21
36.84546199999999
 31
0.0
  0
LINE
  5
91
330
A
100
AcDbEntity
  8
CARTOUCHE
  6
CONTINUOUS
 62
     7
100
AcDbLine
 10
153.33333
 20
20.002887
 30
0.0
 11
153.33333
 21
10.000945
 31
0.0
  0
TEXT
  5
94
330
A
100
AcDbEntity
  8
CARTOUCHE
  6
CONTINUOUS
 62
     2
100
AcDbText
 10
16.27474179128323
 20
14.30878202443143
 30
0.0
 40
1.8
  1
www.findernet.com
 50
359.9999079999998
 41
1.05
  7
FINDER
 72
     1
 11
27.500001
 21
14.308764
 31
0.0
100
AcDbText
  0
LWPOLYLINE
  5
9B
330
A
100
AcDbEntity
  8
CARTOUCHE
  6
CONTINUOUS
 62
     7
100
AcDbPolyline
 90
        5
 70
   129
 43
0.0
 10
205.000037
 20
292.0001829999998
 10
205.000037
 20
5.000182999999998
 10
5.0
 20
5.0
 10
5.0
 20
292.0
 10
204.999774
 20
292.0001829999998
  0
TEXT
  5
AA
330
A
100
AcDbEntity
  8
CARTOUCHE
  6
CONTINUOUS
 62
     7
100
AcDbText
 10
124.8174121978205
 20
16.62422630740211
 30
0.0
 40
1.8
  1
DATE
 50
359.9999079999998
 41
0.8
  7
FINDER
 72
     1
 11
127.4999769999999
 21
16.62422199999999
 31
0.0
100
AcDbText
  0
TEXT
  5
AB
330
A
100
AcDbEntity
  8
CARTOUCHE
  6
CONTINUOUS
 62
     1
100
AcDbText
 10
122.9321188826797
 20
11.77620633462309
 30
0.0
 40
2.1
  1
11/09/07
 50
359.9999079999998
 41
0.8
  7
FINDER
 72
     1
 11
127.4999769999999
 21
11.776199
 31
0.0
100
AcDbText
  0
TEXT
  5
AC
330
A
100
AcDbEntity
  8
CARTOUCHE
  6
CONTINUOUS
 62
     7
100
AcDbText
 10
175.8682102523916
 20
16.62414829632234
 30
0.0
 40
1.8
  1
SCALE
 50
359.9999079999998
 41
0.8
  7
FINDER
 72
     1
 11
179.1666549999999
 21
16.624143
 31
0.0
100
AcDbText
  0
TEXT
  5
AD
330
A
100
AcDbEntity
  8
CARTOUCHE
  6
CONTINUOUS
 62
     1
100
AcDbText
 10
177.5353589563458
 20
11.77612261937681
 30
0.0
 40
2.1
  1
1:1
 50
359.9999079999998
 41
0.8
  7
FINDER
 72
     1
 11
179.1666549999999
 21
11.77612
 31
0.0
100
AcDbText
  0
TEXT
  5
AE
330
A
100
AcDbEntity
  8
CARTOUCHE
  6
CONTINUOUS
 62
     1
100
AcDbText
 10
123.3049023233341
 20
22.43596073606612
 30
0.0
 40
3.0
  1
41.81
 50
359.9999079999998
 41
0.8
  7
FINDER
 72
     1
 11
127.499991
 21
22.435954
 31
0.0
100
AcDbText
  0
DIMENSION
  5
4E54
330
A
100
AcDbEntity
  8
DIM
  6
CONTINUOUS
100
AcDbDimension
  2
*D50
 10
112.570622025547
 20
159.1982586171964
 30
0.0
 11
112.570622025547
 21
146.1062586171965
 31
0.0
 70
   160
  1
<>
  3
FINDER
100
AcDbAlignedDimension
 13
106.617622025547
 23
155.3982586171966
 33
0.0
 14
107.889622025547
 24
159.1982586171964
 34
0.0
 50
90.0
100
AcDbRotatedDimension
  0
DIMENSION
  5
4E55
330
A
100
AcDbEntity
  8
DIM
  6
CONTINUOUS
100
AcDbDimension
  2
*D51
 10
108.189622025547
 20
180.8202586171965
 30
0.0
 11
93.68962202554717
 21
180.8202586171965
 31
0.0
 70
   161
  1
<>
  3
FINDER
100
AcDbAlignedDimension
 13
79.1896220255472
 23
159.1982586171964
 33
0.0
 14
108.189622025547
 24
159.1982586171964
 34
0.0
  0
LINE
  5
4E56
330
A
100
AcDbEntity
  8
DRAW
  6
CONTINUOUS
100
AcDbLine
 10
107.4576220255472
 20
174.8982586171965
 30
0.0
 11
106.7516220255469
 21
174.8982586171965
 31
0.0
  0
LINE
  5
4E57
330
A
100
AcDbEntity
  8
DRAW
  6
CONTINUOUS
100
AcDbLine
 10
107.5896220255472
 20
159.1982586171964
 30
0.0
 11
79.7896220255472
 21
159.1982586171964
 31
0.0
  0
LINE
  5
4E58
330
A
100
AcDbEntity
  8
DRAW
  6
CONTINUOUS
100
AcDbLine
 10
104.5896220255472
 20
174.8982586171965
 30
0.0
 11
79.9216220255472
 21
174.8982586171965
 31
0.0
  0
LINE
  5
4E59
330
A
100
AcDbEntity
  8
DRAW
  6
CONTINUOUS
100
AcDbLine
 10
79.1896220255472
 20
159.1982586171964
 30
0.0
 11
79.32162202554718
 21
174.3032586171964
 31
0.0
  0
LINE
  5
4E5A
330
A
100
AcDbEntity
  8
DRAW
  6
CONTINUOUS
100
AcDbLine
 10
79.1896220255472
 20
159.1982586171964
 30
0.0
 11
79.7896220255472
 21
159.1982586171964
 31
0.0
  0
POINT
  5
4E5B
330
A
100
AcDbEntity
  8
DRAW
  6
CONTINUOUS
100
AcDbPoint
 10
79.1896220255472
 20
159.1982586171964
 30
0.0
  0
LINE
  5
4E5C
330
A
100
AcDbEntity
  8
DRAW
  6
CONTINUOUS
100
AcDbLine
 10
82.14162202554716
 20
155.3982586171966
 30
0.0
 11
82.16762202554718
 21
155.5462586171965
 31
0.0
  0
LINE
  5
4E5D
330
A
100
AcDbEntity
  8
DRAW
  6
CONTINUOUS
100
AcDbLine
 10
82.14162202554716
 20
155.3982586171966
 30
0.0
 11
81.81762202554715
 21
155.3982586171966
 31
0.0
  0
LINE
  5
4E5E
330
A
100
AcDbEntity
  8
DRAW
  6
CONTINUOUS
100
AcDbLine
 10
81.79162202554719
 20
155.5462586171965
 30
0.0
 11
81.72962202554719
 21
155.8982586171966
 31
0.0
  0
LINE
  5
4E5F
330
A
100
AcDbEntity
  8
DRAW
  6
CONTINUOUS
100
AcDbLine
 10
81.81762202554715
 20
155.3982586171966
 30
0.0
 11
81.79162202554719
 21
155.5462586171965
 31
0.0
  0
LINE
  5
4E60
330
A
100
AcDbEntity
  8
DRAW
  6
CONTINUOUS
100
AcDbLine
 10
81.72962202554719
 20
155.8982586171966
 30
0.0
 11
81.72962202554719
 21
156.2982586171967
 31
0.0
  0
LINE
  5
4E61
330
A
100
AcDbEntity
  8
DRAW
  6
CONTINUOUS
100
AcDbLine
 10
82.16762202554718
 20
155.5462586171965
 30
0.0
 11
82.2296220255472
 21
155.8982586171966
 31
0.0
  0
LINE
  5
4E62
330
A
100
AcDbEntity
  8
DRAW
  6
CONTINUOUS
100
AcDbLine
 10
82.2296220255472
 20
155.8982586171966
 30
0.0
 11
82.2296220255472
 21
156.2982586171967
 31
0.0
  0
LINE
  5
4E63
330
A
100
AcDbEntity
  8
DRAW
  6
CONTINUOUS
100
AcDbLine
 10
81.72962202554719
 20
156.2982586171967
 30
0.0
 11
81.72962202554719
 21
159.1982586171964
 31
0.0
  0
LINE
  5
4E64
330
A
100
AcDbEntity
  8
DRAW
  6
CONTINUOUS
100
AcDbLine
 10
82.2296220255472
 20
156.2982586171967
 30
0.0
 11
82.2296220255472
 21
159.1982586171964
 31
0.0
  0
ARC
  5
4E65
330
A
100
AcDbEntity
  8
DRAW
  6
CONTINUOUS
100
AcDbCircle
 10
79.9216220255472
 20
174.2982586171964
 30
0.0
 40
0.6
100
AcDbArc
 50
90.0
 51
179.5000000000003
  0
LINE
  5
4E66
330
A
100
AcDbEntity
  8
DRAW
  6
CONTINUOUS
100
AcDbLine
 10
79.91862202554717
 20
174.8982586171965
 30
0.0
 11
79.9146220255472
 21
174.8982586171965
 31
0.0
  0
LINE
  5
4E67
330
A
100
AcDbEntity
  8
DRAW
  6
CONTINUOUS
100
AcDbLine
 10
101.8916220255472
 20
155.3982586171966
 30
0.0
 11
101.567622025547
 21
155.3982586171966
 31
0.0
  0
LINE
  5
4E68
330
A
100
AcDbEntity
  8
DRAW
  6
CONTINUOUS
100
AcDbLine
 10
101.541622025547
 20
155.5462586171965
 30
0.0
 11
101.4796220255472
 21
155.8982586171966
 31
0.0
  0
LINE
  5
4E69
330
A
100
AcDbEntity
  8
DRAW
  6
CONTINUOUS
100
AcDbLine
 10
101.567622025547
 20
155.3982586171966
 30
0.0
 11
101.541622025547
 21
155.5462586171965
 31
0.0
  0
LINE
  5
4E6A
330
A
100
AcDbEntity
  8
DRAW
  6
CONTINUOUS
100
AcDbLine
 10
101.4796220255472
 20
155.8982586171966
 30
0.0
 11
101.4796220255472
 21
156.2982586171967
 31
0.0
  0
LINE
  5
4E6B
330
A
100
AcDbEntity
  8
DRAW
  6
CONTINUOUS
100
AcDbLine
 10
101.917622025547
 20
155.5462586171965
 30
0.0
 11
101.9796220255472
 21
155.8982586171966
 31
0.0
  0
LINE
  5
4E6C
330
A
100
AcDbEntity
  8
DRAW
  6
CONTINUOUS
100
AcDbLine
 10
101.8916220255472
 20
155.3982586171966
 30
0.0
 11
101.917622025547
 21
155.5462586171965
 31
0.0
  0
LINE
  5
4E6D
330
A
100
AcDbEntity
  8
DRAW
  6
CONTINUOUS
100
AcDbLine
 10
101.9796220255472
 20
155.8982586171966
 30
0.0
 11
101.9796220255472
 21
156.2982586171967
 31
0.0
  0
LINE
  5
4E6E
330
A
100
AcDbEntity
  8
DRAW
  6
CONTINUOUS
100
AcDbLine
 10
101.4796220255472
 20
156.2982586171967
 30
0.0
 11
101.4796220255472
 21
159.1982586171964
 31
0.0
  0
LINE
  5
4E6F
330
A
100
AcDbEntity
  8
DRAW
  6
CONTINUOUS
100
AcDbLine
 10
101.9796220255472
 20
156.2982586171967
 30
0.0
 11
101.9796220255472
 21
159.1982586171964
 31
0.0
  0
LINE
  5
4E70
330
A
100
AcDbEntity
  8
DRAW
  6
CONTINUOUS
100
AcDbLine
 10
106.617622025547
 20
155.3982586171966
 30
0.0
 11
106.483622025547
 21
155.8982586171966
 31
0.0
  0
LINE
  5
4E71
330
A
100
AcDbEntity
  8
DRAW
  6
CONTINUOUS
100
AcDbLine
 10
106.483622025547
 20
155.8982586171966
 30
0.0
 11
106.4296220255469
 21
156.0982586171967
 31
0.0
  0
POINT
  5
4E72
330
A
100
AcDbEntity
  8
DRAW
  6
CONTINUOUS
100
AcDbPoint
 10
106.617622025547
 20
155.3982586171966
 30
0.0
  0
LINE
  5
4E73
330
A
100
AcDbEntity
  8
DRAW
  6
CONTINUOUS
100
AcDbLine
 10
106.617622025547
 20
155.3982586171966
 30
0.0
 11
106.841622025547
 21
155.3982586171966
 31
0.0
  0
LINE
  5
4E74
330
A
100
AcDbEntity
  8
DRAW
  6
CONTINUOUS
100
AcDbLine
 10
106.975622025547
 20
155.8982586171966
 30
0.0
 11
107.029622025547
 21
156.0982586171967
 31
0.0
  0
LINE
  5
4E75
330
A
100
AcDbEntity
  8
DRAW
  6
CONTINUOUS
100
AcDbLine
 10
106.841622025547
 20
155.3982586171966
 30
0.0
 11
106.975622025547
 21
155.8982586171966
 31
0.0
  0
LINE
  5
4E76
330
A
100
AcDbEntity
  8
DRAW
  6
CONTINUOUS
100
AcDbLine
 10
106.4296220255469
 20
159.1982586171964
 30
0.0
 11
106.4296220255469
 21
156.0982586171967
 31
0.0
  0
LINE
  5
4E77
330
A
100
AcDbEntity
  8
DRAW
  6
CONTINUOUS
100
AcDbLine
 10
107.029622025547
 20
159.1982586171964
 30
0.0
 11
107.029622025547
 21
156.0982586171967
 31
0.0
  0
LINE
  5
4E78
330
A
100
AcDbEntity
  8
DRAW
  6
CONTINUOUS
100
AcDbLine
 10
106.0276220255472
 20
174.8982586171965
 30
0.0
 11
104.5896220255472
 21
174.8982586171965
 31
0.0
  0
LINE
  5
4E79
330
A
100
AcDbEntity
  8
DRAW
  6
CONTINUOUS
100
AcDbLine
 10
106.7516220255469
 20
174.8982586171965
 30
0.0
 11
106.0276220255472
 21
174.8982586171965
 31
0.0
  0
DIMENSION
  5
4E7A
330
A
100
AcDbEntity
  8
DIM
  6
CONTINUOUS
100
AcDbDimension
  2
*D52
 10
133.415622025547
 20
152.6482586171964
 30
0.0
 11
140.4276220255471
 21
152.6482586171964
 31
0.0
 70
   161
  1
1
  3
FINDER
100
AcDbAlignedDimension
 13
132.6156220255469
 23
155.3982586171966
 33
0.0
 14
133.415622025547
 24
155.3982586171966
 34
0.0
  0
DIMENSION
  5
4E7B
330
A
100
AcDbEntity
  8
DIM
  6
CONTINUOUS
100
AcDbDimension
  2
*D53
 10
135.615622025547
 20
180.8202586171965
 30
0.0
 11
129.2656220255472
 21
180.8202586171965
 31
0.0
 70
   161
  1
<>
  3
FINDER
100
AcDbAlignedDimension
 13
122.915622025547
 23
159.1982586171964
 33
0.0
 14
135.615622025547
 24
159.1982586171964
 34
0.0
  0
ARC
  5
4E7C
330
A
100
AcDbEntity
  8
DRAW
  6
CONTINUOUS
100
AcDbCircle
 10
123.845622025547
 20
174.0982586171964
 30
0.0
 40
0.8
100
AcDbArc
 50
90.0
 51
179.5000000000003
  0
DIMENSION
  5
4E7E
330
A
100
AcDbEntity
  8
DIM
  6
CONTINUOUS
100
AcDbDimension
  2
*D54
 10
112.570622025547
 20
174.8982586171965
 30
0.0
 11
112.570622025547
 21
167.2172586171967
 31
0.0
 70
   160
  1
<>
  3
FINDER
100
AcDbAlignedDimension
 13
108.189622025547
 23
159.1982586171964
 33
0.0
 14
107.4576220255472
 24
174.8982586171965
 34
0.0
 50
90.0
100
AcDbRotatedDimension
  0
LINE
  5
4E7F
330
A
100
AcDbEntity
  8
DRAW
  6
CONTINUOUS
100
AcDbLine
 10
108.189622025547
 20
159.1982586171964
 30
0.0
 11
108.0686220255472
 21
173.1032586171965
 31
0.0
  0
POINT
  5
4E80
330
A
100
AcDbEntity
  8
DRAW
  6
CONTINUOUS
100
AcDbPoint
 10
108.189622025547
 20
159.1982586171964
 30
0.0
  0
POINT
  5
4E81
330
A
100
AcDbEntity
  8
DRAW
  6
CONTINUOUS
100
AcDbPoint
 10
108.189622025547
 20
159.1982586171964
 30
0.0
  0
POINT
  5
4E82
330
A
100
AcDbEntity
  8
DRAW
  6
CONTINUOUS
100
AcDbPoint
 10
107.889622025547
 20
159.1982586171964
 30
0.0
  0
LINE
  5
4E83
330
A
100
AcDbEntity
  8
DRAW
  6
CONTINUOUS
100
AcDbLine
 10
107.5896220255472
 20
159.1982586171964
 30
0.0
 11
108.189622025547
 21
159.1982586171964
 31
0.0
  0
ARC
  5
4E84
330
A
100
AcDbEntity
  8
DRAW
  6
CONTINUOUS
100
AcDbCircle
 10
107.4576220255472
 20
174.2982586171964
 30
0.0
 40
0.6
100
AcDbArc
 50
0.4999999999996886
 51
90.0
  0
POINT
  5
4E85
330
A
100
AcDbEntity
  8
DRAW
  6
CONTINUOUS
100
AcDbPoint
 10
107.4576220255472
 20
174.8982586171965
 30
0.0
  0
LINE
  5
4E86
330
A
100
AcDbEntity
  8
DRAW
  6
CONTINUOUS
100
AcDbLine
 10
108.057622025547
 20
174.3032586171964
 30
0.0
 11
108.061622025547
 21
173.9032586171965
 31
0.0
  0
LINE
  5
4E87
330
A
100
AcDbEntity
  8
DRAW
  6
CONTINUOUS
100
AcDbLine
 10
108.061622025547
 20
173.9032586171965
 30
0.0
 11
108.0686220255472
 21
173.1032586171965
 31
0.0
  0
LINE
  5
4E88
330
A
100
AcDbEntity
  8
DRAW
  6
CONTINUOUS
100
AcDbLine
 10
122.915622025547
 20
159.1982586171964
 30
0.0
 11
123.0456220255472
 21
174.1052586171965
 31
0.0
  0
POINT
  5
4E89
330
A
100
AcDbEntity
  8
DRAW
  6
CONTINUOUS
100
AcDbPoint
 10
122.915622025547
 20
159.1982586171964
 30
0.0
  0
LINE
  5
4E8A
330
A
100
AcDbEntity
  8
DRAW
  6
CONTINUOUS
100
AcDbLine
 10
125.915622025547
 20
155.3982586171966
 30
0.0
 11
125.115622025547
 21
155.3982586171966
 31
0.0
  0
LINE
  5
4E8B
330
A
100
AcDbEntity
  8
DRAW
  6
CONTINUOUS
100
AcDbLine
 10
125.115622025547
 20
155.3982586171966
 30
0.0
 11
125.115622025547
 21
159.1982586171964
 31
0.0
  0
LINE
  5
4E8C
330
A
100
AcDbEntity
  8
DRAW
  6
CONTINUOUS
100
AcDbLine
 10
125.915622025547
 20
155.3982586171966
 30
0.0
 11
125.915622025547
 21
159.1982586171964
 31
0.0
  0
LINE
  5
4E8E
330
A
100
AcDbEntity
  8
DRAW
  6
CONTINUOUS
100
AcDbLine
 10
135.615622025547
 20
159.1982586171964
 30
0.0
 11
135.485622025547
 21
174.1052586171965
 31
0.0
  0
LINE
  5
4E8F
330
A
100
AcDbEntity
  8
DRAW
  6
CONTINUOUS
100
AcDbLine
 10
133.415622025547
 20
155.3982586171966
 30
0.0
 11
132.6156220255469
 21
155.3982586171966
 31
0.0
  0
POINT
  5
4E90
330
A
100
AcDbEntity
  8
DRAW
  6
CONTINUOUS
100
AcDbPoint
 10
132.6156220255469
 20
155.3982586171966
 30
0.0
  0
POINT
  5
4E91
330
A
100
AcDbEntity
  8
DRAW
  6
CONTINUOUS
100
AcDbPoint
 10
133.415622025547
 20
155.3982586171966
 30
0.0
  0
LINE
  5
4E92
330
A
100
AcDbEntity
  8
DRAW
  6
CONTINUOUS
100
AcDbLine
 10
132.6156220255469
 20
155.3982586171966
 30
0.0
 11
132.6156220255469
 21
159.1982586171964
 31
0.0
  0
LINE
  5
4E93
330
A
100
AcDbEntity
  8
DRAW
  6
CONTINUOUS
100
AcDbLine
 10
133.415622025547
 20
155.3982586171966
 30
0.0
 11
133.415622025547
 21
159.1982586171964
 31
0.0
  0
POINT
  5
4E94
330
A
100
AcDbEntity
  8
DRAW
  6
CONTINUOUS
100
AcDbPoint
 10
135.615622025547
 20
159.1982586171964
 30
0.0
  0
ARC
  5
4E95
330
A
100
AcDbEntity
  8
DRAW
  6
CONTINUOUS
100
AcDbCircle
 10
134.685622025547
 20
174.0982586171964
 30
0.0
 40
0.8
100
AcDbArc
 50
0.4999999999996886
 51
90.0
  0
LINE
  5
4F58
330
A
100
AcDbEntity
  8
DRAW
  6
CONTINUOUS
100
AcDbLine
 10
123.845622025547
 20
174.8982586171965
 30
0.0
 11
134.685622025547
 21
174.8982586171965
 31
0.0
  0
LINE
  5
4F59
330
A
100
AcDbEntity
  8
DRAW
  6
CONTINUOUS
100
AcDbLine
 10
122.915622025547
 20
159.1982586171964
 30
0.0
 11
135.615622025547
 21
159.1982586171964
 31
0.0
  0
DIMENSION
  5
4FA8
330
A
100
AcDbEntity
  8
DIM
  6
CONTINUOUS
100
AcDbDimension
  2
*D55
 10
101.9796220255472
 20
151.8941664625845
 30
0.0
 11
94.20932871040395
 21
151.8941664625845
 31
0.0
 70
   160
  1
0.6
  3
FINDER
100
AcDbAlignedDimension
 13
101.4796220255472
 23
156.0982586171966
 33
0.0
 14
101.9796220255472
 24
156.0982586171966
 34
0.0
100
AcDbRotatedDimension
  0
ENDSEC
  0
SECTION
  2
OBJECTS
  0
DICTIONARY
  5
19
330
0
100
AcDbDictionary
  3
ACAD_GROUP
350
1A
  3
ACAD_LAYOUT
350
491A
  3
ACAD_MLINESTYLE
350
1B
  3
ACAD_PLOTSETTINGS
350
491B
  3
ACAD_PLOTSTYLENAME
350
4918
  3
ACDBHEADERROUNDTRIPXREC
350
4FFC
  3
ACDBVARIABLEDICTIONARY
350
494C
  0
DICTIONARY
  5
496F
330
A
100
AcDbDictionary
280
     1
  3
ACAD_LAYOUTSELFREF
360
501C
  0
DICTIONARY
  5
4971
330
B
100
AcDbDictionary
280
     1
  3
ACAD_LAYOUTSELFREF
360
501D
  0
DICTIONARY
  5
1A
102
{ACAD_REACTORS
330
19
102
}
330
19
100
AcDbDictionary
  0
DICTIONARY
  5
491A
102
{ACAD_REACTORS
330
19
102
}
330
19
100
AcDbDictionary
  0
DICTIONARY
  5
1B
102
{ACAD_REACTORS
330
19
102
}
330
19
100
AcDbDictionary
  3
STANDARD
350
1C
  0
DICTIONARY
  5
491B
102
{ACAD_REACTORS
330
19
102
}
330
19
100
AcDbDictionary
  0
ACDBDICTIONARYWDFLT
  5
4918
102
{ACAD_REACTORS
330
19
102
}
330
19
100
AcDbDictionary
281
     1
  3
Normal
350
4919
100
AcDbDictionaryWithDefault
340
4919
  0
DICTIONARY
  5
4FFC
102
{ACAD_REACTORS
330
19
102
}
330
19
100
AcDbDictionary
  3
CEPSNTYPE
350
5006
  3
FINGERPRINTGUID
350
5007
  3
HYPERLINKBASE
350
4FFF
  3
INSUNITS
350
5005
  3
LAYOUTDICT
350
5001
  3
LWETCUNION
350
5004
  3
PLOTSETDICT
350
5002
  3
PLOTSTYLNAMDICT
350
5003
  3
PSVPSCALE
350
5009
  3
PUCSBASE
350
500C
  3
PUCSORGBACK
350
5012
  3
PUCSORGBOTTOM
350
500E
  3
PUCSORGFRONT
350
5011
  3
PUCSORGLEFT
350
500F
  3
PUCSORGRIGHT
350
5010
  3
PUCSORGTOP
350
500D
  3
PUCSORTHOREF
350
500A
  3
PUCSORTHOVIEW
350
500B
  3
STYLESHEET
350
5000
  3
TSTACKALIGN
350
4FFD
  3
TSTACKSIZE
350
4FFE
  3
UCSBASE
350
5015
  3
UCSORGBACK
350
501B
  3
UCSORGBOTTOM
350
5017
  3
UCSORGFRONT
350
501A
  3
UCSORGLEFT
350
5018
  3
UCSORGRIGHT
350
5019
  3
UCSORGTOP
350
5016
  3
UCSORTHOREF
350
5013
  3
UCSORTHOVIEW
350
5014
  3
VERSIONGUID
350
5008
  0
DICTIONARY
  5
494C
102
{ACAD_REACTORS
330
19
102
}
330
19
100
AcDbDictionary
  3
DIMASSOC
350
494D
  0
XRECORD
  5
501C
102
{ACAD_REACTORS
330
496F
102
}
330
496F
100
AcDbXrecord
340
A
  0
XRECORD
  5
501D
102
{ACAD_REACTORS
330
4971
102
}
330
4971
100
AcDbXrecord
340
B
  0
MLINESTYLE
  5
1C
102
{ACAD_REACTORS
330
1B
102
}
330
1B
100
AcDbMlineStyle
  2
STANDARD
 70
     0
  3

 62
     0
 51
90.0
 52
90.0
 71
     2
 49
0.5
 62
   256
  6
BYLAYER
 49
-0.5
 62
   256
  6
BYLAYER
  0
ACDBPLACEHOLDER
  5
4919
102
{ACAD_REACTORS
330
4918
102
}
330
4918
100
AcDbPlaceHolder
280
     0
  0
XRECORD
  5
5006
102
{ACAD_REACTORS
330
4FFC
102
}
330
4FFC
100
AcDbXrecord
 90
        0
  0
XRECORD
  5
5007
102
{ACAD_REACTORS
330
4FFC
102
}
330
4FFC
100
AcDbXrecord
  1
{80E01A41-72CA-4FA8-9529-172B42CB37C0}
  0
XRECORD
  5
4FFF
102
{ACAD_REACTORS
330
4FFC
102
}
330
4FFC
100
AcDbXrecord
  1

  0
XRECORD
  5
5005
102
{ACAD_REACTORS
330
4FFC
102
}
330
4FFC
100
AcDbXrecord
 90
        0
  0
XRECORD
  5
5001
102
{ACAD_REACTORS
330
4FFC
102
}
330
4FFC
100
AcDbXrecord
340
491A
  0
XRECORD
  5
5004
102
{ACAD_REACTORS
330
4FFC
102
}
330
4FFC
100
AcDbXrecord
 90
    10781
  0
XRECORD
  5
5002
102
{ACAD_REACTORS
330
4FFC
102
}
330
4FFC
100
AcDbXrecord
340
491B
  0
XRECORD
  5
5003
102
{ACAD_REACTORS
330
4FFC
102
}
330
4FFC
100
AcDbXrecord
340
4918
  0
XRECORD
  5
5009
102
{ACAD_REACTORS
330
4FFC
102
}
330
4FFC
100
AcDbXrecord
 40
0.0
  0
XRECORD
  5
500C
102
{ACAD_REACTORS
330
4FFC
102
}
330
4FFC
100
AcDbXrecord
340
0
  0
XRECORD
  5
5012
102
{ACAD_REACTORS
330
4FFC
102
}
330
4FFC
100
AcDbXrecord
 10
0.0
 20
0.0
 30
0.0
  0
XRECORD
  5
500E
102
{ACAD_REACTORS
330
4FFC
102
}
330
4FFC
100
AcDbXrecord
 10
0.0
 20
0.0
 30
0.0
  0
XRECORD
  5
5011
102
{ACAD_REACTORS
330
4FFC
102
}
330
4FFC
100
AcDbXrecord
 10
0.0
 20
0.0
 30
0.0
  0
XRECORD
  5
500F
102
{ACAD_REACTORS
330
4FFC
102
}
330
4FFC
100
AcDbXrecord
 10
0.0
 20
0.0
 30
0.0
  0
XRECORD
  5
5010
102
{ACAD_REACTORS
330
4FFC
102
}
330
4FFC
100
AcDbXrecord
 10
0.0
 20
0.0
 30
0.0
  0
XRECORD
  5
500D
102
{ACAD_REACTORS
330
4FFC
102
}
330
4FFC
100
AcDbXrecord
 10
0.0
 20
0.0
 30
0.0
  0
XRECORD
  5
500A
102
{ACAD_REACTORS
330
4FFC
102
}
330
4FFC
100
AcDbXrecord
340
0
  0
XRECORD
  5
500B
102
{ACAD_REACTORS
330
4FFC
102
}
330
4FFC
100
AcDbXrecord
 70
     0
  0
XRECORD
  5
5000
102
{ACAD_REACTORS
330
4FFC
102
}
330
4FFC
100
AcDbXrecord
  1

  0
XRECORD
  5
4FFD
102
{ACAD_REACTORS
330
4FFC
102
}
330
4FFC
100
AcDbXrecord
 90
        1
  0
XRECORD
  5
4FFE
102
{ACAD_REACTORS
330
4FFC
102
}
330
4FFC
100
AcDbXrecord
 90
       70
  0
XRECORD
  5
5015
102
{ACAD_REACTORS
330
4FFC
102
}
330
4FFC
100
AcDbXrecord
340
0
  0
XRECORD
  5
501B
102
{ACAD_REACTORS
330
4FFC
102
}
330
4FFC
100
AcDbXrecord
 10
0.0
 20
0.0
 30
0.0
  0
XRECORD
  5
5017
102
{ACAD_REACTORS
330
4FFC
102
}
330
4FFC
100
AcDbXrecord
 10
0.0
 20
0.0
 30
0.0
  0
XRECORD
  5
501A
102
{ACAD_REACTORS
330
4FFC
102
}
330
4FFC
100
AcDbXrecord
 10
0.0
 20
0.0
 30
0.0
  0
XRECORD
  5
5018
102
{ACAD_REACTORS
330
4FFC
102
}
330
4FFC
100
AcDbXrecord
 10
0.0
 20
0.0
 30
0.0
  0
XRECORD
  5
5019
102
{ACAD_REACTORS
330
4FFC
102
}
330
4FFC
100
AcDbXrecord
 10
0.0
 20
0.0
 30
0.0
  0
XRECORD
  5
5016
102
{ACAD_REACTORS
330
4FFC
102
}
330
4FFC
100
AcDbXrecord
 10
0.0
 20
0.0
 30
0.0
  0
XRECORD
  5
5013
102
{ACAD_REACTORS
330
4FFC
102
}
330
4FFC
100
AcDbXrecord
340
0
  0
XRECORD
  5
5014
102
{ACAD_REACTORS
330
4FFC
102
}
330
4FFC
100
AcDbXrecord
 70
     0
  0
XRECORD
  5
5008
102
{ACAD_REACTORS
330
4FFC
102
}
330
4FFC
100
AcDbXrecord
  1
{96915D1B-C85E-46C6-BD85-12DC6B8860C3}
  0
DICTIONARYVAR
  5
494D
102
{ACAD_REACTORS
330
494C
102
}
330
494C
100
DictionaryVariables
280
     0
  1
1
  0
ENDSEC
  0
EOF
