  0
SECTION
  2
HEADER
  9
$ACADVER
  1
AC1014
  9
$ACADMAINTVER
 70
     9
  9
$DWGCODEPAGE
  3
ANSI_1252
  9
$INSBASE
 10
0.0
 20
0.0
 30
0.0
  9
$EXTMIN
 10
422.6403823292819
 20
215.8434457670006
 30
-0.0015258207003583
  9
$EXTMAX
 10
622.687684319317
 20
502.8688211215994
 30
0.0000000349246037
  9
$LIMMIN
 10
0.0
 20
0.0
  9
$LIMMAX
 10
420.0
 20
297.0
  9
$ORTHOMODE
 70
     0
  9
$REGENMODE
 70
     1
  9
$FILLMODE
 70
     1
  9
$QTEXTMODE
 70
     0
  9
$MIRRTEXT
 70
     1
  9
$DRAGMODE
 70
     2
  9
$LTSCALE
 40
1.0
  9
$OSMODE
 70
    39
  9
$ATTMODE
 70
     1
  9
$TEXTSIZE
 40
2.5
  9
$TRACEWID
 40
1.0
  9
$TEXTSTYLE
  7
STANDARD
  9
$CLAYER
  8
0
  9
$CELTYPE
  6
BYLAYER
  9
$CECOLOR
 62
   256
  9
$CELTSCALE
 40
1.0
  9
$DELOBJ
 70
     1
  9
$DISPSILH
 70
     0
  9
$DIMSCALE
 40
1.0
  9
$DIMASZ
 40
2.5
  9
$DIMEXO
 40
0.625
  9
$DIMDLI
 40
3.75
  9
$DIMRND
 40
0.0
  9
$DIMDLE
 40
0.0
  9
$DIMEXE
 40
1.25
  9
$DIMTP
 40
0.0
  9
$DIMTM
 40
0.0
  9
$DIMTXT
 40
2.5
  9
$DIMCEN
 40
2.5
  9
$DIMTSZ
 40
0.0
  9
$DIMTOL
 70
     0
  9
$DIMLIM
 70
     0
  9
$DIMTIH
 70
     0
  9
$DIMTOH
 70
     0
  9
$DIMSE1
 70
     0
  9
$DIMSE2
 70
     0
  9
$DIMTAD
 70
     1
  9
$DIMZIN
 70
     8
  9
$DIMBLK
  1

  9
$DIMASO
 70
     1
  9
$DIMSHO
 70
     1
  9
$DIMPOST
  1

  9
$DIMAPOST
  1

  9
$DIMALT
 70
     0
  9
$DIMALTD
 70
     3
  9
$DIMALTF
 40
0.03937007874016
  9
$DIMLFAC
 40
1.0
  9
$DIMTOFL
 70
     1
  9
$DIMTVP
 40
0.0
  9
$DIMTIX
 70
     0
  9
$DIMSOXD
 70
     0
  9
$DIMSAH
 70
     0
  9
$DIMBLK1
  1

  9
$DIMBLK2
  1

  9
$DIMSTYLE
  2
ISO-25
  9
$DIMCLRD
 70
     0
  9
$DIMCLRE
 70
     0
  9
$DIMCLRT
 70
     0
  9
$DIMTFAC
 40
1.0
  9
$DIMGAP
 40
0.625
  9
$DIMJUST
 70
     0
  9
$DIMSD1
 70
     0
  9
$DIMSD2
 70
     0
  9
$DIMTOLJ
 70
     0
  9
$DIMTZIN
 70
     8
  9
$DIMALTZ
 70
     0
  9
$DIMALTTZ
 70
     0
  9
$DIMFIT
 70
     3
  9
$DIMUPT
 70
     0
  9
$DIMUNIT
 70
     2
  9
$DIMDEC
 70
     2
  9
$DIMTDEC
 70
     2
  9
$DIMALTU
 70
     2
  9
$DIMALTTD
 70
     3
  9
$DIMTXSTY
  7
STANDARD
  9
$DIMAUNIT
 70
     0
  9
$LUNITS
 70
     2
  9
$LUPREC
 70
     4
  9
$SKETCHINC
 40
1.0
  9
$FILLETRAD
 40
10.0
  9
$AUNITS
 70
     0
  9
$AUPREC
 70
     0
  9
$MENU
  1
.
  9
$ELEVATION
 40
0.0
  9
$PELEVATION
 40
0.0
  9
$THICKNESS
 40
0.0
  9
$LIMCHECK
 70
     0
  9
$BLIPMODE
 70
     0
  9
$CHAMFERA
 40
10.0
  9
$CHAMFERB
 40
10.0
  9
$CHAMFERC
 40
20.0
  9
$CHAMFERD
 40
0.0
  9
$SKPOLY
 70
     0
  9
$TDCREATE
 40
2453902.447977060
  9
$TDUPDATE
 40
2453902.449261064
  9
$TDINDWG
 40
0.0012843634
  9
$TDUSRTIMER
 40
0.0012843634
  9
$USRTIMER
 70
     1
  9
$ANGBASE
 50
0.0
  9
$ANGDIR
 70
     0
  9
$PDMODE
 70
     0
  9
$PDSIZE
 40
0.0
  9
$PLINEWID
 40
0.0
  9
$COORDS
 70
     1
  9
$SPLFRAME
 70
     0
  9
$SPLINETYPE
 70
     6
  9
$SPLINESEGS
 70
     8
  9
$ATTDIA
 70
     0
  9
$ATTREQ
 70
     1
  9
$HANDLING
 70
 22529
  9
$HANDSEED
  5
479
  9
$SURFTAB1
 70
     6
  9
$SURFTAB2
 70
     6
  9
$SURFTYPE
 70
     6
  9
$SURFU
 70
     6
  9
$SURFV
 70
     6
  9
$UCSNAME
  2

  9
$UCSORG
 10
0.0
 20
0.0
 30
0.0
  9
$UCSXDIR
 10
1.0
 20
0.0
 30
0.0
  9
$UCSYDIR
 10
0.0
 20
1.0
 30
0.0
  9
$PUCSNAME
  2

  9
$PUCSORG
 10
0.0
 20
0.0
 30
0.0
  9
$PUCSXDIR
 10
1.0
 20
0.0
 30
0.0
  9
$PUCSYDIR
 10
0.0
 20
1.0
 30
0.0
  9
$USERI1
 70
     0
  9
$USERI2
 70
     0
  9
$USERI3
 70
     0
  9
$USERI4
 70
     0
  9
$USERI5
 70
     0
  9
$USERR1
 40
0.0
  9
$USERR2
 40
0.0
  9
$USERR3
 40
0.0
  9
$USERR4
 40
0.0
  9
$USERR5
 40
0.0
  9
$WORLDVIEW
 70
     1
  9
$SHADEDGE
 70
     3
  9
$SHADEDIF
 70
    70
  9
$TILEMODE
 70
     1
  9
$MAXACTVP
 70
    64
  9
$PINSBASE
 10
0.0
 20
0.0
 30
0.0
  9
$PLIMCHECK
 70
     0
  9
$PEXTMIN
 10
0.0
 20
0.0
 30
0.0
  9
$PEXTMAX
 10
0.0
 20
0.0
 30
0.0
  9
$PLIMMIN
 10
0.0
 20
0.0
  9
$PLIMMAX
 10
12.0
 20
9.0
  9
$UNITMODE
 70
     0
  9
$VISRETAIN
 70
     1
  9
$PLINEGEN
 70
     0
  9
$PSLTSCALE
 70
     1
  9
$TREEDEPTH
 70
  3020
  9
$PICKSTYLE
 70
     1
  9
$CMLSTYLE
  2
STANDARD
  9
$CMLJUST
 70
     0
  9
$CMLSCALE
 40
20.0
  9
$PROXYGRAPHICS
 70
     1
  9
$MEASUREMENT
 70
     1
  0
ENDSEC
  0
SECTION
  2
CLASSES
  0
CLASS
  1
ACDBDICTIONARYWDFLT
  2
AcDbDictionaryWithDefault
  3
AutoCAD 2000
 90
        0
280
     0
281
     0
  0
CLASS
  1
ACDBPLACEHOLDER
  2
AcDbPlaceHolder
  3
AutoCAD 2000
 90
        0
280
     0
281
     0
  0
CLASS
  1
LAYOUT
  2
AcDbLayout
  3
AutoCAD 2000
 90
        0
280
     0
281
     0
  0
CLASS
  1
DICTIONARYVAR
  2
AcDbDictionaryVar
  3
AutoCAD 2000
 90
        0
280
     0
281
     0
  0
CLASS
  1
LONG_TRANSACTION
  2
AcDbLongTransaction
  3
AutoCAD 2000
 90
        0
280
     0
281
     0
  0
CLASS
  1
LWPOLYLINE
  2
AcDbPolyline
  3
AutoCAD 2000
 90
        0
280
     0
281
     1
  0
CLASS
  1
HATCH
  2
AcDbHatch
  3
AutoCAD 2000
 90
        0
280
     0
281
     1
  0
CLASS
  1
XRECORD
  2
AcDbXrecord
  3
AutoCAD 2000
 90
        0
280
     0
281
     0
  0
ENDSEC
  0
SECTION
  2
TABLES
  0
TABLE
  2
VPORT
  5
8
330
0
100
AcDbSymbolTable
 70
     2
  0
VPORT
  5
404
330
8
100
AcDbSymbolTableRecord
100
AcDbViewportTableRecord
  2
*ACTIVE
 70
     0
 10
0.0
 20
0.0
 11
1.0
 21
1.0
 12
522.6640333242994
 22
359.3561334443001
 13
0.0
 23
0.0
 14
10.0
 24
10.0
 15
10.0
 25
10.0
 16
0.0
 26
0.0
 36
1.0
 17
0.0
 27
0.0
 37
0.0
 40
288.7953160042675
 41
1.595679012345678
 42
50.0
 43
0.0
 44
0.0
 50
0.0
 51
0.0
 71
     0
 72
   100
 73
     1
 74
     3
 75
     0
 76
     0
 77
     0
 78
     0
  0
ENDTAB
  0
TABLE
  2
LTYPE
  5
5
330
0
100
AcDbSymbolTable
 70
     1
  0
LTYPE
  5
14
330
5
100
AcDbSymbolTableRecord
100
AcDbLinetypeTableRecord
  2
BYBLOCK
 70
     0
  3

 72
    65
 73
     0
 40
0.0
  0
LTYPE
  5
15
330
5
100
AcDbSymbolTableRecord
100
AcDbLinetypeTableRecord
  2
BYLAYER
 70
     0
  3

 72
    65
 73
     0
 40
0.0
  0
LTYPE
  5
16
330
5
100
AcDbSymbolTableRecord
100
AcDbLinetypeTableRecord
  2
CONTINUOUS
 70
     0
  3
Solid line
 72
    65
 73
     0
 40
0.0
  0
ENDTAB
  0
TABLE
  2
LAYER
  5
2
330
0
100
AcDbSymbolTable
 70
     5
  0
LAYER
  5
10
330
2
100
AcDbSymbolTableRecord
100
AcDbLayerTableRecord
  2
0
 70
     0
 62
     7
  6
CONTINUOUS
  0
LAYER
  5
D1
330
2
100
AcDbSymbolTableRecord
100
AcDbLayerTableRecord
  2
DEFPOINTS
 70
     0
 62
     1
  6
CONTINUOUS
  0
LAYER
  5
D2
330
2
100
AcDbSymbolTableRecord
100
AcDbLayerTableRecord
  2
DIM
 70
     0
 62
     7
  6
CONTINUOUS
  0
LAYER
  5
D3
330
2
100
AcDbSymbolTableRecord
100
AcDbLayerTableRecord
  2
DRAW
 70
     0
 62
     7
  6
CONTINUOUS
  0
LAYER
  5
D4
330
2
100
AcDbSymbolTableRecord
100
AcDbLayerTableRecord
  2
CARTOUCHE
 70
     0
 62
     7
  6
CONTINUOUS
  0
ENDTAB
  0
TABLE
  2
STYLE
  5
3
330
0
100
AcDbSymbolTable
 70
     6
  0
STYLE
  5
11
330
3
100
AcDbSymbolTableRecord
100
AcDbTextStyleTableRecord
  2
STANDARD
 70
     0
 40
0.0
 41
1.0
 50
0.0
 71
     0
 42
2.5
  3
txt
  4

  0
STYLE
  5
D5
330
3
100
AcDbSymbolTableRecord
100
AcDbTextStyleTableRecord
  2
TSTYLE1
 70
     0
 40
1.8
 41
0.4600000000000001
 50
0.0
 71
     0
 42
0.2
  3
ARIAL.TTF
  4

1001
ACAD
1000
Arial
1071
    32000
  0
STYLE
  5
D6
330
3
100
AcDbSymbolTableRecord
100
AcDbTextStyleTableRecord
  2
TSTYLE2
 70
     0
 40
1.8
 41
0.6
 50
0.0
 71
     0
 42
0.2
  3
ARIAL.TTF
  4

1001
ACAD
1000
Arial
1071
    32000
  0
STYLE
  5
D7
330
3
100
AcDbSymbolTableRecord
100
AcDbTextStyleTableRecord
  2
TSTYLE3
 70
     0
 40
2.1
 41
0.4600000000000001
 50
0.0
 71
     0
 42
0.2
  3
ARIAL.TTF
  4

1001
ACAD
1000
Arial
1071
    32000
  0
STYLE
  5
D8
330
3
100
AcDbSymbolTableRecord
100
AcDbTextStyleTableRecord
  2
TSTYLE4
 70
     0
 40
3.0
 41
0.4600000000000001
 50
0.0
 71
     0
 42
0.2
  3
ARIAL.TTF
  4

1001
ACAD
1000
Arial
1071
    32000
  0
STYLE
  5
D9
330
3
100
AcDbSymbolTableRecord
100
AcDbTextStyleTableRecord
  2
TSTYLE5
 70
     0
 40
3.0
 41
0.95
 50
0.0
 71
     0
 42
0.2
  3
ARIAL.TTF
  4

1001
ACAD
1000
Arial
1071
    32000
  0
ENDTAB
  0
TABLE
  2
VIEW
  5
6
330
0
100
AcDbSymbolTable
 70
     0
  0
ENDTAB
  0
TABLE
  2
UCS
  5
7
330
0
100
AcDbSymbolTable
 70
     0
  0
ENDTAB
  0
TABLE
  2
APPID
  5
9
330
0
100
AcDbSymbolTable
 70
     1
  0
APPID
  5
12
330
9
100
AcDbSymbolTableRecord
100
AcDbRegAppTableRecord
  2
ACAD
 70
     0
  0
ENDTAB
  0
TABLE
  2
DIMSTYLE
  5
A
330
0
100
AcDbSymbolTable
 70
     9
  0
DIMSTYLE
105
27
330
A
100
AcDbSymbolTableRecord
100
AcDbDimStyleTableRecord
  2
ISO-25
 70
     0
  3

  4

  5

  6

  7

 40
1.0
 41
2.5
 42
0.625
 43
3.75
 44
1.25
 45
0.0
 46
0.0
 47
0.0
 48
0.0
140
2.5
141
2.5
142
0.0
143
0.03937007874016
144
1.0
145
0.0
146
1.0
147
0.625
 71
     0
 72
     0
 73
     0
 74
     0
 75
     0
 76
     0
 77
     1
 78
     8
170
     0
171
     3
172
     1
173
     0
174
     0
175
     0
176
     0
177
     0
178
     0
270
     2
271
     2
272
     2
273
     2
274
     3
340
11
275
     0
280
     0
281
     0
282
     0
283
     0
284
     8
285
     0
286
     0
287
     3
288
     0
  0
DIMSTYLE
105
DA
330
A
100
AcDbSymbolTableRecord
100
AcDbDimStyleTableRecord
  2
STANDARD
 70
     0
  3

  4

  5

  6

  7

 40
1.0
 41
0.18
 42
0.063
 43
0.38
 44
0.18
 45
0.0
 46
0.0
 47
0.0
 48
0.0
140
0.18
141
0.09
142
0.0
143
25.4
144
1.0
145
0.0
146
1.0
147
0.09
 71
     0
 72
     0
 73
     1
 74
     1
 75
     0
 76
     0
 77
     0
 78
     0
170
     0
171
     2
172
     0
173
     0
174
     0
175
     0
176
     0
177
     0
178
     0
270
     2
271
     4
272
     4
273
     2
274
     2
340
11
275
     0
280
     0
281
     0
282
     0
283
     1
284
     0
285
     0
286
     0
287
     3
288
     0
  0
DIMSTYLE
105
DB
102
{ACAD_REACTORS
330
E8
330
221
102
}
330
A
100
AcDbSymbolTableRecord
100
AcDbDimStyleTableRecord
  2
DSTYLE1
 70
     0
  3

  4

  5

  6

  7

 40
1.0
 41
2.5
 42
1.338999999999999
 43
0.38
 44
1.0
 45
0.0
 46
0.0
 47
0.0
 48
0.0
140
3.0
141
0.09
142
0.0
143
25.4
144
1.0
145
0.7
146
0.6
147
0.0
 71
     0
 72
     0
 73
     0
 74
     0
 75
     0
 76
     0
 77
     0
 78
     8
170
     0
171
     2
172
     0
173
     0
174
     0
175
     0
176
     0
177
     0
178
     4
270
     2
271
     2
272
     4
273
     2
274
     2
340
D9
275
     0
280
     0
281
     0
282
     0
283
     1
284
     0
285
     0
286
     0
287
     3
288
     0
  0
DIMSTYLE
105
DC
102
{ACAD_REACTORS
330
E7
330
220
102
}
330
A
100
AcDbSymbolTableRecord
100
AcDbDimStyleTableRecord
  2
DSTYLE2
 70
     0
  3

  4

  5

  6

  7

 40
1.0
 41
2.5
 42
1.459999999999999
 43
0.38
 44
1.0
 45
0.0
 46
0.0
 47
0.0
 48
0.0
140
3.0
141
0.09
142
0.0
143
25.4
144
1.0
145
0.7
146
0.6
147
0.0
 71
     0
 72
     0
 73
     0
 74
     0
 75
     0
 76
     0
 77
     0
 78
     8
170
     0
171
     2
172
     0
173
     0
174
     0
175
     0
176
     0
177
     0
178
     4
270
     2
271
     2
272
     4
273
     2
274
     2
340
D9
275
     0
280
     0
281
     0
282
     0
283
     1
284
     0
285
     0
286
     0
287
     3
288
     0
  0
DIMSTYLE
105
DD
102
{ACAD_REACTORS
330
E5
330
21E
102
}
330
A
100
AcDbSymbolTableRecord
100
AcDbDimStyleTableRecord
  2
DSTYLE3
 70
     0
  3

  4

  5

  6

  7

 40
1.0
 41
2.5
 42
1.414
 43
0.38
 44
1.0
 45
0.0
 46
0.0
 47
0.0
 48
0.0
140
3.0
141
0.09
142
0.0
143
25.4
144
1.0
145
0.7
146
0.6
147
0.0
 71
     0
 72
     0
 73
     0
 74
     0
 75
     0
 76
     0
 77
     0
 78
     8
170
     0
171
     2
172
     0
173
     0
174
     0
175
     0
176
     0
177
     0
178
     4
270
     2
271
     2
272
     4
273
     2
274
     2
340
D9
275
     0
280
     0
281
     0
282
     0
283
     1
284
     0
285
     0
286
     0
287
     3
288
     0
  0
DIMSTYLE
105
DE
102
{ACAD_REACTORS
330
160
330
153
330
28C
330
299
102
}
330
A
100
AcDbSymbolTableRecord
100
AcDbDimStyleTableRecord
  2
DSTYLE4
 70
     0
  3

  4

  5

  6

  7

 40
1.0
 41
2.5
 42
1.110999999999999
 43
0.38
 44
1.0
 45
0.0
 46
0.0
 47
0.0
 48
0.0
140
3.0
141
0.09
142
0.0
143
25.4
144
1.0
145
0.7
146
0.6
147
0.0
 71
     0
 72
     0
 73
     0
 74
     0
 75
     0
 76
     0
 77
     0
 78
     8
170
     0
171
     2
172
     0
173
     0
174
     1
175
     0
176
     0
177
     0
178
     4
270
     2
271
     2
272
     4
273
     2
274
     2
340
D9
275
     0
280
     0
281
     0
282
     0
283
     1
284
     0
285
     0
286
     0
287
     3
288
     0
  0
DIMSTYLE
105
DF
102
{ACAD_REACTORS
330
E6
330
21F
102
}
330
A
100
AcDbSymbolTableRecord
100
AcDbDimStyleTableRecord
  2
DSTYLE5
 70
     0
  3

  4

  5

  6

  7

 40
1.0
 41
2.5
 42
1.110999999999999
 43
0.38
 44
1.0
 45
0.0
 46
0.0
 47
0.0
 48
0.0
140
3.0
141
0.09
142
0.0
143
25.4
144
1.0
145
0.7
146
0.6
147
0.0
 71
     0
 72
     0
 73
     0
 74
     0
 75
     0
 76
     0
 77
     0
 78
     8
170
     0
171
     2
172
     0
173
     0
174
     0
175
     0
176
     0
177
     0
178
     4
270
     2
271
     2
272
     4
273
     2
274
     2
340
D9
275
     0
280
     0
281
     0
282
     0
283
     1
284
     0
285
     0
286
     0
287
     3
288
     0
  0
DIMSTYLE
105
E0
102
{ACAD_REACTORS
330
155
330
28E
102
}
330
A
100
AcDbSymbolTableRecord
100
AcDbDimStyleTableRecord
  2
DSTYLE6
 70
     0
  3

  4

  5

  6

  7

 40
1.0
 41
2.5
 42
33.792
 43
0.38
 44
1.0
 45
0.0
 46
0.0
 47
0.0
 48
0.0
140
3.0
141
0.09
142
0.0
143
25.4
144
1.0
145
0.7
146
0.6
147
0.0
 71
     0
 72
     0
 73
     0
 74
     0
 75
     0
 76
     0
 77
     0
 78
     8
170
     0
171
     2
172
     0
173
     0
174
     1
175
     0
176
     0
177
     0
178
     4
270
     2
271
     2
272
     4
273
     2
274
     2
340
D9
275
     0
280
     0
281
     0
282
     0
283
     1
284
     0
285
     0
286
     0
287
     3
288
     0
  0
DIMSTYLE
105
E1
102
{ACAD_REACTORS
330
154
330
28D
102
}
330
A
100
AcDbSymbolTableRecord
100
AcDbDimStyleTableRecord
  2
DSTYLE7
 70
     0
  3

  4

  5

  6

  7

 40
1.0
 41
2.5
 42
33.505
 43
0.38
 44
1.0
 45
0.0
 46
0.0
 47
0.0
 48
0.0
140
3.0
141
0.09
142
0.0
143
25.4
144
1.0
145
0.7
146
0.6
147
0.0
 71
     0
 72
     0
 73
     0
 74
     0
 75
     0
 76
     0
 77
     0
 78
     8
170
     0
171
     2
172
     0
173
     0
174
     0
175
     0
176
     0
177
     0
178
     4
270
     2
271
     2
272
     4
273
     2
274
     2
340
D9
275
     0
280
     0
281
     0
282
     0
283
     1
284
     0
285
     0
286
     0
287
     3
288
     0
  0
ENDTAB
  0
TABLE
  2
BLOCK_RECORD
  5
1
330
0
100
AcDbSymbolTable
 70
    18
  0
BLOCK_RECORD
  5
1F
102
{ACAD_XDICTIONARY
360
426
102
}
330
1
100
AcDbSymbolTableRecord
100
AcDbBlockTableRecord
  2
*MODEL_SPACE
  0
BLOCK_RECORD
  5
50
102
{ACAD_XDICTIONARY
360
428
102
}
330
1
100
AcDbSymbolTableRecord
100
AcDbBlockTableRecord
  2
*PAPER_SPACE
  0
BLOCK_RECORD
  5
6C
330
1
100
AcDbSymbolTableRecord
100
AcDbBlockTableRecord
  2
*D1
  0
BLOCK_RECORD
  5
79
330
1
100
AcDbSymbolTableRecord
100
AcDbBlockTableRecord
  2
*D2
  0
BLOCK_RECORD
  5
86
330
1
100
AcDbSymbolTableRecord
100
AcDbBlockTableRecord
  2
*D3
  0
BLOCK_RECORD
  5
93
330
1
100
AcDbSymbolTableRecord
100
AcDbBlockTableRecord
  2
*D4
  0
BLOCK_RECORD
  5
A0
330
1
100
AcDbSymbolTableRecord
100
AcDbBlockTableRecord
  2
*D5
  0
BLOCK_RECORD
  5
AC
330
1
100
AcDbSymbolTableRecord
100
AcDbBlockTableRecord
  2
*D6
  0
BLOCK_RECORD
  5
B8
330
1
100
AcDbSymbolTableRecord
100
AcDbBlockTableRecord
  2
*D7
  0
BLOCK_RECORD
  5
C5
330
1
100
AcDbSymbolTableRecord
100
AcDbBlockTableRecord
  2
*D8
  0
BLOCK_RECORD
  5
351
330
1
100
AcDbSymbolTableRecord
100
AcDbBlockTableRecord
  2
*D10
  0
BLOCK_RECORD
  5
35E
330
1
100
AcDbSymbolTableRecord
100
AcDbBlockTableRecord
  2
*D11
  0
BLOCK_RECORD
  5
36B
330
1
100
AcDbSymbolTableRecord
100
AcDbBlockTableRecord
  2
*D12
  0
BLOCK_RECORD
  5
378
330
1
100
AcDbSymbolTableRecord
100
AcDbBlockTableRecord
  2
*D13
  0
BLOCK_RECORD
  5
385
330
1
100
AcDbSymbolTableRecord
100
AcDbBlockTableRecord
  2
*D14
  0
BLOCK_RECORD
  5
391
330
1
100
AcDbSymbolTableRecord
100
AcDbBlockTableRecord
  2
*D15
  0
BLOCK_RECORD
  5
39E
330
1
100
AcDbSymbolTableRecord
100
AcDbBlockTableRecord
  2
*D16
  0
BLOCK_RECORD
  5
3AA
330
1
100
AcDbSymbolTableRecord
100
AcDbBlockTableRecord
  2
*D17
  0
ENDTAB
  0
ENDSEC
  0
SECTION
  2
BLOCKS
  0
BLOCK
  5
20
330
1F
100
AcDbEntity
  8
0
100
AcDbBlockBegin
  2
*MODEL_SPACE
 70
     0
 10
0.0
 20
0.0
 30
0.0
  3
*MODEL_SPACE
  1

  0
ENDBLK
  5
21
330
1F
100
AcDbEntity
  8
0
100
AcDbBlockEnd
  0
BLOCK
  5
52
330
50
100
AcDbEntity
 67
     1
  8
0
100
AcDbBlockBegin
  2
*PAPER_SPACE
 70
     0
 10
0.0
 20
0.0
 30
0.0
  3
*PAPER_SPACE
  1

  0
ENDBLK
  5
53
330
50
100
AcDbEntity
 67
     1
  8
0
100
AcDbBlockEnd
  0
BLOCK
  5
77
330
6C
100
AcDbEntity
  8
0
100
AcDbBlockBegin
  2
*D1
 70
     1
 10
0.0
 20
0.0
 30
0.0
  3
*D1
  1

  0
LINE
  5
6D
330
6C
100
AcDbEntity
  8
DIM
  6
CONTINUOUS
 62
     0
100
AcDbLine
 10
641.4119999999999
 20
121.061
 30
0.0
 11
648.4786107685991
 21
121.061
 31
0.0
  0
LINE
  5
6E
330
6C
100
AcDbEntity
  8
DIM
  6
CONTINUOUS
 62
     0
100
AcDbLine
 10
639.0909999999999
 20
114.561
 30
0.0
 11
648.4786107685991
 21
114.561
 31
0.0
  0
LINE
  5
6F
330
6C
100
AcDbEntity
  8
DIM
  6
CONTINUOUS
 62
     0
100
AcDbLine
 10
647.478610768599
 20
118.561
 30
0.0
 11
647.478610768599
 21
117.061
 31
0.0
  0
LINE
  5
70
330
6C
100
AcDbEntity
  8
DIM
  6
CONTINUOUS
 62
     0
100
AcDbLine
 10
647.478610768599
 20
114.561
 30
0.0
 11
647.478610768599
 21
101.2918250138657
 31
0.0
  0
SOLID
  5
71
330
6C
100
AcDbEntity
  8
DIM
  6
CONTINUOUS
 62
     0
100
AcDbTrace
 10
647.0619441019324
 20
118.561
 30
0.0
 11
647.8952774352657
 21
118.561
 31
0.0
 12
647.478610768599
 22
121.061
 32
0.0
 13
647.478610768599
 23
121.061
 33
0.0
  0
SOLID
  5
72
330
6C
100
AcDbEntity
  8
DIM
  6
CONTINUOUS
 62
     0
100
AcDbTrace
 10
647.0619441019324
 20
117.061
 30
0.0
 11
647.8952774352657
 21
117.061
 31
0.0
 12
647.478610768599
 22
114.561
 32
0.0
 13
647.478610768599
 23
114.561
 33
0.0
  0
MTEXT
  5
73
330
6C
100
AcDbEntity
  8
DIM
  6
CONTINUOUS
 62
     4
100
AcDbMText
 10
645.3342042201679
 20
103.9046490247799
 30
0.0
 40
3.0
 41
0.0
 71
     5
 72
     1
  1
\A1;6.5
  7
TSTYLE5
 11
0.0000000000000001
 21
1.0
 31
0.0
1001
ACAD
1000
MTEXTBEGIN
1070
    73
1070
     1
1070
    44
1040
1.0
1070
    74
1070
     0
1000
MTEXTEND
  0
POINT
  5
74
330
6C
100
AcDbEntity
  8
DEFPOINTS
  6
CONTINUOUS
 62
     0
100
AcDbPoint
 10
640.3009999999999
 20
121.061
 30
0.0
  0
POINT
  5
75
330
6C
100
AcDbEntity
  8
DEFPOINTS
  6
CONTINUOUS
 62
     0
100
AcDbPoint
 10
637.98
 20
114.561
 30
0.0
  0
POINT
  5
76
330
6C
100
AcDbEntity
  8
DEFPOINTS
  6
CONTINUOUS
 62
     0
100
AcDbPoint
 10
647.478610768599
 20
114.561
 30
0.0
  0
ENDBLK
  5
78
330
6C
100
AcDbEntity
  8
0
100
AcDbBlockEnd
  0
BLOCK
  5
84
330
79
100
AcDbEntity
  8
0
100
AcDbBlockBegin
  2
*D2
 70
     1
 10
0.0
 20
0.0
 30
0.0
  3
*D2
  1

  0
LINE
  5
7A
330
79
100
AcDbEntity
  8
DIM
  6
CONTINUOUS
 62
     0
100
AcDbLine
 10
667.105
 20
113.847
 30
0.0
 11
667.105
 21
104.9699986920533
 31
0.0
  0
LINE
  5
7B
330
79
100
AcDbEntity
  8
DIM
  6
CONTINUOUS
 62
     0
100
AcDbLine
 10
664.605
 20
113.847
 30
0.0
 11
664.605
 21
104.9699986920533
 31
0.0
  0
LINE
  5
7C
330
79
100
AcDbEntity
  8
DIM
  6
CONTINUOUS
 62
     0
100
AcDbLine
 10
662.105
 20
105.9699986920533
 30
0.0
 11
659.6049999999999
 21
105.9699986920533
 31
0.0
  0
LINE
  5
7D
330
79
100
AcDbEntity
  8
DIM
  6
CONTINUOUS
 62
     0
100
AcDbLine
 10
669.605
 20
105.9699986920533
 30
0.0
 11
680.4113820761294
 21
105.9699986920533
 31
0.0
  0
SOLID
  5
7E
330
79
100
AcDbEntity
  8
DIM
  6
CONTINUOUS
 62
     0
100
AcDbTrace
 10
662.105
 20
106.3866653587199
 30
0.0
 11
662.105
 21
105.5533320253866
 31
0.0
 12
664.605
 22
105.9699986920533
 32
0.0
 13
664.605
 23
105.9699986920533
 33
0.0
  0
SOLID
  5
7F
330
79
100
AcDbEntity
  8
DIM
  6
CONTINUOUS
 62
     0
100
AcDbTrace
 10
669.605
 20
106.3866653587199
 30
0.0
 11
669.605
 21
105.5533320253866
 31
0.0
 12
667.105
 22
105.9699986920533
 32
0.0
 13
667.105
 23
105.9699986920533
 33
0.0
  0
MTEXT
  5
80
330
79
100
AcDbEntity
  8
DIM
  6
CONTINUOUS
 62
     4
100
AcDbMText
 10
677.7820335085987
 20
108.1144052404844
 30
0.0
 40
3.0
 41
0.0
 71
     5
 72
     1
  1
\A1;2.5
  7
TSTYLE5
1001
ACAD
1000
MTEXTBEGIN
1070
    73
1070
     1
1070
    44
1040
1.0
1070
    74
1070
     0
1000
MTEXTEND
  0
POINT
  5
81
330
79
100
AcDbEntity
  8
DEFPOINTS
  6
CONTINUOUS
 62
     0
100
AcDbPoint
 10
667.105
 20
115.261
 30
0.0
  0
POINT
  5
82
330
79
100
AcDbEntity
  8
DEFPOINTS
  6
CONTINUOUS
 62
     0
100
AcDbPoint
 10
664.605
 20
115.261
 30
0.0
  0
POINT
  5
83
330
79
100
AcDbEntity
  8
DEFPOINTS
  6
CONTINUOUS
 62
     0
100
AcDbPoint
 10
664.605
 20
105.9699986920533
 30
0.0
  0
ENDBLK
  5
85
330
79
100
AcDbEntity
  8
0
100
AcDbBlockEnd
  0
BLOCK
  5
91
330
86
100
AcDbEntity
  8
0
100
AcDbBlockBegin
  2
*D3
 70
     1
 10
0.0
 20
0.0
 30
0.0
  3
*D3
  1

  0
LINE
  5
87
330
86
100
AcDbEntity
  8
DIM
  6
CONTINUOUS
 62
     0
100
AcDbLine
 10
628.1509999999999
 20
113.801
 30
0.0
 11
628.1509999999999
 21
104.9699986920533
 31
0.0
  0
LINE
  5
88
330
86
100
AcDbEntity
  8
DIM
  6
CONTINUOUS
 62
     0
100
AcDbLine
 10
627.651
 20
113.801
 30
0.0
 11
627.651
 21
104.9699986920533
 31
0.0
  0
LINE
  5
89
330
86
100
AcDbEntity
  8
DIM
  6
CONTINUOUS
 62
     0
100
AcDbLine
 10
625.1509999999999
 20
105.9699986920533
 30
0.0
 11
622.6509999999999
 21
105.9699986920533
 31
0.0
  0
LINE
  5
8A
330
86
100
AcDbEntity
  8
DIM
  6
CONTINUOUS
 62
     0
100
AcDbLine
 10
630.6509999999999
 20
105.9699986920533
 30
0.0
 11
640.9581960183953
 21
105.9699986920533
 31
0.0
  0
SOLID
  5
8B
330
86
100
AcDbEntity
  8
DIM
  6
CONTINUOUS
 62
     0
100
AcDbTrace
 10
625.1509999999999
 20
106.3866653587199
 30
0.0
 11
625.1509999999999
 21
105.5533320253866
 31
0.0
 12
627.651
 22
105.9699986920533
 32
0.0
 13
627.651
 23
105.9699986920533
 33
0.0
  0
SOLID
  5
8C
330
86
100
AcDbEntity
  8
DIM
  6
CONTINUOUS
 62
     0
100
AcDbTrace
 10
630.6509999999999
 20
106.3866653587199
 30
0.0
 11
630.6509999999999
 21
105.5533320253866
 31
0.0
 12
628.1509999999999
 22
105.9699986920533
 32
0.0
 13
628.1509999999999
 23
105.9699986920533
 33
0.0
  0
MTEXT
  5
8D
330
86
100
AcDbEntity
  8
DIM
  6
CONTINUOUS
 62
     4
100
AcDbMText
 10
638.3531482694186
 20
108.1144052404844
 30
0.0
 40
3.0
 41
0.0
 71
     5
 72
     1
  1
\A1;0.5
  7
TSTYLE5
1001
ACAD
1000
MTEXTBEGIN
1070
    73
1070
     1
1070
    44
1040
1.0
1070
    74
1070
     0
1000
MTEXTEND
  0
POINT
  5
8E
330
86
100
AcDbEntity
  8
DEFPOINTS
  6
CONTINUOUS
 62
     0
100
AcDbPoint
 10
628.1509999999999
 20
115.261
 30
0.0
  0
POINT
  5
8F
330
86
100
AcDbEntity
  8
DEFPOINTS
  6
CONTINUOUS
 62
     0
100
AcDbPoint
 10
627.651
 20
115.261
 30
0.0
  0
POINT
  5
90
330
86
100
AcDbEntity
  8
DEFPOINTS
  6
CONTINUOUS
 62
     0
100
AcDbPoint
 10
627.651
 20
105.9699986920533
 30
0.0
  0
ENDBLK
  5
92
330
86
100
AcDbEntity
  8
0
100
AcDbBlockEnd
  0
BLOCK
  5
9E
330
93
100
AcDbEntity
  8
0
100
AcDbBlockBegin
  2
*D4
 70
     1
 10
0.0
 20
0.0
 30
0.0
  3
*D4
  1

  0
LINE
  5
94
330
93
100
AcDbEntity
  8
DIM
  6
CONTINUOUS
 62
     0
100
AcDbLine
 10
614.7509999999999
 20
113.928
 30
0.0
 11
614.7509999999999
 21
104.7978865559528
 31
0.0
  0
LINE
  5
95
330
93
100
AcDbEntity
  8
DIM
  6
CONTINUOUS
 62
     0
100
AcDbLine
 10
612.251
 20
113.928
 30
0.0
 11
612.251
 21
104.7978865559528
 31
0.0
  0
LINE
  5
96
330
93
100
AcDbEntity
  8
DIM
  6
CONTINUOUS
 62
     0
100
AcDbLine
 10
617.2509999999999
 20
105.7978865559527
 30
0.0
 11
619.751
 21
105.7978865559527
 31
0.0
  0
LINE
  5
97
330
93
100
AcDbEntity
  8
DIM
  6
CONTINUOUS
 62
     0
100
AcDbLine
 10
609.7509999999999
 20
105.7978865559527
 30
0.0
 11
597.8445215450999
 21
105.7978865559527
 31
0.0
  0
SOLID
  5
98
330
93
100
AcDbEntity
  8
DIM
  6
CONTINUOUS
 62
     0
100
AcDbTrace
 10
617.2509999999999
 20
106.2145532226194
 30
0.0
 11
617.2509999999999
 21
105.3812198892861
 31
0.0
 12
614.7509999999999
 22
105.7978865559527
 32
0.0
 13
614.7509999999999
 23
105.7978865559527
 33
0.0
  0
SOLID
  5
99
330
93
100
AcDbEntity
  8
DIM
  6
CONTINUOUS
 62
     0
100
AcDbTrace
 10
609.7509999999999
 20
106.2145532226194
 30
0.0
 11
609.7509999999999
 21
105.3812198892861
 31
0.0
 12
612.251
 22
105.7978865559527
 32
0.0
 13
612.251
 23
105.7978865559527
 33
0.0
  0
MTEXT
  5
9A
330
93
100
AcDbEntity
  8
DIM
  6
CONTINUOUS
 62
     4
100
AcDbMText
 10
600.4738701126306
 20
107.9422931043839
 30
0.0
 40
3.0
 41
0.0
 71
     5
 72
     1
  1
\A1;2.5
  7
TSTYLE5
1001
ACAD
1000
MTEXTBEGIN
1070
    73
1070
     1
1070
    44
1040
1.0
1070
    74
1070
     0
1000
MTEXTEND
  0
POINT
  5
9B
330
93
100
AcDbEntity
  8
DEFPOINTS
  6
CONTINUOUS
 62
     0
100
AcDbPoint
 10
614.7509999999999
 20
115.267
 30
0.0
  0
POINT
  5
9C
330
93
100
AcDbEntity
  8
DEFPOINTS
  6
CONTINUOUS
 62
     0
100
AcDbPoint
 10
612.251
 20
115.267
 30
0.0
  0
POINT
  5
9D
330
93
100
AcDbEntity
  8
DEFPOINTS
  6
CONTINUOUS
 62
     0
100
AcDbPoint
 10
612.251
 20
105.7978865559527
 30
0.0
  0
ENDBLK
  5
9F
330
93
100
AcDbEntity
  8
0
100
AcDbBlockEnd
  0
BLOCK
  5
AA
330
A0
100
AcDbEntity
  8
0
100
AcDbBlockBegin
  2
*D5
 70
     1
 10
0.0
 20
0.0
 30
0.0
  3
*D5
  1

  0
LINE
  5
A1
330
A0
100
AcDbEntity
  8
DIM
  6
CONTINUOUS
 62
     0
100
AcDbLine
 10
621.837
 20
153.861
 30
0.0
 11
648.4786107685991
 21
153.861
 31
0.0
  0
LINE
  5
A2
330
A0
100
AcDbEntity
  8
DIM
  6
CONTINUOUS
 62
     0
100
AcDbLine
 10
641.4119999999999
 20
121.061
 30
0.0
 11
648.4786107685991
 21
121.061
 31
0.0
  0
LINE
  5
A3
330
A0
100
AcDbEntity
  8
DIM
  6
CONTINUOUS
 62
     0
100
AcDbLine
 10
647.478610768599
 20
151.3609999999999
 30
0.0
 11
647.478610768599
 21
123.561
 31
0.0
  0
SOLID
  5
A4
330
A0
100
AcDbEntity
  8
DIM
  6
CONTINUOUS
 62
     0
100
AcDbTrace
 10
647.0619441019324
 20
151.3609999999999
 30
0.0
 11
647.8952774352657
 21
151.3609999999999
 31
0.0
 12
647.478610768599
 22
153.861
 32
0.0
 13
647.478610768599
 23
153.861
 33
0.0
  0
SOLID
  5
A5
330
A0
100
AcDbEntity
  8
DIM
  6
CONTINUOUS
 62
     0
100
AcDbTrace
 10
647.0619441019324
 20
123.561
 30
0.0
 11
647.8952774352657
 21
123.561
 31
0.0
 12
647.478610768599
 22
121.061
 32
0.0
 13
647.478610768599
 23
121.061
 33
0.0
  0
MTEXT
  5
A6
330
A0
100
AcDbEntity
  8
DIM
  6
CONTINUOUS
 62
     4
100
AcDbMText
 10
645.3327717508638
 20
137.2944699903879
 30
0.0
 40
3.0
 41
0.0
 71
     5
 72
     1
  1
\A1;32.8
  7
TSTYLE5
 11
0.0000000000000001
 21
1.0
 31
0.0
1001
ACAD
1000
MTEXTBEGIN
1070
    73
1070
     1
1070
    44
1040
1.0
1070
    74
1070
     0
1000
MTEXTEND
  0
POINT
  5
A7
330
A0
100
AcDbEntity
  8
DEFPOINTS
  6
CONTINUOUS
 62
     0
100
AcDbPoint
 10
620.7259999999999
 20
153.861
 30
0.0
  0
POINT
  5
A8
330
A0
100
AcDbEntity
  8
DEFPOINTS
  6
CONTINUOUS
 62
     0
100
AcDbPoint
 10
640.3009999999999
 20
121.061
 30
0.0
  0
POINT
  5
A9
330
A0
100
AcDbEntity
  8
DEFPOINTS
  6
CONTINUOUS
 62
     0
100
AcDbPoint
 10
647.478610768599
 20
121.061
 30
0.0
  0
ENDBLK
  5
AB
330
A0
100
AcDbEntity
  8
0
100
AcDbBlockEnd
  0
BLOCK
  5
B6
330
AC
100
AcDbEntity
  8
0
100
AcDbBlockBegin
  2
*D6
 70
     1
 10
0.0
 20
0.0
 30
0.0
  3
*D6
  1

  0
LINE
  5
AD
330
AC
100
AcDbEntity
  8
DIM
  6
CONTINUOUS
 62
     0
100
AcDbLine
 10
611.3009999999999
 20
154.853
 30
0.0
 11
611.3009999999999
 21
161.561
 31
0.0
  0
LINE
  5
AE
330
AC
100
AcDbEntity
  8
DIM
  6
CONTINUOUS
 62
     0
100
AcDbLine
 10
640.3009999999999
 20
154.853
 30
0.0
 11
640.3009999999999
 21
161.561
 31
0.0
  0
LINE
  5
AF
330
AC
100
AcDbEntity
  8
DIM
  6
CONTINUOUS
 62
     0
100
AcDbLine
 10
613.8009999999999
 20
160.561
 30
0.0
 11
637.8009999999999
 21
160.561
 31
0.0
  0
SOLID
  5
B0
330
AC
100
AcDbEntity
  8
DIM
  6
CONTINUOUS
 62
     0
100
AcDbTrace
 10
613.8009999999999
 20
160.9776666666666
 30
0.0
 11
613.8009999999999
 21
160.1443333333333
 31
0.0
 12
611.3009999999999
 22
160.561
 32
0.0
 13
611.3009999999999
 23
160.561
 33
0.0
  0
SOLID
  5
B1
330
AC
100
AcDbEntity
  8
DIM
  6
CONTINUOUS
 62
     0
100
AcDbTrace
 10
637.8009999999999
 20
160.9776666666666
 30
0.0
 11
637.8009999999999
 21
160.1443333333333
 31
0.0
 12
640.3009999999999
 22
160.561
 32
0.0
 13
640.3009999999999
 23
160.561
 33
0.0
  0
MTEXT
  5
B2
330
AC
100
AcDbEntity
  8
DIM
  6
CONTINUOUS
 62
     4
100
AcDbMText
 10
625.8009999999999
 20
162.7054065484311
 30
0.0
 40
3.0
 41
0.0
 71
     5
 72
     1
  1
\A1;29
  7
TSTYLE5
1001
ACAD
1000
MTEXTBEGIN
1070
    73
1070
     1
1070
    44
1040
1.0
1070
    74
1070
     0
1000
MTEXTEND
  0
POINT
  5
B3
330
AC
100
AcDbEntity
  8
DEFPOINTS
  6
CONTINUOUS
 62
     0
100
AcDbPoint
 10
611.3009999999999
 20
121.061
 30
0.0
  0
POINT
  5
B4
330
AC
100
AcDbEntity
  8
DEFPOINTS
  6
CONTINUOUS
 62
     0
100
AcDbPoint
 10
640.3009999999999
 20
121.061
 30
0.0
  0
POINT
  5
B5
330
AC
100
AcDbEntity
  8
DEFPOINTS
  6
CONTINUOUS
 62
     0
100
AcDbPoint
 10
640.3009999999999
 20
160.561
 30
0.0
  0
ENDBLK
  5
B7
330
AC
100
AcDbEntity
  8
0
100
AcDbBlockEnd
  0
BLOCK
  5
C3
330
B8
100
AcDbEntity
  8
0
100
AcDbBlockBegin
  2
*D7
 70
     1
 10
0.0
 20
0.0
 30
0.0
  3
*D7
  1

  0
LINE
  5
B9
330
B8
100
AcDbEntity
  8
DIM
  6
CONTINUOUS
 62
     0
100
AcDbLine
 10
655.955
 20
154.5659999999999
 30
0.0
 11
655.955
 21
161.561
 31
0.0
  0
LINE
  5
BA
330
B8
100
AcDbEntity
  8
DIM
  6
CONTINUOUS
 62
     0
100
AcDbLine
 10
668.355
 20
154.5659999999999
 30
0.0
 11
668.355
 21
161.561
 31
0.0
  0
LINE
  5
BB
330
B8
100
AcDbEntity
  8
DIM
  6
CONTINUOUS
 62
     0
100
AcDbLine
 10
658.455
 20
160.561
 30
0.0
 11
665.8549999999999
 21
160.561
 31
0.0
  0
LINE
  5
BC
330
B8
100
AcDbEntity
  8
DIM
  6
CONTINUOUS
 62
     0
100
AcDbLine
 10
668.355
 20
160.561
 30
0.0
 11
684.1485279672578
 21
160.561
 31
0.0
  0
SOLID
  5
BD
330
B8
100
AcDbEntity
  8
DIM
  6
CONTINUOUS
 62
     0
100
AcDbTrace
 10
658.455
 20
160.9776666666666
 30
0.0
 11
658.455
 21
160.1443333333333
 31
0.0
 12
655.955
 22
160.561
 32
0.0
 13
655.955
 23
160.561
 33
0.0
  0
SOLID
  5
BE
330
B8
100
AcDbEntity
  8
DIM
  6
CONTINUOUS
 62
     0
100
AcDbTrace
 10
665.8549999999999
 20
160.9776666666666
 30
0.0
 11
665.8549999999999
 21
160.1443333333333
 31
0.0
 12
668.355
 22
160.561
 32
0.0
 13
668.355
 23
160.561
 33
0.0
  0
MTEXT
  5
BF
330
B8
100
AcDbEntity
  8
DIM
  6
CONTINUOUS
 62
     4
100
AcDbMText
 10
680.5869999999999
 20
162.6695948158253
 30
0.0
 40
3.0
 41
0.0
 71
     5
 72
     1
  1
\A1;12.4
  7
TSTYLE5
1001
ACAD
1000
MTEXTBEGIN
1070
    73
1070
     1
1070
    44
1040
1.0
1070
    74
1070
     0
1000
MTEXTEND
  0
POINT
  5
C0
330
B8
100
AcDbEntity
  8
DEFPOINTS
  6
CONTINUOUS
 62
     0
100
AcDbPoint
 10
655.955
 20
121.061
 30
0.0
  0
POINT
  5
C1
330
B8
100
AcDbEntity
  8
DEFPOINTS
  6
CONTINUOUS
 62
     0
100
AcDbPoint
 10
668.355
 20
121.061
 30
0.0
  0
POINT
  5
C2
330
B8
100
AcDbEntity
  8
DEFPOINTS
  6
CONTINUOUS
 62
     0
100
AcDbPoint
 10
668.355
 20
160.561
 30
0.0
  0
ENDBLK
  5
C4
330
B8
100
AcDbEntity
  8
0
100
AcDbBlockEnd
  0
BLOCK
  5
CF
330
C5
100
AcDbEntity
  8
0
100
AcDbBlockBegin
  2
*D8
 70
     1
 10
0.0
 20
0.0
 30
0.0
  3
*D8
  1

  0
LINE
  5
C6
330
C5
100
AcDbEntity
  8
DIM
  6
CONTINUOUS
 62
     0
100
AcDbLine
 10
610.1899999999999
 20
121.061
 30
0.0
 11
599.493
 21
121.061
 31
0.0
  0
LINE
  5
C7
330
C5
100
AcDbEntity
  8
DIM
  6
CONTINUOUS
 62
     0
100
AcDbLine
 10
608.1899999999999
 20
141.061
 30
0.0
 11
599.493
 21
141.061
 31
0.0
  0
LINE
  5
C8
330
C5
100
AcDbEntity
  8
DIM
  6
CONTINUOUS
 62
     0
100
AcDbLine
 10
600.493
 20
123.561
 30
0.0
 11
600.493
 21
138.5609999999999
 31
0.0
  0
SOLID
  5
C9
330
C5
100
AcDbEntity
  8
DIM
  6
CONTINUOUS
 62
     0
100
AcDbTrace
 10
600.0763333333334
 20
123.561
 30
0.0
 11
600.9096666666667
 21
123.561
 31
0.0
 12
600.493
 22
121.061
 32
0.0
 13
600.493
 23
121.061
 33
0.0
  0
SOLID
  5
CA
330
C5
100
AcDbEntity
  8
DIM
  6
CONTINUOUS
 62
     0
100
AcDbTrace
 10
600.0763333333334
 20
138.5609999999999
 30
0.0
 11
600.9096666666667
 21
138.5609999999999
 31
0.0
 12
600.493
 22
141.061
 32
0.0
 13
600.493
 23
141.061
 33
0.0
  0
MTEXT
  5
CB
330
C5
100
AcDbEntity
  8
DIM
  6
CONTINUOUS
 62
     4
100
AcDbMText
 10
598.3485934515689
 20
131.061
 30
0.0
 40
3.0
 41
0.0
 71
     5
 72
     1
  1
\A1;20
  7
TSTYLE5
 11
0.0000000000000001
 21
1.0
 31
0.0
1001
ACAD
1000
MTEXTBEGIN
1070
    73
1070
     1
1070
    44
1040
1.0
1070
    74
1070
     0
1000
MTEXTEND
  0
POINT
  5
CC
330
C5
100
AcDbEntity
  8
DEFPOINTS
  6
CONTINUOUS
 62
     0
100
AcDbPoint
 10
611.3009999999999
 20
121.061
 30
0.0
  0
POINT
  5
CD
330
C5
100
AcDbEntity
  8
DEFPOINTS
  6
CONTINUOUS
 62
     0
100
AcDbPoint
 10
609.3009999999999
 20
141.061
 30
0.0
  0
POINT
  5
CE
330
C5
100
AcDbEntity
  8
DEFPOINTS
  6
CONTINUOUS
 62
     0
100
AcDbPoint
 10
600.493
 20
141.061
 30
0.0
  0
ENDBLK
  5
D0
330
C5
100
AcDbEntity
  8
0
100
AcDbBlockEnd
  0
BLOCK
  5
35C
330
351
100
AcDbEntity
  8
0
100
AcDbBlockBegin
  2
*D10
 70
     1
 10
0.0
 20
0.0
 30
0.0
  3
*D10
  1

  0
LINE
  5
42C
330
351
100
AcDbEntity
  8
DIM
  6
CONTINUOUS
 62
     0
100
AcDbLine
 10
547.4967552042703
 20
359.7281496238511
 30
0.0
 11
547.4967552042703
 21
350.8511483159044
 31
0.0
  0
LINE
  5
42D
330
351
100
AcDbEntity
  8
DIM
  6
CONTINUOUS
 62
     0
100
AcDbLine
 10
544.9967552042703
 20
359.7281496238511
 30
0.0
 11
544.9967552042703
 21
350.8511483159044
 31
0.0
  0
LINE
  5
42E
330
351
100
AcDbEntity
  8
DIM
  6
CONTINUOUS
 62
     0
100
AcDbLine
 10
542.4967552042703
 20
351.8511483159044
 30
0.0
 11
539.9967552042703
 21
351.8511483159044
 31
0.0
  0
LINE
  5
42F
330
351
100
AcDbEntity
  8
DIM
  6
CONTINUOUS
 62
     0
100
AcDbLine
 10
549.9967552042703
 20
351.8511483159044
 30
0.0
 11
560.8031372803998
 21
351.8511483159044
 31
0.0
  0
SOLID
  5
430
330
351
100
AcDbEntity
  8
DIM
  6
CONTINUOUS
 62
     0
100
AcDbTrace
 10
542.4967552042703
 20
352.2678149825711
 30
0.0
 11
542.4967552042703
 21
351.4344816492377
 31
0.0
 12
544.9967552042703
 22
351.8511483159044
 32
0.0
 13
544.9967552042703
 23
351.8511483159044
 33
0.0
  0
SOLID
  5
431
330
351
100
AcDbEntity
  8
DIM
  6
CONTINUOUS
 62
     0
100
AcDbTrace
 10
549.9967552042703
 20
352.2678149825711
 30
0.0
 11
549.9967552042703
 21
351.4344816492377
 31
0.0
 12
547.4967552042703
 22
351.8511483159044
 32
0.0
 13
547.4967552042703
 23
351.8511483159044
 33
0.0
  0
MTEXT
  5
432
330
351
100
AcDbEntity
  8
DIM
  6
CONTINUOUS
 62
     4
100
AcDbMText
 10
558.173788712869
 20
353.9955548643355
 30
0.0
 40
3.0
 41
0.0
 71
     5
 72
     1
  1
\A1;2.5
  7
TSTYLE5
  0
POINT
  5
433
330
351
100
AcDbEntity
  8
DEFPOINTS
  6
CONTINUOUS
 62
     0
100
AcDbPoint
 10
547.4967552042703
 20
361.1421496238511
 30
0.0
  0
POINT
  5
434
330
351
100
AcDbEntity
  8
DEFPOINTS
  6
CONTINUOUS
 62
     0
100
AcDbPoint
 10
544.9967552042703
 20
361.1421496238511
 30
0.0
  0
POINT
  5
435
330
351
100
AcDbEntity
  8
DEFPOINTS
  6
CONTINUOUS
 62
     0
100
AcDbPoint
 10
544.9967552042703
 20
351.8511483159044
 30
0.0
  0
ENDBLK
  5
35D
330
351
100
AcDbEntity
  8
0
100
AcDbBlockEnd
  0
BLOCK
  5
369
330
35E
100
AcDbEntity
  8
0
100
AcDbBlockBegin
  2
*D11
 70
     1
 10
0.0
 20
0.0
 30
0.0
  3
*D11
  1

  0
LINE
  5
436
330
35E
100
AcDbEntity
  8
DIM
  6
CONTINUOUS
 62
     0
100
AcDbLine
 10
521.8037552042702
 20
366.9421496238511
 30
0.0
 11
528.8703659728695
 21
366.9421496238511
 31
0.0
  0
LINE
  5
437
330
35E
100
AcDbEntity
  8
DIM
  6
CONTINUOUS
 62
     0
100
AcDbLine
 10
519.4827552042703
 20
360.4421496238511
 30
0.0
 11
528.8703659728695
 21
360.4421496238511
 31
0.0
  0
LINE
  5
438
330
35E
100
AcDbEntity
  8
DIM
  6
CONTINUOUS
 62
     0
100
AcDbLine
 10
527.8703659728695
 20
364.4421496238511
 30
0.0
 11
527.8703659728695
 21
362.9421496238511
 31
0.0
  0
LINE
  5
439
330
35E
100
AcDbEntity
  8
DIM
  6
CONTINUOUS
 62
     0
100
AcDbLine
 10
527.8703659728695
 20
360.4421496238511
 30
0.0
 11
527.8703659728695
 21
347.1729746377169
 31
0.0
  0
SOLID
  5
43A
330
35E
100
AcDbEntity
  8
DIM
  6
CONTINUOUS
 62
     0
100
AcDbTrace
 10
527.4536993062029
 20
364.4421496238511
 30
0.0
 11
528.2870326395361
 21
364.4421496238511
 31
0.0
 12
527.8703659728695
 22
366.9421496238511
 32
0.0
 13
527.8703659728695
 23
366.9421496238511
 33
0.0
  0
SOLID
  5
43B
330
35E
100
AcDbEntity
  8
DIM
  6
CONTINUOUS
 62
     0
100
AcDbTrace
 10
527.4536993062029
 20
362.9421496238511
 30
0.0
 11
528.2870326395361
 21
362.9421496238511
 31
0.0
 12
527.8703659728695
 22
360.4421496238511
 32
0.0
 13
527.8703659728695
 23
360.4421496238511
 33
0.0
  0
MTEXT
  5
43C
330
35E
100
AcDbEntity
  8
DIM
  6
CONTINUOUS
 62
     4
100
AcDbMText
 10
525.7259594244382
 20
349.785798648631
 30
0.0
 40
3.0
 41
0.0
 71
     5
 72
     1
  1
\A1;6.5
  7
TSTYLE5
 11
0.0000000000000001
 21
1.0
 31
0.0
  0
POINT
  5
43D
330
35E
100
AcDbEntity
  8
DEFPOINTS
  6
CONTINUOUS
 62
     0
100
AcDbPoint
 10
520.6927552042702
 20
366.9421496238511
 30
0.0
  0
POINT
  5
43E
330
35E
100
AcDbEntity
  8
DEFPOINTS
  6
CONTINUOUS
 62
     0
100
AcDbPoint
 10
518.3717552042703
 20
360.4421496238511
 30
0.0
  0
POINT
  5
43F
330
35E
100
AcDbEntity
  8
DEFPOINTS
  6
CONTINUOUS
 62
     0
100
AcDbPoint
 10
527.8703659728695
 20
360.4421496238511
 30
0.0
  0
ENDBLK
  5
36A
330
35E
100
AcDbEntity
  8
0
100
AcDbBlockEnd
  0
BLOCK
  5
376
330
36B
100
AcDbEntity
  8
0
100
AcDbBlockBegin
  2
*D12
 70
     1
 10
0.0
 20
0.0
 30
0.0
  3
*D12
  1

  0
LINE
  5
440
330
36B
100
AcDbEntity
  8
DIM
  6
CONTINUOUS
 62
     0
100
AcDbLine
 10
508.5427552042703
 20
359.6821496238511
 30
0.0
 11
508.5427552042703
 21
350.8511483159044
 31
0.0
  0
LINE
  5
441
330
36B
100
AcDbEntity
  8
DIM
  6
CONTINUOUS
 62
     0
100
AcDbLine
 10
508.0427552042703
 20
359.6821496238511
 30
0.0
 11
508.0427552042703
 21
350.8511483159044
 31
0.0
  0
LINE
  5
442
330
36B
100
AcDbEntity
  8
DIM
  6
CONTINUOUS
 62
     0
100
AcDbLine
 10
505.5427552042702
 20
351.8511483159044
 30
0.0
 11
503.0427552042702
 21
351.8511483159044
 31
0.0
  0
LINE
  5
443
330
36B
100
AcDbEntity
  8
DIM
  6
CONTINUOUS
 62
     0
100
AcDbLine
 10
511.0427552042702
 20
351.8511483159044
 30
0.0
 11
521.3499512226657
 21
351.8511483159044
 31
0.0
  0
SOLID
  5
444
330
36B
100
AcDbEntity
  8
DIM
  6
CONTINUOUS
 62
     0
100
AcDbTrace
 10
505.5427552042702
 20
352.2678149825711
 30
0.0
 11
505.5427552042702
 21
351.4344816492377
 31
0.0
 12
508.0427552042703
 22
351.8511483159044
 32
0.0
 13
508.0427552042703
 23
351.8511483159044
 33
0.0
  0
SOLID
  5
445
330
36B
100
AcDbEntity
  8
DIM
  6
CONTINUOUS
 62
     0
100
AcDbTrace
 10
511.0427552042702
 20
352.2678149825711
 30
0.0
 11
511.0427552042702
 21
351.4344816492377
 31
0.0
 12
508.5427552042703
 22
351.8511483159044
 32
0.0
 13
508.5427552042703
 23
351.8511483159044
 33
0.0
  0
MTEXT
  5
446
330
36B
100
AcDbEntity
  8
DIM
  6
CONTINUOUS
 62
     4
100
AcDbMText
 10
518.7449034736889
 20
353.9955548643355
 30
0.0
 40
3.0
 41
0.0
 71
     5
 72
     1
  1
\A1;0.5
  7
TSTYLE5
  0
POINT
  5
447
330
36B
100
AcDbEntity
  8
DEFPOINTS
  6
CONTINUOUS
 62
     0
100
AcDbPoint
 10
508.5427552042703
 20
361.1421496238511
 30
0.0
  0
POINT
  5
448
330
36B
100
AcDbEntity
  8
DEFPOINTS
  6
CONTINUOUS
 62
     0
100
AcDbPoint
 10
508.0427552042703
 20
361.1421496238511
 30
0.0
  0
POINT
  5
449
330
36B
100
AcDbEntity
  8
DEFPOINTS
  6
CONTINUOUS
 62
     0
100
AcDbPoint
 10
508.0427552042703
 20
351.8511483159044
 30
0.0
  0
ENDBLK
  5
377
330
36B
100
AcDbEntity
  8
0
100
AcDbBlockEnd
  0
BLOCK
  5
383
330
378
100
AcDbEntity
  8
0
100
AcDbBlockBegin
  2
*D13
 70
     1
 10
0.0
 20
0.0
 30
0.0
  3
*D13
  1

  0
LINE
  5
44A
330
378
100
AcDbEntity
  8
DIM
  6
CONTINUOUS
 62
     0
100
AcDbLine
 10
495.1427552042702
 20
359.8091496238511
 30
0.0
 11
495.1427552042702
 21
350.6790361798039
 31
0.0
  0
LINE
  5
44B
330
378
100
AcDbEntity
  8
DIM
  6
CONTINUOUS
 62
     0
100
AcDbLine
 10
492.6427552042703
 20
359.8091496238511
 30
0.0
 11
492.6427552042703
 21
350.6790361798039
 31
0.0
  0
LINE
  5
44C
330
378
100
AcDbEntity
  8
DIM
  6
CONTINUOUS
 62
     0
100
AcDbLine
 10
497.6427552042703
 20
351.6790361798039
 30
0.0
 11
500.1427552042703
 21
351.6790361798039
 31
0.0
  0
LINE
  5
44D
330
378
100
AcDbEntity
  8
DIM
  6
CONTINUOUS
 62
     0
100
AcDbLine
 10
490.1427552042703
 20
351.6790361798039
 30
0.0
 11
478.2362767493704
 21
351.6790361798039
 31
0.0
  0
SOLID
  5
44E
330
378
100
AcDbEntity
  8
DIM
  6
CONTINUOUS
 62
     0
100
AcDbTrace
 10
497.6427552042703
 20
352.0957028464706
 30
0.0
 11
497.6427552042703
 21
351.2623695131372
 31
0.0
 12
495.1427552042702
 22
351.6790361798039
 32
0.0
 13
495.1427552042702
 23
351.6790361798039
 33
0.0
  0
SOLID
  5
44F
330
378
100
AcDbEntity
  8
DIM
  6
CONTINUOUS
 62
     0
100
AcDbTrace
 10
490.1427552042703
 20
352.0957028464706
 30
0.0
 11
490.1427552042703
 21
351.2623695131372
 31
0.0
 12
492.6427552042703
 22
351.6790361798039
 32
0.0
 13
492.6427552042703
 23
351.6790361798039
 33
0.0
  0
MTEXT
  5
450
330
378
100
AcDbEntity
  8
DIM
  6
CONTINUOUS
 62
     4
100
AcDbMText
 10
480.8656253169011
 20
353.823442728235
 30
0.0
 40
3.0
 41
0.0
 71
     5
 72
     1
  1
\A1;2.5
  7
TSTYLE5
  0
POINT
  5
451
330
378
100
AcDbEntity
  8
DEFPOINTS
  6
CONTINUOUS
 62
     0
100
AcDbPoint
 10
495.1427552042702
 20
361.1481496238511
 30
0.0
  0
POINT
  5
452
330
378
100
AcDbEntity
  8
DEFPOINTS
  6
CONTINUOUS
 62
     0
100
AcDbPoint
 10
492.6427552042703
 20
361.1481496238511
 30
0.0
  0
POINT
  5
453
330
378
100
AcDbEntity
  8
DEFPOINTS
  6
CONTINUOUS
 62
     0
100
AcDbPoint
 10
492.6427552042703
 20
351.6790361798039
 30
0.0
  0
ENDBLK
  5
384
330
378
100
AcDbEntity
  8
0
100
AcDbBlockEnd
  0
BLOCK
  5
38F
330
385
100
AcDbEntity
  8
0
100
AcDbBlockBegin
  2
*D14
 70
     1
 10
0.0
 20
0.0
 30
0.0
  3
*D14
  1

  0
LINE
  5
454
330
385
100
AcDbEntity
  8
DIM
  6
CONTINUOUS
 62
     0
100
AcDbLine
 10
490.5817552042702
 20
366.9421496238511
 30
0.0
 11
479.8847552042704
 21
366.9421496238511
 31
0.0
  0
LINE
  5
455
330
385
100
AcDbEntity
  8
DIM
  6
CONTINUOUS
 62
     0
100
AcDbLine
 10
488.5817552042702
 20
386.9421496238511
 30
0.0
 11
479.8847552042705
 21
386.9421496238511
 31
0.0
  0
LINE
  5
456
330
385
100
AcDbEntity
  8
DIM
  6
CONTINUOUS
 62
     0
100
AcDbLine
 10
480.8847552042704
 20
369.4421496238511
 30
0.0
 11
480.8847552042704
 21
384.4421496238511
 31
0.0
  0
SOLID
  5
457
330
385
100
AcDbEntity
  8
DIM
  6
CONTINUOUS
 62
     0
100
AcDbTrace
 10
480.4680885376037
 20
369.4421496238511
 30
0.0
 11
481.3014218709371
 21
369.4421496238511
 31
0.0
 12
480.8847552042704
 22
366.9421496238511
 32
0.0
 13
480.8847552042704
 23
366.9421496238511
 33
0.0
  0
SOLID
  5
458
330
385
100
AcDbEntity
  8
DIM
  6
CONTINUOUS
 62
     0
100
AcDbTrace
 10
480.4680885376038
 20
384.4421496238511
 30
0.0
 11
481.3014218709372
 21
384.4421496238511
 31
0.0
 12
480.8847552042704
 22
386.9421496238511
 32
0.0
 13
480.8847552042704
 23
386.9421496238511
 33
0.0
  0
MTEXT
  5
459
330
385
100
AcDbEntity
  8
DIM
  6
CONTINUOUS
 62
     4
100
AcDbMText
 10
478.7403486558392
 20
376.9421496238511
 30
0.0
 40
3.0
 41
0.0
 71
     5
 72
     1
  1
\A1;20
  7
TSTYLE5
 11
0.0000000000000001
 21
1.0
 31
0.0
  0
POINT
  5
45A
330
385
100
AcDbEntity
  8
DEFPOINTS
  6
CONTINUOUS
 62
     0
100
AcDbPoint
 10
491.6927552042702
 20
366.9421496238511
 30
0.0
  0
POINT
  5
45B
330
385
100
AcDbEntity
  8
DEFPOINTS
  6
CONTINUOUS
 62
     0
100
AcDbPoint
 10
489.6927552042702
 20
386.9421496238511
 30
0.0
  0
POINT
  5
45C
330
385
100
AcDbEntity
  8
DEFPOINTS
  6
CONTINUOUS
 62
     0
100
AcDbPoint
 10
480.8847552042704
 20
386.9421496238511
 30
0.0
  0
ENDBLK
  5
390
330
385
100
AcDbEntity
  8
0
100
AcDbBlockEnd
  0
BLOCK
  5
39C
330
391
100
AcDbEntity
  8
0
100
AcDbBlockBegin
  2
*D15
 70
     1
 10
0.0
 20
0.0
 30
0.0
  3
*D15
  1

  0
LINE
  5
45D
330
391
100
AcDbEntity
  8
DIM
  6
CONTINUOUS
 62
     0
100
AcDbLine
 10
536.3467552042703
 20
400.4471496238511
 30
0.0
 11
536.3467552042703
 21
407.4421496238511
 31
0.0
  0
LINE
  5
45E
330
391
100
AcDbEntity
  8
DIM
  6
CONTINUOUS
 62
     0
100
AcDbLine
 10
548.7467552042703
 20
400.4471496238511
 30
0.0
 11
548.7467552042703
 21
407.4421496238511
 31
0.0
  0
LINE
  5
45F
330
391
100
AcDbEntity
  8
DIM
  6
CONTINUOUS
 62
     0
100
AcDbLine
 10
538.8467552042704
 20
406.4421496238511
 30
0.0
 11
546.2467552042703
 21
406.4421496238511
 31
0.0
  0
LINE
  5
460
330
391
100
AcDbEntity
  8
DIM
  6
CONTINUOUS
 62
     0
100
AcDbLine
 10
548.7467552042703
 20
406.4421496238511
 30
0.0
 11
564.5402831715282
 21
406.4421496238511
 31
0.0
  0
SOLID
  5
461
330
391
100
AcDbEntity
  8
DIM
  6
CONTINUOUS
 62
     0
100
AcDbTrace
 10
538.8467552042704
 20
406.8588162905178
 30
0.0
 11
538.8467552042704
 21
406.0254829571844
 31
0.0
 12
536.3467552042703
 22
406.4421496238511
 32
0.0
 13
536.3467552042703
 23
406.4421496238511
 33
0.0
  0
SOLID
  5
462
330
391
100
AcDbEntity
  8
DIM
  6
CONTINUOUS
 62
     0
100
AcDbTrace
 10
546.2467552042703
 20
406.8588162905178
 30
0.0
 11
546.2467552042703
 21
406.0254829571844
 31
0.0
 12
548.7467552042703
 22
406.4421496238511
 32
0.0
 13
548.7467552042703
 23
406.4421496238511
 33
0.0
  0
MTEXT
  5
463
330
391
100
AcDbEntity
  8
DIM
  6
CONTINUOUS
 62
     4
100
AcDbMText
 10
560.9787552042702
 20
408.5507444396765
 30
0.0
 40
3.0
 41
0.0
 71
     5
 72
     1
  1
\A1;12.4
  7
TSTYLE5
  0
POINT
  5
464
330
391
100
AcDbEntity
  8
DEFPOINTS
  6
CONTINUOUS
 62
     0
100
AcDbPoint
 10
536.3467552042703
 20
366.9421496238511
 30
0.0
  0
POINT
  5
465
330
391
100
AcDbEntity
  8
DEFPOINTS
  6
CONTINUOUS
 62
     0
100
AcDbPoint
 10
548.7467552042703
 20
366.9421496238511
 30
0.0
  0
POINT
  5
466
330
391
100
AcDbEntity
  8
DEFPOINTS
  6
CONTINUOUS
 62
     0
100
AcDbPoint
 10
548.7467552042703
 20
406.4421496238511
 30
0.0
  0
ENDBLK
  5
39D
330
391
100
AcDbEntity
  8
0
100
AcDbBlockEnd
  0
BLOCK
  5
3A8
330
39E
100
AcDbEntity
  8
0
100
AcDbBlockBegin
  2
*D16
 70
     1
 10
0.0
 20
0.0
 30
0.0
  3
*D16
  1

  0
LINE
  5
467
330
39E
100
AcDbEntity
  8
DIM
  6
CONTINUOUS
 62
     0
100
AcDbLine
 10
491.6927552042702
 20
400.7341496238511
 30
0.0
 11
491.6927552042702
 21
407.4421496238511
 31
0.0
  0
LINE
  5
468
330
39E
100
AcDbEntity
  8
DIM
  6
CONTINUOUS
 62
     0
100
AcDbLine
 10
520.6927552042702
 20
400.7341496238511
 30
0.0
 11
520.6927552042702
 21
407.4421496238511
 31
0.0
  0
LINE
  5
469
330
39E
100
AcDbEntity
  8
DIM
  6
CONTINUOUS
 62
     0
100
AcDbLine
 10
494.1927552042702
 20
406.4421496238511
 30
0.0
 11
518.1927552042703
 21
406.4421496238511
 31
0.0
  0
SOLID
  5
46A
330
39E
100
AcDbEntity
  8
DIM
  6
CONTINUOUS
 62
     0
100
AcDbTrace
 10
494.1927552042702
 20
406.8588162905178
 30
0.0
 11
494.1927552042702
 21
406.0254829571844
 31
0.0
 12
491.6927552042702
 22
406.4421496238511
 32
0.0
 13
491.6927552042702
 23
406.4421496238511
 33
0.0
  0
SOLID
  5
46B
330
39E
100
AcDbEntity
  8
DIM
  6
CONTINUOUS
 62
     0
100
AcDbTrace
 10
518.1927552042703
 20
406.8588162905178
 30
0.0
 11
518.1927552042703
 21
406.0254829571844
 31
0.0
 12
520.6927552042702
 22
406.4421496238511
 32
0.0
 13
520.6927552042702
 23
406.4421496238511
 33
0.0
  0
MTEXT
  5
46C
330
39E
100
AcDbEntity
  8
DIM
  6
CONTINUOUS
 62
     4
100
AcDbMText
 10
506.1927552042702
 20
408.5865561722823
 30
0.0
 40
3.0
 41
0.0
 71
     5
 72
     1
  1
\A1;29
  7
TSTYLE5
  0
POINT
  5
46D
330
39E
100
AcDbEntity
  8
DEFPOINTS
  6
CONTINUOUS
 62
     0
100
AcDbPoint
 10
491.6927552042702
 20
366.9421496238511
 30
0.0
  0
POINT
  5
46E
330
39E
100
AcDbEntity
  8
DEFPOINTS
  6
CONTINUOUS
 62
     0
100
AcDbPoint
 10
520.6927552042702
 20
366.9421496238511
 30
0.0
  0
POINT
  5
46F
330
39E
100
AcDbEntity
  8
DEFPOINTS
  6
CONTINUOUS
 62
     0
100
AcDbPoint
 10
520.6927552042702
 20
406.4421496238511
 30
0.0
  0
ENDBLK
  5
3A9
330
39E
100
AcDbEntity
  8
0
100
AcDbBlockEnd
  0
BLOCK
  5
3B4
330
3AA
100
AcDbEntity
  8
0
100
AcDbBlockBegin
  2
*D17
 70
     1
 10
0.0
 20
0.0
 30
0.0
  3
*D17
  1

  0
LINE
  5
470
330
3AA
100
AcDbEntity
  8
DIM
  6
CONTINUOUS
 62
     0
100
AcDbLine
 10
502.2287552042703
 20
399.7421496238511
 30
0.0
 11
528.8703659728695
 21
399.7421496238511
 31
0.0
  0
LINE
  5
471
330
3AA
100
AcDbEntity
  8
DIM
  6
CONTINUOUS
 62
     0
100
AcDbLine
 10
521.8037552042702
 20
366.9421496238511
 30
0.0
 11
528.8703659728695
 21
366.9421496238511
 31
0.0
  0
LINE
  5
472
330
3AA
100
AcDbEntity
  8
DIM
  6
CONTINUOUS
 62
     0
100
AcDbLine
 10
527.8703659728695
 20
397.242149623851
 30
0.0
 11
527.8703659728695
 21
369.4421496238511
 31
0.0
  0
SOLID
  5
473
330
3AA
100
AcDbEntity
  8
DIM
  6
CONTINUOUS
 62
     0
100
AcDbTrace
 10
527.4536993062029
 20
397.242149623851
 30
0.0
 11
528.2870326395361
 21
397.242149623851
 31
0.0
 12
527.8703659728695
 22
399.7421496238511
 32
0.0
 13
527.8703659728695
 23
399.7421496238511
 33
0.0
  0
SOLID
  5
474
330
3AA
100
AcDbEntity
  8
DIM
  6
CONTINUOUS
 62
     0
100
AcDbTrace
 10
527.4536993062029
 20
369.4421496238511
 30
0.0
 11
528.2870326395361
 21
369.4421496238511
 31
0.0
 12
527.8703659728695
 22
366.9421496238511
 32
0.0
 13
527.8703659728695
 23
366.9421496238511
 33
0.0
  0
MTEXT
  5
475
330
3AA
100
AcDbEntity
  8
DIM
  6
CONTINUOUS
 62
     4
100
AcDbMText
 10
525.7245269551341
 20
383.175619614239
 30
0.0
 40
3.0
 41
0.0
 71
     5
 72
     1
  1
\A1;32.8
  7
TSTYLE5
 11
0.0000000000000001
 21
1.0
 31
0.0
  0
POINT
  5
476
330
3AA
100
AcDbEntity
  8
DEFPOINTS
  6
CONTINUOUS
 62
     0
100
AcDbPoint
 10
501.1177552042703
 20
399.7421496238511
 30
0.0
  0
POINT
  5
477
330
3AA
100
AcDbEntity
  8
DEFPOINTS
  6
CONTINUOUS
 62
     0
100
AcDbPoint
 10
520.6927552042702
 20
366.9421496238511
 30
0.0
  0
POINT
  5
478
330
3AA
100
AcDbEntity
  8
DEFPOINTS
  6
CONTINUOUS
 62
     0
100
AcDbPoint
 10
527.8703659728695
 20
366.9421496238511
 30
0.0
  0
ENDBLK
  5
3B5
330
3AA
100
AcDbEntity
  8
0
100
AcDbBlockEnd
  0
ENDSEC
  0
SECTION
  2
ENTITIES
  0
LINE
  5
21C
330
1F
100
AcDbEntity
  8
CARTOUCHE
  6
CONTINUOUS
 62
     7
100
AcDbLine
 10
422.6557552042703
 20
215.8651496238511
 30
0.0
 11
422.6557552042703
 21
502.8651496238511
 31
0.0
  0
LINE
  5
21D
330
1F
100
AcDbEntity
  8
CARTOUCHE
  6
CONTINUOUS
 62
     7
100
AcDbLine
 10
622.6557552042702
 20
502.8651496238511
 30
0.0
 11
622.6557552042702
 21
215.8651496238511
 31
0.0
  0
DIMENSION
  5
21E
330
1F
100
AcDbEntity
  8
DIM
  6
CONTINUOUS
 62
     3
100
AcDbDimension
  2
*D10
 10
544.9967552042703
 20
351.8511483159044
 30
0.0
 11
558.173788712869
 21
351.8511483159044
 31
0.0
 70
   160
  1
<>
  3
DSTYLE3
100
AcDbAlignedDimension
 13
547.4967552042703
 23
361.1421496238511
 33
0.0
 14
544.9967552042703
 24
361.1421496238511
 34
0.0
 50
180.0
100
AcDbRotatedDimension
1001
ACAD
1000
DSTYLE
1002
{
1070
     6
1000

1070
   173
1070
     1
1070
     7
1000

1002
}
  0
DIMENSION
  5
21F
330
1F
100
AcDbEntity
  8
DIM
  6
CONTINUOUS
 62
     3
100
AcDbDimension
  2
*D11
 10
527.8703659728695
 20
360.4421496238511
 30
0.0
 11
527.8703659728694
 21
349.785798648631
 31
0.0
 70
   160
  1
<>
  3
DSTYLE5
100
AcDbAlignedDimension
 13
520.6927552042702
 23
366.9421496238511
 33
0.0
 14
518.3717552042703
 24
360.4421496238511
 34
0.0
 50
90.0
100
AcDbRotatedDimension
1001
ACAD
1000
DSTYLE
1002
{
1070
     6
1000

1070
   173
1070
     1
1070
     7
1000

1002
}
  0
DIMENSION
  5
220
330
1F
100
AcDbEntity
  8
DIM
  6
CONTINUOUS
 62
     3
100
AcDbDimension
  2
*D12
 10
508.0427552042703
 20
351.8511483159044
 30
0.0
 11
518.7449034736889
 21
351.8511483159044
 31
0.0
 70
   160
  1
<>
  3
DSTYLE2
100
AcDbAlignedDimension
 13
508.5427552042703
 23
361.1421496238511
 33
0.0
 14
508.0427552042703
 24
361.1421496238511
 34
0.0
 50
180.0
100
AcDbRotatedDimension
1001
ACAD
1000
DSTYLE
1002
{
1070
     6
1000

1070
   173
1070
     1
1070
     7
1000

1002
}
  0
DIMENSION
  5
221
330
1F
100
AcDbEntity
  8
DIM
  6
CONTINUOUS
 62
     3
100
AcDbDimension
  2
*D13
 10
492.6427552042703
 20
351.6790361798039
 30
0.0
 11
480.8656253169011
 21
351.6790361798039
 31
0.0
 70
   160
  1
<>
  3
DSTYLE1
100
AcDbAlignedDimension
 13
495.1427552042702
 23
361.1481496238511
 33
0.0
 14
492.6427552042703
 24
361.1481496238511
 34
0.0
 50
180.0
100
AcDbRotatedDimension
1001
ACAD
1000
DSTYLE
1002
{
1070
     6
1000

1070
   173
1070
     1
1070
     7
1000

1002
}
  0
LINE
  5
222
330
1F
100
AcDbEntity
  8
CARTOUCHE
  6
CONTINUOUS
 62
     7
100
AcDbLine
 10
622.6557552042702
 20
215.8651496238511
 30
0.0
 11
422.6557552042703
 21
215.8651496238511
 31
0.0
  0
LINE
  5
223
330
1F
100
AcDbEntity
  8
CARTOUCHE
  6
CONTINUOUS
 62
     7
100
AcDbLine
 10
622.6557552042702
 20
247.7101496238511
 30
0.0
 11
422.6557552042703
 21
247.7101496238511
 31
0.0
  0
LINE
  5
224
330
1F
100
AcDbEntity
  8
CARTOUCHE
  6
CONTINUOUS
 62
     7
100
AcDbLine
 10
622.6557552042702
 20
220.8651496238511
 30
0.0
 11
422.6557552042703
 21
220.8661496238511
 31
0.0
  0
LINE
  5
225
330
1F
100
AcDbEntity
  8
CARTOUCHE
  6
CONTINUOUS
 62
     7
100
AcDbLine
 10
622.6557552042702
 20
230.8671496238511
 30
0.0
 11
467.6557552042703
 21
230.8681496238511
 31
0.0
  0
TEXT
  5
226
330
1F
100
AcDbEntity
  8
CARTOUCHE
  6
CONTINUOUS
 62
     2
100
AcDbText
 10
434.1437552042703
 20
225.1731496238511
 30
0.0
 40
1.8
  1
www.findernet.com
 41
0.6
  7
TSTYLE2
100
AcDbText
  0
LINE
  5
227
330
1F
100
AcDbEntity
  8
CARTOUCHE
  6
CONTINUOUS
 62
     7
100
AcDbLine
 10
467.6557552042703
 20
247.7101496238511
 30
0.0
 11
467.6557552042703
 21
215.8651496238511
 31
0.0
  0
TEXT
  5
228
330
1F
100
AcDbEntity
  8
CARTOUCHE
  6
CONTINUOUS
 62
     2
100
AcDbText
 10
437.4467552042703
 20
217.4661496238511
 30
0.0
 40
1.8
  1
MOD. UT 902
 41
0.6
  7
TSTYLE2
100
AcDbText
  0
HATCH
  5
229
330
1F
100
AcDbEntity
  8
CARTOUCHE
  6
CONTINUOUS
 62
     4
100
AcDbHatch
 10
0.0
 20
0.0
 30
0.0
210
0.0
220
0.0
230
1.0
  2
ANSI31
 70
     0
 71
     0
 91
        1
 92
        1
 93
       50
 72
     1
 10
428.1205399962625
 20
238.2642487301209
 11
428.1205399962625
 21
235.2934867301209
 72
     1
 10
428.1205399962625
 20
235.2934867301209
 11
425.8304929962625
 21
235.2934867301209
 72
     1
 10
429.0695899962624
 20
238.5173637301209
 11
429.0695899962624
 21
234.6312567301209
 72
     1
 10
428.7721399962623
 20
234.2755867301209
 11
428.5435399962624
 21
234.2755867301209
 72
     1
 10
428.5435399962625
 20
234.2755867301209
 11
430.0186399962625
 21
232.6749367301209
 72
     1
 10
430.0186399962625
 20
232.6749367301209
 11
430.0186399962625
 21
238.5202277301209
 72
     1
 10
432.0093729962625
 20
236.3680867301209
 11
430.9789399962625
 21
236.3680867301209
 72
     1
 10
430.9789399962625
 20
236.3680867301209
 11
430.9789399962625
 21
238.2688767301209
 72
     1
 10
425.8320299962623
 20
234.2755867301209
 11
427.0342399962625
 21
234.2755867301209
 72
     1
 10
427.0342399962625
 20
234.2755867301209
 11
429.8294159962623
 21
231.5330707301209
 72
     1
 10
429.8294159962623
 20
231.5330707301209
 11
429.8843339962624
 21
231.4975957301209
 72
     1
 10
429.8843339962624
 20
231.4975957301209
 11
429.9417299962625
 21
231.4661057301209
 72
     1
 10
429.9417299962625
 20
231.4661057301209
 11
430.0217149962625
 21
231.4306437301209
 72
     1
 10
430.0217149962625
 20
231.4306437301209
 11
430.0627239962625
 21
231.4159717301209
 72
     1
 10
430.0627239962625
 20
231.4159717301209
 11
430.1044529962625
 21
231.4035397301209
 72
     1
 10
430.1044529962625
 20
231.4035397301209
 11
430.1467699962626
 21
231.3936497301209
 72
     1
 10
430.1467699962625
 20
231.3936497301209
 11
430.1895459962625
 21
231.3866027301209
 72
     1
 10
430.1895459962625
 20
231.3866027301209
 11
430.2326509962624
 21
231.3827027301209
 72
     1
 10
430.2326509962624
 20
231.3827027301209
 11
430.2759079962624
 21
231.3821587301209
 72
     1
 10
430.2759079962624
 20
231.3821587301209
 11
430.3191729962625
 21
231.3848127301209
 72
     1
 10
430.3191729962625
 20
231.3848127301209
 11
430.3622559962625
 21
231.3904207301209
 72
     1
 10
430.3622559962625
 20
231.3904207301209
 11
430.4049659962625
 21
231.3987367301209
 72
     1
 10
430.4049659962625
 20
231.3987367301209
 11
430.4471149962624
 21
231.4095177301209
 72
     1
 10
430.4471149962624
 20
231.4095177301209
 11
430.4891169962624
 21
231.4227527301209
 72
     1
 10
430.4891169962624
 20
231.4227527301209
 11
430.5302719962624
 21
231.4382217301209
 72
     1
 10
430.5302719962624
 20
231.4382217301209
 11
430.5705039962623
 21
231.4558717301209
 72
     1
 10
430.5705039962623
 20
231.4558717301209
 11
430.6479039962623
 21
231.4975177301209
 72
     1
 10
430.6479039962625
 20
231.4975177301209
 11
430.6845879962626
 21
231.5212097301209
 72
     1
 10
430.6845879962625
 20
231.5212097301209
 11
430.7199109962623
 21
231.5469067301209
 72
     1
 10
430.7199109962625
 20
231.5469067301209
 11
430.7536369962625
 21
231.5746167301209
 72
     1
 10
430.7536369962623
 20
231.5746167301209
 11
430.7855319962625
 21
231.6043477301209
 72
     1
 10
430.7855319962625
 20
231.6043477301209
 11
430.8153599962625
 21
231.6361077301209
 72
     1
 10
430.8153599962625
 20
231.6361077301209
 11
430.8430289962625
 21
231.6700207301209
 72
     1
 10
430.8430289962625
 20
231.6700207301209
 11
430.8683249962625
 21
231.7057877301209
 72
     1
 10
430.8683249962625
 20
231.7057877301209
 11
430.8911969962625
 21
231.7432087301209
 72
     1
 10
430.8911969962625
 20
231.7432087301209
 11
430.9115939962626
 21
231.7820827301209
 72
     1
 10
430.9115939962626
 20
231.7820827301209
 11
430.9294669962626
 21
231.8222107301209
 72
     1
 10
430.9294669962626
 20
231.8222107301209
 11
430.9447459962625
 21
231.8633477301209
 72
     1
 10
430.9447459962625
 20
231.8633477301209
 11
430.9573939962625
 21
231.9053447301209
 72
     1
 10
430.9573939962625
 20
231.9053447301209
 11
430.9673489962626
 21
231.9480107301209
 72
     1
 10
430.9673489962626
 20
231.9480107301209
 11
430.9745519962625
 21
231.9911547301209
 72
     1
 10
430.9745519962625
 20
231.9911547301209
 11
430.9789399962625
 21
232.0345867301209
 72
     1
 10
430.9789399962625
 20
232.0345867301209
 11
430.9789399962625
 21
235.3731367301209
 72
     1
 10
430.9789399962625
 20
235.3731367301209
 11
432.1111399962624
 21
235.3731367301209
 72
     2
 10
429.5553679962624
 20
234.7901597301209
 40
3.758726999999999
 50
112.441
 51
172.304
 73
     1
 72
     2
 10
428.6066709962625
 20
234.7162357301209
 40
0.4706070000000001
 50
290.5819999999999
 51
349.598
 73
     1
 72
     2
 10
429.5553679962624
 20
234.7901597301209
 40
3.758726999999999
 50
82.91999999999999
 51
97.42600000000001
 73
     1
 72
     2
 10
429.5553679962624
 20
234.7901597301209
 40
3.758726999999999
 50
187.869
 51
427.7439999999999
 73
     1
 72
     2
 10
432.0602559962625
 20
235.8706117301209
 40
0.5000710000000001
 50
275.8399999999999
 51
455.8399999999999
 73
     1
 72
     2
 10
429.5553629962625
 20
234.7901647301209
 40
4.756723
 50
0.0
 51
360.0
 73
     1
 97
        0
 75
     0
 76
     1
 52
0.0
 41
0.1
 77
     0
 78
     1
 53
45.0
 43
0.0
 44
0.0
 45
-0.2245064030267288
 46
0.2245064030267288
 79
     0
 98
        1
 10
-119.6082447957296
 20
245.8811496238511
  0
ARC
  5
22A
330
1F
100
AcDbEntity
  8
CARTOUCHE
  6
CONTINUOUS
 62
     4
100
AcDbCircle
 10
429.5557552042703
 20
234.790149623851
 30
0.0
 40
3.758999999999999
100
AcDbArc
 50
112.4409999999998
 51
172.3040000000007
  0
CIRCLE
  5
22B
330
1F
100
AcDbEntity
  8
CARTOUCHE
  6
CONTINUOUS
 62
     4
100
AcDbCircle
 10
429.5557552042703
 20
234.790149623851
 30
0.0
 40
4.756999999999999
  0
HATCH
  5
22C
330
1F
100
AcDbEntity
  8
CARTOUCHE
  6
CONTINUOUS
 62
     4
100
AcDbHatch
 10
0.0
 20
0.0
 30
0.0
210
0.0
220
0.0
230
1.0
  2
ANSI31
 70
     0
 71
     0
 91
        1
 92
        1
 93
      165
 72
     1
 10
456.7067899962625
 20
233.1091867301209
 11
456.8098399962624
 21
233.1091867301209
 72
     1
 10
456.8098399962624
 20
233.1091867301209
 11
459.8626399962625
 21
233.1208867301209
 72
     1
 10
459.8626399962625
 20
233.1208867301209
 11
459.8880949962624
 21
233.2305897301209
 72
     1
 10
459.8880949962624
 20
233.2305897301209
 11
459.9007649962624
 21
233.3142047301209
 72
     1
 10
459.9007649962624
 20
233.3142047301209
 11
459.9075909962624
 21
233.3984457301209
 72
     1
 10
459.9075909962624
 20
233.3984457301209
 11
459.9074519962624
 21
233.5117117301209
 72
     1
 10
459.9074519962624
 20
233.5117117301209
 11
459.8904269962625
 21
233.6808387301209
 72
     1
 10
459.8904269962624
 20
233.6808387301209
 11
459.8641819962624
 21
233.8209557301209
 72
     1
 10
459.8641819962624
 20
233.8209557301209
 11
459.8292959962624
 21
233.9591107301209
 72
     1
 10
459.8292959962624
 20
233.9591107301209
 11
459.7875119962626
 21
234.0938887301209
 72
     1
 10
459.7875119962626
 20
234.0938887301209
 11
459.7380589962624
 21
234.2261637301209
 72
     1
 10
459.7380589962624
 20
234.2261637301209
 11
459.6925789962624
 21
234.3294587301209
 72
     1
 10
459.6925789962624
 20
234.3294587301209
 11
459.6415779962624
 21
234.4302777301209
 72
     1
 10
459.6415779962624
 20
234.4302777301209
 11
459.5849969962626
 21
234.5280657301209
 72
     1
 10
459.5849969962626
 20
234.5280657301209
 11
459.5227779962624
 21
234.6222697301209
 72
     1
 10
459.5227779962624
 20
234.6222697301209
 11
459.4548619962624
 21
234.7123377301209
 72
     1
 10
459.4548619962624
 20
234.7123377301209
 11
459.3812409962624
 21
234.7978727301209
 72
     1
 10
459.3812409962624
 20
234.7978727301209
 11
459.3024359962624
 21
234.8787467301209
 72
     1
 10
459.3024359962625
 20
234.8787467301209
 11
459.2190259962626
 21
234.9549977301209
 72
     1
 10
459.2190259962624
 20
234.9549977301209
 11
459.0407129962624
 21
235.0937687301209
 72
     1
 10
459.0407129962624
 20
235.0937687301209
 11
458.9227029962625
 21
235.1713477301209
 72
     1
 10
458.9227029962625
 20
235.1713477301209
 11
458.8001669962624
 21
235.2411847301209
 72
     1
 10
458.8001669962624
 20
235.2411847301209
 11
458.6734359962624
 21
235.3027287301209
 72
     1
 10
458.6734359962624
 20
235.3027287301209
 11
458.5431129962625
 21
235.3563917301209
 72
     1
 10
458.5431129962626
 20
235.3563917301209
 11
458.2745889962626
 21
235.4434767301209
 72
     1
 10
458.2745889962626
 20
235.4434767301209
 11
458.0003689962624
 21
235.5103917301209
 72
     1
 10
458.0003689962624
 20
235.5103917301209
 11
457.7227219962623
 21
235.5583727301209
 72
     1
 10
457.7227219962623
 20
235.5583727301209
 11
457.4424949962624
 21
235.5882577301209
 72
     1
 10
457.4424949962624
 20
235.5882577301209
 11
456.8785719962623
 21
235.6006167301209
 72
     1
 10
456.8785719962623
 20
235.6006167301209
 11
456.3163029962624
 21
235.5605377301209
 72
     1
 10
456.3163029962624
 20
235.5605377301209
 11
456.0380169962623
 21
235.5158817301209
 72
     1
 10
456.0380169962623
 20
235.5158817301209
 11
455.7629999962625
 21
235.4530427301209
 72
     1
 10
455.7629999962625
 20
235.4530427301209
 11
455.5463099962626
 21
235.3888227301209
 72
     1
 10
455.5463099962626
 20
235.3888227301209
 11
455.3873029962626
 21
235.3304397301209
 72
     1
 10
455.3873029962623
 20
235.3304397301209
 11
455.2326269962624
 21
235.2613677301209
 72
     1
 10
455.2326269962624
 20
235.2613677301209
 11
455.1327229962626
 21
235.2087217301209
 72
     1
 10
455.1327229962626
 20
235.2087217301209
 11
455.0357839962624
 21
235.1506057301209
 72
     1
 10
455.0357839962624
 20
235.1506057301209
 11
454.9423299962624
 21
235.0870487301209
 72
     1
 10
454.9423299962624
 20
235.0870487301209
 11
454.8528819962625
 21
235.0180827301209
 72
     1
 10
454.8528819962625
 20
235.0180827301209
 11
454.7679599962624
 21
234.9437377301209
 72
     1
 10
454.7679599962624
 20
234.9437377301209
 11
454.6880369962624
 21
234.8641567301209
 72
     1
 10
454.6880369962624
 20
234.8641567301209
 11
454.6131859962624
 21
234.7797167301209
 72
     1
 10
454.6131859962624
 20
234.7797167301209
 11
454.5434399962624
 21
234.6909067301209
 72
     1
 10
454.5434399962624
 20
234.6909067301209
 11
454.4788299962625
 21
234.5982117301209
 72
     1
 10
454.4788299962625
 20
234.5982117301209
 11
454.4193859962624
 21
234.5021177301209
 72
     1
 10
454.4193859962624
 20
234.5021177301209
 11
454.3162079962625
 21
234.3012317301209
 72
     1
 10
454.3162079962625
 20
234.3012317301209
 11
454.2727779962624
 21
234.1970417301209
 72
     1
 10
454.2727779962624
 20
234.1970417301209
 11
454.2349739962624
 21
234.0906857301209
 72
     1
 10
454.2349739962624
 20
234.0906857301209
 11
454.2029389962624
 21
233.9824167301209
 72
     1
 10
454.2029389962624
 20
233.9824167301209
 11
454.1768209962624
 21
233.8725327301209
 72
     1
 10
454.1768209962624
 20
233.8725327301209
 11
454.1567679962624
 21
233.7613557301209
 72
     1
 10
454.1567679962624
 20
233.7613557301209
 11
454.1429399962624
 21
233.6492547301209
 72
     1
 10
454.1429399962624
 20
233.6492547301209
 11
454.1354949962626
 21
233.5365987301209
 72
     1
 10
454.1354949962626
 20
233.5365987301209
 11
454.1345929962626
 21
233.4237567301209
 72
     1
 10
454.1345929962626
 20
233.4237567301209
 11
454.1404749962624
 21
233.3108147301209
 72
     1
 10
454.1404749962624
 20
233.3108147301209
 11
454.1630199962626
 21
233.1429857301209
 72
     1
 10
454.1630199962624
 20
233.1429857301209
 11
454.1875589962623
 21
233.0331057301209
 72
     1
 10
454.1875589962623
 20
233.0331057301209
 11
454.2363779962625
 21
232.8710967301209
 72
     1
 10
454.2363779962625
 20
232.8710967301209
 11
454.3188929962624
 21
232.6607937301209
 72
     1
 10
454.3188929962624
 20
232.6607937301209
 11
454.3938189962624
 21
232.5089857301209
 72
     1
 10
454.3938189962624
 20
232.5089857301209
 11
454.4805929962627
 21
232.3640277301209
 72
     1
 10
454.4805929962627
 20
232.3640277301209
 11
454.5622819962623
 21
232.2489627301209
 72
     1
 10
454.5622819962623
 20
232.2489627301209
 11
454.6507919962624
 21
232.1388567301209
 72
     1
 10
454.6507919962624
 20
232.1388567301209
 11
454.7256929962624
 21
232.0539747301209
 72
     1
 10
454.7256929962624
 20
232.0539747301209
 11
454.8466229962624
 21
231.9351507301209
 72
     1
 10
454.8466229962624
 20
231.9351507301209
 11
454.9338569962626
 21
231.8641157301209
 72
     1
 10
454.9338569962626
 20
231.8641157301209
 11
455.0739239962624
 21
231.7698577301209
 72
     1
 10
455.0739239962624
 20
231.7698577301209
 11
455.1977089962624
 21
231.7014997301209
 72
     1
 10
455.1977089962624
 20
231.7014997301209
 11
455.3253479962624
 21
231.6404157301209
 72
     1
 10
455.3253479962624
 20
231.6404157301209
 11
455.5337249962624
 21
231.5531997301209
 72
     1
 10
455.5337249962624
 20
231.5531997301209
 11
455.8553229962626
 21
231.4476237301209
 72
     1
 10
455.8553229962626
 20
231.4476237301209
 11
456.0747319962624
 21
231.3960807301209
 72
     1
 10
456.0747319962624
 20
231.3960807301209
 11
456.4088699962623
 21
231.3425807301209
 72
     1
 10
456.4088699962623
 20
231.3425807301209
 11
456.6895969962624
 21
231.3149857301209
 72
     1
 10
456.6895969962624
 20
231.3149857301209
 11
456.9711989962625
 21
231.3029047301209
 72
     1
 10
456.9711989962625
 20
231.3029047301209
 11
457.5340409962624
 21
231.3263777301209
 72
     1
 10
457.5340409962624
 20
231.3263777301209
 11
457.8149089962626
 21
231.3592107301209
 72
     1
 10
457.8149089962626
 20
231.3592107301209
 11
458.0935209962627
 21
231.4069777301209
 72
     1
 10
458.0935209962624
 20
231.4069777301209
 11
458.3678349962624
 21
231.4730867301209
 72
     1
 10
458.3678349962624
 20
231.4730867301209
 11
458.6339389962624
 21
231.5646767301209
 72
     1
 10
458.6339389962624
 20
231.5646767301209
 11
458.8912809962624
 21
231.6800667301209
 72
     1
 10
458.8912809962626
 20
231.6800667301209
 11
459.0170159962626
 21
231.7439287301209
 72
     1
 10
459.0170159962624
 20
231.7439287301209
 11
459.1386969962623
 21
231.8149877301209
 72
     1
 10
459.1386969962623
 20
231.8149877301209
 11
459.2313349962625
 21
231.8795247301209
 72
     1
 10
459.2313349962625
 20
231.8795247301209
 11
459.2973379962623
 21
231.9326377301209
 72
     1
 10
459.2973379962623
 20
231.9326377301209
 11
459.3598929962625
 21
231.9896897301209
 72
     1
 10
459.3598929962625
 20
231.9896897301209
 11
459.4374269962624
 21
232.0715577301209
 72
     1
 10
459.4374269962624
 20
232.0715577301209
 11
459.5418419962624
 21
232.2048317301209
 72
     1
 10
459.5418419962624
 20
232.2048317301209
 11
459.6037849962624
 21
232.2993357301209
 72
     1
 10
459.6037849962624
 20
232.2993357301209
 11
459.6452629962624
 21
232.3731287301209
 72
     1
 10
459.6452629962624
 20
232.3731287301209
 11
459.6815269962625
 21
232.4495707301209
 72
     1
 10
459.6815269962625
 20
232.4495707301209
 11
459.7206699962625
 21
232.5555487301209
 72
     1
 10
459.7206699962625
 20
232.5555487301209
 11
459.7430669962626
 21
232.6373427301209
 72
     1
 10
459.7430669962626
 20
232.6373427301209
 11
459.7595899962624
 21
232.7203867301209
 72
     1
 10
459.7595899962624
 20
232.7203867301209
 11
457.9987399962626
 21
232.7203867301209
 72
     1
 10
457.9987399962626
 20
232.7203867301209
 11
457.8904769962624
 21
232.639881730121
 72
     1
 10
457.8904769962624
 20
232.6398817301209
 11
457.8050589962624
 21
232.5853977301209
 72
     1
 10
457.8050589962624
 20
232.5853977301209
 11
457.7164929962624
 21
232.5361757301209
 72
     1
 10
457.7164929962624
 20
232.5361757301209
 11
457.6404749962624
 21
232.4995157301209
 72
     1
 10
457.6404749962624
 20
232.4995157301209
 11
457.5622929962626
 21
232.4680497301209
 72
     1
 10
457.5622929962625
 20
232.4680497301209
 11
457.4979939962624
 21
232.4473777301209
 72
     1
 10
457.4979939962624
 20
232.4473777301209
 11
457.3993679962624
 21
232.4238307301209
 72
     1
 10
457.3993679962624
 20
232.4238307301209
 11
457.2650539962624
 21
232.4052787301209
 72
     1
 10
457.2650539962624
 20
232.4052787301209
 11
457.1633559962624
 21
232.4003987301209
 72
     1
 10
457.1633559962624
 20
232.4003987301209
 11
457.0615259962624
 21
232.4027237301209
 72
     1
 10
457.0615259962624
 20
232.4027237301209
 11
456.9271089962624
 21
232.4162387301209
 72
     1
 10
456.9271089962624
 20
232.4162387301209
 11
456.8273979962624
 21
232.4339307301209
 72
     1
 10
456.8273979962624
 20
232.4339307301209
 11
456.7290459962626
 21
232.4579287301209
 72
     1
 10
456.7290459962626
 20
232.4579287301209
 11
456.6006009962624
 21
232.4997797301209
 72
     1
 10
456.6006009962624
 20
232.4997797301209
 11
456.5071119962624
 21
232.5390437301209
 72
     1
 10
456.5071119962624
 20
232.5390437301209
 11
456.4166979962626
 21
232.5855887301209
 72
     1
 10
456.4166979962626
 20
232.5855887301209
 11
456.3585569962624
 21
232.6208827301209
 72
     1
 10
456.3585569962624
 20
232.6208827301209
 11
456.3027939962625
 21
232.6598467301209
 72
     1
 10
456.3027939962625
 20
232.6598467301209
 11
456.2501669962625
 21
232.7027097301209
 72
     1
 10
456.2501669962625
 20
232.7027097301209
 11
456.2014359962626
 21
232.7496987301209
 72
     1
 10
456.2014359962624
 20
232.7496987301209
 11
456.1573589962624
 21
232.8010427301209
 72
     1
 10
456.1573589962624
 20
232.8010427301209
 11
456.1185939962625
 21
232.8567927301209
 72
     1
 10
456.1185939962625
 20
232.8567927301209
 11
456.0853859962624
 21
232.9163047301209
 72
     1
 10
456.0853859962624
 20
232.9163047301209
 11
456.0578779962624
 21
232.9787557301209
 72
     1
 10
456.0578779962624
 20
232.9787557301209
 11
456.0362149962624
 21
233.0433237301209
 72
     1
 10
456.0362149962624
 20
233.0433237301209
 11
456.0205399962624
 21
233.1091867301209
 72
     1
 10
456.0205399962624
 20
233.1091867301209
 11
456.7067899962625
 21
233.1091867301209
 72
     1
 10
456.0205399962624
 20
233.9439367301209
 11
456.8098399962624
 21
233.9439367301209
 72
     1
 10
456.8098399962624
 20
233.9439367301209
 11
457.9987399962626
 21
233.9439367301209
 72
     1
 10
457.9987399962626
 20
233.9439367301209
 11
457.9948159962624
 21
233.9811587301209
 72
     1
 10
457.9948159962624
 20
233.9811587301209
 11
457.9887189962626
 21
234.0181737301209
 72
     1
 10
457.9887189962626
 20
234.0181737301209
 11
457.9804089962626
 21
234.0547917301209
 72
     1
 10
457.9804089962624
 20
234.0547917301209
 11
457.9698489962624
 21
234.0908207301209
 72
     1
 10
457.9698489962624
 20
234.0908207301209
 11
457.9570019962623
 21
234.1260717301209
 72
     1
 10
457.9570019962623
 20
234.1260717301209
 11
457.9418729962624
 21
234.1603487301209
 72
     1
 10
457.9418729962624
 20
234.1603487301209
 11
457.9245809962626
 21
234.1935887301209
 72
     1
 10
457.9245809962626
 20
234.1935887301209
 11
457.9052839962626
 21
234.2257247301209
 72
     1
 10
457.9052839962626
 20
234.2257247301209
 11
457.8841419962627
 21
234.2566867301209
 72
     1
 10
457.8841419962627
 20
234.2566867301209
 11
457.8613119962626
 21
234.2864067301209
 72
     1
 10
457.8613119962626
 20
234.2864067301209
 11
457.8108749962624
 21
234.3422767301209
 72
     1
 10
457.8108749962624
 20
234.3422767301209
 11
457.7696049962624
 21
234.3808017301209
 72
     1
 10
457.7696049962624
 20
234.3808017301209
 11
457.7258659962626
 21
234.4165107301209
 72
     1
 10
457.7258659962626
 20
234.4165107301209
 11
457.6646139962624
 21
234.4596787301209
 72
     1
 10
457.6646139962624
 20
234.4596787301209
 11
457.6166109962624
 21
234.4888867301209
 72
     1
 10
457.6166109962624
 20
234.4888867301209
 11
457.5670679962626
 21
234.5153857301209
 72
     1
 10
457.5670679962625
 20
234.5153857301209
 11
457.4989299962624
 21
234.5465447301209
 72
     1
 10
457.4989299962624
 20
234.5465447301209
 11
457.3931799962624
 21
234.5845537301209
 72
     1
 10
457.3931799962624
 20
234.5845537301209
 11
457.3207509962624
 21
234.6042887301209
 72
     1
 10
457.3207509962624
 20
234.6042887301209
 11
457.2101919962624
 21
234.6255497301209
 72
     1
 10
457.2101919962624
 20
234.6255497301209
 11
457.1352989962624
 21
234.6342767301209
 72
     1
 10
457.1352989962624
 20
234.6342767301209
 11
457.0223949962625
 21
234.6395127301209
 72
     1
 10
457.0223949962625
 20
234.6395127301209
 11
456.9469459962625
 21
234.6379687301209
 72
     1
 10
456.9469459962625
 20
234.6379687301209
 11
456.8339609962625
 21
234.6275447301209
 72
     1
 10
456.8339609962625
 20
234.6275447301209
 11
456.7601049962624
 21
234.6145667301209
 72
     1
 10
456.7601049962624
 20
234.6145667301209
 11
456.7238019962624
 21
234.6055897301209
 72
     1
 10
456.7238019962624
 20
234.6055897301209
 11
456.6882309962624
 21
234.5945537301209
 72
     1
 10
456.6882309962624
 20
234.5945537301209
 11
456.6536289962624
 21
234.5811607301209
 72
     1
 10
456.6536289962624
 20
234.5811607301209
 11
456.6200609962623
 21
234.5652507301209
 72
     1
 10
456.6200609962623
 20
234.5652507301209
 11
456.4905599962624
 21
234.4904237301209
 72
     1
 10
456.4905599962624
 20
234.4904237301209
 11
456.3273109962624
 21
234.4003237301209
 72
     1
 10
456.3273109962624
 20
234.4003237301209
 11
456.2966929962624
 21
234.3789027301209
 72
     1
 10
456.2966929962624
 20
234.3789027301209
 11
456.2673419962623
 21
234.3556227301209
 72
     1
 10
456.2673419962623
 20
234.3556227301209
 11
456.2393079962625
 21
234.3306537301209
 72
     1
 10
456.2393079962625
 20
234.3306537301209
 11
456.1873979962625
 21
234.2763327301209
 72
     1
 10
456.1873979962625
 20
234.2763327301209
 11
456.1410579962625
 21
234.2167677301209
 72
     1
 10
456.1410579962625
 20
234.2167677301209
 11
456.1103379962625
 21
234.1692937301209
 72
     1
 10
456.1103379962625
 20
234.1692937301209
 11
456.0831739962623
 21
234.1196747301209
 72
     1
 10
456.0831739962623
 20
234.1196747301209
 11
456.0529169962624
 21
234.0512157301209
 72
     1
 10
456.0529169962624
 20
234.0512157301209
 11
456.0346969962624
 21
233.9981377301209
 72
     1
 10
456.0346969962624
 20
233.9981377301209
 11
456.0205399962624
 21
233.9439367301209
 97
        0
 75
     0
 76
     1
 52
0.0
 41
0.1
 77
     0
 78
     1
 53
45.0
 43
0.0
 44
0.0
 45
-0.2245064030267288
 46
0.2245064030267288
 79
     0
 98
        1
 10
-119.6082447957296
 20
245.8811496238511
  0
SPLINE
  5
22D
330
1F
100
AcDbEntity
  8
CARTOUCHE
  6
CONTINUOUS
 62
     4
100
AcDbSpline
210
0.0
220
0.0
230
1.0
 70
     8
 71
     3
 72
    48
 73
    44
 74
    42
 42
0.0000000001
 43
0.0000000001
 44
0.000001
 12
0.2679235453443169
 22
0.963440176580846
 32
0.0
 13
0.1610223945671779
 23
0.9869507527976521
 33
0.0
 40
0.0
 40
0.0
 40
0.0
 40
0.0
 40
0.2818680440732464
 40
0.563743862244178
 40
0.8456206423664104
 40
1.127487549250485
 40
1.410195239570875
 40
1.692701565213706
 40
1.975094154821127
 40
2.257824114950081
 40
2.539701857397904
 40
2.821572029861542
 40
3.103444310957273
 40
3.38531659716271
 40
3.949059070305082
 40
4.512801862640412
 40
5.0765492110179
 40
5.640288698831382
 40
6.204038075969378
 40
6.767777945536382
 40
7.331509982442057
 40
7.895250412814432
 40
8.458987271217127
 40
8.74085741463103
 40
9.022732806849782
 40
9.586464206115334
 40
9.868340449113048
 40
10.15021055202981
 40
10.43208121104797
 40
10.71395548681775
 40
11.27769918093659
 40
11.84144433135687
 40
12.40518731806547
 40
12.96893224997309
 40
13.53267745240208
 40
13.81454988463908
 40
14.09642160850194
 40
14.3782935186134
 40
14.66016601896492
 40
14.94203821121547
 40
15.22390966069216
 40
15.50578181462567
 40
15.78765328968326
 40
15.78765328968326
 40
15.78765328968326
 40
15.78765328968326
 10
459.8626399724751
 20
233.1208863372376
 30
0.0
 10
459.8878130010375
 20
233.2114073366224
 30
0.0
 10
459.9190715697067
 20
233.3988581018868
 30
0.0
 10
459.8972663226191
 20
233.6817541856569
 30
0.0
 10
459.8347389158063
 20
233.9571022246529
 30
0.0
 10
459.7449629475319
 20
234.2252077085756
 30
0.0
 10
459.6215113689471
 20
234.4801126435141
 30
0.0
 10
459.4625988026181
 20
234.7151435273416
 30
0.0
 10
459.2672538162575
 20
234.9209051959751
 30
0.0
 10
459.0457232118809
 20
235.0970588964502
 30
0.0
 10
458.8050599740131
 20
235.245805790938
 30
0.0
 10
458.5467512212294
 20
235.3606265946265
 30
0.0
 10
458.2777072316864
 20
235.4458341204903
 30
0.0
 10
457.9125027614903
 20
235.5354069302664
 30
0.0
 10
457.445473628001
 20
235.5994902705845
 30
0.0
 10
456.8811022296678
 20
235.6079395919266
 30
0.0
 10
456.3174044081807
 20
235.5728295796049
 30
0.0
 10
455.7625511277338
 20
235.4659298927358
 30
0.0
 10
455.2248955694763
 20
235.2855231235671
 30
0.0
 10
454.748214408543
 20
234.9673595733512
 30
0.0
 10
454.3979783630114
 20
234.5148932304329
 30
0.0
 10
454.178232368427
 20
233.9892754923281
 30
0.0
 10
454.1185236008181
 20
233.5165053820961
 30
0.0
 10
454.1548597779882
 20
233.1406491913485
 30
0.0
 10
454.257493321858
 20
232.7781226093713
 30
0.0
 10
454.4183091341664
 20
232.4330312508957
 30
0.0
 10
454.6484664381711
 20
232.1350491258602
 30
0.0
 10
454.8408024312433
 20
231.9275985200151
 30
0.0
 10
455.07161519602
 20
231.7623392647882
 30
0.0
 10
455.4089176376439
 20
231.5954860099745
 30
0.0
 10
455.8514148541234
 20
231.4308642462492
 30
0.0
 10
456.4086945961848
 20
231.3331096261856
 30
0.0
 10
456.971839072764
 20
231.2915834760274
 30
0.0
 10
457.5360971855201
 20
231.3179195006074
 30
0.0
 10
458.0022014876867
 20
231.3827298446101
 30
0.0
 10
458.368576097867
 20
231.4682716092412
 30
0.0
 10
458.6356273597267
 20
231.5603718823092
 30
0.0
 10
458.8918706936619
 20
231.6780260471624
 30
0.0
 10
459.1430767617221
 20
231.8071950532334
 30
0.0
 10
459.3669027636834
 20
231.9824077545939
 30
0.0
 10
459.5477575025253
 20
232.200419160889
 30
0.0
 10
459.6927570976344
 20
232.4443872590173
 30
0.0
 10
459.7444607658504
 20
232.6276552490709
 30
0.0
 10
459.759589972475
 20
232.7203863372376
 30
0.0
 11
459.8626399724751
 21
233.1208863372376
 31
0.0
 11
459.9076218441107
 21
233.3991425190126
 31
0.0
 11
459.8904784404328
 21
233.6804964777699
 31
0.0
 11
459.8302104929199
 21
233.9558549468783
 31
0.0
 11
459.739467930435
 21
234.2227158474561
 31
0.0
 11
459.6155780928467
 21
234.4768318529421
 31
0.0
 11
459.4565048222099
 21
234.7102960143206
 31
0.0
 11
459.2629439925884
 21
234.9159164798849
 31
0.0
 11
459.0422765432545
 21
235.0926708422595
 31
0.0
 11
458.8020752867057
 21
235.2401781881918
 31
0.0
 11
458.5449614960898
 21
235.3556913624586
 31
0.0
 11
458.2768964548985
 21
235.4428298630538
 31
0.0
 11
458.0031008491172
 21
235.5098220565024
 31
0.0
 11
457.4448169273911
 21
235.5880821827473
 31
0.0
 11
456.881214906831
 21
235.600680060121
 31
0.0
 11
456.3188753150171
 21
235.5608646972334
 31
0.0
 11
455.765419258333
 21
235.4536797545781
 31
0.0
 11
455.2350538434067
 21
235.2625622508949
 31
0.0
 11
454.7692852397665
 21
234.9449740356635
 31
0.0
 11
454.4197270338901
 21
234.5027038577389
 31
0.0
 11
454.2029138073337
 21
233.9823238569876
 31
0.0
 11
454.1346151623771
 21
233.422739555448
 31
0.0
 11
454.1631457587191
 21
233.1423170265789
 31
0.0
 11
454.2366838120299
 21
232.8702032594621
 31
0.0
 11
454.4816233512557
 21
232.3624653839039
 31
0.0
 11
454.651752813967
 21
232.1377206629701
 31
0.0
 11
454.8472141328958
 21
231.9346304521145
 31
0.0
 11
455.0753071115237
 21
231.7690265121852
 31
0.0
 11
455.3259830939295
 21
231.6401286432627
 31
0.0
 11
455.8557941078085
 21
231.4474962359144
 31
0.0
 11
456.4096717002492
 21
231.3424809676664
 31
0.0
 11
456.972023027587
 21
231.3028938573628
 31
0.0
 11
457.5352738286335
 21
231.3264922443647
 31
0.0
 11
458.0932518969543
 21
231.4069231343708
 31
0.0
 11
458.3672870936404
 21
231.4729290278433
 31
0.0
 11
458.6338249786699
 21
231.5646308430857
 31
0.0
 11
458.8910299486181
 21
231.6799450818015
 31
0.0
 11
459.1385125230829
 21
231.8148690286969
 31
0.0
 11
459.3597400869201
 21
231.9895409582553
 31
0.0
 11
459.5417805414838
 21
232.2047449844752
 31
0.0
 11
459.6815155165044
 21
232.4495428885116
 31
0.0
 11
459.759589972475
 21
232.7203863372376
 31
0.0
  0
ARC
  5
22E
330
1F
100
AcDbEntity
  8
CARTOUCHE
  6
CONTINUOUS
 62
     4
100
AcDbCircle
 10
432.0607552042702
 20
235.8701496238511
 30
0.0
 40
0.5
100
AcDbArc
 50
275.8399999999983
 51
95.83999999999837
  0
ARC
  5
22F
330
1F
100
AcDbEntity
  8
CARTOUCHE
  6
CONTINUOUS
 62
     4
100
AcDbCircle
 10
429.5557552042703
 20
234.790149623851
 30
0.0
 40
3.758999999999999
100
AcDbArc
 50
187.8690000000006
 51
67.743999999997
  0
ARC
  5
230
330
1F
100
AcDbEntity
  8
CARTOUCHE
  6
CONTINUOUS
 62
     4
100
AcDbCircle
 10
437.2357552042704
 20
235.7941496238511
 30
0.0
 40
0.9059999999999998
100
AcDbArc
 50
90.0
 51
180.0
  0
LINE
  5
231
330
1F
100
AcDbEntity
  8
CARTOUCHE
  6
CONTINUOUS
 62
     4
100
AcDbLine
 10
441.2817552042703
 20
236.7001496238511
 30
0.0
 11
441.2817552042703
 21
235.8081496238511
 31
0.0
  0
LINE
  5
232
330
1F
100
AcDbEntity
  8
CARTOUCHE
  6
CONTINUOUS
 62
     4
100
AcDbLine
 10
439.4637552042703
 20
235.8081496238511
 30
0.0
 11
439.4637552042703
 21
236.7001496238511
 31
0.0
  0
LINE
  5
233
330
1F
100
AcDbEntity
  8
CARTOUCHE
  6
CONTINUOUS
 62
     4
100
AcDbLine
 10
438.7427552042703
 20
235.7961496238511
 30
0.0
 11
438.7427552042703
 21
236.7001496238511
 31
0.0
  0
LINE
  5
234
330
1F
100
AcDbEntity
  8
CARTOUCHE
  6
CONTINUOUS
 62
     4
100
AcDbLine
 10
451.8467552042704
 20
235.1841496238511
 30
0.0
 11
451.8467552042704
 21
236.6881496238511
 31
0.0
  0
LINE
  5
235
330
1F
100
AcDbEntity
  8
CARTOUCHE
  6
CONTINUOUS
 62
     4
100
AcDbLine
 10
453.6427552042702
 20
236.6881496238511
 30
0.0
 11
453.6427552042702
 21
231.4851496238511
 31
0.0
  0
LINE
  5
236
330
1F
100
AcDbEntity
  8
CARTOUCHE
  6
CONTINUOUS
 62
     4
100
AcDbLine
 10
428.1207552042704
 20
238.2641496238511
 30
0.0
 11
428.1207552042704
 21
235.2931496238511
 31
0.0
  0
LINE
  5
237
330
1F
100
AcDbEntity
  8
CARTOUCHE
  6
CONTINUOUS
 62
     4
100
AcDbLine
 10
429.0697552042703
 20
234.6311496238511
 30
0.0
 11
429.0697552042703
 21
238.5171496238511
 31
0.0
  0
LINE
  5
238
330
1F
100
AcDbEntity
  8
CARTOUCHE
  6
CONTINUOUS
 62
     4
100
AcDbLine
 10
430.0187552042703
 20
238.5201496238511
 30
0.0
 11
430.0187552042703
 21
232.6751496238511
 31
0.0
  0
HATCH
  5
239
330
1F
100
AcDbEntity
  8
CARTOUCHE
  6
CONTINUOUS
 62
     4
100
AcDbHatch
 10
0.0
 20
0.0
 30
0.0
210
0.0
220
0.0
230
1.0
  2
ANSI31
 70
     0
 71
     0
 91
        1
 92
        1
 93
        4
 72
     1
 10
439.4636899962623
 20
235.3731367301209
 11
439.4636899962623
 21
231.4968367301209
 72
     1
 10
439.4636899962623
 20
231.4968367301209
 11
441.2816899962623
 21
231.4968367301209
 72
     1
 10
441.2816899962623
 20
231.4968367301209
 11
441.2816899962623
 21
235.3731367301209
 72
     1
 10
441.2816899962623
 20
235.3731367301209
 11
439.4636899962623
 21
235.3731367301209
 97
        0
 75
     0
 76
     1
 52
0.0
 41
0.1
 77
     0
 78
     1
 53
45.0
 43
0.0
 44
0.0
 45
-0.2245064030267288
 46
0.2245064030267288
 79
     0
 98
        1
 10
-119.6082447957296
 20
245.8811496238511
  0
LINE
  5
23A
330
1F
100
AcDbEntity
  8
CARTOUCHE
  6
CONTINUOUS
 62
     4
100
AcDbLine
 10
441.2817552042703
 20
235.8081496238511
 30
0.0
 11
439.4637552042703
 21
235.8081496238511
 31
0.0
  0
LINE
  5
23B
330
1F
100
AcDbEntity
  8
CARTOUCHE
  6
CONTINUOUS
 62
     4
100
AcDbLine
 10
441.2817552042703
 20
231.4971496238511
 30
0.0
 11
439.4637552042703
 21
231.4971496238511
 31
0.0
  0
LINE
  5
23C
330
1F
100
AcDbEntity
  8
CARTOUCHE
  6
CONTINUOUS
 62
     4
100
AcDbLine
 10
439.4637552042703
 20
235.373149623851
 30
0.0
 11
441.2817552042703
 21
235.373149623851
 31
0.0
  0
SPLINE
  5
23D
330
1F
100
AcDbEntity
  8
CARTOUCHE
  6
CONTINUOUS
 62
     4
100
AcDbSpline
210
0.0
220
0.0
230
1.0
 70
     8
 71
     3
 72
    14
 73
    10
 74
     8
 42
0.0000000001
 43
0.0000000001
 44
0.000001
 12
-0.0678904074542076
 22
-0.9976927846665532
 32
0.0
 13
-0.8200536786282803
 23
0.5722866101598267
 33
0.0
 40
0.0
 40
0.0
 40
0.0
 40
0.0
 40
0.2176135355074946
 40
0.4352355907184375
 40
0.6528409897774666
 40
0.8704569022321233
 40
1.08806822485822
 40
1.305663728345029
 40
1.523275238255815
 40
1.523275238255815
 40
1.523275238255815
 40
1.523275238255815
 10
430.978939972475
 20
232.0345863372376
 30
0.0
 10
430.9740153486106
 20
231.9622158524971
 30
0.0
 10
430.9402980731029
 20
231.8182780072179
 30
0.0
 10
430.8257521562489
 20
231.6284795396981
 30
0.0
 10
430.6533764165899
 20
231.4896347450035
 30
0.0
 10
430.4527499101636
 20
231.4008865373381
 30
0.0
 10
430.2328752599191
 20
231.3681122739547
 30
0.0
 10
430.0178695962269
 20
231.4225723423831
 30
0.0
 10
429.8889003484426
 20
231.4915587525983
 30
0.0
 10
429.8294159753712
 20
231.5330708037112
 30
0.0
 11
430.978939972475
 21
232.0345863372376
 31
0.0
 11
430.9296374584834
 21
231.8226304959577
 31
0.0
 11
430.8161105665783
 21
231.636966750727
 31
0.0
 11
430.6486706475734
 21
231.4979846320828
 31
0.0
 11
430.4495399083129
 21
231.4102141401408
 31
0.0
 11
430.2336812408761
 21
231.3826503749049
 31
0.0
 11
430.0214660633197
 21
231.4307394422241
 31
0.0
 11
429.8294159753712
 21
231.5330708037112
 31
0.0
  0
ARC
  5
23E
330
1F
100
AcDbEntity
  8
CARTOUCHE
  6
CONTINUOUS
 62
     4
100
AcDbCircle
 10
428.6067552042704
 20
234.7161496238511
 30
0.0
 40
0.471
100
AcDbArc
 50
290.582000000001
 51
349.5979999999994
  0
LINE
  5
23F
330
1F
100
AcDbEntity
  8
CARTOUCHE
  6
CONTINUOUS
 62
     4
100
AcDbLine
 10
430.9787552042703
 20
235.373149623851
 30
0.0
 11
432.1107552042703
 21
235.373149623851
 31
0.0
  0
LINE
  5
240
330
1F
100
AcDbEntity
  8
CARTOUCHE
  6
CONTINUOUS
 62
     4
100
AcDbLine
 10
430.9787552042703
 20
232.0341496238511
 30
0.0
 11
430.9787552042703
 21
235.373149623851
 31
0.0
  0
LINE
  5
241
330
1F
100
AcDbEntity
  8
CARTOUCHE
  6
CONTINUOUS
 62
     4
100
AcDbLine
 10
427.0337552042702
 20
234.2751496238511
 30
0.0
 11
429.8297552042703
 21
231.5331496238511
 31
0.0
  0
LINE
  5
242
330
1F
100
AcDbEntity
  8
CARTOUCHE
  6
CONTINUOUS
 62
     4
100
AcDbLine
 10
425.8317552042703
 20
234.2751496238511
 30
0.0
 11
427.0337552042702
 21
234.2751496238511
 31
0.0
  0
LINE
  5
243
330
1F
100
AcDbEntity
  8
CARTOUCHE
  6
CONTINUOUS
 62
     4
100
AcDbLine
 10
428.1207552042704
 20
235.2931496238511
 30
0.0
 11
425.8307552042703
 21
235.2931496238511
 31
0.0
  0
LINE
  5
244
330
1F
100
AcDbEntity
  8
CARTOUCHE
  6
CONTINUOUS
 62
     4
100
AcDbLine
 10
428.5437552042703
 20
234.2751496238511
 30
0.0
 11
428.7717552042703
 21
234.2751496238511
 31
0.0
  0
LINE
  5
245
330
1F
100
AcDbEntity
  8
CARTOUCHE
  6
CONTINUOUS
 62
     4
100
AcDbLine
 10
430.0187552042703
 20
232.6751496238511
 30
0.0
 11
428.5437552042703
 21
234.2751496238511
 31
0.0
  0
HATCH
  5
246
330
1F
100
AcDbEntity
  8
CARTOUCHE
  6
CONTINUOUS
 62
     4
100
AcDbHatch
 10
0.0
 20
0.0
 30
0.0
210
0.0
220
0.0
230
1.0
  2
ANSI31
 70
     0
 71
     0
 91
        1
 92
        1
 93
       16
 72
     1
 10
438.3347699962626
 20
235.7965867301209
 11
438.7432399962626
 21
235.7965867301209
 72
     1
 10
438.7432399962626
 20
235.7965867301209
 11
438.7432399962626
 21
236.6997367301209
 72
     1
 10
438.7432399962626
 20
236.6997367301209
 11
437.2359759962626
 21
236.6997367301209
 72
     1
 10
436.3303399962624
 20
235.7941437301209
 11
436.3303399962624
 21
235.3731367301209
 72
     1
 10
436.3303399962624
 20
235.3731367301209
 11
435.7930399962625
 21
235.3731367301209
 72
     1
 10
435.7930399962625
 20
235.3731367301209
 11
435.7930399962625
 21
234.2755867301209
 72
     1
 10
435.7930399962625
 20
234.2755867301209
 11
436.3303399962624
 21
234.2755867301209
 72
     1
 10
436.3303399962624
 20
234.2755867301209
 11
436.3303399962624
 21
231.4968367301209
 72
     1
 10
436.3303399962624
 20
231.4968367301209
 11
438.1258399962625
 21
231.4968367301209
 72
     1
 10
438.1258399962625
 20
231.4968367301209
 11
438.1258399962625
 21
234.2755867301209
 72
     1
 10
438.1258399962625
 20
234.2755867301209
 11
438.7432399962626
 21
234.2755867301209
 72
     1
 10
438.7432399962626
 20
234.2755867301209
 11
438.7432399962626
 21
235.3731367301209
 72
     1
 10
438.7432399962626
 20
235.3731367301209
 11
438.0686899962625
 21
235.3731367301209
 72
     1
 10
438.0686899962625
 20
235.3731367301209
 11
438.1167959962623
 21
235.6333647301209
 72
     2
 10
437.2359759962626
 20
235.7941437301209
 40
0.905639
 50
90.0
 51
180.0
 73
     1
 72
     2
 10
438.3617049962623
 20
235.5334587301209
 40
0.264503
 50
95.845
 51
157.8079999999999
 73
     1
 97
        0
 75
     0
 76
     1
 52
0.0
 41
0.1
 77
     0
 78
     1
 53
45.0
 43
0.0
 44
0.0
 45
-0.2245064030267288
 46
0.2245064030267288
 79
     0
 98
        1
 10
-119.6082447957296
 20
245.8811496238511
  0
ARC
  5
247
330
1F
100
AcDbEntity
  8
CARTOUCHE
  6
CONTINUOUS
 62
     4
100
AcDbCircle
 10
438.3617552042704
 20
235.5331496238511
 30
0.0
 40
0.265
100
AcDbArc
 50
95.84499999999962
 51
157.8079999999986
  0
LINE
  5
248
330
1F
100
AcDbEntity
  8
CARTOUCHE
  6
CONTINUOUS
 62
     4
100
AcDbLine
 10
439.4637552042703
 20
231.4971496238511
 30
0.0
 11
439.4637552042703
 21
235.373149623851
 31
0.0
  0
LINE
  5
249
330
1F
100
AcDbEntity
  8
CARTOUCHE
  6
CONTINUOUS
 62
     4
100
AcDbLine
 10
438.3347552042703
 20
235.7961496238511
 30
0.0
 11
438.7427552042703
 21
235.7961496238511
 31
0.0
  0
LINE
  5
24A
330
1F
100
AcDbEntity
  8
CARTOUCHE
  6
CONTINUOUS
 62
     4
100
AcDbLine
 10
438.0687552042703
 20
235.373149623851
 30
0.0
 11
438.1167552042703
 21
235.6331496238511
 31
0.0
  0
LINE
  5
24B
330
1F
100
AcDbEntity
  8
CARTOUCHE
  6
CONTINUOUS
 62
     4
100
AcDbLine
 10
438.7427552042703
 20
235.373149623851
 30
0.0
 11
438.0687552042703
 21
235.373149623851
 31
0.0
  0
LINE
  5
24C
330
1F
100
AcDbEntity
  8
CARTOUCHE
  6
CONTINUOUS
 62
     4
100
AcDbLine
 10
438.7427552042703
 20
234.2751496238511
 30
0.0
 11
438.7427552042703
 21
235.373149623851
 31
0.0
  0
LINE
  5
24D
330
1F
100
AcDbEntity
  8
CARTOUCHE
  6
CONTINUOUS
 62
     4
100
AcDbLine
 10
438.1257552042703
 20
234.2751496238511
 30
0.0
 11
438.7427552042703
 21
234.2751496238511
 31
0.0
  0
LINE
  5
24E
330
1F
100
AcDbEntity
  8
CARTOUCHE
  6
CONTINUOUS
 62
     4
100
AcDbLine
 10
438.1257552042703
 20
231.4971496238511
 30
0.0
 11
438.1257552042703
 21
234.2751496238511
 31
0.0
  0
LINE
  5
24F
330
1F
100
AcDbEntity
  8
CARTOUCHE
  6
CONTINUOUS
 62
     4
100
AcDbLine
 10
436.3307552042702
 20
231.4971496238511
 30
0.0
 11
438.1257552042703
 21
231.4971496238511
 31
0.0
  0
LINE
  5
250
330
1F
100
AcDbEntity
  8
CARTOUCHE
  6
CONTINUOUS
 62
     4
100
AcDbLine
 10
436.3307552042702
 20
234.2751496238511
 30
0.0
 11
436.3307552042702
 21
231.4971496238511
 31
0.0
  0
LINE
  5
251
330
1F
100
AcDbEntity
  8
CARTOUCHE
  6
CONTINUOUS
 62
     4
100
AcDbLine
 10
435.7927552042703
 20
234.2751496238511
 30
0.0
 11
436.3307552042702
 21
234.2751496238511
 31
0.0
  0
LINE
  5
252
330
1F
100
AcDbEntity
  8
CARTOUCHE
  6
CONTINUOUS
 62
     4
100
AcDbLine
 10
435.7927552042703
 20
235.373149623851
 30
0.0
 11
435.7927552042703
 21
234.2751496238511
 31
0.0
  0
LINE
  5
253
330
1F
100
AcDbEntity
  8
CARTOUCHE
  6
CONTINUOUS
 62
     4
100
AcDbLine
 10
436.3307552042702
 20
235.373149623851
 30
0.0
 11
435.7927552042703
 21
235.373149623851
 31
0.0
  0
LINE
  5
254
330
1F
100
AcDbEntity
  8
CARTOUCHE
  6
CONTINUOUS
 62
     4
100
AcDbLine
 10
436.3307552042702
 20
235.7961496238511
 30
0.0
 11
436.3307552042702
 21
235.373149623851
 31
0.0
  0
HATCH
  5
255
330
1F
100
AcDbEntity
  8
CARTOUCHE
  6
CONTINUOUS
 62
     4
100
AcDbHatch
 10
0.0
 20
0.0
 30
0.0
210
0.0
220
0.0
230
1.0
  2
ANSI31
 70
     0
 71
     0
 91
        1
 92
        1
 93
       12
 72
     1
 10
445.7641399962626
 20
233.3437767301209
 11
445.7641399962626
 21
231.4968367301209
 72
     1
 10
445.7641399962626
 20
231.4968367301209
 11
447.5479399962625
 21
231.4968367301209
 72
     1
 10
447.5479399962625
 20
231.4968367301209
 11
447.5479399962625
 21
234.1892957301209
 72
     1
 10
443.9456899962624
 20
234.9388867301209
 11
443.9456899962624
 21
235.3731367301209
 72
     1
 10
443.9456899962624
 20
235.3731367301209
 11
442.1506399962624
 21
235.3731367301209
 72
     1
 10
442.1506399962624
 20
235.3731367301209
 11
442.1506399962624
 21
231.4968367301209
 72
     1
 10
442.1506399962624
 20
231.4968367301209
 11
443.9456899962624
 21
231.4968367301209
 72
     1
 10
443.9456899962624
 20
231.4968367301209
 11
443.9456899962624
 21
233.2982417301209
 72
     2
 10
445.1130409962624
 20
233.3437767301209
 40
0.6511239999999999
 50
0.0
 51
97.15100000000001
 73
     1
 72
     2
 10
446.3307449962623
 20
234.1296157301209
 40
1.218658
 50
2.807
 51
66.54600000000001
 73
     1
 72
     2
 10
445.7231199962627
 20
231.9100037301209
 40
3.511892
 50
71.872
 51
120.406
 73
     1
 72
     2
 10
445.0995269962624
 20
232.6848217301209
 40
1.306761
 50
92.963
 51
152.003
 73
     1
 97
        0
 75
     0
 76
     1
 52
0.0
 41
0.1
 77
     0
 78
     1
 53
45.0
 43
0.0
 44
0.0
 45
-0.2245064030267288
 46
0.2245064030267288
 79
     0
 98
        1
 10
-119.6082447957296
 20
245.8811496238511
  0
ARC
  5
256
330
1F
100
AcDbEntity
  8
CARTOUCHE
  6
CONTINUOUS
 62
     4
100
AcDbCircle
 10
446.3307552042703
 20
234.1291496238511
 30
0.0
 40
1.219
100
AcDbArc
 50
2.807000000000564
 51
66.54600000000313
  0
LINE
  5
257
330
1F
100
AcDbEntity
  8
CARTOUCHE
  6
CONTINUOUS
 62
     4
100
AcDbLine
 10
445.7637552042703
 20
231.4971496238511
 30
0.0
 11
447.5477552042702
 21
231.4971496238511
 31
0.0
  0
ARC
  5
258
330
1F
100
AcDbEntity
  8
CARTOUCHE
  6
CONTINUOUS
 62
     4
100
AcDbCircle
 10
445.0997552042704
 20
232.6851496238511
 30
0.0
 40
1.306999999999999
100
AcDbArc
 50
92.96299999999936
 51
152.0029999999992
  0
ARC
  5
259
330
1F
100
AcDbEntity
  8
CARTOUCHE
  6
CONTINUOUS
 62
     4
100
AcDbCircle
 10
445.1127552042703
 20
233.3441496238511
 30
0.0
 40
0.6509999999999999
100
AcDbArc
 50
0.0
 51
97.15100000000305
  0
ARC
  5
25A
330
1F
100
AcDbEntity
  8
CARTOUCHE
  6
CONTINUOUS
 62
     4
100
AcDbCircle
 10
445.7227552042703
 20
231.9101496238511
 30
0.0
 40
3.512
100
AcDbArc
 50
71.87199999999997
 51
120.4059999999964
  0
LINE
  5
25B
330
1F
100
AcDbEntity
  8
CARTOUCHE
  6
CONTINUOUS
 62
     4
100
AcDbLine
 10
441.2817552042703
 20
235.373149623851
 30
0.0
 11
441.2817552042703
 21
231.4971496238511
 31
0.0
  0
LINE
  5
25C
330
1F
100
AcDbEntity
  8
CARTOUCHE
  6
CONTINUOUS
 62
     4
100
AcDbLine
 10
443.9457552042703
 20
231.4971496238511
 30
0.0
 11
443.9457552042703
 21
233.2981496238511
 31
0.0
  0
LINE
  5
25D
330
1F
100
AcDbEntity
  8
CARTOUCHE
  6
CONTINUOUS
 62
     4
100
AcDbLine
 10
442.1507552042704
 20
231.4971496238511
 30
0.0
 11
443.9457552042703
 21
231.4971496238511
 31
0.0
  0
LINE
  5
25E
330
1F
100
AcDbEntity
  8
CARTOUCHE
  6
CONTINUOUS
 62
     4
100
AcDbLine
 10
442.1507552042704
 20
235.373149623851
 30
0.0
 11
442.1507552042704
 21
231.4971496238511
 31
0.0
  0
LINE
  5
25F
330
1F
100
AcDbEntity
  8
CARTOUCHE
  6
CONTINUOUS
 62
     4
100
AcDbLine
 10
443.9457552042703
 20
235.373149623851
 30
0.0
 11
442.1507552042704
 21
235.373149623851
 31
0.0
  0
LINE
  5
260
330
1F
100
AcDbEntity
  8
CARTOUCHE
  6
CONTINUOUS
 62
     4
100
AcDbLine
 10
443.9457552042703
 20
234.939149623851
 30
0.0
 11
443.9457552042703
 21
235.373149623851
 31
0.0
  0
LINE
  5
261
330
1F
100
AcDbEntity
  8
CARTOUCHE
  6
CONTINUOUS
 62
     4
100
AcDbLine
 10
445.7637552042703
 20
233.3441496238511
 30
0.0
 11
445.7637552042703
 21
231.4971496238511
 31
0.0
  0
HATCH
  5
262
330
1F
100
AcDbEntity
  8
CARTOUCHE
  6
CONTINUOUS
 62
     4
100
AcDbHatch
 10
0.0
 20
0.0
 30
0.0
210
0.0
220
0.0
230
1.0
  2
ANSI31
 70
     0
 71
     0
 91
        1
 92
        1
 93
      154
 72
     1
 10
451.8472399962624
 20
235.1846467301209
 11
451.7923559962624
 21
235.2302077301209
 72
     1
 10
451.7923559962626
 20
235.2302077301209
 11
451.7490699962626
 21
235.2616947301209
 72
     1
 10
451.7490699962625
 20
235.2616947301209
 11
451.7038629962625
 21
235.2902607301209
 72
     1
 10
451.7038629962625
 20
235.2902607301209
 11
451.6410319962626
 21
235.3229857301209
 72
     1
 10
451.6410319962626
 20
235.3229857301209
 11
451.5921319962626
 21
235.3439257301209
 72
     1
 10
451.5921319962626
 20
235.3439257301209
 11
451.5421309962626
 21
235.3620917301209
 72
     1
 10
451.5421309962626
 20
235.3620917301209
 11
451.4560859962625
 21
235.3874127301209
 72
     1
 10
451.4560859962625
 20
235.3874127301209
 11
451.3687729962624
 21
235.4078797301209
 72
     1
 10
451.3687729962624
 20
235.4078797301209
 11
451.1917019962623
 21
235.4419067301209
 72
     1
 10
451.1917019962623
 20
235.4419067301209
 11
450.8395779962625
 21
235.4963857301209
 72
     1
 10
450.8395779962625
 20
235.4963857301209
 11
450.4854309962625
 21
235.5183537301209
 72
     1
 10
450.4854309962625
 20
235.5183537301209
 11
450.1287919962623
 21
235.5075017301209
 72
     1
 10
450.1287919962623
 20
235.5075017301209
 11
449.9512519962625
 21
235.4923097301209
 72
     1
 10
449.9512519962625
 20
235.4923097301209
 11
449.7751389962624
 21
235.4666647301209
 72
     1
 10
449.7751389962624
 20
235.4666647301209
 11
449.6361099962625
 21
235.4356167301209
 72
     1
 10
449.6361099962625
 20
235.4356167301209
 11
449.4319859962626
 21
235.3716617301209
 72
     1
 10
449.4319859962624
 20
235.3716617301209
 11
449.2995739962624
 21
235.3181847301209
 72
     1
 10
449.2995739962624
 20
235.3181847301209
 11
449.2029159962625
 21
235.2722207301209
 72
     1
 10
449.2029159962624
 20
235.2722207301209
 11
449.1090349962624
 21
235.2209427301209
 72
     1
 10
449.1090349962624
 20
235.2209427301209
 11
448.9889929962624
 21
235.1442837301209
 72
     1
 10
448.9889929962625
 20
235.1442837301209
 11
448.8199679962624
 21
235.0134307301209
 72
     1
 10
448.8199679962624
 20
235.0134307301209
 11
448.7146549962626
 21
234.9171007301209
 72
     1
 10
448.7146549962626
 20
234.9171007301209
 11
448.5683999962626
 21
234.7608567301209
 72
     1
 10
448.5683999962626
 20
234.7608567301209
 11
448.4791619962623
 21
234.6496737301209
 72
     1
 10
448.4791619962623
 20
234.6496737301209
 11
448.3595099962624
 21
234.4725617301209
 72
     1
 10
448.3595099962624
 20
234.4725617301209
 11
448.2905329962624
 21
234.3477627301209
 72
     1
 10
448.2905329962624
 20
234.3477627301209
 11
448.2448129962624
 21
234.2510527301209
 72
     1
 10
448.2448129962624
 20
234.2510527301209
 11
448.2043779962624
 21
234.1520347301209
 72
     1
 10
448.2043779962624
 20
234.1520347301209
 11
448.1587939962626
 21
234.0168747301209
 72
     1
 10
448.1587939962625
 20
234.0168747301209
 11
448.1081899962624
 21
233.8089417301209
 72
     1
 10
448.1081899962624
 20
233.8089417301209
 11
448.0863489962626
 21
233.6678927301209
 72
     1
 10
448.0863489962626
 20
233.6678927301209
 11
448.0767639962624
 21
233.5613307301209
 72
     1
 10
448.0767639962624
 20
233.5613307301209
 11
448.0735369962626
 21
233.4544727301209
 72
     1
 10
448.0735369962624
 20
233.4544727301209
 11
448.0794999962625
 21
233.3120977301209
 72
     1
 10
448.0794999962625
 20
233.3120977301209
 11
448.1077639962624
 21
233.1000087301209
 72
     1
 10
448.1077639962624
 20
233.1000087301209
 11
448.1375399962624
 21
232.9604257301209
 72
     1
 10
448.1375399962624
 20
232.9604257301209
 11
448.1986579962624
 21
232.7554797301209
 72
     1
 10
448.1986579962624
 20
232.7554797301209
 11
448.2509619962625
 21
232.6228867301209
 72
     1
 10
448.2509619962625
 20
232.6228867301209
 11
448.2963799962624
 21
232.5260687301209
 72
     1
 10
448.2963799962624
 20
232.5260687301209
 11
448.3471129962624
 21
232.4319057301209
 72
     1
 10
448.3471129962624
 20
232.4319057301209
 11
448.4230579962623
 21
232.3110447301209
 72
     1
 10
448.4230579962623
 20
232.3110447301209
 11
448.4860879962626
 21
232.2245207301209
 72
     1
 10
448.4860879962626
 20
232.2245207301209
 11
448.5542069962624
 21
232.1419927301209
 72
     1
 10
448.5542069962624
 20
232.1419927301209
 11
448.6524839962625
 21
232.0388227301209
 72
     1
 10
448.6524839962624
 20
232.0388227301209
 11
448.8137419962624
 21
231.8985097301209
 72
     1
 10
448.8137419962624
 20
231.8985097301209
 11
448.9289489962624
 21
231.8143197301209
 72
     1
 10
448.9289489962624
 20
231.8143197301209
 11
449.1111999962624
 21
231.7021217301209
 72
     1
 10
449.1111999962624
 20
231.7021217301209
 11
449.2380019962625
 21
231.6369387301209
 72
     1
 10
449.2380019962625
 20
231.6369387301209
 11
449.3357549962625
 21
231.5936857301209
 72
     1
 10
449.3357549962625
 20
231.5936857301209
 11
449.4356869962624
 21
231.5558677301209
 72
     1
 10
449.4356869962624
 20
231.5558677301209
 11
449.5721229962624
 21
231.5144797301209
 72
     1
 10
449.5721229962624
 20
231.5144797301209
 11
449.7815309962624
 21
231.4708247301209
 72
     1
 10
449.7815309962624
 20
231.4708247301209
 11
449.9583939962626
 21
231.4494767301209
 72
     1
 10
449.9583939962626
 20
231.4494767301209
 11
450.1362209962624
 21
231.4384837301209
 72
     1
 10
450.1362209962624
 20
231.4384837301209
 11
450.4921369962625
 21
231.4356367301209
 72
     1
 10
450.4921369962625
 20
231.4356367301209
 11
450.8485869962624
 21
231.4508447301209
 72
     1
 10
450.8485869962624
 20
231.4508447301209
 11
450.9903139962624
 21
231.4647427301209
 72
     1
 10
450.9903139962624
 20
231.4647427301209
 11
451.2009879962626
 21
231.5006267301209
 72
     1
 10
451.2009879962625
 20
231.5006267301209
 11
451.3385699962624
 21
231.5377587301209
 72
     1
 10
451.3385699962624
 20
231.5377587301209
 11
451.4731499962624
 21
231.5858967301209
 72
     1
 10
451.4731499962624
 20
231.5858967301209
 11
451.6035649962624
 21
231.6445647301209
 72
     1
 10
451.6035649962624
 20
231.6445647301209
 11
451.7286499962624
 21
231.7132867301209
 72
     1
 10
451.7286499962624
 20
231.7132867301209
 11
451.8472399962625
 21
231.7915867301209
 72
     1
 10
451.8472399962624
 20
231.7915867301209
 11
451.8472399962624
 21
231.4855867301209
 72
     1
 10
451.8472399962624
 20
231.4855867301209
 11
453.6422899962624
 21
231.4855867301209
 72
     1
 10
453.6422899962624
 20
231.4855867301209
 11
453.6422899962624
 21
236.6884867301209
 72
     1
 10
453.6422899962624
 20
236.6884867301209
 11
451.8472399962624
 21
236.6884867301209
 72
     1
 10
451.8472399962624
 20
236.6884867301209
 11
451.8472399962624
 21
235.1846467301209
 72
     1
 10
451.8472399962624
 20
233.6239867301209
 11
451.8409409962624
 21
233.6621717301209
 72
     1
 10
451.8409409962625
 20
233.6621717301209
 11
451.8324209962624
 21
233.7000007301209
 72
     1
 10
451.8324209962624
 20
233.7000007301209
 11
451.8216889962626
 21
233.7373077301209
 72
     1
 10
451.8216889962626
 20
233.7373077301209
 11
451.8087579962624
 21
233.7739267301209
 72
     1
 10
451.8087579962624
 20
233.7739267301209
 11
451.7936359962626
 21
233.8096927301209
 72
     1
 10
451.7936359962626
 20
233.8096927301209
 11
451.7763389962624
 21
233.8444667301209
 72
     1
 10
451.7763389962624
 20
233.8444667301209
 11
451.7569579962626
 21
233.8781127301209
 72
     1
 10
451.7569579962626
 20
233.8781127301209
 11
451.7355879962624
 21
233.9105237301209
 72
     1
 10
451.7355879962624
 20
233.9105237301209
 11
451.7123269962626
 21
233.9415907301209
 72
     1
 10
451.7123269962625
 20
233.9415907301209
 11
451.6872709962624
 21
233.9712067301209
 72
     1
 10
451.6872709962624
 20
233.9712067301209
 11
451.6605249962624
 21
233.9992827301209
 72
     1
 10
451.6605249962624
 20
233.9992827301209
 11
451.6322299962626
 21
234.0258017301209
 72
     1
 10
451.6322299962626
 20
234.0258017301209
 11
451.5872139962624
 21
234.0626627301209
 72
     1
 10
451.5872139962624
 20
234.0626627301209
 11
451.5395559962626
 21
234.0960307301209
 72
     1
 10
451.5395559962625
 20
234.0960307301209
 11
451.4731249962624
 21
234.1349967301209
 72
     1
 10
451.4731249962624
 20
234.1349967301209
 11
451.3683169962625
 21
234.1834477301209
 72
     1
 10
451.3683169962625
 20
234.1834477301209
 11
451.1848429962624
 21
234.2449827301209
 72
     1
 10
451.1848429962624
 20
234.2449827301209
 11
450.9970119962625
 21
234.2915497301209
 72
     1
 10
450.9970119962624
 20
234.2915497301209
 11
450.9210839962625
 21
234.3034627301209
 72
     1
 10
450.9210839962625
 20
234.3034627301209
 11
450.8637089962624
 21
234.3089267301209
 72
     1
 10
450.8637089962624
 20
234.3089267301209
 11
450.8061499962624
 21
234.3109277301209
 72
     1
 10
450.8061499962624
 20
234.3109277301209
 11
450.7289229962624
 21
234.3076837301209
 72
     1
 10
450.7289229962624
 20
234.3076837301209
 11
450.6712769962624
 21
234.3010117301209
 72
     1
 10
450.6712769962624
 20
234.3010117301209
 11
450.6140999962624
 21
234.2909947301209
 72
     1
 10
450.6140999962624
 20
234.2909947301209
 11
450.5385079962624
 21
234.2726927301209
 72
     1
 10
450.5385079962624
 20
234.2726927301209
 11
450.4828099962623
 21
234.2554317301209
 72
     1
 10
450.4828099962623
 20
234.2554317301209
 11
450.4281179962625
 21
234.2352217301209
 72
     1
 10
450.4281179962625
 20
234.2352217301209
 11
450.3573399962625
 21
234.2039067301209
 72
     1
 10
450.3573399962625
 20
234.2039067301209
 11
450.3058929962624
 21
234.1769877301209
 72
     1
 10
450.3058929962624
 20
234.1769877301209
 11
450.2560949962624
 21
234.1470427301209
 72
     1
 10
450.2560949962624
 20
234.1470427301209
 11
450.1931579962624
 21
234.1027227301209
 72
     1
 10
450.1931579962624
 20
234.1027227301209
 11
450.1340889962624
 21
234.0531557301209
 72
     1
 10
450.1340889962624
 20
234.0531557301209
 11
450.0794859962623
 21
233.9985187301209
 72
     1
 10
450.0794859962623
 20
233.9985187301209
 11
450.0299469962626
 21
233.9389897301209
 72
     1
 10
450.0299469962626
 20
233.9389897301209
 11
449.9860699962625
 21
233.8747457301209
 72
     1
 10
449.9860699962625
 20
233.8747457301209
 11
449.9485349962626
 21
233.8061367301209
 72
     1
 10
449.9485349962626
 20
233.8061367301209
 11
449.9182379962624
 21
233.7339887301209
 72
     1
 10
449.9182379962624
 20
233.7339887301209
 11
449.9061129962624
 21
233.6968977301209
 72
     1
 10
449.9061129962624
 20
233.6968977301209
 11
449.8961659962626
 21
233.6592947301209
 72
     1
 10
449.8961659962626
 20
233.6592947301209
 11
449.8885219962623
 21
233.6213037301209
 72
     1
 10
449.8885219962623
 20
233.6213037301209
 11
449.8833029962624
 21
233.5830487301209
 72
     1
 10
449.8833029962624
 20
233.5830487301209
 11
449.8806339962624
 21
233.5446547301209
 72
     1
 10
449.8806339962624
 20
233.5446547301209
 11
449.8806359962624
 21
233.5062457301209
 72
     1
 10
449.8806359962624
 20
233.5062457301209
 11
449.8834099962624
 21
233.4676827301209
 72
     1
 10
449.8834099962624
 20
233.4676827301209
 11
449.8888279962626
 21
233.4293607301209
 72
     1
 10
449.8888279962626
 20
233.4293607301209
 11
449.8966979962624
 21
233.3914097301209
 72
     1
 10
449.8966979962624
 20
233.3914097301209
 11
449.9068309962624
 21
233.3539597301209
 72
     1
 10
449.9068309962624
 20
233.3539597301209
 11
449.9190349962624
 21
233.3171427301209
 72
     1
 10
449.9190349962624
 20
233.3171427301209
 11
449.9493619962625
 21
233.2451677301209
 72
     1
 10
449.9493619962625
 20
233.2451677301209
 11
449.9767649962624
 21
233.1934487301209
 72
     1
 10
449.9767649962624
 20
233.1934487301209
 11
450.0078709962624
 21
233.1438427301209
 72
     1
 10
450.0078709962624
 20
233.1438427301209
 11
450.0543029962624
 21
233.0818557301209
 72
     1
 10
450.0543029962624
 20
233.0818557301209
 11
450.0929519962624
 21
233.0385147301209
 72
     1
 10
450.0929519962624
 20
233.0385147301209
 11
450.1347829962623
 21
232.9982967301209
 72
     1
 10
450.1347829962623
 20
232.9982967301209
 11
450.1949029962625
 21
232.9502297301209
 72
     1
 10
450.1949029962625
 20
232.9502297301209
 11
450.2429289962624
 21
232.9180977301209
 72
     1
 10
450.2429289962624
 20
232.9180977301209
 11
450.2929739962626
 21
232.8892237301209
 72
     1
 10
450.2929739962625
 20
232.8892237301209
 11
450.3627649962623
 21
232.8552617301209
 72
     1
 10
450.3627649962623
 20
232.8552617301209
 11
450.4713649962626
 21
232.8133237301209
 72
     1
 10
450.4713649962626
 20
232.8133237301209
 11
450.5453799962624
 21
232.7904417301209
 72
     1
 10
450.5453799962624
 20
232.7904417301209
 11
450.6584549962624
 21
232.7639107301209
 72
     1
 10
450.6584549962624
 20
232.7639107301209
 11
450.7346309962624
 21
232.7519877301209
 72
     1
 10
450.7346309962624
 20
232.7519877301209
 11
450.8499159962624
 21
232.7433887301209
 72
     1
 10
450.8499159962624
 20
232.7433887301209
 11
450.9271799962625
 21
232.7442517301209
 72
     1
 10
450.9271799962625
 20
232.7442517301209
 11
451.0426189962625
 21
232.7556427301209
 72
     1
 10
451.0426189962625
 20
232.7556427301209
 11
451.1185069962624
 21
232.7698697301209
 72
     1
 10
451.1185069962624
 20
232.7698697301209
 11
451.1933479962624
 21
232.7892967301209
 72
     1
 10
451.1933479962624
 20
232.7892967301209
 11
451.2667189962623
 21
232.8137897301209
 72
     1
 10
451.2667189962623
 20
232.8137897301209
 11
451.3381939962625
 21
232.8432157301209
 72
     1
 10
451.3381939962625
 20
232.8432157301209
 11
451.4073509962626
 21
232.8774407301209
 72
     1
 10
451.4073509962624
 20
232.8774407301209
 11
451.4742159962625
 21
232.9165887301209
 72
     1
 10
451.4742159962625
 20
232.9165887301209
 11
451.5689269962624
 21
232.9838687301209
 72
     1
 10
451.5689269962624
 20
232.9838687301209
 11
451.6278629962624
 21
233.0343417301209
 72
     1
 10
451.6278629962625
 20
233.0343417301209
 11
451.6690419962626
 21
233.0754067301209
 72
     1
 10
451.6690419962626
 20
233.0754067301209
 11
451.7069139962623
 21
233.1194837301209
 72
     1
 10
451.7069139962623
 20
233.1194837301209
 11
451.7299539962624
 21
233.1505247301209
 72
     1
 10
451.7299539962624
 20
233.1505247301209
 11
451.7511669962624
 21
233.1828837301209
 72
     1
 10
451.7511669962624
 20
233.1828837301209
 11
451.7704689962625
 21
233.2164437301209
 72
     1
 10
451.7704689962624
 20
233.2164437301209
 11
451.7877769962624
 21
233.2510867301209
 72
     1
 10
451.7877769962624
 20
233.2510867301209
 11
451.8030059962624
 21
233.2866967301209
 72
     1
 10
451.8030059962624
 20
233.2866967301209
 11
451.8161279962625
 21
233.3232677301209
 72
     1
 10
451.8161279962625
 20
233.3232677301209
 11
451.8270939962626
 21
233.3605397301209
 72
     1
 10
451.8270939962624
 20
233.3605397301209
 11
451.8359219962624
 21
233.3983617301209
 72
     1
 10
451.8359219962624
 20
233.3983617301209
 11
451.8426309962624
 21
233.4365777301209
 72
     1
 10
451.8426309962624
 20
233.4365777301209
 11
451.8472399962624
 21
233.4750367301209
 72
     1
 10
451.8472399962624
 20
233.4750367301209
 11
451.8472399962624
 21
233.6239867301209
 97
        0
 75
     0
 76
     1
 52
0.0
 41
0.1
 77
     0
 78
     1
 53
45.0
 43
0.0
 44
0.0
 45
-0.2245064030267288
 46
0.2245064030267288
 79
     0
 98
        1
 10
-119.6082447957296
 20
245.8811496238511
  0
LINE
  5
263
330
1F
100
AcDbEntity
  8
CARTOUCHE
  6
CONTINUOUS
 62
     4
100
AcDbLine
 10
451.8467552042704
 20
231.4851496238511
 30
0.0
 11
451.8467552042704
 21
231.7911496238511
 31
0.0
  0
LINE
  5
264
330
1F
100
AcDbEntity
  8
CARTOUCHE
  6
CONTINUOUS
 62
     4
100
AcDbLine
 10
451.8467552042704
 20
233.475149623851
 30
0.0
 11
451.8467552042704
 21
233.624149623851
 31
0.0
  0
SPLINE
  5
265
330
1F
100
AcDbEntity
  8
CARTOUCHE
  6
CONTINUOUS
 62
     4
100
AcDbSpline
210
0.0
220
0.0
230
1.0
 70
     8
 71
     3
 72
    32
 73
    28
 74
    26
 42
0.0000000001
 43
0.0000000001
 44
0.000001
 12
-0.134108993271187
 22
0.9909665876929397
 32
0.0
 13
0.0921211275964532
 23
0.9957478083583001
 33
0.0
 40
0.0
 40
0.0
 40
0.0
 40
0.0
 40
0.1929417000059432
 40
0.3858860021874015
 40
0.578827818657874
 40
0.7717660881769369
 40
0.9647057414615844
 40
1.157646554945011
 40
1.350584760884528
 40
1.54352385880365
 40
1.736468012364913
 40
1.929406376012581
 40
2.315236575975177
 40
2.700991836250824
 40
2.893945905685634
 40
3.086891500294777
 40
3.279831070101773
 40
3.472768464172051
 40
3.665710755763089
 40
3.858651392814079
 40
4.051590391770177
 40
4.244531298888045
 40
4.630394313786914
 40
4.823335345994063
 40
5.016275838958827
 40
5.209216372248069
 40
5.402158865530698
 40
5.402158865530698
 40
5.402158865530698
 40
5.402158865530698
 10
451.8472399724751
 20
233.6239863372376
 30
0.0
 10
451.8386149000924
 20
233.6877192632638
 30
0.0
 10
451.802830802302
 20
233.8136015944153
 30
0.0
 10
451.6948633800793
 20
233.9770675272756
 30
0.0
 10
451.544563850923
 20
234.1017818921344
 30
0.0
 10
451.3705484192691
 20
234.1878842993521
 30
0.0
 10
451.1863439963486
 20
234.246080150836
 30
0.0
 10
450.9997787150645
 20
234.2957618150508
 30
0.0
 10
450.8068285145502
 20
234.3182331288173
 30
0.0
 10
450.613606650016
 20
234.29685983936
 30
0.0
 10
450.4279002450555
 20
234.2412188008308
 30
0.0
 10
450.1969372832734
 20
234.1249958126321
 30
0.0
 10
449.9596248172196
 20
233.8939236109999
 30
0.0
 10
449.8545284604211
 20
233.5669206488652
 30
0.0
 10
449.9121460112648
 20
233.3114946881762
 30
0.0
 10
450.0020599382558
 20
233.1390500575356
 30
0.0
 10
450.1295416558063
 20
232.9913886068342
 30
0.0
 10
450.2913236036219
 20
232.8826516492148
 30
0.0
 10
450.4705751166765
 20
232.8093042802753
 30
0.0
 10
450.6574055596479
 20
232.759114787071
 30
0.0
 10
450.8501400432094
 20
232.7377761881276
 30
0.0
 10
451.1078587429921
 20
232.7541681464545
 30
0.0
 10
451.3577581285578
 20
232.8377226860833
 30
0.0
 10
451.5730282263229
 20
232.9799333247181
 30
0.0
 10
451.7144722346678
 20
233.1138506796581
 30
0.0
 10
451.8122140614106
 20
233.2836528279569
 30
0.0
 10
451.8413152791274
 20
233.4109956489625
 30
0.0
 10
451.8472399724749
 20
233.4750363372376
 30
0.0
 11
451.8472399724751
 21
233.6239863372376
 31
0.0
 11
451.7937816932522
 21
233.809375054315
 31
0.0
 11
451.6878063796708
 21
233.970610027804
 31
0.0
 11
451.5406090474863
 21
234.0953476694377
 31
0.0
 11
451.3688496680483
 21
234.183233319559
 31
0.0
 11
451.1859499122679
 21
234.2446612318767
 31
0.0
 11
450.9987127023676
 21
234.2912271502057
 31
0.0
 11
450.8067827459875
 21
234.3109259651281
 31
0.0
 11
450.6148599185451
 21
234.2911490580217
 31
0.0
 11
450.4299763217073
 21
234.235962948967
 31
0.0
 11
450.2580907762271
 21
234.1483240400842
 31
0.0
 11
449.9860529309605
 21
233.8747177520084
 31
0.0
 11
449.8807371323322
 21
233.5036169901369
 31
0.0
 11
449.9199283670202
 21
233.3146848898028
 31
0.0
 11
450.008321862789
 21
233.1431780135737
 31
0.0
 11
450.1352580006084
 21
232.9978751998204
 31
0.0
 11
450.294232719569
 21
232.888550519568
 31
0.0
 11
450.4718377411274
 21
232.813163583566
 31
0.0
 11
450.6583892060239
 21
232.7639228965176
 31
0.0
 11
450.8502316103645
 21
232.7433814026325
 31
0.0
 11
451.0427809580916
 21
232.7556673484235
 31
0.0
 11
451.4086848331706
 21
232.8781606968172
 31
0.0
 11
451.569692041598
 21
232.9844758783101
 31
0.0
 11
451.7071875951755
 21
233.1198309545371
 31
0.0
 11
451.8031979410864
 21
233.2871869911465
 31
0.0
 11
451.8472399724749
 21
233.4750363372376
 31
0.0
  0
SPLINE
  5
266
330
1F
100
AcDbEntity
  8
CARTOUCHE
  6
CONTINUOUS
 62
     4
100
AcDbSpline
210
0.0
220
0.0
230
1.0
 70
     8
 71
     3
 72
    36
 73
    32
 74
    30
 42
0.0000000001
 43
0.0000000001
 44
0.000001
 12
-0.7486966541785744
 22
0.6629127544570315
 32
0.0
 13
0.8109899424984657
 23
0.5850600936368292
 33
0.0
 40
0.0
 40
0.0
 40
0.0
 40
0.0
 40
0.1780452274968949
 40
0.3560877368949535
 40
0.5341342068233949
 40
0.7121796397817138
 40
1.068272485405851
 40
1.424362065622532
 40
1.780451368035619
 40
2.136547803889939
 40
2.492633915001108
 40
2.84873080885074
 40
3.204818200237177
 40
3.560910569289983
 40
3.917003179831334
 40
4.273094319389272
 40
4.629183609743235
 40
4.985281207724135
 40
5.341365789049548
 40
5.697461870205851
 40
6.053551079961879
 40
6.409645582314518
 40
6.765733947827909
 40
7.121824762951122
 40
7.477920130638662
 40
7.834009176229196
 40
8.190100012311441
 40
8.546191599297207
 40
8.902283648164397
 40
9.258369457089468
 40
9.970493285481587
 40
9.970493285481587
 40
9.970493285481587
 40
9.970493285481587
 10
451.8472399724751
 20
235.1846469272527
 30
0.0
 10
451.802806017102
 20
235.2239897446454
 30
0.0
 10
451.7076187693032
 20
235.2966879333336
 30
0.0
 10
451.5424721150462
 20
235.36707737273
 30
0.0
 10
451.3692989406881
 20
235.4095588022619
 30
0.0
 10
451.1358309429249
 20
235.4524207536516
 30
0.0
 10
450.8430904904675
 20
235.5024841890443
 30
0.0
 10
450.4868078421583
 20
235.5241213295529
 30
0.0
 10
450.1308600011897
 20
235.5110499031793
 30
0.0
 10
449.7753493327769
 20
235.4775373204063
 30
0.0
 10
449.4307265277881
 20
235.3810453734822
 30
0.0
 10
449.1050853131334
 20
235.2324324375139
 30
0.0
 10
448.8152092275103
 20
235.0219257203371
 30
0.0
 10
448.5633325326572
 20
234.7685404717008
 30
0.0
 10
448.351480128604
 20
234.4802906596873
 30
0.0
 10
448.1952180977156
 20
234.157963426708
 30
0.0
 10
448.0990027368804
 20
233.8135088353103
 30
0.0
 10
448.0608727097136
 20
233.4571232311722
 30
0.0
 10
448.098733132492
 20
233.1010047378821
 30
0.0
 10
448.1878769149728
 20
232.7549267792826
 30
0.0
 10
448.3358297806764
 20
232.4288036524978
 30
0.0
 10
448.542957331183
 20
232.136136990149
 30
0.0
 10
448.8055381379205
 20
231.892350766342
 30
0.0
 10
449.1040216919628
 20
231.6959555016896
 30
0.0
 10
449.4289508188881
 20
231.5457896210041
 30
0.0
 10
449.7772724070682
 20
231.4619961180569
 30
0.0
 10
450.1330313456346
 20
231.4340403164153
 30
0.0
 10
450.4891948038951
 20
231.4334922906501
 30
0.0
 10
450.8452514852832
 20
231.4455230171994
 30
0.0
 10
451.3175791613386
 20
231.5018938436284
 30
0.0
 10
451.6547315515948
 20
231.6527079259976
 30
0.0
 10
451.8472399724746
 20
231.7915863372376
 30
0.0
 11
451.8472399724751
 21
235.1846469272527
 31
0.0
 11
451.7038895223527
 21
235.290245104377
 31
0.0
 11
451.5411347180886
 21
235.3624252102646
 31
0.0
 11
451.3689766321613
 21
235.4078358738211
 31
0.0
 11
451.1941370090865
 21
235.4414705117888
 31
0.0
 11
450.8422560050507
 21
235.4960775357216
 31
0.0
 11
450.4868627626596
 21
235.518336436489
 31
0.0
 11
450.1309340481241
 21
235.5076431135196
 31
0.0
 11
449.7771600051349
 21
235.4670402505667
 31
0.0
 11
449.4338920367206
 21
235.3723596720786
 31
0.0
 11
449.1110427497922
 21
235.222115430955
 31
0.0
 11
448.8215425136324
 21
235.0147803210318
 31
0.0
 11
448.5700024569991
 21
234.7627299594896
 31
0.0
 11
448.3607438582957
 21
234.4746105406098
 31
0.0
 11
448.2052247099696
 21
234.1542752284808
 31
0.0
 11
448.1086831307227
 21
233.8115226534112
 31
0.0
 11
448.0735367667207
 21
233.4571637164212
 31
0.0
 11
448.1072787395577
 21
233.1026813706506
 31
0.0
 11
448.1976780462785
 21
232.7582508120868
 31
0.0
 11
448.3456905744526
 21
232.4343807125714
 31
0.0
 11
448.5521998651555
 21
232.1442820585896
 31
0.0
 11
448.8115202459834
 21
231.900249519714
 31
0.0
 11
449.1084269769429
 21
231.7036609332998
 31
0.0
 11
449.4328505941556
 21
231.556850741824
 31
0.0
 11
449.7785106104886
 21
231.4713021824065
 31
0.0
 11
450.1330973681549
 21
231.4386081019424
 31
0.0
 11
450.4891761407359
 21
231.4355886343069
 31
0.0
 11
450.8449531296721
 21
231.4505645996582
 31
0.0
 11
451.1976098318397
 21
231.4998632077784
 31
0.0
 11
451.8472399724746
 21
231.7915863372376
 31
0.0
  0
LINE
  5
267
330
1F
100
AcDbEntity
  8
CARTOUCHE
  6
CONTINUOUS
 62
     4
100
AcDbLine
 10
453.6427552042702
 20
231.4851496238511
 30
0.0
 11
451.8467552042704
 21
231.4851496238511
 31
0.0
  0
LINE
  5
268
330
1F
100
AcDbEntity
  8
CARTOUCHE
  6
CONTINUOUS
 62
     4
100
AcDbLine
 10
447.5477552042702
 20
231.4971496238511
 30
0.0
 11
447.5477552042702
 21
234.1891496238511
 31
0.0
  0
LINE
  5
269
330
1F
100
AcDbEntity
  8
CARTOUCHE
  6
CONTINUOUS
 62
     4
100
AcDbLine
 10
439.4637552042703
 20
236.7001496238511
 30
0.0
 11
441.2817552042703
 21
236.7001496238511
 31
0.0
  0
ARC
  5
26A
330
1F
100
AcDbEntity
  8
CARTOUCHE
  6
CONTINUOUS
 62
     4
100
AcDbCircle
 10
429.5557552042703
 20
234.790149623851
 30
0.0
 40
3.758999999999999
100
AcDbArc
 50
82.92000000000104
 51
97.42600000000223
  0
LINE
  5
26B
330
1F
100
AcDbEntity
  8
CARTOUCHE
  6
CONTINUOUS
 62
     4
100
AcDbLine
 10
430.9787552042703
 20
236.3681496238511
 30
0.0
 11
430.9787552042703
 21
238.2691496238511
 31
0.0
  0
LINE
  5
26C
330
1F
100
AcDbEntity
  8
CARTOUCHE
  6
CONTINUOUS
 62
     4
100
AcDbLine
 10
432.0097552042703
 20
236.3681496238511
 30
0.0
 11
430.9787552042703
 21
236.3681496238511
 31
0.0
  0
LINE
  5
26D
330
1F
100
AcDbEntity
  8
CARTOUCHE
  6
CONTINUOUS
 62
     4
100
AcDbLine
 10
438.7427552042703
 20
236.7001496238511
 30
0.0
 11
437.2447552042704
 21
236.7001496238511
 31
0.0
  0
LINE
  5
26E
330
1F
100
AcDbEntity
  8
CARTOUCHE
  6
CONTINUOUS
 62
     4
100
AcDbLine
 10
451.8467552042704
 20
236.6881496238511
 30
0.0
 11
453.6427552042702
 21
236.6881496238511
 31
0.0
  0
HATCH
  5
26F
330
1F
100
AcDbEntity
  8
CARTOUCHE
  6
CONTINUOUS
 62
     4
100
AcDbHatch
 10
0.0
 20
0.0
 30
0.0
210
0.0
220
0.0
230
1.0
  2
ANSI31
 70
     0
 71
     0
 91
        1
 92
        1
 93
       78
 72
     1
 10
460.3886899962626
 20
235.3731367301209
 11
460.3886899962626
 21
231.4968367301209
 72
     1
 10
460.3886899962626
 20
231.4968367301209
 11
462.1153399962625
 21
231.4968367301209
 72
     1
 10
462.1153399962625
 20
231.4968367301209
 11
462.1153399962625
 21
233.6469367301209
 72
     1
 10
462.1153399962625
 20
233.6469367301209
 11
462.1192049962624
 21
233.6903057301209
 72
     1
 10
462.1192049962624
 20
233.6903057301209
 11
462.1266629962624
 21
233.7333287301209
 72
     1
 10
462.1266629962624
 20
233.7333287301209
 11
462.1375959962624
 21
233.7757337301209
 72
     1
 10
462.1375959962624
 20
233.7757337301209
 11
462.1518889962624
 21
233.8172467301209
 72
     1
 10
462.1518889962624
 20
233.8172467301209
 11
462.1694239962626
 21
233.8575937301209
 72
     1
 10
462.1694239962626
 20
233.8575937301209
 11
462.1901029962624
 21
233.8964977301209
 72
     1
 10
462.1901029962624
 20
233.8964977301209
 11
462.2138389962627
 21
233.9335567301209
 72
     1
 10
462.2138389962624
 20
233.9335567301209
 11
462.2405579962624
 21
233.9683667301209
 72
     1
 10
462.2405579962624
 20
233.9683667301209
 11
462.2701899962625
 21
234.0005227301209
 72
     1
 10
462.2701899962625
 20
234.0005227301209
 11
462.3026599962624
 21
234.0296207301209
 72
     1
 10
462.3026599962624
 20
234.0296207301209
 11
462.3378259962623
 21
234.0553297301209
 72
     1
 10
462.3378259962625
 20
234.0553297301209
 11
462.3753429962626
 21
234.0776757301209
 72
     1
 10
462.3753429962626
 20
234.0776757301209
 11
462.4147999962624
 21
234.0967547301209
 72
     1
 10
462.4147999962624
 20
234.0967547301209
 11
462.4557839962624
 21
234.1126627301209
 72
     1
 10
462.4557839962626
 20
234.1126627301209
 11
462.4978829962624
 21
234.1254977301209
 72
     1
 10
462.4978829962624
 20
234.1254977301209
 11
462.5411719962625
 21
234.1353977301209
 72
     1
 10
462.5411719962625
 20
234.1353977301209
 11
462.5849579962625
 21
234.1420867301209
 72
     1
 10
462.5849579962625
 20
234.1420867301209
 11
462.6290239962624
 21
234.1453917301209
 72
     1
 10
462.6290239962624
 20
234.1453917301209
 11
462.6731499962623
 21
234.1451437301209
 72
     1
 10
462.6731499962623
 20
234.1451437301209
 11
462.7171159962625
 21
234.1411707301209
 72
     1
 10
462.7171159962625
 20
234.1411707301209
 11
462.7600359962624
 21
234.1334787301209
 72
     1
 10
462.7600359962624
 20
234.1334787301209
 11
462.8021879962624
 21
234.1220367301209
 72
     1
 10
462.8021879962624
 20
234.1220367301209
 11
462.8431729962624
 21
234.1068787301209
 72
     1
 10
462.8431729962624
 20
234.1068787301209
 11
462.8825899962626
 21
234.0880357301209
 72
     1
 10
462.8825899962626
 20
234.0880357301209
 11
462.9200379962626
 21
234.0655397301209
 72
     1
 10
462.9200379962624
 20
234.0655397301209
 11
462.9552209962626
 21
234.0393847301209
 72
     1
 10
462.9552209962626
 20
234.0393847301209
 11
462.9876639962626
 21
234.0098617301209
 72
     1
 10
462.9876639962626
 20
234.0098617301209
 11
463.0170079962624
 21
233.9772417301209
 72
     1
 10
463.0170079962624
 20
233.9772417301209
 11
463.0428979962625
 21
233.9417967301209
 72
     1
 10
463.0428979962625
 20
233.9417967301209
 11
463.0649739962624
 21
233.9037987301209
 72
     1
 10
463.0649739962624
 20
233.9037987301209
 11
463.0828459962624
 21
233.8637537301209
 72
     1
 10
463.0828459962624
 20
233.8637537301209
 11
463.0964489962624
 21
233.8220197301209
 72
     1
 10
463.0964489962624
 20
233.8220197301209
 11
463.1056469962624
 21
233.7791657301209
 72
     1
 10
463.1056469962624
 20
233.7791657301209
 11
463.1103059962624
 21
233.7357647301209
 72
     1
 10
463.1103059962624
 20
233.7357647301209
 11
463.1108909962624
 21
233.7140367301209
 72
     1
 10
463.1108909962624
 20
233.7140367301209
 11
463.1102899962623
 21
233.6923867301209
 72
     1
 10
463.1102899962623
 20
233.6923867301209
 11
463.1102899962623
 21
233.4525367301209
 72
     1
 10
463.1102899962623
 20
233.4525367301209
 11
464.9395399962624
 21
233.4525367301209
 72
     1
 10
464.9395399962624
 20
233.4525367301209
 11
464.9561969962624
 21
233.6066437301209
 72
     1
 10
464.9561969962624
 20
233.6066437301209
 11
464.9637509962624
 21
233.7615067301209
 72
     1
 10
464.9637509962624
 20
233.7615067301209
 11
464.9619399962624
 21
233.9166637301209
 72
     1
 10
464.9619399962624
 20
233.9166637301209
 11
464.9513649962624
 21
234.0714587301209
 72
     1
 10
464.9513649962624
 20
234.0714587301209
 11
464.9326249962625
 21
234.2257147301209
 72
     1
 10
464.9326249962625
 20
234.2257147301209
 11
464.9056169962624
 21
234.3788397301209
 72
     1
 10
464.9056169962624
 20
234.3788397301209
 11
464.8775909962625
 21
234.4998147301209
 72
     1
 10
464.8775909962625
 20
234.4998147301209
 11
464.8516369962626
 21
234.5891877301209
 72
     1
 10
464.8516369962623
 20
234.5891877301209
 11
464.8203969962625
 21
234.6767917301209
 72
     1
 10
464.8203969962625
 20
234.6767917301209
 11
464.7692159962624
 21
234.7899927301209
 72
     1
 10
464.7692159962624
 20
234.7899927301209
 11
464.7235839962625
 21
234.8713577301209
 72
     1
 10
464.7235839962625
 20
234.8713577301209
 11
464.6717739962624
 21
234.9490427301209
 72
     1
 10
464.6717739962624
 20
234.9490427301209
 11
464.6337349962624
 21
234.9985907301209
 72
     1
 10
464.6337349962624
 20
234.9985907301209
 11
464.5930039962625
 21
235.0459507301209
 72
     1
 10
464.5930039962625
 20
235.0459507301209
 11
464.5496339962623
 21
235.0908397301209
 72
     1
 10
464.5496339962623
 20
235.0908397301209
 11
464.5036799962624
 21
235.1329727301209
 72
     1
 10
464.5036799962624
 20
235.1329727301209
 11
464.4551929962624
 21
235.1720687301209
 72
     1
 10
464.4551929962624
 20
235.1720687301209
 11
464.4045639962626
 21
235.2077237301209
 72
     1
 10
464.4045639962626
 20
235.2077237301209
 11
464.3518039962624
 21
235.2402397301209
 72
     1
 10
464.3518039962624
 20
235.2402397301209
 11
464.2693739962626
 21
235.2834457301209
 72
     1
 10
464.2693739962624
 20
235.2834457301209
 11
464.1839589962625
 21
235.3204067301209
 72
     1
 10
464.1839589962625
 20
235.3204067301209
 11
464.0660019962624
 21
235.3612767301209
 72
     1
 10
464.0660019962624
 20
235.3612767301209
 11
463.8845969962623
 21
235.4076147301209
 72
     1
 10
463.8845969962623
 20
235.4076147301209
 11
463.7626879962624
 21
235.4308177301209
 72
     1
 10
463.7626879962624
 20
235.4308177301209
 11
463.5781029962624
 21
235.4525637301209
 72
     1
 10
463.5781029962624
 20
235.4525637301209
 11
463.4542209962624
 21
235.4565587301209
 72
     1
 10
463.4542209962624
 20
235.4565587301209
 11
463.2682849962626
 21
235.4484457301209
 72
     1
 10
463.2682849962626
 20
235.4484457301209
 11
463.1136429962624
 21
235.4310167301209
 72
     1
 10
463.1136429962624
 20
235.4310167301209
 11
462.9604329962626
 21
235.4042247301209
 72
     1
 10
462.9604329962623
 20
235.4042247301209
 11
462.8395219962624
 21
235.3758777301209
 72
     1
 10
462.8395219962624
 20
235.3758777301209
 11
462.6615159962624
 21
235.3207727301209
 72
     1
 10
462.6615159962624
 20
235.3207727301209
 11
462.5461509962624
 21
235.2752607301209
 72
     1
 10
462.5461509962624
 20
235.2752607301209
 11
462.4335339962624
 21
235.2229407301209
 72
     1
 10
462.4335339962624
 20
235.2229407301209
 11
462.3239809962624
 21
235.1643227301209
 72
     1
 10
462.3239809962624
 20
235.1643227301209
 11
462.1153399962625
 21
235.0302367301209
 72
     1
 10
462.1153399962625
 20
235.0302367301209
 11
462.1153399962625
 21
235.3731367301209
 72
     1
 10
462.1153399962625
 20
235.3731367301209
 11
460.3886899962624
 21
235.3731367301209
 97
        0
 75
     0
 76
     1
 52
0.0
 41
0.1
 77
     0
 78
     1
 53
45.0
 43
0.0
 44
0.0
 45
-0.2245064030267288
 46
0.2245064030267288
 79
     0
 98
        1
 10
-119.6082447957296
 20
245.8811496238511
  0
LINE
  5
270
330
1F
100
AcDbEntity
  8
CARTOUCHE
  6
CONTINUOUS
 62
     4
100
AcDbLine
 10
462.1157552042704
 20
231.4971496238511
 30
0.0
 11
460.3887552042703
 21
231.4971496238511
 31
0.0
  0
LINE
  5
271
330
1F
100
AcDbEntity
  8
CARTOUCHE
  6
CONTINUOUS
 62
     4
100
AcDbLine
 10
460.3887552042703
 20
235.373149623851
 30
0.0
 11
462.1157552042704
 21
235.373149623851
 31
0.0
  0
SPLINE
  5
272
330
1F
100
AcDbEntity
  8
CARTOUCHE
  6
CONTINUOUS
 62
     4
100
AcDbSpline
210
0.0
220
0.0
230
1.0
 70
     8
 71
     3
 72
    21
 73
    17
 74
    15
 42
0.0000000001
 43
0.0000000001
 44
0.000001
 12
-0.0762450288987748
 22
0.9970891111471559
 32
0.0
 13
-0.2154301143726971
 23
-0.9765192603432698
 33
0.0
 40
0.0
 40
0.0
 40
0.0
 40
0.0
 40
0.1872239767895999
 40
0.3744488814534286
 40
0.5616797665682314
 40
0.7489072874824641
 40
0.9361354158715325
 40
1.123364231022107
 40
1.31059505458133
 40
1.497813820487214
 40
1.685063469726941
 40
1.872275753859725
 40
2.059506638347839
 40
2.246733387729886
 40
2.433965507953966
 40
2.621189713029891
 40
2.621189713029891
 40
2.621189713029891
 40
2.621189713029891
 10
457.998739972475
 20
233.9439363372376
 30
0.0
 10
457.9939816733014
 20
234.0061626667718
 30
0.0
 10
457.9665893559181
 20
234.1304782842542
 30
0.0
 10
457.8671388341419
 20
234.2925862023609
 30
0.0
 10
457.7293776295349
 20
234.4217386877816
 30
0.0
 10
457.5691262510953
 20
234.5206083528805
 30
0.0
 10
457.3940416386271
 20
234.5893832198882
 30
0.0
 10
457.2106198329222
 20
234.6301446542268
 30
0.0
 10
457.023113351755
 20
234.6435525354621
 30
0.0
 10
456.8363035434738
 20
234.6326831928331
 30
0.0
 10
456.6498343784112
 20
234.5929527276605
 30
0.0
 10
456.4938283327529
 20
234.485767714522
 30
0.0
 10
456.3222552005523
 20
234.4087905020641
 30
0.0
 10
456.1810665416976
 20
234.2810426262932
 30
0.0
 10
456.0767975183209
 20
234.1237872728497
 30
0.0
 10
456.0339845497791
 20
234.0048790179907
 30
0.0
 10
456.0205399724748
 20
233.9439363372376
 30
0.0
 11
457.998739972475
 21
233.9439363372376
 31
0.0
 11
457.9568623133838
 21
234.1264177083229
 31
0.0
 11
457.8607544997314
 21
234.2870927174335
 31
0.0
 11
457.725627804752
 21
234.4166928201116
 31
0.0
 11
457.5666534069017
 21
234.5155932200309
 31
0.0
 11
457.3926517880761
 21
234.5847148988458
 31
0.0
 11
457.2099385338905
 21
234.6255864066674
 31
0.0
 11
457.0232260525935
 21
234.6395072916149
 31
0.0
 11
456.8363691786146
 21
234.6278750761662
 31
0.0
 11
456.6549006451704
 21
234.5817065373241
 31
0.0
 11
456.4912385513951
 21
234.4908055611837
 31
0.0
 11
456.3273193445192
 21
234.4003294457934
 31
0.0
 11
456.1872208396557
 21
234.2761267741961
 31
0.0
 11
456.0834713452192
 21
234.1202681350424
 31
0.0
 11
456.0205399724748
 21
233.9439363372376
 31
0.0
  0
SPLINE
  5
273
330
1F
100
AcDbEntity
  8
CARTOUCHE
  6
CONTINUOUS
 62
     4
100
AcDbSpline
210
0.0
220
0.0
230
1.0
 70
     8
 71
     3
 72
    15
 73
    11
 74
     9
 42
0.0000000001
 43
0.0000000001
 44
0.000001
 12
0.1873467659218163
 22
-0.9822938406091306
 32
0.0
 13
0.7770129286963809
 23
0.6294846373333291
 33
0.0
 40
0.0
 40
0.0
 40
0.0
 40
0.0
 40
0.3373811758008597
 40
0.6747694790311247
 40
1.012155313481051
 40
1.349542684605723
 40
1.686935956982676
 40
1.85563098030139
 40
2.024323584144546
 40
2.361710579467529
 40
2.361710579467529
 40
2.361710579467529
 40
2.361710579467529
 10
456.020539972475
 20
233.1091863372376
 30
0.0
 10
456.0416090631981
 20
232.9987171869287
 30
0.0
 10
456.134929283467
 20
232.7817269981399
 30
0.0
 10
456.4103612719264
 20
232.5710082863061
 30
0.0
 10
456.7262347067214
 20
232.4463947156337
 30
0.0
 10
457.0614126815277
 20
232.3903114513445
 30
0.0
 10
457.3451901315591
 20
232.405417438695
 30
0.0
 10
457.5634822193517
 20
232.4634862400313
 30
0.0
 10
457.7687712079442
 20
232.5568200191055
 30
0.0
 10
457.911355286695
 20
232.649593027107
 30
0.0
 10
457.998739972475
 20
232.7203863372376
 30
0.0
 11
456.020539972475
 21
233.1091863372376
 31
0.0
 11
456.1575036495981
 21
232.8008558875196
 31
0.0
 11
456.417102857264
 21
232.5853585219174
 31
0.0
 11
456.7294523167456
 21
232.4578163191737
 31
0.0
 11
457.0623039067499
 21
232.4026796688018
 31
0.0
 11
457.3990374817974
 21
232.4237663344614
 31
0.0
 11
457.561858636877
 21
232.4678940964034
 31
0.0
 11
457.7161848396566
 21
232.5360161569272
 31
0.0
 11
457.998739972475
 21
232.7203863372376
 31
0.0
  0
LINE
  5
274
330
1F
100
AcDbEntity
  8
CARTOUCHE
  6
CONTINUOUS
 62
     4
100
AcDbLine
 10
456.0207552042704
 20
233.9441496238511
 30
0.0
 11
456.8097552042703
 21
233.9441496238511
 31
0.0
  0
LINE
  5
275
330
1F
100
AcDbEntity
  8
CARTOUCHE
  6
CONTINUOUS
 62
     4
100
AcDbLine
 10
456.8097552042703
 20
233.9441496238511
 30
0.0
 11
457.9987552042703
 21
233.9441496238511
 31
0.0
  0
LINE
  5
276
330
1F
100
AcDbEntity
  8
CARTOUCHE
  6
CONTINUOUS
 62
     4
100
AcDbLine
 10
459.8627552042703
 20
233.1211496238511
 30
0.0
 11
456.8097552042703
 21
233.1091496238511
 31
0.0
  0
LINE
  5
277
330
1F
100
AcDbEntity
  8
CARTOUCHE
  6
CONTINUOUS
 62
     4
100
AcDbLine
 10
457.9987552042703
 20
232.7201496238511
 30
0.0
 11
459.7597552042704
 21
232.7201496238511
 31
0.0
  0
LINE
  5
278
330
1F
100
AcDbEntity
  8
CARTOUCHE
  6
CONTINUOUS
 62
     4
100
AcDbLine
 10
456.7067552042703
 20
233.1091496238511
 30
0.0
 11
456.0207552042704
 21
233.1091496238511
 31
0.0
  0
LINE
  5
279
330
1F
100
AcDbEntity
  8
CARTOUCHE
  6
CONTINUOUS
 62
     4
100
AcDbLine
 10
456.8097552042703
 20
233.1091496238511
 30
0.0
 11
456.7067552042703
 21
233.1091496238511
 31
0.0
  0
LINE
  5
27A
330
1F
100
AcDbEntity
  8
CARTOUCHE
  6
CONTINUOUS
 62
     4
100
AcDbLine
 10
460.3887552042703
 20
231.4971496238511
 30
0.0
 11
460.3887552042703
 21
235.373149623851
 31
0.0
  0
SPLINE
  5
27B
330
1F
100
AcDbEntity
  8
CARTOUCHE
  6
CONTINUOUS
 62
     4
100
AcDbSpline
210
0.0
220
0.0
230
1.0
 70
     8
 71
     3
 72
    20
 73
    16
 74
    14
 42
0.0000000001
 43
0.0000000001
 44
0.000001
 12
0.1358608544272444
 22
0.9907279284618454
 32
0.0
 13
-0.812377752285227
 23
-0.5831315354120395
 33
0.0
 40
0.0
 40
0.0
 40
0.0
 40
0.0
 40
0.3101716211153214
 40
0.6203441609814516
 40
0.9305169149356238
 40
1.240689339272308
 40
1.550861576564139
 40
1.861041752688856
 40
2.171205819844205
 40
2.481379890546654
 40
2.791555050226784
 40
3.101724851736111
 40
3.411899428548855
 40
3.722070615832135
 40
4.342400383922949
 40
4.342400383922949
 40
4.342400383922949
 40
4.342400383922949
 10
464.939539972475
 20
233.4525363372376
 30
0.0
 10
464.9535866996296
 20
233.5549682331227
 30
0.0
 10
464.9701472008482
 20
233.7616742541154
 30
0.0
 10
464.9566329184877
 20
234.0722576662603
 30
0.0
 10
464.9113768195542
 20
234.3794081921144
 30
0.0
 10
464.831998932504
 20
234.680989159461
 30
0.0
 10
464.6832095692508
 20
234.9568636759204
 30
0.0
 10
464.4661370608897
 20
235.1853457022563
 30
0.0
 10
464.1872928075697
 20
235.331222707986
 30
0.0
 10
463.8872016949764
 20
235.4126855106367
 30
0.0
 10
463.579789165916
 20
235.461935186101
 30
0.0
 10
463.2683408992527
 20
235.4545412184862
 30
0.0
 10
462.9606631714898
 20
235.4109105226795
 30
0.0
 10
462.5605601209293
 20
235.301719650911
 30
0.0
 10
462.2833206733675
 20
235.1508142872805
 30
0.0
 10
462.1153399724751
 20
235.0302363372376
 30
0.0
 11
464.939539972475
 21
233.4525363372376
 31
0.0
 11
464.9637554907793
 21
233.761761907575
 31
0.0
 11
464.9513434020859
 21
234.0716860297859
 31
0.0
 11
464.9056905940646
 21
234.3784806994641
 31
0.0
 11
464.8204312705918
 21
234.6767051197567
 31
0.0
 11
464.6718309136766
 21
234.9489638200234
 31
0.0
 11
464.4558381755127
 21
235.1715821890978
 31
0.0
 11
464.183755081932
 21
235.3204868329128
 31
0.0
 11
463.8859825905087
 21
235.4073173485818
 31
0.0
 11
463.5791152071824
 21
235.4524956253219
 31
0.0
 11
463.2689710663662
 21
235.4485028094711
 31
0.0
 11
462.9619286662513
 21
235.4045340074128
 31
0.0
 11
462.6631202401048
 21
235.3213491364567
 31
0.0
 11
462.1153399724751
 21
235.0302363372376
 31
0.0
  0
SPLINE
  5
27C
330
1F
100
AcDbEntity
  8
CARTOUCHE
  6
CONTINUOUS
 62
     4
100
AcDbSpline
210
0.0
220
0.0
230
1.0
 70
     8
 71
     3
 72
    14
 73
    10
 74
     8
 42
0.0000000001
 43
0.0000000001
 44
0.000001
 12
0.0554704849902568
 22
0.9984603273515407
 32
0.0
 13
-0.0466631639365102
 23
-0.9989106812580564
 33
0.0
 40
0.0
 40
0.0
 40
0.0
 40
0.0
 40
0.2174460241478656
 40
0.4349107687474103
 40
0.6523648651331975
 40
0.8698754195832565
 40
1.087347445116312
 40
1.304824541147032
 40
1.522297871370058
 40
1.522297871370058
 40
1.522297871370058
 40
1.522297871370058
 10
463.110289972475
 20
233.6923863372376
 30
0.0
 10
463.1143105846145
 20
233.7647567467216
 30
0.0
 10
463.0817794167539
 20
233.9145307475704
 30
0.0
 10
462.9286329133229
 20
234.0816378236241
 30
0.0
 10
462.716082291408
 20
234.1573711202974
 30
0.0
 10
462.4948404935188
 20
234.1378614277048
 30
0.0
 10
462.2910291246123
 20
234.043947274281
 30
0.0
 10
462.1563994739287
 20
233.8635737720708
 30
0.0
 10
462.1187226370279
 20
233.7193484813871
 30
0.0
 10
462.1153399724746
 20
233.6469363372376
 30
0.0
 11
463.110289972475
 21
233.6923863372376
 31
0.0
 11
463.0643906074353
 21
233.9049338600467
 31
0.0
 11
462.9187323966038
 21
234.0664102702247
 31
0.0
 11
462.7146526640817
 21
234.141495435259
 31
0.0
 11
462.4977340753979
 21
234.1254581332027
 31
0.0
 11
462.3025584384647
 21
234.029538456945
 31
0.0
 11
462.1694176839979
 21
233.8575796120985
 31
0.0
 11
462.1153399724746
 21
233.6469363372376
 31
0.0
  0
LINE
  5
27D
330
1F
100
AcDbEntity
  8
CARTOUCHE
  6
CONTINUOUS
 62
     4
100
AcDbLine
 10
462.1157552042704
 20
233.6471496238511
 30
0.0
 11
462.1157552042704
 21
231.4971496238511
 31
0.0
  0
LINE
  5
27E
330
1F
100
AcDbEntity
  8
CARTOUCHE
  6
CONTINUOUS
 62
     4
100
AcDbLine
 10
463.1107552042704
 20
233.4521496238511
 30
0.0
 11
463.1107552042704
 21
233.6921496238511
 31
0.0
  0
LINE
  5
27F
330
1F
100
AcDbEntity
  8
CARTOUCHE
  6
CONTINUOUS
 62
     4
100
AcDbLine
 10
464.9397552042703
 20
233.4521496238511
 30
0.0
 11
463.1107552042704
 21
233.4521496238511
 31
0.0
  0
LINE
  5
280
330
1F
100
AcDbEntity
  8
CARTOUCHE
  6
CONTINUOUS
 62
     4
100
AcDbLine
 10
462.1157552042704
 20
235.373149623851
 30
0.0
 11
462.1157552042704
 21
235.0301496238511
 31
0.0
  0
TEXT
  5
281
330
1F
100
AcDbEntity
  8
CARTOUCHE
  6
CONTINUOUS
 62
     1
100
AcDbText
 10
595.5437552042702
 20
222.6411496238511
 30
0.0
 40
2.1
  1
1:1
 41
0.4600000000000001
  7
TSTYLE3
100
AcDbText
  0
TEXT
  5
282
330
1F
100
AcDbEntity
  8
CARTOUCHE
  6
CONTINUOUS
 62
     1
100
AcDbText
 10
541.0817552042703
 20
222.6411496238511
 30
0.0
 40
2.1
  1
15/06/06
 41
0.4600000000000001
  7
TSTYLE3
100
AcDbText
  0
LINE
  5
283
330
1F
100
AcDbEntity
  8
CARTOUCHE
  6
CONTINUOUS
 62
     7
100
AcDbLine
 10
570.9887552042703
 20
230.8671496238511
 30
0.0
 11
570.9887552042703
 21
220.8661496238511
 31
0.0
  0
LINE
  5
284
330
1F
100
AcDbEntity
  8
CARTOUCHE
  6
CONTINUOUS
 62
     7
100
AcDbLine
 10
519.3227552042704
 20
230.8681496238511
 30
0.0
 11
519.3227552042704
 21
220.8661496238511
 31
0.0
  0
TEXT
  5
285
330
1F
100
AcDbEntity
  8
CARTOUCHE
  6
CONTINUOUS
 62
     1
100
AcDbText
 10
493.1087552042703
 20
222.6411496238511
 30
0.0
 40
2.1
  1
0
 41
0.4600000000000001
  7
TSTYLE3
100
AcDbText
  0
TEXT
  5
286
330
1F
100
AcDbEntity
  8
CARTOUCHE
  6
CONTINUOUS
 62
     1
100
AcDbText
 10
541.4277552042704
 20
235.4551496238511
 30
0.0
 40
3.0
  1
46.52
 41
0.4600000000000001
  7
TSTYLE4
100
AcDbText
  0
TEXT
  5
287
330
1F
100
AcDbEntity
  8
CARTOUCHE
  6
CONTINUOUS
 62
     7
100
AcDbText
 10
537.6047552042704
 20
243.3011496238511
 30
0.0
 40
1.8
  1
PRODUCT TYPE
 41
0.4600000000000001
  7
TSTYLE1
100
AcDbText
  0
TEXT
  5
288
330
1F
100
AcDbEntity
  8
CARTOUCHE
  6
CONTINUOUS
 62
     7
100
AcDbText
 10
491.3767552042703
 20
227.4891496238511
 30
0.0
 40
1.8
  1
REV.
 41
0.4600000000000001
  7
TSTYLE1
100
AcDbText
  0
TEXT
  5
289
330
1F
100
AcDbEntity
  8
CARTOUCHE
  6
CONTINUOUS
 62
     7
100
AcDbText
 10
542.8017552042702
 20
227.4891496238511
 30
0.0
 40
1.8
  1
DATE
 41
0.4600000000000001
  7
TSTYLE1
100
AcDbText
  0
TEXT
  5
28A
330
1F
100
AcDbEntity
  8
CARTOUCHE
  6
CONTINUOUS
 62
     7
100
AcDbText
 10
593.7597552042704
 20
227.4891496238511
 30
0.0
 40
1.8
  1
SCALE
 41
0.4600000000000001
  7
TSTYLE1
100
AcDbText
  0
LINE
  5
28B
330
1F
100
AcDbEntity
  8
CARTOUCHE
  6
CONTINUOUS
 62
     7
100
AcDbLine
 10
422.6557552042703
 20
502.8651496238511
 30
0.0
 11
622.6557552042702
 21
502.8651496238511
 31
0.0
  0
DIMENSION
  5
28C
330
1F
100
AcDbEntity
  8
DIM
  6
CONTINUOUS
 62
     3
100
AcDbDimension
  2
*D14
 10
480.8847552042704
 20
386.9421496238511
 30
0.0
 11
480.8847552042704
 21
376.9421496238511
 31
0.0
 70
   160
  1
<>
  3
DSTYLE4
100
AcDbAlignedDimension
 13
491.6927552042702
 23
366.9421496238511
 33
0.0
 14
489.6927552042702
 24
386.9421496238511
 34
0.0
 50
90.0
100
AcDbRotatedDimension
1001
ACAD
1000
DSTYLE
1002
{
1070
     6
1000

1070
   173
1070
     1
1070
     7
1000

1002
}
  0
DIMENSION
  5
28D
330
1F
100
AcDbEntity
  8
DIM
  6
CONTINUOUS
 62
     3
100
AcDbDimension
  2
*D15
 10
548.7467552042703
 20
406.4421496238511
 30
0.0
 11
560.9787552042702
 21
406.4421496238511
 31
0.0
 70
   161
  1
<>
  3
DSTYLE7
100
AcDbAlignedDimension
 13
536.3467552042703
 23
366.9421496238511
 33
0.0
 14
548.7467552042703
 24
366.9421496238511
 34
0.0
1001
ACAD
1000
DSTYLE
1002
{
1070
     6
1000

1070
   173
1070
     1
1070
     7
1000

1002
}
  0
DIMENSION
  5
28E
330
1F
100
AcDbEntity
  8
DIM
  6
CONTINUOUS
 62
     3
100
AcDbDimension
  2
*D16
 10
520.6927552042702
 20
406.4421496238511
 30
0.0
 11
506.1927552042702
 21
406.4421496238511
 31
0.0
 70
   161
  1
<>
  3
DSTYLE6
100
AcDbAlignedDimension
 13
491.6927552042702
 23
366.9421496238511
 33
0.0
 14
520.6927552042702
 24
366.9421496238511
 34
0.0
1001
ACAD
1000
DSTYLE
1002
{
1070
     6
1000

1070
   173
1070
     1
1070
     7
1000

1002
}
  0
LINE
  5
28F
330
1F
100
AcDbEntity
  8
DRAW
  6
CONTINUOUS
 62
     7
100
AcDbLine
 10
546.5467552042703
 20
366.9421496238511
 30
0.0
 11
538.5467552042703
 21
366.9421496238511
 31
0.0
  0
LINE
  5
290
330
1F
100
AcDbEntity
  8
DRAW
  6
CONTINUOUS
 62
     7
100
AcDbLine
 10
541.4467552042703
 20
390.142149623851
 30
0.0
 11
542.0467552042703
 21
390.142149623851
 31
0.0
  0
LINE
  5
291
330
1F
100
AcDbEntity
  8
DRAW
  6
CONTINUOUS
 62
     7
100
AcDbLine
 10
541.4467552042703
 20
389.454149623851
 30
0.0
 11
542.0467552042703
 21
389.454149623851
 31
0.0
  0
LINE
  5
292
330
1F
100
AcDbEntity
  8
DRAW
  6
CONTINUOUS
 62
     7
100
AcDbLine
 10
543.6467552042703
 20
390.9421496238511
 30
0.0
 11
541.4467552042703
 21
390.9421496238511
 31
0.0
  0
LINE
  5
293
330
1F
100
AcDbEntity
  8
DRAW
  6
CONTINUOUS
 62
     7
100
AcDbLine
 10
536.7717552042703
 20
399.7421496238511
 30
0.0
 11
544.5717552042703
 21
399.7421496238511
 31
0.0
  0
LINE
  5
294
330
1F
100
AcDbEntity
  8
DRAW
  6
CONTINUOUS
 62
     7
100
AcDbLine
 10
536.7717552042703
 20
396.7921496238511
 30
0.0
 11
542.3397552042703
 21
396.7921496238511
 31
0.0
  0
LINE
  5
295
330
1F
100
AcDbEntity
  8
DRAW
  6
CONTINUOUS
 62
     7
100
AcDbLine
 10
548.3217552042702
 20
395.7421496238511
 30
0.0
 11
536.7717552042703
 21
395.7421496238511
 31
0.0
  0
LINE
  5
296
330
1F
100
AcDbEntity
  8
DRAW
  6
CONTINUOUS
 62
     7
100
AcDbLine
 10
491.6927552042702
 20
367.9421496238511
 30
0.0
 11
491.9357552042703
 21
395.7421496238511
 31
0.0
  0
LINE
  5
297
330
1F
100
AcDbEntity
  8
DRAW
  6
CONTINUOUS
 62
     7
100
AcDbLine
 10
520.6927552042702
 20
367.9421496238511
 30
0.0
 11
520.4507552042703
 21
395.7421496238511
 31
0.0
  0
LINE
  5
298
330
1F
100
AcDbEntity
  8
DRAW
  6
CONTINUOUS
 62
     7
100
AcDbLine
 10
536.3467552042703
 20
367.9421496238511
 30
0.0
 11
536.5887552042703
 21
395.7421496238511
 31
0.0
  0
DIMENSION
  5
299
330
1F
100
AcDbEntity
  8
DIM
  6
CONTINUOUS
 62
     3
100
AcDbDimension
  2
*D17
 10
527.8703659728695
 20
366.9421496238511
 30
0.0
 11
527.8703659728694
 21
383.175619614239
 31
0.0
 70
   160
  1
<>
  3
DSTYLE4
100
AcDbAlignedDimension
 13
501.1177552042703
 23
399.7421496238511
 33
0.0
 14
520.6927552042702
 24
366.9421496238511
 34
0.0
 50
90.0
100
AcDbRotatedDimension
1001
ACAD
1000
DSTYLE
1002
{
1070
     6
1000

1070
   173
1070
     1
1070
     7
1000

1002
}
  0
LINE
  5
29A
330
1F
100
AcDbEntity
  8
DRAW
  6
CONTINUOUS
 62
     7
100
AcDbLine
 10
515.5927552042704
 20
366.9421496238511
 30
0.0
 11
512.3927552042703
 21
366.9421496238511
 31
0.0
  0
LINE
  5
29B
330
1F
100
AcDbEntity
  8
DRAW
  6
CONTINUOUS
 62
     7
100
AcDbLine
 10
507.2927552042703
 20
367.9421496238511
 30
0.0
 11
520.4927552042703
 21
367.9421496238511
 31
0.0
  0
LINE
  5
29C
330
1F
100
AcDbEntity
  8
DRAW
  6
CONTINUOUS
 62
     7
100
AcDbLine
 10
507.2927552042703
 20
367.9421496238511
 30
0.0
 11
491.6927552042702
 21
367.9421496238511
 31
0.0
  0
LINE
  5
29D
330
1F
100
AcDbEntity
  8
DRAW
  6
CONTINUOUS
 62
     7
100
AcDbLine
 10
507.2927552042703
 20
366.9421496238511
 30
0.0
 11
491.6927552042702
 21
366.9421496238511
 31
0.0
  0
LINE
  5
29E
330
1F
100
AcDbEntity
  8
DRAW
  6
CONTINUOUS
 62
     7
100
AcDbLine
 10
495.1427552042702
 20
361.1481496238511
 30
0.0
 11
495.1427552042702
 21
366.0421496238511
 31
0.0
  0
LINE
  5
29F
330
1F
100
AcDbEntity
  8
DRAW
  6
CONTINUOUS
 62
     7
100
AcDbLine
 10
492.6427552042703
 20
361.1481496238511
 30
0.0
 11
492.6427552042703
 21
366.9421496238511
 31
0.0
  0
CIRCLE
  5
2A0
330
1F
100
AcDbEntity
  8
DRAW
  6
CONTINUOUS
 62
     7
100
AcDbCircle
 10
493.8927552042703
 20
362.2421496238511
 30
0.0
 40
0.65
  0
LINE
  5
2A1
330
1F
100
AcDbEntity
  8
DRAW
  6
CONTINUOUS
 62
     7
100
AcDbLine
 10
492.6427552042703
 20
361.1481496238511
 30
0.0
 11
495.1427552042702
 21
361.1481496238511
 31
0.0
  0
LINE
  5
2A2
330
1F
100
AcDbEntity
  8
DRAW
  6
CONTINUOUS
 62
     7
100
AcDbLine
 10
492.6427552042703
 20
360.9171496238511
 30
0.0
 11
492.6427552042703
 21
361.1481496238511
 31
0.0
  0
LINE
  5
2A3
330
1F
100
AcDbEntity
  8
DRAW
  6
CONTINUOUS
 62
     7
100
AcDbLine
 10
493.1177552042703
 20
360.4421496238511
 30
0.0
 11
492.6427552042703
 21
360.9171496238511
 31
0.0
  0
LINE
  5
2A4
330
1F
100
AcDbEntity
  8
DRAW
  6
CONTINUOUS
 62
     7
100
AcDbLine
 10
493.1177552042703
 20
360.4421496238511
 30
0.0
 11
494.6677552042703
 21
360.4421496238511
 31
0.0
  0
LINE
  5
2A5
330
1F
100
AcDbEntity
  8
DRAW
  6
CONTINUOUS
 62
     7
100
AcDbLine
 10
495.1427552042702
 20
361.1481496238511
 30
0.0
 11
495.1427552042702
 21
360.9171496238511
 31
0.0
  0
LINE
  5
2A6
330
1F
100
AcDbEntity
  8
DRAW
  6
CONTINUOUS
 62
     7
100
AcDbLine
 10
494.6677552042703
 20
360.4421496238511
 30
0.0
 11
495.1427552042702
 21
360.9171496238511
 31
0.0
  0
POINT
  5
2A7
330
1F
100
AcDbEntity
  8
DRAW
  6
CONTINUOUS
 62
     7
100
AcDbPoint
 10
491.6927552042702
 20
366.9421496238511
 30
0.0
  0
POINT
  5
2A8
330
1F
100
AcDbEntity
  8
DRAW
  6
CONTINUOUS
 62
     7
100
AcDbPoint
 10
491.6927552042702
 20
366.9421496238511
 30
0.0
  0
ARC
  5
2A9
330
1F
100
AcDbEntity
  8
DRAW
  6
CONTINUOUS
 62
     7
100
AcDbCircle
 10
495.3427552042703
 20
366.0421496238511
 30
0.0
 40
0.2
100
AcDbArc
 50
90.0
 51
180.0
  0
LINE
  5
2AA
330
1F
100
AcDbEntity
  8
DRAW
  6
CONTINUOUS
 62
     7
100
AcDbLine
 10
495.3427552042703
 20
366.2421496238511
 30
0.0
 11
495.6427552042703
 21
366.2421496238511
 31
0.0
  0
LINE
  5
2AB
330
1F
100
AcDbEntity
  8
DRAW
  6
CONTINUOUS
 62
     7
100
AcDbLine
 10
495.6427552042703
 20
366.9421496238511
 30
0.0
 11
495.6427552042703
 21
366.2421496238511
 31
0.0
  0
LINE
  5
2AC
330
1F
100
AcDbEntity
  8
DRAW
  6
CONTINUOUS
 62
     7
100
AcDbLine
 10
491.6927552042702
 20
366.9421496238511
 30
0.0
 11
491.6927552042702
 21
367.9421496238511
 31
0.0
  0
LINE
  5
2AD
330
1F
100
AcDbEntity
  8
DRAW
  6
CONTINUOUS
 62
     7
100
AcDbLine
 10
508.5427552042703
 20
366.9421496238511
 30
0.0
 11
508.5427552042703
 21
361.1421496238511
 31
0.0
  0
LINE
  5
2AE
330
1F
100
AcDbEntity
  8
DRAW
  6
CONTINUOUS
 62
     7
100
AcDbLine
 10
508.0427552042703
 20
366.9421496238511
 30
0.0
 11
508.0427552042703
 21
361.1421496238511
 31
0.0
  0
LINE
  5
2AF
330
1F
100
AcDbEntity
  8
DRAW
  6
CONTINUOUS
 62
     7
100
AcDbLine
 10
508.0907552042703
 20
360.9171496238511
 30
0.0
 11
508.4957552042704
 21
360.9171496238511
 31
0.0
  0
LINE
  5
2B0
330
1F
100
AcDbEntity
  8
DRAW
  6
CONTINUOUS
 62
     7
100
AcDbLine
 10
508.4957552042704
 20
360.9171496238511
 30
0.0
 11
508.5427552042703
 21
361.1421496238511
 31
0.0
  0
LINE
  5
2B1
330
1F
100
AcDbEntity
  8
DRAW
  6
CONTINUOUS
 62
     7
100
AcDbLine
 10
508.3947552042704
 20
360.4421496238511
 30
0.0
 11
508.4957552042704
 21
360.9171496238511
 31
0.0
  0
LINE
  5
2B2
330
1F
100
AcDbEntity
  8
DRAW
  6
CONTINUOUS
 62
     7
100
AcDbLine
 10
508.1917552042702
 20
360.4421496238511
 30
0.0
 11
508.3947552042704
 21
360.4421496238511
 31
0.0
  0
LINE
  5
2B3
330
1F
100
AcDbEntity
  8
DRAW
  6
CONTINUOUS
 62
     7
100
AcDbLine
 10
508.0907552042703
 20
360.9171496238511
 30
0.0
 11
508.0427552042703
 21
361.1421496238511
 31
0.0
  0
LINE
  5
2B4
330
1F
100
AcDbEntity
  8
DRAW
  6
CONTINUOUS
 62
     7
100
AcDbLine
 10
508.1917552042702
 20
360.4421496238511
 30
0.0
 11
508.0907552042703
 21
360.9171496238511
 31
0.0
  0
LINE
  5
2B5
330
1F
100
AcDbEntity
  8
DRAW
  6
CONTINUOUS
 62
     7
100
AcDbLine
 10
512.3927552042703
 20
366.9421496238511
 30
0.0
 11
507.2927552042703
 21
366.9421496238511
 31
0.0
  0
LINE
  5
2B6
330
1F
100
AcDbEntity
  8
DRAW
  6
CONTINUOUS
 62
     7
100
AcDbLine
 10
518.5207552042704
 20
366.7701496238511
 30
0.0
 11
518.5207552042704
 21
361.1421496238511
 31
0.0
  0
LINE
  5
2B7
330
1F
100
AcDbEntity
  8
DRAW
  6
CONTINUOUS
 62
     7
100
AcDbLine
 10
518.0207552042703
 20
366.7701496238511
 30
0.0
 11
518.0207552042703
 21
361.1421496238511
 31
0.0
  0
LINE
  5
2B8
330
1F
100
AcDbEntity
  8
DRAW
  6
CONTINUOUS
 62
     7
100
AcDbLine
 10
513.5497552042703
 20
361.1421496238511
 30
0.0
 11
513.5497552042703
 21
366.9421496238511
 31
0.0
  0
LINE
  5
2B9
330
1F
100
AcDbEntity
  8
DRAW
  6
CONTINUOUS
 62
     7
100
AcDbLine
 10
513.0497552042704
 20
361.1421496238511
 30
0.0
 11
513.0497552042704
 21
366.9421496238511
 31
0.0
  0
POINT
  5
2BA
330
1F
100
AcDbEntity
  8
DRAW
  6
CONTINUOUS
 62
     7
100
AcDbPoint
 10
518.3717552042703
 20
360.4421496238511
 30
0.0
  0
LINE
  5
2BB
330
1F
100
AcDbEntity
  8
DRAW
  6
CONTINUOUS
 62
     7
100
AcDbLine
 10
518.3717552042703
 20
360.4421496238511
 30
0.0
 11
518.4727552042703
 21
360.9171496238511
 31
0.0
  0
LINE
  5
2BC
330
1F
100
AcDbEntity
  8
DRAW
  6
CONTINUOUS
 62
     7
100
AcDbLine
 10
518.1697552042703
 20
360.4421496238511
 30
0.0
 11
518.0687552042703
 21
360.9171496238511
 31
0.0
  0
LINE
  5
2BD
330
1F
100
AcDbEntity
  8
DRAW
  6
CONTINUOUS
 62
     7
100
AcDbLine
 10
518.4727552042703
 20
360.9171496238511
 30
0.0
 11
518.5207552042704
 21
361.1421496238511
 31
0.0
  0
LINE
  5
2BE
330
1F
100
AcDbEntity
  8
DRAW
  6
CONTINUOUS
 62
     7
100
AcDbLine
 10
518.0687552042703
 20
360.9171496238511
 30
0.0
 11
518.0207552042703
 21
361.1421496238511
 31
0.0
  0
LINE
  5
2BF
330
1F
100
AcDbEntity
  8
DRAW
  6
CONTINUOUS
 62
     7
100
AcDbLine
 10
518.0687552042703
 20
360.9171496238511
 30
0.0
 11
518.4727552042703
 21
360.9171496238511
 31
0.0
  0
LINE
  5
2C0
330
1F
100
AcDbEntity
  8
DRAW
  6
CONTINUOUS
 62
     7
100
AcDbLine
 10
518.1697552042703
 20
360.4421496238511
 30
0.0
 11
518.3717552042703
 21
360.4421496238511
 31
0.0
  0
LINE
  5
2C1
330
1F
100
AcDbEntity
  8
DRAW
  6
CONTINUOUS
 62
     7
100
AcDbLine
 10
513.5017552042703
 20
360.9171496238511
 30
0.0
 11
513.0967552042704
 21
360.9171496238511
 31
0.0
  0
LINE
  5
2C2
330
1F
100
AcDbEntity
  8
DRAW
  6
CONTINUOUS
 62
     7
100
AcDbLine
 10
513.5017552042703
 20
360.9171496238511
 30
0.0
 11
513.5497552042703
 21
361.1421496238511
 31
0.0
  0
LINE
  5
2C3
330
1F
100
AcDbEntity
  8
DRAW
  6
CONTINUOUS
 62
     7
100
AcDbLine
 10
513.4007552042703
 20
360.4421496238511
 30
0.0
 11
513.5017552042703
 21
360.9171496238511
 31
0.0
  0
LINE
  5
2C4
330
1F
100
AcDbEntity
  8
DRAW
  6
CONTINUOUS
 62
     7
100
AcDbLine
 10
513.4007552042703
 20
360.4421496238511
 30
0.0
 11
513.1977552042704
 21
360.4421496238511
 31
0.0
  0
LINE
  5
2C5
330
1F
100
AcDbEntity
  8
DRAW
  6
CONTINUOUS
 62
     7
100
AcDbLine
 10
513.0967552042704
 20
360.9171496238511
 30
0.0
 11
513.0497552042704
 21
361.1421496238511
 31
0.0
  0
LINE
  5
2C6
330
1F
100
AcDbEntity
  8
DRAW
  6
CONTINUOUS
 62
     7
100
AcDbLine
 10
513.1977552042704
 20
360.4421496238511
 30
0.0
 11
513.0967552042704
 21
360.9171496238511
 31
0.0
  0
LINE
  5
2C7
330
1F
100
AcDbEntity
  8
DRAW
  6
CONTINUOUS
 62
     7
100
AcDbLine
 10
520.6927552042702
 20
366.9421496238511
 30
0.0
 11
515.5927552042704
 21
366.9421496238511
 31
0.0
  0
LINE
  5
2C8
330
1F
100
AcDbEntity
  8
DRAW
  6
CONTINUOUS
 62
     7
100
AcDbLine
 10
518.5207552042704
 20
366.7701496238511
 30
0.0
 11
518.5207552042704
 21
366.9421496238511
 31
0.0
  0
LINE
  5
2C9
330
1F
100
AcDbEntity
  8
DRAW
  6
CONTINUOUS
 62
     7
100
AcDbLine
 10
518.0207552042703
 20
366.7701496238511
 30
0.0
 11
518.0207552042703
 21
366.9421496238511
 31
0.0
  0
POINT
  5
2CA
330
1F
100
AcDbEntity
  8
DRAW
  6
CONTINUOUS
 62
     7
100
AcDbPoint
 10
520.6927552042702
 20
366.9421496238511
 30
0.0
  0
POINT
  5
2CB
330
1F
100
AcDbEntity
  8
DRAW
  6
CONTINUOUS
 62
     7
100
AcDbPoint
 10
520.6927552042702
 20
366.9421496238511
 30
0.0
  0
POINT
  5
2CC
330
1F
100
AcDbEntity
  8
DRAW
  6
CONTINUOUS
 62
     7
100
AcDbPoint
 10
520.6927552042702
 20
366.9421496238511
 30
0.0
  0
LINE
  5
2CD
330
1F
100
AcDbEntity
  8
DRAW
  6
CONTINUOUS
 62
     7
100
AcDbLine
 10
520.6927552042702
 20
367.9421496238511
 30
0.0
 11
520.4927552042703
 21
367.9421496238511
 31
0.0
  0
LINE
  5
2CE
330
1F
100
AcDbEntity
  8
DRAW
  6
CONTINUOUS
 62
     7
100
AcDbLine
 10
520.6927552042702
 20
366.9421496238511
 30
0.0
 11
520.6927552042702
 21
367.9421496238511
 31
0.0
  0
LINE
  5
2CF
330
1F
100
AcDbEntity
  8
DRAW
  6
CONTINUOUS
 62
     7
100
AcDbLine
 10
538.3467552042703
 20
361.1481496238511
 30
0.0
 11
538.3467552042703
 21
366.9421496238511
 31
0.0
  0
LINE
  5
2D0
330
1F
100
AcDbEntity
  8
DRAW
  6
CONTINUOUS
 62
     7
100
AcDbLine
 10
537.8467552042703
 20
361.1481496238511
 30
0.0
 11
537.8467552042703
 21
366.9421496238511
 31
0.0
  0
LINE
  5
2D1
330
1F
100
AcDbEntity
  8
DRAW
  6
CONTINUOUS
 62
     7
100
AcDbLine
 10
540.0967552042703
 20
366.9421496238511
 30
0.0
 11
540.0967552042703
 21
361.1421496238511
 31
0.0
  0
LINE
  5
2D2
330
1F
100
AcDbEntity
  8
DRAW
  6
CONTINUOUS
 62
     7
100
AcDbLine
 10
537.5967552042704
 20
366.9421496238511
 30
0.0
 11
537.5967552042704
 21
361.1421496238511
 31
0.0
  0
LINE
  5
2D3
330
1F
100
AcDbEntity
  8
DRAW
  6
CONTINUOUS
 62
     7
100
AcDbLine
 10
538.3467552042703
 20
361.1481496238511
 30
0.0
 11
538.2977552042704
 21
360.9171496238511
 31
0.0
  0
LINE
  5
2D4
330
1F
100
AcDbEntity
  8
DRAW
  6
CONTINUOUS
 62
     7
100
AcDbLine
 10
538.2977552042704
 20
360.9171496238511
 30
0.0
 11
537.8957552042702
 21
360.9171496238511
 31
0.0
  0
LINE
  5
2D5
330
1F
100
AcDbEntity
  8
DRAW
  6
CONTINUOUS
 62
     7
100
AcDbLine
 10
537.8957552042702
 20
360.9171496238511
 30
0.0
 11
537.8467552042703
 21
361.1481496238511
 31
0.0
  0
LINE
  5
2D6
330
1F
100
AcDbEntity
  8
DRAW
  6
CONTINUOUS
 62
     7
100
AcDbLine
 10
538.1967552042702
 20
360.4421496238511
 30
0.0
 11
538.2977552042704
 21
360.9171496238511
 31
0.0
  0
LINE
  5
2D7
330
1F
100
AcDbEntity
  8
DRAW
  6
CONTINUOUS
 62
     7
100
AcDbLine
 10
537.9967552042703
 20
360.4421496238511
 30
0.0
 11
537.8957552042702
 21
360.9171496238511
 31
0.0
  0
LINE
  5
2D8
330
1F
100
AcDbEntity
  8
DRAW
  6
CONTINUOUS
 62
     7
100
AcDbLine
 10
538.1967552042702
 20
360.4421496238511
 30
0.0
 11
537.9967552042703
 21
360.4421496238511
 31
0.0
  0
LINE
  5
2D9
330
1F
100
AcDbEntity
  8
DRAW
  6
CONTINUOUS
 62
     7
100
AcDbLine
 10
540.0967552042703
 20
360.9171496238511
 30
0.0
 11
540.0967552042703
 21
361.1421496238511
 31
0.0
  0
LINE
  5
2DA
330
1F
100
AcDbEntity
  8
DRAW
  6
CONTINUOUS
 62
     7
100
AcDbLine
 10
539.6217552042704
 20
360.4421496238511
 30
0.0
 11
540.0967552042703
 21
360.9171496238511
 31
0.0
  0
LINE
  5
2DB
330
1F
100
AcDbEntity
  8
DRAW
  6
CONTINUOUS
 62
     7
100
AcDbLine
 10
537.5967552042704
 20
360.9171496238511
 30
0.0
 11
537.5967552042704
 21
361.1421496238511
 31
0.0
  0
LINE
  5
2DC
330
1F
100
AcDbEntity
  8
DRAW
  6
CONTINUOUS
 62
     7
100
AcDbLine
 10
537.9767552042704
 20
360.5371496238511
 30
0.0
 11
537.5967552042704
 21
360.9171496238511
 31
0.0
  0
LINE
  5
2DD
330
1F
100
AcDbEntity
  8
DRAW
  6
CONTINUOUS
 62
     7
100
AcDbLine
 10
537.5967552042704
 20
361.1421496238511
 30
0.0
 11
537.8477552042703
 21
361.1421496238511
 31
0.0
  0
LINE
  5
2DE
330
1F
100
AcDbEntity
  8
DRAW
  6
CONTINUOUS
 62
     7
100
AcDbLine
 10
538.3457552042703
 20
361.1421496238511
 30
0.0
 11
540.0967552042703
 21
361.1421496238511
 31
0.0
  0
LINE
  5
2DF
330
1F
100
AcDbEntity
  8
DRAW
  6
CONTINUOUS
 62
     7
100
AcDbLine
 10
538.1967552042702
 20
360.4421496238511
 30
0.0
 11
539.6217552042704
 21
360.4421496238511
 31
0.0
  0
ARC
  5
2E0
330
1F
100
AcDbEntity
  8
DRAW
  6
CONTINUOUS
 62
     7
100
AcDbCircle
 10
538.8467552042704
 20
362.2421496238511
 30
0.0
 40
0.65
100
AcDbArc
 50
90.0
 51
140.2869999999985
  0
ARC
  5
2E1
330
1F
100
AcDbEntity
  8
DRAW
  6
CONTINUOUS
 62
     7
100
AcDbCircle
 10
538.8467552042704
 20
362.2421496238511
 30
0.0
 40
0.65
100
AcDbArc
 50
219.7130000000014
 51
90.0
  0
POINT
  5
2E2
330
1F
100
AcDbEntity
  8
DRAW
  6
CONTINUOUS
 62
     7
100
AcDbPoint
 10
536.3467552042703
 20
366.9421496238511
 30
0.0
  0
LINE
  5
2E3
330
1F
100
AcDbEntity
  8
DRAW
  6
CONTINUOUS
 62
     7
100
AcDbLine
 10
537.8467552042703
 20
366.9421496238511
 30
0.0
 11
538.3467552042703
 21
366.9421496238511
 31
0.0
  0
LINE
  5
2E4
330
1F
100
AcDbEntity
  8
DRAW
  6
CONTINUOUS
 62
     7
100
AcDbLine
 10
537.8467552042703
 20
367.9421496238511
 30
0.0
 11
538.5467552042703
 21
367.9421496238511
 31
0.0
  0
LINE
  5
2E5
330
1F
100
AcDbEntity
  8
DRAW
  6
CONTINUOUS
 62
     7
100
AcDbLine
 10
538.5467552042703
 20
366.9421496238511
 30
0.0
 11
538.5467552042703
 21
367.9421496238511
 31
0.0
  0
LINE
  5
2E6
330
1F
100
AcDbEntity
  8
DRAW
  6
CONTINUOUS
 62
     7
100
AcDbLine
 10
538.3467552042703
 20
366.9421496238511
 30
0.0
 11
538.5467552042703
 21
366.9421496238511
 31
0.0
  0
LINE
  5
2E7
330
1F
100
AcDbEntity
  8
DRAW
  6
CONTINUOUS
 62
     7
100
AcDbLine
 10
537.8467552042703
 20
367.9421496238511
 30
0.0
 11
536.3467552042703
 21
367.9421496238511
 31
0.0
  0
LINE
  5
2E8
330
1F
100
AcDbEntity
  8
DRAW
  6
CONTINUOUS
 62
     7
100
AcDbLine
 10
537.8467552042703
 20
366.9421496238511
 30
0.0
 11
536.3467552042703
 21
366.9421496238511
 31
0.0
  0
LINE
  5
2E9
330
1F
100
AcDbEntity
  8
DRAW
  6
CONTINUOUS
 62
     7
100
AcDbLine
 10
536.3467552042703
 20
366.9421496238511
 30
0.0
 11
536.3467552042703
 21
367.9421496238511
 31
0.0
  0
LINE
  5
2EA
330
1F
100
AcDbEntity
  8
DRAW
  6
CONTINUOUS
 62
     7
100
AcDbLine
 10
501.1177552042703
 20
397.0421496238511
 30
0.0
 11
520.2677552042703
 21
397.0421496238511
 31
0.0
  0
LINE
  5
2EB
330
1F
100
AcDbEntity
  8
DRAW
  6
CONTINUOUS
 62
     7
100
AcDbLine
 10
496.4927552042703
 20
393.5421496238511
 30
0.0
 11
515.0927552042703
 21
393.5421496238511
 31
0.0
  0
LINE
  5
2EC
330
1F
100
AcDbEntity
  8
DRAW
  6
CONTINUOUS
 62
     7
100
AcDbLine
 10
489.6927552042702
 20
384.9421496238511
 30
0.0
 11
491.3367552042704
 21
384.9421496238511
 31
0.0
  0
LINE
  5
2ED
330
1F
100
AcDbEntity
  8
DRAW
  6
CONTINUOUS
 62
     7
100
AcDbLine
 10
491.8587552042703
 20
386.9421496238511
 30
0.0
 11
489.6927552042702
 21
386.9421496238511
 31
0.0
  0
LINE
  5
2EE
330
1F
100
AcDbEntity
  8
DRAW
  6
CONTINUOUS
 62
     7
100
AcDbLine
 10
491.8517552042703
 20
386.142149623851
 30
0.0
 11
489.6927552042702
 21
386.142149623851
 31
0.0
  0
LINE
  5
2EF
330
1F
100
AcDbEntity
  8
DRAW
  6
CONTINUOUS
 62
     7
100
AcDbLine
 10
489.6927552042702
 20
384.9421496238511
 30
0.0
 11
489.6927552042702
 21
386.142149623851
 31
0.0
  0
LINE
  5
2F0
330
1F
100
AcDbEntity
  8
DRAW
  6
CONTINUOUS
 62
     7
100
AcDbLine
 10
489.6927552042702
 20
386.142149623851
 30
0.0
 11
489.6927552042702
 21
386.9421496238511
 31
0.0
  0
POINT
  5
2F1
330
1F
100
AcDbEntity
  8
DRAW
  6
CONTINUOUS
 62
     7
100
AcDbPoint
 10
489.6927552042702
 20
386.9421496238511
 30
0.0
  0
ARC
  5
2F2
330
1F
100
AcDbEntity
  8
DRAW
  6
CONTINUOUS
 62
     7
100
AcDbCircle
 10
491.3367552042704
 20
384.4421496238511
 30
0.0
 40
0.5
100
AcDbArc
 50
359.5000000000003
 51
90.0
  0
LINE
  5
2F3
330
1F
100
AcDbEntity
  8
DRAW
  6
CONTINUOUS
 62
     7
100
AcDbLine
 10
491.8807552042704
 20
389.454149623851
 30
0.0
 11
491.1927552042702
 21
390.142149623851
 31
0.0
  0
LINE
  5
2F4
330
1F
100
AcDbEntity
  8
DRAW
  6
CONTINUOUS
 62
     7
100
AcDbLine
 10
491.8937552042702
 20
390.9421496238511
 30
0.0
 11
491.1927552042702
 21
390.9421496238511
 31
0.0
  0
LINE
  5
2F5
330
1F
100
AcDbEntity
  8
DRAW
  6
CONTINUOUS
 62
     7
100
AcDbLine
 10
491.1927552042702
 20
390.142149623851
 30
0.0
 11
491.1927552042702
 21
390.9421496238511
 31
0.0
  0
LINE
  5
2F6
330
1F
100
AcDbEntity
  8
DRAW
  6
CONTINUOUS
 62
     7
100
AcDbLine
 10
501.1177552042703
 20
399.7421496238511
 30
0.0
 11
497.9177552042703
 21
399.7421496238511
 31
0.0
  0
LINE
  5
2F7
330
1F
100
AcDbEntity
  8
DRAW
  6
CONTINUOUS
 62
     7
100
AcDbLine
 10
491.9177552042703
 20
397.0421496238511
 30
0.0
 11
491.9177552042703
 21
399.5421496238511
 31
0.0
  0
LINE
  5
2F8
330
1F
100
AcDbEntity
  8
DRAW
  6
CONTINUOUS
 62
     7
100
AcDbLine
 10
496.3097552042703
 20
393.7251496238511
 30
0.0
 11
496.4927552042703
 21
393.5421496238511
 31
0.0
  0
LINE
  5
2F9
330
1F
100
AcDbEntity
  8
DRAW
  6
CONTINUOUS
 62
     7
100
AcDbLine
 10
495.4927552042703
 20
394.5421496238511
 30
0.0
 11
496.4927552042703
 21
393.5421496238511
 31
0.0
  0
LINE
  5
2FA
330
1F
100
AcDbEntity
  8
DRAW
  6
CONTINUOUS
 62
     7
100
AcDbLine
 10
495.4927552042703
 20
395.7421496238511
 30
0.0
 11
495.4927552042703
 21
394.5421496238511
 31
0.0
  0
LINE
  5
2FB
330
1F
100
AcDbEntity
  8
DRAW
  6
CONTINUOUS
 62
     7
100
AcDbLine
 10
491.9177552042703
 20
397.0421496238511
 30
0.0
 11
491.9177552042703
 21
395.7421496238511
 31
0.0
  0
LINE
  5
2FC
330
1F
100
AcDbEntity
  8
DRAW
  6
CONTINUOUS
 62
     7
100
AcDbLine
 10
491.9177552042703
 20
395.7421496238511
 30
0.0
 11
492.1177552042703
 21
395.7421496238511
 31
0.0
  0
LINE
  5
2FD
330
1F
100
AcDbEntity
  8
DRAW
  6
CONTINUOUS
 62
     7
100
AcDbLine
 10
495.4927552042703
 20
395.7421496238511
 30
0.0
 11
492.1177552042703
 21
395.7421496238511
 31
0.0
  0
ARC
  5
2FE
330
1F
100
AcDbEntity
  8
DRAW
  6
CONTINUOUS
 62
     7
100
AcDbCircle
 10
492.1177552042703
 20
399.5421496238511
 30
0.0
 40
0.2
100
AcDbArc
 50
90.0
 51
180.0
  0
LINE
  5
2FF
330
1F
100
AcDbEntity
  8
DRAW
  6
CONTINUOUS
 62
     7
100
AcDbLine
 10
492.1177552042703
 20
399.7421496238511
 30
0.0
 11
497.9177552042703
 21
399.7421496238511
 31
0.0
  0
LINE
  5
300
330
1F
100
AcDbEntity
  8
DRAW
  6
CONTINUOUS
 62
     7
100
AcDbLine
 10
501.1177552042703
 20
397.0421496238511
 30
0.0
 11
501.1177552042703
 21
399.7421496238511
 31
0.0
  0
POINT
  5
301
330
1F
100
AcDbEntity
  8
DRAW
  6
CONTINUOUS
 62
     7
100
AcDbPoint
 10
501.1177552042703
 20
399.7421496238511
 30
0.0
  0
LINE
  5
302
330
1F
100
AcDbEntity
  8
DRAW
  6
CONTINUOUS
 62
     7
100
AcDbLine
 10
540.5467552042702
 20
384.9421496238511
 30
0.0
 11
540.5467552042702
 21
386.9421496238511
 31
0.0
  0
LINE
  5
303
330
1F
100
AcDbEntity
  8
DRAW
  6
CONTINUOUS
 62
     7
100
AcDbLine
 10
539.7467552042703
 20
384.9421496238511
 30
0.0
 11
539.7467552042703
 21
386.142149623851
 31
0.0
  0
LINE
  5
304
330
1F
100
AcDbEntity
  8
DRAW
  6
CONTINUOUS
 62
     7
100
AcDbLine
 10
539.7467552042703
 20
384.9421496238511
 30
0.0
 11
540.5467552042702
 21
384.9421496238511
 31
0.0
  0
LINE
  5
305
330
1F
100
AcDbEntity
  8
DRAW
  6
CONTINUOUS
 62
     7
100
AcDbLine
 10
540.5467552042702
 20
386.9421496238511
 30
0.0
 11
537.5467552042703
 21
386.9421496238511
 31
0.0
  0
LINE
  5
306
330
1F
100
AcDbEntity
  8
DRAW
  6
CONTINUOUS
 62
     7
100
AcDbLine
 10
537.5467552042703
 20
386.142149623851
 30
0.0
 11
539.7467552042703
 21
386.142149623851
 31
0.0
  0
LINE
  5
307
330
1F
100
AcDbEntity
  8
DRAW
  6
CONTINUOUS
 62
     7
100
AcDbLine
 10
537.5467552042703
 20
386.9421496238511
 30
0.0
 11
537.5467552042703
 21
386.142149623851
 31
0.0
  0
LINE
  5
308
330
1F
100
AcDbEntity
  8
DRAW
  6
CONTINUOUS
 62
     7
100
AcDbLine
 10
541.4467552042703
 20
389.454149623851
 30
0.0
 11
541.4467552042703
 21
390.142149623851
 31
0.0
  0
LINE
  5
309
330
1F
100
AcDbEntity
  8
DRAW
  6
CONTINUOUS
 62
     7
100
AcDbLine
 10
541.4467552042703
 20
390.9421496238511
 30
0.0
 11
541.4467552042703
 21
390.142149623851
 31
0.0
  0
LINE
  5
30A
330
1F
100
AcDbEntity
  8
DRAW
  6
CONTINUOUS
 62
     7
100
AcDbLine
 10
520.2677552042703
 20
395.7421496238511
 30
0.0
 11
516.0927552042704
 21
395.7421496238511
 31
0.0
  0
LINE
  5
30B
330
1F
100
AcDbEntity
  8
DRAW
  6
CONTINUOUS
 62
     7
100
AcDbLine
 10
515.2757552042703
 20
393.7251496238511
 30
0.0
 11
515.0927552042703
 21
393.5421496238511
 31
0.0
  0
LINE
  5
30C
330
1F
100
AcDbEntity
  8
DRAW
  6
CONTINUOUS
 62
     7
100
AcDbLine
 10
515.0927552042703
 20
393.5421496238511
 30
0.0
 11
516.0927552042704
 21
394.5421496238511
 31
0.0
  0
LINE
  5
30D
330
1F
100
AcDbEntity
  8
DRAW
  6
CONTINUOUS
 62
     7
100
AcDbLine
 10
516.0927552042704
 20
395.7421496238511
 30
0.0
 11
516.0927552042704
 21
394.5421496238511
 31
0.0
  0
LINE
  5
30E
330
1F
100
AcDbEntity
  8
DRAW
  6
CONTINUOUS
 62
     7
100
AcDbLine
 10
520.4677552042703
 20
397.0421496238511
 30
0.0
 11
520.4677552042703
 21
395.7421496238511
 31
0.0
  0
LINE
  5
30F
330
1F
100
AcDbEntity
  8
DRAW
  6
CONTINUOUS
 62
     7
100
AcDbLine
 10
520.2677552042703
 20
395.7421496238511
 30
0.0
 11
520.4677552042703
 21
395.7421496238511
 31
0.0
  0
LINE
  5
310
330
1F
100
AcDbEntity
  8
DRAW
  6
CONTINUOUS
 62
     7
100
AcDbLine
 10
520.2677552042703
 20
397.0421496238511
 30
0.0
 11
520.4677552042703
 21
397.0421496238511
 31
0.0
  0
LINE
  5
311
330
1F
100
AcDbEntity
  8
DRAW
  6
CONTINUOUS
 62
     7
100
AcDbLine
 10
536.5717552042703
 20
397.0421496238511
 30
0.0
 11
536.5717552042703
 21
399.5421496238511
 31
0.0
  0
LINE
  5
312
330
1F
100
AcDbEntity
  8
DRAW
  6
CONTINUOUS
 62
     7
100
AcDbLine
 10
540.7417552042703
 20
397.0421496238511
 30
0.0
 11
540.0717552042703
 21
399.5421496238511
 31
0.0
  0
LINE
  5
313
330
1F
100
AcDbEntity
  8
DRAW
  6
CONTINUOUS
 62
     7
100
AcDbLine
 10
538.0717552042702
 20
399.5421496238511
 30
0.0
 11
537.4017552042703
 21
397.0421496238511
 31
0.0
  0
LINE
  5
314
330
1F
100
AcDbEntity
  8
DRAW
  6
CONTINUOUS
 62
     7
100
AcDbLine
 10
536.5717552042703
 20
397.0421496238511
 30
0.0
 11
536.5717552042703
 21
396.7921496238511
 31
0.0
  0
LINE
  5
315
330
1F
100
AcDbEntity
  8
DRAW
  6
CONTINUOUS
 62
     7
100
AcDbLine
 10
536.7717552042703
 20
396.7921496238511
 30
0.0
 11
536.5717552042703
 21
396.7921496238511
 31
0.0
  0
LINE
  5
316
330
1F
100
AcDbEntity
  8
DRAW
  6
CONTINUOUS
 62
     7
100
AcDbLine
 10
536.5717552042703
 20
396.7921496238511
 30
0.0
 11
536.5717552042703
 21
395.7421496238511
 31
0.0
  0
LINE
  5
317
330
1F
100
AcDbEntity
  8
DRAW
  6
CONTINUOUS
 62
     7
100
AcDbLine
 10
540.7417552042703
 20
397.0421496238511
 30
0.0
 11
540.7417552042703
 21
396.7921496238511
 31
0.0
  0
LINE
  5
318
330
1F
100
AcDbEntity
  8
DRAW
  6
CONTINUOUS
 62
     7
100
AcDbLine
 10
537.4017552042703
 20
397.0421496238511
 30
0.0
 11
537.4017552042703
 21
396.7921496238511
 31
0.0
  0
LINE
  5
319
330
1F
100
AcDbEntity
  8
DRAW
  6
CONTINUOUS
 62
     7
100
AcDbLine
 10
536.7717552042703
 20
395.7421496238511
 30
0.0
 11
536.5717552042703
 21
395.7421496238511
 31
0.0
  0
ARC
  5
31A
330
1F
100
AcDbEntity
  8
DRAW
  6
CONTINUOUS
 62
     7
100
AcDbCircle
 10
536.7717552042703
 20
399.5421496238511
 30
0.0
 40
0.2
100
AcDbArc
 50
90.0
 51
180.0
  0
LINE
  5
31B
330
1F
100
AcDbEntity
  8
DRAW
  6
CONTINUOUS
 62
     7
100
AcDbLine
 10
538.0717552042702
 20
399.5421496238511
 30
0.0
 11
540.0717552042703
 21
399.5421496238511
 31
0.0
  0
LINE
  5
31C
330
1F
100
AcDbEntity
  8
DRAW
  6
CONTINUOUS
 62
     7
100
AcDbLine
 10
548.7467552042703
 20
367.9421496238511
 30
0.0
 11
548.5037552042703
 21
395.7421496238511
 31
0.0
  0
LINE
  5
31D
330
1F
100
AcDbEntity
  8
DRAW
  6
CONTINUOUS
 62
     7
100
AcDbLine
 10
546.7467552042704
 20
361.1481496238511
 30
0.0
 11
546.7467552042704
 21
366.9421496238511
 31
0.0
  0
LINE
  5
31E
330
1F
100
AcDbEntity
  8
DRAW
  6
CONTINUOUS
 62
     7
100
AcDbLine
 10
547.2467552042703
 20
361.1481496238511
 30
0.0
 11
547.2467552042703
 21
366.9421496238511
 31
0.0
  0
LINE
  5
31F
330
1F
100
AcDbEntity
  8
DRAW
  6
CONTINUOUS
 62
     7
100
AcDbLine
 10
544.9967552042703
 20
366.9421496238511
 30
0.0
 11
544.9967552042703
 21
361.1421496238511
 31
0.0
  0
LINE
  5
320
330
1F
100
AcDbEntity
  8
DRAW
  6
CONTINUOUS
 62
     7
100
AcDbLine
 10
547.4967552042703
 20
366.9421496238511
 30
0.0
 11
547.4967552042703
 21
361.1421496238511
 31
0.0
  0
LINE
  5
321
330
1F
100
AcDbEntity
  8
DRAW
  6
CONTINUOUS
 62
     7
100
AcDbLine
 10
546.7467552042704
 20
361.1481496238511
 30
0.0
 11
546.7957552042703
 21
360.9171496238511
 31
0.0
  0
LINE
  5
322
330
1F
100
AcDbEntity
  8
DRAW
  6
CONTINUOUS
 62
     7
100
AcDbLine
 10
546.8967552042703
 20
360.4421496238511
 30
0.0
 11
546.7957552042703
 21
360.9171496238511
 31
0.0
  0
LINE
  5
323
330
1F
100
AcDbEntity
  8
DRAW
  6
CONTINUOUS
 62
     7
100
AcDbLine
 10
546.7957552042703
 20
360.9171496238511
 30
0.0
 11
547.1977552042703
 21
360.9171496238511
 31
0.0
  0
LINE
  5
324
330
1F
100
AcDbEntity
  8
DRAW
  6
CONTINUOUS
 62
     7
100
AcDbLine
 10
546.8967552042703
 20
360.4421496238511
 30
0.0
 11
547.0967552042703
 21
360.4421496238511
 31
0.0
  0
LINE
  5
325
330
1F
100
AcDbEntity
  8
DRAW
  6
CONTINUOUS
 62
     7
100
AcDbLine
 10
547.1977552042703
 20
360.9171496238511
 30
0.0
 11
547.2467552042703
 21
361.1481496238511
 31
0.0
  0
LINE
  5
326
330
1F
100
AcDbEntity
  8
DRAW
  6
CONTINUOUS
 62
     7
100
AcDbLine
 10
547.0967552042703
 20
360.4421496238511
 30
0.0
 11
547.1977552042703
 21
360.9171496238511
 31
0.0
  0
LINE
  5
327
330
1F
100
AcDbEntity
  8
DRAW
  6
CONTINUOUS
 62
     7
100
AcDbLine
 10
544.9967552042703
 20
360.9171496238511
 30
0.0
 11
544.9967552042703
 21
361.1421496238511
 31
0.0
  0
LINE
  5
328
330
1F
100
AcDbEntity
  8
DRAW
  6
CONTINUOUS
 62
     7
100
AcDbLine
 10
545.4717552042703
 20
360.4421496238511
 30
0.0
 11
544.9967552042703
 21
360.9171496238511
 31
0.0
  0
LINE
  5
329
330
1F
100
AcDbEntity
  8
DRAW
  6
CONTINUOUS
 62
     7
100
AcDbLine
 10
547.4967552042703
 20
360.9171496238511
 30
0.0
 11
547.4967552042703
 21
361.1421496238511
 31
0.0
  0
LINE
  5
32A
330
1F
100
AcDbEntity
  8
DRAW
  6
CONTINUOUS
 62
     7
100
AcDbLine
 10
547.1167552042703
 20
360.5371496238511
 30
0.0
 11
547.4967552042703
 21
360.9171496238511
 31
0.0
  0
LINE
  5
32B
330
1F
100
AcDbEntity
  8
DRAW
  6
CONTINUOUS
 62
     7
100
AcDbLine
 10
547.4967552042703
 20
361.1421496238511
 30
0.0
 11
547.2457552042702
 21
361.1421496238511
 31
0.0
  0
LINE
  5
32C
330
1F
100
AcDbEntity
  8
DRAW
  6
CONTINUOUS
 62
     7
100
AcDbLine
 10
546.7477552042704
 20
361.1421496238511
 30
0.0
 11
544.9967552042703
 21
361.1421496238511
 31
0.0
  0
LINE
  5
32D
330
1F
100
AcDbEntity
  8
DRAW
  6
CONTINUOUS
 62
     7
100
AcDbLine
 10
546.8967552042703
 20
360.4421496238511
 30
0.0
 11
545.4717552042703
 21
360.4421496238511
 31
0.0
  0
ARC
  5
32E
330
1F
100
AcDbEntity
  8
DRAW
  6
CONTINUOUS
 62
     7
100
AcDbCircle
 10
546.2467552042703
 20
362.2421496238511
 30
0.0
 40
0.65
100
AcDbArc
 50
90.0
 51
320.2879999999991
  0
ARC
  5
32F
330
1F
100
AcDbEntity
  8
DRAW
  6
CONTINUOUS
 62
     7
100
AcDbCircle
 10
546.2467552042703
 20
362.2421496238511
 30
0.0
 40
0.65
100
AcDbArc
 50
39.71200000000089
 51
90.0
  0
LINE
  5
330
330
1F
100
AcDbEntity
  8
DRAW
  6
CONTINUOUS
 62
     7
100
AcDbLine
 10
548.7467552042703
 20
367.9421496238511
 30
0.0
 11
547.2467552042703
 21
367.9421496238511
 31
0.0
  0
LINE
  5
331
330
1F
100
AcDbEntity
  8
DRAW
  6
CONTINUOUS
 62
     7
100
AcDbLine
 10
548.7467552042703
 20
366.9421496238511
 30
0.0
 11
547.2467552042703
 21
366.9421496238511
 31
0.0
  0
LINE
  5
332
330
1F
100
AcDbEntity
  8
DRAW
  6
CONTINUOUS
 62
     7
100
AcDbLine
 10
547.2467552042703
 20
367.9421496238511
 30
0.0
 11
546.5467552042703
 21
367.9421496238511
 31
0.0
  0
LINE
  5
333
330
1F
100
AcDbEntity
  8
DRAW
  6
CONTINUOUS
 62
     7
100
AcDbLine
 10
546.5467552042703
 20
367.9421496238511
 30
0.0
 11
546.5467552042703
 21
366.9421496238511
 31
0.0
  0
LINE
  5
334
330
1F
100
AcDbEntity
  8
DRAW
  6
CONTINUOUS
 62
     7
100
AcDbLine
 10
546.5467552042703
 20
366.9421496238511
 30
0.0
 11
546.7467552042704
 21
366.9421496238511
 31
0.0
  0
LINE
  5
335
330
1F
100
AcDbEntity
  8
DRAW
  6
CONTINUOUS
 62
     7
100
AcDbLine
 10
546.7467552042704
 20
366.9421496238511
 30
0.0
 11
547.2467552042703
 21
366.9421496238511
 31
0.0
  0
POINT
  5
336
330
1F
100
AcDbEntity
  8
DRAW
  6
CONTINUOUS
 62
     7
100
AcDbPoint
 10
548.7467552042703
 20
366.9421496238511
 30
0.0
  0
LINE
  5
337
330
1F
100
AcDbEntity
  8
DRAW
  6
CONTINUOUS
 62
     7
100
AcDbLine
 10
548.7467552042703
 20
366.9421496238511
 30
0.0
 11
548.7467552042703
 21
367.9421496238511
 31
0.0
  0
LINE
  5
338
330
1F
100
AcDbEntity
  8
DRAW
  6
CONTINUOUS
 62
     7
100
AcDbLine
 10
545.3467552042703
 20
384.9421496238511
 30
0.0
 11
545.3467552042703
 21
386.142149623851
 31
0.0
  0
LINE
  5
339
330
1F
100
AcDbEntity
  8
DRAW
  6
CONTINUOUS
 62
     7
100
AcDbLine
 10
544.5467552042702
 20
384.9421496238511
 30
0.0
 11
544.5467552042702
 21
386.9421496238511
 31
0.0
  0
LINE
  5
33A
330
1F
100
AcDbEntity
  8
DRAW
  6
CONTINUOUS
 62
     7
100
AcDbLine
 10
544.5467552042702
 20
384.9421496238511
 30
0.0
 11
545.3467552042703
 21
384.9421496238511
 31
0.0
  0
LINE
  5
33B
330
1F
100
AcDbEntity
  8
DRAW
  6
CONTINUOUS
 62
     7
100
AcDbLine
 10
547.5467552042703
 20
386.9421496238511
 30
0.0
 11
544.5467552042702
 21
386.9421496238511
 31
0.0
  0
LINE
  5
33C
330
1F
100
AcDbEntity
  8
DRAW
  6
CONTINUOUS
 62
     7
100
AcDbLine
 10
547.5467552042703
 20
386.142149623851
 30
0.0
 11
547.5467552042703
 21
386.9421496238511
 31
0.0
  0
LINE
  5
33D
330
1F
100
AcDbEntity
  8
DRAW
  6
CONTINUOUS
 62
     7
100
AcDbLine
 10
545.3467552042703
 20
386.142149623851
 30
0.0
 11
547.5467552042703
 21
386.142149623851
 31
0.0
  0
LINE
  5
33E
330
1F
100
AcDbEntity
  8
DRAW
  6
CONTINUOUS
 62
     7
100
AcDbLine
 10
543.0467552042703
 20
390.142149623851
 30
0.0
 11
543.6467552042703
 21
390.142149623851
 31
0.0
  0
LINE
  5
33F
330
1F
100
AcDbEntity
  8
DRAW
  6
CONTINUOUS
 62
     7
100
AcDbLine
 10
542.0467552042703
 20
390.142149623851
 30
0.0
 11
543.0467552042703
 21
390.142149623851
 31
0.0
  0
LINE
  5
340
330
1F
100
AcDbEntity
  8
DRAW
  6
CONTINUOUS
 62
     7
100
AcDbLine
 10
543.0467552042703
 20
389.454149623851
 30
0.0
 11
543.0467552042703
 21
390.142149623851
 31
0.0
  0
LINE
  5
341
330
1F
100
AcDbEntity
  8
DRAW
  6
CONTINUOUS
 62
     7
100
AcDbLine
 10
543.6467552042703
 20
389.454149623851
 30
0.0
 11
543.6467552042703
 21
390.142149623851
 31
0.0
  0
LINE
  5
342
330
1F
100
AcDbEntity
  8
DRAW
  6
CONTINUOUS
 62
     7
100
AcDbLine
 10
543.6467552042703
 20
389.454149623851
 30
0.0
 11
543.0467552042703
 21
389.454149623851
 31
0.0
  0
LINE
  5
343
330
1F
100
AcDbEntity
  8
DRAW
  6
CONTINUOUS
 62
     7
100
AcDbLine
 10
542.0467552042703
 20
389.454149623851
 30
0.0
 11
542.0467552042703
 21
390.142149623851
 31
0.0
  0
LINE
  5
344
330
1F
100
AcDbEntity
  8
DRAW
  6
CONTINUOUS
 62
     7
100
AcDbLine
 10
543.6467552042703
 20
390.142149623851
 30
0.0
 11
543.6467552042703
 21
390.9421496238511
 31
0.0
  0
LINE
  5
345
330
1F
100
AcDbEntity
  8
DRAW
  6
CONTINUOUS
 62
     7
100
AcDbLine
 10
547.7717552042703
 20
397.0421496238511
 30
0.0
 11
547.7717552042703
 21
399.5421496238511
 31
0.0
  0
LINE
  5
346
330
1F
100
AcDbEntity
  8
DRAW
  6
CONTINUOUS
 62
     7
100
AcDbLine
 10
546.9717552042704
 20
397.0421496238511
 30
0.0
 11
546.9717552042704
 21
399.5421496238511
 31
0.0
  0
LINE
  5
347
330
1F
100
AcDbEntity
  8
DRAW
  6
CONTINUOUS
 62
     7
100
AcDbLine
 10
542.3397552042703
 20
397.0421496238511
 30
0.0
 11
542.3397552042703
 21
396.7921496238511
 31
0.0
  0
LINE
  5
348
330
1F
100
AcDbEntity
  8
DRAW
  6
CONTINUOUS
 62
     7
100
AcDbLine
 10
542.3397552042703
 20
397.0421496238511
 30
0.0
 11
546.9717552042704
 21
397.0421496238511
 31
0.0
  0
LINE
  5
349
330
1F
100
AcDbEntity
  8
DRAW
  6
CONTINUOUS
 62
     7
100
AcDbLine
 10
548.5217552042703
 20
397.0421496238511
 30
0.0
 11
548.5217552042703
 21
395.7421496238511
 31
0.0
  0
LINE
  5
34A
330
1F
100
AcDbEntity
  8
DRAW
  6
CONTINUOUS
 62
     7
100
AcDbLine
 10
547.7717552042703
 20
397.0421496238511
 30
0.0
 11
548.3217552042702
 21
397.0421496238511
 31
0.0
  0
LINE
  5
34B
330
1F
100
AcDbEntity
  8
DRAW
  6
CONTINUOUS
 62
     7
100
AcDbLine
 10
548.5217552042703
 20
395.7421496238511
 30
0.0
 11
548.3217552042702
 21
395.7421496238511
 31
0.0
  0
LINE
  5
34C
330
1F
100
AcDbEntity
  8
DRAW
  6
CONTINUOUS
 62
     7
100
AcDbLine
 10
548.3217552042702
 20
397.0421496238511
 30
0.0
 11
548.5217552042703
 21
397.0421496238511
 31
0.0
  0
LINE
  5
34D
330
1F
100
AcDbEntity
  8
DRAW
  6
CONTINUOUS
 62
     7
100
AcDbLine
 10
547.7717552042703
 20
399.5421496238511
 30
0.0
 11
547.7717552042703
 21
399.7421496238511
 31
0.0
  0
LINE
  5
34E
330
1F
100
AcDbEntity
  8
DRAW
  6
CONTINUOUS
 62
     7
100
AcDbLine
 10
546.9717552042704
 20
399.5421496238511
 30
0.0
 11
546.9717552042704
 21
399.7421496238511
 31
0.0
  0
LINE
  5
34F
330
1F
100
AcDbEntity
  8
DRAW
  6
CONTINUOUS
 62
     7
100
AcDbLine
 10
546.9717552042704
 20
399.7421496238511
 30
0.0
 11
547.7717552042703
 21
399.7421496238511
 31
0.0
  0
LINE
  5
350
330
1F
100
AcDbEntity
  8
DRAW
  6
CONTINUOUS
 62
     7
100
AcDbLine
 10
546.9717552042704
 20
399.7421496238511
 30
0.0
 11
544.5717552042703
 21
399.7421496238511
 31
0.0
  0
LINE
  5
403
330
1F
100
AcDbEntity
  8
DRAW
100
AcDbLine
 10
501.1177552042703
 20
397.0421496238511
 30
0.0
 11
491.9177552042703
 21
397.0421496238511
 31
0.0
  0
ENDSEC
  0
SECTION
  2
OBJECTS
  0
DICTIONARY
  5
C
330
0
100
AcDbDictionary
  3
ACAD_GROUP
350
D
  3
ACAD_LAYOUT
350
1A
  3
ACAD_MLINESTYLE
350
17
  3
ACAD_PLOTSETTINGS
350
19
  3
ACAD_PLOTSTYLENAME
350
E
  3
ACDBHEADERROUNDTRIPXREC
350
405
  3
ACDBVARIABLEDICTIONARY
350
5E
  0
DICTIONARY
  5
426
330
1F
100
AcDbDictionary
280
     1
  3
ACAD_LAYOUTSELFREF
360
427
  0
DICTIONARY
  5
428
330
50
100
AcDbDictionary
280
     1
  3
ACAD_LAYOUTSELFREF
360
429
  0
DICTIONARY
  5
D
102
{ACAD_REACTORS
330
C
102
}
330
C
100
AcDbDictionary
  0
DICTIONARY
  5
1A
102
{ACAD_REACTORS
330
C
102
}
330
C
100
AcDbDictionary
  0
DICTIONARY
  5
17
102
{ACAD_REACTORS
330
C
102
}
330
C
100
AcDbDictionary
  3
STANDARD
350
18
  0
DICTIONARY
  5
19
102
{ACAD_REACTORS
330
C
102
}
330
C
100
AcDbDictionary
  0
ACDBDICTIONARYWDFLT
  5
E
102
{ACAD_REACTORS
330
C
102
}
330
C
100
AcDbDictionary
281
     1
  3
Normal
350
F
100
AcDbDictionaryWithDefault
340
F
  0
DICTIONARY
  5
405
102
{ACAD_REACTORS
330
C
102
}
330
C
100
AcDbDictionary
  3
CEPSNTYPE
350
40F
  3
DIMSTYLEDATA
350
413
  3
FINGERPRINTGUID
350
410
  3
HYPERLINKBASE
350
408
  3
INSUNITS
350
40E
  3
LAYOUTDICT
350
40A
  3
LWETCUNION
350
40D
  3
PLOTSETDICT
350
40B
  3
PLOTSTYLNAMDICT
350
40C
  3
PSVPSCALE
350
412
  3
PUCSBASE
350
416
  3
PUCSORGBACK
350
41C
  3
PUCSORGBOTTOM
350
418
  3
PUCSORGFRONT
350
41B
  3
PUCSORGLEFT
350
419
  3
PUCSORGRIGHT
350
41A
  3
PUCSORGTOP
350
417
  3
PUCSORTHOREF
350
414
  3
PUCSORTHOVIEW
350
415
  3
STYLESHEET
350
409
  3
TSTACKALIGN
350
406
  3
TSTACKSIZE
350
407
  3
UCSBASE
350
41F
  3
UCSORGBACK
350
425
  3
UCSORGBOTTOM
350
421
  3
UCSORGFRONT
350
424
  3
UCSORGLEFT
350
422
  3
UCSORGRIGHT
350
423
  3
UCSORGTOP
350
420
  3
UCSORTHOREF
350
41D
  3
UCSORTHOVIEW
350
41E
  3
VERSIONGUID
350
411
  0
DICTIONARY
  5
5E
102
{ACAD_REACTORS
330
C
102
}
330
C
100
AcDbDictionary
  3
DIMASSOC
350
5F
  3
HIDETEXT
350
63
  0
XRECORD
  5
427
102
{ACAD_REACTORS
330
426
102
}
330
426
100
AcDbXrecord
340
1F
  0
XRECORD
  5
429
102
{ACAD_REACTORS
330
428
102
}
330
428
100
AcDbXrecord
340
50
  0
MLINESTYLE
  5
18
102
{ACAD_REACTORS
330
17
102
}
330
17
100
AcDbMlineStyle
  2
STANDARD
 70
     0
  3

 62
   256
 51
90.0
 52
90.0
 71
     2
 49
0.5
 62
   256
  6
BYLAYER
 49
-0.5
 62
   256
  6
BYLAYER
  0
ACDBPLACEHOLDER
  5
F
102
{ACAD_REACTORS
330
E
102
}
330
E
100
AcDbPlaceHolder
280
     0
  0
XRECORD
  5
40F
102
{ACAD_REACTORS
330
405
102
}
330
405
100
AcDbXrecord
 90
        0
  0
XRECORD
  5
413
102
{ACAD_REACTORS
330
405
102
}
330
405
100
AcDbXrecord
1000
DSTYLE
1002
{
1070
   278
 70
    44
1002
}
  0
XRECORD
  5
410
102
{ACAD_REACTORS
330
405
102
}
330
405
100
AcDbXrecord
  1
{FDEAD578-A652-11D2-9A35-0060089B3A3F}
  0
XRECORD
  5
408
102
{ACAD_REACTORS
330
405
102
}
330
405
100
AcDbXrecord
  1

  0
XRECORD
  5
40E
102
{ACAD_REACTORS
330
405
102
}
330
405
100
AcDbXrecord
 90
        4
  0
XRECORD
  5
40A
102
{ACAD_REACTORS
330
405
102
}
330
405
100
AcDbXrecord
340
1A
  0
XRECORD
  5
40D
102
{ACAD_REACTORS
330
405
102
}
330
405
100
AcDbXrecord
 90
    10781
  0
XRECORD
  5
40B
102
{ACAD_REACTORS
330
405
102
}
330
405
100
AcDbXrecord
340
19
  0
XRECORD
  5
40C
102
{ACAD_REACTORS
330
405
102
}
330
405
100
AcDbXrecord
340
E
  0
XRECORD
  5
412
102
{ACAD_REACTORS
330
405
102
}
330
405
100
AcDbXrecord
 40
0.0
  0
XRECORD
  5
416
102
{ACAD_REACTORS
330
405
102
}
330
405
100
AcDbXrecord
340
0
  0
XRECORD
  5
41C
102
{ACAD_REACTORS
330
405
102
}
330
405
100
AcDbXrecord
 10
0.0
 20
0.0
 30
0.0
  0
XRECORD
  5
418
102
{ACAD_REACTORS
330
405
102
}
330
405
100
AcDbXrecord
 10
0.0
 20
0.0
 30
0.0
  0
XRECORD
  5
41B
102
{ACAD_REACTORS
330
405
102
}
330
405
100
AcDbXrecord
 10
0.0
 20
0.0
 30
0.0
  0
XRECORD
  5
419
102
{ACAD_REACTORS
330
405
102
}
330
405
100
AcDbXrecord
 10
0.0
 20
0.0
 30
0.0
  0
XRECORD
  5
41A
102
{ACAD_REACTORS
330
405
102
}
330
405
100
AcDbXrecord
 10
0.0
 20
0.0
 30
0.0
  0
XRECORD
  5
417
102
{ACAD_REACTORS
330
405
102
}
330
405
100
AcDbXrecord
 10
0.0
 20
0.0
 30
0.0
  0
XRECORD
  5
414
102
{ACAD_REACTORS
330
405
102
}
330
405
100
AcDbXrecord
340
0
  0
XRECORD
  5
415
102
{ACAD_REACTORS
330
405
102
}
330
405
100
AcDbXrecord
 70
     0
  0
XRECORD
  5
409
102
{ACAD_REACTORS
330
405
102
}
330
405
100
AcDbXrecord
  1

  0
XRECORD
  5
406
102
{ACAD_REACTORS
330
405
102
}
330
405
100
AcDbXrecord
 90
        1
  0
XRECORD
  5
407
102
{ACAD_REACTORS
330
405
102
}
330
405
100
AcDbXrecord
 90
       70
  0
XRECORD
  5
41F
102
{ACAD_REACTORS
330
405
102
}
330
405
100
AcDbXrecord
340
0
  0
XRECORD
  5
425
102
{ACAD_REACTORS
330
405
102
}
330
405
100
AcDbXrecord
 10
0.0
 20
0.0
 30
0.0
  0
XRECORD
  5
421
102
{ACAD_REACTORS
330
405
102
}
330
405
100
AcDbXrecord
 10
0.0
 20
0.0
 30
0.0
  0
XRECORD
  5
424
102
{ACAD_REACTORS
330
405
102
}
330
405
100
AcDbXrecord
 10
0.0
 20
0.0
 30
0.0
  0
XRECORD
  5
422
102
{ACAD_REACTORS
330
405
102
}
330
405
100
AcDbXrecord
 10
0.0
 20
0.0
 30
0.0
  0
XRECORD
  5
423
102
{ACAD_REACTORS
330
405
102
}
330
405
100
AcDbXrecord
 10
0.0
 20
0.0
 30
0.0
  0
XRECORD
  5
420
102
{ACAD_REACTORS
330
405
102
}
330
405
100
AcDbXrecord
 10
0.0
 20
0.0
 30
0.0
  0
XRECORD
  5
41D
102
{ACAD_REACTORS
330
405
102
}
330
405
100
AcDbXrecord
340
0
  0
XRECORD
  5
41E
102
{ACAD_REACTORS
330
405
102
}
330
405
100
AcDbXrecord
 70
     0
  0
XRECORD
  5
411
102
{ACAD_REACTORS
330
405
102
}
330
405
100
AcDbXrecord
  1
{4D9D201E-A5CE-45F7-8517-DEE7A1E3082A}
  0
DICTIONARYVAR
  5
5F
102
{ACAD_REACTORS
330
5E
102
}
330
5E
100
DictionaryVariables
280
     0
  1
2
  0
DICTIONARYVAR
  5
63
102
{ACAD_REACTORS
330
5E
102
}
330
5E
100
DictionaryVariables
280
     0
  1
1
  0
ENDSEC
  0
EOF
